  0
SECTION
  2
HEADER
  9
$ACADVER
  1
AC1015
  9
$ACADMAINTVER
 70
     6
  9
$DWGCODEPAGE
  3
ANSI_1252
  9
$INSBASE
 10
0.0
 20
0.0
 30
0.0
  9
$EXTMIN
 10
1.000000000000000E+20
 20
1.000000000000000E+20
 30
1.000000000000000E+20
  9
$EXTMAX
 10
-1.000000000000000E+20
 20
-1.000000000000000E+20
 30
-1.000000000000000E+20
  9
$LIMMIN
 10
-170.0
 20
-170.0
  9
$LIMMAX
 10
519.0
 20
260.0
  9
$ORTHOMODE
 70
     0
  9
$REGENMODE
 70
     1
  9
$FILLMODE
 70
     1
  9
$QTEXTMODE
 70
     0
  9
$MIRRTEXT
 70
     0
  9
$LTSCALE
 40
1.0
  9
$ATTMODE
 70
     1
  9
$TEXTSIZE
 40
3.5
  9
$TRACEWID
 40
1.0
  9
$TEXTSTYLE
  7
SIMPLEX
  9
$CLAYER
  8
1
  9
$CELTYPE
  6
BYLAYER
  9
$CECOLOR
 62
   256
  9
$CELTSCALE
 40
1.0
  9
$DISPSILH
 70
     0
  9
$DIMSCALE
 40
1.0
  9
$DIMASZ
 40
2.5
  9
$DIMEXO
 40
0.0
  9
$DIMDLI
 40
3.75
  9
$DIMRND
 40
0.0
  9
$DIMDLE
 40
0.0
  9
$DIMEXE
 40
1.25
  9
$DIMTP
 40
0.0
  9
$DIMTM
 40
0.0
  9
$DIMTXT
 40
3.5
  9
$DIMCEN
 40
0.0
  9
$DIMTSZ
 40
0.0
  9
$DIMTOL
 70
     0
  9
$DIMLIM
 70
     0
  9
$DIMTIH
 70
     0
  9
$DIMTOH
 70
     0
  9
$DIMSE1
 70
     0
  9
$DIMSE2
 70
     0
  9
$DIMTAD
 70
     1
  9
$DIMZIN
 70
     8
  9
$DIMBLK
  1

  9
$DIMASO
 70
     1
  9
$DIMSHO
 70
     1
  9
$DIMPOST
  1

  9
$DIMAPOST
  1

  9
$DIMALT
 70
     0
  9
$DIMALTD
 70
     3
  9
$DIMALTF
 40
0.039370078
  9
$DIMLFAC
 40
1.0
  9
$DIMTOFL
 70
     0
  9
$DIMTVP
 40
0.0
  9
$DIMTIX
 70
     0
  9
$DIMSOXD
 70
     0
  9
$DIMSAH
 70
     0
  9
$DIMBLK1
  1

  9
$DIMBLK2
  1

  9
$DIMSTYLE
  2
STANDARD
  9
$DIMCLRD
 70
     0
  9
$DIMCLRE
 70
     0
  9
$DIMCLRT
 70
     0
  9
$DIMTFAC
 40
1.0
  9
$DIMGAP
 40
0.625
  9
$DIMJUST
 70
     0
  9
$DIMSD1
 70
     0
  9
$DIMSD2
 70
     0
  9
$DIMTOLJ
 70
     0
  9
$DIMTZIN
 70
     8
  9
$DIMALTZ
 70
     0
  9
$DIMALTTZ
 70
     0
  9
$DIMUPT
 70
     0
  9
$DIMDEC
 70
     2
  9
$DIMTDEC
 70
     2
  9
$DIMALTU
 70
     2
  9
$DIMALTTD
 70
     3
  9
$DIMTXSTY
  7
SIMPLEX
  9
$DIMAUNIT
 70
     0
  9
$DIMADEC
 70
     2
  9
$DIMALTRND
 40
0.0
  9
$DIMAZIN
 70
     2
  9
$DIMDSEP
 70
    46
  9
$DIMATFIT
 70
     3
  9
$DIMFRAC
 70
     0
  9
$DIMLDRBLK
  1

  9
$DIMLUNIT
 70
     2
  9
$DIMLWD
 70
    -2
  9
$DIMLWE
 70
    -2
  9
$DIMTMOVE
 70
     0
  9
$LUNITS
 70
     2
  9
$LUPREC
 70
     4
  9
$SKETCHINC
 40
1.0
  9
$FILLETRAD
 40
0.0
  9
$AUNITS
 70
     0
  9
$AUPREC
 70
     0
  9
$MENU
  1
c:\tdm21\cad\caduti13\tdm13
  9
$ELEVATION
 40
0.0
  9
$PELEVATION
 40
0.0
  9
$THICKNESS
 40
0.0
  9
$LIMCHECK
 70
     0
  9
$CHAMFERA
 40
0.0
  9
$CHAMFERB
 40
0.0
  9
$CHAMFERC
 40
0.0
  9
$CHAMFERD
 40
0.0
  9
$SKPOLY
 70
     0
  9
$TDCREATE
 40
2454957.593642639
  9
$TDUCREATE
 40
2454957.510309306
  9
$TDUPDATE
 40
2456861.38569316
  9
$TDUUPDATE
 40
2456861.302359826
  9
$TDINDWG
 40
0.0009643519
  9
$TDUSRTIMER
 40
0.0009475231
  9
$USRTIMER
 70
     1
  9
$ANGBASE
 50
0.0
  9
$ANGDIR
 70
     0
  9
$PDMODE
 70
     1
  9
$PDSIZE
 40
0.0
  9
$PLINEWID
 40
0.0
  9
$SPLFRAME
 70
     0
  9
$SPLINETYPE
 70
     6
  9
$SPLINESEGS
 70
     8
  9
$HANDSEED
  5
768
  9
$SURFTAB1
 70
     6
  9
$SURFTAB2
 70
     6
  9
$SURFTYPE
 70
     6
  9
$SURFU
 70
     6
  9
$SURFV
 70
     6
  9
$UCSBASE
  2

  9
$UCSNAME
  2

  9
$UCSORG
 10
0.0
 20
0.0
 30
0.0
  9
$UCSXDIR
 10
1.0
 20
0.0
 30
0.0
  9
$UCSYDIR
 10
0.0
 20
1.0
 30
0.0
  9
$UCSORTHOREF
  2

  9
$UCSORTHOVIEW
 70
     0
  9
$UCSORGTOP
 10
0.0
 20
0.0
 30
0.0
  9
$UCSORGBOTTOM
 10
0.0
 20
0.0
 30
0.0
  9
$UCSORGLEFT
 10
0.0
 20
0.0
 30
0.0
  9
$UCSORGRIGHT
 10
0.0
 20
0.0
 30
0.0
  9
$UCSORGFRONT
 10
0.0
 20
0.0
 30
0.0
  9
$UCSORGBACK
 10
0.0
 20
0.0
 30
0.0
  9
$PUCSBASE
  2

  9
$PUCSNAME
  2

  9
$PUCSORG
 10
0.0
 20
0.0
 30
0.0
  9
$PUCSXDIR
 10
1.0
 20
0.0
 30
0.0
  9
$PUCSYDIR
 10
0.0
 20
1.0
 30
0.0
  9
$PUCSORTHOREF
  2

  9
$PUCSORTHOVIEW
 70
     0
  9
$PUCSORGTOP
 10
0.0
 20
0.0
 30
0.0
  9
$PUCSORGBOTTOM
 10
0.0
 20
0.0
 30
0.0
  9
$PUCSORGLEFT
 10
0.0
 20
0.0
 30
0.0
  9
$PUCSORGRIGHT
 10
0.0
 20
0.0
 30
0.0
  9
$PUCSORGFRONT
 10
0.0
 20
0.0
 30
0.0
  9
$PUCSORGBACK
 10
0.0
 20
0.0
 30
0.0
  9
$USERI1
 70
     0
  9
$USERI2
 70
     0
  9
$USERI3
 70
     0
  9
$USERI4
 70
     0
  9
$USERI5
 70
     0
  9
$USERR1
 40
0.0
  9
$USERR2
 40
0.0
  9
$USERR3
 40
0.0
  9
$USERR4
 40
0.0
  9
$USERR5
 40
0.0
  9
$WORLDVIEW
 70
     1
  9
$SHADEDGE
 70
     3
  9
$SHADEDIF
 70
    70
  9
$TILEMODE
 70
     1
  9
$MAXACTVP
 70
    64
  9
$PINSBASE
 10
0.0
 20
0.0
 30
0.0
  9
$PLIMCHECK
 70
     0
  9
$PEXTMIN
 10
0.0
 20
0.0
 30
0.0
  9
$PEXTMAX
 10
0.0
 20
0.0
 30
0.0
  9
$PLIMMIN
 10
0.0
 20
0.0
  9
$PLIMMAX
 10
12.0
 20
9.0
  9
$UNITMODE
 70
     0
  9
$VISRETAIN
 70
     0
  9
$PLINEGEN
 70
     0
  9
$PSLTSCALE
 70
     1
  9
$TREEDEPTH
 70
  3020
  9
$CMLSTYLE
  2
STANDARD
  9
$CMLJUST
 70
     0
  9
$CMLSCALE
 40
20.0
  9
$PROXYGRAPHICS
 70
     1
  9
$MEASUREMENT
 70
     1
  9
$CELWEIGHT
370
    -1
  9
$ENDCAPS
280
     0
  9
$JOINSTYLE
280
     0
  9
$LWDISPLAY
290
     0
  9
$INSUNITS
 70
     4
  9
$HYPERLINKBASE
  1

  9
$STYLESHEET
  1
MONOCHROME.CTB
  9
$XEDIT
290
     1
  9
$CEPSNTYPE
380
     0
  9
$PSTYLEMODE
290
     1
  9
$FINGERPRINTGUID
  2
{46B44192-1510-48B1-B61B-CBE2ADA013A7}
  9
$VERSIONGUID
  2
{6160D478-9A74-4C97-9D8A-D4A65CE74B12}
  9
$EXTNAMES
290
     1
  9
$PSVPSCALE
 40
0.0
  9
$OLESTARTUP
290
     0
  0
ENDSEC
  0
SECTION
  2
CLASSES
  0
CLASS
  1
ACDBDICTIONARYWDFLT
  2
AcDbDictionaryWithDefault
  3
ObjectDBX Classes
 90
        0
280
     0
281
     0
  0
CLASS
  1
ACDBPLACEHOLDER
  2
AcDbPlaceHolder
  3
ObjectDBX Classes
 90
        0
280
     0
281
     0
  0
CLASS
  1
LAYOUT
  2
AcDbLayout
  3
ObjectDBX Classes
 90
        0
280
     0
281
     0
  0
CLASS
  1
DICTIONARYVAR
  2
AcDbDictionaryVar
  3
ObjectDBX Classes
 90
        0
280
     0
281
     0
  0
CLASS
  1
TABLESTYLE
  2
AcDbTableStyle
  3
ObjectDBX Classes
 90
     4095
280
     0
281
     0
  0
CLASS
  1
SCALE
  2
AcDbScale
  3
ObjectDBX Classes
 90
     1153
280
     0
281
     0
  0
CLASS
  1
MATERIAL
  2
AcDbMaterial
  3
ObjectDBX Classes
 90
     1153
280
     0
281
     0
  0
CLASS
  1
VISUALSTYLE
  2
AcDbVisualStyle
  3
ObjectDBX Classes
 90
     4095
280
     0
281
     0
  0
ENDSEC
  0
SECTION
  2
TABLES
  0
TABLE
  2
VPORT
  5
8
330
0
100
AcDbSymbolTable
 70
     1
  0
VPORT
  5
39A
330
8
100
AcDbSymbolTableRecord
100
AcDbViewportTableRecord
  2
*Active
 70
     0
 10
0.0
 20
0.0
 11
1.0
 21
1.0
 12
218.9201881351169
 22
109.7549380673833
 13
0.0
 23
0.0
 14
5.0
 24
5.0
 15
5.0
 25
5.0
 16
0.0
 26
0.0
 36
1.0
 17
0.0
 27
0.0
 37
0.0
 40
564.6711112651689
 41
1.066073697585768
 42
50.0
 43
0.0
 44
0.0
 50
0.0
 51
0.0
 71
     0
 72
  2000
 73
     1
 74
     1
 75
     0
 76
     0
 77
     0
 78
     0
281
     0
 65
     1
110
0.0
120
0.0
130
0.0
111
1.0
121
0.0
131
0.0
112
0.0
122
1.0
132
0.0
 79
     0
146
0.0
  0
ENDTAB
  0
TABLE
  2
LTYPE
  5
5
330
0
100
AcDbSymbolTable
 70
     3
  0
LTYPE
  5
12
330
5
100
AcDbSymbolTableRecord
100
AcDbLinetypeTableRecord
  2
BYBLOCK
 70
     0
  3

 72
    65
 73
     0
 40
0.0
  0
LTYPE
  5
13
330
5
100
AcDbSymbolTableRecord
100
AcDbLinetypeTableRecord
  2
BYLAYER
 70
     0
  3

 72
    65
 73
     0
 40
0.0
  0
LTYPE
  5
14
330
5
100
AcDbSymbolTableRecord
100
AcDbLinetypeTableRecord
  2
CONTINUOUS
 70
     0
  3
Solid line
 72
    65
 73
     0
 40
0.0
  0
LTYPE
  5
20
330
5
100
AcDbSymbolTableRecord
100
AcDbLinetypeTableRecord
  2
HIDDEN
 70
     0
  3
Hidden __ __ __ __ __ __ __ __ __ __ __ __ __ _
 72
    65
 73
     2
 40
9.524999999999997
 49
6.349999999999998
 74
     0
 49
-3.174999999999998
 74
     0
  0
LTYPE
  5
351
330
5
100
AcDbSymbolTableRecord
100
AcDbLinetypeTableRecord
  2
CENTER
 70
     0
  3
Dash dot __ . __ . __ . __ . __ . __ . __ . __
 72
    65
 73
     4
 40
25.4
 49
12.7
 74
     0
 49
-6.349999999999998
 74
     0
 49
0.0
 74
     0
 49
-6.349999999999998
 74
     0
  0
ENDTAB
  0
TABLE
  2
LAYER
  5
2
330
0
100
AcDbSymbolTable
 70
    16
  0
LAYER
  5
F
330
2
100
AcDbSymbolTableRecord
100
AcDbLayerTableRecord
  2
0
 70
     0
 62
     7
  6
CONTINUOUS
370
    -3
390
300
  0
LAYER
  5
23
330
2
100
AcDbSymbolTableRecord
100
AcDbLayerTableRecord
  2
1
 70
     0
 62
     4
  6
CONTINUOUS
370
    -3
390
300
  0
LAYER
  5
24
330
2
100
AcDbSymbolTableRecord
100
AcDbLayerTableRecord
  2
SK1
 70
     0
 62
     4
  6
CONTINUOUS
370
    -3
390
300
  0
LAYER
  5
25
330
2
100
AcDbSymbolTableRecord
100
AcDbLayerTableRecord
  2
2
 70
     0
 62
     7
  6
CONTINUOUS
370
    -3
390
300
  0
LAYER
  5
26
330
2
100
AcDbSymbolTableRecord
100
AcDbLayerTableRecord
  2
2L
 70
     0
 62
     7
  6
CONTINUOUS
370
    -3
390
300
  0
LAYER
  5
27
330
2
100
AcDbSymbolTableRecord
100
AcDbLayerTableRecord
  2
SK2
 70
     0
 62
     7
  6
CONTINUOUS
370
    -3
390
300
  0
LAYER
  5
28
330
2
100
AcDbSymbolTableRecord
100
AcDbLayerTableRecord
  2
3
 70
     0
 62
     1
  6
HIDDEN
370
    -3
390
300
  0
LAYER
  5
29
330
2
100
AcDbSymbolTableRecord
100
AcDbLayerTableRecord
  2
SK3
 70
     0
 62
     1
  6
HIDDEN
370
    -3
390
300
  0
LAYER
  5
2A
330
2
100
AcDbSymbolTableRecord
100
AcDbLayerTableRecord
  2
4
 70
     0
 62
     2
  6
CENTER
370
    -3
390
300
  0
LAYER
  5
2B
330
2
100
AcDbSymbolTableRecord
100
AcDbLayerTableRecord
  2
SK4
 70
     0
 62
     2
  6
CENTER
370
    -3
390
300
  0
LAYER
  5
2C
330
2
100
AcDbSymbolTableRecord
100
AcDbLayerTableRecord
  2
5
 70
     0
 62
    -7
  6
CONTINUOUS
370
    -3
390
300
  0
LAYER
  5
2D
330
2
100
AcDbSymbolTableRecord
100
AcDbLayerTableRecord
  2
6
 70
     0
 62
     5
  6
CONTINUOUS
370
    -3
390
300
  0
LAYER
  5
2E
330
2
100
AcDbSymbolTableRecord
100
AcDbLayerTableRecord
  2
SK6
 70
     0
 62
     5
  6
CONTINUOUS
370
    -3
390
300
  0
LAYER
  5
2F
330
2
100
AcDbSymbolTableRecord
100
AcDbLayerTableRecord
  2
DEFPOINTS
 70
     0
 62
     7
  6
CONTINUOUS
290
     0
370
    -3
390
300
  0
LAYER
  5
375
330
2
100
AcDbSymbolTableRecord
100
AcDbLayerTableRecord
  2
CUT
 70
     0
 62
     1
  6
CONTINUOUS
370
    -3
390
300
  0
LAYER
  5
376
330
2
100
AcDbSymbolTableRecord
100
AcDbLayerTableRecord
  2
NOCUT
 70
     0
 62
     7
  6
CONTINUOUS
370
    -3
390
300
  0
ENDTAB
  0
TABLE
  2
STYLE
  5
3
330
0
100
AcDbSymbolTable
 70
     4
  0
STYLE
  5
10
330
3
100
AcDbSymbolTableRecord
100
AcDbTextStyleTableRecord
  2
STANDARD
 70
     0
 40
0.0
 41
1.0
 50
0.0
 71
     0
 42
5.0
  3
txt
  4

  0
STYLE
  5
1D
330
3
100
AcDbSymbolTableRecord
100
AcDbTextStyleTableRecord
  2
TXT
 70
     0
 40
8.0
 41
1.0
 50
0.0
 71
     0
 42
8.0
  3
txt
  4

  0
STYLE
  5
1E
330
3
100
AcDbSymbolTableRecord
100
AcDbTextStyleTableRecord
  2
SIMPLEX
 70
     0
 40
0.0
 41
1.0
 50
0.0
 71
     0
 42
3.5
  3
simplex
  4

  0
STYLE
  5
34C
330
3
100
AcDbSymbolTableRecord
100
AcDbTextStyleTableRecord
  2

 70
     1
 40
0.0
 41
1.0
 50
0.0
 71
     0
 42
2.5
  3
ltypeshp.shx
  4

  0
ENDTAB
  0
TABLE
  2
VIEW
  5
6
330
0
100
AcDbSymbolTable
 70
     0
  0
ENDTAB
  0
TABLE
  2
UCS
  5
7
330
0
100
AcDbSymbolTable
 70
     0
  0
ENDTAB
  0
TABLE
  2
APPID
  5
9
330
0
100
AcDbSymbolTable
 70
     1
  0
APPID
  5
11
330
9
100
AcDbSymbolTableRecord
100
AcDbRegAppTableRecord
  2
ACAD
 70
     0
  0
ENDTAB
  0
TABLE
  2
DIMSTYLE
  5
A
330
0
100
AcDbSymbolTable
 70
     1
100
AcDbDimStyleTable
  0
DIMSTYLE
105
3F
102
{ACAD_REACTORS
330
6FC
330
709
330
716
330
723
330
730
102
}
330
A
100
AcDbSymbolTableRecord
100
AcDbDimStyleTableRecord
  2
STANDARD
 70
     0
 41
2.5
 42
0.0
 43
3.75
 44
1.25
 73
     0
 74
     0
 77
     1
 78
     8
 79
     2
140
3.5
141
0.0
143
0.039370078
147
0.625
171
     3
178
     0
179
     2
271
     2
272
     2
274
     3
283
     0
284
     8
340
1E
  0
ENDTAB
  0
TABLE
  2
BLOCK_RECORD
  5
1
330
0
100
AcDbSymbolTable
 70
     5
  0
BLOCK_RECORD
  5
18
330
1
100
AcDbSymbolTableRecord
100
AcDbBlockTableRecord
  2
*MODEL_SPACE
340
303
  0
BLOCK_RECORD
  5
338
330
1
100
AcDbSymbolTableRecord
100
AcDbBlockTableRecord
  2
*Paper_Space
340
33B
  0
BLOCK_RECORD
  5
6FD
330
1
100
AcDbSymbolTableRecord
100
AcDbBlockTableRecord
  2
*D0
340
0
  0
BLOCK_RECORD
  5
70A
330
1
100
AcDbSymbolTableRecord
100
AcDbBlockTableRecord
  2
*D1
340
0
  0
BLOCK_RECORD
  5
717
330
1
100
AcDbSymbolTableRecord
100
AcDbBlockTableRecord
  2
*D2
340
0
  0
BLOCK_RECORD
  5
724
330
1
100
AcDbSymbolTableRecord
100
AcDbBlockTableRecord
  2
*D3
340
0
  0
BLOCK_RECORD
  5
731
330
1
100
AcDbSymbolTableRecord
100
AcDbBlockTableRecord
  2
*D4
340
0
  0
ENDTAB
  0
ENDSEC
  0
SECTION
  2
BLOCKS
  0
BLOCK
  5
32
330
18
100
AcDbEntity
  8
0
100
AcDbBlockBegin
  2
*MODEL_SPACE
 70
     0
 10
0.0
 20
0.0
 30
0.0
  3
*MODEL_SPACE
  1

  0
ENDBLK
  5
33
330
18
100
AcDbEntity
  8
0
100
AcDbBlockEnd
  0
BLOCK
  5
339
330
338
100
AcDbEntity
 67
     1
  8
0
100
AcDbBlockBegin
  2
*Paper_Space
 70
     0
 10
0.0
 20
0.0
 30
0.0
  3
*Paper_Space
  1

  0
ENDBLK
  5
33A
330
338
100
AcDbEntity
 67
     1
  8
0
100
AcDbBlockEnd
  0
BLOCK
  5
6FE
330
6FD
100
AcDbEntity
  8
0
100
AcDbBlockBegin
  2
*D0
 70
     1
 10
0.0
 20
0.0
 30
0.0
  3
*D0
  1

  0
LINE
  5
700
330
6FD
100
AcDbEntity
  8
2
 62
     0
370
    -2
100
AcDbLine
 10
77.0
 20
13.2205
 30
0.0
 11
93.25000000000001
 21
13.22050000000006
 31
0.0
  0
LINE
  5
701
330
6FD
100
AcDbEntity
  8
2
 62
     0
370
    -2
100
AcDbLine
 10
77.0
 20
-13.2205
 30
0.0
 11
93.2500000000001
 21
-13.22049999999994
 31
0.0
  0
LINE
  5
702
330
6FD
100
AcDbEntity
  8
2
 62
     0
370
    -2
100
AcDbLine
 10
92.00000000000003
 20
10.72050000000005
 30
0.0
 11
92.00000000000009
 21
-10.72049999999995
 31
0.0
  0
SOLID
  5
703
330
6FD
100
AcDbEntity
  8
2
 62
     0
100
AcDbTrace
 10
92.4166666666667
 20
10.72050000000006
 30
0.0
 11
91.58333333333336
 21
10.72050000000005
 31
0.0
 12
92.00000000000001
 22
13.22050000000005
 32
0.0
 13
92.00000000000001
 23
13.22050000000005
 33
0.0
  0
SOLID
  5
704
330
6FD
100
AcDbEntity
  8
2
 62
     0
100
AcDbTrace
 10
91.58333333333341
 20
-10.72049999999995
 30
0.0
 11
92.41666666666676
 21
-10.72049999999994
 31
0.0
 12
92.0000000000001
 22
-13.22049999999995
 32
0.0
 13
92.0000000000001
 23
-13.22049999999995
 33
0.0
  0
MTEXT
  5
705
330
6FD
100
AcDbEntity
  8
2
 62
     0
100
AcDbMText
 10
88.80075000000005
 20
0.0000000000000439
 30
0.0
 40
3.5
 41
0.0
 71
     5
 72
     1
  1
G3/4-14
  7
SIMPLEX
 11
-3.224731602103249E-15
 21
1.0
 31
0.0
 73
     1
 44
1.0
  0
POINT
  5
706
330
6FD
100
AcDbEntity
  8
DEFPOINTS
 62
     0
100
AcDbPoint
 10
77.0
 20
13.2205
 30
0.0
  0
POINT
  5
707
330
6FD
100
AcDbEntity
  8
DEFPOINTS
 62
     0
100
AcDbPoint
 10
77.0
 20
-13.2205
 30
0.0
  0
POINT
  5
708
330
6FD
100
AcDbEntity
  8
DEFPOINTS
 62
     0
100
AcDbPoint
 10
92.0000000000001
 20
-13.22049999999995
 30
0.0
  0
ENDBLK
  5
6FF
330
6FD
100
AcDbEntity
  8
0
100
AcDbBlockEnd
  0
BLOCK
  5
70B
330
70A
100
AcDbEntity
  8
0
100
AcDbBlockBegin
  2
*D1
 70
     1
 10
0.0
 20
0.0
 30
0.0
  3
*D1
  1

  0
LINE
  5
70D
330
70A
100
AcDbEntity
  8
2
 62
     0
370
    -2
100
AcDbLine
 10
0.0
 20
0.0
 30
0.0
 11
0.0
 21
76.25
 31
0.0
  0
LINE
  5
70E
330
70A
100
AcDbEntity
  8
2
 62
     0
370
    -2
100
AcDbLine
 10
77.0
 20
0.0
 30
0.0
 11
77.0
 21
76.25
 31
0.0
  0
LINE
  5
70F
330
70A
100
AcDbEntity
  8
2
 62
     0
370
    -2
100
AcDbLine
 10
2.5
 20
75.0
 30
0.0
 11
74.5
 21
75.0
 31
0.0
  0
SOLID
  5
710
330
70A
100
AcDbEntity
  8
2
 62
     0
100
AcDbTrace
 10
2.5
 20
75.41666666666667
 30
0.0
 11
2.5
 21
74.58333333333333
 31
0.0
 12
0.0
 22
75.0
 32
0.0
 13
0.0
 23
75.0
 33
0.0
  0
SOLID
  5
711
330
70A
100
AcDbEntity
  8
2
 62
     0
100
AcDbTrace
 10
74.5
 20
74.58333333333333
 30
0.0
 11
74.5
 21
75.41666666666667
 31
0.0
 12
77.0
 22
75.0
 32
0.0
 13
77.0
 23
75.0
 33
0.0
  0
MTEXT
  5
712
330
70A
100
AcDbEntity
  8
2
 62
     0
100
AcDbMText
 10
38.5
 20
77.38025
 30
0.0
 40
3.5
 41
0.0
 71
     5
 72
     1
  1
77
  7
SIMPLEX
 73
     1
 44
1.0
  0
POINT
  5
713
330
70A
100
AcDbEntity
  8
DEFPOINTS
 62
     0
100
AcDbPoint
 10
0.0
 20
0.0
 30
0.0
  0
POINT
  5
714
330
70A
100
AcDbEntity
  8
DEFPOINTS
 62
     0
100
AcDbPoint
 10
77.0
 20
0.0
 30
0.0
  0
POINT
  5
715
330
70A
100
AcDbEntity
  8
DEFPOINTS
 62
     0
100
AcDbPoint
 10
77.0
 20
75.0
 30
0.0
  0
ENDBLK
  5
70C
330
70A
100
AcDbEntity
  8
0
100
AcDbBlockEnd
  0
BLOCK
  5
718
330
717
100
AcDbEntity
  8
0
100
AcDbBlockBegin
  2
*D2
 70
     1
 10
0.0
 20
0.0
 30
0.0
  3
*D2
  1

  0
LINE
  5
71A
330
717
100
AcDbEntity
  8
SK2
 62
     0
370
    -2
100
AcDbLine
 10
-44.0
 20
10.0
 30
0.0
 11
-79.25000000005103
 21
9.999999999820105
 31
0.0
  0
LINE
  5
71B
330
717
100
AcDbEntity
  8
SK2
 62
     0
370
    -2
100
AcDbLine
 10
-44.0
 20
-10.0
 30
0.0
 11
-79.24999999994897
 21
-10.0000000001799
 31
0.0
  0
LINE
  5
71C
330
717
100
AcDbEntity
  8
SK2
 62
     0
370
    -2
100
AcDbLine
 10
-78.00000000003827
 20
7.499999999826484
 30
0.0
 11
-77.99999999996173
 21
-7.500000000173516
 31
0.0
  0
SOLID
  5
71D
330
717
100
AcDbEntity
  8
SK2
 62
     0
100
AcDbTrace
 10
-77.5833333333716
 20
7.49999999982861
 30
0.0
 11
-78.41666666670494
 21
7.499999999824357
 31
0.0
 12
-78.00000000005103
 22
9.999999999826484
 32
0.0
 13
-78.00000000005103
 23
9.999999999826484
 33
0.0
  0
SOLID
  5
71E
330
717
100
AcDbEntity
  8
SK2
 62
     0
100
AcDbTrace
 10
-78.4166666666284
 20
-7.500000000175643
 30
0.0
 11
-77.58333333329506
 21
-7.50000000017139
 31
0.0
 12
-77.99999999994897
 22
-10.00000000017352
 32
0.0
 13
-77.99999999994897
 23
-10.00000000017352
 33
0.0
  0
MTEXT
  5
71F
330
717
100
AcDbEntity
  8
SK2
 62
     0
100
AcDbMText
 10
-80.39075
 20
-0.0000000001857166
 30
0.0
 40
3.5
 41
0.0
 71
     5
 72
     1
  1
%%c20
  7
SIMPLEX
 11
-5.103117928229040E-12
 21
1.0
 31
0.0
 73
     1
 44
1.0
  0
POINT
  5
720
330
717
100
AcDbEntity
  8
DEFPOINTS
 62
     0
100
AcDbPoint
 10
-44.0
 20
10.0
 30
0.0
  0
POINT
  5
721
330
717
100
AcDbEntity
  8
DEFPOINTS
 62
     0
100
AcDbPoint
 10
-44.0
 20
-10.0
 30
0.0
  0
POINT
  5
722
330
717
100
AcDbEntity
  8
DEFPOINTS
 62
     0
100
AcDbPoint
 10
-77.99999999994897
 20
-10.00000000017352
 30
0.0
  0
ENDBLK
  5
719
330
717
100
AcDbEntity
  8
0
100
AcDbBlockEnd
  0
BLOCK
  5
725
330
724
100
AcDbEntity
  8
0
100
AcDbBlockBegin
  2
*D3
 70
     1
 10
0.0
 20
0.0
 30
0.0
  3
*D3
  1

  0
LINE
  5
727
330
724
100
AcDbEntity
  8
2
 62
     0
370
    -2
100
AcDbLine
 10
47.03960716
 20
9.825
 30
0.0
 11
47.03960716
 21
61.25
 31
0.0
  0
LINE
  5
728
330
724
100
AcDbEntity
  8
2
 62
     0
370
    -2
100
AcDbLine
 10
77.0
 20
13.2205
 30
0.0
 11
77.0
 21
61.25
 31
0.0
  0
LINE
  5
729
330
724
100
AcDbEntity
  8
2
 62
     0
370
    -2
100
AcDbLine
 10
49.53960716
 20
60.0
 30
0.0
 11
74.5
 21
60.0
 31
0.0
  0
SOLID
  5
72A
330
724
100
AcDbEntity
  8
2
 62
     0
100
AcDbTrace
 10
49.53960716
 20
60.41666666666666
 30
0.0
 11
49.53960716
 21
59.58333333333334
 31
0.0
 12
47.03960716
 22
60.0
 32
0.0
 13
47.03960716
 23
60.0
 33
0.0
  0
SOLID
  5
72B
330
724
100
AcDbEntity
  8
2
 62
     0
100
AcDbTrace
 10
74.5
 20
59.58333333333334
 30
0.0
 11
74.5
 21
60.41666666666666
 31
0.0
 12
77.0
 22
60.0
 32
0.0
 13
77.0
 23
60.0
 33
0.0
  0
MTEXT
  5
72C
330
724
100
AcDbEntity
  8
2
 62
     0
100
AcDbMText
 10
62.01980358
 20
62.39775
 30
0.0
 40
3.5
 41
0.0
 71
     5
 72
     1
  1
29.96
  7
SIMPLEX
 73
     1
 44
1.0
  0
POINT
  5
72D
330
724
100
AcDbEntity
  8
DEFPOINTS
 62
     0
100
AcDbPoint
 10
47.03960716
 20
9.825
 30
0.0
  0
POINT
  5
72E
330
724
100
AcDbEntity
  8
DEFPOINTS
 62
     0
100
AcDbPoint
 10
77.0
 20
13.2205
 30
0.0
  0
POINT
  5
72F
330
724
100
AcDbEntity
  8
DEFPOINTS
 62
     0
100
AcDbPoint
 10
77.0
 20
60.0
 30
0.0
  0
ENDBLK
  5
726
330
724
100
AcDbEntity
  8
0
100
AcDbBlockEnd
  0
BLOCK
  5
732
330
731
100
AcDbEntity
  8
0
100
AcDbBlockBegin
  2
*D4
 70
     1
 10
0.0
 20
0.0
 30
0.0
  3
*D4
  1

  0
LINE
  5
734
330
731
100
AcDbEntity
  8
SK2
 62
     0
370
    -2
100
AcDbLine
 10
-63.0
 20
13.2205
 30
0.0
 11
-63.0
 21
91.25
 31
0.0
  0
LINE
  5
735
330
731
100
AcDbEntity
  8
SK2
 62
     0
370
    -2
100
AcDbLine
 10
77.0
 20
13.2205
 30
0.0
 11
77.0
 21
91.25
 31
0.0
  0
LINE
  5
736
330
731
100
AcDbEntity
  8
SK2
 62
     0
370
    -2
100
AcDbLine
 10
-60.5
 20
90.0
 30
0.0
 11
74.5
 21
90.0
 31
0.0
  0
SOLID
  5
737
330
731
100
AcDbEntity
  8
SK2
 62
     0
100
AcDbTrace
 10
-60.5
 20
90.41666666666667
 30
0.0
 11
-60.5
 21
89.58333333333333
 31
0.0
 12
-63.0
 22
90.0
 32
0.0
 13
-63.0
 23
90.0
 33
0.0
  0
SOLID
  5
738
330
731
100
AcDbEntity
  8
SK2
 62
     0
100
AcDbTrace
 10
74.5
 20
89.58333333333333
 30
0.0
 11
74.5
 21
90.41666666666667
 31
0.0
 12
77.0
 22
90.0
 32
0.0
 13
77.0
 23
90.0
 33
0.0
  0
MTEXT
  5
739
330
731
100
AcDbEntity
  8
SK2
 62
     0
100
AcDbMText
 10
7.0
 20
92.431
 30
0.0
 40
3.5
 41
0.0
 71
     5
 72
     1
  1
140
  7
SIMPLEX
 73
     1
 44
1.0
  0
POINT
  5
73A
330
731
100
AcDbEntity
  8
DEFPOINTS
 62
     0
100
AcDbPoint
 10
-63.0
 20
13.2205
 30
0.0
  0
POINT
  5
73B
330
731
100
AcDbEntity
  8
DEFPOINTS
 62
     0
100
AcDbPoint
 10
77.0
 20
13.2205
 30
0.0
  0
POINT
  5
73C
330
731
100
AcDbEntity
  8
DEFPOINTS
 62
     0
100
AcDbPoint
 10
77.0
 20
90.0
 30
0.0
  0
ENDBLK
  5
733
330
731
100
AcDbEntity
  8
0
100
AcDbBlockEnd
  0
ENDSEC
  0
SECTION
  2
ENTITIES
  0
LINE
  5
3D6
330
18
100
AcDbEntity
  8
SK4
100
AcDbLine
 10
-65.0
 20
0.0
 30
0.0
 11
19.0
 21
0.0
 31
0.0
  0
LINE
  5
3D7
330
18
100
AcDbEntity
  8
4
100
AcDbLine
 10
17.0
 20
0.0
 30
0.0
 11
79.0
 21
0.0
 31
0.0
  0
LINE
  5
3D8
330
18
100
AcDbEntity
  8
SK4
100
AcDbLine
 10
17.0
 20
0.0
 30
0.0
 11
79.0
 21
0.0
 31
0.0
  0
LINE
  5
3D9
330
18
100
AcDbEntity
  8
1
100
AcDbLine
 10
13.0
 20
-9.41731801636959
 30
0.0
 11
19.0
 21
-9.41731801636959
 31
0.0
  0
LINE
  5
3DA
330
18
100
AcDbEntity
  8
1
100
AcDbLine
 10
19.0
 20
10.0
 30
0.0
 11
-0.0000000000000036
 21
10.0
 31
0.0
  0
LINE
  5
3DB
330
18
100
AcDbEntity
  8
1
100
AcDbLine
 10
13.0
 20
-5.818019472352365
 30
0.0
 11
13.0
 21
-9.417318016369586
 31
0.0
  0
LINE
  5
3DC
330
18
100
AcDbEntity
  8
1
100
AcDbLine
 10
13.0
 20
-5.818019472352368
 30
0.0
 11
19.0
 21
-5.818019472352375
 31
0.0
  0
LINE
  5
3DD
330
18
100
AcDbEntity
  8
1
100
AcDbLine
 10
47.03960716
 20
7.608183073646537
 30
0.0
 11
19.0
 21
7.608183073646537
 31
0.0
  0
LINE
  5
3DE
330
18
100
AcDbEntity
  8
1
100
AcDbLine
 10
47.03960716000002
 20
4.097551781336657
 30
0.0
 11
19.0
 21
4.097551781336659
 31
0.0
  0
LINE
  5
3DF
330
18
100
AcDbEntity
  8
1
100
AcDbLine
 10
19.0
 20
-1.795655226189213
 30
0.0
 11
19.0
 21
-5.818019472352373
 31
0.0
  0
LINE
  5
3E0
330
18
100
AcDbEntity
  8
1
100
AcDbLine
 10
13.0
 20
4.134638967762455
 30
0.0
 11
13.0
 21
-1.795655226189209
 31
0.0
  0
LINE
  5
3E1
330
18
100
AcDbEntity
  8
1
100
AcDbLine
 10
19.0
 20
4.129577842772882
 30
0.0
 11
19.0
 21
4.134638967762456
 31
0.0
  0
LINE
  5
3E2
330
18
100
AcDbEntity
  8
1
100
AcDbLine
 10
13.0
 20
4.134638967762456
 30
0.0
 11
19.0
 21
4.134638967762456
 31
0.0
  0
LINE
  5
3E3
330
18
100
AcDbEntity
  8
1
100
AcDbLine
 10
19.0
 20
7.621662790180372
 30
0.0
 11
19.0
 21
4.134638967762475
 31
0.0
  0
LINE
  5
3E4
330
18
100
AcDbEntity
  8
1
100
AcDbLine
 10
19.00000000000001
 20
4.12957784277288
 30
0.0
 11
19.00000000000001
 21
4.097551781336657
 31
0.0
  0
LINE
  5
3E5
330
18
100
AcDbEntity
  8
1
100
AcDbLine
 10
19.0
 20
9.825
 30
0.0
 11
47.03960716
 21
9.825
 31
0.0
  0
LINE
  5
3E6
330
18
100
AcDbEntity
  8
1
100
AcDbLine
 10
13.0
 20
9.952658440114828
 30
0.0
 11
13.00000000000001
 21
7.621662790180384
 31
0.0
  0
LINE
  5
3E7
330
18
100
AcDbEntity
  8
1
100
AcDbLine
 10
19.0
 20
9.92527029317613
 30
0.0
 11
19.0
 21
9.952658440114826
 31
0.0
  0
LINE
  5
3E8
330
18
100
AcDbEntity
  8
1
100
AcDbLine
 10
13.0
 20
9.952658440114828
 30
0.0
 11
19.0
 21
9.952658440114824
 31
0.0
  0
LINE
  5
3E9
330
18
100
AcDbEntity
  8
1
100
AcDbLine
 10
19.0
 20
10.0
 30
0.0
 11
19.0
 21
9.999988861429697
 31
0.0
  0
LINE
  5
3EA
330
18
100
AcDbEntity
  8
1
100
AcDbLine
 10
19.0
 20
9.999988861429697
 30
0.0
 11
19.0
 21
9.996749399899192
 31
0.0
  0
LINE
  5
3EB
330
18
100
AcDbEntity
  8
1
100
AcDbLine
 10
19.0
 20
9.996749399899192
 30
0.0
 11
19.0
 21
9.952658440114826
 31
0.0
  0
LINE
  5
3EC
330
18
100
AcDbEntity
  8
1
100
AcDbLine
 10
19.00000000000001
 20
9.925270293176133
 30
0.0
 11
19.00000000000001
 21
9.782178815606908
 31
0.0
  0
LINE
  5
3ED
330
18
100
AcDbEntity
  8
1
100
AcDbLine
 10
19.0
 20
-9.41731801636959
 30
0.0
 11
19.0
 21
-10.0
 31
0.0
  0
LINE
  5
3EE
330
18
100
AcDbEntity
  8
1
100
AcDbLine
 10
47.03960716
 20
-9.187829224379076
 30
0.0
 11
19.0
 21
-9.187829224379076
 31
0.0
  0
LINE
  5
3EF
330
18
100
AcDbEntity
  8
1
100
AcDbLine
 10
19.0
 20
-9.417318016369592
 30
0.0
 11
19.0
 21
-9.187829224379074
 31
0.0
  0
LINE
  5
3F0
330
18
100
AcDbEntity
  8
1
100
AcDbLine
 10
47.03960716
 20
-5.684627034270248
 30
0.0
 11
19.0
 21
-5.684627034270247
 31
0.0
  0
LINE
  5
3F1
330
18
100
AcDbEntity
  8
1
100
AcDbLine
 10
13.0
 20
-1.795655226189215
 30
0.0
 11
19.0
 21
-1.795655226189214
 31
0.0
  0
LINE
  5
3F2
330
18
100
AcDbEntity
  8
1
100
AcDbLine
 10
19.0
 20
-1.795655226189212
 30
0.0
 11
19.0
 21
-1.579646150732542
 31
0.0
  0
LINE
  5
3F3
330
18
100
AcDbEntity
  8
1
100
AcDbLine
 10
47.03960716
 20
-1.579646150732543
 30
0.0
 11
19.0
 21
-1.579646150732543
 31
0.0
  0
LINE
  5
3F4
330
18
100
AcDbEntity
  8
1
100
AcDbLine
 10
13.0
 20
7.621662790180379
 30
0.0
 11
19.0
 21
7.621662790180375
 31
0.0
  0
LINE
  5
3F5
330
18
100
AcDbEntity
  8
1
100
AcDbLine
 10
47.03960716
 20
9.78217881560691
 30
0.0
 11
18.99999999999999
 21
9.782178815606908
 31
0.0
  0
LINE
  5
3F6
330
18
100
AcDbEntity
  8
1
100
AcDbLine
 10
47.03960716
 20
9.825
 30
0.0
 11
47.03960716
 21
9.824989910938106
 31
0.0
  0
LINE
  5
3F7
330
18
100
AcDbEntity
  8
1
100
AcDbLine
 10
47.03960716
 20
9.824989910938106
 30
0.0
 11
47.03960716000001
 21
9.822056809162412
 31
0.0
  0
LINE
  5
3F8
330
18
100
AcDbEntity
  8
1
100
AcDbLine
 10
47.03960716000001
 20
9.822056809162412
 30
0.0
 11
47.03960716
 21
9.782178815606908
 31
0.0
  0
LINE
  5
3F9
330
18
100
AcDbEntity
  8
1
100
AcDbLine
 10
47.03960716000001
 20
9.782178815606908
 30
0.0
 11
47.03960716000001
 21
7.60818307364654
 31
0.0
  0
LINE
  5
3FA
330
18
100
AcDbEntity
  8
1
100
AcDbLine
 10
47.03960716
 20
7.60818307364654
 30
0.0
 11
47.03960716
 21
4.097551781336669
 31
0.0
  0
LINE
  5
3FB
330
18
100
AcDbEntity
  8
1
100
AcDbLine
 10
47.03960716
 20
4.097551781336657
 30
0.0
 11
47.03960716
 21
1.282431180975689
 31
0.0
  0
LINE
  5
3FC
330
18
100
AcDbEntity
  8
1
100
AcDbLine
 10
47.03960716
 20
1.282431180975664
 30
0.0
 11
47.03960716
 21
-1.579646150732546
 31
0.0
  0
LINE
  5
3FD
330
18
100
AcDbEntity
  8
1
100
AcDbLine
 10
47.03960716000001
 20
-1.579646150732544
 30
0.0
 11
47.03960716
 21
-5.684627034270248
 31
0.0
  0
LINE
  5
3FE
330
18
100
AcDbEntity
  8
1
100
AcDbLine
 10
47.03960716
 20
-6.14714832683552
 30
0.0
 11
47.03960716
 21
-9.187829224379081
 31
0.0
  0
LINE
  5
3FF
330
18
100
AcDbEntity
  8
1
100
AcDbLine
 10
47.03960716
 20
-9.187829224379074
 30
0.0
 11
47.03960716
 21
-9.825
 31
0.0
  0
LINE
  5
400
330
18
100
AcDbEntity
  8
1
100
AcDbLine
 10
-0.0000000000000018
 20
-10.0
 30
0.0
 11
19.0
 21
-10.0
 31
0.0
  0
LINE
  5
401
330
18
100
AcDbEntity
  8
1
100
AcDbLine
 10
19.0
 20
-9.825
 30
0.0
 11
47.03960716
 21
-9.825
 31
0.0
  0
LINE
  5
402
330
18
100
AcDbEntity
  8
1
100
AcDbLine
 10
47.03960716000001
 20
-5.684627034270248
 30
0.0
 11
47.03960716
 21
-6.147148326835479
 31
0.0
  0
LINE
  5
403
330
18
100
AcDbEntity
  8
1
 62
     1
100
AcDbLine
 10
49.0
 20
13.2205
 30
0.0
 11
49.03122868442433
 21
13.2205
 31
0.0
  0
LINE
  5
404
330
18
100
AcDbEntity
  8
1
 62
     1
100
AcDbLine
 10
50.54019988700426
 20
13.2205
 30
0.0
 11
50.84551439871005
 21
13.2205
 31
0.0
  0
LINE
  5
405
330
18
100
AcDbEntity
  8
1
 62
     1
100
AcDbLine
 10
52.35448560128999
 20
13.2205
 30
0.0
 11
52.65980011299576
 21
13.2205
 31
0.0
  0
LINE
  5
406
330
18
100
AcDbEntity
  8
1
 62
     1
100
AcDbLine
 10
57.79734274414713
 20
13.2205
 30
0.0
 11
58.1026572558529
 21
13.2205
 31
0.0
  0
LINE
  5
407
330
18
100
AcDbEntity
  8
1
 62
     1
100
AcDbLine
 10
59.61162845843283
 20
13.2205
 30
0.0
 11
59.91694297013861
 21
13.2205
 31
0.0
  0
LINE
  5
408
330
18
100
AcDbEntity
  8
1
 62
     1
100
AcDbLine
 10
61.42591417271855
 20
13.2205
 30
0.0
 11
61.73122868442434
 21
13.2205
 31
0.0
  0
LINE
  5
409
330
18
100
AcDbEntity
  8
1
 62
     1
100
AcDbLine
 10
70.49734274414715
 20
13.2205
 30
0.0
 11
70.8026572558529
 21
13.2205
 31
0.0
  0
LINE
  5
40A
330
18
100
AcDbEntity
  8
1
 62
     1
100
AcDbLine
 10
77.0
 20
-11.91369321428571
 30
0.0
 11
76.75508945282046
 21
-12.33789052752804
 31
0.0
  0
LINE
  5
40B
330
18
100
AcDbEntity
  8
1
 62
     1
100
AcDbLine
 10
75.1857142857143
 20
-11.91369321428571
 30
0.0
 11
74.62500179356869
 21
-12.88487528630652
 31
0.0
  0
LINE
  5
40C
330
18
100
AcDbEntity
  8
1
 62
     1
100
AcDbLine
 10
73.37142857142858
 20
-11.91369321428571
 30
0.0
 11
72.61694297013861
 21
-13.22050000000001
 31
0.0
  0
LINE
  5
40D
330
18
100
AcDbEntity
  8
1
 62
     1
100
AcDbLine
 10
49.78571428571429
 20
-11.91369321428571
 30
0.0
 11
49.03122868442433
 21
-13.22049999999999
 31
0.0
  0
LINE
  5
40E
330
18
100
AcDbEntity
  8
1
 62
     1
100
AcDbLine
 10
54.1687713155757
 20
-13.22050000000002
 30
0.0
 11
53.41428571428572
 21
-11.91369321428571
 31
0.0
  0
LINE
  5
40F
330
18
100
AcDbEntity
  8
1
 62
     1
100
AcDbLine
 10
55.9830570298614
 20
-13.2205
 30
0.0
 11
55.22857142857143
 21
-11.91369321428571
 31
0.0
  0
LINE
  5
410
330
18
100
AcDbEntity
  8
1
 62
     1
100
AcDbLine
 10
57.79734274414712
 20
-13.22050000000002
 30
0.0
 11
57.04285714285714
 21
-11.91369321428571
 31
0.0
  0
LINE
  5
411
330
18
100
AcDbEntity
  8
1
 62
     1
100
AcDbLine
 10
58.85714285714286
 20
-11.91369321428571
 30
0.0
 11
58.1026572558529
 21
-13.22049999999999
 31
0.0
  0
LINE
  5
412
330
18
100
AcDbEntity
  8
1
 62
     1
100
AcDbLine
 10
61.42591417271855
 20
-13.22050000000001
 30
0.0
 11
60.67142857142858
 21
-11.91369321428571
 31
0.0
  0
LINE
  5
413
330
18
100
AcDbEntity
  8
1
 62
     1
100
AcDbLine
 10
62.48571428571429
 20
-11.91369321428571
 30
0.0
 11
61.73122868442433
 21
-13.22049999999999
 31
0.0
  0
LINE
  5
414
330
18
100
AcDbEntity
  8
1
 62
     1
100
AcDbLine
 10
67.92857142857143
 20
-11.91369321428571
 30
0.0
 11
67.1740858272815
 21
-13.22049999999993
 31
0.0
  0
LINE
  5
415
330
18
100
AcDbEntity
  8
1
 62
     1
100
AcDbLine
 10
68.6830570298614
 20
-13.22050000000001
 30
0.0
 11
67.92857142857143
 21
-11.91369321428571
 31
0.0
  0
LINE
  5
416
330
18
100
AcDbEntity
  8
1
 62
     1
100
AcDbLine
 10
72.31162845843284
 20
-13.22050000000001
 30
0.0
 11
71.55714285714286
 21
-11.91369321428571
 31
0.0
  0
LINE
  5
417
330
18
100
AcDbEntity
  8
1
 62
     1
100
AcDbLine
 10
76.75508945282044
 20
-4.397966572884644
 30
0.0
 11
75.60163357437193
 21
-4.703580270719889
 31
0.0
  0
LINE
  5
418
330
18
100
AcDbEntity
  8
1
 62
     1
100
AcDbLine
 10
76.75508945282044
 20
-7.655773896094605
 30
0.0
 11
75.60163357437192
 21
-7.887327501167937
 31
0.0
  0
LINE
  5
419
330
18
100
AcDbEntity
  8
1
 62
     1
100
AcDbLine
 10
76.75508945282044
 20
-4.397966572884648
 30
0.0
 11
76.75508945282046
 21
-7.655773896094606
 31
0.0
  0
LINE
  5
41A
330
18
100
AcDbEntity
  8
1
 62
     1
100
AcDbLine
 10
74.62500179356869
 20
-4.959566463847199
 30
0.0
 11
74.02160003414488
 21
-5.116552728696155
 31
0.0
  0
LINE
  5
41B
330
18
100
AcDbEntity
  8
1
 62
     1
100
AcDbLine
 10
74.62500179356864
 20
-8.083211810850656
 30
0.0
 11
74.02160003414488
 21
-8.20416235491632
 31
0.0
  0
ARC
  5
41C
330
18
100
AcDbEntity
  8
1
 62
     1
100
AcDbCircle
 10
137.0223728670182
 20
20.99234740870387
 30
0.0
 40
71.56020504476636
100
AcDbArc
 50
207.1927530447043
 51
208.3108405327699
  0
LINE
  5
41D
330
18
100
AcDbEntity
  8
1
 62
     1
100
AcDbLine
 10
74.02160003414488
 20
-13.03982269628348
 30
0.0
 11
73.37142857142858
 21
-11.91369321428571
 31
0.0
  0
LINE
  5
41E
330
18
100
AcDbEntity
  8
1
 62
     1
100
AcDbLine
 10
74.02160003414488
 20
-12.94545105690703
 30
0.0
 11
74.02160003414488
 21
-13.03982269628355
 31
0.0
  0
ARC
  5
41F
330
18
100
AcDbEntity
  8
1
 62
     1
100
AcDbCircle
 10
11.0146547097885
 20
21.26968841860394
 30
0.0
 40
72.14960652167017
100
AcDbArc
 50
331.841440480703
 51
332.8000977930795
  0
LINE
  5
420
330
18
100
AcDbEntity
  8
1
 62
     1
100
AcDbLine
 10
74.62500179356867
 20
-12.77866830389945
 30
0.0
 11
74.62500179356869
 21
-12.88487528630657
 31
0.0
  0
ARC
  5
421
330
18
100
AcDbEntity
  8
1
 62
     1
100
AcDbCircle
 10
135.8715344210513
 20
19.45080876856323
 30
0.0
 40
68.21833640599372
100
AcDbArc
 50
207.1791970046521
 51
207.9343271958189
  0
LINE
  5
422
330
18
100
AcDbEntity
  8
1
 62
     1
100
AcDbLine
 10
75.1857142857143
 20
-11.91369321428571
 30
0.0
 11
75.18571428571431
 21
-11.91369321426663
 31
0.0
  0
LINE
  5
423
330
18
100
AcDbEntity
  8
1
 62
     1
100
AcDbLine
 10
75.18571428571431
 20
-11.91369321426663
 30
0.0
 11
75.1857142857143
 21
-11.91369320876981
 31
0.0
  0
LINE
  5
424
330
18
100
AcDbEntity
  8
1
 62
     1
100
AcDbLine
 10
75.1857142857143
 20
-11.91369320876981
 30
0.0
 11
75.1857142857143
 21
-11.91369179154155
 31
0.0
  0
LINE
  5
425
330
18
100
AcDbEntity
  8
1
 62
     1
100
AcDbLine
 10
75.1857142857143
 20
-11.91369179154155
 30
0.0
 11
75.1857142857143
 21
-11.91332772131914
 31
0.0
  0
LINE
  5
426
330
18
100
AcDbEntity
  8
1
 62
     1
100
AcDbLine
 10
75.1857142857143
 20
-11.91332772131914
 30
0.0
 11
75.1857142857143
 21
-11.8866613798472
 31
0.0
  0
LINE
  5
427
330
18
100
AcDbEntity
  8
1
 62
     1
100
AcDbLine
 10
75.1857142857143
 20
-11.8866613798472
 30
0.0
 11
75.1857142857143
 21
-11.70961806198834
 31
0.0
  0
LINE
  5
428
330
18
100
AcDbEntity
  8
1
 62
     1
100
AcDbLine
 10
75.60163357437193
 20
-12.63408621820518
 30
0.0
 11
75.1857142857143
 21
-11.91369321428571
 31
0.0
  0
LINE
  5
429
330
18
100
AcDbEntity
  8
1
 62
     1
100
AcDbLine
 10
75.60163357437195
 20
-12.50670768325032
 30
0.0
 11
75.60163357437193
 21
-12.63408621820514
 31
0.0
  0
LINE
  5
42A
330
18
100
AcDbEntity
  8
1
 62
     1
100
AcDbLine
 10
76.75508945282046
 20
-12.18202262923726
 30
0.0
 11
77.0
 21
-11.70961806198834
 31
0.0
  0
LINE
  5
42B
330
18
100
AcDbEntity
  8
1
 62
     1
100
AcDbLine
 10
76.75508945282046
 20
-12.18202262923726
 30
0.0
 11
76.75508945282046
 21
-12.33789052752804
 31
0.0
  0
LINE
  5
42C
330
18
100
AcDbEntity
  8
1
 62
     1
100
AcDbLine
 10
72.61694297013861
 20
-5.298549448574812
 30
0.0
 11
72.31162845843286
 21
-5.298549448574812
 31
0.0
  0
LINE
  5
42D
330
18
100
AcDbEntity
  8
1
 62
     1
100
AcDbLine
 10
72.61694297013861
 20
-8.345128837622754
 30
0.0
 11
72.31162845843284
 21
-8.345128837622754
 31
0.0
  0
LINE
  5
42E
330
18
100
AcDbEntity
  8
1
 62
     1
100
AcDbLine
 10
72.61694297013858
 20
-5.298549448574991
 30
0.0
 11
72.6169429701386
 21
-8.345128837622752
 31
0.0
  0
LINE
  5
42F
330
18
100
AcDbEntity
  8
1
 62
     1
100
AcDbLine
 10
70.80265725585289
 20
-5.298549448574812
 30
0.0
 11
70.49734274414715
 21
-5.298549448574812
 31
0.0
  0
LINE
  5
430
330
18
100
AcDbEntity
  8
1
 62
     1
100
AcDbLine
 10
70.49734274414715
 20
-5.298549448575026
 30
0.0
 11
70.49734274414715
 21
-8.34512883762275
 31
0.0
  0
LINE
  5
431
330
18
100
AcDbEntity
  8
1
 62
     1
100
AcDbLine
 10
70.8026572558529
 20
-5.298549448574986
 30
0.0
 11
70.80265725585292
 21
-8.345128837622756
 31
0.0
  0
LINE
  5
432
330
18
100
AcDbEntity
  8
1
 62
     1
100
AcDbLine
 10
68.98837154156723
 20
-5.298549448574812
 30
0.0
 11
68.6830570298614
 21
-5.298549448574812
 31
0.0
  0
LINE
  5
433
330
18
100
AcDbEntity
  8
1
 62
     1
100
AcDbLine
 10
68.98837154156722
 20
-5.298549448574978
 30
0.0
 11
68.98837154156723
 21
-8.345128837622752
 31
0.0
  0
LINE
  5
434
330
18
100
AcDbEntity
  8
1
 62
     1
100
AcDbLine
 10
67.17408582728149
 20
-5.298549448574812
 30
0.0
 11
66.8687713155757
 21
-5.298549448574812
 31
0.0
  0
LINE
  5
435
330
18
100
AcDbEntity
  8
1
 62
     1
100
AcDbLine
 10
67.1740858272815
 20
-8.345128837622754
 30
0.0
 11
66.86877131557571
 21
-8.345128837622754
 31
0.0
  0
LINE
  5
436
330
18
100
AcDbEntity
  8
1
 62
     1
100
AcDbLine
 10
65.3598001129958
 20
-8.345128837622754
 30
0.0
 11
65.05448560128997
 21
-8.345128837622749
 31
0.0
  0
LINE
  5
437
330
18
100
AcDbEntity
  8
1
 62
     1
100
AcDbLine
 10
63.54551439871003
 20
-5.298549448574812
 30
0.0
 11
63.24019988700426
 21
-5.298549448574812
 31
0.0
  0
LINE
  5
438
330
18
100
AcDbEntity
  8
1
 62
     1
100
AcDbLine
 10
63.24019988700427
 20
-5.298549448575
 30
0.0
 11
63.24019988700427
 21
-8.345128837622756
 31
0.0
  0
LINE
  5
439
330
18
100
AcDbEntity
  8
1
 62
     1
100
AcDbLine
 10
63.54551439871003
 20
-8.345128837622754
 30
0.0
 11
63.24019988700426
 21
-8.345128837622754
 31
0.0
  0
LINE
  5
43A
330
18
100
AcDbEntity
  8
1
 62
     1
100
AcDbLine
 10
63.54551439871003
 20
-5.298549448574986
 30
0.0
 11
63.54551439871004
 21
-8.345128837622756
 31
0.0
  0
LINE
  5
43B
330
18
100
AcDbEntity
  8
1
 62
     1
100
AcDbLine
 10
61.42591417271856
 20
-5.298549448574996
 30
0.0
 11
61.42591417271856
 21
-8.345128837622754
 31
0.0
  0
LINE
  5
43C
330
18
100
AcDbEntity
  8
1
 62
     1
100
AcDbLine
 10
61.73122868442433
 20
-5.298549448574986
 30
0.0
 11
61.73122868442434
 21
-8.345128837622756
 31
0.0
  0
LINE
  5
43D
330
18
100
AcDbEntity
  8
1
 62
     1
100
AcDbLine
 10
59.91694297013863
 20
-5.298549448574812
 30
0.0
 11
59.61162845843284
 21
-5.298549448574812
 31
0.0
  0
LINE
  5
43E
330
18
100
AcDbEntity
  8
1
 62
     1
100
AcDbLine
 10
59.61162845843283
 20
-5.298549448574996
 30
0.0
 11
59.61162845843283
 21
-8.345128837622754
 31
0.0
  0
LINE
  5
43F
330
18
100
AcDbEntity
  8
1
 62
     1
100
AcDbLine
 10
59.91694297013859
 20
-8.345128837622754
 30
0.0
 11
59.61162845843281
 21
-8.345128837622749
 31
0.0
  0
LINE
  5
440
330
18
100
AcDbEntity
  8
1
 62
     1
100
AcDbLine
 10
59.91694297013863
 20
-5.298549448574986
 30
0.0
 11
59.91694297013863
 21
-8.34512883762275
 31
0.0
  0
LINE
  5
441
330
18
100
AcDbEntity
  8
1
 62
     1
100
AcDbLine
 10
58.1026572558529
 20
-5.298549448574812
 30
0.0
 11
57.79734274414715
 21
-5.298549448574815
 31
0.0
  0
LINE
  5
442
330
18
100
AcDbEntity
  8
1
 62
     1
100
AcDbLine
 10
57.79734274414712
 20
-5.298549448575
 30
0.0
 11
57.79734274414713
 21
-8.345128837622756
 31
0.0
  0
LINE
  5
443
330
18
100
AcDbEntity
  8
1
 62
     1
100
AcDbLine
 10
58.10265725585288
 20
-8.345128837622754
 30
0.0
 11
57.79734274414712
 21
-8.345128837622754
 31
0.0
  0
LINE
  5
444
330
18
100
AcDbEntity
  8
1
 62
     1
100
AcDbLine
 10
58.1026572558529
 20
-5.298549448574986
 30
0.0
 11
58.1026572558529
 21
-8.345128837622756
 31
0.0
  0
LINE
  5
445
330
18
100
AcDbEntity
  8
1
 62
     1
100
AcDbLine
 10
56.28837154156719
 20
-5.298549448574812
 30
0.0
 11
55.98305702986141
 21
-5.298549448574814
 31
0.0
  0
LINE
  5
446
330
18
100
AcDbEntity
  8
1
 62
     1
100
AcDbLine
 10
55.98305702986139
 20
-5.298549448574991
 30
0.0
 11
55.9830570298614
 21
-8.345128837622752
 31
0.0
  0
LINE
  5
447
330
18
100
AcDbEntity
  8
1
 62
     1
100
AcDbLine
 10
56.28837154156717
 20
-8.345128837622754
 30
0.0
 11
55.9830570298614
 21
-8.345128837622754
 31
0.0
  0
LINE
  5
448
330
18
100
AcDbEntity
  8
1
 62
     1
100
AcDbLine
 10
56.28837154156717
 20
-5.298549448574991
 30
0.0
 11
56.28837154156717
 21
-8.345128837622752
 31
0.0
  0
LINE
  5
449
330
18
100
AcDbEntity
  8
1
 62
     1
100
AcDbLine
 10
54.1687713155757
 20
-5.298549448575
 30
0.0
 11
54.16877131557571
 21
-8.345128837622756
 31
0.0
  0
LINE
  5
44A
330
18
100
AcDbEntity
  8
1
 62
     1
100
AcDbLine
 10
54.47408582728146
 20
-8.345128837622754
 30
0.0
 11
54.16877131557569
 21
-8.345128837622754
 31
0.0
  0
LINE
  5
44B
330
18
100
AcDbEntity
  8
1
 62
     1
100
AcDbLine
 10
54.47408582728147
 20
-5.298549448574986
 30
0.0
 11
54.47408582728148
 21
-8.345128837622756
 31
0.0
  0
LINE
  5
44C
330
18
100
AcDbEntity
  8
1
 62
     1
100
AcDbLine
 10
52.65980011299577
 20
-5.298549448574812
 30
0.0
 11
52.35448560128999
 21
-5.298549448574815
 31
0.0
  0
LINE
  5
44D
330
18
100
AcDbEntity
  8
1
 62
     1
100
AcDbLine
 10
52.65980011299576
 20
-8.345128837622754
 30
0.0
 11
52.35448560128999
 21
-8.345128837622754
 31
0.0
  0
LINE
  5
44E
330
18
100
AcDbEntity
  8
1
 62
     1
100
AcDbLine
 10
52.65980011299575
 20
-5.298549448574991
 30
0.0
 11
52.65980011299575
 21
-8.34512883762275
 31
0.0
  0
LINE
  5
44F
330
18
100
AcDbEntity
  8
1
 62
     1
100
AcDbLine
 10
50.84551439871004
 20
-5.298549448574812
 30
0.0
 11
50.54019988700426
 21
-5.298549448574813
 31
0.0
  0
LINE
  5
450
330
18
100
AcDbEntity
  8
1
 62
     1
100
AcDbLine
 10
50.84551439871004
 20
-8.345128837622754
 30
0.0
 11
50.54019988700426
 21
-8.345128837622754
 31
0.0
  0
LINE
  5
451
330
18
100
AcDbEntity
  8
1
 62
     1
100
AcDbLine
 10
49.03122868442434
 20
-5.298549448574812
 30
0.0
 11
49.0
 21
-5.298549448574812
 31
0.0
  0
LINE
  5
452
330
18
100
AcDbEntity
  8
1
 62
     1
100
AcDbLine
 10
48.99999999999999
 20
-5.298549448574991
 30
0.0
 11
49.00000000000001
 21
-8.345128837622763
 31
0.0
  0
ARC
  5
453
330
18
100
AcDbEntity
  8
1
 62
     1
100
AcDbCircle
 10
2.483949444672547
 20
22.88958903754771
 30
0.0
 40
75.63650319965427
100
AcDbArc
 50
331.553630819492
 51
332.7778850710883
  0
LINE
  5
454
330
18
100
AcDbEntity
  8
1
 62
     1
100
AcDbLine
 10
68.98837154156722
 20
-13.1388050042025
 30
0.0
 11
68.98837154156722
 21
-13.20049248289004
 31
0.0
  0
LINE
  5
455
330
18
100
AcDbEntity
  8
1
 62
     1
100
AcDbLine
 10
68.98837154156722
 20
-13.20049248289004
 30
0.0
 11
68.98837154156723
 21
-13.21555183200772
 31
0.0
  0
LINE
  5
456
330
18
100
AcDbEntity
  8
1
 62
     1
100
AcDbLine
 10
68.98837154156723
 20
-13.21555183200772
 30
0.0
 11
68.98837154156723
 21
-13.21926976556152
 31
0.0
  0
LINE
  5
457
330
18
100
AcDbEntity
  8
1
 62
     1
100
AcDbLine
 10
68.98837154156723
 20
-13.21926976556152
 30
0.0
 11
68.98837154156723
 21
-13.22019329783479
 31
0.0
  0
LINE
  5
458
330
18
100
AcDbEntity
  8
1
 62
     1
100
AcDbLine
 10
68.98837154156723
 20
-13.22019329783479
 30
0.0
 11
68.98837154156723
 21
-13.22042343184702
 31
0.0
  0
LINE
  5
459
330
18
100
AcDbEntity
  8
1
 62
     1
100
AcDbLine
 10
68.98837154156723
 20
-13.22042343184702
 30
0.0
 11
68.98837154156723
 21
-13.2205
 31
0.0
  0
LINE
  5
45A
330
18
100
AcDbEntity
  8
1
 62
     1
100
AcDbLine
 10
69.74285714285715
 20
-11.91369321428571
 30
0.0
 11
68.98837154156723
 21
-13.22049999999991
 31
0.0
  0
ARC
  5
45B
330
18
100
AcDbEntity
  8
1
 62
     1
100
AcDbCircle
 10
134.7204611743982
 20
21.68463221296832
 30
0.0
 40
73.05660516205623
100
AcDbArc
 50
207.2002077208433
 51
208.4676953380807
  0
LINE
  5
45C
330
18
100
AcDbEntity
  8
1
 62
     1
100
AcDbLine
 10
69.74285714285715
 20
-11.91369321428571
 30
0.0
 11
69.74285714285715
 21
-11.9136465638067
 31
0.0
  0
LINE
  5
45D
330
18
100
AcDbEntity
  8
1
 62
     1
100
AcDbLine
 10
69.74285714285715
 20
-11.9136465638067
 30
0.0
 11
69.74285714285715
 21
-11.89996554561323
 31
0.0
  0
LINE
  5
45E
330
18
100
AcDbEntity
  8
1
 62
     1
100
AcDbLine
 10
69.74285714285715
 20
-11.89996554561323
 30
0.0
 11
69.74285714285715
 21
-11.70961806198834
 31
0.0
  0
LINE
  5
45F
330
18
100
AcDbEntity
  8
1
 62
     1
100
AcDbLine
 10
70.49734274414715
 20
-13.22050000000005
 30
0.0
 11
69.74285714285715
 21
-11.91369321428571
 31
0.0
  0
LINE
  5
460
330
18
100
AcDbEntity
  8
1
 62
     1
100
AcDbLine
 10
70.49734274414715
 20
-13.1388050042025
 30
0.0
 11
70.49734274414715
 21
-13.2205
 31
0.0
  0
ARC
  5
461
330
18
100
AcDbEntity
  8
1
 62
     1
100
AcDbCircle
 10
4.298235158572282
 20
22.88958903775391
 30
0.0
 40
75.63650320009185
100
AcDbArc
 50
331.5536308194939
 51
332.7778850710832
  0
LINE
  5
462
330
18
100
AcDbEntity
  8
1
 62
     1
100
AcDbLine
 10
70.80265725585289
 20
-13.1388050042025
 30
0.0
 11
70.8026572558529
 21
-13.2205
 31
0.0
  0
LINE
  5
463
330
18
100
AcDbEntity
  8
1
 62
     1
100
AcDbLine
 10
71.55714285714286
 20
-11.91369321428571
 30
0.0
 11
70.8026572558529
 21
-13.22049999999998
 31
0.0
  0
ARC
  5
464
330
18
100
AcDbEntity
  8
1
 62
     1
100
AcDbCircle
 10
136.5347468883733
 20
21.6846322128031
 30
0.0
 40
73.05660516170441
100
AcDbArc
 50
207.2002077208394
 51
208.4676953380829
  0
LINE
  5
465
330
18
100
AcDbEntity
  8
1
 62
     1
100
AcDbLine
 10
71.55714285714286
 20
-11.91369321428571
 30
0.0
 11
71.55714285714286
 21
-11.9136465638067
 31
0.0
  0
LINE
  5
466
330
18
100
AcDbEntity
  8
1
 62
     1
100
AcDbLine
 10
71.55714285714286
 20
-11.9136465638067
 30
0.0
 11
71.55714285714286
 21
-11.89996554561323
 31
0.0
  0
LINE
  5
467
330
18
100
AcDbEntity
  8
1
 62
     1
100
AcDbLine
 10
71.55714285714286
 20
-11.89996554561323
 30
0.0
 11
71.55714285714286
 21
-11.70961806198834
 31
0.0
  0
LINE
  5
468
330
18
100
AcDbEntity
  8
1
 62
     1
100
AcDbLine
 10
72.31162845843282
 20
-13.1388050042025
 30
0.0
 11
72.31162845843284
 21
-13.2205
 31
0.0
  0
ARC
  5
469
330
18
100
AcDbEntity
  8
1
 62
     1
100
AcDbCircle
 10
132.9061754599439
 20
21.68463221287861
 30
0.0
 40
73.05660516186529
100
AcDbArc
 50
207.2002077208411
 51
208.4676953380818
  0
LINE
  5
46A
330
18
100
AcDbEntity
  8
1
 62
     1
100
AcDbLine
 10
68.68305702986139
 20
-13.1388050042025
 30
0.0
 11
68.6830570298614
 21
-13.2205
 31
0.0
  0
ARC
  5
46B
330
18
100
AcDbEntity
  8
1
 62
     1
100
AcDbCircle
 10
0.6696637301289883
 20
22.88958903768706
 30
0.0
 40
75.63650319994733
100
AcDbArc
 50
331.5536308194922
 51
332.7778850710839
  0
LINE
  5
46C
330
18
100
AcDbEntity
  8
1
 62
     1
100
AcDbLine
 10
67.1740858272815
 20
-13.1388050042025
 30
0.0
 11
67.1740858272815
 21
-13.2205
 31
0.0
  0
LINE
  5
46D
330
18
100
AcDbEntity
  8
1
 62
     1
100
AcDbLine
 10
67.92857142857143
 20
-11.91369321428571
 30
0.0
 11
67.92857142857143
 21
-11.9136465638067
 31
0.0
  0
LINE
  5
46E
330
18
100
AcDbEntity
  8
1
 62
     1
100
AcDbLine
 10
67.92857142857143
 20
-11.9136465638067
 30
0.0
 11
67.92857142857143
 21
-11.89996554561323
 31
0.0
  0
LINE
  5
46F
330
18
100
AcDbEntity
  8
1
 62
     1
100
AcDbLine
 10
67.92857142857143
 20
-11.89996554561323
 30
0.0
 11
67.92857142857143
 21
-11.70961806198834
 31
0.0
  0
ARC
  5
470
330
18
100
AcDbEntity
  8
1
 62
     1
100
AcDbCircle
 10
131.0918897452725
 20
21.68463221267562
 30
0.0
 40
73.05660516142946
100
AcDbArc
 50
207.2002077208378
 51
208.4676953380861
  0
LINE
  5
471
330
18
100
AcDbEntity
  8
1
 62
     1
100
AcDbLine
 10
66.11428571428571
 20
-11.91369321428571
 30
0.0
 11
66.11428571428573
 21
-11.91369321426663
 31
0.0
  0
LINE
  5
472
330
18
100
AcDbEntity
  8
1
 62
     1
100
AcDbLine
 10
66.11428571428573
 20
-11.91369321426663
 30
0.0
 11
66.11428571428571
 21
-11.91369320876981
 31
0.0
  0
LINE
  5
473
330
18
100
AcDbEntity
  8
1
 62
     1
100
AcDbLine
 10
66.11428571428571
 20
-11.91369320876981
 30
0.0
 11
66.11428571428571
 21
-11.91369179154155
 31
0.0
  0
LINE
  5
474
330
18
100
AcDbEntity
  8
1
 62
     1
100
AcDbLine
 10
66.11428571428571
 20
-11.91369179154155
 30
0.0
 11
66.11428571428571
 21
-11.91332772131914
 31
0.0
  0
LINE
  5
475
330
18
100
AcDbEntity
  8
1
 62
     1
100
AcDbLine
 10
66.11428571428571
 20
-11.91332772131914
 30
0.0
 11
66.11428571428571
 21
-11.8866613798472
 31
0.0
  0
LINE
  5
476
330
18
100
AcDbEntity
  8
1
 62
     1
100
AcDbLine
 10
66.11428571428571
 20
-11.8866613798472
 30
0.0
 11
66.1142857142857
 21
-11.70961806198834
 31
0.0
  0
LINE
  5
477
330
18
100
AcDbEntity
  8
1
 62
     1
100
AcDbLine
 10
66.86877131557571
 20
-13.22050000000005
 30
0.0
 11
66.11428571428571
 21
-11.91369321428571
 31
0.0
  0
LINE
  5
478
330
18
100
AcDbEntity
  8
1
 62
     1
100
AcDbLine
 10
66.86877131557571
 20
-13.1388050042025
 30
0.0
 11
66.8687713155757
 21
-13.20049248289004
 31
0.0
  0
LINE
  5
479
330
18
100
AcDbEntity
  8
1
 62
     1
100
AcDbLine
 10
66.8687713155757
 20
-13.20049248289004
 30
0.0
 11
66.86877131557571
 21
-13.21555183200772
 31
0.0
  0
LINE
  5
47A
330
18
100
AcDbEntity
  8
1
 62
     1
100
AcDbLine
 10
66.86877131557571
 20
-13.21555183200772
 30
0.0
 11
66.86877131557571
 21
-13.21926976556152
 31
0.0
  0
LINE
  5
47B
330
18
100
AcDbEntity
  8
1
 62
     1
100
AcDbLine
 10
66.86877131557571
 20
-13.21926976556152
 30
0.0
 11
66.86877131557571
 21
-13.22019329783479
 31
0.0
  0
LINE
  5
47C
330
18
100
AcDbEntity
  8
1
 62
     1
100
AcDbLine
 10
66.86877131557571
 20
-13.22019329783479
 30
0.0
 11
66.86877131557571
 21
-13.22042343184702
 31
0.0
  0
LINE
  5
47D
330
18
100
AcDbEntity
  8
1
 62
     1
100
AcDbLine
 10
66.86877131557571
 20
-13.22042343184702
 30
0.0
 11
66.86877131557571
 21
-13.2205
 31
0.0
  0
ARC
  5
47E
330
18
100
AcDbEntity
  8
1
 62
     1
100
AcDbCircle
 10
-1.144621984964814
 20
22.88958903811311
 30
0.0
 40
75.63650320086082
100
AcDbArc
 50
331.5536308195
 51
332.7778850710768
  0
LINE
  5
47F
330
18
100
AcDbEntity
  8
1
 62
     1
100
AcDbLine
 10
65.35980011299577
 20
-13.1388050042025
 30
0.0
 11
65.35980011299577
 21
-13.2205
 31
0.0
  0
LINE
  5
480
330
18
100
AcDbEntity
  8
1
 62
     1
100
AcDbLine
 10
66.11428571428571
 20
-11.91369321428571
 30
0.0
 11
65.35980011299577
 21
-13.22049999999996
 31
0.0
  0
ARC
  5
481
330
18
100
AcDbEntity
  8
1
 62
     1
100
AcDbCircle
 10
129.2776040313631
 20
21.68463221287249
 30
0.0
 40
73.05660516185412
100
AcDbArc
 50
207.2002077208402
 51
208.4676953380811
  0
LINE
  5
482
330
18
100
AcDbEntity
  8
1
 62
     1
100
AcDbLine
 10
65.05448560128997
 20
-13.2205
 30
0.0
 11
64.30000000000001
 21
-11.91369321428571
 31
0.0
  0
LINE
  5
483
330
18
100
AcDbEntity
  8
1
 62
     1
100
AcDbLine
 10
65.05448560128997
 20
-13.1388050042025
 30
0.0
 11
65.05448560128997
 21
-13.2205
 31
0.0
  0
ARC
  5
484
330
18
100
AcDbEntity
  8
1
 62
     1
100
AcDbCircle
 10
-2.958907698706689
 20
22.88958903782513
 30
0.0
 40
75.63650320024547
100
AcDbArc
 50
331.5536308194956
 51
332.7778850710824
  0
LINE
  5
485
330
18
100
AcDbEntity
  8
1
 62
     1
100
AcDbLine
 10
63.54551439871003
 20
-13.1388050042025
 30
0.0
 11
63.54551439871004
 21
-13.2205
 31
0.0
  0
LINE
  5
486
330
18
100
AcDbEntity
  8
1
 62
     1
100
AcDbLine
 10
64.30000000000001
 20
-11.91369321428571
 30
0.0
 11
63.54551439871004
 21
-13.2205
 31
0.0
  0
LINE
  5
487
330
18
100
AcDbEntity
  8
1
 62
     1
100
AcDbLine
 10
64.30000000000001
 20
-11.91369321428571
 30
0.0
 11
64.30000000000001
 21
-11.9136465638067
 31
0.0
  0
LINE
  5
488
330
18
100
AcDbEntity
  8
1
 62
     1
100
AcDbLine
 10
64.30000000000001
 20
-11.9136465638067
 30
0.0
 11
64.30000000000001
 21
-11.89996554561323
 31
0.0
  0
LINE
  5
489
330
18
100
AcDbEntity
  8
1
 62
     1
100
AcDbLine
 10
64.30000000000001
 20
-11.89996554561323
 30
0.0
 11
64.30000000000001
 21
-11.70961806198834
 31
0.0
  0
ARC
  5
48A
330
18
100
AcDbEntity
  8
1
 62
     1
100
AcDbCircle
 10
127.4633183172666
 20
21.68463221297296
 30
0.0
 40
73.05660516206832
100
AcDbArc
 50
207.2002077208425
 51
208.4676953380797
  0
LINE
  5
48B
330
18
100
AcDbEntity
  8
1
 62
     1
100
AcDbLine
 10
63.24019988700427
 20
-13.22050000000002
 30
0.0
 11
62.48571428571429
 21
-11.91369321428571
 31
0.0
  0
LINE
  5
48C
330
18
100
AcDbEntity
  8
1
 62
     1
100
AcDbLine
 10
63.24019988700426
 20
-13.1388050042025
 30
0.0
 11
63.24019988700427
 21
-13.2205
 31
0.0
  0
ARC
  5
48D
330
18
100
AcDbEntity
  8
1
 62
     1
100
AcDbCircle
 10
-4.77319341314314
 20
22.88958903790408
 30
0.0
 40
75.63650320041562
100
AcDbArc
 50
331.5536308194973
 51
332.7778850710814
  0
LINE
  5
48E
330
18
100
AcDbEntity
  8
1
 62
     1
100
AcDbLine
 10
61.73122868442433
 20
-13.1388050042025
 30
0.0
 11
61.73122868442433
 21
-13.2205
 31
0.0
  0
LINE
  5
48F
330
18
100
AcDbEntity
  8
1
 62
     1
100
AcDbLine
 10
62.48571428571429
 20
-11.91369321428571
 30
0.0
 11
62.48571428571429
 21
-11.9136465638067
 31
0.0
  0
LINE
  5
490
330
18
100
AcDbEntity
  8
1
 62
     1
100
AcDbLine
 10
62.48571428571429
 20
-11.9136465638067
 30
0.0
 11
62.48571428571429
 21
-11.89996554561323
 31
0.0
  0
LINE
  5
491
330
18
100
AcDbEntity
  8
1
 62
     1
100
AcDbLine
 10
62.48571428571429
 20
-11.89996554561323
 30
0.0
 11
62.48571428571429
 21
-11.70961806198834
 31
0.0
  0
ARC
  5
492
330
18
100
AcDbEntity
  8
1
 62
     1
100
AcDbCircle
 10
125.6490326030317
 20
21.6846322129987
 30
0.0
 40
73.0566051621253
100
AcDbArc
 50
207.2002077208423
 51
208.4676953380784
  0
LINE
  5
493
330
18
100
AcDbEntity
  8
1
 62
     1
100
AcDbLine
 10
61.42591417271855
 20
-13.1388050042025
 30
0.0
 11
61.42591417271855
 21
-13.2205
 31
0.0
  0
ARC
  5
494
330
18
100
AcDbEntity
  8
1
 62
     1
100
AcDbCircle
 10
120.2061754598747
 20
21.68463221284153
 30
0.0
 40
73.05660516178672
100
AcDbArc
 50
207.2002077208401
 51
208.4676953380821
  0
LINE
  5
495
330
18
100
AcDbEntity
  8
1
 62
     1
100
AcDbLine
 10
55.98305702986139
 20
-13.1388050042025
 30
0.0
 11
55.9830570298614
 21
-13.2205
 31
0.0
  0
ARC
  5
496
330
18
100
AcDbEntity
  8
1
 62
     1
100
AcDbCircle
 10
-12.0303362705945
 20
22.88958903806865
 30
0.0
 40
75.63650320076528
100
AcDbArc
 50
331.5536308194991
 51
332.7778850710774
  0
LINE
  5
497
330
18
100
AcDbEntity
  8
1
 62
     1
100
AcDbLine
 10
54.47408582728148
 20
-13.1388050042025
 30
0.0
 11
54.47408582728148
 21
-13.2205
 31
0.0
  0
LINE
  5
498
330
18
100
AcDbEntity
  8
1
 62
     1
100
AcDbLine
 10
55.22857142857143
 20
-11.91369321428571
 30
0.0
 11
54.47408582728148
 21
-13.22049999999999
 31
0.0
  0
LINE
  5
499
330
18
100
AcDbEntity
  8
1
 62
     1
100
AcDbLine
 10
55.22857142857143
 20
-11.91369321428571
 30
0.0
 11
55.22857142857142
 21
-11.9136465638067
 31
0.0
  0
LINE
  5
49A
330
18
100
AcDbEntity
  8
1
 62
     1
100
AcDbLine
 10
55.22857142857142
 20
-11.9136465638067
 30
0.0
 11
55.22857142857143
 21
-11.89996554561323
 31
0.0
  0
LINE
  5
49B
330
18
100
AcDbEntity
  8
1
 62
     1
100
AcDbLine
 10
55.22857142857143
 20
-11.89996554561323
 30
0.0
 11
55.22857142857143
 21
-11.70961806198834
 31
0.0
  0
ARC
  5
49C
330
18
100
AcDbEntity
  8
1
 62
     1
100
AcDbCircle
 10
118.3918897455502
 20
21.68463221282234
 30
0.0
 40
73.05660516174349
100
AcDbArc
 50
207.2002077208407
 51
208.4676953380834
  0
LINE
  5
49D
330
18
100
AcDbEntity
  8
1
 62
     1
100
AcDbLine
 10
54.1687713155757
 20
-13.1388050042025
 30
0.0
 11
54.1687713155757
 21
-13.2205
 31
0.0
  0
ARC
  5
49E
330
18
100
AcDbEntity
  8
1
 62
     1
100
AcDbCircle
 10
-13.84462198449756
 20
22.88958903786519
 30
0.0
 40
75.6365032003319
100
AcDbArc
 50
331.5536308194965
 51
332.7778850710819
  0
LINE
  5
49F
330
18
100
AcDbEntity
  8
1
 62
     1
100
AcDbLine
 10
52.65980011299575
 20
-13.1388050042025
 30
0.0
 11
52.65980011299575
 21
-13.2205
 31
0.0
  0
LINE
  5
4A0
330
18
100
AcDbEntity
  8
1
 62
     1
100
AcDbLine
 10
53.41428571428572
 20
-11.91369321428571
 30
0.0
 11
52.65980011299575
 21
-13.2205
 31
0.0
  0
LINE
  5
4A1
330
18
100
AcDbEntity
  8
1
 62
     1
100
AcDbLine
 10
53.41428571428572
 20
-11.91369321428571
 30
0.0
 11
53.41428571428572
 21
-11.9136465638067
 31
0.0
  0
LINE
  5
4A2
330
18
100
AcDbEntity
  8
1
 62
     1
100
AcDbLine
 10
53.41428571428572
 20
-11.9136465638067
 30
0.0
 11
53.41428571428572
 21
-11.89996554561323
 31
0.0
  0
LINE
  5
4A3
330
18
100
AcDbEntity
  8
1
 62
     1
100
AcDbLine
 10
53.41428571428572
 20
-11.89996554561323
 30
0.0
 11
53.41428571428572
 21
-11.70961806198834
 31
0.0
  0
ARC
  5
4A4
330
18
100
AcDbEntity
  8
1
 62
     1
100
AcDbCircle
 10
6.112520872313908
 20
22.88958903804163
 30
0.0
 40
75.63650320070732
100
AcDbArc
 50
331.5536308194985
 51
332.7778850710778
  0
LINE
  5
4A5
330
18
100
AcDbEntity
  8
1
 62
     1
100
AcDbLine
 10
72.6169429701386
 20
-13.1388050042025
 30
0.0
 11
72.61694297013861
 21
-13.20049248289004
 31
0.0
  0
LINE
  5
4A6
330
18
100
AcDbEntity
  8
1
 62
     1
100
AcDbLine
 10
72.61694297013861
 20
-13.20049248289004
 30
0.0
 11
72.61694297013861
 21
-13.21555183200772
 31
0.0
  0
LINE
  5
4A7
330
18
100
AcDbEntity
  8
1
 62
     1
100
AcDbLine
 10
72.61694297013861
 20
-13.21555183200772
 30
0.0
 11
72.61694297013861
 21
-13.21926976556152
 31
0.0
  0
LINE
  5
4A8
330
18
100
AcDbEntity
  8
1
 62
     1
100
AcDbLine
 10
72.61694297013861
 20
-13.21926976556152
 30
0.0
 11
72.61694297013861
 21
-13.22019329783479
 31
0.0
  0
LINE
  5
4A9
330
18
100
AcDbEntity
  8
1
 62
     1
100
AcDbLine
 10
72.61694297013861
 20
-13.22019329783479
 30
0.0
 11
72.6169429701386
 21
-13.22042343184702
 31
0.0
  0
LINE
  5
4AA
330
18
100
AcDbEntity
  8
1
 62
     1
100
AcDbLine
 10
72.6169429701386
 20
-13.22042343184702
 30
0.0
 11
72.61694297013861
 21
-13.2205
 31
0.0
  0
LINE
  5
4AB
330
18
100
AcDbEntity
  8
1
 62
     1
100
AcDbLine
 10
73.37142857142858
 20
-11.91369321428571
 30
0.0
 11
73.37142857142857
 21
-11.91369321426663
 31
0.0
  0
LINE
  5
4AC
330
18
100
AcDbEntity
  8
1
 62
     1
100
AcDbLine
 10
73.37142857142857
 20
-11.91369321426663
 30
0.0
 11
73.37142857142858
 21
-11.91369320876981
 31
0.0
  0
LINE
  5
4AD
330
18
100
AcDbEntity
  8
1
 62
     1
100
AcDbLine
 10
73.37142857142858
 20
-11.91369320876981
 30
0.0
 11
73.37142857142858
 21
-11.91369179154155
 31
0.0
  0
LINE
  5
4AE
330
18
100
AcDbEntity
  8
1
 62
     1
100
AcDbLine
 10
73.37142857142858
 20
-11.91369179154155
 30
0.0
 11
73.37142857142858
 21
-11.91332772131914
 31
0.0
  0
LINE
  5
4AF
330
18
100
AcDbEntity
  8
1
 62
     1
100
AcDbLine
 10
73.37142857142858
 20
-11.91332772131914
 30
0.0
 11
73.37142857142858
 21
-11.8866613798472
 31
0.0
  0
LINE
  5
4B0
330
18
100
AcDbEntity
  8
1
 62
     1
100
AcDbLine
 10
73.37142857142858
 20
-11.8866613798472
 30
0.0
 11
73.37142857142857
 21
-11.70961806198834
 31
0.0
  0
ARC
  5
4B1
330
18
100
AcDbEntity
  8
1
 62
     1
100
AcDbCircle
 10
-10.21605055652177
 20
22.88958903818166
 30
0.0
 40
75.63650320100638
100
AcDbArc
 50
331.5536308195007
 51
332.7778850710752
  0
LINE
  5
4B2
330
18
100
AcDbEntity
  8
1
 62
     1
100
AcDbLine
 10
56.28837154156717
 20
-13.1388050042025
 30
0.0
 11
56.28837154156718
 21
-13.2205
 31
0.0
  0
LINE
  5
4B3
330
18
100
AcDbEntity
  8
1
 62
     1
100
AcDbLine
 10
57.04285714285714
 20
-11.91369321428571
 30
0.0
 11
56.28837154156718
 21
-13.2205
 31
0.0
  0
ARC
  5
4B4
330
18
100
AcDbEntity
  8
1
 62
     1
100
AcDbCircle
 10
122.0204611744431
 20
21.68463221299099
 30
0.0
 40
73.0566051621065
100
AcDbArc
 50
207.2002077208431
 51
208.4676953380795
  0
LINE
  5
4B5
330
18
100
AcDbEntity
  8
1
 62
     1
100
AcDbLine
 10
57.04285714285714
 20
-11.91369321428571
 30
0.0
 11
57.04285714285714
 21
-11.9136465638067
 31
0.0
  0
LINE
  5
4B6
330
18
100
AcDbEntity
  8
1
 62
     1
100
AcDbLine
 10
57.04285714285714
 20
-11.9136465638067
 30
0.0
 11
57.04285714285714
 21
-11.89996554561323
 31
0.0
  0
LINE
  5
4B7
330
18
100
AcDbEntity
  8
1
 62
     1
100
AcDbLine
 10
57.04285714285714
 20
-11.89996554561323
 30
0.0
 11
57.04285714285713
 21
-11.70961806198834
 31
0.0
  0
LINE
  5
4B8
330
18
100
AcDbEntity
  8
1
 62
     1
100
AcDbLine
 10
57.79734274414713
 20
-13.1388050042025
 30
0.0
 11
57.79734274414712
 21
-13.2205
 31
0.0
  0
ARC
  5
4B9
330
18
100
AcDbEntity
  8
1
 62
     1
100
AcDbCircle
 10
-8.401764842015531
 20
22.88958903806387
 30
0.0
 40
75.63650320075638
100
AcDbArc
 50
331.5536308194995
 51
332.7778850710781
  0
LINE
  5
4BA
330
18
100
AcDbEntity
  8
1
 62
     1
100
AcDbLine
 10
58.1026572558529
 20
-13.1388050042025
 30
0.0
 11
58.1026572558529
 21
-13.2205
 31
0.0
  0
ARC
  5
4BB
330
18
100
AcDbEntity
  8
1
 62
     1
100
AcDbCircle
 10
123.834746888594
 20
21.68463221292034
 30
0.0
 40
73.05660516195432
100
AcDbArc
 50
207.2002077208421
 51
208.4676953380812
  0
LINE
  5
4BC
330
18
100
AcDbEntity
  8
1
 62
     1
100
AcDbLine
 10
58.85714285714286
 20
-11.91369321428571
 30
0.0
 11
58.85714285714286
 21
-11.9136465638067
 31
0.0
  0
LINE
  5
4BD
330
18
100
AcDbEntity
  8
1
 62
     1
100
AcDbLine
 10
58.85714285714286
 20
-11.9136465638067
 30
0.0
 11
58.85714285714287
 21
-11.89996554561323
 31
0.0
  0
LINE
  5
4BE
330
18
100
AcDbEntity
  8
1
 62
     1
100
AcDbLine
 10
58.85714285714287
 20
-11.89996554561323
 30
0.0
 11
58.85714285714286
 21
-11.70961806198834
 31
0.0
  0
LINE
  5
4BF
330
18
100
AcDbEntity
  8
1
 62
     1
100
AcDbLine
 10
59.61162845843283
 20
-13.22050000000001
 30
0.0
 11
58.85714285714286
 21
-11.91369321428571
 31
0.0
  0
LINE
  5
4C0
330
18
100
AcDbEntity
  8
1
 62
     1
100
AcDbLine
 10
59.61162845843283
 20
-13.1388050042025
 30
0.0
 11
59.61162845843283
 21
-13.2205
 31
0.0
  0
ARC
  5
4C1
330
18
100
AcDbEntity
  8
1
 62
     1
100
AcDbCircle
 10
-6.587479127448844
 20
22.88958903791528
 30
0.0
 40
75.63650320043854
100
AcDbArc
 50
331.5536308194971
 51
332.7778850710808
  0
LINE
  5
4C2
330
18
100
AcDbEntity
  8
1
 62
     1
100
AcDbLine
 10
59.91694297013862
 20
-13.1388050042025
 30
0.0
 11
59.91694297013862
 21
-13.2205
 31
0.0
  0
LINE
  5
4C3
330
18
100
AcDbEntity
  8
1
 62
     1
100
AcDbLine
 10
60.67142857142858
 20
-11.91369321428571
 30
0.0
 11
59.91694297013862
 21
-13.22049999999998
 31
0.0
  0
LINE
  5
4C4
330
18
100
AcDbEntity
  8
1
 62
     1
100
AcDbLine
 10
60.67142857142858
 20
-11.91369321428571
 30
0.0
 11
60.67142857142858
 21
-11.9136465638067
 31
0.0
  0
LINE
  5
4C5
330
18
100
AcDbEntity
  8
1
 62
     1
100
AcDbLine
 10
60.67142857142858
 20
-11.9136465638067
 30
0.0
 11
60.67142857142858
 21
-11.89996554561323
 31
0.0
  0
LINE
  5
4C6
330
18
100
AcDbEntity
  8
1
 62
     1
100
AcDbLine
 10
60.67142857142858
 20
-11.89996554561323
 30
0.0
 11
60.67142857142857
 21
-11.70961806198834
 31
0.0
  0
ARC
  5
4C7
330
18
100
AcDbEntity
  8
1
 62
     1
100
AcDbCircle
 10
116.5776040313466
 20
21.68463221286495
 30
0.0
 40
73.05660516183599
100
AcDbArc
 50
207.2002077208409
 51
208.4676953380821
  0
LINE
  5
4C8
330
18
100
AcDbEntity
  8
1
 62
     1
100
AcDbLine
 10
51.60000000000001
 20
-11.91369321428571
 30
0.0
 11
51.60000000000001
 21
-11.9136465638067
 31
0.0
  0
LINE
  5
4C9
330
18
100
AcDbEntity
  8
1
 62
     1
100
AcDbLine
 10
51.60000000000001
 20
-11.9136465638067
 30
0.0
 11
51.60000000000001
 21
-11.89996554561323
 31
0.0
  0
LINE
  5
4CA
330
18
100
AcDbEntity
  8
1
 62
     1
100
AcDbLine
 10
51.60000000000001
 20
-11.89996554561323
 30
0.0
 11
51.6
 21
-11.70961806198834
 31
0.0
  0
LINE
  5
4CB
330
18
100
AcDbEntity
  8
1
 62
     1
100
AcDbLine
 10
52.35448560128999
 20
-13.22050000000002
 30
0.0
 11
51.60000000000001
 21
-11.91369321428571
 31
0.0
  0
LINE
  5
4CC
330
18
100
AcDbEntity
  8
1
 62
     1
100
AcDbLine
 10
52.35448560128999
 20
-13.1388050042025
 30
0.0
 11
52.35448560128999
 21
-13.2205
 31
0.0
  0
ARC
  5
4CD
330
18
100
AcDbEntity
  8
1
 62
     1
100
AcDbCircle
 10
-15.65890769892585
 20
22.88958903794093
 30
0.0
 40
75.63650320049334
100
AcDbArc
 50
331.5536308194975
 51
332.7778850710803
  0
LINE
  5
4CE
330
18
100
AcDbEntity
  8
1
 62
     1
100
AcDbLine
 10
50.84551439871004
 20
-13.1388050042025
 30
0.0
 11
50.84551439871005
 21
-13.2205
 31
0.0
  0
LINE
  5
4CF
330
18
100
AcDbEntity
  8
1
 62
     1
100
AcDbLine
 10
51.60000000000001
 20
-11.91369321428571
 30
0.0
 11
50.84551439871005
 21
-13.22049999999998
 31
0.0
  0
ARC
  5
4D0
330
18
100
AcDbEntity
  8
1
 62
     1
100
AcDbCircle
 10
114.7633183172912
 20
21.68463221298604
 30
0.0
 40
73.05660516209619
100
AcDbArc
 50
207.2002077208428
 51
208.4676953380794
  0
LINE
  5
4D1
330
18
100
AcDbEntity
  8
1
 62
     1
100
AcDbLine
 10
50.54019988700426
 20
-13.22049999999999
 30
0.0
 11
49.78571428571429
 21
-11.91369321428571
 31
0.0
  0
LINE
  5
4D2
330
18
100
AcDbEntity
  8
1
 62
     1
100
AcDbLine
 10
50.54019988700425
 20
-13.1388050042025
 30
0.0
 11
50.54019988700426
 21
-13.2205
 31
0.0
  0
LINE
  5
4D3
330
18
100
AcDbEntity
  8
1
 62
     1
100
AcDbLine
 10
49.0
 20
-5.298549448574811
 30
0.0
 11
47.97705419448389
 21
-3.454881970085685
 31
0.0
  0
LINE
  5
4D4
330
18
100
AcDbEntity
  8
1
 62
     1
100
AcDbLine
 10
47.97705419448389
 20
-3.454881970085685
 30
0.0
 11
47.03960716
 21
-1.579646150732543
 31
0.0
  0
ARC
  5
4D5
330
18
100
AcDbEntity
  8
1
 62
     1
100
AcDbCircle
 10
418.6608186509142
 20
265.6106197136894
 30
0.0
 40
460.1095077643125
100
AcDbArc
 50
216.1480198132782
 51
216.5421558734781
  0
ARC
  5
4D6
330
18
100
AcDbEntity
  8
1
 62
     1
100
AcDbCircle
 10
-17.47319341291607
 20
22.88958903778508
 30
0.0
 40
75.63650320015927
100
AcDbArc
 50
331.5536308194947
 51
332.7778850710829
  0
LINE
  5
4D7
330
18
100
AcDbEntity
  8
1
 62
     1
100
AcDbLine
 10
49.03122868442433
 20
-13.1388050042025
 30
0.0
 11
49.03122868442433
 21
-13.2205
 31
0.0
  0
LINE
  5
4D8
330
18
100
AcDbEntity
  8
1
 62
     1
100
AcDbLine
 10
49.78571428571429
 20
-11.91369321428571
 30
0.0
 11
49.78571428571429
 21
-11.9136465638067
 31
0.0
  0
LINE
  5
4D9
330
18
100
AcDbEntity
  8
1
 62
     1
100
AcDbLine
 10
49.78571428571429
 20
-11.9136465638067
 30
0.0
 11
49.78571428571429
 21
-11.89996554561323
 31
0.0
  0
LINE
  5
4DA
330
18
100
AcDbEntity
  8
1
 62
     1
100
AcDbLine
 10
49.78571428571429
 20
-11.89996554561323
 30
0.0
 11
49.78571428571428
 21
-11.70961806198834
 31
0.0
  0
LINE
  5
4DB
330
18
100
AcDbEntity
  8
1
 62
     1
100
AcDbLine
 10
65.35980011299579
 20
-13.1388050042025
 30
0.0
 11
65.05448560128997
 21
-13.1388050042025
 31
0.0
  0
ARC
  5
4DC
330
18
100
AcDbEntity
  8
1
 62
     1
100
AcDbCircle
 10
44.51452785711925
 20
-7.698864324866784
 30
0.0
 40
3.230049014104428
100
AcDbArc
 50
36.1008362120747
 51
38.57910810330723
  0
LINE
  5
4DD
330
18
100
AcDbEntity
  8
1
 62
     1
100
AcDbLine
 10
49.03122868442434
 20
-8.345128837622754
 30
0.0
 11
49.0
 21
-8.345128837622754
 31
0.0
  0
LINE
  5
4DE
330
18
100
AcDbEntity
  8
1
 62
     1
100
AcDbLine
 10
70.80265725585292
 20
-8.345128837622754
 30
0.0
 11
70.49734274414715
 21
-8.345128837622754
 31
0.0
  0
LINE
  5
4DF
330
18
100
AcDbEntity
  8
1
 62
     1
100
AcDbLine
 10
68.9883715415672
 20
-8.345128837622754
 30
0.0
 11
68.68305702986137
 21
-8.345128837622754
 31
0.0
  0
LINE
  5
4E0
330
18
100
AcDbEntity
  8
1
 62
     1
100
AcDbLine
 10
61.73122868442435
 20
-8.345128837622754
 30
0.0
 11
61.42591417271855
 21
-8.345128837622754
 31
0.0
  0
LINE
  5
4E1
330
18
100
AcDbEntity
  8
1
 62
     1
100
AcDbLine
 10
76.75508945282046
 20
-4.397966572884645
 30
0.0
 11
77.0
 21
-3.953310113073021
 31
0.0
  0
LINE
  5
4E2
330
18
100
AcDbEntity
  8
1
 62
     1
100
AcDbLine
 10
76.75508945282044
 20
-7.655773896094606
 30
0.0
 11
77.0
 21
-7.323737484021661
 31
0.0
  0
ARC
  5
4E3
330
18
100
AcDbEntity
  8
1
 62
     1
100
AcDbCircle
 10
130.4456732961827
 20
26.19188695422592
 30
0.0
 40
62.94756862386252
100
AcDbArc
 50
208.6131775083521
 51
209.3940042236778
  0
LINE
  5
4E4
330
18
100
AcDbEntity
  8
1
 62
     1
100
AcDbLine
 10
75.18571428571431
 20
-7.323737484021662
 30
0.0
 11
75.18571428571428
 21
-3.953310113073021
 31
0.0
  0
LINE
  5
4E5
330
18
100
AcDbEntity
  8
1
 62
     1
100
AcDbLine
 10
75.18571428571428
 20
-7.323737484021661
 30
0.0
 11
75.60163357437193
 21
-7.887327501167961
 31
0.0
  0
LINE
  5
4E6
330
18
100
AcDbEntity
  8
1
 62
     1
100
AcDbLine
 10
75.60163357437193
 20
-4.703580270719889
 30
0.0
 11
75.6016335743719
 21
-7.887327501167938
 31
0.0
  0
ARC
  5
4E7
330
18
100
AcDbEntity
  8
1
 62
     1
100
AcDbCircle
 10
16.72041649937243
 20
27.96908064676965
 30
0.0
 40
66.61257958500619
100
AcDbArc
 50
330.3743742257055
 51
331.3652044378074
  0
LINE
  5
4E8
330
18
100
AcDbEntity
  8
1
 62
     1
100
AcDbLine
 10
74.6250017935687
 20
-4.9595664638472
 30
0.0
 11
74.6250017935687
 21
-8.083211810850646
 31
0.0
  0
LINE
  5
4E9
330
18
100
AcDbEntity
  8
1
 62
     1
100
AcDbLine
 10
74.62500179356866
 20
-8.083211810850639
 30
0.0
 11
75.18571428571428
 21
-7.323737484021661
 31
0.0
  0
ARC
  5
4EA
330
18
100
AcDbEntity
  8
1
 62
     1
100
AcDbCircle
 10
131.3583722690343
 20
27.69809065622128
 30
0.0
 40
66.0628364886247
100
AcDbArc
 50
208.627331164688
 51
209.7831147769798
  0
LINE
  5
4EB
330
18
100
AcDbEntity
  8
1
 62
     1
100
AcDbLine
 10
73.37142857142858
 20
-7.323737484021661
 30
0.0
 11
74.02160003414491
 21
-8.204162354916315
 31
0.0
  0
LINE
  5
4EC
330
18
100
AcDbEntity
  8
1
 62
     1
100
AcDbLine
 10
74.02160003414488
 20
-5.116552728696671
 30
0.0
 11
74.02160003414488
 21
-8.204162354916344
 31
0.0
  0
LINE
  5
4ED
330
18
100
AcDbEntity
  8
1
 62
     1
100
AcDbLine
 10
76.75508945282047
 20
7.784056056352622
 30
0.0
 11
75.60163357437192
 21
7.803127412530437
 31
0.0
  0
LINE
  5
4EE
330
18
100
AcDbEntity
  8
1
 62
     1
100
AcDbLine
 10
75.60163357437193
 20
7.803127412530434
 30
0.0
 11
75.60163357437195
 21
4.603713016224124
 31
0.0
  0
LINE
  5
4EF
330
18
100
AcDbEntity
  8
1
 62
     1
100
AcDbLine
 10
76.75508945282046
 20
4.551224075256838
 30
0.0
 11
75.60163357437192
 21
4.603713016224141
 31
0.0
  0
LINE
  5
4F0
330
18
100
AcDbEntity
  8
1
 62
     1
100
AcDbLine
 10
74.62500179356869
 20
7.819101840052252
 30
0.0
 11
74.02160003414488
 21
7.828898328210888
 31
0.0
  0
LINE
  5
4F1
330
18
100
AcDbEntity
  8
1
 62
     1
100
AcDbLine
 10
74.62500179733276
 20
4.648116386849132
 30
0.0
 11
74.02160003414488
 21
4.675533646827191
 31
0.0
  0
ARC
  5
4F2
330
18
100
AcDbEntity
  8
1
 62
     1
100
AcDbCircle
 10
-0.6337380332343301
 20
29.5518594661995
 30
0.0
 40
69.86367776171352
100
AcDbArc
 50
330.0770910408323
 51
331.3420310681846
  0
LINE
  5
4F3
330
18
100
AcDbEntity
  8
1
 62
     1
100
AcDbLine
 10
59.91694297013862
 20
-8.34512883762275
 30
0.0
 11
60.67142857142858
 21
-7.323737484021661
 31
0.0
  0
LINE
  5
4F4
330
18
100
AcDbEntity
  8
1
 62
     1
100
AcDbLine
 10
60.67142857142859
 20
-7.323737484021662
 30
0.0
 11
60.67142857142858
 21
-3.953310113073021
 31
0.0
  0
ARC
  5
4F5
330
18
100
AcDbEntity
  8
1
 62
     1
100
AcDbCircle
 10
118.0642209717001
 20
28.37452008394274
 30
0.0
 40
67.45790596825375
100
AcDbArc
 50
208.6351109625774
 51
209.9451634152997
  0
LINE
  5
4F6
330
18
100
AcDbEntity
  8
1
 62
     1
100
AcDbLine
 10
58.85714285714287
 20
-7.323737484021662
 30
0.0
 11
58.85714285714286
 21
-3.953310113073021
 31
0.0
  0
LINE
  5
4F7
330
18
100
AcDbEntity
  8
1
 62
     1
100
AcDbLine
 10
58.85714285714285
 20
-7.323737484021661
 30
0.0
 11
59.61162845843283
 21
-8.34512883762276
 31
0.0
  0
ARC
  5
4F8
330
18
100
AcDbEntity
  8
1
 62
     1
100
AcDbCircle
 10
-2.448023747189517
 20
29.55185946601281
 30
0.0
 40
69.86367776133393
100
AcDbArc
 50
330.0770910408297
 51
331.3420310681888
  0
LINE
  5
4F9
330
18
100
AcDbEntity
  8
1
 62
     1
100
AcDbLine
 10
58.1026572558529
 20
-8.345128837622752
 30
0.0
 11
58.85714285714285
 21
-7.323737484021661
 31
0.0
  0
ARC
  5
4FA
330
18
100
AcDbEntity
  8
1
 62
     1
100
AcDbCircle
 10
116.2499352573165
 20
28.37452008388777
 30
0.0
 40
67.45790596814155
100
AcDbArc
 50
208.6351109625762
 51
209.9451634153008
  0
LINE
  5
4FB
330
18
100
AcDbEntity
  8
1
 62
     1
100
AcDbLine
 10
57.04285714285714
 20
-7.323737484021661
 30
0.0
 11
57.79734274414712
 21
-8.34512883762277
 31
0.0
  0
ARC
  5
4FC
330
18
100
AcDbEntity
  8
1
 62
     1
100
AcDbCircle
 10
-4.262309461355073
 20
29.55185946594501
 30
0.0
 40
69.86367776119597
100
AcDbArc
 50
330.0770910408287
 51
331.3420310681904
  0
LINE
  5
4FD
330
18
100
AcDbEntity
  8
1
 62
     1
100
AcDbLine
 10
56.28837154156718
 20
-8.34512883762276
 30
0.0
 11
57.04285714285714
 21
-7.323737484021661
 31
0.0
  0
LINE
  5
4FE
330
18
100
AcDbEntity
  8
1
 62
     1
100
AcDbLine
 10
57.04285714285714
 20
-7.323737484021662
 30
0.0
 11
57.04285714285714
 21
-3.953310113073021
 31
0.0
  0
ARC
  5
4FF
330
18
100
AcDbEntity
  8
1
 62
     1
100
AcDbCircle
 10
12.06626196764167
 20
29.55185946570618
 30
0.0
 40
69.8636777607082
100
AcDbArc
 50
330.0770910408245
 51
331.342031068195
  0
LINE
  5
500
330
18
100
AcDbEntity
  8
1
 62
     1
100
AcDbLine
 10
72.61694297013861
 20
-8.34512883762276
 30
0.0
 11
73.37142857142858
 21
-7.323737484021661
 31
0.0
  0
LINE
  5
501
330
18
100
AcDbEntity
  8
1
 62
     1
100
AcDbLine
 10
73.37142857142858
 20
-7.323737484021662
 30
0.0
 11
73.3714285714286
 21
-3.953310113073021
 31
0.0
  0
ARC
  5
502
330
18
100
AcDbEntity
  8
1
 62
     1
100
AcDbCircle
 10
-7.890880889766102
 20
29.55185946585441
 30
0.0
 40
69.86367776101176
100
AcDbArc
 50
330.0770910408276
 51
331.3420310681925
  0
LINE
  5
503
330
18
100
AcDbEntity
  8
1
 62
     1
100
AcDbLine
 10
52.65980011299575
 20
-8.34512883762276
 30
0.0
 11
53.41428571428571
 21
-7.323737484021661
 31
0.0
  0
ARC
  5
504
330
18
100
AcDbEntity
  8
1
 62
     1
100
AcDbCircle
 10
112.6213638286945
 20
28.37452008385969
 30
0.0
 40
67.45790596808365
100
AcDbArc
 50
208.6351109625759
 51
209.9451634153016
  0
LINE
  5
505
330
18
100
AcDbEntity
  8
1
 62
     1
100
AcDbLine
 10
53.41428571428572
 20
-7.323737484021662
 30
0.0
 11
53.41428571428573
 21
-3.953310113073021
 31
0.0
  0
LINE
  5
506
330
18
100
AcDbEntity
  8
1
 62
     1
100
AcDbLine
 10
53.41428571428571
 20
-7.323737484021661
 30
0.0
 11
54.1687713155757
 21
-8.34512883762277
 31
0.0
  0
ARC
  5
507
330
18
100
AcDbEntity
  8
1
 62
     1
100
AcDbCircle
 10
-6.076595175753987
 20
29.55185946600895
 30
0.0
 40
69.86367776132597
100
AcDbArc
 50
330.0770910408296
 51
331.3420310681889
  0
LINE
  5
508
330
18
100
AcDbEntity
  8
1
 62
     1
100
AcDbLine
 10
54.47408582728147
 20
-8.345128837622752
 30
0.0
 11
55.22857142857143
 21
-7.323737484021661
 31
0.0
  0
LINE
  5
509
330
18
100
AcDbEntity
  8
1
 62
     1
100
AcDbLine
 10
55.22857142857143
 20
-7.323737484021662
 30
0.0
 11
55.22857142857143
 21
-3.953310113073021
 31
0.0
  0
ARC
  5
50A
330
18
100
AcDbEntity
  8
1
 62
     1
100
AcDbCircle
 10
114.4356495429367
 20
28.37452008383628
 30
0.0
 40
67.45790596803425
100
AcDbArc
 50
208.6351109625761
 51
209.9451634153028
  0
LINE
  5
50B
330
18
100
AcDbEntity
  8
1
 62
     1
100
AcDbLine
 10
55.22857142857143
 20
-7.323737484021661
 30
0.0
 11
55.9830570298614
 21
-8.345128837622754
 31
0.0
  0
ARC
  5
50C
330
18
100
AcDbEntity
  8
1
 62
     1
100
AcDbCircle
 10
119.8785066858345
 20
28.37452008385843
 30
0.0
 40
67.45790596808058
100
AcDbArc
 50
208.6351109625761
 51
209.9451634153018
  0
LINE
  5
50D
330
18
100
AcDbEntity
  8
1
 62
     1
100
AcDbLine
 10
60.67142857142858
 20
-7.323737484021661
 30
0.0
 11
61.42591417271855
 21
-8.34512883762276
 31
0.0
  0
ARC
  5
50E
330
18
100
AcDbEntity
  8
1
 62
     1
100
AcDbCircle
 10
1.180547681342269
 20
29.55185946603546
 30
0.0
 40
69.86367776137959
100
AcDbArc
 50
330.0770910408299
 51
331.342031068188
  0
LINE
  5
50F
330
18
100
AcDbEntity
  8
1
 62
     1
100
AcDbLine
 10
61.73122868442433
 20
-8.345128837622752
 30
0.0
 11
62.48571428571429
 21
-7.323737484021661
 31
0.0
  0
ARC
  5
510
330
18
100
AcDbEntity
  8
1
 62
     1
100
AcDbCircle
 10
121.6927924000541
 20
28.3745200838216
 30
0.0
 40
67.45790596800484
100
AcDbArc
 50
208.6351109625755
 51
209.9451634153028
  0
LINE
  5
511
330
18
100
AcDbEntity
  8
1
 62
     1
100
AcDbLine
 10
62.4857142857143
 20
-7.323737484021662
 30
0.0
 11
62.48571428571429
 21
-3.953310113073021
 31
0.0
  0
LINE
  5
512
330
18
100
AcDbEntity
  8
1
 62
     1
100
AcDbLine
 10
62.48571428571429
 20
-7.323737484021661
 30
0.0
 11
63.24019988700426
 21
-8.345128837622767
 31
0.0
  0
ARC
  5
513
330
18
100
AcDbEntity
  8
1
 62
     1
100
AcDbCircle
 10
2.994833395385015
 20
29.55185946617284
 30
0.0
 40
69.86367776165869
100
AcDbArc
 50
330.0770910408316
 51
331.3420310681847
  0
LINE
  5
514
330
18
100
AcDbEntity
  8
1
 62
     1
100
AcDbLine
 10
63.54551439871004
 20
-8.345128837622752
 30
0.0
 11
64.30000000000001
 21
-7.323737484021661
 31
0.0
  0
LINE
  5
515
330
18
100
AcDbEntity
  8
1
 62
     1
100
AcDbLine
 10
64.30000000000003
 20
-7.323737484021662
 30
0.0
 11
64.30000000000001
 21
-3.953310113073021
 31
0.0
  0
ARC
  5
516
330
18
100
AcDbEntity
  8
1
 62
     1
100
AcDbCircle
 10
10.25197625263869
 20
29.55185946611122
 30
0.0
 40
69.8636777615319
100
AcDbArc
 50
330.0770910408301
 51
331.3420310681856
  0
LINE
  5
517
330
18
100
AcDbEntity
  8
1
 62
     1
100
AcDbLine
 10
70.80265725585289
 20
-8.34512883762275
 30
0.0
 11
71.55714285714286
 21
-7.323737484021661
 31
0.0
  0
LINE
  5
518
330
18
100
AcDbEntity
  8
1
 62
     1
100
AcDbLine
 10
71.55714285714288
 20
-7.323737484021662
 30
0.0
 11
71.55714285714286
 21
-3.953310113073021
 31
0.0
  0
ARC
  5
519
330
18
100
AcDbEntity
  8
1
 62
     1
100
AcDbCircle
 10
128.9499352573104
 20
28.37452008388413
 30
0.0
 40
67.45790596813445
100
AcDbArc
 50
208.635110962576
 51
209.9451634153007
  0
LINE
  5
51A
330
18
100
AcDbEntity
  8
1
 62
     1
100
AcDbLine
 10
69.74285714285716
 20
-7.323737484021662
 30
0.0
 11
69.74285714285715
 21
-3.953310113073021
 31
0.0
  0
LINE
  5
51B
330
18
100
AcDbEntity
  8
1
 62
     1
100
AcDbLine
 10
69.74285714285713
 20
-7.323737484021661
 30
0.0
 11
70.49734274414715
 21
-8.345128837622795
 31
0.0
  0
ARC
  5
51C
330
18
100
AcDbEntity
  8
1
 62
     1
100
AcDbCircle
 10
8.437690538337996
 20
29.55185946611853
 30
0.0
 40
69.86367776154853
100
AcDbArc
 50
330.077091040831
 51
331.3420310681861
  0
LINE
  5
51D
330
18
100
AcDbEntity
  8
1
 62
     1
100
AcDbLine
 10
68.9883715415672
 20
-8.345128837622742
 30
0.0
 11
69.74285714285713
 21
-7.323737484021661
 31
0.0
  0
LINE
  5
51E
330
18
100
AcDbEntity
  8
1
 62
     1
100
AcDbLine
 10
72.61694297013864
 20
7.840255555627692
 30
0.0
 11
72.31162845843285
 21
7.840255555627692
 31
0.0
  0
LINE
  5
51F
330
18
100
AcDbEntity
  8
1
 62
     1
100
AcDbLine
 10
72.31162845843285
 20
7.840255555627692
 30
0.0
 11
72.31162845843285
 21
4.707488154237263
 31
0.0
  0
LINE
  5
520
330
18
100
AcDbEntity
  8
1
 62
     1
100
AcDbLine
 10
72.61694297013864
 20
4.707488154237267
 30
0.0
 11
72.31162845843285
 21
4.707488154237267
 31
0.0
  0
LINE
  5
521
330
18
100
AcDbEntity
  8
1
 62
     1
100
AcDbLine
 10
70.80265725585289
 20
7.84025555562769
 30
0.0
 11
70.49734274414712
 21
7.840255555627692
 31
0.0
  0
LINE
  5
522
330
18
100
AcDbEntity
  8
1
 62
     1
100
AcDbLine
 10
70.49734274414713
 20
7.840255555627665
 30
0.0
 11
70.49734274414715
 21
4.707488154237254
 31
0.0
  0
LINE
  5
523
330
18
100
AcDbEntity
  8
1
 62
     1
100
AcDbLine
 10
70.80265725585292
 20
7.840255555627694
 30
0.0
 11
70.80265725585292
 21
4.707488154237264
 31
0.0
  0
LINE
  5
524
330
18
100
AcDbEntity
  8
1
 62
     1
100
AcDbLine
 10
68.68305702986142
 20
7.84025555562769
 30
0.0
 11
68.68305702986139
 21
4.707488154237264
 31
0.0
  0
LINE
  5
525
330
18
100
AcDbEntity
  8
1
 62
     1
100
AcDbLine
 10
67.17408582728149
 20
7.84025555562769
 30
0.0
 11
66.8687713155757
 21
7.84025555562769
 31
0.0
  0
LINE
  5
526
330
18
100
AcDbEntity
  8
1
 62
     1
100
AcDbLine
 10
65.35980011299577
 20
7.84025555562769
 30
0.0
 11
65.05448560128998
 21
7.84025555562769
 31
0.0
  0
LINE
  5
527
330
18
100
AcDbEntity
  8
1
 62
     1
100
AcDbLine
 10
65.05448560128997
 20
7.840255555627692
 30
0.0
 11
65.05448560128998
 21
4.707488154237263
 31
0.0
  0
LINE
  5
528
330
18
100
AcDbEntity
  8
1
 62
     1
100
AcDbLine
 10
63.54551439871003
 20
7.84025555562769
 30
0.0
 11
63.24019988700426
 21
7.84025555562769
 31
0.0
  0
LINE
  5
529
330
18
100
AcDbEntity
  8
1
 62
     1
100
AcDbLine
 10
63.24019988700426
 20
7.840255555627682
 30
0.0
 11
63.24019988700427
 21
4.707488154237259
 31
0.0
  0
LINE
  5
52A
330
18
100
AcDbEntity
  8
1
 62
     1
100
AcDbLine
 10
63.54551439871005
 20
4.707488154237264
 30
0.0
 11
63.24019988700427
 21
4.707488154237264
 31
0.0
  0
LINE
  5
52B
330
18
100
AcDbEntity
  8
1
 62
     1
100
AcDbLine
 10
61.73122868442432
 20
7.84025555562769
 30
0.0
 11
61.42591417271855
 21
7.84025555562769
 31
0.0
  0
LINE
  5
52C
330
18
100
AcDbEntity
  8
1
 62
     1
100
AcDbLine
 10
61.42591417271854
 20
7.840255555627683
 30
0.0
 11
61.42591417271854
 21
4.707488154237262
 31
0.0
  0
LINE
  5
52D
330
18
100
AcDbEntity
  8
1
 62
     1
100
AcDbLine
 10
61.73122868442434
 20
4.707488154237264
 30
0.0
 11
61.42591417271856
 21
4.707488154237262
 31
0.0
  0
LINE
  5
52E
330
18
100
AcDbEntity
  8
1
 62
     1
100
AcDbLine
 10
61.73122868442434
 20
7.840255555627694
 30
0.0
 11
61.73122868442434
 21
4.707488154237263
 31
0.0
  0
LINE
  5
52F
330
18
100
AcDbEntity
  8
1
 62
     1
100
AcDbLine
 10
59.91694297013862
 20
7.84025555562769
 30
0.0
 11
59.61162845843285
 21
7.84025555562769
 31
0.0
  0
LINE
  5
530
330
18
100
AcDbEntity
  8
1
 62
     1
100
AcDbLine
 10
59.61162845843283
 20
7.840255555627683
 30
0.0
 11
59.61162845843283
 21
4.707488154237262
 31
0.0
  0
LINE
  5
531
330
18
100
AcDbEntity
  8
1
 62
     1
100
AcDbLine
 10
59.91694297013863
 20
7.840255555627694
 30
0.0
 11
59.91694297013862
 21
4.707488154237264
 31
0.0
  0
LINE
  5
532
330
18
100
AcDbEntity
  8
1
 62
     1
100
AcDbLine
 10
58.1026572558529
 20
7.84025555562769
 30
0.0
 11
57.79734274414711
 21
7.84025555562769
 31
0.0
  0
LINE
  5
533
330
18
100
AcDbEntity
  8
1
 62
     1
100
AcDbLine
 10
57.79734274414712
 20
7.840255555627682
 30
0.0
 11
57.79734274414713
 21
4.707488154237259
 31
0.0
  0
LINE
  5
534
330
18
100
AcDbEntity
  8
1
 62
     1
100
AcDbLine
 10
56.28837154156717
 20
7.84025555562769
 30
0.0
 11
55.98305702986141
 21
7.84025555562769
 31
0.0
  0
LINE
  5
535
330
18
100
AcDbEntity
  8
1
 62
     1
100
AcDbLine
 10
54.47408582728148
 20
7.84025555562769
 30
0.0
 11
54.16877131557571
 21
7.84025555562769
 31
0.0
  0
LINE
  5
536
330
18
100
AcDbEntity
  8
1
 62
     1
100
AcDbLine
 10
54.1687713155757
 20
7.840255555627677
 30
0.0
 11
54.1687713155757
 21
4.70748815423726
 31
0.0
  0
LINE
  5
537
330
18
100
AcDbEntity
  8
1
 62
     1
100
AcDbLine
 10
54.47408582728149
 20
4.707488154237264
 30
0.0
 11
54.16877131557573
 21
4.707488154237264
 31
0.0
  0
LINE
  5
538
330
18
100
AcDbEntity
  8
1
 62
     1
100
AcDbLine
 10
52.65980011299576
 20
7.84025555562769
 30
0.0
 11
52.65980011299576
 21
4.70748815423726
 31
0.0
  0
LINE
  5
539
330
18
100
AcDbEntity
  8
1
 62
     1
100
AcDbLine
 10
49.03122868442432
 20
7.84025555562769
 30
0.0
 11
49.0
 21
7.84025555562769
 31
0.0
  0
LINE
  5
53A
330
18
100
AcDbEntity
  8
1
 62
     1
100
AcDbLine
 10
49.03122868442432
 20
4.707488154237264
 30
0.0
 11
49.0
 21
4.707488154237264
 31
0.0
  0
ARC
  5
53B
330
18
100
AcDbEntity
  8
1
 62
     1
100
AcDbCircle
 10
130.7642209716835
 20
28.37452008393343
 30
0.0
 40
67.45790596823474
100
AcDbArc
 50
208.6351109625772
 51
209.9451634152999
  0
LINE
  5
53C
330
18
100
AcDbEntity
  8
1
 62
     1
100
AcDbLine
 10
71.55714285714286
 20
-7.323737484021661
 30
0.0
 11
72.31162845843284
 21
-8.34512883762276
 31
0.0
  0
LINE
  5
53D
330
18
100
AcDbEntity
  8
1
 62
     1
100
AcDbLine
 10
72.31162845843284
 20
-5.298549448574815
 30
0.0
 11
72.31162845843284
 21
-8.345128837622754
 31
0.0
  0
ARC
  5
53E
330
18
100
AcDbEntity
  8
1
 62
     1
100
AcDbCircle
 10
127.1356495428152
 20
28.37452008376674
 30
0.0
 40
67.45790596789432
100
AcDbArc
 50
208.6351109625737
 51
209.945163415303
  0
LINE
  5
53F
330
18
100
AcDbEntity
  8
1
 62
     1
100
AcDbLine
 10
67.92857142857144
 20
-7.323737484021662
 30
0.0
 11
67.92857142857143
 21
-3.953310113073021
 31
0.0
  0
LINE
  5
540
330
18
100
AcDbEntity
  8
1
 62
     1
100
AcDbLine
 10
67.92857142857142
 20
-7.323737484021661
 30
0.0
 11
68.6830570298614
 21
-8.34512883762276
 31
0.0
  0
LINE
  5
541
330
18
100
AcDbEntity
  8
1
 62
     1
100
AcDbLine
 10
68.6830570298614
 20
-5.298549448574815
 30
0.0
 11
68.6830570298614
 21
-8.34512883762275
 31
0.0
  0
ARC
  5
542
330
18
100
AcDbEntity
  8
1
 62
     1
100
AcDbCircle
 10
6.623404824000907
 20
29.55185946614806
 30
0.0
 40
69.86367776160779
100
AcDbArc
 50
330.077091040831
 51
331.3420310681851
  0
LINE
  5
543
330
18
100
AcDbEntity
  8
1
 62
     1
100
AcDbLine
 10
67.1740858272815
 20
-5.298549448574815
 30
0.0
 11
67.1740858272815
 21
-8.345128837622754
 31
0.0
  0
LINE
  5
544
330
18
100
AcDbEntity
  8
1
 62
     1
100
AcDbLine
 10
67.17408582728146
 20
-8.345128837622743
 30
0.0
 11
67.92857142857142
 21
-7.323737484021661
 31
0.0
  0
ARC
  5
545
330
18
100
AcDbEntity
  8
1
 62
     1
100
AcDbCircle
 10
125.3213638285557
 20
28.37452008378293
 30
0.0
 40
67.45790596792509
100
AcDbArc
 50
208.6351109625751
 51
209.9451634153039
  0
LINE
  5
546
330
18
100
AcDbEntity
  8
1
 62
     1
100
AcDbLine
 10
66.11428571428571
 20
-7.323737484021662
 30
0.0
 11
66.11428571428571
 21
-3.953310113073021
 31
0.0
  0
LINE
  5
547
330
18
100
AcDbEntity
  8
1
 62
     1
100
AcDbLine
 10
66.1142857142857
 20
-7.323737484021661
 30
0.0
 11
66.86877131557571
 21
-8.345128837622795
 31
0.0
  0
LINE
  5
548
330
18
100
AcDbEntity
  8
1
 62
     1
100
AcDbLine
 10
66.86877131557571
 20
-5.298549448574815
 30
0.0
 11
66.86877131557571
 21
-8.345128837622754
 31
0.0
  0
ARC
  5
549
330
18
100
AcDbEntity
  8
1
 62
     1
100
AcDbCircle
 10
4.80911910991815
 20
29.55185946603365
 30
0.0
 40
69.86367776137482
100
AcDbArc
 50
330.0770910408293
 51
331.3420310681877
  0
LINE
  5
54A
330
18
100
AcDbEntity
  8
1
 62
     1
100
AcDbLine
 10
65.35980011299577
 20
-5.298549448574811
 30
0.0
 11
65.35980011299577
 21
-8.345128837622754
 31
0.0
  0
LINE
  5
54B
330
18
100
AcDbEntity
  8
1
 62
     1
100
AcDbLine
 10
65.35980011299574
 20
-8.345128837622752
 30
0.0
 11
66.11428571428571
 21
-7.323737484021661
 31
0.0
  0
ARC
  5
54C
330
18
100
AcDbEntity
  8
1
 62
     1
100
AcDbCircle
 10
123.5070781148018
 20
28.37452008407966
 30
0.0
 40
67.45790596853405
100
AcDbArc
 50
208.6351109625799
 51
209.9451634152967
  0
LINE
  5
54D
330
18
100
AcDbEntity
  8
1
 62
     1
100
AcDbLine
 10
64.30000000000001
 20
-7.323737484021661
 30
0.0
 11
65.05448560128997
 21
-8.345128837622756
 31
0.0
  0
LINE
  5
54E
330
18
100
AcDbEntity
  8
1
 62
     1
100
AcDbLine
 10
65.05448560128997
 20
-5.298549448574811
 30
0.0
 11
65.05448560128997
 21
-8.345128837622754
 31
0.0
  0
ARC
  5
54F
330
18
100
AcDbEntity
  8
1
 62
     1
100
AcDbCircle
 10
-11.51945231829104
 20
29.55185946582852
 30
0.0
 40
69.86367776095855
100
AcDbArc
 50
330.0770910408269
 51
331.3420310681928
  0
LINE
  5
550
330
18
100
AcDbEntity
  8
1
 62
     1
100
AcDbLine
 10
49.03122868442433
 20
-5.298549448574811
 30
0.0
 11
49.03122868442432
 21
-8.345128837622754
 31
0.0
  0
LINE
  5
551
330
18
100
AcDbEntity
  8
1
 62
     1
100
AcDbLine
 10
49.03122868442433
 20
-8.345128837622752
 30
0.0
 11
49.78571428571429
 21
-7.323737484021661
 31
0.0
  0
LINE
  5
552
330
18
100
AcDbEntity
  8
1
 62
     1
100
AcDbLine
 10
49.7857142857143
 20
-7.323737484021662
 30
0.0
 11
49.78571428571428
 21
-3.953310113073021
 31
0.0
  0
ARC
  5
553
330
18
100
AcDbEntity
  8
1
 62
     1
100
AcDbCircle
 10
58.34879404414485
 20
-79.80140362534705
 30
0.0
 40
88.13876220456609
100
AcDbArc
 50
96.08875465006453
 51
97.37206309662568
  0
ARC
  5
554
330
18
100
AcDbEntity
  8
1
 62
     1
100
AcDbCircle
 10
190.4084143801645
 20
-457.6241113175515
 30
0.0
 40
483.4736834039419
100
AcDbArc
 50
107.0067385536588
 51
107.2393312587078
  0
LINE
  5
555
330
18
100
AcDbEntity
  8
1
 62
     1
100
AcDbLine
 10
49.0
 20
7.84025555562769
 30
0.0
 11
49.00000000000001
 21
4.707488154237264
 31
0.0
  0
ARC
  5
556
330
18
100
AcDbEntity
  8
1
 62
     1
100
AcDbCircle
 10
108.9927924000937
 20
28.37452008384409
 30
0.0
 40
67.45790596805041
100
AcDbArc
 50
208.6351109625762
 51
209.9451634153025
  0
LINE
  5
557
330
18
100
AcDbEntity
  8
1
 62
     1
100
AcDbLine
 10
49.78571428571429
 20
-7.323737484021661
 30
0.0
 11
50.54019988700426
 21
-8.345128837622754
 31
0.0
  0
LINE
  5
558
330
18
100
AcDbEntity
  8
1
 62
     1
100
AcDbLine
 10
50.54019988700425
 20
-5.298549448574815
 30
0.0
 11
50.54019988700426
 21
-8.345128837622754
 31
0.0
  0
ARC
  5
559
330
18
100
AcDbEntity
  8
1
 62
     1
100
AcDbCircle
 10
-9.705166604325406
 20
29.55185946600895
 30
0.0
 40
69.86367776132597
100
AcDbArc
 50
330.0770910408296
 51
331.3420310681889
  0
LINE
  5
55A
330
18
100
AcDbEntity
  8
1
 62
     1
100
AcDbLine
 10
50.84551439871005
 20
-5.298549448574815
 30
0.0
 11
50.84551439871004
 21
-8.345128837622754
 31
0.0
  0
LINE
  5
55B
330
18
100
AcDbEntity
  8
1
 62
     1
100
AcDbLine
 10
50.84551439871004
 20
-8.34512883762275
 30
0.0
 11
51.60000000000001
 21
-7.323737484021661
 31
0.0
  0
LINE
  5
55C
330
18
100
AcDbEntity
  8
1
 62
     1
100
AcDbLine
 10
51.60000000000001
 20
-7.323737484021662
 30
0.0
 11
51.6
 21
-3.953310113073021
 31
0.0
  0
ARC
  5
55D
330
18
100
AcDbEntity
  8
1
 62
     1
100
AcDbCircle
 10
110.8070781148213
 20
28.37452008408993
 30
0.0
 40
67.45790596855603
100
AcDbArc
 50
208.6351109625796
 51
209.9451634152961
  0
LINE
  5
55E
330
18
100
AcDbEntity
  8
1
 62
     1
100
AcDbLine
 10
51.60000000000001
 20
-7.323737484021661
 30
0.0
 11
52.35448560128999
 21
-8.34512883762277
 31
0.0
  0
LINE
  5
55F
330
18
100
AcDbEntity
  8
1
 62
     1
100
AcDbLine
 10
52.35448560129
 20
-5.298549448574815
 30
0.0
 11
52.35448560129
 21
-8.345128837622754
 31
0.0
  0
LINE
  5
560
330
18
100
AcDbEntity
  8
1
 62
     1
100
AcDbLine
 10
54.47408582728148
 20
-5.298549448574812
 30
0.0
 11
54.16877131557571
 21
-5.298549448574812
 31
0.0
  0
LINE
  5
561
330
18
100
AcDbEntity
  8
1
 62
     1
100
AcDbLine
 10
61.73122868442434
 20
-5.298549448574812
 30
0.0
 11
61.42591417271856
 21
-5.298549448574812
 31
0.0
  0
LINE
  5
562
330
18
100
AcDbEntity
  8
1
 62
     1
100
AcDbLine
 10
65.35980011299577
 20
-5.298549448574812
 30
0.0
 11
65.05448560128997
 21
-5.298549448574812
 31
0.0
  0
ARC
  5
563
330
18
100
AcDbEntity
  8
1
 62
     1
100
AcDbCircle
 10
47.35372126792075
 20
3.39497058549828
 30
0.0
 40
0.7695871516909042
100
AcDbArc
 50
107.3404213531977
 51
114.0887426449216
  0
LINE
  5
564
330
18
100
AcDbEntity
  8
1
 62
     1
100
AcDbLine
 10
50.84551439871003
 20
4.707488154237264
 30
0.0
 11
50.54019988700423
 21
4.707488154237264
 31
0.0
  0
LINE
  5
565
330
18
100
AcDbEntity
  8
1
 62
     1
100
AcDbLine
 10
70.80265725585289
 20
4.707488154237264
 30
0.0
 11
70.49734274414715
 21
4.707488154237264
 31
0.0
  0
LINE
  5
566
330
18
100
AcDbEntity
  8
1
 62
     1
100
AcDbLine
 10
68.98837154156723
 20
4.707488154237264
 30
0.0
 11
68.6830570298614
 21
4.707488154237265
 31
0.0
  0
LINE
  5
567
330
18
100
AcDbEntity
  8
1
 62
     1
100
AcDbLine
 10
67.17408582728149
 20
4.707488154237264
 30
0.0
 11
66.8687713155757
 21
4.707488154237264
 31
0.0
  0
LINE
  5
568
330
18
100
AcDbEntity
  8
1
 62
     1
100
AcDbLine
 10
65.35980011299577
 20
4.707488154237264
 30
0.0
 11
65.05448560128997
 21
4.707488154237266
 31
0.0
  0
LINE
  5
569
330
18
100
AcDbEntity
  8
1
 62
     1
100
AcDbLine
 10
59.91694297013862
 20
4.707488154237264
 30
0.0
 11
59.61162845843285
 21
4.707488154237264
 31
0.0
  0
LINE
  5
56A
330
18
100
AcDbEntity
  8
1
 62
     1
100
AcDbLine
 10
58.1026572558529
 20
4.707488154237264
 30
0.0
 11
57.79734274414712
 21
4.707488154237264
 31
0.0
  0
LINE
  5
56B
330
18
100
AcDbEntity
  8
1
 62
     1
100
AcDbLine
 10
56.28837154156719
 20
4.707488154237264
 30
0.0
 11
55.98305702986141
 21
4.707488154237262
 31
0.0
  0
LINE
  5
56C
330
18
100
AcDbEntity
  8
1
 62
     1
100
AcDbLine
 10
52.65980011299576
 20
4.707488154237264
 30
0.0
 11
52.35448560128998
 21
4.707488154237264
 31
0.0
  0
ARC
  5
56D
330
18
100
AcDbEntity
  8
1
 62
     1
100
AcDbCircle
 10
88.45196077983525
 20
-108.2322095259278
 30
0.0
 40
116.7447198725304
100
AcDbArc
 50
96.31946708868774
 51
96.52488060192148
  0
LINE
  5
56E
330
18
100
AcDbEntity
  8
1
 62
     1
100
AcDbLine
 10
75.18571428571428
 20
4.475957531137308
 30
0.0
 11
75.60163357437193
 21
4.603713016224136
 31
0.0
  0
ARC
  5
56F
330
18
100
AcDbEntity
  8
1
 62
     1
100
AcDbCircle
 10
60.88137740498269
 20
-117.4555263127666
 30
0.0
 40
126.0262644553158
100
AcDbArc
 50
83.48272187514513
 51
83.73923442618924
  0
LINE
  5
570
330
18
100
AcDbEntity
  8
1
 62
     1
100
AcDbLine
 10
74.6250017935687
 20
7.819101840052254
 30
0.0
 11
74.6250017935687
 21
4.648116384351774
 31
0.0
  0
LINE
  5
571
330
18
100
AcDbEntity
  8
1
 62
     1
100
AcDbLine
 10
74.62500179356866
 20
4.648116384351772
 30
0.0
 11
75.18571428571428
 21
4.475957531137308
 31
0.0
  0
LINE
  5
572
330
18
100
AcDbEntity
  8
1
 62
     1
100
AcDbLine
 10
75.1857142857143
 20
4.475957531137308
 30
0.0
 11
75.18571428571431
 21
7.756307948915328
 31
0.0
  0
ARC
  5
573
330
18
100
AcDbEntity
  8
1
 62
     1
100
AcDbCircle
 10
87.52076243069023
 20
-116.0483958736032
 30
0.0
 40
124.6106289213594
100
AcDbArc
 50
96.21909880926515
 51
96.51990446916577
  0
LINE
  5
574
330
18
100
AcDbEntity
  8
1
 62
     1
100
AcDbLine
 10
73.37142857142857
 20
4.475957531137308
 30
0.0
 11
74.02160003414492
 21
4.675533646827191
 31
0.0
  0
LINE
  5
575
330
18
100
AcDbEntity
  8
1
 62
     1
100
AcDbLine
 10
74.02160003414488
 20
7.828898328210884
 30
0.0
 11
74.02160003414488
 21
4.675533646827192
 31
0.0
  0
LINE
  5
576
330
18
100
AcDbEntity
  8
1
 62
     1
100
AcDbLine
 10
76.75508945282046
 20
12.20699797135144
 30
0.0
 11
75.60163357437192
 21
12.49104051739206
 31
0.0
  0
LINE
  5
577
330
18
100
AcDbEntity
  8
1
 62
     1
100
AcDbLine
 10
75.60163357437193
 20
12.63408621820514
 30
0.0
 11
76.75508945282046
 21
12.33789052752804
 31
0.0
  0
LINE
  5
578
330
18
100
AcDbEntity
  8
1
 62
     1
100
AcDbLine
 10
74.62500179733276
 20
12.7313282087168
 30
0.0
 11
74.02160003414488
 21
12.87969600174351
 31
0.0
  0
LINE
  5
579
330
18
100
AcDbEntity
  8
1
 62
     1
100
AcDbLine
 10
74.02160003414488
 20
13.03982269628355
 30
0.0
 11
74.62500179356869
 21
12.88487528630657
 31
0.0
  0
LINE
  5
57A
330
18
100
AcDbEntity
  8
1
 62
     1
100
AcDbLine
 10
76.75508945282047
 20
7.784056056352622
 30
0.0
 11
77.0
 21
7.756307948915326
 31
0.0
  0
LINE
  5
57B
330
18
100
AcDbEntity
  8
1
 62
     1
100
AcDbLine
 10
76.75508945282046
 20
7.784056056352624
 30
0.0
 11
76.75508945282046
 21
4.551224075256838
 31
0.0
  0
LINE
  5
57C
330
18
100
AcDbEntity
  8
1
 62
     1
100
AcDbLine
 10
76.75508945282047
 20
4.551224075256837
 30
0.0
 11
77.0
 21
4.475957531137308
 31
0.0
  0
ARC
  5
57D
330
18
100
AcDbEntity
  8
1
 62
     1
100
AcDbCircle
 10
45.44630159536339
 20
-125.6793683375551
 30
0.0
 40
134.3014840401923
100
AcDbArc
 50
83.4906526239227
 51
83.81451844595867
  0
LINE
  5
57E
330
18
100
AcDbEntity
  8
1
 62
     1
100
AcDbLine
 10
59.91694297013862
 20
4.707488154237263
 30
0.0
 11
60.67142857142858
 21
4.475957531137308
 31
0.0
  0
LINE
  5
57F
330
18
100
AcDbEntity
  8
1
 62
     1
100
AcDbLine
 10
60.67142857142858
 20
4.475957531137308
 30
0.0
 11
60.67142857142859
 21
7.756307948915328
 31
0.0
  0
ARC
  5
580
330
18
100
AcDbEntity
  8
1
 62
     1
100
AcDbCircle
 10
73.40211615400999
 20
-119.5632476847308
 30
0.0
 40
128.14767365817
100
AcDbArc
 50
96.17779234121326
 51
96.51721061327467
  0
LINE
  5
581
330
18
100
AcDbEntity
  8
1
 62
     1
100
AcDbLine
 10
58.85714285714286
 20
4.475957531137308
 30
0.0
 11
58.85714285714287
 21
7.756307948915328
 31
0.0
  0
LINE
  5
582
330
18
100
AcDbEntity
  8
1
 62
     1
100
AcDbLine
 10
58.85714285714286
 20
4.475957531137308
 30
0.0
 11
59.61162845843284
 21
4.707488154237264
 31
0.0
  0
ARC
  5
583
330
18
100
AcDbEntity
  8
1
 62
     1
100
AcDbCircle
 10
43.63201588110175
 20
-125.6793683373407
 30
0.0
 40
134.3014840399766
100
AcDbArc
 50
83.49065262392256
 51
83.81451844595902
  0
LINE
  5
584
330
18
100
AcDbEntity
  8
1
 62
     1
100
AcDbLine
 10
58.1026572558529
 20
7.840255555627694
 30
0.0
 11
58.1026572558529
 21
4.707488154237263
 31
0.0
  0
LINE
  5
585
330
18
100
AcDbEntity
  8
1
 62
     1
100
AcDbLine
 10
58.1026572558529
 20
4.707488154237263
 30
0.0
 11
58.85714285714286
 21
4.475957531137308
 31
0.0
  0
ARC
  5
586
330
18
100
AcDbEntity
  8
1
 62
     1
100
AcDbCircle
 10
71.58783043972232
 20
-119.5632476847075
 30
0.0
 40
128.1476736581467
100
AcDbArc
 50
96.17779234121348
 51
96.51721061327497
  0
LINE
  5
587
330
18
100
AcDbEntity
  8
1
 62
     1
100
AcDbLine
 10
57.04285714285714
 20
4.475957531137308
 30
0.0
 11
57.79734274414712
 21
4.707488154237268
 31
0.0
  0
ARC
  5
588
330
18
100
AcDbEntity
  8
1
 62
     1
100
AcDbCircle
 10
41.81773016694619
 20
-125.6793683361662
 30
0.0
 40
134.301484038795
100
AcDbArc
 50
83.49065262392094
 51
83.81451844596026
  0
LINE
  5
589
330
18
100
AcDbEntity
  8
1
 62
     1
100
AcDbLine
 10
56.28837154156718
 20
7.84025555562769
 30
0.0
 11
56.28837154156719
 21
4.70748815423726
 31
0.0
  0
LINE
  5
58A
330
18
100
AcDbEntity
  8
1
 62
     1
100
AcDbLine
 10
56.28837154156719
 20
4.707488154237263
 30
0.0
 11
57.04285714285714
 21
4.475957531137308
 31
0.0
  0
LINE
  5
58B
330
18
100
AcDbEntity
  8
1
 62
     1
100
AcDbLine
 10
57.04285714285714
 20
4.475957531137308
 30
0.0
 11
57.04285714285715
 21
7.756307948915328
 31
0.0
  0
ARC
  5
58C
330
18
100
AcDbEntity
  8
1
 62
     1
100
AcDbCircle
 10
58.14630159553329
 20
-125.6793683360324
 30
0.0
 40
134.3014840386603
100
AcDbArc
 50
83.49065262392111
 51
83.81451844596076
  0
LINE
  5
58D
330
18
100
AcDbEntity
  8
1
 62
     1
100
AcDbLine
 10
72.6169429701386
 20
7.840255555627683
 30
0.0
 11
72.61694297013861
 21
4.707488154237262
 31
0.0
  0
LINE
  5
58E
330
18
100
AcDbEntity
  8
1
 62
     1
100
AcDbLine
 10
72.61694297013861
 20
4.707488154237264
 30
0.0
 11
73.37142857142857
 21
4.475957531137308
 31
0.0
  0
LINE
  5
58F
330
18
100
AcDbEntity
  8
1
 62
     1
100
AcDbLine
 10
73.37142857142858
 20
4.475957531137308
 30
0.0
 11
73.37142857142858
 21
7.756307948915328
 31
0.0
  0
ARC
  5
590
330
18
100
AcDbEntity
  8
1
 62
     1
100
AcDbCircle
 10
38.18915873824852
 20
-125.6793683372995
 30
0.0
 40
134.3014840399352
100
AcDbArc
 50
83.49065262392222
 51
83.8145184459588
  0
LINE
  5
591
330
18
100
AcDbEntity
  8
1
 62
     1
100
AcDbLine
 10
52.65980011299575
 20
4.707488154237263
 30
0.0
 11
53.41428571428571
 21
4.475957531137308
 31
0.0
  0
LINE
  5
592
330
18
100
AcDbEntity
  8
1
 62
     1
100
AcDbLine
 10
53.41428571428572
 20
4.475957531137308
 30
0.0
 11
53.41428571428573
 21
7.756307948915328
 31
0.0
  0
ARC
  5
593
330
18
100
AcDbEntity
  8
1
 62
     1
100
AcDbCircle
 10
67.95925901113357
 20
-119.563247684559
 30
0.0
 40
128.1476736579972
100
AcDbArc
 50
96.17779234121292
 51
96.51721061327481
  0
LINE
  5
594
330
18
100
AcDbEntity
  8
1
 62
     1
100
AcDbLine
 10
53.41428571428571
 20
4.475957531137308
 30
0.0
 11
54.16877131557571
 21
4.707488154237268
 31
0.0
  0
ARC
  5
595
330
18
100
AcDbEntity
  8
1
 62
     1
100
AcDbCircle
 10
40.00344445256277
 20
-125.6793683370425
 30
0.0
 40
134.3014840396766
100
AcDbArc
 50
83.49065262392187
 51
83.81451844595908
  0
LINE
  5
596
330
18
100
AcDbEntity
  8
1
 62
     1
100
AcDbLine
 10
54.47408582728148
 20
7.840255555627694
 30
0.0
 11
54.47408582728148
 21
4.707488154237264
 31
0.0
  0
LINE
  5
597
330
18
100
AcDbEntity
  8
1
 62
     1
100
AcDbLine
 10
54.47408582728147
 20
4.707488154237263
 30
0.0
 11
55.22857142857143
 21
4.475957531137308
 31
0.0
  0
ARC
  5
598
330
18
100
AcDbEntity
  8
1
 62
     1
100
AcDbCircle
 10
69.77354472548791
 20
-119.5632476851733
 30
0.0
 40
128.1476736586152
100
AcDbArc
 50
96.1777923412139
 51
96.51721061327413
  0
LINE
  5
599
330
18
100
AcDbEntity
  8
1
 62
     1
100
AcDbLine
 10
55.22857142857143
 20
4.475957531137308
 30
0.0
 11
55.22857142857143
 21
7.756307948915328
 31
0.0
  0
LINE
  5
59A
330
18
100
AcDbEntity
  8
1
 62
     1
100
AcDbLine
 10
55.22857142857144
 20
4.475957531137308
 30
0.0
 11
55.9830570298614
 21
4.707488154237263
 31
0.0
  0
LINE
  5
59B
330
18
100
AcDbEntity
  8
1
 62
     1
100
AcDbLine
 10
55.9830570298614
 20
7.840255555627694
 30
0.0
 11
55.98305702986139
 21
4.707488154237263
 31
0.0
  0
ARC
  5
59C
330
18
100
AcDbEntity
  8
1
 62
     1
100
AcDbCircle
 10
75.2164018682924
 20
-119.5632476847011
 30
0.0
 40
128.1476736581401
100
AcDbArc
 50
96.1777923412132
 51
96.51721061327468
  0
LINE
  5
59D
330
18
100
AcDbEntity
  8
1
 62
     1
100
AcDbLine
 10
60.67142857142858
 20
4.475957531137308
 30
0.0
 11
61.42591417271855
 21
4.707488154237264
 31
0.0
  0
ARC
  5
59E
330
18
100
AcDbEntity
  8
1
 62
     1
100
AcDbCircle
 10
47.26058730973546
 20
-125.6793683367705
 30
0.0
 40
134.301484039403
100
AcDbArc
 50
83.49065262392139
 51
83.81451844595925
  0
LINE
  5
59F
330
18
100
AcDbEntity
  8
1
 62
     1
100
AcDbLine
 10
61.73122868442434
 20
4.707488154237263
 30
0.0
 11
62.48571428571429
 21
4.475957531137308
 31
0.0
  0
LINE
  5
5A0
330
18
100
AcDbEntity
  8
1
 62
     1
100
AcDbLine
 10
62.4857142857143
 20
4.475957531137308
 30
0.0
 11
62.4857142857143
 21
7.756307948915328
 31
0.0
  0
ARC
  5
5A1
330
18
100
AcDbEntity
  8
1
 62
     1
100
AcDbCircle
 10
77.03068758265391
 20
-119.5632476853805
 30
0.0
 40
128.1476736588237
100
AcDbArc
 50
96.1777923412142
 51
96.51721061327389
  0
LINE
  5
5A2
330
18
100
AcDbEntity
  8
1
 62
     1
100
AcDbLine
 10
62.48571428571429
 20
4.475957531137308
 30
0.0
 11
63.24019988700427
 21
4.707488154237266
 31
0.0
  0
ARC
  5
5A3
330
18
100
AcDbEntity
  8
1
 62
     1
100
AcDbCircle
 10
49.07487302396262
 20
-125.6793683373071
 30
0.0
 40
134.3014840399428
100
AcDbArc
 50
83.49065262392251
 51
83.81451844595908
  0
LINE
  5
5A4
330
18
100
AcDbEntity
  8
1
 62
     1
100
AcDbLine
 10
63.54551439871005
 20
7.840255555627694
 30
0.0
 11
63.54551439871004
 21
4.707488154237263
 31
0.0
  0
LINE
  5
5A5
330
18
100
AcDbEntity
  8
1
 62
     1
100
AcDbLine
 10
63.54551439871004
 20
4.707488154237263
 30
0.0
 11
64.30000000000001
 21
4.475957531137308
 31
0.0
  0
LINE
  5
5A6
330
18
100
AcDbEntity
  8
1
 62
     1
100
AcDbLine
 10
64.30000000000001
 20
4.475957531137308
 30
0.0
 11
64.30000000000003
 21
7.756307948915328
 31
0.0
  0
ARC
  5
5A7
330
18
100
AcDbEntity
  8
1
 62
     1
100
AcDbCircle
 10
56.33201588106633
 20
-125.6793683376674
 30
0.0
 40
134.3014840403053
100
AcDbArc
 50
83.49065262392337
 51
83.81451844595902
  0
LINE
  5
5A8
330
18
100
AcDbEntity
  8
1
 62
     1
100
AcDbLine
 10
70.80265725585289
 20
4.707488154237263
 30
0.0
 11
71.55714285714285
 21
4.475957531137308
 31
0.0
  0
LINE
  5
5A9
330
18
100
AcDbEntity
  8
1
 62
     1
100
AcDbLine
 10
71.55714285714288
 20
4.475957531137308
 30
0.0
 11
71.55714285714288
 21
7.756307948915328
 31
0.0
  0
ARC
  5
5AA
330
18
100
AcDbEntity
  8
1
 62
     1
100
AcDbCircle
 10
84.28783043976085
 20
-119.5632476850565
 30
0.0
 40
128.1476736584978
100
AcDbArc
 50
96.17779234121382
 51
96.51721061327437
  0
LINE
  5
5AB
330
18
100
AcDbEntity
  8
1
 62
     1
100
AcDbLine
 10
69.74285714285716
 20
4.475957531137308
 30
0.0
 11
70.49734274414713
 21
4.707488154237272
 31
0.0
  0
ARC
  5
5AC
330
18
100
AcDbEntity
  8
1
 62
     1
100
AcDbCircle
 10
54.51773016682964
 20
-125.6793683372213
 30
0.0
 40
134.3014840398565
100
AcDbArc
 50
83.49065262392256
 51
83.81451844595931
  0
LINE
  5
5AD
330
18
100
AcDbEntity
  8
1
 62
     1
100
AcDbLine
 10
68.98837154156723
 20
7.840255555627699
 30
0.0
 11
68.98837154156722
 21
4.707488154237264
 31
0.0
  0
LINE
  5
5AE
330
18
100
AcDbEntity
  8
1
 62
     1
100
AcDbLine
 10
68.9883715415672
 20
4.70748815423726
 30
0.0
 11
69.74285714285715
 21
4.475957531137308
 31
0.0
  0
LINE
  5
5AF
330
18
100
AcDbEntity
  8
1
 62
     1
100
AcDbLine
 10
69.74285714285715
 20
4.475957531137308
 30
0.0
 11
69.74285714285715
 21
7.756307948915328
 31
0.0
  0
LINE
  5
5B0
330
18
100
AcDbEntity
  8
1
 62
     1
100
AcDbLine
 10
72.61694297013861
 20
13.05261699186002
 30
0.0
 11
72.31162845843284
 21
13.05261699186002
 31
0.0
  0
LINE
  5
5B1
330
18
100
AcDbEntity
  8
1
 62
     1
100
AcDbLine
 10
72.31162845843284
 20
13.2205
 30
0.0
 11
72.61694297013861
 21
13.2205
 31
0.0
  0
LINE
  5
5B2
330
18
100
AcDbEntity
  8
1
 62
     1
100
AcDbLine
 10
70.80265725585289
 20
13.05261699186002
 30
0.0
 11
70.49734274414712
 21
13.05261699186002
 31
0.0
  0
LINE
  5
5B3
330
18
100
AcDbEntity
  8
1
 62
     1
100
AcDbLine
 10
68.6830570298614
 20
13.2205
 30
0.0
 11
68.98837154156723
 21
13.2205
 31
0.0
  0
LINE
  5
5B4
330
18
100
AcDbEntity
  8
1
 62
     1
100
AcDbLine
 10
66.86877131557571
 20
13.2205
 30
0.0
 11
67.1740858272815
 21
13.2205
 31
0.0
  0
LINE
  5
5B5
330
18
100
AcDbEntity
  8
1
 62
     1
100
AcDbLine
 10
65.35980011299577
 20
13.05261699186002
 30
0.0
 11
65.05448560128997
 21
13.05261699186002
 31
0.0
  0
LINE
  5
5B6
330
18
100
AcDbEntity
  8
1
 62
     1
100
AcDbLine
 10
65.05448560128997
 20
13.2205
 30
0.0
 11
65.35980011299577
 21
13.2205
 31
0.0
  0
LINE
  5
5B7
330
18
100
AcDbEntity
  8
1
 62
     1
100
AcDbLine
 10
63.54551439871003
 20
13.05261699186002
 30
0.0
 11
63.24019988700426
 21
13.05261699186002
 31
0.0
  0
LINE
  5
5B8
330
18
100
AcDbEntity
  8
1
 62
     1
100
AcDbLine
 10
63.24019988700427
 20
13.2205
 30
0.0
 11
63.54551439871004
 21
13.2205
 31
0.0
  0
LINE
  5
5B9
330
18
100
AcDbEntity
  8
1
 62
     1
100
AcDbLine
 10
61.73122868442434
 20
13.05261699186002
 30
0.0
 11
61.42591417271856
 21
13.05261699186002
 31
0.0
  0
LINE
  5
5BA
330
18
100
AcDbEntity
  8
1
 62
     1
100
AcDbLine
 10
59.91694297013863
 20
13.05261699186002
 30
0.0
 11
59.61162845843284
 21
13.05261699186002
 31
0.0
  0
LINE
  5
5BB
330
18
100
AcDbEntity
  8
1
 62
     1
100
AcDbLine
 10
56.28837154156719
 20
13.05261699186002
 30
0.0
 11
55.98305702986141
 21
13.05261699186002
 31
0.0
  0
LINE
  5
5BC
330
18
100
AcDbEntity
  8
1
 62
     1
100
AcDbLine
 10
55.9830570298614
 20
13.2205
 30
0.0
 11
56.28837154156718
 21
13.2205
 31
0.0
  0
LINE
  5
5BD
330
18
100
AcDbEntity
  8
1
 62
     1
100
AcDbLine
 10
54.16877131557571
 20
13.2205
 30
0.0
 11
54.47408582728148
 21
13.2205
 31
0.0
  0
LINE
  5
5BE
330
18
100
AcDbEntity
  8
1
 62
     1
100
AcDbLine
 10
52.65980011299575
 20
13.05261699186002
 30
0.0
 11
52.35448560129
 21
13.05261699186002
 31
0.0
  0
LINE
  5
5BF
330
18
100
AcDbEntity
  8
1
 62
     1
100
AcDbLine
 10
50.84551439871004
 20
13.05261699186002
 30
0.0
 11
50.54019988700426
 21
13.05261699186002
 31
0.0
  0
LINE
  5
5C0
330
18
100
AcDbEntity
  8
1
 62
     1
100
AcDbLine
 10
49.03122868442432
 20
13.05261699186002
 30
0.0
 11
49.0
 21
13.05261699186002
 31
0.0
  0
LINE
  5
5C1
330
18
100
AcDbEntity
  8
1
 62
     1
100
AcDbLine
 10
49.0
 20
13.2205
 30
0.0
 11
48.99999999999999
 21
13.220461314023
 31
0.0
  0
LINE
  5
5C2
330
18
100
AcDbEntity
  8
1
 62
     1
100
AcDbLine
 10
48.99999999999999
 20
13.220461314023
 30
0.0
 11
49.00000000000001
 21
13.20914318538408
 31
0.0
  0
LINE
  5
5C3
330
18
100
AcDbEntity
  8
1
 62
     1
100
AcDbLine
 10
49.00000000000001
 20
13.20914318538408
 30
0.0
 11
49.0
 21
13.05261699186002
 31
0.0
  0
ARC
  5
5C4
330
18
100
AcDbEntity
  8
1
 62
     1
100
AcDbCircle
 10
86.10211615401752
 20
-119.5632476847968
 30
0.0
 40
128.1476736582365
100
AcDbArc
 50
96.1777923412134
 51
96.51721061327464
  0
LINE
  5
5C5
330
18
100
AcDbEntity
  8
1
 62
     1
100
AcDbLine
 10
71.55714285714285
 20
4.475957531137308
 30
0.0
 11
72.31162845843284
 21
4.707488154237264
 31
0.0
  0
ARC
  5
5C6
330
18
100
AcDbEntity
  8
1
 62
     1
100
AcDbCircle
 10
82.47354472549884
 20
-119.5632476852724
 30
0.0
 40
128.147673658715
100
AcDbArc
 50
96.17779234121397
 51
96.51721061327395
  0
LINE
  5
5C7
330
18
100
AcDbEntity
  8
1
 62
     1
100
AcDbLine
 10
67.92857142857143
 20
4.475957531137308
 30
0.0
 11
67.92857142857143
 21
7.756307948915328
 31
0.0
  0
LINE
  5
5C8
330
18
100
AcDbEntity
  8
1
 62
     1
100
AcDbLine
 10
67.92857142857143
 20
4.475957531137308
 30
0.0
 11
68.68305702986142
 21
4.707488154237264
 31
0.0
  0
ARC
  5
5C9
330
18
100
AcDbEntity
  8
1
 62
     1
100
AcDbCircle
 10
52.70344445269262
 20
-125.6793683358799
 30
0.0
 40
134.3014840385069
100
AcDbArc
 50
83.49065262392071
 51
83.81451844596072
  0
LINE
  5
5CA
330
18
100
AcDbEntity
  8
1
 62
     1
100
AcDbLine
 10
67.17408582728152
 20
7.840255555627692
 30
0.0
 11
67.17408582728152
 21
4.707488154237263
 31
0.0
  0
LINE
  5
5CB
330
18
100
AcDbEntity
  8
1
 62
     1
100
AcDbLine
 10
67.17408582728149
 20
4.707488154237262
 30
0.0
 11
67.92857142857143
 21
4.475957531137308
 31
0.0
  0
ARC
  5
5CC
330
18
100
AcDbEntity
  8
1
 62
     1
100
AcDbCircle
 10
80.65925901125274
 20
-119.5632476856226
 30
0.0
 40
128.1476736590675
100
AcDbArc
 50
96.17779234121471
 51
96.51721061327378
  0
LINE
  5
5CD
330
18
100
AcDbEntity
  8
1
 62
     1
100
AcDbLine
 10
66.11428571428571
 20
4.475957531137308
 30
0.0
 11
66.86877131557571
 21
4.707488154237272
 31
0.0
  0
LINE
  5
5CE
330
18
100
AcDbEntity
  8
1
 62
     1
100
AcDbLine
 10
66.86877131557571
 20
7.840255555627694
 30
0.0
 11
66.86877131557571
 21
4.707488154237263
 31
0.0
  0
ARC
  5
5CF
330
18
100
AcDbEntity
  8
1
 62
     1
100
AcDbCircle
 10
50.88915873828935
 20
-125.6793683369358
 30
0.0
 40
134.3014840395693
100
AcDbArc
 50
83.49065262392195
 51
83.81451844595941
  0
LINE
  5
5D0
330
18
100
AcDbEntity
  8
1
 62
     1
100
AcDbLine
 10
65.35980011299577
 20
7.840255555627692
 30
0.0
 11
65.35980011299577
 21
4.707488154237263
 31
0.0
  0
LINE
  5
5D1
330
18
100
AcDbEntity
  8
1
 62
     1
100
AcDbLine
 10
65.35980011299574
 20
4.707488154237263
 30
0.0
 11
66.1142857142857
 21
4.475957531137308
 31
0.0
  0
LINE
  5
5D2
330
18
100
AcDbEntity
  8
1
 62
     1
100
AcDbLine
 10
66.11428571428571
 20
4.475957531137308
 30
0.0
 11
66.11428571428571
 21
7.756307948915328
 31
0.0
  0
ARC
  5
5D3
330
18
100
AcDbEntity
  8
1
 62
     1
100
AcDbCircle
 10
78.84497329687116
 20
-119.5632476847658
 30
0.0
 40
128.1476736582053
100
AcDbArc
 50
96.17779234121336
 51
96.51721061327467
  0
LINE
  5
5D4
330
18
100
AcDbEntity
  8
1
 62
     1
100
AcDbLine
 10
64.30000000000001
 20
4.475957531137308
 30
0.0
 11
65.05448560128997
 21
4.707488154237265
 31
0.0
  0
ARC
  5
5D5
330
18
100
AcDbEntity
  8
1
 62
     1
100
AcDbCircle
 10
34.56058730990516
 20
-125.6793683352411
 30
0.0
 40
134.3014840378643
100
AcDbArc
 50
83.49065262391935
 51
83.8145184459609
  0
LINE
  5
5D6
330
18
100
AcDbEntity
  8
1
 62
     1
100
AcDbLine
 10
49.03122868442433
 20
7.840255555627692
 30
0.0
 11
49.03122868442433
 21
4.707488154237263
 31
0.0
  0
LINE
  5
5D7
330
18
100
AcDbEntity
  8
1
 62
     1
100
AcDbLine
 10
49.03122868442433
 20
4.707488154237263
 30
0.0
 11
49.78571428571429
 21
4.475957531137308
 31
0.0
  0
ARC
  5
5D8
330
18
100
AcDbEntity
  8
1
 62
     1
100
AcDbCircle
 10
540.1113832241323
 20
-283.6507347248563
 30
0.0
 40
573.7796782050142
100
AcDbArc
 50
148.861863077215
 51
149.226010579525
  0
LINE
  5
5D9
330
18
100
AcDbEntity
  8
1
 62
     1
100
AcDbLine
 10
47.03960716
 20
9.825
 30
0.0
 11
49.0
 21
13.2205
 31
0.0
  0
ARC
  5
5DA
330
18
100
AcDbEntity
  8
1
 62
     1
100
AcDbCircle
 10
64.33068758263468
 20
-119.5632476852054
 30
0.0
 40
128.1476736586476
100
AcDbArc
 50
96.17779234121407
 51
96.51721061327423
  0
LINE
  5
5DB
330
18
100
AcDbEntity
  8
1
 62
     1
100
AcDbLine
 10
49.78571428571429
 20
4.475957531137308
 30
0.0
 11
49.78571428571431
 21
7.756307948915328
 31
0.0
  0
LINE
  5
5DC
330
18
100
AcDbEntity
  8
1
 62
     1
100
AcDbLine
 10
49.78571428571429
 20
4.475957531137308
 30
0.0
 11
50.54019988700426
 21
4.707488154237263
 31
0.0
  0
LINE
  5
5DD
330
18
100
AcDbEntity
  8
1
 62
     1
100
AcDbLine
 10
50.54019988700426
 20
7.840255555627692
 30
0.0
 11
50.54019988700425
 21
4.707488154237264
 31
0.0
  0
ARC
  5
5DE
330
18
100
AcDbEntity
  8
1
 62
     1
100
AcDbCircle
 10
36.37487302397957
 20
-125.6793683371502
 30
0.0
 40
134.301484039785
100
AcDbArc
 50
83.4906526239221
 51
83.81451844595902
  0
LINE
  5
5DF
330
18
100
AcDbEntity
  8
1
 62
     1
100
AcDbLine
 10
50.84551439871005
 20
7.840255555627692
 30
0.0
 11
50.84551439871006
 21
4.707488154237263
 31
0.0
  0
LINE
  5
5E0
330
18
100
AcDbEntity
  8
1
 62
     1
100
AcDbLine
 10
50.84551439871005
 20
4.707488154237263
 30
0.0
 11
51.60000000000001
 21
4.475957531137308
 31
0.0
  0
ARC
  5
5E1
330
18
100
AcDbEntity
  8
1
 62
     1
100
AcDbCircle
 10
66.14497329687953
 20
-119.5632476848402
 30
0.0
 40
128.1476736582802
100
AcDbArc
 50
96.17779234121348
 51
96.51721061327461
  0
LINE
  5
5E2
330
18
100
AcDbEntity
  8
1
 62
     1
100
AcDbLine
 10
51.6
 20
4.475957531137308
 30
0.0
 11
51.60000000000002
 21
7.756307948915328
 31
0.0
  0
LINE
  5
5E3
330
18
100
AcDbEntity
  8
1
 62
     1
100
AcDbLine
 10
51.60000000000001
 20
4.475957531137308
 30
0.0
 11
52.35448560128999
 21
4.707488154237268
 31
0.0
  0
LINE
  5
5E4
330
18
100
AcDbEntity
  8
1
 62
     1
100
AcDbLine
 10
52.35448560128999
 20
7.840255555627692
 30
0.0
 11
52.35448560128999
 21
4.707488154237263
 31
0.0
  0
LINE
  5
5E5
330
18
100
AcDbEntity
  8
1
 62
     1
100
AcDbLine
 10
50.84551439871004
 20
7.84025555562769
 30
0.0
 11
50.54019988700425
 21
7.84025555562769
 31
0.0
  0
LINE
  5
5E6
330
18
100
AcDbEntity
  8
1
 62
     1
100
AcDbLine
 10
52.65980011299575
 20
7.84025555562769
 30
0.0
 11
52.35448560128999
 21
7.84025555562769
 31
0.0
  0
LINE
  5
5E7
330
18
100
AcDbEntity
  8
1
 62
     1
100
AcDbLine
 10
68.98837154156723
 20
7.84025555562769
 30
0.0
 11
68.6830570298614
 21
7.84025555562769
 31
0.0
  0
LINE
  5
5E8
330
18
100
AcDbEntity
  8
1
 62
     1
100
AcDbLine
 10
47.12434793022503
 20
9.925270293176132
 30
0.0
 11
47.03960716
 21
9.782178815606908
 31
0.0
  0
LINE
  5
5E9
330
18
100
AcDbEntity
  8
1
 62
     1
100
AcDbLine
 10
68.98837154156723
 20
13.05261699186002
 30
0.0
 11
68.6830570298614
 21
13.05261699186002
 31
0.0
  0
LINE
  5
5EA
330
18
100
AcDbEntity
  8
1
 62
     1
100
AcDbLine
 10
67.17408582728149
 20
13.05261699186002
 30
0.0
 11
66.8687713155757
 21
13.05261699186002
 31
0.0
  0
LINE
  5
5EB
330
18
100
AcDbEntity
  8
1
 62
     1
100
AcDbLine
 10
58.1026572558529
 20
13.05261699186002
 30
0.0
 11
57.79734274414712
 21
13.05261699186002
 31
0.0
  0
LINE
  5
5EC
330
18
100
AcDbEntity
  8
1
 62
     1
100
AcDbLine
 10
54.47408582728149
 20
13.05261699186002
 30
0.0
 11
54.16877131557571
 21
13.05261699186002
 31
0.0
  0
LINE
  5
5ED
330
18
100
AcDbEntity
  8
1
 62
     1
100
AcDbLine
 10
73.37142857142858
 20
11.79969501515897
 30
0.0
 11
73.37142857142858
 21
11.91369321428571
 31
0.0
  0
LINE
  5
5EE
330
18
100
AcDbEntity
  8
1
 62
     1
100
AcDbLine
 10
73.37142857142858
 20
11.79969501515897
 30
0.0
 11
74.02160003414491
 21
12.87969600174351
 31
0.0
  0
LINE
  5
5EF
330
18
100
AcDbEntity
  8
1
 62
     1
100
AcDbLine
 10
74.02160003414488
 20
13.03982269628355
 30
0.0
 11
74.02160003414488
 21
13.03978576639601
 31
0.0
  0
LINE
  5
5F0
330
18
100
AcDbEntity
  8
1
 62
     1
100
AcDbLine
 10
74.02160003414488
 20
13.03978576639601
 30
0.0
 11
74.02160003414488
 21
13.0289840967284
 31
0.0
  0
LINE
  5
5F1
330
18
100
AcDbEntity
  8
1
 62
     1
100
AcDbLine
 10
74.02160003414488
 20
13.0289840967284
 30
0.0
 11
74.02160003414487
 21
12.87969600174351
 31
0.0
  0
LINE
  5
5F2
330
18
100
AcDbEntity
  8
1
 62
     1
100
AcDbLine
 10
74.62500179356869
 20
12.88487528630657
 30
0.0
 11
74.6250017935687
 21
12.88483984736849
 31
0.0
  0
LINE
  5
5F3
330
18
100
AcDbEntity
  8
1
 62
     1
100
AcDbLine
 10
74.6250017935687
 20
12.88483984736849
 30
0.0
 11
74.62500179356869
 21
12.87447654311887
 31
0.0
  0
LINE
  5
5F4
330
18
100
AcDbEntity
  8
1
 62
     1
100
AcDbLine
 10
74.62500179356869
 20
12.87447654311887
 30
0.0
 11
74.62500179356867
 21
12.73132819520242
 31
0.0
  0
LINE
  5
5F5
330
18
100
AcDbEntity
  8
1
 62
     1
100
AcDbLine
 10
74.62500179356866
 20
12.73132819520241
 30
0.0
 11
75.1857142857143
 21
11.79969501515897
 31
0.0
  0
LINE
  5
5F6
330
18
100
AcDbEntity
  8
1
 62
     1
100
AcDbLine
 10
75.1857142857143
 20
11.79969501515897
 30
0.0
 11
75.1857142857143
 21
11.91369321428571
 31
0.0
  0
LINE
  5
5F7
330
18
100
AcDbEntity
  8
1
 62
     1
100
AcDbLine
 10
75.1857142857143
 20
11.79969501515897
 30
0.0
 11
75.60163357437193
 21
12.4910405173921
 31
0.0
  0
LINE
  5
5F8
330
18
100
AcDbEntity
  8
1
 62
     1
100
AcDbLine
 10
75.60163357437193
 20
12.63408621820514
 30
0.0
 11
75.60163357437193
 21
12.634053161477
 31
0.0
  0
LINE
  5
5F9
330
18
100
AcDbEntity
  8
1
 62
     1
100
AcDbLine
 10
75.60163357437193
 20
12.634053161477
 30
0.0
 11
75.60163357437193
 21
12.62439003398854
 31
0.0
  0
LINE
  5
5FA
330
18
100
AcDbEntity
  8
1
 62
     1
100
AcDbLine
 10
75.60163357437193
 20
12.62439003398854
 30
0.0
 11
75.60163357437195
 21
12.49104051739206
 31
0.0
  0
LINE
  5
5FB
330
18
100
AcDbEntity
  8
1
 62
     1
100
AcDbLine
 10
76.75508945282046
 20
12.33789052752804
 30
0.0
 11
76.75508945282046
 21
12.33786023196403
 31
0.0
  0
LINE
  5
5FC
330
18
100
AcDbEntity
  8
1
 62
     1
100
AcDbLine
 10
76.75508945282046
 20
12.33786023196403
 30
0.0
 11
76.75508945282046
 21
12.32900827708036
 31
0.0
  0
LINE
  5
5FD
330
18
100
AcDbEntity
  8
1
 62
     1
100
AcDbLine
 10
76.75508945282046
 20
12.32900827708036
 30
0.0
 11
76.75508945282044
 21
12.20699797135144
 31
0.0
  0
LINE
  5
5FE
330
18
100
AcDbEntity
  8
1
 62
     1
100
AcDbLine
 10
76.75508945282046
 20
12.20699797135144
 30
0.0
 11
77.0
 21
11.79969501515897
 31
0.0
  0
LINE
  5
5FF
330
18
100
AcDbEntity
  8
1
 62
     1
100
AcDbLine
 10
59.91694297013862
 20
13.2205
 30
0.0
 11
59.91694297013862
 21
13.220461314023
 31
0.0
  0
LINE
  5
600
330
18
100
AcDbEntity
  8
1
 62
     1
100
AcDbLine
 10
59.91694297013862
 20
13.220461314023
 30
0.0
 11
59.91694297013863
 21
13.20914318538408
 31
0.0
  0
LINE
  5
601
330
18
100
AcDbEntity
  8
1
 62
     1
100
AcDbLine
 10
59.91694297013863
 20
13.20914318538408
 30
0.0
 11
59.91694297013862
 21
13.05261699186002
 31
0.0
  0
LINE
  5
602
330
18
100
AcDbEntity
  8
1
 62
     1
100
AcDbLine
 10
59.91694297013862
 20
13.05261699186001
 30
0.0
 11
60.67142857142858
 21
11.79969501515897
 31
0.0
  0
LINE
  5
603
330
18
100
AcDbEntity
  8
1
 62
     1
100
AcDbLine
 10
58.85714285714285
 20
11.79969501515897
 30
0.0
 11
58.85714285714286
 21
11.91369321428571
 31
0.0
  0
LINE
  5
604
330
18
100
AcDbEntity
  8
1
 62
     1
100
AcDbLine
 10
58.85714285714286
 20
11.79969501515897
 30
0.0
 11
59.61162845843283
 21
13.05261699186003
 31
0.0
  0
LINE
  5
605
330
18
100
AcDbEntity
  8
1
 62
     1
100
AcDbLine
 10
59.61162845843283
 20
13.2205
 30
0.0
 11
59.61162845843283
 21
13.220461314023
 31
0.0
  0
LINE
  5
606
330
18
100
AcDbEntity
  8
1
 62
     1
100
AcDbLine
 10
59.61162845843283
 20
13.220461314023
 30
0.0
 11
59.61162845843283
 21
13.20914318538408
 31
0.0
  0
LINE
  5
607
330
18
100
AcDbEntity
  8
1
 62
     1
100
AcDbLine
 10
59.61162845843283
 20
13.20914318538408
 30
0.0
 11
59.61162845843284
 21
13.05261699186002
 31
0.0
  0
LINE
  5
608
330
18
100
AcDbEntity
  8
1
 62
     1
100
AcDbLine
 10
58.1026572558529
 20
13.2205
 30
0.0
 11
58.1026572558529
 21
13.220461314023
 31
0.0
  0
LINE
  5
609
330
18
100
AcDbEntity
  8
1
 62
     1
100
AcDbLine
 10
58.1026572558529
 20
13.220461314023
 30
0.0
 11
58.1026572558529
 21
13.20914318538408
 31
0.0
  0
LINE
  5
60A
330
18
100
AcDbEntity
  8
1
 62
     1
100
AcDbLine
 10
58.1026572558529
 20
13.20914318538408
 30
0.0
 11
58.1026572558529
 21
13.05261699186002
 31
0.0
  0
LINE
  5
60B
330
18
100
AcDbEntity
  8
1
 62
     1
100
AcDbLine
 10
58.10265725585289
 20
13.05261699186002
 30
0.0
 11
58.85714285714286
 21
11.79969501515897
 31
0.0
  0
LINE
  5
60C
330
18
100
AcDbEntity
  8
1
 62
     1
100
AcDbLine
 10
57.04285714285714
 20
11.79969501515897
 30
0.0
 11
57.04285714285714
 21
11.88589417353766
 31
0.0
  0
LINE
  5
60D
330
18
100
AcDbEntity
  8
1
 62
     1
100
AcDbLine
 10
57.04285714285714
 20
11.88589417353766
 30
0.0
 11
57.04285714285714
 21
11.90683477401275
 31
0.0
  0
LINE
  5
60E
330
18
100
AcDbEntity
  8
1
 62
     1
100
AcDbLine
 10
57.04285714285714
 20
11.90683477401275
 30
0.0
 11
57.04285714285714
 21
11.91199022359111
 31
0.0
  0
LINE
  5
60F
330
18
100
AcDbEntity
  8
1
 62
     1
100
AcDbLine
 10
57.04285714285714
 20
11.91199022359111
 30
0.0
 11
57.04285714285714
 21
11.91326893087515
 31
0.0
  0
LINE
  5
610
330
18
100
AcDbEntity
  8
1
 62
     1
100
AcDbLine
 10
57.04285714285714
 20
11.91326893087515
 30
0.0
 11
57.04285714285714
 21
11.91369321428571
 31
0.0
  0
LINE
  5
611
330
18
100
AcDbEntity
  8
1
 62
     1
100
AcDbLine
 10
57.04285714285714
 20
11.79969501515897
 30
0.0
 11
57.79734274414712
 21
13.05261699186004
 31
0.0
  0
LINE
  5
612
330
18
100
AcDbEntity
  8
1
 62
     1
100
AcDbLine
 10
57.79734274414712
 20
13.2205
 30
0.0
 11
57.79734274414712
 21
13.220461314023
 31
0.0
  0
LINE
  5
613
330
18
100
AcDbEntity
  8
1
 62
     1
100
AcDbLine
 10
57.79734274414712
 20
13.220461314023
 30
0.0
 11
57.79734274414713
 21
13.20914318538408
 31
0.0
  0
LINE
  5
614
330
18
100
AcDbEntity
  8
1
 62
     1
100
AcDbLine
 10
57.79734274414713
 20
13.20914318538408
 30
0.0
 11
57.79734274414713
 21
13.05261699186002
 31
0.0
  0
LINE
  5
615
330
18
100
AcDbEntity
  8
1
 62
     1
100
AcDbLine
 10
56.28837154156718
 20
13.2205
 30
0.0
 11
56.28837154156717
 21
13.220461314023
 31
0.0
  0
LINE
  5
616
330
18
100
AcDbEntity
  8
1
 62
     1
100
AcDbLine
 10
56.28837154156717
 20
13.220461314023
 30
0.0
 11
56.28837154156718
 21
13.20914318538408
 31
0.0
  0
LINE
  5
617
330
18
100
AcDbEntity
  8
1
 62
     1
100
AcDbLine
 10
56.28837154156718
 20
13.20914318538408
 30
0.0
 11
56.28837154156718
 21
13.05261699186002
 31
0.0
  0
LINE
  5
618
330
18
100
AcDbEntity
  8
1
 62
     1
100
AcDbLine
 10
56.28837154156717
 20
13.05261699186002
 30
0.0
 11
57.04285714285714
 21
11.79969501515897
 31
0.0
  0
LINE
  5
619
330
18
100
AcDbEntity
  8
1
 62
     1
100
AcDbLine
 10
72.61694297013861
 20
13.2205
 30
0.0
 11
72.61694297013861
 21
13.220461314023
 31
0.0
  0
LINE
  5
61A
330
18
100
AcDbEntity
  8
1
 62
     1
100
AcDbLine
 10
72.61694297013861
 20
13.220461314023
 30
0.0
 11
72.61694297013862
 21
13.20914318538408
 31
0.0
  0
LINE
  5
61B
330
18
100
AcDbEntity
  8
1
 62
     1
100
AcDbLine
 10
72.61694297013862
 20
13.20914318538408
 30
0.0
 11
72.61694297013861
 21
13.05261699186002
 31
0.0
  0
LINE
  5
61C
330
18
100
AcDbEntity
  8
1
 62
     1
100
AcDbLine
 10
72.61694297013861
 20
13.05261699186003
 30
0.0
 11
73.37142857142858
 21
11.79969501515897
 31
0.0
  0
LINE
  5
61D
330
18
100
AcDbEntity
  8
1
 62
     1
100
AcDbLine
 10
52.65980011299575
 20
13.2205
 30
0.0
 11
52.65980011299575
 21
13.220461314023
 31
0.0
  0
LINE
  5
61E
330
18
100
AcDbEntity
  8
1
 62
     1
100
AcDbLine
 10
52.65980011299575
 20
13.220461314023
 30
0.0
 11
52.65980011299575
 21
13.20914318538408
 31
0.0
  0
LINE
  5
61F
330
18
100
AcDbEntity
  8
1
 62
     1
100
AcDbLine
 10
52.65980011299575
 20
13.20914318538408
 30
0.0
 11
52.65980011299576
 21
13.05261699186002
 31
0.0
  0
LINE
  5
620
330
18
100
AcDbEntity
  8
1
 62
     1
100
AcDbLine
 10
52.65980011299575
 20
13.05261699186002
 30
0.0
 11
53.41428571428571
 21
11.79969501515897
 31
0.0
  0
LINE
  5
621
330
18
100
AcDbEntity
  8
1
 62
     1
100
AcDbLine
 10
53.41428571428573
 20
11.79969501515897
 30
0.0
 11
53.41428571428573
 21
11.91369321365278
 31
0.0
  0
LINE
  5
622
330
18
100
AcDbEntity
  8
1
 62
     1
100
AcDbLine
 10
53.41428571428571
 20
11.79969501515897
 30
0.0
 11
54.1687713155757
 21
13.05261699186004
 31
0.0
  0
LINE
  5
623
330
18
100
AcDbEntity
  8
1
 62
     1
100
AcDbLine
 10
54.1687713155757
 20
13.2205
 30
0.0
 11
54.1687713155757
 21
13.220461314023
 31
0.0
  0
LINE
  5
624
330
18
100
AcDbEntity
  8
1
 62
     1
100
AcDbLine
 10
54.1687713155757
 20
13.220461314023
 30
0.0
 11
54.16877131557571
 21
13.20914318538408
 31
0.0
  0
LINE
  5
625
330
18
100
AcDbEntity
  8
1
 62
     1
100
AcDbLine
 10
54.16877131557571
 20
13.20914318538408
 30
0.0
 11
54.1687713155757
 21
13.05261699186002
 31
0.0
  0
LINE
  5
626
330
18
100
AcDbEntity
  8
1
 62
     1
100
AcDbLine
 10
54.47408582728148
 20
13.2205
 30
0.0
 11
54.47408582728148
 21
13.220461314023
 31
0.0
  0
LINE
  5
627
330
18
100
AcDbEntity
  8
1
 62
     1
100
AcDbLine
 10
54.47408582728148
 20
13.220461314023
 30
0.0
 11
54.47408582728148
 21
13.20914318538408
 31
0.0
  0
LINE
  5
628
330
18
100
AcDbEntity
  8
1
 62
     1
100
AcDbLine
 10
54.47408582728148
 20
13.20914318538408
 30
0.0
 11
54.47408582728147
 21
13.05261699186002
 31
0.0
  0
LINE
  5
629
330
18
100
AcDbEntity
  8
1
 62
     1
100
AcDbLine
 10
54.47408582728147
 20
13.05261699186002
 30
0.0
 11
55.22857142857143
 21
11.79969501515897
 31
0.0
  0
LINE
  5
62A
330
18
100
AcDbEntity
  8
1
 62
     1
100
AcDbLine
 10
55.22857142857144
 20
11.79969501515897
 30
0.0
 11
55.22857142857143
 21
11.91369321365278
 31
0.0
  0
LINE
  5
62B
330
18
100
AcDbEntity
  8
1
 62
     1
100
AcDbLine
 10
55.22857142857143
 20
11.79969501515897
 30
0.0
 11
55.9830570298614
 21
13.05261699186002
 31
0.0
  0
LINE
  5
62C
330
18
100
AcDbEntity
  8
1
 62
     1
100
AcDbLine
 10
55.9830570298614
 20
13.2205
 30
0.0
 11
55.98305702986139
 21
13.220461314023
 31
0.0
  0
LINE
  5
62D
330
18
100
AcDbEntity
  8
1
 62
     1
100
AcDbLine
 10
55.98305702986139
 20
13.220461314023
 30
0.0
 11
55.98305702986141
 21
13.20914318538408
 31
0.0
  0
LINE
  5
62E
330
18
100
AcDbEntity
  8
1
 62
     1
100
AcDbLine
 10
55.98305702986141
 20
13.20914318538408
 30
0.0
 11
55.9830570298614
 21
13.05261699186002
 31
0.0
  0
LINE
  5
62F
330
18
100
AcDbEntity
  8
1
 62
     1
100
AcDbLine
 10
60.67142857142857
 20
11.79969501515897
 30
0.0
 11
60.67142857142858
 21
11.91369321428571
 31
0.0
  0
LINE
  5
630
330
18
100
AcDbEntity
  8
1
 62
     1
100
AcDbLine
 10
60.67142857142858
 20
11.79969501515897
 30
0.0
 11
61.42591417271855
 21
13.05261699186003
 31
0.0
  0
LINE
  5
631
330
18
100
AcDbEntity
  8
1
 62
     1
100
AcDbLine
 10
61.42591417271855
 20
13.2205
 30
0.0
 11
61.42591417271854
 21
13.220461314023
 31
0.0
  0
LINE
  5
632
330
18
100
AcDbEntity
  8
1
 62
     1
100
AcDbLine
 10
61.42591417271854
 20
13.220461314023
 30
0.0
 11
61.42591417271856
 21
13.20914318538408
 31
0.0
  0
LINE
  5
633
330
18
100
AcDbEntity
  8
1
 62
     1
100
AcDbLine
 10
61.42591417271856
 20
13.20914318538408
 30
0.0
 11
61.42591417271855
 21
13.05261699186002
 31
0.0
  0
LINE
  5
634
330
18
100
AcDbEntity
  8
1
 62
     1
100
AcDbLine
 10
61.73122868442433
 20
13.2205
 30
0.0
 11
61.73122868442432
 21
13.220461314023
 31
0.0
  0
LINE
  5
635
330
18
100
AcDbEntity
  8
1
 62
     1
100
AcDbLine
 10
61.73122868442432
 20
13.220461314023
 30
0.0
 11
61.73122868442433
 21
13.20914318538408
 31
0.0
  0
LINE
  5
636
330
18
100
AcDbEntity
  8
1
 62
     1
100
AcDbLine
 10
61.73122868442433
 20
13.20914318538408
 30
0.0
 11
61.73122868442433
 21
13.05261699186002
 31
0.0
  0
LINE
  5
637
330
18
100
AcDbEntity
  8
1
 62
     1
100
AcDbLine
 10
61.73122868442432
 20
13.05261699186002
 30
0.0
 11
62.48571428571429
 21
11.79969501515897
 31
0.0
  0
LINE
  5
638
330
18
100
AcDbEntity
  8
1
 62
     1
100
AcDbLine
 10
62.48571428571429
 20
11.79969501515897
 30
0.0
 11
62.4857142857143
 21
11.91369321365278
 31
0.0
  0
LINE
  5
639
330
18
100
AcDbEntity
  8
1
 62
     1
100
AcDbLine
 10
62.48571428571429
 20
11.79969501515897
 30
0.0
 11
63.24019988700427
 21
13.05261699186003
 31
0.0
  0
LINE
  5
63A
330
18
100
AcDbEntity
  8
1
 62
     1
100
AcDbLine
 10
63.24019988700427
 20
13.2205
 30
0.0
 11
63.24019988700427
 21
13.220461314023
 31
0.0
  0
LINE
  5
63B
330
18
100
AcDbEntity
  8
1
 62
     1
100
AcDbLine
 10
63.24019988700427
 20
13.220461314023
 30
0.0
 11
63.24019988700428
 21
13.20914318538408
 31
0.0
  0
LINE
  5
63C
330
18
100
AcDbEntity
  8
1
 62
     1
100
AcDbLine
 10
63.24019988700428
 20
13.20914318538408
 30
0.0
 11
63.24019988700427
 21
13.05261699186002
 31
0.0
  0
LINE
  5
63D
330
18
100
AcDbEntity
  8
1
 62
     1
100
AcDbLine
 10
63.54551439871004
 20
13.2205
 30
0.0
 11
63.54551439871003
 21
13.220461314023
 31
0.0
  0
LINE
  5
63E
330
18
100
AcDbEntity
  8
1
 62
     1
100
AcDbLine
 10
63.54551439871003
 20
13.220461314023
 30
0.0
 11
63.54551439871004
 21
13.20914318538408
 31
0.0
  0
LINE
  5
63F
330
18
100
AcDbEntity
  8
1
 62
     1
100
AcDbLine
 10
63.54551439871004
 20
13.20914318538408
 30
0.0
 11
63.54551439871005
 21
13.05261699186002
 31
0.0
  0
LINE
  5
640
330
18
100
AcDbEntity
  8
1
 62
     1
100
AcDbLine
 10
63.54551439871004
 20
13.05261699186002
 30
0.0
 11
64.30000000000001
 21
11.79969501515897
 31
0.0
  0
LINE
  5
641
330
18
100
AcDbEntity
  8
1
 62
     1
100
AcDbLine
 10
70.8026572558529
 20
13.2205
 30
0.0
 11
70.80265725585289
 21
13.220461314023
 31
0.0
  0
LINE
  5
642
330
18
100
AcDbEntity
  8
1
 62
     1
100
AcDbLine
 10
70.80265725585289
 20
13.220461314023
 30
0.0
 11
70.8026572558529
 21
13.20914318538408
 31
0.0
  0
LINE
  5
643
330
18
100
AcDbEntity
  8
1
 62
     1
100
AcDbLine
 10
70.8026572558529
 20
13.20914318538408
 30
0.0
 11
70.80265725585292
 21
13.05261699186002
 31
0.0
  0
LINE
  5
644
330
18
100
AcDbEntity
  8
1
 62
     1
100
AcDbLine
 10
70.80265725585289
 20
13.05261699186001
 30
0.0
 11
71.55714285714285
 21
11.79969501515897
 31
0.0
  0
LINE
  5
645
330
18
100
AcDbEntity
  8
1
 62
     1
100
AcDbLine
 10
71.55714285714286
 20
11.79969501515897
 30
0.0
 11
71.55714285714285
 21
11.88589417353766
 31
0.0
  0
LINE
  5
646
330
18
100
AcDbEntity
  8
1
 62
     1
100
AcDbLine
 10
71.55714285714285
 20
11.88589417353766
 30
0.0
 11
71.55714285714285
 21
11.90683477401275
 31
0.0
  0
LINE
  5
647
330
18
100
AcDbEntity
  8
1
 62
     1
100
AcDbLine
 10
71.55714285714285
 20
11.90683477401275
 30
0.0
 11
71.55714285714286
 21
11.91199022359111
 31
0.0
  0
LINE
  5
648
330
18
100
AcDbEntity
  8
1
 62
     1
100
AcDbLine
 10
71.55714285714286
 20
11.91199022359111
 30
0.0
 11
71.55714285714286
 21
11.91326893087515
 31
0.0
  0
LINE
  5
649
330
18
100
AcDbEntity
  8
1
 62
     1
100
AcDbLine
 10
71.55714285714286
 20
11.91326893087515
 30
0.0
 11
71.55714285714286
 21
11.91358732717722
 31
0.0
  0
LINE
  5
64A
330
18
100
AcDbEntity
  8
1
 62
     1
100
AcDbLine
 10
71.55714285714286
 20
11.91358732717722
 30
0.0
 11
71.55714285714286
 21
11.91366676552017
 31
0.0
  0
LINE
  5
64B
330
18
100
AcDbEntity
  8
1
 62
     1
100
AcDbLine
 10
71.55714285714286
 20
11.91366676552017
 30
0.0
 11
71.55714285714286
 21
11.91368660497347
 31
0.0
  0
LINE
  5
64C
330
18
100
AcDbEntity
  8
1
 62
     1
100
AcDbLine
 10
71.55714285714286
 20
11.91368660497347
 30
0.0
 11
71.55714285714286
 21
11.91369156231771
 31
0.0
  0
LINE
  5
64D
330
18
100
AcDbEntity
  8
1
 62
     1
100
AcDbLine
 10
71.55714285714286
 20
11.91369156231771
 30
0.0
 11
71.55714285714288
 21
11.91369280133873
 31
0.0
  0
LINE
  5
64E
330
18
100
AcDbEntity
  8
1
 62
     1
100
AcDbLine
 10
71.55714285714288
 20
11.91369280133873
 30
0.0
 11
71.55714285714286
 21
11.9136931110546
 31
0.0
  0
LINE
  5
64F
330
18
100
AcDbEntity
  8
1
 62
     1
100
AcDbLine
 10
71.55714285714286
 20
11.9136931110546
 30
0.0
 11
71.55714285714286
 21
11.91369318847864
 31
0.0
  0
LINE
  5
650
330
18
100
AcDbEntity
  8
1
 62
     1
100
AcDbLine
 10
71.55714285714286
 20
11.91369318847864
 30
0.0
 11
71.55714285714286
 21
11.91369320783403
 31
0.0
  0
LINE
  5
651
330
18
100
AcDbEntity
  8
1
 62
     1
100
AcDbLine
 10
71.55714285714286
 20
11.91369320783403
 30
0.0
 11
71.55714285714286
 21
11.9136932126728
 31
0.0
  0
LINE
  5
652
330
18
100
AcDbEntity
  8
1
 62
     1
100
AcDbLine
 10
71.55714285714286
 20
11.9136932126728
 30
0.0
 11
71.55714285714286
 21
11.91369321388249
 31
0.0
  0
LINE
  5
653
330
18
100
AcDbEntity
  8
1
 62
     1
100
AcDbLine
 10
71.55714285714286
 20
11.91369321388249
 30
0.0
 11
71.55714285714286
 21
11.91369321418491
 31
0.0
  0
LINE
  5
654
330
18
100
AcDbEntity
  8
1
 62
     1
100
AcDbLine
 10
71.55714285714286
 20
11.91369321418491
 30
0.0
 11
71.55714285714286
 21
11.91369321426051
 31
0.0
  0
LINE
  5
655
330
18
100
AcDbEntity
  8
1
 62
     1
100
AcDbLine
 10
71.55714285714286
 20
11.91369321426051
 30
0.0
 11
71.55714285714286
 21
11.91369321428272
 31
0.0
  0
LINE
  5
656
330
18
100
AcDbEntity
  8
1
 62
     1
100
AcDbLine
 10
71.55714285714286
 20
11.91369321428272
 30
0.0
 11
71.55714285714286
 21
11.91369321428571
 31
0.0
  0
LINE
  5
657
330
18
100
AcDbEntity
  8
1
 62
     1
100
AcDbLine
 10
69.74285714285715
 20
11.79969501515897
 30
0.0
 11
69.74285714285715
 21
11.91369321428571
 31
0.0
  0
LINE
  5
658
330
18
100
AcDbEntity
  8
1
 62
     1
100
AcDbLine
 10
69.74285714285715
 20
11.79969501515897
 30
0.0
 11
70.49734274414715
 21
13.05261699186007
 31
0.0
  0
LINE
  5
659
330
18
100
AcDbEntity
  8
1
 62
     1
100
AcDbLine
 10
70.49734274414715
 20
13.2205
 30
0.0
 11
70.49734274414713
 21
13.220461314023
 31
0.0
  0
LINE
  5
65A
330
18
100
AcDbEntity
  8
1
 62
     1
100
AcDbLine
 10
70.49734274414713
 20
13.220461314023
 30
0.0
 11
70.49734274414715
 21
13.20914318538408
 31
0.0
  0
LINE
  5
65B
330
18
100
AcDbEntity
  8
1
 62
     1
100
AcDbLine
 10
70.49734274414715
 20
13.20914318538408
 30
0.0
 11
70.49734274414715
 21
13.05261699186002
 31
0.0
  0
LINE
  5
65C
330
18
100
AcDbEntity
  8
1
 62
     1
100
AcDbLine
 10
68.98837154156723
 20
13.2205
 30
0.0
 11
68.98837154156723
 21
13.220461314023
 31
0.0
  0
LINE
  5
65D
330
18
100
AcDbEntity
  8
1
 62
     1
100
AcDbLine
 10
68.98837154156723
 20
13.220461314023
 30
0.0
 11
68.98837154156723
 21
13.20914318538408
 31
0.0
  0
LINE
  5
65E
330
18
100
AcDbEntity
  8
1
 62
     1
100
AcDbLine
 10
68.98837154156723
 20
13.20914318538408
 30
0.0
 11
68.98837154156725
 21
13.05261699186002
 31
0.0
  0
LINE
  5
65F
330
18
100
AcDbEntity
  8
1
 62
     1
100
AcDbLine
 10
68.98837154156718
 20
13.05261699186
 30
0.0
 11
69.74285714285715
 21
11.79969501515897
 31
0.0
  0
LINE
  5
660
330
18
100
AcDbEntity
  8
1
 62
     1
100
AcDbLine
 10
71.55714285714285
 20
11.79969501515897
 30
0.0
 11
72.31162845843284
 21
13.05261699186003
 31
0.0
  0
LINE
  5
661
330
18
100
AcDbEntity
  8
1
 62
     1
100
AcDbLine
 10
72.31162845843284
 20
13.2205
 30
0.0
 11
72.31162845843284
 21
13.220461314023
 31
0.0
  0
LINE
  5
662
330
18
100
AcDbEntity
  8
1
 62
     1
100
AcDbLine
 10
72.31162845843284
 20
13.220461314023
 30
0.0
 11
72.31162845843284
 21
13.20914318538407
 31
0.0
  0
LINE
  5
663
330
18
100
AcDbEntity
  8
1
 62
     1
100
AcDbLine
 10
72.31162845843284
 20
13.20914318538407
 30
0.0
 11
72.31162845843284
 21
13.05261699186002
 31
0.0
  0
LINE
  5
664
330
18
100
AcDbEntity
  8
1
 62
     1
100
AcDbLine
 10
67.92857142857143
 20
11.79969501515897
 30
0.0
 11
68.6830570298614
 21
13.05261699186003
 31
0.0
  0
LINE
  5
665
330
18
100
AcDbEntity
  8
1
 62
     1
100
AcDbLine
 10
68.6830570298614
 20
13.2205
 30
0.0
 11
68.6830570298614
 21
13.220461314023
 31
0.0
  0
LINE
  5
666
330
18
100
AcDbEntity
  8
1
 62
     1
100
AcDbLine
 10
68.6830570298614
 20
13.220461314023
 30
0.0
 11
68.6830570298614
 21
13.20914318538408
 31
0.0
  0
LINE
  5
667
330
18
100
AcDbEntity
  8
1
 62
     1
100
AcDbLine
 10
68.6830570298614
 20
13.20914318538408
 30
0.0
 11
68.6830570298614
 21
13.05261699186002
 31
0.0
  0
LINE
  5
668
330
18
100
AcDbEntity
  8
1
 62
     1
100
AcDbLine
 10
67.1740858272815
 20
13.2205
 30
0.0
 11
67.17408582728149
 21
13.220461314023
 31
0.0
  0
LINE
  5
669
330
18
100
AcDbEntity
  8
1
 62
     1
100
AcDbLine
 10
67.17408582728149
 20
13.220461314023
 30
0.0
 11
67.1740858272815
 21
13.20914318538408
 31
0.0
  0
LINE
  5
66A
330
18
100
AcDbEntity
  8
1
 62
     1
100
AcDbLine
 10
67.1740858272815
 20
13.20914318538408
 30
0.0
 11
67.1740858272815
 21
13.05261699186002
 31
0.0
  0
LINE
  5
66B
330
18
100
AcDbEntity
  8
1
 62
     1
100
AcDbLine
 10
67.17408582728147
 20
13.05261699186001
 30
0.0
 11
67.92857142857143
 21
11.79969501515897
 31
0.0
  0
LINE
  5
66C
330
18
100
AcDbEntity
  8
1
 62
     1
100
AcDbLine
 10
67.92857142857143
 20
11.79969501515897
 30
0.0
 11
67.92857142857143
 21
11.91369321428571
 31
0.0
  0
LINE
  5
66D
330
18
100
AcDbEntity
  8
1
 62
     1
100
AcDbLine
 10
66.1142857142857
 20
11.79969501515897
 30
0.0
 11
66.86877131557571
 21
13.05261699186007
 31
0.0
  0
LINE
  5
66E
330
18
100
AcDbEntity
  8
1
 62
     1
100
AcDbLine
 10
66.86877131557571
 20
13.2205
 30
0.0
 11
66.86877131557571
 21
13.220461314023
 31
0.0
  0
LINE
  5
66F
330
18
100
AcDbEntity
  8
1
 62
     1
100
AcDbLine
 10
66.86877131557571
 20
13.220461314023
 30
0.0
 11
66.86877131557571
 21
13.20914318538408
 31
0.0
  0
LINE
  5
670
330
18
100
AcDbEntity
  8
1
 62
     1
100
AcDbLine
 10
66.86877131557571
 20
13.20914318538408
 30
0.0
 11
66.86877131557571
 21
13.05261699186002
 31
0.0
  0
LINE
  5
671
330
18
100
AcDbEntity
  8
1
 62
     1
100
AcDbLine
 10
65.35980011299577
 20
13.2205
 30
0.0
 11
65.35980011299576
 21
13.220461314023
 31
0.0
  0
LINE
  5
672
330
18
100
AcDbEntity
  8
1
 62
     1
100
AcDbLine
 10
65.35980011299576
 20
13.220461314023
 30
0.0
 11
65.35980011299577
 21
13.20914318538408
 31
0.0
  0
LINE
  5
673
330
18
100
AcDbEntity
  8
1
 62
     1
100
AcDbLine
 10
65.35980011299577
 20
13.20914318538408
 30
0.0
 11
65.35980011299577
 21
13.05261699186002
 31
0.0
  0
LINE
  5
674
330
18
100
AcDbEntity
  8
1
 62
     1
100
AcDbLine
 10
65.35980011299574
 20
13.05261699186002
 30
0.0
 11
66.1142857142857
 21
11.79969501515897
 31
0.0
  0
LINE
  5
675
330
18
100
AcDbEntity
  8
1
 62
     1
100
AcDbLine
 10
66.11428571428571
 20
11.79969501515897
 30
0.0
 11
66.11428571428571
 21
11.91369321428571
 31
0.0
  0
LINE
  5
676
330
18
100
AcDbEntity
  8
1
 62
     1
100
AcDbLine
 10
64.30000000000003
 20
11.79969501515897
 30
0.0
 11
64.30000000000001
 21
11.91369321365278
 31
0.0
  0
LINE
  5
677
330
18
100
AcDbEntity
  8
1
 62
     1
100
AcDbLine
 10
64.30000000000001
 20
11.79969501515897
 30
0.0
 11
65.05448560128997
 21
13.05261699186002
 31
0.0
  0
LINE
  5
678
330
18
100
AcDbEntity
  8
1
 62
     1
100
AcDbLine
 10
65.05448560128997
 20
13.2205
 30
0.0
 11
65.05448560128995
 21
13.220461314023
 31
0.0
  0
LINE
  5
679
330
18
100
AcDbEntity
  8
1
 62
     1
100
AcDbLine
 10
65.05448560128995
 20
13.220461314023
 30
0.0
 11
65.05448560128997
 21
13.20914318538407
 31
0.0
  0
LINE
  5
67A
330
18
100
AcDbEntity
  8
1
 62
     1
100
AcDbLine
 10
65.05448560128997
 20
13.20914318538407
 30
0.0
 11
65.05448560128997
 21
13.05261699186002
 31
0.0
  0
LINE
  5
67B
330
18
100
AcDbEntity
  8
1
 62
     1
100
AcDbLine
 10
49.03122868442433
 20
13.2205
 30
0.0
 11
49.03122868442432
 21
13.220461314023
 31
0.0
  0
LINE
  5
67C
330
18
100
AcDbEntity
  8
1
 62
     1
100
AcDbLine
 10
49.03122868442432
 20
13.220461314023
 30
0.0
 11
49.03122868442433
 21
13.20914318538408
 31
0.0
  0
LINE
  5
67D
330
18
100
AcDbEntity
  8
1
 62
     1
100
AcDbLine
 10
49.03122868442433
 20
13.20914318538408
 30
0.0
 11
49.03122868442433
 21
13.05261699186002
 31
0.0
  0
LINE
  5
67E
330
18
100
AcDbEntity
  8
1
 62
     1
100
AcDbLine
 10
49.03122868442432
 20
13.05261699186002
 30
0.0
 11
49.78571428571429
 21
11.79969501515897
 31
0.0
  0
LINE
  5
67F
330
18
100
AcDbEntity
  8
1
 62
     1
100
AcDbLine
 10
49.78571428571429
 20
11.79969501515897
 30
0.0
 11
49.78571428571429
 21
11.91369321428571
 31
0.0
  0
LINE
  5
680
330
18
100
AcDbEntity
  8
1
 62
     1
100
AcDbLine
 10
49.78571428571429
 20
11.79969501515897
 30
0.0
 11
50.54019988700425
 21
13.05261699186002
 31
0.0
  0
LINE
  5
681
330
18
100
AcDbEntity
  8
1
 62
     1
100
AcDbLine
 10
50.54019988700426
 20
13.2205
 30
0.0
 11
50.54019988700425
 21
13.220461314023
 31
0.0
  0
LINE
  5
682
330
18
100
AcDbEntity
  8
1
 62
     1
100
AcDbLine
 10
50.54019988700425
 20
13.220461314023
 30
0.0
 11
50.54019988700426
 21
13.20914318538408
 31
0.0
  0
LINE
  5
683
330
18
100
AcDbEntity
  8
1
 62
     1
100
AcDbLine
 10
50.54019988700426
 20
13.20914318538408
 30
0.0
 11
50.54019988700426
 21
13.05261699186002
 31
0.0
  0
LINE
  5
684
330
18
100
AcDbEntity
  8
1
 62
     1
100
AcDbLine
 10
50.84551439871005
 20
13.2205
 30
0.0
 11
50.84551439871004
 21
13.220461314023
 31
0.0
  0
LINE
  5
685
330
18
100
AcDbEntity
  8
1
 62
     1
100
AcDbLine
 10
50.84551439871004
 20
13.220461314023
 30
0.0
 11
50.84551439871005
 21
13.20914318538408
 31
0.0
  0
LINE
  5
686
330
18
100
AcDbEntity
  8
1
 62
     1
100
AcDbLine
 10
50.84551439871005
 20
13.20914318538408
 30
0.0
 11
50.84551439871006
 21
13.05261699186002
 31
0.0
  0
LINE
  5
687
330
18
100
AcDbEntity
  8
1
 62
     1
100
AcDbLine
 10
50.84551439871004
 20
13.05261699186001
 30
0.0
 11
51.60000000000001
 21
11.79969501515897
 31
0.0
  0
LINE
  5
688
330
18
100
AcDbEntity
  8
1
 62
     1
100
AcDbLine
 10
51.60000000000001
 20
11.79969501515897
 30
0.0
 11
51.60000000000001
 21
11.91369321428571
 31
0.0
  0
LINE
  5
689
330
18
100
AcDbEntity
  8
1
 62
     1
100
AcDbLine
 10
51.60000000000001
 20
11.79969501515897
 30
0.0
 11
52.35448560128999
 21
13.05261699186004
 31
0.0
  0
LINE
  5
68A
330
18
100
AcDbEntity
  8
1
 62
     1
100
AcDbLine
 10
52.35448560128999
 20
13.2205
 30
0.0
 11
52.35448560128999
 21
13.220461314023
 31
0.0
  0
LINE
  5
68B
330
18
100
AcDbEntity
  8
1
 62
     1
100
AcDbLine
 10
52.35448560128999
 20
13.220461314023
 30
0.0
 11
52.35448560128999
 21
13.20914318538408
 31
0.0
  0
LINE
  5
68C
330
18
100
AcDbEntity
  8
1
 62
     1
100
AcDbLine
 10
52.35448560128999
 20
13.20914318538408
 30
0.0
 11
52.35448560128999
 21
13.05261699186002
 31
0.0
  0
LINE
  5
68D
330
18
100
AcDbEntity
  8
1
 62
     1
100
AcDbLine
 10
77.0
 20
11.79969501515897
 30
0.0
 11
77.0
 21
11.91369321428571
 31
0.0
  0
LINE
  5
68E
330
18
100
AcDbEntity
  8
1
 62
     1
100
AcDbLine
 10
77.0
 20
9.925270293176132
 30
0.0
 11
77.0
 21
11.79969501515897
 31
0.0
  0
LINE
  5
68F
330
18
100
AcDbEntity
  8
1
 62
     1
100
AcDbLine
 10
77.0
 20
9.925270293176133
 30
0.0
 11
77.00000000000001
 21
7.756307948915732
 31
0.0
  0
LINE
  5
690
330
18
100
AcDbEntity
  8
1
 62
     1
100
AcDbLine
 10
77.0
 20
4.475957531137306
 30
0.0
 11
77.0
 21
7.756307948915325
 31
0.0
  0
LINE
  5
691
330
18
100
AcDbEntity
  8
1
 62
     1
100
AcDbLine
 10
77.00000000000003
 20
4.129577842772879
 30
0.0
 11
77.00000000000003
 21
4.475957531137305
 31
0.0
  0
LINE
  5
692
330
18
100
AcDbEntity
  8
1
 62
     1
100
AcDbLine
 10
77.0
 20
4.12957784277288
 30
0.0
 11
77.0
 21
1.282431180975689
 31
0.0
  0
LINE
  5
693
330
18
100
AcDbEntity
  8
1
 62
     1
100
AcDbLine
 10
77.00000000000001
 20
-3.953310113073021
 30
0.0
 11
77.00000000000001
 21
1.28243118097569
 31
0.0
  0
LINE
  5
694
330
18
100
AcDbEntity
  8
1
 62
     1
100
AcDbLine
 10
77.0
 20
-7.32373748402166
 30
0.0
 11
77.0
 21
-3.953310113073022
 31
0.0
  0
LINE
  5
695
330
18
100
AcDbEntity
  8
1
 62
     1
100
AcDbLine
 10
77.0
 20
-11.70961806198835
 30
0.0
 11
77.0
 21
-7.32373748402166
 31
0.0
  0
LINE
  5
696
330
18
100
AcDbEntity
  8
1
 62
     1
100
AcDbLine
 10
77.0
 20
-11.91369321428571
 30
0.0
 11
77.0
 21
-11.9136465638067
 31
0.0
  0
LINE
  5
697
330
18
100
AcDbEntity
  8
1
 62
     1
100
AcDbLine
 10
77.0
 20
-11.9136465638067
 30
0.0
 11
77.0
 21
-11.89996554561323
 31
0.0
  0
LINE
  5
698
330
18
100
AcDbEntity
  8
1
 62
     1
100
AcDbLine
 10
77.0
 20
-11.89996554561323
 30
0.0
 11
77.0
 21
-11.70961806198835
 31
0.0
  0
LINE
  5
699
330
18
100
AcDbEntity
  8
1
 62
     1
100
AcDbLine
 10
76.75508945282046
 20
-12.18202262923726
 30
0.0
 11
75.60163357437193
 21
-12.50670768325031
 31
0.0
  0
LINE
  5
69A
330
18
100
AcDbEntity
  8
1
 62
     1
100
AcDbLine
 10
74.62500179356864
 20
-12.77866830389947
 30
0.0
 11
74.02160003414488
 21
-12.94545105690705
 31
0.0
  0
LINE
  5
69B
330
18
100
AcDbEntity
  8
1
 62
     1
100
AcDbLine
 10
72.61694297013861
 20
-13.1388050042025
 30
0.0
 11
72.31162845843282
 21
-13.1388050042025
 31
0.0
  0
LINE
  5
69C
330
18
100
AcDbEntity
  8
1
 62
     1
100
AcDbLine
 10
70.80265725585292
 20
-13.1388050042025
 30
0.0
 11
70.49734274414713
 21
-13.1388050042025
 31
0.0
  0
LINE
  5
69D
330
18
100
AcDbEntity
  8
1
 62
     1
100
AcDbLine
 10
68.9883715415672
 20
-13.1388050042025
 30
0.0
 11
68.68305702986135
 21
-13.1388050042025
 31
0.0
  0
LINE
  5
69E
330
18
100
AcDbEntity
  8
1
 62
     1
100
AcDbLine
 10
67.17408582728149
 20
-13.1388050042025
 30
0.0
 11
66.8687713155757
 21
-13.1388050042025
 31
0.0
  0
LINE
  5
69F
330
18
100
AcDbEntity
  8
1
 62
     1
100
AcDbLine
 10
63.54551439871001
 20
-13.1388050042025
 30
0.0
 11
63.24019988700424
 21
-13.1388050042025
 31
0.0
  0
LINE
  5
6A0
330
18
100
AcDbEntity
  8
1
 62
     1
100
AcDbLine
 10
61.73122868442434
 20
-13.1388050042025
 30
0.0
 11
61.42591417271856
 21
-13.1388050042025
 31
0.0
  0
LINE
  5
6A1
330
18
100
AcDbEntity
  8
1
 62
     1
100
AcDbLine
 10
59.91694297013862
 20
-13.1388050042025
 30
0.0
 11
59.61162845843283
 21
-13.13880500420251
 31
0.0
  0
LINE
  5
6A2
330
18
100
AcDbEntity
  8
1
 62
     1
100
AcDbLine
 10
58.10265725585289
 20
-13.1388050042025
 30
0.0
 11
57.79734274414709
 21
-13.1388050042025
 31
0.0
  0
LINE
  5
6A3
330
18
100
AcDbEntity
  8
1
 62
     1
100
AcDbLine
 10
56.28837154156719
 20
-13.1388050042025
 30
0.0
 11
55.98305702986141
 21
-13.13880500420251
 31
0.0
  0
LINE
  5
6A4
330
18
100
AcDbEntity
  8
1
 62
     1
100
AcDbLine
 10
54.47408582728149
 20
-13.1388050042025
 30
0.0
 11
54.1687713155757
 21
-13.1388050042025
 31
0.0
  0
LINE
  5
6A5
330
18
100
AcDbEntity
  8
1
 62
     1
100
AcDbLine
 10
52.65980011299576
 20
-13.1388050042025
 30
0.0
 11
52.35448560129
 21
-13.1388050042025
 31
0.0
  0
LINE
  5
6A6
330
18
100
AcDbEntity
  8
1
 62
     1
100
AcDbLine
 10
50.84551439871003
 20
-13.1388050042025
 30
0.0
 11
50.54019988700428
 21
-13.1388050042025
 31
0.0
  0
LINE
  5
6A7
330
18
100
AcDbEntity
  8
1
 62
     1
100
AcDbLine
 10
49.03122868442432
 20
-13.1388050042025
 30
0.0
 11
49.0
 21
-13.1388050042025
 31
0.0
  0
LINE
  5
6A8
330
18
100
AcDbEntity
  8
1
 62
     1
100
AcDbLine
 10
49.0
 20
-13.1388050042025
 30
0.0
 11
49.0
 21
-13.2205
 31
0.0
  0
LINE
  5
6A9
330
18
100
AcDbEntity
  8
1
 62
     1
100
AcDbLine
 10
49.0
 20
-13.1388050042025
 30
0.0
 11
47.97705421072506
 21
-11.18008631545225
 31
0.0
  0
LINE
  5
6AA
330
18
100
AcDbEntity
  8
1
 62
     1
100
AcDbLine
 10
47.97705421072506
 20
-11.18008631545225
 30
0.0
 11
47.03960716
 21
-9.187829224379076
 31
0.0
  0
LINE
  5
6AB
330
18
100
AcDbEntity
  8
1
 62
     1
100
AcDbLine
 10
47.03960716
 20
-9.187829224379074
 30
0.0
 11
47.03960716
 21
-9.825
 31
0.0
  0
LINE
  5
6AC
330
18
100
AcDbEntity
  8
1
 62
     1
100
AcDbLine
 10
47.03960716
 20
-6.14714832683552
 30
0.0
 11
47.03960716
 21
-9.187829224379081
 31
0.0
  0
LINE
  5
6AD
330
18
100
AcDbEntity
  8
1
 62
     1
100
AcDbLine
 10
47.03960716000001
 20
-1.579646150732544
 30
0.0
 11
47.03960716
 21
-5.684627034270248
 31
0.0
  0
LINE
  5
6AE
330
18
100
AcDbEntity
  8
1
 62
     1
100
AcDbLine
 10
47.03960716
 20
1.282431180975664
 30
0.0
 11
47.03960716
 21
-1.579646150732546
 31
0.0
  0
LINE
  5
6AF
330
18
100
AcDbEntity
  8
1
 62
     1
100
AcDbLine
 10
47.03960716
 20
4.097551781336657
 30
0.0
 11
47.03960716
 21
1.282431180975689
 31
0.0
  0
LINE
  5
6B0
330
18
100
AcDbEntity
  8
1
 62
     1
100
AcDbLine
 10
47.03960716
 20
7.60818307364654
 30
0.0
 11
47.03960716
 21
4.097551781336669
 31
0.0
  0
LINE
  5
6B1
330
18
100
AcDbEntity
  8
1
 62
     1
100
AcDbLine
 10
47.03960716000001
 20
9.782178815606908
 30
0.0
 11
47.03960716000001
 21
7.60818307364654
 31
0.0
  0
LINE
  5
6B2
330
18
100
AcDbEntity
  8
1
 62
     1
100
AcDbLine
 10
47.03960716
 20
9.825
 30
0.0
 11
47.03960716
 21
9.824989910938106
 31
0.0
  0
LINE
  5
6B3
330
18
100
AcDbEntity
  8
1
 62
     1
100
AcDbLine
 10
47.03960716
 20
9.824989910938106
 30
0.0
 11
47.03960716000001
 21
9.822056809162412
 31
0.0
  0
LINE
  5
6B4
330
18
100
AcDbEntity
  8
1
 62
     1
100
AcDbLine
 10
47.03960716000001
 20
9.822056809162412
 30
0.0
 11
47.03960716
 21
9.782178815606908
 31
0.0
  0
LINE
  5
6B5
330
18
100
AcDbEntity
  8
1
 62
     1
100
AcDbLine
 10
47.03960716000001
 20
-5.684627034270248
 30
0.0
 11
47.03960716
 21
-6.147148326835479
 31
0.0
  0
LINE
  5
6B6
330
18
100
AcDbEntity
  8
1
 62
     1
100
AcDbLine
 10
74.02160003414491
 20
13.03982269628354
 30
0.0
 11
73.37142857142858
 21
11.91369321428571
 31
0.0
  0
LINE
  5
6B7
330
18
100
AcDbEntity
  8
1
 62
     1
100
AcDbLine
 10
75.1857142857143
 20
11.91369321428571
 30
0.0
 11
74.62500179356866
 21
12.88487528630657
 31
0.0
  0
LINE
  5
6B8
330
18
100
AcDbEntity
  8
1
 62
     1
100
AcDbLine
 10
75.60163357437193
 20
12.63408621820518
 30
0.0
 11
75.1857142857143
 21
11.91369321428571
 31
0.0
  0
LINE
  5
6B9
330
18
100
AcDbEntity
  8
1
 62
     1
100
AcDbLine
 10
77.0
 20
11.91369321428571
 30
0.0
 11
76.75508945282044
 21
12.33789052752804
 31
0.0
  0
LINE
  5
6BA
330
18
100
AcDbEntity
  8
1
 62
     1
100
AcDbLine
 10
60.67142857142858
 20
11.91369321428571
 30
0.0
 11
59.91694297013862
 21
13.22049999999999
 31
0.0
  0
LINE
  5
6BB
330
18
100
AcDbEntity
  8
1
 62
     1
100
AcDbLine
 10
59.61162845843283
 20
13.22050000000001
 30
0.0
 11
58.85714285714286
 21
11.91369321428571
 31
0.0
  0
LINE
  5
6BC
330
18
100
AcDbEntity
  8
1
 62
     1
100
AcDbLine
 10
58.85714285714286
 20
11.91369321428571
 30
0.0
 11
58.10265725585289
 21
13.2205
 31
0.0
  0
LINE
  5
6BD
330
18
100
AcDbEntity
  8
1
 62
     1
100
AcDbLine
 10
57.79734274414712
 20
13.22050000000002
 30
0.0
 11
57.04285714285714
 21
11.91369321428571
 31
0.0
  0
LINE
  5
6BE
330
18
100
AcDbEntity
  8
1
 62
     1
100
AcDbLine
 10
57.04285714285715
 20
11.91369321428571
 30
0.0
 11
56.28837154156719
 21
13.2205
 31
0.0
  0
LINE
  5
6BF
330
18
100
AcDbEntity
  8
1
 62
     1
100
AcDbLine
 10
73.37142857142858
 20
11.91369321428571
 30
0.0
 11
72.61694297013861
 21
13.22050000000001
 31
0.0
  0
LINE
  5
6C0
330
18
100
AcDbEntity
  8
1
 62
     1
100
AcDbLine
 10
53.41428571428572
 20
11.91369321428571
 30
0.0
 11
52.65980011299575
 21
13.2205
 31
0.0
  0
LINE
  5
6C1
330
18
100
AcDbEntity
  8
1
 62
     1
100
AcDbLine
 10
54.1687713155757
 20
13.22050000000002
 30
0.0
 11
53.41428571428572
 21
11.91369321428571
 31
0.0
  0
LINE
  5
6C2
330
18
100
AcDbEntity
  8
1
 62
     1
100
AcDbLine
 10
55.22857142857143
 20
11.91369321428571
 30
0.0
 11
54.47408582728147
 21
13.2205
 31
0.0
  0
LINE
  5
6C3
330
18
100
AcDbEntity
  8
1
 62
     1
100
AcDbLine
 10
55.9830570298614
 20
13.2205
 30
0.0
 11
55.22857142857143
 21
11.91369321428571
 31
0.0
  0
LINE
  5
6C4
330
18
100
AcDbEntity
  8
1
 62
     1
100
AcDbLine
 10
61.42591417271855
 20
13.22050000000001
 30
0.0
 11
60.67142857142858
 21
11.91369321428571
 31
0.0
  0
LINE
  5
6C5
330
18
100
AcDbEntity
  8
1
 62
     1
100
AcDbLine
 10
62.48571428571429
 20
11.91369321428571
 30
0.0
 11
61.73122868442433
 21
13.2205
 31
0.0
  0
LINE
  5
6C6
330
18
100
AcDbEntity
  8
1
 62
     1
100
AcDbLine
 10
63.24019988700427
 20
13.22050000000002
 30
0.0
 11
62.48571428571429
 21
11.91369321428571
 31
0.0
  0
LINE
  5
6C7
330
18
100
AcDbEntity
  8
1
 62
     1
100
AcDbLine
 10
64.30000000000001
 20
11.91369321428571
 30
0.0
 11
63.54551439871004
 21
13.2205
 31
0.0
  0
LINE
  5
6C8
330
18
100
AcDbEntity
  8
1
 62
     1
100
AcDbLine
 10
71.55714285714286
 20
11.91369321428571
 30
0.0
 11
70.80265725585288
 21
13.22049999999999
 31
0.0
  0
LINE
  5
6C9
330
18
100
AcDbEntity
  8
1
 62
     1
100
AcDbLine
 10
70.49734274414715
 20
13.22050000000005
 30
0.0
 11
69.74285714285715
 21
11.91369321428571
 31
0.0
  0
LINE
  5
6CA
330
18
100
AcDbEntity
  8
1
 62
     1
100
AcDbLine
 10
69.74285714285715
 20
11.91369321428571
 30
0.0
 11
68.98837154156719
 21
13.22049999999998
 31
0.0
  0
LINE
  5
6CB
330
18
100
AcDbEntity
  8
1
 62
     1
100
AcDbLine
 10
72.31162845843284
 20
13.22050000000001
 30
0.0
 11
71.55714285714286
 21
11.91369321428571
 31
0.0
  0
LINE
  5
6CC
330
18
100
AcDbEntity
  8
1
 62
     1
100
AcDbLine
 10
68.6830570298614
 20
13.22050000000001
 30
0.0
 11
67.92857142857143
 21
11.91369321428571
 31
0.0
  0
LINE
  5
6CD
330
18
100
AcDbEntity
  8
1
 62
     1
100
AcDbLine
 10
67.92857142857143
 20
11.91369321428571
 30
0.0
 11
67.17408582728147
 21
13.22049999999999
 31
0.0
  0
LINE
  5
6CE
330
18
100
AcDbEntity
  8
1
 62
     1
100
AcDbLine
 10
66.86877131557571
 20
13.22050000000005
 30
0.0
 11
66.11428571428571
 21
11.91369321428571
 31
0.0
  0
LINE
  5
6CF
330
18
100
AcDbEntity
  8
1
 62
     1
100
AcDbLine
 10
66.11428571428571
 20
11.91369321428571
 30
0.0
 11
65.35980011299574
 21
13.22049999999999
 31
0.0
  0
LINE
  5
6D0
330
18
100
AcDbEntity
  8
1
 62
     1
100
AcDbLine
 10
65.05448560128997
 20
13.2205
 30
0.0
 11
64.30000000000001
 21
11.91369321428571
 31
0.0
  0
LINE
  5
6D1
330
18
100
AcDbEntity
  8
1
 62
     1
100
AcDbLine
 10
49.78571428571428
 20
11.91369321428571
 30
0.0
 11
49.03122868442433
 21
13.2205
 31
0.0
  0
LINE
  5
6D2
330
18
100
AcDbEntity
  8
1
 62
     1
100
AcDbLine
 10
50.54019988700425
 20
13.2205
 30
0.0
 11
49.78571428571429
 21
11.91369321428571
 31
0.0
  0
LINE
  5
6D3
330
18
100
AcDbEntity
  8
1
 62
     1
100
AcDbLine
 10
51.60000000000001
 20
11.91369321428571
 30
0.0
 11
50.84551439871004
 21
13.22049999999999
 31
0.0
  0
LINE
  5
6D4
330
18
100
AcDbEntity
  8
1
 62
     1
100
AcDbLine
 10
52.35448560128999
 20
13.22050000000002
 30
0.0
 11
51.60000000000001
 21
11.91369321428571
 31
0.0
  0
LINE
  5
6D5
330
18
100
AcDbEntity
  8
1
 62
     1
100
AcDbLine
 10
75.60163357437193
 20
-12.63408621820514
 30
0.0
 11
76.75508945282046
 21
-12.33789052752804
 31
0.0
  0
LINE
  5
6D6
330
18
100
AcDbEntity
  8
1
 62
     1
100
AcDbLine
 10
74.02160003414488
 20
-13.03982269628354
 30
0.0
 11
74.62500179356869
 21
-12.88487528630657
 31
0.0
  0
LINE
  5
6D7
330
18
100
AcDbEntity
  8
1
 62
     1
100
AcDbLine
 10
72.31162845843282
 20
-13.2205
 30
0.0
 11
72.61694297013864
 21
-13.2205
 31
0.0
  0
LINE
  5
6D8
330
18
100
AcDbEntity
  8
1
 62
     1
100
AcDbLine
 10
70.49734274414715
 20
-13.2205
 30
0.0
 11
70.80265725585294
 21
-13.2205
 31
0.0
  0
LINE
  5
6D9
330
18
100
AcDbEntity
  8
1
 62
     1
100
AcDbLine
 10
68.68305702986139
 20
-13.2205
 30
0.0
 11
68.98837154156725
 21
-13.2205
 31
0.0
  0
LINE
  5
6DA
330
18
100
AcDbEntity
  8
1
 62
     1
100
AcDbLine
 10
66.86877131557571
 20
-13.2205
 30
0.0
 11
67.17408582728152
 21
-13.2205
 31
0.0
  0
LINE
  5
6DB
330
18
100
AcDbEntity
  8
1
 62
     1
100
AcDbLine
 10
65.05448560128997
 20
-13.2205
 30
0.0
 11
65.35980011299579
 21
-13.2205
 31
0.0
  0
LINE
  5
6DC
330
18
100
AcDbEntity
  8
1
 62
     1
100
AcDbLine
 10
63.24019988700427
 20
-13.2205
 30
0.0
 11
63.54551439871005
 21
-13.2205
 31
0.0
  0
LINE
  5
6DD
330
18
100
AcDbEntity
  8
1
 62
     1
100
AcDbLine
 10
61.42591417271855
 20
-13.2205
 30
0.0
 11
61.73122868442434
 21
-13.2205
 31
0.0
  0
LINE
  5
6DE
330
18
100
AcDbEntity
  8
1
 62
     1
100
AcDbLine
 10
59.61162845843283
 20
-13.2205
 30
0.0
 11
59.91694297013863
 21
-13.2205
 31
0.0
  0
LINE
  5
6DF
330
18
100
AcDbEntity
  8
1
 62
     1
100
AcDbLine
 10
57.79734274414712
 20
-13.2205
 30
0.0
 11
58.1026572558529
 21
-13.2205
 31
0.0
  0
LINE
  5
6E0
330
18
100
AcDbEntity
  8
1
 62
     1
100
AcDbLine
 10
55.9830570298614
 20
-13.2205
 30
0.0
 11
56.28837154156718
 21
-13.2205
 31
0.0
  0
LINE
  5
6E1
330
18
100
AcDbEntity
  8
1
 62
     1
100
AcDbLine
 10
54.1687713155757
 20
-13.2205
 30
0.0
 11
54.47408582728149
 21
-13.2205
 31
0.0
  0
LINE
  5
6E2
330
18
100
AcDbEntity
  8
1
 62
     1
100
AcDbLine
 10
52.35448560128999
 20
-13.2205
 30
0.0
 11
52.65980011299577
 21
-13.2205
 31
0.0
  0
LINE
  5
6E3
330
18
100
AcDbEntity
  8
1
 62
     1
100
AcDbLine
 10
50.54019988700424
 20
-13.2205
 30
0.0
 11
50.84551439871004
 21
-13.2205
 31
0.0
  0
LINE
  5
6E4
330
18
100
AcDbEntity
  8
1
 62
     1
100
AcDbLine
 10
49.0
 20
-13.2205
 30
0.0
 11
49.03122868442433
 21
-13.2205
 31
0.0
  0
LINE
  5
6E5
330
18
100
AcDbEntity
  8
1
 62
     1
100
AcDbLine
 10
47.03960716
 20
-9.825
 30
0.0
 11
49.0
 21
-13.2205
 31
0.0
  0
LINE
  5
6E6
330
18
100
AcDbEntity
  8
SK1
100
AcDbLine
 10
0.0
 20
10.0
 30
0.0
 11
-44.0
 21
10.0
 31
0.0
  0
LINE
  5
6E7
330
18
100
AcDbEntity
  8
SK1
100
AcDbLine
 10
-44.0
 20
-8.000000000000002
 30
0.0
 11
-44.0
 21
-10.0
 31
0.0
  0
LINE
  5
6E8
330
18
100
AcDbEntity
  8
SK1
100
AcDbLine
 10
-62.0
 20
8.0
 30
0.0
 11
-44.0
 21
8.0
 31
0.0
  0
LINE
  5
6E9
330
18
100
AcDbEntity
  8
SK1
100
AcDbLine
 10
-61.99999999999999
 20
8.0
 30
0.0
 11
-62.0
 21
6.00000000000002
 31
0.0
  0
LINE
  5
6EA
330
18
100
AcDbEntity
  8
SK1
100
AcDbLine
 10
-63.0
 20
4.123105625617764
 30
0.0
 11
-62.52588419453607
 21
5.075322275509858
 31
0.0
  0
LINE
  5
6EB
330
18
100
AcDbEntity
  8
SK1
100
AcDbLine
 10
-62.52588419453607
 20
5.075322275509858
 30
0.0
 11
-62.00000000000001
 21
6.000000000000004
 31
0.0
  0
LINE
  5
6EC
330
18
100
AcDbEntity
  8
SK1
100
AcDbLine
 10
-63.0
 20
8.000000000000004
 30
0.0
 11
-62.00000000000001
 21
8.000000000000002
 31
0.0
  0
LINE
  5
6ED
330
18
100
AcDbEntity
  8
SK1
100
AcDbLine
 10
-44.0
 20
10.0
 30
0.0
 11
-44.0
 21
9.999579537142756
 31
0.0
  0
LINE
  5
6EE
330
18
100
AcDbEntity
  8
SK1
100
AcDbLine
 10
-44.0
 20
9.999579537142756
 30
0.0
 11
-43.99999999999999
 21
9.871577618107374
 31
0.0
  0
LINE
  5
6EF
330
18
100
AcDbEntity
  8
SK1
100
AcDbLine
 10
-43.99999999999999
 20
9.871577618107374
 30
0.0
 11
-43.99999999999999
 21
8.0
 31
0.0
  0
LINE
  5
6F0
330
18
100
AcDbEntity
  8
SK1
100
AcDbLine
 10
-62.0
 20
-5.999999999999996
 30
0.0
 11
-44.0
 21
-5.999999999999996
 31
0.0
  0
LINE
  5
6F1
330
18
100
AcDbEntity
  8
SK1
100
AcDbLine
 10
-62.0
 20
-7.999999999999999
 30
0.0
 11
-44.0
 21
-7.999999999999999
 31
0.0
  0
LINE
  5
6F2
330
18
100
AcDbEntity
  8
SK1
100
AcDbLine
 10
-63.00000000000001
 20
7.999999999999845
 30
0.0
 11
-63.00000000000001
 21
4.123105625617666
 31
0.0
  0
LINE
  5
6F3
330
18
100
AcDbEntity
  8
SK1
100
AcDbLine
 10
-63.00000000000001
 20
-4.123105625617661
 30
0.0
 11
-63.00000000000001
 21
-7.999999999999998
 31
0.0
  0
LINE
  5
6F4
330
18
100
AcDbEntity
  8
SK1
100
AcDbLine
 10
-63.0
 20
-4.123105625617655
 30
0.0
 11
-62.52588419453608
 21
-5.075322275509811
 31
0.0
  0
LINE
  5
6F5
330
18
100
AcDbEntity
  8
SK1
100
AcDbLine
 10
-62.52588419453608
 20
-5.075322275509811
 30
0.0
 11
-62.0
 21
-5.999999999999999
 31
0.0
  0
LINE
  5
6F6
330
18
100
AcDbEntity
  8
SK1
100
AcDbLine
 10
-63.0
 20
-8.0
 30
0.0
 11
-62.00000000000001
 21
-8.0
 31
0.0
  0
LINE
  5
6F7
330
18
100
AcDbEntity
  8
SK1
100
AcDbLine
 10
-61.99999999999999
 20
-5.999999999999996
 30
0.0
 11
-61.99999999999999
 21
-7.999999999999995
 31
0.0
  0
LINE
  5
6F8
330
18
100
AcDbEntity
  8
SK1
100
AcDbLine
 10
-44.00000000000001
 20
6.000000000000002
 30
0.0
 11
-44.0
 21
-5.99999999999999
 31
0.0
  0
LINE
  5
6F9
330
18
100
AcDbEntity
  8
SK1
100
AcDbLine
 10
-62.99999999999999
 20
4.123105625617665
 30
0.0
 11
-62.99999999999999
 21
-4.12310562561766
 31
0.0
  0
LINE
  5
6FA
330
18
100
AcDbEntity
  8
SK1
100
AcDbLine
 10
-61.99999999999999
 20
6.000000000000003
 30
0.0
 11
-43.99999999999999
 21
6.000000000000003
 31
0.0
  0
LINE
  5
6FB
330
18
100
AcDbEntity
  8
SK1
100
AcDbLine
 10
-44.0
 20
-10.0
 30
0.0
 11
-0.0000000000000018
 21
-10.0
 31
0.0
  0
DIMENSION
  5
6FC
330
18
100
AcDbEntity
  8
2
100
AcDbDimension
  2
*D0
 10
92.0000000000001
 20
-13.22049999999995
 30
0.0
 11
88.80075000000005
 21
0.0000000000000439
 31
0.0
 70
    32
  1
G3/4-14
 71
     5
 42
26.441
  3
STANDARD
100
AcDbAlignedDimension
 13
77.0
 23
13.2205
 33
0.0
 14
77.0
 24
-13.2205
 34
0.0
 50
90.0000000000002
100
AcDbRotatedDimension
  0
DIMENSION
  5
709
330
18
100
AcDbEntity
  8
2
100
AcDbDimension
  2
*D1
 10
77.0
 20
75.0
 30
0.0
 11
38.5
 21
77.38025
 31
0.0
 70
    32
  1
<>
 71
     5
 42
77.0
  3
STANDARD
100
AcDbAlignedDimension
 13
0.0
 23
0.0
 33
0.0
 14
77.0
 24
0.0
 34
0.0
100
AcDbRotatedDimension
  0
DIMENSION
  5
716
330
18
100
AcDbEntity
  8
SK2
100
AcDbDimension
  2
*D2
 10
-77.99999999994897
 20
-10.00000000017352
 30
0.0
 11
-80.39075
 21
-0.0000000001857166
 31
0.0
 70
    32
  1
%%c<>
 71
     5
 42
20.0
  3
STANDARD
100
AcDbAlignedDimension
 13
-44.0
 23
10.0
 33
0.0
 14
-44.0
 24
-10.0
 34
0.0
 50
90.0000000002924
100
AcDbRotatedDimension
  0
DIMENSION
  5
723
330
18
100
AcDbEntity
  8
2
100
AcDbDimension
  2
*D3
 10
77.0
 20
60.0
 30
0.0
 11
62.01980358
 21
62.39775
 31
0.0
 70
    32
  1
<>
 71
     5
 42
29.96039284
  3
STANDARD
100
AcDbAlignedDimension
 13
47.03960716
 23
9.825
 33
0.0
 14
77.0
 24
13.2205
 34
0.0
100
AcDbRotatedDimension
  0
DIMENSION
  5
730
330
18
100
AcDbEntity
  8
SK2
100
AcDbDimension
  2
*D4
 10
77.0
 20
90.0
 30
0.0
 11
7.0
 21
92.431
 31
0.0
 70
    32
  1
<>
 71
     5
 42
140.0
  3
STANDARD
100
AcDbAlignedDimension
 13
-63.0
 23
13.2205
 33
0.0
 14
77.0
 24
13.2205
 34
0.0
100
AcDbRotatedDimension
  0
ENDSEC
  0
SECTION
  2
OBJECTS
  0
DICTIONARY
  5
C
330
0
100
AcDbDictionary
281
     1
  3
ACAD_COLOR
350
387
  3
ACAD_GROUP
350
D
  3
ACAD_LAYOUT
350
301
  3
ACAD_MATERIAL
350
386
  3
ACAD_MLEADERSTYLE
350
73D
  3
ACAD_MLINESTYLE
350
E
  3
ACAD_PLOTSETTINGS
350
302
  3
ACAD_PLOTSTYLENAME
350
2FF
  3
ACAD_SCALELIST
350
3A0
  3
ACAD_TABLESTYLE
350
388
  3
ACAD_VISUALSTYLE
350
3C5
  3
ACDBHEADERROUNDTRIPXREC
350
73E
  3
AcDbVariableDictionary
350
357
  0
DICTIONARY
  5
387
102
{ACAD_REACTORS
330
C
102
}
330
C
100
AcDbDictionary
281
     1
  0
DICTIONARY
  5
D
102
{ACAD_REACTORS
330
C
102
}
330
C
100
AcDbDictionary
281
     1
  0
DICTIONARY
  5
301
102
{ACAD_REACTORS
330
C
102
}
330
C
100
AcDbDictionary
281
     1
  3
Layout1
350
33B
  3
Model
350
303
  0
DICTIONARY
  5
386
102
{ACAD_REACTORS
330
C
102
}
330
C
100
AcDbDictionary
281
     1
  3
ByBlock
350
3C3
  3
ByLayer
350
3C2
  3
Global
350
3C4
  0
DICTIONARY
  5
73D
102
{ACAD_REACTORS
330
C
102
}
330
C
100
AcDbDictionary
281
     1
  0
DICTIONARY
  5
E
102
{ACAD_REACTORS
330
C
102
}
330
C
100
AcDbDictionary
281
     1
  3
STANDARD
350
1B
  0
DICTIONARY
  5
302
102
{ACAD_REACTORS
330
C
102
}
330
C
100
AcDbDictionary
281
     1
  0
ACDBDICTIONARYWDFLT
  5
2FF
102
{ACAD_REACTORS
330
C
102
}
330
C
100
AcDbDictionary
281
     1
  3
Normal
350
300
100
AcDbDictionaryWithDefault
340
300
  0
DICTIONARY
  5
3A0
102
{ACAD_REACTORS
330
C
102
}
330
C
100
AcDbDictionary
281
     1
  3
A0
350
3A1
  3
A1
350
3A2
  3
A2
350
3A3
  3
A3
350
3A4
  3
A4
350
3A5
  3
A5
350
3A6
  3
A6
350
3A7
  3
A7
350
3A8
  3
A8
350
3A9
  3
A9
350
3AA
  3
B0
350
3AB
  3
B1
350
3AC
  3
B2
350
3AD
  3
B3
350
3AE
  3
B4
350
3AF
  3
B5
350
3B0
  3
B6
350
3B1
  3
B7
350
3B2
  3
B8
350
3B3
  3
B9
350
3B4
  3
C0
350
3B5
  3
C1
350
3B6
  3
C2
350
3B7
  3
C3
350
3B8
  3
C4
350
3B9
  3
C5
350
3BA
  3
C6
350
3BB
  3
C7
350
3BC
  3
C8
350
3BD
  3
C9
350
3BE
  3
D0
350
3BF
  3
D1
350
3C0
  3
D2
350
3C1
  0
DICTIONARY
  5
388
102
{ACAD_REACTORS
330
C
102
}
330
C
100
AcDbDictionary
281
     1
  3
Standard
350
389
  0
DICTIONARY
  5
3C5
102
{ACAD_REACTORS
330
C
102
}
330
C
100
AcDbDictionary
281
     1
  3
2dWireframe
350
3CA
  3
3D Hidden
350
3CC
  3
3dWireframe
350
3CB
  3
Basic
350
3CD
  3
Brighten
350
3D1
  3
ColorChange
350
3D5
  3
Conceptual
350
3CF
  3
Dim
350
3D0
  3
Facepattern
350
3D4
  3
Flat
350
3C6
  3
FlatWithEdges
350
3C7
  3
Gouraud
350
3C8
  3
GouraudWithEdges
350
3C9
  3
Linepattern
350
3D3
  3
Realistic
350
3CE
  3
Thicken
350
3D2
  0
DICTIONARY
  5
73E
102
{ACAD_REACTORS
330
C
102
}
330
C
100
AcDbDictionary
281
     1
  3
COLORDICT
350
73F
  3
MATERIALDICT
350
740
  0
DICTIONARY
  5
357
102
{ACAD_REACTORS
330
C
102
}
330
C
100
AcDbDictionary
281
     1
  3
CANNOSCALE
350
741
  3
CTABLESTYLE
350
38D
  3
DIMASSOC
350
359
  3
HIDETEXT
350
358
  3
PROJECTNAME
350
38E
  0
LAYOUT
  5
33B
102
{ACAD_REACTORS
330
301
102
}
330
301
100
AcDbPlotSettings
  1

  2
Lexmark Optra PS2
  4

  6

 40
0.0
 41
0.0
 42
0.0
 43
0.0
 44
0.0
 45
0.0
 46
0.0
 47
0.0
 48
0.0
 49
0.0
140
0.0
141
0.0
142
1.0
143
1.0
 70
   688
 72
     0
 73
     0
 74
     5
  7
monochrome.ctb
 75
    16
147
1.0
148
0.0
149
0.0
100
AcDbLayout
  1
Layout1
 70
     1
 71
     1
 10
0.0
 20
0.0
 11
12.0
 21
9.0
 12
0.0
 22
0.0
 32
0.0
 14
0.0
 24
0.0
 34
0.0
 15
0.0
 25
0.0
 35
0.0
146
0.0
 13
0.0
 23
0.0
 33
0.0
 16
1.0
 26
0.0
 36
0.0
 17
0.0
 27
1.0
 37
0.0
 76
     0
330
338
  0
LAYOUT
  5
303
102
{ACAD_REACTORS
330
301
102
}
330
301
100
AcDbPlotSettings
  1

  2
Lexmark Optra Rx
  4
A4
  6

 40
6.805083274841307
 41
5.535083293914794
 42
6.974411010742187
 43
7.14373779296875
 44
209.9733276367186
 45
296.9259948730469
 46
0.0
 47
0.0
 48
0.0
 49
0.0
140
0.0
141
0.0
142
1.0
143
2.976565420630886
 70
 11952
 72
     1
 73
     1
 74
     0
  7
monochrome.ctb
 75
     0
147
0.335957675604539
148
204.1199660668592
149
172.3933209647495
100
AcDbLayout
  1
Model
 70
     1
 71
     0
 10
0.0
 20
0.0
 11
12.0
 21
9.0
 12
0.0
 22
0.0
 32
0.0
 14
0.0
 24
0.0
 34
0.0
 15
0.0
 25
0.0
 35
0.0
146
0.0
 13
0.0
 23
0.0
 33
0.0
 16
1.0
 26
0.0
 36
0.0
 17
0.0
 27
1.0
 37
0.0
 76
     0
330
18
331
39A
  0
MATERIAL
  5
3C3
102
{ACAD_REACTORS
330
386
102
}
102
{ACAD_XDICTIONARY
360
744
102
}
330
386
100
AcDbMaterial
  1
ByBlock
  0
MATERIAL
  5
3C2
102
{ACAD_REACTORS
330
386
102
}
102
{ACAD_XDICTIONARY
360
742
102
}
330
386
100
AcDbMaterial
  1
ByLayer
  0
MATERIAL
  5
3C4
102
{ACAD_REACTORS
330
386
102
}
102
{ACAD_XDICTIONARY
360
746
102
}
330
386
100
AcDbMaterial
  1
Global
  0
MLINESTYLE
  5
1B
102
{ACAD_REACTORS
330
E
102
}
330
E
100
AcDbMlineStyle
  2
STANDARD
 70
     0
  3

 62
     0
 51
90.0
 52
90.0
 71
     2
 49
0.5
 62
   256
  6
BYLAYER
 49
-0.5
 62
   256
  6
BYLAYER
  0
ACDBPLACEHOLDER
  5
300
102
{ACAD_REACTORS
330
2FF
102
}
330
2FF
  0
SCALE
  5
3A1
102
{ACAD_REACTORS
330
3A0
102
}
330
3A0
100
AcDbScale
 70
     0
300
1:1
140
1.0
141
1.0
290
     1
  0
SCALE
  5
3A2
102
{ACAD_REACTORS
330
3A0
102
}
330
3A0
100
AcDbScale
 70
     0
300
1:2
140
1.0
141
2.0
290
     0
  0
SCALE
  5
3A3
102
{ACAD_REACTORS
330
3A0
102
}
330
3A0
100
AcDbScale
 70
     0
300
1:4
140
1.0
141
4.0
290
     0
  0
SCALE
  5
3A4
102
{ACAD_REACTORS
330
3A0
102
}
330
3A0
100
AcDbScale
 70
     0
300
1:5
140
1.0
141
5.0
290
     0
  0
SCALE
  5
3A5
102
{ACAD_REACTORS
330
3A0
102
}
330
3A0
100
AcDbScale
 70
     0
300
1:8
140
1.0
141
8.0
290
     0
  0
SCALE
  5
3A6
102
{ACAD_REACTORS
330
3A0
102
}
330
3A0
100
AcDbScale
 70
     0
300
1:10
140
1.0
141
10.0
290
     0
  0
SCALE
  5
3A7
102
{ACAD_REACTORS
330
3A0
102
}
330
3A0
100
AcDbScale
 70
     0
300
1:16
140
1.0
141
16.0
290
     0
  0
SCALE
  5
3A8
102
{ACAD_REACTORS
330
3A0
102
}
330
3A0
100
AcDbScale
 70
     0
300
1:20
140
1.0
141
20.0
290
     0
  0
SCALE
  5
3A9
102
{ACAD_REACTORS
330
3A0
102
}
330
3A0
100
AcDbScale
 70
     0
300
1:30
140
1.0
141
30.0
290
     0
  0
SCALE
  5
3AA
102
{ACAD_REACTORS
330
3A0
102
}
330
3A0
100
AcDbScale
 70
     0
300
1:40
140
1.0
141
40.0
290
     0
  0
SCALE
  5
3AB
102
{ACAD_REACTORS
330
3A0
102
}
330
3A0
100
AcDbScale
 70
     0
300
1:50
140
1.0
141
50.0
290
     0
  0
SCALE
  5
3AC
102
{ACAD_REACTORS
330
3A0
102
}
330
3A0
100
AcDbScale
 70
     0
300
1:100
140
1.0
141
100.0
290
     0
  0
SCALE
  5
3AD
102
{ACAD_REACTORS
330
3A0
102
}
330
3A0
100
AcDbScale
 70
     0
300
2:1
140
2.0
141
1.0
290
     0
  0
SCALE
  5
3AE
102
{ACAD_REACTORS
330
3A0
102
}
330
3A0
100
AcDbScale
 70
     0
300
4:1
140
4.0
141
1.0
290
     0
  0
SCALE
  5
3AF
102
{ACAD_REACTORS
330
3A0
102
}
330
3A0
100
AcDbScale
 70
     0
300
8:1
140
8.0
141
1.0
290
     0
  0
SCALE
  5
3B0
102
{ACAD_REACTORS
330
3A0
102
}
330
3A0
100
AcDbScale
 70
     0
300
10:1
140
10.0
141
1.0
290
     0
  0
SCALE
  5
3B1
102
{ACAD_REACTORS
330
3A0
102
}
330
3A0
100
AcDbScale
 70
     0
300
100:1
140
100.0
141
1.0
290
     0
  0
SCALE
  5
3B2
102
{ACAD_REACTORS
330
3A0
102
}
330
3A0
100
AcDbScale
 70
     0
300
1/128" = 1'-0"
140
0.0078125
141
12.0
290
     0
  0
SCALE
  5
3B3
102
{ACAD_REACTORS
330
3A0
102
}
330
3A0
100
AcDbScale
 70
     0
300
1/64" = 1'-0"
140
0.015625
141
12.0
290
     0
  0
SCALE
  5
3B4
102
{ACAD_REACTORS
330
3A0
102
}
330
3A0
100
AcDbScale
 70
     0
300
1/32" = 1'-0"
140
0.03125
141
12.0
290
     0
  0
SCALE
  5
3B5
102
{ACAD_REACTORS
330
3A0
102
}
330
3A0
100
AcDbScale
 70
     0
300
1/16" = 1'-0"
140
0.0625
141
12.0
290
     0
  0
SCALE
  5
3B6
102
{ACAD_REACTORS
330
3A0
102
}
330
3A0
100
AcDbScale
 70
     0
300
3/32" = 1'-0"
140
0.09375
141
12.0
290
     0
  0
SCALE
  5
3B7
102
{ACAD_REACTORS
330
3A0
102
}
330
3A0
100
AcDbScale
 70
     0
300
1/8" = 1'-0"
140
0.125
141
12.0
290
     0
  0
SCALE
  5
3B8
102
{ACAD_REACTORS
330
3A0
102
}
330
3A0
100
AcDbScale
 70
     0
300
3/16" = 1'-0"
140
0.1875
141
12.0
290
     0
  0
SCALE
  5
3B9
102
{ACAD_REACTORS
330
3A0
102
}
330
3A0
100
AcDbScale
 70
     0
300
1/4" = 1'-0"
140
0.25
141
12.0
290
     0
  0
SCALE
  5
3BA
102
{ACAD_REACTORS
330
3A0
102
}
330
3A0
100
AcDbScale
 70
     0
300
3/8" = 1'-0"
140
0.375
141
12.0
290
     0
  0
SCALE
  5
3BB
102
{ACAD_REACTORS
330
3A0
102
}
330
3A0
100
AcDbScale
 70
     0
300
1/2" = 1'-0"
140
0.5
141
12.0
290
     0
  0
SCALE
  5
3BC
102
{ACAD_REACTORS
330
3A0
102
}
330
3A0
100
AcDbScale
 70
     0
300
3/4" = 1'-0"
140
0.75
141
12.0
290
     0
  0
SCALE
  5
3BD
102
{ACAD_REACTORS
330
3A0
102
}
330
3A0
100
AcDbScale
 70
     0
300
1" = 1'-0"
140
1.0
141
12.0
290
     0
  0
SCALE
  5
3BE
102
{ACAD_REACTORS
330
3A0
102
}
330
3A0
100
AcDbScale
 70
     0
300
1-1/2" = 1'-0"
140
1.5
141
12.0
290
     0
  0
SCALE
  5
3BF
102
{ACAD_REACTORS
330
3A0
102
}
330
3A0
100
AcDbScale
 70
     0
300
3" = 1'-0"
140
3.0
141
12.0
290
     0
  0
SCALE
  5
3C0
102
{ACAD_REACTORS
330
3A0
102
}
330
3A0
100
AcDbScale
 70
     0
300
6" = 1'-0"
140
6.0
141
12.0
290
     0
  0
SCALE
  5
3C1
102
{ACAD_REACTORS
330
3A0
102
}
330
3A0
100
AcDbScale
 70
     0
300
1'-0" = 1'-0"
140
12.0
141
12.0
290
     0
  0
TABLESTYLE
  5
389
102
{ACAD_REACTORS
330
388
102
}
330
388
100
AcDbTableStyle
  3
Standard
 70
     0
 71
     0
 40
1.5
 41
1.5
280
     0
281
     0
  7
STANDARD
140
4.5
170
     2
 62
     0
 63
   257
283
     0
274
    -2
284
     1
 64
     0
275
    -2
285
     1
 65
     0
276
    -2
286
     1
 66
     0
277
    -2
287
     1
 67
     0
278
    -2
288
     1
 68
     0
279
    -2
289
     1
 69
     0
  7
STANDARD
140
6.0
170
     5
 62
     0
 63
   257
283
     0
274
    -2
284
     1
 64
     0
275
    -2
285
     1
 65
     0
276
    -2
286
     1
 66
     0
277
    -2
287
     1
 67
     0
278
    -2
288
     1
 68
     0
279
    -2
289
     1
 69
     0
  7
STANDARD
140
4.5
170
     5
 62
     0
 63
   257
283
     0
274
    -2
284
     1
 64
     0
275
    -2
285
     1
 65
     0
276
    -2
286
     1
 66
     0
277
    -2
287
     1
 67
     0
278
    -2
288
     1
 68
     0
279
    -2
289
     1
 69
     0
  0
VISUALSTYLE
  5
3CA
102
{ACAD_REACTORS
330
3C5
102
}
102
{ACAD_XDICTIONARY
360
750
102
}
330
3C5
100
AcDbVisualStyle
  2
2dWireframe
 70
     4
 71
     0
 72
     2
 73
     0
 90
        0
 40
-0.6
 41
-30.0
 62
     5
 63
     7
 74
     1
 91
        4
 64
     7
 65
   257
 75
     1
175
     1
 42
1.0
 92
        0
 66
   257
 43
1.0
 76
     1
 77
     6
 78
     2
 67
     7
 79
     5
170
     0
171
     0
290
     0
174
     0
 93
        1
 44
0.0
173
     0
291
     0
 45
0.0
1001
ACAD
1000
AcDbSavedByObjectVersion
1070
     0
  0
VISUALSTYLE
  5
3CC
102
{ACAD_REACTORS
330
3C5
102
}
102
{ACAD_XDICTIONARY
360
754
102
}
330
3C5
100
AcDbVisualStyle
  2
3D Hidden
 70
     6
 71
     1
 72
     2
 73
     2
 90
        0
 40
-0.6
 41
-30.0
 62
     5
 63
     7
 74
     2
 91
        2
 64
     7
 65
   257
 75
     2
175
     1
 42
40.0
 92
        0
 66
   257
 43
1.0
 76
     1
 77
     6
 78
     2
 67
     7
 79
     3
170
     0
171
     0
290
     0
174
     0
 93
        1
 44
0.0
173
     0
291
     0
 45
0.0
1001
ACAD
1000
AcDbSavedByObjectVersion
1070
     0
  0
VISUALSTYLE
  5
3CB
102
{ACAD_REACTORS
330
3C5
102
}
102
{ACAD_XDICTIONARY
360
752
102
}
330
3C5
100
AcDbVisualStyle
  2
3dWireframe
 70
     5
 71
     0
 72
     2
 73
     0
 90
        0
 40
-0.6
 41
-30.0
 62
     5
 63
     7
 74
     1
 91
        4
 64
     7
 65
   257
 75
     1
175
     1
 42
1.0
 92
        0
 66
   257
 43
1.0
 76
     1
 77
     6
 78
     2
 67
     7
 79
     5
170
     0
171
     0
290
     0
174
     0
 93
        1
 44
0.0
173
     0
291
     0
 45
0.0
1001
ACAD
1000
AcDbSavedByObjectVersion
1070
     0
  0
VISUALSTYLE
  5
3CD
102
{ACAD_REACTORS
330
3C5
102
}
102
{ACAD_XDICTIONARY
360
756
102
}
330
3C5
100
AcDbVisualStyle
  2
Basic
 70
     7
 71
     1
 72
     0
 73
     1
 90
        0
 40
-0.6
 41
-30.0
 62
     5
 63
     7
 74
     0
 91
        4
 64
     7
 65
   257
 75
     1
175
     1
 42
1.0
 92
        8
 66
     7
 43
1.0
 76
     1
 77
     6
 78
     2
 67
     7
 79
     5
170
     0
171
     0
290
     0
174
     0
 93
        1
 44
0.0
173
     0
291
     1
 45
0.0
1001
ACAD
1000
AcDbSavedByObjectVersion
1070
     0
  0
VISUALSTYLE
  5
3D1
102
{ACAD_REACTORS
330
3C5
102
}
102
{ACAD_XDICTIONARY
360
75E
102
}
330
3C5
100
AcDbVisualStyle
  2
Brighten
 70
    12
 71
     2
 72
     2
 73
     0
 90
        0
 40
-0.6
 41
-30.0
 62
     5
 63
     7
 74
     1
 91
        4
 64
     7
 65
   257
 75
     1
175
     1
 42
1.0
 92
        8
 66
     7
 43
1.0
 76
     1
 77
     6
 78
     2
 67
     7
 79
     5
170
     0
171
     0
290
     0
174
     0
 93
        1
 44
50.0
173
     0
291
     1
 45
0.0
1001
ACAD
1000
AcDbSavedByObjectVersion
1070
     0
  0
VISUALSTYLE
  5
3D5
102
{ACAD_REACTORS
330
3C5
102
}
102
{ACAD_XDICTIONARY
360
766
102
}
330
3C5
100
AcDbVisualStyle
  2
ColorChange
 70
    16
 71
     2
 72
     2
 73
     3
 90
        0
 40
-0.6
 41
-30.0
 62
     5
 63
     8
 74
     1
 91
        4
 64
     7
 65
   257
 75
     1
175
     1
 42
1.0
 92
        8
 66
     8
 43
1.0
 76
     1
 77
     6
 78
     2
 67
     7
 79
     5
170
     0
171
     0
290
     0
174
     0
 93
        1
 44
0.0
173
     0
291
     1
 45
0.0
1001
ACAD
1000
AcDbSavedByObjectVersion
1070
     0
  0
VISUALSTYLE
  5
3CF
102
{ACAD_REACTORS
330
3C5
102
}
102
{ACAD_XDICTIONARY
360
75A
102
}
330
3C5
100
AcDbVisualStyle
  2
Conceptual
 70
     9
 71
     3
 72
     2
 73
     0
 90
        0
 40
-0.6
 41
-30.0
 62
     5
 63
     7
 74
     2
 91
        2
 64
     7
 65
   257
 75
     1
175
     1
 42
40.0
 92
        8
 66
     7
 43
1.0
 76
     1
 77
     6
 78
     2
 67
     7
 79
     3
170
     0
171
     0
290
     0
174
     0
 93
        1
 44
0.0
173
     0
291
     0
 45
0.0
1001
ACAD
1000
AcDbSavedByObjectVersion
1070
     0
  0
VISUALSTYLE
  5
3D0
102
{ACAD_REACTORS
330
3C5
102
}
102
{ACAD_XDICTIONARY
360
75C
102
}
330
3C5
100
AcDbVisualStyle
  2
Dim
 70
    11
 71
     2
 72
     2
 73
     0
 90
        0
 40
-0.6
 41
-30.0
 62
     5
 63
     7
 74
     1
 91
        4
 64
     7
 65
   257
 75
     1
175
     1
 42
1.0
 92
        8
 66
     7
 43
1.0
 76
     1
 77
     6
 78
     2
 67
     7
 79
     5
170
     0
171
     0
290
     0
174
     0
 93
        1
 44
-50.0
173
     0
291
     1
 45
0.0
1001
ACAD
1000
AcDbSavedByObjectVersion
1070
     0
  0
VISUALSTYLE
  5
3D4
102
{ACAD_REACTORS
330
3C5
102
}
102
{ACAD_XDICTIONARY
360
764
102
}
330
3C5
100
AcDbVisualStyle
  2
Facepattern
 70
    15
 71
     2
 72
     2
 73
     0
 90
        0
 40
-0.6
 41
-30.0
 62
     5
 63
     7
 74
     1
 91
        4
 64
     7
 65
   257
 75
     1
175
     1
 42
1.0
 92
        8
 66
     7
 43
1.0
 76
     1
 77
     6
 78
     2
 67
     7
 79
     5
170
     0
171
     0
290
     0
174
     0
 93
        1
 44
0.0
173
     0
291
     1
 45
0.0
1001
ACAD
1000
AcDbSavedByObjectVersion
1070
     0
  0
VISUALSTYLE
  5
3C6
102
{ACAD_REACTORS
330
3C5
102
}
102
{ACAD_XDICTIONARY
360
748
102
}
330
3C5
100
AcDbVisualStyle
  2
Flat
 70
     0
 71
     2
 72
     1
 73
     1
 90
        2
 40
-0.6
 41
30.0
 62
     5
 63
     7
 74
     0
 91
        4
 64
     7
 65
   257
 75
     1
175
     1
 42
1.0
 92
        8
 66
     7
 43
1.0
 76
     1
 77
     6
 78
     2
 67
     7
 79
     5
170
     0
171
     0
290
     0
174
     0
 93
       13
 44
0.0
173
     0
291
     1
 45
0.0
1001
ACAD
1000
AcDbSavedByObjectVersion
1070
     0
  0
VISUALSTYLE
  5
3C7
102
{ACAD_REACTORS
330
3C5
102
}
102
{ACAD_XDICTIONARY
360
74A
102
}
330
3C5
100
AcDbVisualStyle
  2
FlatWithEdges
 70
     1
 71
     2
 72
     1
 73
     1
 90
        2
 40
-0.6
 41
30.0
 62
     5
 63
     7
 74
     1
 91
        4
 64
     7
 65
   257
 75
     1
175
     1
 42
1.0
 92
        0
 66
   257
 43
1.0
 76
     1
 77
     6
 78
     2
 67
     7
 79
     5
170
     0
171
     0
290
     0
174
     0
 93
       13
 44
0.0
173
     0
291
     1
 45
0.0
1001
ACAD
1000
AcDbSavedByObjectVersion
1070
     0
  0
VISUALSTYLE
  5
3C8
102
{ACAD_REACTORS
330
3C5
102
}
102
{ACAD_XDICTIONARY
360
74C
102
}
330
3C5
100
AcDbVisualStyle
  2
Gouraud
 70
     2
 71
     2
 72
     2
 73
     1
 90
        2
 40
-0.6
 41
30.0
 62
     5
 63
     7
 74
     0
 91
        4
 64
     7
 65
   257
 75
     1
175
     1
 42
1.0
 92
        0
 66
     7
 43
1.0
 76
     1
 77
     6
 78
     2
 67
     7
 79
     5
170
     0
171
     0
290
     0
174
     0
 93
       13
 44
0.0
173
     0
291
     1
 45
0.0
1001
ACAD
1000
AcDbSavedByObjectVersion
1070
     0
  0
VISUALSTYLE
  5
3C9
102
{ACAD_REACTORS
330
3C5
102
}
102
{ACAD_XDICTIONARY
360
74E
102
}
330
3C5
100
AcDbVisualStyle
  2
GouraudWithEdges
 70
     3
 71
     2
 72
     2
 73
     1
 90
        2
 40
-0.6
 41
30.0
 62
     5
 63
     7
 74
     1
 91
        4
 64
     7
 65
   257
 75
     1
175
     1
 42
1.0
 92
        0
 66
   257
 43
1.0
 76
     1
 77
     6
 78
     2
 67
     7
 79
     5
170
     0
171
     0
290
     0
174
     0
 93
       13
 44
0.0
173
     0
291
     1
 45
0.0
1001
ACAD
1000
AcDbSavedByObjectVersion
1070
     0
  0
VISUALSTYLE
  5
3D3
102
{ACAD_REACTORS
330
3C5
102
}
102
{ACAD_XDICTIONARY
360
762
102
}
330
3C5
100
AcDbVisualStyle
  2
Linepattern
 70
    14
 71
     2
 72
     2
 73
     0
 90
        0
 40
-0.6
 41
-30.0
 62
     5
 63
     7
 74
     1
 91
        4
 64
     7
 65
   257
 75
     7
175
     7
 42
1.0
 92
        8
 66
     7
 43
1.0
 76
     1
 77
     6
 78
     2
 67
     7
 79
     5
170
     0
171
     0
290
     0
174
     0
 93
        1
 44
0.0
173
     0
291
     1
 45
0.0
1001
ACAD
1000
AcDbSavedByObjectVersion
1070
     0
  0
VISUALSTYLE
  5
3CE
102
{ACAD_REACTORS
330
3C5
102
}
102
{ACAD_XDICTIONARY
360
758
102
}
330
3C5
100
AcDbVisualStyle
  2
Realistic
 70
     8
 71
     2
 72
     2
 73
     0
 90
        0
 40
-0.6
 41
-30.0
 62
     5
 63
     7
 74
     1
 91
        0
 64
     7
 65
   257
 75
     1
175
     1
 42
1.0
 92
        8
 66
     8
 43
1.0
 76
     1
 77
     6
 78
     2
 67
     7
 79
     5
170
     0
171
     0
290
     0
174
     0
 93
       13
 44
0.0
173
     0
291
     0
 45
0.0
1001
ACAD
1000
AcDbSavedByObjectVersion
1070
     0
  0
VISUALSTYLE
  5
3D2
102
{ACAD_REACTORS
330
3C5
102
}
102
{ACAD_XDICTIONARY
360
760
102
}
330
3C5
100
AcDbVisualStyle
  2
Thicken
 70
    13
 71
     2
 72
     2
 73
     0
 90
        0
 40
-0.6
 41
-30.0
 62
     5
 63
     7
 74
     1
 91
        4
 64
     7
 65
   257
 75
     1
175
     1
 42
1.0
 92
       12
 66
     7
 43
1.0
 76
     1
 77
     6
 78
     2
 67
     7
 79
     5
170
     0
171
     0
290
     0
174
     0
 93
        1
 44
0.0
173
     0
291
     1
 45
0.0
1001
ACAD
1000
AcDbSavedByObjectVersion
1070
     0
  0
XRECORD
  5
73F
102
{ACAD_REACTORS
330
73E
102
}
330
73E
100
AcDbXrecord
280
     1
340
387
  0
XRECORD
  5
740
102
{ACAD_REACTORS
330
73E
102
}
330
73E
100
AcDbXrecord
280
     1
340
386
  0
DICTIONARYVAR
  5
741
102
{ACAD_REACTORS
330
357
102
}
330
357
100
DictionaryVariables
280
     0
  1
1:1
  0
DICTIONARYVAR
  5
38D
102
{ACAD_REACTORS
330
357
102
}
330
357
100
DictionaryVariables
280
     0
  1
Standard
  0
DICTIONARYVAR
  5
359
102
{ACAD_REACTORS
330
357
102
}
330
357
100
DictionaryVariables
280
     0
  1
2
  0
DICTIONARYVAR
  5
358
102
{ACAD_REACTORS
330
357
102
}
330
357
100
DictionaryVariables
280
     0
  1
1
  0
DICTIONARYVAR
  5
38E
102
{ACAD_REACTORS
330
357
102
}
330
357
100
DictionaryVariables
280
     0
  1

  0
DICTIONARY
  5
744
330
3C3
100
AcDbDictionary
280
     1
281
     1
  3
ACAD_XREC_ROUNDTRIP
360
745
  0
DICTIONARY
  5
742
330
3C2
100
AcDbDictionary
280
     1
281
     1
  3
ACAD_XREC_ROUNDTRIP
360
743
  0
DICTIONARY
  5
746
330
3C4
100
AcDbDictionary
280
     1
281
     1
  3
ACAD_XREC_ROUNDTRIP
360
747
  0
DICTIONARY
  5
750
330
3CA
100
AcDbDictionary
280
     1
281
     1
  3
ACAD_XREC_ROUNDTRIP
360
751
  0
DICTIONARY
  5
754
330
3CC
100
AcDbDictionary
280
     1
281
     1
  3
ACAD_XREC_ROUNDTRIP
360
755
  0
DICTIONARY
  5
752
330
3CB
100
AcDbDictionary
280
     1
281
     1
  3
ACAD_XREC_ROUNDTRIP
360
753
  0
DICTIONARY
  5
756
330
3CD
100
AcDbDictionary
280
     1
281
     1
  3
ACAD_XREC_ROUNDTRIP
360
757
  0
DICTIONARY
  5
75E
330
3D1
100
AcDbDictionary
280
     1
281
     1
  3
ACAD_XREC_ROUNDTRIP
360
75F
  0
DICTIONARY
  5
766
330
3D5
100
AcDbDictionary
280
     1
281
     1
  3
ACAD_XREC_ROUNDTRIP
360
767
  0
DICTIONARY
  5
75A
330
3CF
100
AcDbDictionary
280
     1
281
     1
  3
ACAD_XREC_ROUNDTRIP
360
75B
  0
DICTIONARY
  5
75C
330
3D0
100
AcDbDictionary
280
     1
281
     1
  3
ACAD_XREC_ROUNDTRIP
360
75D
  0
DICTIONARY
  5
764
330
3D4
100
AcDbDictionary
280
     1
281
     1
  3
ACAD_XREC_ROUNDTRIP
360
765
  0
DICTIONARY
  5
748
330
3C6
100
AcDbDictionary
280
     1
281
     1
  3
ACAD_XREC_ROUNDTRIP
360
749
  0
DICTIONARY
  5
74A
330
3C7
100
AcDbDictionary
280
     1
281
     1
  3
ACAD_XREC_ROUNDTRIP
360
74B
  0
DICTIONARY
  5
74C
330
3C8
100
AcDbDictionary
280
     1
281
     1
  3
ACAD_XREC_ROUNDTRIP
360
74D
  0
DICTIONARY
  5
74E
330
3C9
100
AcDbDictionary
280
     1
281
     1
  3
ACAD_XREC_ROUNDTRIP
360
74F
  0
DICTIONARY
  5
762
330
3D3
100
AcDbDictionary
280
     1
281
     1
  3
ACAD_XREC_ROUNDTRIP
360
763
  0
DICTIONARY
  5
758
330
3CE
100
AcDbDictionary
280
     1
281
     1
  3
ACAD_XREC_ROUNDTRIP
360
759
  0
DICTIONARY
  5
760
330
3D2
100
AcDbDictionary
280
     1
281
     1
  3
ACAD_XREC_ROUNDTRIP
360
761
  0
XRECORD
  5
745
102
{ACAD_REACTORS
330
744
102
}
330
744
100
AcDbXrecord
280
     1
102
MATERIAL
148
0.0
149
0.0
149
0.0
 93
        0
 94
      127
282
     0
 72
     1
 77
     1
171
     1
175
     1
179
     1
273
     0
  0
XRECORD
  5
743
102
{ACAD_REACTORS
330
742
102
}
330
742
100
AcDbXrecord
280
     1
102
MATERIAL
148
0.0
149
0.0
149
0.0
 93
        0
 94
      127
282
     0
 72
     1
 77
     1
171
     1
175
     1
179
     1
273
     0
  0
XRECORD
  5
747
102
{ACAD_REACTORS
330
746
102
}
330
746
100
AcDbXrecord
280
     1
102
MATERIAL
148
0.0
149
0.0
149
0.0
 93
        0
 94
      127
282
     0
 72
     1
 77
     1
171
     1
175
     1
179
     1
273
     0
  0
XRECORD
  5
751
102
{ACAD_REACTORS
330
750
102
}
330
750
100
AcDbXrecord
280
     1
102
RTVSPropertyOp0
 70
     1
102
RTVSPropertyOp1
 70
     1
102
RTVSPropertyOp2
 70
     1
102
RTVSPropertyOp3
 70
     1
102
RTVSPropertyOp4
 70
     1
102
RTVSPropertyOp5
 70
     1
102
RTVSPropertyOp6
 70
     1
102
RTVSPropertyOp7
 70
     1
102
RTVSPropertyOp8
 70
     1
102
RTVSPropertyOp9
 70
     1
102
RTVSPropertyOp10
 70
     1
102
RTVSPropertyOp11
 70
     1
102
RTVSPropertyOp12
 70
     1
102
RTVSPropertyOp13
 70
     1
102
RTVSPropertyOp14
 70
     1
102
RTVSPropertyOp15
 70
     1
102
RTVSPropertyOp16
 70
     1
102
RTVSPropertyOp17
 70
     1
102
RTVSPropertyOp18
 70
     1
102
RTVSPropertyOp19
 70
     1
102
RTVSPropertyOp20
 70
     1
102
RTVSPropertyOp21
 70
     1
102
RTVSPropertyOp22
 70
     1
102
RTVSPropertyOp23
 70
     1
102
RTVSPropertyOp24
 70
     1
102
RTVSPropertyOp25
 70
     1
102
RTVSPropertyOp26
 70
     1
102
RTVSPropertyOp27
 70
     1
102
RTVSPropertyOp28
 70
     1
102
RTVSPropertyOp29
 70
     1
102
RTVSPropertyOp30
 70
     1
102
RTVSPropertyOp31
 70
     1
102
RTVSPropertyOp32
 70
     1
  0
XRECORD
  5
755
102
{ACAD_REACTORS
330
754
102
}
330
754
100
AcDbXrecord
280
     1
102
RTVSPropertyOp0
 70
     1
102
RTVSPropertyOp1
 70
     1
102
RTVSPropertyOp2
 70
     1
102
RTVSPropertyOp3
 70
     1
102
RTVSPropertyOp4
 70
     1
102
RTVSPropertyOp5
 70
     1
102
RTVSPropertyOp6
 70
     1
102
RTVSPropertyOp7
 70
     1
102
RTVSPropertyOp8
 70
     1
102
RTVSPropertyOp9
 70
     1
102
RTVSPropertyOp10
 70
     1
102
RTVSPropertyOp11
 70
     1
102
RTVSPropertyOp12
 70
     1
102
RTVSPropertyOp13
 70
     1
102
RTVSPropertyOp14
 70
     1
102
RTVSPropertyOp15
 70
     1
102
RTVSPropertyOp16
 70
     1
102
RTVSPropertyOp17
 70
     1
102
RTVSPropertyOp18
 70
     1
102
RTVSPropertyOp19
 70
     1
102
RTVSPropertyOp20
 70
     1
102
RTVSPropertyOp21
 70
     1
102
RTVSPropertyOp22
 70
     1
102
RTVSPropertyOp23
 70
     1
102
RTVSPropertyOp24
 70
     1
102
RTVSPropertyOp25
 70
     1
102
RTVSPropertyOp26
 70
     1
102
RTVSPropertyOp27
 70
     1
102
RTVSPropertyOp28
 70
     1
102
RTVSPropertyOp29
 70
     1
102
RTVSPropertyOp30
 70
     1
102
RTVSPropertyOp31
 70
     1
102
RTVSPropertyOp32
 70
     1
  0
XRECORD
  5
753
102
{ACAD_REACTORS
330
752
102
}
330
752
100
AcDbXrecord
280
     1
102
RTVSPropertyOp0
 70
     1
102
RTVSPropertyOp1
 70
     1
102
RTVSPropertyOp2
 70
     1
102
RTVSPropertyOp3
 70
     1
102
RTVSPropertyOp4
 70
     1
102
RTVSPropertyOp5
 70
     1
102
RTVSPropertyOp6
 70
     1
102
RTVSPropertyOp7
 70
     1
102
RTVSPropertyOp8
 70
     1
102
RTVSPropertyOp9
 70
     1
102
RTVSPropertyOp10
 70
     1
102
RTVSPropertyOp11
 70
     1
102
RTVSPropertyOp12
 70
     1
102
RTVSPropertyOp13
 70
     1
102
RTVSPropertyOp14
 70
     1
102
RTVSPropertyOp15
 70
     1
102
RTVSPropertyOp16
 70
     1
102
RTVSPropertyOp17
 70
     1
102
RTVSPropertyOp18
 70
     1
102
RTVSPropertyOp19
 70
     1
102
RTVSPropertyOp20
 70
     1
102
RTVSPropertyOp21
 70
     1
102
RTVSPropertyOp22
 70
     1
102
RTVSPropertyOp23
 70
     1
102
RTVSPropertyOp24
 70
     1
102
RTVSPropertyOp25
 70
     1
102
RTVSPropertyOp26
 70
     1
102
RTVSPropertyOp27
 70
     1
102
RTVSPropertyOp28
 70
     1
102
RTVSPropertyOp29
 70
     1
102
RTVSPropertyOp30
 70
     1
102
RTVSPropertyOp31
 70
     1
102
RTVSPropertyOp32
 70
     1
  0
XRECORD
  5
757
102
{ACAD_REACTORS
330
756
102
}
330
756
100
AcDbXrecord
280
     1
102
RTVSPropertyOp0
 70
     1
102
RTVSPropertyOp1
 70
     1
102
RTVSPropertyOp2
 70
     1
102
RTVSPropertyOp3
 70
     1
102
RTVSPropertyOp4
 70
     1
102
RTVSPropertyOp5
 70
     1
102
RTVSPropertyOp6
 70
     1
102
RTVSPropertyOp7
 70
     1
102
RTVSPropertyOp8
 70
     1
102
RTVSPropertyOp9
 70
     1
102
RTVSPropertyOp10
 70
     1
102
RTVSPropertyOp11
 70
     1
102
RTVSPropertyOp12
 70
     1
102
RTVSPropertyOp13
 70
     1
102
RTVSPropertyOp14
 70
     1
102
RTVSPropertyOp15
 70
     1
102
RTVSPropertyOp16
 70
     1
102
RTVSPropertyOp17
 70
     1
102
RTVSPropertyOp18
 70
     1
102
RTVSPropertyOp19
 70
     1
102
RTVSPropertyOp20
 70
     1
102
RTVSPropertyOp21
 70
     1
102
RTVSPropertyOp22
 70
     1
102
RTVSPropertyOp23
 70
     1
102
RTVSPropertyOp24
 70
     1
102
RTVSPropertyOp25
 70
     1
102
RTVSPropertyOp26
 70
     1
102
RTVSPropertyOp27
 70
     1
102
RTVSPropertyOp28
 70
     1
102
RTVSPropertyOp29
 70
     1
102
RTVSPropertyOp30
 70
     1
102
RTVSPropertyOp31
 70
     1
102
RTVSPropertyOp32
 70
     1
  0
XRECORD
  5
75F
102
{ACAD_REACTORS
330
75E
102
}
330
75E
100
AcDbXrecord
280
     1
102
RTVSPropertyOp0
 70
     1
102
RTVSPropertyOp1
 70
     1
102
RTVSPropertyOp2
 70
     1
102
RTVSPropertyOp3
 70
     1
102
RTVSPropertyOp4
 70
     1
102
RTVSPropertyOp5
 70
     1
102
RTVSPropertyOp6
 70
     1
102
RTVSPropertyOp7
 70
     1
102
RTVSPropertyOp8
 70
     1
102
RTVSPropertyOp9
 70
     1
102
RTVSPropertyOp10
 70
     1
102
RTVSPropertyOp11
 70
     1
102
RTVSPropertyOp12
 70
     1
102
RTVSPropertyOp13
 70
     1
102
RTVSPropertyOp14
 70
     1
102
RTVSPropertyOp15
 70
     1
102
RTVSPropertyOp16
 70
     1
102
RTVSPropertyOp17
 70
     1
102
RTVSPropertyOp18
 70
     1
102
RTVSPropertyOp19
 70
     1
102
RTVSPropertyOp20
 70
     1
102
RTVSPropertyOp21
 70
     1
102
RTVSPropertyOp22
 70
     1
102
RTVSPropertyOp23
 70
     1
102
RTVSPropertyOp24
 70
     1
102
RTVSPropertyOp25
 70
     1
102
RTVSPropertyOp26
 70
     1
102
RTVSPropertyOp27
 70
     1
102
RTVSPropertyOp28
 70
     1
102
RTVSPropertyOp29
 70
     1
102
RTVSPropertyOp30
 70
     1
102
RTVSPropertyOp31
 70
     1
102
RTVSPropertyOp32
 70
     1
  0
XRECORD
  5
767
102
{ACAD_REACTORS
330
766
102
}
330
766
100
AcDbXrecord
280
     1
102
RTVSPropertyOp0
 70
     1
102
RTVSPropertyOp1
 70
     1
102
RTVSPropertyOp2
 70
     1
102
RTVSPropertyOp3
 70
     1
102
RTVSPropertyOp4
 70
     1
102
RTVSPropertyOp5
 70
     1
102
RTVSPropertyOp6
 70
     1
102
RTVSPropertyOp7
 70
     1
102
RTVSPropertyOp8
 70
     1
102
RTVSPropertyOp9
 70
     1
102
RTVSPropertyOp10
 70
     1
102
RTVSPropertyOp11
 70
     1
102
RTVSPropertyOp12
 70
     1
102
RTVSPropertyOp13
 70
     1
102
RTVSPropertyOp14
 70
     1
102
RTVSPropertyOp15
 70
     1
102
RTVSPropertyOp16
 70
     1
102
RTVSPropertyOp17
 70
     1
102
RTVSPropertyOp18
 70
     1
102
RTVSPropertyOp19
 70
     1
102
RTVSPropertyOp20
 70
     1
102
RTVSPropertyOp21
 70
     1
102
RTVSPropertyOp22
 70
     1
102
RTVSPropertyOp23
 70
     1
102
RTVSPropertyOp24
 70
     1
102
RTVSPropertyOp25
 70
     1
102
RTVSPropertyOp26
 70
     1
102
RTVSPropertyOp27
 70
     1
102
RTVSPropertyOp28
 70
     1
102
RTVSPropertyOp29
 70
     1
102
RTVSPropertyOp30
 70
     1
102
RTVSPropertyOp31
 70
     1
102
RTVSPropertyOp32
 70
     1
  0
XRECORD
  5
75B
102
{ACAD_REACTORS
330
75A
102
}
330
75A
100
AcDbXrecord
280
     1
102
RTVSPropertyOp0
 70
     1
102
RTVSPropertyOp1
 70
     1
102
RTVSPropertyOp2
 70
     1
102
RTVSPropertyOp3
 70
     1
102
RTVSPropertyOp4
 70
     1
102
RTVSPropertyOp5
 70
     1
102
RTVSPropertyOp6
 70
     1
102
RTVSPropertyOp7
 70
     1
102
RTVSPropertyOp8
 70
     1
102
RTVSPropertyOp9
 70
     1
102
RTVSPropertyOp10
 70
     1
102
RTVSPropertyOp11
 70
     1
102
RTVSPropertyOp12
 70
     1
102
RTVSPropertyOp13
 70
     1
102
RTVSPropertyOp14
 70
     1
102
RTVSPropertyOp15
 70
     1
102
RTVSPropertyOp16
 70
     1
102
RTVSPropertyOp17
 70
     1
102
RTVSPropertyOp18
 70
     1
102
RTVSPropertyOp19
 70
     1
102
RTVSPropertyOp20
 70
     1
102
RTVSPropertyOp21
 70
     1
102
RTVSPropertyOp22
 70
     1
102
RTVSPropertyOp23
 70
     1
102
RTVSPropertyOp24
 70
     1
102
RTVSPropertyOp25
 70
     1
102
RTVSPropertyOp26
 70
     1
102
RTVSPropertyOp27
 70
     1
102
RTVSPropertyOp28
 70
     1
102
RTVSPropertyOp29
 70
     1
102
RTVSPropertyOp30
 70
     1
102
RTVSPropertyOp31
 70
     1
102
RTVSPropertyOp32
 70
     1
  0
XRECORD
  5
75D
102
{ACAD_REACTORS
330
75C
102
}
330
75C
100
AcDbXrecord
280
     1
102
RTVSPropertyOp0
 70
     1
102
RTVSPropertyOp1
 70
     1
102
RTVSPropertyOp2
 70
     1
102
RTVSPropertyOp3
 70
     1
102
RTVSPropertyOp4
 70
     1
102
RTVSPropertyOp5
 70
     1
102
RTVSPropertyOp6
 70
     1
102
RTVSPropertyOp7
 70
     1
102
RTVSPropertyOp8
 70
     1
102
RTVSPropertyOp9
 70
     1
102
RTVSPropertyOp10
 70
     1
102
RTVSPropertyOp11
 70
     1
102
RTVSPropertyOp12
 70
     1
102
RTVSPropertyOp13
 70
     1
102
RTVSPropertyOp14
 70
     1
102
RTVSPropertyOp15
 70
     1
102
RTVSPropertyOp16
 70
     1
102
RTVSPropertyOp17
 70
     1
102
RTVSPropertyOp18
 70
     1
102
RTVSPropertyOp19
 70
     1
102
RTVSPropertyOp20
 70
     1
102
RTVSPropertyOp21
 70
     1
102
RTVSPropertyOp22
 70
     1
102
RTVSPropertyOp23
 70
     1
102
RTVSPropertyOp24
 70
     1
102
RTVSPropertyOp25
 70
     1
102
RTVSPropertyOp26
 70
     1
102
RTVSPropertyOp27
 70
     1
102
RTVSPropertyOp28
 70
     1
102
RTVSPropertyOp29
 70
     1
102
RTVSPropertyOp30
 70
     1
102
RTVSPropertyOp31
 70
     1
102
RTVSPropertyOp32
 70
     1
  0
XRECORD
  5
765
102
{ACAD_REACTORS
330
764
102
}
330
764
100
AcDbXrecord
280
     1
102
RTVSPropertyOp0
 70
     1
102
RTVSPropertyOp1
 70
     1
102
RTVSPropertyOp2
 70
     1
102
RTVSPropertyOp3
 70
     1
102
RTVSPropertyOp4
 70
     1
102
RTVSPropertyOp5
 70
     1
102
RTVSPropertyOp6
 70
     1
102
RTVSPropertyOp7
 70
     1
102
RTVSPropertyOp8
 70
     1
102
RTVSPropertyOp9
 70
     1
102
RTVSPropertyOp10
 70
     1
102
RTVSPropertyOp11
 70
     1
102
RTVSPropertyOp12
 70
     1
102
RTVSPropertyOp13
 70
     1
102
RTVSPropertyOp14
 70
     1
102
RTVSPropertyOp15
 70
     1
102
RTVSPropertyOp16
 70
     1
102
RTVSPropertyOp17
 70
     1
102
RTVSPropertyOp18
 70
     1
102
RTVSPropertyOp19
 70
     1
102
RTVSPropertyOp20
 70
     1
102
RTVSPropertyOp21
 70
     1
102
RTVSPropertyOp22
 70
     1
102
RTVSPropertyOp23
 70
     1
102
RTVSPropertyOp24
 70
     1
102
RTVSPropertyOp25
 70
     1
102
RTVSPropertyOp26
 70
     1
102
RTVSPropertyOp27
 70
     1
102
RTVSPropertyOp28
 70
     1
102
RTVSPropertyOp29
 70
     1
102
RTVSPropertyOp30
 70
     1
102
RTVSPropertyOp31
 70
     1
102
RTVSPropertyOp32
 70
     1
  0
XRECORD
  5
749
102
{ACAD_REACTORS
330
748
102
}
330
748
100
AcDbXrecord
280
     1
102
RTVSPropertyOp0
 70
     1
102
RTVSPropertyOp1
 70
     1
102
RTVSPropertyOp2
 70
     1
102
RTVSPropertyOp3
 70
     1
102
RTVSPropertyOp4
 70
     1
102
RTVSPropertyOp5
 70
     1
102
RTVSPropertyOp6
 70
     1
102
RTVSPropertyOp7
 70
     1
102
RTVSPropertyOp8
 70
     1
102
RTVSPropertyOp9
 70
     1
102
RTVSPropertyOp10
 70
     1
102
RTVSPropertyOp11
 70
     1
102
RTVSPropertyOp12
 70
     1
102
RTVSPropertyOp13
 70
     1
102
RTVSPropertyOp14
 70
     1
102
RTVSPropertyOp15
 70
     1
102
RTVSPropertyOp16
 70
     1
102
RTVSPropertyOp17
 70
     1
102
RTVSPropertyOp18
 70
     1
102
RTVSPropertyOp19
 70
     1
102
RTVSPropertyOp20
 70
     1
102
RTVSPropertyOp21
 70
     1
102
RTVSPropertyOp22
 70
     1
102
RTVSPropertyOp23
 70
     1
102
RTVSPropertyOp24
 70
     1
102
RTVSPropertyOp25
 70
     1
102
RTVSPropertyOp26
 70
     1
102
RTVSPropertyOp27
 70
     1
102
RTVSPropertyOp28
 70
     1
102
RTVSPropertyOp29
 70
     1
102
RTVSPropertyOp30
 70
     1
102
RTVSPropertyOp31
 70
     1
102
RTVSPropertyOp32
 70
     1
  0
XRECORD
  5
74B
102
{ACAD_REACTORS
330
74A
102
}
330
74A
100
AcDbXrecord
280
     1
102
RTVSPropertyOp0
 70
     1
102
RTVSPropertyOp1
 70
     1
102
RTVSPropertyOp2
 70
     1
102
RTVSPropertyOp3
 70
     1
102
RTVSPropertyOp4
 70
     1
102
RTVSPropertyOp5
 70
     1
102
RTVSPropertyOp6
 70
     1
102
RTVSPropertyOp7
 70
     1
102
RTVSPropertyOp8
 70
     1
102
RTVSPropertyOp9
 70
     1
102
RTVSPropertyOp10
 70
     1
102
RTVSPropertyOp11
 70
     1
102
RTVSPropertyOp12
 70
     1
102
RTVSPropertyOp13
 70
     1
102
RTVSPropertyOp14
 70
     1
102
RTVSPropertyOp15
 70
     1
102
RTVSPropertyOp16
 70
     1
102
RTVSPropertyOp17
 70
     1
102
RTVSPropertyOp18
 70
     1
102
RTVSPropertyOp19
 70
     1
102
RTVSPropertyOp20
 70
     1
102
RTVSPropertyOp21
 70
     1
102
RTVSPropertyOp22
 70
     1
102
RTVSPropertyOp23
 70
     1
102
RTVSPropertyOp24
 70
     1
102
RTVSPropertyOp25
 70
     1
102
RTVSPropertyOp26
 70
     1
102
RTVSPropertyOp27
 70
     1
102
RTVSPropertyOp28
 70
     1
102
RTVSPropertyOp29
 70
     1
102
RTVSPropertyOp30
 70
     1
102
RTVSPropertyOp31
 70
     1
102
RTVSPropertyOp32
 70
     1
  0
XRECORD
  5
74D
102
{ACAD_REACTORS
330
74C
102
}
330
74C
100
AcDbXrecord
280
     1
102
RTVSPropertyOp0
 70
     1
102
RTVSPropertyOp1
 70
     1
102
RTVSPropertyOp2
 70
     1
102
RTVSPropertyOp3
 70
     1
102
RTVSPropertyOp4
 70
     1
102
RTVSPropertyOp5
 70
     1
102
RTVSPropertyOp6
 70
     1
102
RTVSPropertyOp7
 70
     1
102
RTVSPropertyOp8
 70
     1
102
RTVSPropertyOp9
 70
     1
102
RTVSPropertyOp10
 70
     1
102
RTVSPropertyOp11
 70
     1
102
RTVSPropertyOp12
 70
     1
102
RTVSPropertyOp13
 70
     1
102
RTVSPropertyOp14
 70
     1
102
RTVSPropertyOp15
 70
     1
102
RTVSPropertyOp16
 70
     1
102
RTVSPropertyOp17
 70
     1
102
RTVSPropertyOp18
 70
     1
102
RTVSPropertyOp19
 70
     1
102
RTVSPropertyOp20
 70
     1
102
RTVSPropertyOp21
 70
     1
102
RTVSPropertyOp22
 70
     1
102
RTVSPropertyOp23
 70
     1
102
RTVSPropertyOp24
 70
     1
102
RTVSPropertyOp25
 70
     1
102
RTVSPropertyOp26
 70
     1
102
RTVSPropertyOp27
 70
     1
102
RTVSPropertyOp28
 70
     1
102
RTVSPropertyOp29
 70
     1
102
RTVSPropertyOp30
 70
     1
102
RTVSPropertyOp31
 70
     1
102
RTVSPropertyOp32
 70
     1
  0
XRECORD
  5
74F
102
{ACAD_REACTORS
330
74E
102
}
330
74E
100
AcDbXrecord
280
     1
102
RTVSPropertyOp0
 70
     1
102
RTVSPropertyOp1
 70
     1
102
RTVSPropertyOp2
 70
     1
102
RTVSPropertyOp3
 70
     1
102
RTVSPropertyOp4
 70
     1
102
RTVSPropertyOp5
 70
     1
102
RTVSPropertyOp6
 70
     1
102
RTVSPropertyOp7
 70
     1
102
RTVSPropertyOp8
 70
     1
102
RTVSPropertyOp9
 70
     1
102
RTVSPropertyOp10
 70
     1
102
RTVSPropertyOp11
 70
     1
102
RTVSPropertyOp12
 70
     1
102
RTVSPropertyOp13
 70
     1
102
RTVSPropertyOp14
 70
     1
102
RTVSPropertyOp15
 70
     1
102
RTVSPropertyOp16
 70
     1
102
RTVSPropertyOp17
 70
     1
102
RTVSPropertyOp18
 70
     1
102
RTVSPropertyOp19
 70
     1
102
RTVSPropertyOp20
 70
     1
102
RTVSPropertyOp21
 70
     1
102
RTVSPropertyOp22
 70
     1
102
RTVSPropertyOp23
 70
     1
102
RTVSPropertyOp24
 70
     1
102
RTVSPropertyOp25
 70
     1
102
RTVSPropertyOp26
 70
     1
102
RTVSPropertyOp27
 70
     1
102
RTVSPropertyOp28
 70
     1
102
RTVSPropertyOp29
 70
     1
102
RTVSPropertyOp30
 70
     1
102
RTVSPropertyOp31
 70
     1
102
RTVSPropertyOp32
 70
     1
  0
XRECORD
  5
763
102
{ACAD_REACTORS
330
762
102
}
330
762
100
AcDbXrecord
280
     1
102
RTVSPropertyOp0
 70
     1
102
RTVSPropertyOp1
 70
     1
102
RTVSPropertyOp2
 70
     1
102
RTVSPropertyOp3
 70
     1
102
RTVSPropertyOp4
 70
     1
102
RTVSPropertyOp5
 70
     1
102
RTVSPropertyOp6
 70
     1
102
RTVSPropertyOp7
 70
     1
102
RTVSPropertyOp8
 70
     1
102
RTVSPropertyOp9
 70
     1
102
RTVSPropertyOp10
 70
     1
102
RTVSPropertyOp11
 70
     1
102
RTVSPropertyOp12
 70
     1
102
RTVSPropertyOp13
 70
     1
102
RTVSPropertyOp14
 70
     1
102
RTVSPropertyOp15
 70
     1
102
RTVSPropertyOp16
 70
     1
102
RTVSPropertyOp17
 70
     1
102
RTVSPropertyOp18
 70
     1
102
RTVSPropertyOp19
 70
     1
102
RTVSPropertyOp20
 70
     1
102
RTVSPropertyOp21
 70
     1
102
RTVSPropertyOp22
 70
     1
102
RTVSPropertyOp23
 70
     1
102
RTVSPropertyOp24
 70
     1
102
RTVSPropertyOp25
 70
     1
102
RTVSPropertyOp26
 70
     1
102
RTVSPropertyOp27
 70
     1
102
RTVSPropertyOp28
 70
     1
102
RTVSPropertyOp29
 70
     1
102
RTVSPropertyOp30
 70
     1
102
RTVSPropertyOp31
 70
     1
102
RTVSPropertyOp32
 70
     1
  0
XRECORD
  5
759
102
{ACAD_REACTORS
330
758
102
}
330
758
100
AcDbXrecord
280
     1
102
RTVSPropertyOp0
 70
     1
102
RTVSPropertyOp1
 70
     1
102
RTVSPropertyOp2
 70
     1
102
RTVSPropertyOp3
 70
     1
102
RTVSPropertyOp4
 70
     1
102
RTVSPropertyOp5
 70
     1
102
RTVSPropertyOp6
 70
     1
102
RTVSPropertyOp7
 70
     1
102
RTVSPropertyOp8
 70
     1
102
RTVSPropertyOp9
 70
     1
102
RTVSPropertyOp10
 70
     1
102
RTVSPropertyOp11
 70
     1
102
RTVSPropertyOp12
 70
     1
102
RTVSPropertyOp13
 70
     1
102
RTVSPropertyOp14
 70
     1
102
RTVSPropertyOp15
 70
     1
102
RTVSPropertyOp16
 70
     1
102
RTVSPropertyOp17
 70
     1
102
RTVSPropertyOp18
 70
     1
102
RTVSPropertyOp19
 70
     1
102
RTVSPropertyOp20
 70
     1
102
RTVSPropertyOp21
 70
     1
102
RTVSPropertyOp22
 70
     1
102
RTVSPropertyOp23
 70
     1
102
RTVSPropertyOp24
 70
     1
102
RTVSPropertyOp25
 70
     1
102
RTVSPropertyOp26
 70
     1
102
RTVSPropertyOp27
 70
     1
102
RTVSPropertyOp28
 70
     1
102
RTVSPropertyOp29
 70
     1
102
RTVSPropertyOp30
 70
     1
102
RTVSPropertyOp31
 70
     1
102
RTVSPropertyOp32
 70
     1
  0
XRECORD
  5
761
102
{ACAD_REACTORS
330
760
102
}
330
760
100
AcDbXrecord
280
     1
102
RTVSPropertyOp0
 70
     1
102
RTVSPropertyOp1
 70
     1
102
RTVSPropertyOp2
 70
     1
102
RTVSPropertyOp3
 70
     1
102
RTVSPropertyOp4
 70
     1
102
RTVSPropertyOp5
 70
     1
102
RTVSPropertyOp6
 70
     1
102
RTVSPropertyOp7
 70
     1
102
RTVSPropertyOp8
 70
     1
102
RTVSPropertyOp9
 70
     1
102
RTVSPropertyOp10
 70
     1
102
RTVSPropertyOp11
 70
     1
102
RTVSPropertyOp12
 70
     1
102
RTVSPropertyOp13
 70
     1
102
RTVSPropertyOp14
 70
     1
102
RTVSPropertyOp15
 70
     1
102
RTVSPropertyOp16
 70
     1
102
RTVSPropertyOp17
 70
     1
102
RTVSPropertyOp18
 70
     1
102
RTVSPropertyOp19
 70
     1
102
RTVSPropertyOp20
 70
     1
102
RTVSPropertyOp21
 70
     1
102
RTVSPropertyOp22
 70
     1
102
RTVSPropertyOp23
 70
     1
102
RTVSPropertyOp24
 70
     1
102
RTVSPropertyOp25
 70
     1
102
RTVSPropertyOp26
 70
     1
102
RTVSPropertyOp27
 70
     1
102
RTVSPropertyOp28
 70
     1
102
RTVSPropertyOp29
 70
     1
102
RTVSPropertyOp30
 70
     1
102
RTVSPropertyOp31
 70
     1
102
RTVSPropertyOp32
 70
     1
  0
ENDSEC
  0
EOF
