  0
SECTION
  2
HEADER
  9
$ACADVER
  1
AC1015
  9
$ACADMAINTVER
 70
     6
  9
$DWGCODEPAGE
  3
ANSI_1252
  9
$INSBASE
 10
0.0
 20
0.0
 30
0.0
  9
$EXTMIN
 10
1.000000000000000E+20
 20
1.000000000000000E+20
 30
1.000000000000000E+20
  9
$EXTMAX
 10
-1.000000000000000E+20
 20
-1.000000000000000E+20
 30
-1.000000000000000E+20
  9
$LIMMIN
 10
-170.0
 20
-170.0
  9
$LIMMAX
 10
519.0
 20
260.0
  9
$ORTHOMODE
 70
     0
  9
$REGENMODE
 70
     1
  9
$FILLMODE
 70
     1
  9
$QTEXTMODE
 70
     0
  9
$MIRRTEXT
 70
     0
  9
$LTSCALE
 40
1.0
  9
$ATTMODE
 70
     1
  9
$TEXTSIZE
 40
3.5
  9
$TRACEWID
 40
1.0
  9
$TEXTSTYLE
  7
SIMPLEX
  9
$CLAYER
  8
1
  9
$CELTYPE
  6
BYLAYER
  9
$CECOLOR
 62
   256
  9
$CELTSCALE
 40
1.0
  9
$DISPSILH
 70
     0
  9
$DIMSCALE
 40
1.0
  9
$DIMASZ
 40
2.5
  9
$DIMEXO
 40
0.0
  9
$DIMDLI
 40
3.75
  9
$DIMRND
 40
0.0
  9
$DIMDLE
 40
0.0
  9
$DIMEXE
 40
1.25
  9
$DIMTP
 40
0.0
  9
$DIMTM
 40
0.0
  9
$DIMTXT
 40
3.5
  9
$DIMCEN
 40
0.0
  9
$DIMTSZ
 40
0.0
  9
$DIMTOL
 70
     0
  9
$DIMLIM
 70
     0
  9
$DIMTIH
 70
     0
  9
$DIMTOH
 70
     0
  9
$DIMSE1
 70
     0
  9
$DIMSE2
 70
     0
  9
$DIMTAD
 70
     1
  9
$DIMZIN
 70
     8
  9
$DIMBLK
  1

  9
$DIMASO
 70
     1
  9
$DIMSHO
 70
     1
  9
$DIMPOST
  1

  9
$DIMAPOST
  1

  9
$DIMALT
 70
     0
  9
$DIMALTD
 70
     3
  9
$DIMALTF
 40
0.039370078
  9
$DIMLFAC
 40
1.0
  9
$DIMTOFL
 70
     0
  9
$DIMTVP
 40
0.0
  9
$DIMTIX
 70
     0
  9
$DIMSOXD
 70
     0
  9
$DIMSAH
 70
     0
  9
$DIMBLK1
  1

  9
$DIMBLK2
  1

  9
$DIMSTYLE
  2
STANDARD
  9
$DIMCLRD
 70
     0
  9
$DIMCLRE
 70
     0
  9
$DIMCLRT
 70
     0
  9
$DIMTFAC
 40
1.0
  9
$DIMGAP
 40
0.625
  9
$DIMJUST
 70
     0
  9
$DIMSD1
 70
     0
  9
$DIMSD2
 70
     0
  9
$DIMTOLJ
 70
     0
  9
$DIMTZIN
 70
     8
  9
$DIMALTZ
 70
     0
  9
$DIMALTTZ
 70
     0
  9
$DIMUPT
 70
     0
  9
$DIMDEC
 70
     2
  9
$DIMTDEC
 70
     2
  9
$DIMALTU
 70
     2
  9
$DIMALTTD
 70
     3
  9
$DIMTXSTY
  7
SIMPLEX
  9
$DIMAUNIT
 70
     0
  9
$DIMADEC
 70
     2
  9
$DIMALTRND
 40
0.0
  9
$DIMAZIN
 70
     2
  9
$DIMDSEP
 70
    46
  9
$DIMATFIT
 70
     3
  9
$DIMFRAC
 70
     0
  9
$DIMLDRBLK
  1

  9
$DIMLUNIT
 70
     2
  9
$DIMLWD
 70
    -2
  9
$DIMLWE
 70
    -2
  9
$DIMTMOVE
 70
     0
  9
$LUNITS
 70
     2
  9
$LUPREC
 70
     4
  9
$SKETCHINC
 40
1.0
  9
$FILLETRAD
 40
0.0
  9
$AUNITS
 70
     0
  9
$AUPREC
 70
     0
  9
$MENU
  1
c:\tdm21\cad\caduti13\tdm13
  9
$ELEVATION
 40
0.0
  9
$PELEVATION
 40
0.0
  9
$THICKNESS
 40
0.0
  9
$LIMCHECK
 70
     0
  9
$CHAMFERA
 40
0.0
  9
$CHAMFERB
 40
0.0
  9
$CHAMFERC
 40
0.0
  9
$CHAMFERD
 40
0.0
  9
$SKPOLY
 70
     0
  9
$TDCREATE
 40
2454957.593642639
  9
$TDUCREATE
 40
2454957.510309306
  9
$TDUPDATE
 40
2456861.385578449
  9
$TDUUPDATE
 40
2456861.302245116
  9
$TDINDWG
 40
0.0009643519
  9
$TDUSRTIMER
 40
0.0009475231
  9
$USRTIMER
 70
     1
  9
$ANGBASE
 50
0.0
  9
$ANGDIR
 70
     0
  9
$PDMODE
 70
     1
  9
$PDSIZE
 40
0.0
  9
$PLINEWID
 40
0.0
  9
$SPLFRAME
 70
     0
  9
$SPLINETYPE
 70
     6
  9
$SPLINESEGS
 70
     8
  9
$HANDSEED
  5
6B4
  9
$SURFTAB1
 70
     6
  9
$SURFTAB2
 70
     6
  9
$SURFTYPE
 70
     6
  9
$SURFU
 70
     6
  9
$SURFV
 70
     6
  9
$UCSBASE
  2

  9
$UCSNAME
  2

  9
$UCSORG
 10
0.0
 20
0.0
 30
0.0
  9
$UCSXDIR
 10
1.0
 20
0.0
 30
0.0
  9
$UCSYDIR
 10
0.0
 20
1.0
 30
0.0
  9
$UCSORTHOREF
  2

  9
$UCSORTHOVIEW
 70
     0
  9
$UCSORGTOP
 10
0.0
 20
0.0
 30
0.0
  9
$UCSORGBOTTOM
 10
0.0
 20
0.0
 30
0.0
  9
$UCSORGLEFT
 10
0.0
 20
0.0
 30
0.0
  9
$UCSORGRIGHT
 10
0.0
 20
0.0
 30
0.0
  9
$UCSORGFRONT
 10
0.0
 20
0.0
 30
0.0
  9
$UCSORGBACK
 10
0.0
 20
0.0
 30
0.0
  9
$PUCSBASE
  2

  9
$PUCSNAME
  2

  9
$PUCSORG
 10
0.0
 20
0.0
 30
0.0
  9
$PUCSXDIR
 10
1.0
 20
0.0
 30
0.0
  9
$PUCSYDIR
 10
0.0
 20
1.0
 30
0.0
  9
$PUCSORTHOREF
  2

  9
$PUCSORTHOVIEW
 70
     0
  9
$PUCSORGTOP
 10
0.0
 20
0.0
 30
0.0
  9
$PUCSORGBOTTOM
 10
0.0
 20
0.0
 30
0.0
  9
$PUCSORGLEFT
 10
0.0
 20
0.0
 30
0.0
  9
$PUCSORGRIGHT
 10
0.0
 20
0.0
 30
0.0
  9
$PUCSORGFRONT
 10
0.0
 20
0.0
 30
0.0
  9
$PUCSORGBACK
 10
0.0
 20
0.0
 30
0.0
  9
$USERI1
 70
     0
  9
$USERI2
 70
     0
  9
$USERI3
 70
     0
  9
$USERI4
 70
     0
  9
$USERI5
 70
     0
  9
$USERR1
 40
0.0
  9
$USERR2
 40
0.0
  9
$USERR3
 40
0.0
  9
$USERR4
 40
0.0
  9
$USERR5
 40
0.0
  9
$WORLDVIEW
 70
     1
  9
$SHADEDGE
 70
     3
  9
$SHADEDIF
 70
    70
  9
$TILEMODE
 70
     1
  9
$MAXACTVP
 70
    64
  9
$PINSBASE
 10
0.0
 20
0.0
 30
0.0
  9
$PLIMCHECK
 70
     0
  9
$PEXTMIN
 10
0.0
 20
0.0
 30
0.0
  9
$PEXTMAX
 10
0.0
 20
0.0
 30
0.0
  9
$PLIMMIN
 10
0.0
 20
0.0
  9
$PLIMMAX
 10
12.0
 20
9.0
  9
$UNITMODE
 70
     0
  9
$VISRETAIN
 70
     0
  9
$PLINEGEN
 70
     0
  9
$PSLTSCALE
 70
     1
  9
$TREEDEPTH
 70
  3020
  9
$CMLSTYLE
  2
STANDARD
  9
$CMLJUST
 70
     0
  9
$CMLSCALE
 40
20.0
  9
$PROXYGRAPHICS
 70
     1
  9
$MEASUREMENT
 70
     1
  9
$CELWEIGHT
370
    -1
  9
$ENDCAPS
280
     0
  9
$JOINSTYLE
280
     0
  9
$LWDISPLAY
290
     0
  9
$INSUNITS
 70
     4
  9
$HYPERLINKBASE
  1

  9
$STYLESHEET
  1
MONOCHROME.CTB
  9
$XEDIT
290
     1
  9
$CEPSNTYPE
380
     0
  9
$PSTYLEMODE
290
     1
  9
$FINGERPRINTGUID
  2
{46B44192-1510-48B1-B61B-CBE2ADA013A7}
  9
$VERSIONGUID
  2
{6160D478-9A74-4C97-9D8A-D4A65CE74B12}
  9
$EXTNAMES
290
     1
  9
$PSVPSCALE
 40
0.0
  9
$OLESTARTUP
290
     0
  0
ENDSEC
  0
SECTION
  2
CLASSES
  0
CLASS
  1
ACDBDICTIONARYWDFLT
  2
AcDbDictionaryWithDefault
  3
ObjectDBX Classes
 90
        0
280
     0
281
     0
  0
CLASS
  1
ACDBPLACEHOLDER
  2
AcDbPlaceHolder
  3
ObjectDBX Classes
 90
        0
280
     0
281
     0
  0
CLASS
  1
LAYOUT
  2
AcDbLayout
  3
ObjectDBX Classes
 90
        0
280
     0
281
     0
  0
CLASS
  1
DICTIONARYVAR
  2
AcDbDictionaryVar
  3
ObjectDBX Classes
 90
        0
280
     0
281
     0
  0
CLASS
  1
TABLESTYLE
  2
AcDbTableStyle
  3
ObjectDBX Classes
 90
     4095
280
     0
281
     0
  0
CLASS
  1
SCALE
  2
AcDbScale
  3
ObjectDBX Classes
 90
     1153
280
     0
281
     0
  0
CLASS
  1
MATERIAL
  2
AcDbMaterial
  3
ObjectDBX Classes
 90
     1153
280
     0
281
     0
  0
CLASS
  1
VISUALSTYLE
  2
AcDbVisualStyle
  3
ObjectDBX Classes
 90
     4095
280
     0
281
     0
  0
ENDSEC
  0
SECTION
  2
TABLES
  0
TABLE
  2
VPORT
  5
8
330
0
100
AcDbSymbolTable
 70
     1
  0
VPORT
  5
39A
330
8
100
AcDbSymbolTableRecord
100
AcDbViewportTableRecord
  2
*Active
 70
     0
 10
0.0
 20
0.0
 11
1.0
 21
1.0
 12
218.9201881351169
 22
109.7549380673833
 13
0.0
 23
0.0
 14
5.0
 24
5.0
 15
5.0
 25
5.0
 16
0.0
 26
0.0
 36
1.0
 17
0.0
 27
0.0
 37
0.0
 40
564.6711112651689
 41
1.066073697585768
 42
50.0
 43
0.0
 44
0.0
 50
0.0
 51
0.0
 71
     0
 72
  2000
 73
     1
 74
     1
 75
     0
 76
     0
 77
     0
 78
     0
281
     0
 65
     1
110
0.0
120
0.0
130
0.0
111
1.0
121
0.0
131
0.0
112
0.0
122
1.0
132
0.0
 79
     0
146
0.0
  0
ENDTAB
  0
TABLE
  2
LTYPE
  5
5
330
0
100
AcDbSymbolTable
 70
     3
  0
LTYPE
  5
12
330
5
100
AcDbSymbolTableRecord
100
AcDbLinetypeTableRecord
  2
BYBLOCK
 70
     0
  3

 72
    65
 73
     0
 40
0.0
  0
LTYPE
  5
13
330
5
100
AcDbSymbolTableRecord
100
AcDbLinetypeTableRecord
  2
BYLAYER
 70
     0
  3

 72
    65
 73
     0
 40
0.0
  0
LTYPE
  5
14
330
5
100
AcDbSymbolTableRecord
100
AcDbLinetypeTableRecord
  2
CONTINUOUS
 70
     0
  3
Solid line
 72
    65
 73
     0
 40
0.0
  0
LTYPE
  5
20
330
5
100
AcDbSymbolTableRecord
100
AcDbLinetypeTableRecord
  2
HIDDEN
 70
     0
  3
Hidden __ __ __ __ __ __ __ __ __ __ __ __ __ _
 72
    65
 73
     2
 40
9.524999999999997
 49
6.349999999999998
 74
     0
 49
-3.174999999999998
 74
     0
  0
LTYPE
  5
351
330
5
100
AcDbSymbolTableRecord
100
AcDbLinetypeTableRecord
  2
CENTER
 70
     0
  3
Dash dot __ . __ . __ . __ . __ . __ . __ . __
 72
    65
 73
     4
 40
25.4
 49
12.7
 74
     0
 49
-6.349999999999998
 74
     0
 49
0.0
 74
     0
 49
-6.349999999999998
 74
     0
  0
ENDTAB
  0
TABLE
  2
LAYER
  5
2
330
0
100
AcDbSymbolTable
 70
    16
  0
LAYER
  5
F
330
2
100
AcDbSymbolTableRecord
100
AcDbLayerTableRecord
  2
0
 70
     0
 62
     7
  6
CONTINUOUS
370
    -3
390
300
  0
LAYER
  5
23
330
2
100
AcDbSymbolTableRecord
100
AcDbLayerTableRecord
  2
1
 70
     0
 62
     4
  6
CONTINUOUS
370
    -3
390
300
  0
LAYER
  5
24
330
2
100
AcDbSymbolTableRecord
100
AcDbLayerTableRecord
  2
SK1
 70
     0
 62
     4
  6
CONTINUOUS
370
    -3
390
300
  0
LAYER
  5
25
330
2
100
AcDbSymbolTableRecord
100
AcDbLayerTableRecord
  2
2
 70
     0
 62
     7
  6
CONTINUOUS
370
    -3
390
300
  0
LAYER
  5
26
330
2
100
AcDbSymbolTableRecord
100
AcDbLayerTableRecord
  2
2L
 70
     0
 62
     7
  6
CONTINUOUS
370
    -3
390
300
  0
LAYER
  5
27
330
2
100
AcDbSymbolTableRecord
100
AcDbLayerTableRecord
  2
SK2
 70
     0
 62
     7
  6
CONTINUOUS
370
    -3
390
300
  0
LAYER
  5
28
330
2
100
AcDbSymbolTableRecord
100
AcDbLayerTableRecord
  2
3
 70
     0
 62
     1
  6
HIDDEN
370
    -3
390
300
  0
LAYER
  5
29
330
2
100
AcDbSymbolTableRecord
100
AcDbLayerTableRecord
  2
SK3
 70
     0
 62
     1
  6
HIDDEN
370
    -3
390
300
  0
LAYER
  5
2A
330
2
100
AcDbSymbolTableRecord
100
AcDbLayerTableRecord
  2
4
 70
     0
 62
     2
  6
CENTER
370
    -3
390
300
  0
LAYER
  5
2B
330
2
100
AcDbSymbolTableRecord
100
AcDbLayerTableRecord
  2
SK4
 70
     0
 62
     2
  6
CENTER
370
    -3
390
300
  0
LAYER
  5
2C
330
2
100
AcDbSymbolTableRecord
100
AcDbLayerTableRecord
  2
5
 70
     0
 62
    -7
  6
CONTINUOUS
370
    -3
390
300
  0
LAYER
  5
2D
330
2
100
AcDbSymbolTableRecord
100
AcDbLayerTableRecord
  2
6
 70
     0
 62
     5
  6
CONTINUOUS
370
    -3
390
300
  0
LAYER
  5
2E
330
2
100
AcDbSymbolTableRecord
100
AcDbLayerTableRecord
  2
SK6
 70
     0
 62
     5
  6
CONTINUOUS
370
    -3
390
300
  0
LAYER
  5
2F
330
2
100
AcDbSymbolTableRecord
100
AcDbLayerTableRecord
  2
DEFPOINTS
 70
     0
 62
     7
  6
CONTINUOUS
290
     0
370
    -3
390
300
  0
LAYER
  5
375
330
2
100
AcDbSymbolTableRecord
100
AcDbLayerTableRecord
  2
CUT
 70
     0
 62
     1
  6
CONTINUOUS
370
    -3
390
300
  0
LAYER
  5
376
330
2
100
AcDbSymbolTableRecord
100
AcDbLayerTableRecord
  2
NOCUT
 70
     0
 62
     7
  6
CONTINUOUS
370
    -3
390
300
  0
ENDTAB
  0
TABLE
  2
STYLE
  5
3
330
0
100
AcDbSymbolTable
 70
     4
  0
STYLE
  5
10
330
3
100
AcDbSymbolTableRecord
100
AcDbTextStyleTableRecord
  2
STANDARD
 70
     0
 40
0.0
 41
1.0
 50
0.0
 71
     0
 42
5.0
  3
txt
  4

  0
STYLE
  5
1D
330
3
100
AcDbSymbolTableRecord
100
AcDbTextStyleTableRecord
  2
TXT
 70
     0
 40
8.0
 41
1.0
 50
0.0
 71
     0
 42
8.0
  3
txt
  4

  0
STYLE
  5
1E
330
3
100
AcDbSymbolTableRecord
100
AcDbTextStyleTableRecord
  2
SIMPLEX
 70
     0
 40
0.0
 41
1.0
 50
0.0
 71
     0
 42
3.5
  3
simplex
  4

  0
STYLE
  5
34C
330
3
100
AcDbSymbolTableRecord
100
AcDbTextStyleTableRecord
  2

 70
     1
 40
0.0
 41
1.0
 50
0.0
 71
     0
 42
2.5
  3
ltypeshp.shx
  4

  0
ENDTAB
  0
TABLE
  2
VIEW
  5
6
330
0
100
AcDbSymbolTable
 70
     0
  0
ENDTAB
  0
TABLE
  2
UCS
  5
7
330
0
100
AcDbSymbolTable
 70
     0
  0
ENDTAB
  0
TABLE
  2
APPID
  5
9
330
0
100
AcDbSymbolTable
 70
     1
  0
APPID
  5
11
330
9
100
AcDbSymbolTableRecord
100
AcDbRegAppTableRecord
  2
ACAD
 70
     0
  0
ENDTAB
  0
TABLE
  2
DIMSTYLE
  5
A
330
0
100
AcDbSymbolTable
 70
     1
100
AcDbDimStyleTable
  0
DIMSTYLE
105
3F
102
{ACAD_REACTORS
330
647
330
655
330
662
330
66F
330
67C
102
}
330
A
100
AcDbSymbolTableRecord
100
AcDbDimStyleTableRecord
  2
STANDARD
 70
     0
 41
2.5
 42
0.0
 43
3.75
 44
1.25
 73
     0
 74
     0
 77
     1
 78
     8
 79
     2
140
3.5
141
0.0
143
0.039370078
147
0.625
171
     3
178
     0
179
     2
271
     2
272
     2
274
     3
283
     0
284
     8
340
1E
  0
ENDTAB
  0
TABLE
  2
BLOCK_RECORD
  5
1
330
0
100
AcDbSymbolTable
 70
     5
  0
BLOCK_RECORD
  5
18
330
1
100
AcDbSymbolTableRecord
100
AcDbBlockTableRecord
  2
*MODEL_SPACE
340
303
  0
BLOCK_RECORD
  5
338
330
1
100
AcDbSymbolTableRecord
100
AcDbBlockTableRecord
  2
*Paper_Space
340
33B
  0
BLOCK_RECORD
  5
648
330
1
100
AcDbSymbolTableRecord
100
AcDbBlockTableRecord
  2
*D0
340
0
  0
BLOCK_RECORD
  5
656
330
1
100
AcDbSymbolTableRecord
100
AcDbBlockTableRecord
  2
*D1
340
0
  0
BLOCK_RECORD
  5
663
330
1
100
AcDbSymbolTableRecord
100
AcDbBlockTableRecord
  2
*D2
340
0
  0
BLOCK_RECORD
  5
670
330
1
100
AcDbSymbolTableRecord
100
AcDbBlockTableRecord
  2
*D3
340
0
  0
BLOCK_RECORD
  5
67D
330
1
100
AcDbSymbolTableRecord
100
AcDbBlockTableRecord
  2
*D4
340
0
  0
ENDTAB
  0
ENDSEC
  0
SECTION
  2
BLOCKS
  0
BLOCK
  5
32
330
18
100
AcDbEntity
  8
0
100
AcDbBlockBegin
  2
*MODEL_SPACE
 70
     0
 10
0.0
 20
0.0
 30
0.0
  3
*MODEL_SPACE
  1

  0
ENDBLK
  5
33
330
18
100
AcDbEntity
  8
0
100
AcDbBlockEnd
  0
BLOCK
  5
339
330
338
100
AcDbEntity
 67
     1
  8
0
100
AcDbBlockBegin
  2
*Paper_Space
 70
     0
 10
0.0
 20
0.0
 30
0.0
  3
*Paper_Space
  1

  0
ENDBLK
  5
33A
330
338
100
AcDbEntity
 67
     1
  8
0
100
AcDbBlockEnd
  0
BLOCK
  5
649
330
648
100
AcDbEntity
  8
0
100
AcDbBlockBegin
  2
*D0
 70
     1
 10
0.0
 20
0.0
 30
0.0
  3
*D0
  1

  0
LINE
  5
64B
330
648
100
AcDbEntity
  8
2
 62
     0
370
    -2
100
AcDbLine
 10
71.0
 20
6.5785
 30
0.0
 11
87.25000000000001
 21
6.578500000000056
 31
0.0
  0
LINE
  5
64C
330
648
100
AcDbEntity
  8
2
 62
     0
370
    -2
100
AcDbLine
 10
71.0
 20
-6.5785
 30
0.0
 11
87.25000000000006
 21
-6.578499999999943
 31
0.0
  0
LINE
  5
64D
330
648
100
AcDbEntity
  8
2
 62
     0
370
    -2
100
AcDbLine
 10
86.00000000000006
 20
-6.578499999999948
 30
0.0
 11
86.00000000000014
 21
-32.54999999999994
 31
0.0
  0
LINE
  5
64E
330
648
100
AcDbEntity
  8
2
 62
     0
370
    -2
100
AcDbLine
 10
86.00000000000003
 20
4.078500000000052
 30
0.0
 11
86.00000000000004
 21
-4.078499999999948
 31
0.0
  0
SOLID
  5
64F
330
648
100
AcDbEntity
  8
2
 62
     0
100
AcDbTrace
 10
86.4166666666667
 20
4.078500000000053
 30
0.0
 11
85.58333333333336
 21
4.07850000000005
 31
0.0
 12
86.00000000000001
 22
6.578500000000052
 32
0.0
 13
86.00000000000001
 23
6.578500000000052
 33
0.0
  0
SOLID
  5
650
330
648
100
AcDbEntity
  8
2
 62
     0
100
AcDbTrace
 10
85.58333333333337
 20
-4.078499999999949
 30
0.0
 11
86.41666666666671
 21
-4.078499999999946
 31
0.0
 12
86.00000000000006
 22
-6.578499999999948
 32
0.0
 13
86.00000000000006
 23
-6.578499999999948
 33
0.0
  0
MTEXT
  5
651
330
648
100
AcDbEntity
  8
2
 62
     0
100
AcDbMText
 10
82.8007500000001
 20
-20.81424999999996
 30
0.0
 40
3.5
 41
0.0
 71
     5
 72
     1
  1
G1/4-19
  7
SIMPLEX
 11
-3.240295215140687E-15
 21
1.0
 31
0.0
 73
     1
 44
1.0
  0
POINT
  5
652
330
648
100
AcDbEntity
  8
DEFPOINTS
 62
     0
100
AcDbPoint
 10
71.0
 20
6.5785
 30
0.0
  0
POINT
  5
653
330
648
100
AcDbEntity
  8
DEFPOINTS
 62
     0
100
AcDbPoint
 10
71.0
 20
-6.5785
 30
0.0
  0
POINT
  5
654
330
648
100
AcDbEntity
  8
DEFPOINTS
 62
     0
100
AcDbPoint
 10
86.00000000000006
 20
-6.578499999999948
 30
0.0
  0
ENDBLK
  5
64A
330
648
100
AcDbEntity
  8
0
100
AcDbBlockEnd
  0
BLOCK
  5
657
330
656
100
AcDbEntity
  8
0
100
AcDbBlockBegin
  2
*D1
 70
     1
 10
0.0
 20
0.0
 30
0.0
  3
*D1
  1

  0
LINE
  5
659
330
656
100
AcDbEntity
  8
2
 62
     0
370
    -2
100
AcDbLine
 10
0.0
 20
0.0
 30
0.0
 11
0.0
 21
76.25
 31
0.0
  0
LINE
  5
65A
330
656
100
AcDbEntity
  8
2
 62
     0
370
    -2
100
AcDbLine
 10
71.0
 20
0.0
 30
0.0
 11
71.0
 21
76.25
 31
0.0
  0
LINE
  5
65B
330
656
100
AcDbEntity
  8
2
 62
     0
370
    -2
100
AcDbLine
 10
2.5
 20
75.0
 30
0.0
 11
68.5
 21
75.0
 31
0.0
  0
SOLID
  5
65C
330
656
100
AcDbEntity
  8
2
 62
     0
100
AcDbTrace
 10
2.5
 20
75.41666666666667
 30
0.0
 11
2.5
 21
74.58333333333333
 31
0.0
 12
0.0
 22
75.0
 32
0.0
 13
0.0
 23
75.0
 33
0.0
  0
SOLID
  5
65D
330
656
100
AcDbEntity
  8
2
 62
     0
100
AcDbTrace
 10
68.5
 20
74.58333333333333
 30
0.0
 11
68.5
 21
75.41666666666667
 31
0.0
 12
71.0
 22
75.0
 32
0.0
 13
71.0
 23
75.0
 33
0.0
  0
MTEXT
  5
65E
330
656
100
AcDbEntity
  8
2
 62
     0
100
AcDbMText
 10
35.5
 20
77.38025
 30
0.0
 40
3.5
 41
0.0
 71
     5
 72
     1
  1
71
  7
SIMPLEX
 73
     1
 44
1.0
  0
POINT
  5
65F
330
656
100
AcDbEntity
  8
DEFPOINTS
 62
     0
100
AcDbPoint
 10
0.0
 20
0.0
 30
0.0
  0
POINT
  5
660
330
656
100
AcDbEntity
  8
DEFPOINTS
 62
     0
100
AcDbPoint
 10
71.0
 20
0.0
 30
0.0
  0
POINT
  5
661
330
656
100
AcDbEntity
  8
DEFPOINTS
 62
     0
100
AcDbPoint
 10
71.0
 20
75.0
 30
0.0
  0
ENDBLK
  5
658
330
656
100
AcDbEntity
  8
0
100
AcDbBlockEnd
  0
BLOCK
  5
664
330
663
100
AcDbEntity
  8
0
100
AcDbBlockBegin
  2
*D2
 70
     1
 10
0.0
 20
0.0
 30
0.0
  3
*D2
  1

  0
LINE
  5
666
330
663
100
AcDbEntity
  8
SK2
 62
     0
370
    -2
100
AcDbLine
 10
-17.0
 20
5.5
 30
0.0
 11
-45.25000000002807
 21
5.499999999855829
 31
0.0
  0
LINE
  5
667
330
663
100
AcDbEntity
  8
SK2
 62
     0
370
    -2
100
AcDbLine
 10
-17.0
 20
-5.5
 30
0.0
 11
-45.24999999997193
 21
-5.500000000144171
 31
0.0
  0
LINE
  5
668
330
663
100
AcDbEntity
  8
SK2
 62
     0
370
    -2
100
AcDbLine
 10
-44.00000000001531
 20
2.999999999862208
 30
0.0
 11
-43.99999999998469
 21
-3.000000000137792
 31
0.0
  0
SOLID
  5
669
330
663
100
AcDbEntity
  8
SK2
 62
     0
100
AcDbTrace
 10
-43.58333333334865
 20
2.999999999864334
 30
0.0
 11
-44.41666666668198
 21
2.999999999860082
 31
0.0
 12
-44.00000000002807
 22
5.499999999862208
 32
0.0
 13
-44.00000000002807
 23
5.499999999862208
 33
0.0
  0
SOLID
  5
66A
330
663
100
AcDbEntity
  8
SK2
 62
     0
100
AcDbTrace
 10
-44.41666666665136
 20
-3.000000000139918
 30
0.0
 11
-43.58333333331803
 21
-3.000000000135666
 31
0.0
 12
-43.99999999997193
 22
-5.500000000137792
 32
0.0
 13
-43.99999999997193
 23
-5.500000000137792
 33
0.0
  0
MTEXT
  5
66B
330
663
100
AcDbEntity
  8
SK2
 62
     0
100
AcDbMText
 10
-46.39075
 20
-0.0000000001499935
 30
0.0
 40
3.5
 41
0.0
 71
     5
 72
     1
  1
%%c11
  7
SIMPLEX
 11
-5.103634686582319E-12
 21
1.0
 31
0.0
 73
     1
 44
1.0
  0
POINT
  5
66C
330
663
100
AcDbEntity
  8
DEFPOINTS
 62
     0
100
AcDbPoint
 10
-17.0
 20
5.5
 30
0.0
  0
POINT
  5
66D
330
663
100
AcDbEntity
  8
DEFPOINTS
 62
     0
100
AcDbPoint
 10
-17.0
 20
-5.5
 30
0.0
  0
POINT
  5
66E
330
663
100
AcDbEntity
  8
DEFPOINTS
 62
     0
100
AcDbPoint
 10
-43.99999999997193
 20
-5.500000000137792
 30
0.0
  0
ENDBLK
  5
665
330
663
100
AcDbEntity
  8
0
100
AcDbBlockEnd
  0
BLOCK
  5
671
330
670
100
AcDbEntity
  8
0
100
AcDbBlockBegin
  2
*D3
 70
     1
 10
0.0
 20
0.0
 30
0.0
  3
*D3
  1

  0
LINE
  5
673
330
670
100
AcDbEntity
  8
2
 62
     0
370
    -2
100
AcDbLine
 10
49.29072519
 20
5.35
 30
0.0
 11
49.29072519
 21
61.25
 31
0.0
  0
LINE
  5
674
330
670
100
AcDbEntity
  8
2
 62
     0
370
    -2
100
AcDbLine
 10
71.0
 20
6.5785
 30
0.0
 11
71.0
 21
61.25
 31
0.0
  0
LINE
  5
675
330
670
100
AcDbEntity
  8
2
 62
     0
370
    -2
100
AcDbLine
 10
51.79072519
 20
60.0
 30
0.0
 11
68.5
 21
60.0
 31
0.0
  0
SOLID
  5
676
330
670
100
AcDbEntity
  8
2
 62
     0
100
AcDbTrace
 10
51.79072519
 20
60.41666666666666
 30
0.0
 11
51.79072519
 21
59.58333333333334
 31
0.0
 12
49.29072519
 22
60.0
 32
0.0
 13
49.29072519
 23
60.0
 33
0.0
  0
SOLID
  5
677
330
670
100
AcDbEntity
  8
2
 62
     0
100
AcDbTrace
 10
68.5
 20
59.58333333333334
 30
0.0
 11
68.5
 21
60.41666666666666
 31
0.0
 12
71.0
 22
60.0
 32
0.0
 13
71.0
 23
60.0
 33
0.0
  0
MTEXT
  5
678
330
670
100
AcDbEntity
  8
2
 62
     0
100
AcDbMText
 10
60.145362595
 20
62.39775
 30
0.0
 40
3.5
 41
0.0
 71
     5
 72
     1
  1
21.71
  7
SIMPLEX
 73
     1
 44
1.0
  0
POINT
  5
679
330
670
100
AcDbEntity
  8
DEFPOINTS
 62
     0
100
AcDbPoint
 10
49.29072519
 20
5.35
 30
0.0
  0
POINT
  5
67A
330
670
100
AcDbEntity
  8
DEFPOINTS
 62
     0
100
AcDbPoint
 10
71.0
 20
6.5785
 30
0.0
  0
POINT
  5
67B
330
670
100
AcDbEntity
  8
DEFPOINTS
 62
     0
100
AcDbPoint
 10
71.0
 20
60.0
 30
0.0
  0
ENDBLK
  5
672
330
670
100
AcDbEntity
  8
0
100
AcDbBlockEnd
  0
BLOCK
  5
67E
330
67D
100
AcDbEntity
  8
0
100
AcDbBlockBegin
  2
*D4
 70
     1
 10
0.0
 20
0.0
 30
0.0
  3
*D4
  1

  0
LINE
  5
680
330
67D
100
AcDbEntity
  8
SK2
 62
     0
370
    -2
100
AcDbLine
 10
-29.0
 20
6.5785
 30
0.0
 11
-29.0
 21
91.25
 31
0.0
  0
LINE
  5
681
330
67D
100
AcDbEntity
  8
SK2
 62
     0
370
    -2
100
AcDbLine
 10
71.0
 20
6.5785
 30
0.0
 11
71.0
 21
91.25
 31
0.0
  0
LINE
  5
682
330
67D
100
AcDbEntity
  8
SK2
 62
     0
370
    -2
100
AcDbLine
 10
-26.5
 20
90.0
 30
0.0
 11
68.5
 21
90.0
 31
0.0
  0
SOLID
  5
683
330
67D
100
AcDbEntity
  8
SK2
 62
     0
100
AcDbTrace
 10
-26.5
 20
90.41666666666667
 30
0.0
 11
-26.5
 21
89.58333333333333
 31
0.0
 12
-29.0
 22
90.0
 32
0.0
 13
-29.0
 23
90.0
 33
0.0
  0
SOLID
  5
684
330
67D
100
AcDbEntity
  8
SK2
 62
     0
100
AcDbTrace
 10
68.5
 20
89.58333333333333
 30
0.0
 11
68.5
 21
90.41666666666667
 31
0.0
 12
71.0
 22
90.0
 32
0.0
 13
71.0
 23
90.0
 33
0.0
  0
MTEXT
  5
685
330
67D
100
AcDbEntity
  8
SK2
 62
     0
100
AcDbMText
 10
21.0
 20
92.39075
 30
0.0
 40
3.5
 41
0.0
 71
     5
 72
     1
  1
100
  7
SIMPLEX
 73
     1
 44
1.0
  0
POINT
  5
686
330
67D
100
AcDbEntity
  8
DEFPOINTS
 62
     0
100
AcDbPoint
 10
-29.0
 20
6.5785
 30
0.0
  0
POINT
  5
687
330
67D
100
AcDbEntity
  8
DEFPOINTS
 62
     0
100
AcDbPoint
 10
71.0
 20
6.5785
 30
0.0
  0
POINT
  5
688
330
67D
100
AcDbEntity
  8
DEFPOINTS
 62
     0
100
AcDbPoint
 10
71.0
 20
90.0
 30
0.0
  0
ENDBLK
  5
67F
330
67D
100
AcDbEntity
  8
0
100
AcDbBlockEnd
  0
ENDSEC
  0
SECTION
  2
ENTITIES
  0
LINE
  5
3D6
330
18
100
AcDbEntity
  8
SK4
100
AcDbLine
 10
-31.0
 20
0.0
 30
0.0
 11
31.0
 21
0.0
 31
0.0
  0
LINE
  5
3D7
330
18
100
AcDbEntity
  8
4
100
AcDbLine
 10
29.0
 20
0.0
 30
0.0
 11
73.0
 21
0.0
 31
0.0
  0
LINE
  5
3D8
330
18
100
AcDbEntity
  8
SK4
100
AcDbLine
 10
29.0
 20
0.0
 30
0.0
 11
73.0
 21
0.0
 31
0.0
  0
LINE
  5
3D9
330
18
100
AcDbEntity
  8
1
100
AcDbLine
 10
31.0
 20
5.5
 30
0.0
 11
31.0
 21
5.494531936881184
 31
0.0
  0
LINE
  5
3DA
330
18
100
AcDbEntity
  8
1
100
AcDbLine
 10
31.0
 20
5.494531936881184
 30
0.0
 11
31.0
 21
5.006503632662143
 31
0.0
  0
LINE
  5
3DB
330
18
100
AcDbEntity
  8
1
100
AcDbLine
 10
31.0
 20
5.006503632662143
 30
0.0
 11
31.0
 21
-5.5
 31
0.0
  0
LINE
  5
3DC
330
18
100
AcDbEntity
  8
1
100
AcDbLine
 10
31.0
 20
5.5
 30
0.0
 11
-0.0000000000000018
 21
5.5
 31
0.0
  0
LINE
  5
3DD
330
18
100
AcDbEntity
  8
1
100
AcDbLine
 10
31.0
 20
-3.717407299748395
 30
0.0
 11
49.29072519
 21
-3.717407299748395
 31
0.0
  0
LINE
  5
3DE
330
18
100
AcDbEntity
  8
1
100
AcDbLine
 10
31.0
 20
5.35
 30
0.0
 11
49.29072519
 21
5.35
 31
0.0
  0
LINE
  5
3DF
330
18
100
AcDbEntity
  8
1
100
AcDbLine
 10
31.0
 20
-0.5825305403378349
 30
0.0
 11
49.29072519
 21
-0.5825305403378349
 31
0.0
  0
LINE
  5
3E0
330
18
100
AcDbEntity
  8
1
100
AcDbLine
 10
31.0
 20
3.847516467512173
 30
0.0
 11
49.29072519
 21
3.847516467512173
 31
0.0
  0
LINE
  5
3E1
330
18
100
AcDbEntity
  8
1
100
AcDbLine
 10
31.0
 20
5.318191249811697
 30
0.0
 11
49.29072519
 21
5.318191249811698
 31
0.0
  0
LINE
  5
3E2
330
18
100
AcDbEntity
  8
1
100
AcDbLine
 10
49.29072519
 20
5.35
 30
0.0
 11
49.29072519
 21
5.349992546628171
 31
0.0
  0
LINE
  5
3E3
330
18
100
AcDbEntity
  8
1
100
AcDbLine
 10
49.29072519
 20
5.349992546628171
 30
0.0
 11
49.29072519000001
 21
5.347822388905659
 31
0.0
  0
LINE
  5
3E4
330
18
100
AcDbEntity
  8
1
100
AcDbLine
 10
49.29072519000001
 20
5.347822388905659
 30
0.0
 11
49.29072519
 21
5.318191249811698
 31
0.0
  0
LINE
  5
3E5
330
18
100
AcDbEntity
  8
1
100
AcDbLine
 10
49.29072519
 20
5.318191249811697
 30
0.0
 11
49.29072519
 21
5.016172514379942
 31
0.0
  0
LINE
  5
3E6
330
18
100
AcDbEntity
  8
1
100
AcDbLine
 10
49.29072519
 20
5.016172514379937
 30
0.0
 11
49.29072519
 21
3.847516467512658
 31
0.0
  0
LINE
  5
3E7
330
18
100
AcDbEntity
  8
1
100
AcDbLine
 10
49.29072519000001
 20
3.847516467512174
 30
0.0
 11
49.29072519
 21
-0.5825305403378356
 31
0.0
  0
LINE
  5
3E8
330
18
100
AcDbEntity
  8
1
100
AcDbLine
 10
49.29072519
 20
-1.380961974453044
 30
0.0
 11
49.29072519
 21
-3.717407299748394
 31
0.0
  0
LINE
  5
3E9
330
18
100
AcDbEntity
  8
1
100
AcDbLine
 10
49.29072519000001
 20
-3.717407299748395
 30
0.0
 11
49.29072519
 21
-5.35
 31
0.0
  0
LINE
  5
3EA
330
18
100
AcDbEntity
  8
1
100
AcDbLine
 10
-0.0000000000000067
 20
-5.5
 30
0.0
 11
31.0
 21
-5.5
 31
0.0
  0
LINE
  5
3EB
330
18
100
AcDbEntity
  8
1
100
AcDbLine
 10
31.0
 20
-5.35
 30
0.0
 11
49.29072519
 21
-5.35
 31
0.0
  0
LINE
  5
3EC
330
18
100
AcDbEntity
  8
1
100
AcDbLine
 10
49.29072519
 20
-0.582530540337928
 30
0.0
 11
49.29072519
 21
-1.380961974453043
 31
0.0
  0
LINE
  5
3ED
330
18
100
AcDbEntity
  8
1
 62
     1
100
AcDbLine
 10
50.2500798415021
 20
6.5785
 30
0.0
 11
50.30781489534004
 21
6.5785
 31
0.0
  0
LINE
  5
3EE
330
18
100
AcDbEntity
  8
1
 62
     1
100
AcDbLine
 10
52.92376405202841
 20
6.5785
 30
0.0
 11
52.98149910586636
 21
6.5785
 31
0.0
  0
LINE
  5
3EF
330
18
100
AcDbEntity
  8
1
 62
     1
100
AcDbLine
 10
54.26060615729156
 20
6.5785
 30
0.0
 11
54.31834121112951
 21
6.5785
 31
0.0
  0
LINE
  5
3F0
330
18
100
AcDbEntity
  8
1
 62
     1
100
AcDbLine
 10
55.59744826255472
 20
6.5785
 30
0.0
 11
55.65518331639266
 21
6.5785
 31
0.0
  0
LINE
  5
3F1
330
18
100
AcDbEntity
  8
1
 62
     1
100
AcDbLine
 10
56.93429036781788
 20
6.5785
 30
0.0
 11
56.99202542165582
 21
6.5785
 31
0.0
  0
LINE
  5
3F2
330
18
100
AcDbEntity
  8
1
 62
     1
100
AcDbLine
 10
58.27113247308104
 20
6.5785
 30
0.0
 11
58.32886752691897
 21
6.5785
 31
0.0
  0
LINE
  5
3F3
330
18
100
AcDbEntity
  8
1
 62
     1
100
AcDbLine
 10
62.28165878887052
 20
6.5785
 30
0.0
 11
62.33939384270844
 21
6.578499999999999
 31
0.0
  0
LINE
  5
3F4
330
18
100
AcDbEntity
  8
1
 62
     1
100
AcDbLine
 10
66.29218510465998
 20
6.5785
 30
0.0
 11
66.34992015849792
 21
6.5785
 31
0.0
  0
LINE
  5
3F5
330
18
100
AcDbEntity
  8
1
 62
     1
100
AcDbLine
 10
49.29072519
 20
5.35
 30
0.0
 11
49.48548651342465
 21
5.687336505475479
 31
0.0
  0
LINE
  5
3F6
330
18
100
AcDbEntity
  8
1
 62
     1
100
AcDbLine
 10
70.01583594442612
 20
-6.081617331753774
 30
0.0
 11
69.66315789473684
 21
-5.470761315789473
 31
0.0
  0
LINE
  5
3F7
330
18
100
AcDbEntity
  8
1
 62
     1
100
AcDbLine
 10
55.59744826255472
 20
-6.578500000000006
 30
0.0
 11
54.95789473684211
 21
-5.470761315789473
 31
0.0
  0
LINE
  5
3F8
330
18
100
AcDbEntity
  8
1
 62
     1
100
AcDbLine
 10
56.93429036781788
 20
-6.578500000000006
 30
0.0
 11
56.29473684210527
 21
-5.470761315789473
 31
0.0
  0
LINE
  5
3F9
330
18
100
AcDbEntity
  8
1
 62
     1
100
AcDbLine
 10
58.27113247308104
 20
-6.578500000000006
 30
0.0
 11
57.63157894736842
 21
-5.470761315789473
 31
0.0
  0
LINE
  5
3FA
330
18
100
AcDbEntity
  8
1
 62
     1
100
AcDbLine
 10
59.6079745783442
 20
-6.578500000000006
 30
0.0
 11
58.96842105263158
 21
-5.470761315789473
 31
0.0
  0
LINE
  5
3FB
330
18
100
AcDbEntity
  8
1
 62
     1
100
AcDbLine
 10
60.94481668360736
 20
-6.578500000000006
 30
0.0
 11
60.30526315789474
 21
-5.470761315789473
 31
0.0
  0
LINE
  5
3FC
330
18
100
AcDbEntity
  8
1
 62
     1
100
AcDbLine
 10
62.97894736842106
 20
-5.470761315789473
 30
0.0
 11
62.33939384270844
 21
-6.578500000000007
 31
0.0
  0
LINE
  5
3FD
330
18
100
AcDbEntity
  8
1
 62
     1
100
AcDbLine
 10
70.76964651764749
 20
3.871762745634371
 30
0.0
 11
70.01583594442609
 21
3.881205229588626
 31
0.0
  0
LINE
  5
3FE
330
18
100
AcDbEntity
  8
1
 62
     1
100
AcDbLine
 10
70.76964651764749
 20
-0.765055095540405
 30
0.0
 11
70.01583594442614
 21
-0.8392186431055996
 31
0.0
  0
LINE
  5
3FF
330
18
100
AcDbEntity
  8
1
 62
     1
100
AcDbLine
 10
69.17384597055029
 20
3.891523813276486
 30
0.0
 11
68.86564156569942
 21
3.895248329668505
 31
0.0
  0
LINE
  5
400
330
18
100
AcDbEntity
  8
1
 62
     1
100
AcDbLine
 10
68.86564156569942
 20
3.895248329668504
 30
0.0
 11
68.86564156569945
 21
-0.9521567767122256
 31
0.0
  0
LINE
  5
401
330
18
100
AcDbEntity
  8
1
 62
     1
100
AcDbLine
 10
69.17384597089483
 20
-0.9219185710592617
 30
0.0
 11
68.86564156569942
 21
-0.9521567767122256
 31
0.0
  0
ARC
  5
402
330
18
100
AcDbEntity
  8
1
 62
     1
100
AcDbCircle
 10
99.00188603730882
 20
9.178817525581131
 30
0.0
 40
33.34090629317704
100
AcDbArc
 50
203.0652709493623
 51
205.3275756142919
  0
LINE
  5
403
330
18
100
AcDbEntity
  8
1
 62
     1
100
AcDbLine
 10
68.32631578947368
 20
-5.470761315789473
 30
0.0
 11
68.32631578947368
 21
-5.470429037934313
 31
0.0
  0
LINE
  5
404
330
18
100
AcDbEntity
  8
1
 62
     1
100
AcDbLine
 10
68.32631578947368
 20
-5.470429037934313
 30
0.0
 11
68.32631578947368
 21
-5.368280500309318
 31
0.0
  0
LINE
  5
405
330
18
100
AcDbEntity
  8
1
 62
     1
100
AcDbLine
 10
68.32631578947368
 20
-5.368280500309318
 30
0.0
 11
68.3263157894737
 21
-3.883451303483335
 31
0.0
  0
LINE
  5
406
330
18
100
AcDbEntity
  8
1
 62
     1
100
AcDbLine
 10
68.86564156569942
 20
-6.404900526501252
 30
0.0
 11
68.32631578947368
 21
-5.470761315789473
 31
0.0
  0
LINE
  5
407
330
18
100
AcDbEntity
  8
1
 62
     1
100
AcDbLine
 10
68.86564156569942
 20
-5.084268994122061
 30
0.0
 11
68.86564156569942
 21
-6.404900526501269
 31
0.0
  0
ARC
  5
408
330
18
100
AcDbEntity
  8
1
 62
     1
100
AcDbCircle
 10
38.13286233421061
 20
9.56672950498372
 30
0.0
 40
34.27941740606904
100
AcDbArc
 50
334.8944253501724
 51
336.8978936409539
  0
LINE
  5
409
330
18
100
AcDbEntity
  8
1
 62
     1
100
AcDbLine
 10
69.17384597055029
 20
-4.977612799363887
 30
0.0
 11
69.17384597055029
 21
-6.318274034076797
 31
0.0
  0
LINE
  5
40A
330
18
100
AcDbEntity
  8
1
 62
     1
100
AcDbLine
 10
69.66315789473684
 20
-5.470761315789473
 30
0.0
 11
69.17384597055029
 21
-6.318274034076799
 31
0.0
  0
ARC
  5
40B
330
18
100
AcDbEntity
  8
1
 62
     1
100
AcDbCircle
 10
98.06054571427163
 20
8.181947410386814
 30
0.0
 40
30.85427452332743
100
AcDbArc
 50
203.0195255730907
 51
204.6408667907507
  0
LINE
  5
40C
330
18
100
AcDbEntity
  8
1
 62
     1
100
AcDbLine
 10
69.66315789473684
 20
-5.470761315789473
 30
0.0
 11
69.66315789473686
 21
-5.470429037934313
 31
0.0
  0
LINE
  5
40D
330
18
100
AcDbEntity
  8
1
 62
     1
100
AcDbLine
 10
69.66315789473686
 20
-5.470429037934313
 30
0.0
 11
69.66315789473684
 21
-5.368280500309318
 31
0.0
  0
LINE
  5
40E
330
18
100
AcDbEntity
  8
1
 62
     1
100
AcDbLine
 10
69.66315789473684
 20
-5.368280500309318
 30
0.0
 11
69.66315789473684
 21
-3.883451303483335
 31
0.0
  0
LINE
  5
40F
330
18
100
AcDbEntity
  8
1
 62
     1
100
AcDbLine
 10
70.01583594442612
 20
-4.68212722335713
 30
0.0
 11
70.01583594442612
 21
-6.081617331753778
 31
0.0
  0
ARC
  5
410
330
18
100
AcDbEntity
  8
1
 62
     1
100
AcDbCircle
 10
43.4434137115388
 20
7.819510339652219
 30
0.0
 40
29.93870406737769
100
AcDbArc
 50
335.8866785139475
 51
336.9896332286405
  0
LINE
  5
411
330
18
100
AcDbEntity
  8
1
 62
     1
100
AcDbLine
 10
70.76964651764749
 20
-4.411729861223815
 30
0.0
 11
70.76964651764749
 21
-5.869745064898135
 31
0.0
  0
LINE
  5
412
330
18
100
AcDbEntity
  8
1
 62
     1
100
AcDbLine
 10
71.0
 20
-5.470761315789473
 30
0.0
 11
70.76964651764749
 21
-5.869745064898146
 31
0.0
  0
LINE
  5
413
330
18
100
AcDbEntity
  8
1
 62
     1
100
AcDbLine
 10
67.68676226376108
 20
-1.012704326804517
 30
0.0
 11
67.62902720992318
 21
-1.012704326804517
 31
0.0
  0
LINE
  5
414
330
18
100
AcDbEntity
  8
1
 62
     1
100
AcDbLine
 10
66.34992015849792
 20
-1.012704326804517
 30
0.0
 11
66.29218510465995
 21
-1.012704326804517
 31
0.0
  0
LINE
  5
415
330
18
100
AcDbEntity
  8
1
 62
     1
100
AcDbLine
 10
65.01307805323478
 20
-1.012704326804517
 30
0.0
 11
64.95534299939685
 21
-1.012704326804517
 31
0.0
  0
LINE
  5
416
330
18
100
AcDbEntity
  8
1
 62
     1
100
AcDbLine
 10
63.67623594797163
 20
3.902637094847232
 30
0.0
 11
63.61850089413366
 21
3.902637094847232
 31
0.0
  0
LINE
  5
417
330
18
100
AcDbEntity
  8
1
 62
     1
100
AcDbLine
 10
63.67623594797162
 20
-1.012704326804517
 30
0.0
 11
63.61850089413365
 21
-1.012704326804517
 31
0.0
  0
LINE
  5
418
330
18
100
AcDbEntity
  8
1
 62
     1
100
AcDbLine
 10
62.33939384270845
 20
-1.012704326804517
 30
0.0
 11
62.28165878887049
 21
-1.012704326804517
 31
0.0
  0
LINE
  5
419
330
18
100
AcDbEntity
  8
1
 62
     1
100
AcDbLine
 10
61.0025517374453
 20
3.902637094847232
 30
0.0
 11
60.94481668360736
 21
3.902637094847233
 31
0.0
  0
LINE
  5
41A
330
18
100
AcDbEntity
  8
1
 62
     1
100
AcDbLine
 10
60.94481668360736
 20
3.902637094847232
 30
0.0
 11
60.94481668360736
 21
-1.012704326804527
 31
0.0
  0
LINE
  5
41B
330
18
100
AcDbEntity
  8
1
 62
     1
100
AcDbLine
 10
61.0025517374453
 20
-1.012704326804517
 30
0.0
 11
60.94481668360736
 21
-1.012704326804517
 31
0.0
  0
LINE
  5
41C
330
18
100
AcDbEntity
  8
1
 62
     1
100
AcDbLine
 10
59.66570963218214
 20
3.902637094847232
 30
0.0
 11
59.6079745783442
 21
3.902637094847232
 31
0.0
  0
LINE
  5
41D
330
18
100
AcDbEntity
  8
1
 62
     1
100
AcDbLine
 10
59.66570963218215
 20
-1.012704326804517
 30
0.0
 11
59.60797457834417
 21
-1.012704326804517
 31
0.0
  0
LINE
  5
41E
330
18
100
AcDbEntity
  8
1
 62
     1
100
AcDbLine
 10
56.99202542165582
 20
3.902637094847232
 30
0.0
 11
56.93429036781789
 21
3.902637094847233
 31
0.0
  0
LINE
  5
41F
330
18
100
AcDbEntity
  8
1
 62
     1
100
AcDbLine
 10
56.99202542165583
 20
-1.012704326804517
 30
0.0
 11
56.93429036781787
 21
-1.012704326804517
 31
0.0
  0
LINE
  5
420
330
18
100
AcDbEntity
  8
1
 62
     1
100
AcDbLine
 10
56.99202542165582
 20
3.902637094847231
 30
0.0
 11
56.99202542165582
 21
-1.012704326804527
 31
0.0
  0
LINE
  5
421
330
18
100
AcDbEntity
  8
1
 62
     1
100
AcDbLine
 10
55.65518331639266
 20
3.902637094847232
 30
0.0
 11
55.59744826255473
 21
3.902637094847232
 31
0.0
  0
LINE
  5
422
330
18
100
AcDbEntity
  8
1
 62
     1
100
AcDbLine
 10
55.65518331639268
 20
-1.012704326804517
 30
0.0
 11
55.59744826255473
 21
-1.012704326804517
 31
0.0
  0
LINE
  5
423
330
18
100
AcDbEntity
  8
1
 62
     1
100
AcDbLine
 10
54.31834121112953
 20
-1.012704326804517
 30
0.0
 11
54.26060615729156
 21
-1.012704326804517
 31
0.0
  0
LINE
  5
424
330
18
100
AcDbEntity
  8
1
 62
     1
100
AcDbLine
 10
52.98149910586638
 20
3.902637094847232
 30
0.0
 11
52.92376405202842
 21
3.902637094847232
 31
0.0
  0
LINE
  5
425
330
18
100
AcDbEntity
  8
1
 62
     1
100
AcDbLine
 10
52.98149910586636
 20
3.90263709484723
 30
0.0
 11
52.98149910586636
 21
-1.012704326804527
 31
0.0
  0
LINE
  5
426
330
18
100
AcDbEntity
  8
1
 62
     1
100
AcDbLine
 10
51.6446570006032
 20
3.902637094847232
 30
0.0
 11
51.58692194676527
 21
3.902637094847232
 31
0.0
  0
LINE
  5
427
330
18
100
AcDbEntity
  8
1
 62
     1
100
AcDbLine
 10
51.64465700060317
 20
-1.012704326804517
 30
0.0
 11
51.58692194676524
 21
-1.012704326804517
 31
0.0
  0
LINE
  5
428
330
18
100
AcDbEntity
  8
1
 62
     1
100
AcDbLine
 10
50.30781489534005
 20
3.902637094847232
 30
0.0
 11
50.25007984150209
 21
3.902637094847232
 31
0.0
  0
LINE
  5
429
330
18
100
AcDbEntity
  8
1
 62
     1
100
AcDbLine
 10
50.30781489534003
 20
-1.012704326804517
 30
0.0
 11
50.2500798415021
 21
-1.012704326804517
 31
0.0
  0
ARC
  5
42A
330
18
100
AcDbEntity
  8
1
 62
     1
100
AcDbCircle
 10
31.73072522870554
 20
10.63632616896395
 30
0.0
 40
36.89911758455142
100
AcDbArc
 50
334.4196745597437
 51
336.8273599873069
  0
LINE
  5
42B
330
18
100
AcDbEntity
  8
1
 62
     1
100
AcDbLine
 10
65.01307805323476
 20
-5.29585554522802
 30
0.0
 11
65.01307805323476
 21
-6.5785
 31
0.0
  0
LINE
  5
42C
330
18
100
AcDbEntity
  8
1
 62
     1
100
AcDbLine
 10
65.65263157894738
 20
-5.470761315789473
 30
0.0
 11
65.01307805323476
 21
-6.578499999999994
 31
0.0
  0
ARC
  5
42D
330
18
100
AcDbEntity
  8
1
 62
     1
100
AcDbCircle
 10
97.57229395589529
 20
9.727865114097389
 30
0.0
 40
34.70067573195134
100
AcDbArc
 50
203.0945729275698
 51
205.6548021398473
  0
LINE
  5
42E
330
18
100
AcDbEntity
  8
1
 62
     1
100
AcDbLine
 10
65.65263157894738
 20
-5.470761315789473
 30
0.0
 11
65.65263157894738
 21
-5.470429037934313
 31
0.0
  0
LINE
  5
42F
330
18
100
AcDbEntity
  8
1
 62
     1
100
AcDbLine
 10
65.65263157894738
 20
-5.470429037934313
 30
0.0
 11
65.65263157894738
 21
-5.368280500309318
 31
0.0
  0
LINE
  5
430
330
18
100
AcDbEntity
  8
1
 62
     1
100
AcDbLine
 10
65.65263157894738
 20
-5.368280500309318
 30
0.0
 11
65.65263157894739
 21
-3.883451303483335
 31
0.0
  0
LINE
  5
431
330
18
100
AcDbEntity
  8
1
 62
     1
100
AcDbLine
 10
66.29218510465998
 20
-6.578499999999993
 30
0.0
 11
65.65263157894738
 21
-5.470761315789473
 31
0.0
  0
LINE
  5
432
330
18
100
AcDbEntity
  8
1
 62
     1
100
AcDbLine
 10
66.29218510465998
 20
-5.29585554522802
 30
0.0
 11
66.29218510465998
 21
-6.5785
 31
0.0
  0
ARC
  5
433
330
18
100
AcDbEntity
  8
1
 62
     1
100
AcDbCircle
 10
33.06756733388975
 20
10.63632616899997
 30
0.0
 40
36.89911758463819
100
AcDbArc
 50
334.4196745597462
 51
336.8273599873037
  0
LINE
  5
434
330
18
100
AcDbEntity
  8
1
 62
     1
100
AcDbLine
 10
66.34992015849792
 20
-5.29585554522802
 30
0.0
 11
66.34992015849792
 21
-6.5785
 31
0.0
  0
LINE
  5
435
330
18
100
AcDbEntity
  8
1
 62
     1
100
AcDbLine
 10
66.98947368421054
 20
-5.470761315789473
 30
0.0
 11
66.34992015849792
 21
-6.578499999999994
 31
0.0
  0
ARC
  5
436
330
18
100
AcDbEntity
  8
1
 62
     1
100
AcDbCircle
 10
98.90913606112196
 20
9.727865114081311
 30
0.0
 40
34.70067573191147
100
AcDbArc
 50
203.0945729275689
 51
205.6548021398495
  0
LINE
  5
437
330
18
100
AcDbEntity
  8
1
 62
     1
100
AcDbLine
 10
66.98947368421054
 20
-5.470761315789473
 30
0.0
 11
66.98947368421054
 21
-5.470429037934313
 31
0.0
  0
LINE
  5
438
330
18
100
AcDbEntity
  8
1
 62
     1
100
AcDbLine
 10
66.98947368421054
 20
-5.470429037934313
 30
0.0
 11
66.98947368421054
 21
-5.368280500309318
 31
0.0
  0
LINE
  5
439
330
18
100
AcDbEntity
  8
1
 62
     1
100
AcDbLine
 10
66.98947368421054
 20
-5.368280500309318
 30
0.0
 11
66.98947368421054
 21
-3.883451303483335
 31
0.0
  0
LINE
  5
43A
330
18
100
AcDbEntity
  8
1
 62
     1
100
AcDbLine
 10
67.62902720992314
 20
-6.578499999999993
 30
0.0
 11
66.98947368421054
 21
-5.470761315789473
 31
0.0
  0
LINE
  5
43B
330
18
100
AcDbEntity
  8
1
 62
     1
100
AcDbLine
 10
67.62902720992314
 20
-5.29585554522802
 30
0.0
 11
67.62902720992314
 21
-6.5785
 31
0.0
  0
ARC
  5
43C
330
18
100
AcDbEntity
  8
1
 62
     1
100
AcDbCircle
 10
96.23545185056558
 20
9.727865114067935
 30
0.0
 40
34.70067573187858
100
AcDbArc
 50
203.0945729275681
 51
205.6548021398511
  0
LINE
  5
43D
330
18
100
AcDbEntity
  8
1
 62
     1
100
AcDbLine
 10
64.95534299939683
 20
-6.578500000000018
 30
0.0
 11
64.31578947368422
 21
-5.470761315789473
 31
0.0
  0
LINE
  5
43E
330
18
100
AcDbEntity
  8
1
 62
     1
100
AcDbLine
 10
64.95534299939683
 20
-5.29585554522802
 30
0.0
 11
64.95534299939683
 21
-6.5785
 31
0.0
  0
ARC
  5
43F
330
18
100
AcDbEntity
  8
1
 62
     1
100
AcDbCircle
 10
90.88808342956368
 20
9.72786511409112
 30
0.0
 40
34.70067573193435
100
AcDbArc
 50
203.0945729275705
 51
205.6548021398494
  0
LINE
  5
440
330
18
100
AcDbEntity
  8
1
 62
     1
100
AcDbLine
 10
59.6079745783442
 20
-5.29585554522802
 30
0.0
 11
59.6079745783442
 21
-6.5785
 31
0.0
  0
ARC
  5
441
330
18
100
AcDbEntity
  8
1
 62
     1
100
AcDbCircle
 10
25.04651470237222
 20
10.63632616897215
 30
0.0
 40
36.89911758457077
100
AcDbArc
 50
334.419674559744
 51
336.8273599873059
  0
LINE
  5
442
330
18
100
AcDbEntity
  8
1
 62
     1
100
AcDbLine
 10
58.32886752691897
 20
-5.29585554522802
 30
0.0
 11
58.32886752691898
 21
-6.5785
 31
0.0
  0
LINE
  5
443
330
18
100
AcDbEntity
  8
1
 62
     1
100
AcDbLine
 10
58.96842105263158
 20
-5.470761315789473
 30
0.0
 11
58.32886752691897
 21
-6.578499999999994
 31
0.0
  0
LINE
  5
444
330
18
100
AcDbEntity
  8
1
 62
     1
100
AcDbLine
 10
58.96842105263158
 20
-5.470761315789473
 30
0.0
 11
58.96842105263159
 21
-5.470429037934313
 31
0.0
  0
LINE
  5
445
330
18
100
AcDbEntity
  8
1
 62
     1
100
AcDbLine
 10
58.96842105263159
 20
-5.470429037934313
 30
0.0
 11
58.96842105263158
 21
-5.368280500309318
 31
0.0
  0
LINE
  5
446
330
18
100
AcDbEntity
  8
1
 62
     1
100
AcDbLine
 10
58.96842105263158
 20
-5.368280500309318
 30
0.0
 11
58.96842105263159
 21
-3.883451303483335
 31
0.0
  0
ARC
  5
447
330
18
100
AcDbEntity
  8
1
 62
     1
100
AcDbCircle
 10
34.40440943917714
 20
10.63632616898909
 30
0.0
 40
36.89911758461162
100
AcDbArc
 50
334.4196745597451
 51
336.8273599873044
  0
LINE
  5
448
330
18
100
AcDbEntity
  8
1
 62
     1
100
AcDbLine
 10
67.68676226376107
 20
-5.29585554522802
 30
0.0
 11
67.68676226376107
 21
-6.5785
 31
0.0
  0
LINE
  5
449
330
18
100
AcDbEntity
  8
1
 62
     1
100
AcDbLine
 10
68.32631578947368
 20
-5.470761315789473
 30
0.0
 11
67.68676226376107
 21
-6.578500000000018
 31
0.0
  0
ARC
  5
44A
330
18
100
AcDbEntity
  8
1
 62
     1
100
AcDbCircle
 10
26.38335680751194
 20
10.63632616902862
 30
0.0
 40
36.8991175847065
100
AcDbArc
 50
334.4196745597476
 51
336.8273599873006
  0
LINE
  5
44B
330
18
100
AcDbEntity
  8
1
 62
     1
100
AcDbLine
 10
59.66570963218214
 20
-5.29585554522802
 30
0.0
 11
59.66570963218214
 21
-6.5785
 31
0.0
  0
LINE
  5
44C
330
18
100
AcDbEntity
  8
1
 62
     1
100
AcDbLine
 10
60.30526315789474
 20
-5.470761315789473
 30
0.0
 11
59.66570963218214
 21
-6.578499999999981
 31
0.0
  0
ARC
  5
44D
330
18
100
AcDbEntity
  8
1
 62
     1
100
AcDbCircle
 10
92.22492553473808
 20
9.727865114050815
 30
0.0
 40
34.70067573183687
100
AcDbArc
 50
203.0945729275668
 51
205.6548021398528
  0
LINE
  5
44E
330
18
100
AcDbEntity
  8
1
 62
     1
100
AcDbLine
 10
60.30526315789474
 20
-5.470761315789473
 30
0.0
 11
60.30526315789475
 21
-5.470429037934313
 31
0.0
  0
LINE
  5
44F
330
18
100
AcDbEntity
  8
1
 62
     1
100
AcDbLine
 10
60.30526315789475
 20
-5.470429037934313
 30
0.0
 11
60.30526315789474
 21
-5.368280500309318
 31
0.0
  0
LINE
  5
450
330
18
100
AcDbEntity
  8
1
 62
     1
100
AcDbLine
 10
60.30526315789474
 20
-5.368280500309318
 30
0.0
 11
60.30526315789476
 21
-3.883451303483335
 31
0.0
  0
LINE
  5
451
330
18
100
AcDbEntity
  8
1
 62
     1
100
AcDbLine
 10
60.94481668360736
 20
-5.29585554522802
 30
0.0
 11
60.94481668360736
 21
-6.5785
 31
0.0
  0
ARC
  5
452
330
18
100
AcDbEntity
  8
1
 62
     1
100
AcDbCircle
 10
27.72019891292796
 20
10.63632616895884
 30
0.0
 40
36.89911758453849
100
AcDbArc
 50
334.4196745597429
 51
336.827359987307
  0
LINE
  5
453
330
18
100
AcDbEntity
  8
1
 62
     1
100
AcDbLine
 10
61.0025517374453
 20
-5.29585554522802
 30
0.0
 11
61.0025517374453
 21
-6.5785
 31
0.0
  0
LINE
  5
454
330
18
100
AcDbEntity
  8
1
 62
     1
100
AcDbLine
 10
61.6421052631579
 20
-5.470761315789473
 30
0.0
 11
61.0025517374453
 21
-6.578499999999981
 31
0.0
  0
ARC
  5
455
330
18
100
AcDbEntity
  8
1
 62
     1
100
AcDbCircle
 10
93.56176764005893
 20
9.727865114076442
 30
0.0
 40
34.70067573190001
100
AcDbArc
 50
203.0945729275683
 51
205.6548021398497
  0
LINE
  5
456
330
18
100
AcDbEntity
  8
1
 62
     1
100
AcDbLine
 10
61.6421052631579
 20
-5.470761315789473
 30
0.0
 11
61.6421052631579
 21
-5.470429037934313
 31
0.0
  0
LINE
  5
457
330
18
100
AcDbEntity
  8
1
 62
     1
100
AcDbLine
 10
61.6421052631579
 20
-5.470429037934313
 30
0.0
 11
61.6421052631579
 21
-5.368280500309318
 31
0.0
  0
LINE
  5
458
330
18
100
AcDbEntity
  8
1
 62
     1
100
AcDbLine
 10
61.6421052631579
 20
-5.368280500309318
 30
0.0
 11
61.64210526315791
 21
-3.883451303483335
 31
0.0
  0
LINE
  5
459
330
18
100
AcDbEntity
  8
1
 62
     1
100
AcDbLine
 10
62.2816587888705
 20
-6.578500000000005
 30
0.0
 11
61.6421052631579
 21
-5.470761315789473
 31
0.0
  0
LINE
  5
45A
330
18
100
AcDbEntity
  8
1
 62
     1
100
AcDbLine
 10
62.28165878887051
 20
-5.29585554522802
 30
0.0
 11
62.28165878887051
 21
-6.5785
 31
0.0
  0
ARC
  5
45B
330
18
100
AcDbEntity
  8
1
 62
     1
100
AcDbCircle
 10
29.05704101803183
 20
10.6363261690314
 30
0.0
 40
36.8991175847135
100
AcDbArc
 50
334.4196745597479
 51
336.8273599873006
  0
LINE
  5
45C
330
18
100
AcDbEntity
  8
1
 62
     1
100
AcDbLine
 10
62.33939384270844
 20
-5.29585554522802
 30
0.0
 11
62.33939384270844
 21
-6.5785
 31
0.0
  0
ARC
  5
45D
330
18
100
AcDbEntity
  8
1
 62
     1
100
AcDbCircle
 10
94.89860974526263
 20
9.727865114049496
 30
0.0
 40
34.70067573183472
100
AcDbArc
 50
203.0945729275659
 51
205.6548021398521
  0
LINE
  5
45E
330
18
100
AcDbEntity
  8
1
 62
     1
100
AcDbLine
 10
62.97894736842106
 20
-5.470761315789473
 30
0.0
 11
62.97894736842107
 21
-5.470429037934313
 31
0.0
  0
LINE
  5
45F
330
18
100
AcDbEntity
  8
1
 62
     1
100
AcDbLine
 10
62.97894736842107
 20
-5.470429037934313
 30
0.0
 11
62.97894736842106
 21
-5.368280500309318
 31
0.0
  0
LINE
  5
460
330
18
100
AcDbEntity
  8
1
 62
     1
100
AcDbLine
 10
62.97894736842106
 20
-5.368280500309318
 30
0.0
 11
62.97894736842107
 21
-3.883451303483335
 31
0.0
  0
LINE
  5
461
330
18
100
AcDbEntity
  8
1
 62
     1
100
AcDbLine
 10
63.61850089413367
 20
-6.578500000000018
 30
0.0
 11
62.97894736842106
 21
-5.470761315789473
 31
0.0
  0
LINE
  5
462
330
18
100
AcDbEntity
  8
1
 62
     1
100
AcDbLine
 10
63.61850089413367
 20
-5.29585554522802
 30
0.0
 11
63.61850089413367
 21
-6.5785
 31
0.0
  0
ARC
  5
463
330
18
100
AcDbEntity
  8
1
 62
     1
100
AcDbCircle
 10
30.39388312342917
 20
10.63632616897006
 30
0.0
 40
36.89911758456596
100
AcDbArc
 50
334.419674559744
 51
336.8273599873063
  0
LINE
  5
464
330
18
100
AcDbEntity
  8
1
 62
     1
100
AcDbLine
 10
63.67623594797163
 20
-5.29585554522802
 30
0.0
 11
63.67623594797163
 21
-6.5785
 31
0.0
  0
LINE
  5
465
330
18
100
AcDbEntity
  8
1
 62
     1
100
AcDbLine
 10
64.31578947368422
 20
-5.470761315789473
 30
0.0
 11
63.67623594797163
 21
-6.578499999999945
 31
0.0
  0
LINE
  5
466
330
18
100
AcDbEntity
  8
1
 62
     1
100
AcDbLine
 10
64.31578947368422
 20
-5.470761315789473
 30
0.0
 11
64.31578947368423
 21
-5.470429037934313
 31
0.0
  0
LINE
  5
467
330
18
100
AcDbEntity
  8
1
 62
     1
100
AcDbLine
 10
64.31578947368423
 20
-5.470429037934313
 30
0.0
 11
64.31578947368422
 21
-5.368280500309318
 31
0.0
  0
LINE
  5
468
330
18
100
AcDbEntity
  8
1
 62
     1
100
AcDbLine
 10
64.31578947368422
 20
-5.368280500309318
 30
0.0
 11
64.31578947368422
 21
-3.883451303483335
 31
0.0
  0
ARC
  5
469
330
18
100
AcDbEntity
  8
1
 62
     1
100
AcDbCircle
 10
22.37283049185671
 20
10.63632616896707
 30
0.0
 40
36.89911758455882
100
AcDbArc
 50
334.4196745597438
 51
336.8273599873066
  0
LINE
  5
46A
330
18
100
AcDbEntity
  8
1
 62
     1
100
AcDbLine
 10
55.65518331639266
 20
-5.29585554522802
 30
0.0
 11
55.65518331639266
 21
-6.5785
 31
0.0
  0
LINE
  5
46B
330
18
100
AcDbEntity
  8
1
 62
     1
100
AcDbLine
 10
56.29473684210527
 20
-5.470761315789473
 30
0.0
 11
55.65518331639266
 21
-6.578499999999994
 31
0.0
  0
ARC
  5
46C
330
18
100
AcDbEntity
  8
1
 62
     1
100
AcDbCircle
 10
86.87755711367105
 20
9.727865114044514
 30
0.0
 40
34.70067573182116
100
AcDbArc
 50
203.0945729275665
 51
205.6548021398537
  0
LINE
  5
46D
330
18
100
AcDbEntity
  8
1
 62
     1
100
AcDbLine
 10
55.59744826255471
 20
-5.29585554522802
 30
0.0
 11
55.59744826255472
 21
-6.5785
 31
0.0
  0
ARC
  5
46E
330
18
100
AcDbEntity
  8
1
 62
     1
100
AcDbCircle
 10
21.03598838656162
 20
10.63632616898165
 30
0.0
 40
36.89911758459392
100
AcDbArc
 50
334.4196745597448
 51
336.8273599873053
  0
LINE
  5
46F
330
18
100
AcDbEntity
  8
1
 62
     1
100
AcDbLine
 10
54.31834121112952
 20
-5.29585554522802
 30
0.0
 11
54.31834121112952
 21
-6.5785
 31
0.0
  0
LINE
  5
470
330
18
100
AcDbEntity
  8
1
 62
     1
100
AcDbLine
 10
54.95789473684211
 20
-5.470761315789473
 30
0.0
 11
54.31834121112952
 21
-6.578499999999968
 31
0.0
  0
LINE
  5
471
330
18
100
AcDbEntity
  8
1
 62
     1
100
AcDbLine
 10
54.95789473684211
 20
-5.470761315789473
 30
0.0
 11
54.95789473684211
 21
-5.470429037934313
 31
0.0
  0
LINE
  5
472
330
18
100
AcDbEntity
  8
1
 62
     1
100
AcDbLine
 10
54.95789473684211
 20
-5.470429037934313
 30
0.0
 11
54.95789473684211
 21
-5.368280500309318
 31
0.0
  0
LINE
  5
473
330
18
100
AcDbEntity
  8
1
 62
     1
100
AcDbLine
 10
54.95789473684211
 20
-5.368280500309318
 30
0.0
 11
54.95789473684211
 21
-3.883451303483335
 31
0.0
  0
ARC
  5
474
330
18
100
AcDbEntity
  8
1
 62
     1
100
AcDbCircle
 10
85.5407150083892
 20
9.72786511403626
 30
0.0
 40
34.70067573180074
100
AcDbArc
 50
203.0945729275661
 51
205.6548021398548
  0
LINE
  5
475
330
18
100
AcDbEntity
  8
1
 62
     1
100
AcDbLine
 10
54.26060615729157
 20
-6.578500000000006
 30
0.0
 11
53.62105263157895
 21
-5.470761315789473
 31
0.0
  0
LINE
  5
476
330
18
100
AcDbEntity
  8
1
 62
     1
100
AcDbLine
 10
54.26060615729158
 20
-5.29585554522802
 30
0.0
 11
54.26060615729157
 21
-6.5785
 31
0.0
  0
ARC
  5
477
330
18
100
AcDbEntity
  8
1
 62
     1
100
AcDbCircle
 10
88.21439921896116
 20
9.727865114056623
 30
0.0
 40
34.70067573185071
100
AcDbArc
 50
203.0945729275674
 51
205.6548021398524
  0
LINE
  5
478
330
18
100
AcDbEntity
  8
1
 62
     1
100
AcDbLine
 10
56.29473684210527
 20
-5.470761315789473
 30
0.0
 11
56.29473684210527
 21
-5.470429037934313
 31
0.0
  0
LINE
  5
479
330
18
100
AcDbEntity
  8
1
 62
     1
100
AcDbLine
 10
56.29473684210527
 20
-5.470429037934313
 30
0.0
 11
56.29473684210527
 21
-5.368280500309318
 31
0.0
  0
LINE
  5
47A
330
18
100
AcDbEntity
  8
1
 62
     1
100
AcDbLine
 10
56.29473684210527
 20
-5.368280500309318
 30
0.0
 11
56.29473684210527
 21
-3.883451303483335
 31
0.0
  0
LINE
  5
47B
330
18
100
AcDbEntity
  8
1
 62
     1
100
AcDbLine
 10
56.93429036781787
 20
-5.29585554522802
 30
0.0
 11
56.93429036781788
 21
-6.5785
 31
0.0
  0
ARC
  5
47C
330
18
100
AcDbEntity
  8
1
 62
     1
100
AcDbCircle
 10
23.70967259711903
 20
10.63632616896786
 30
0.0
 40
36.89911758455991
100
AcDbArc
 50
334.4196745597433
 51
336.827359987306
  0
LINE
  5
47D
330
18
100
AcDbEntity
  8
1
 62
     1
100
AcDbLine
 10
56.99202542165582
 20
-5.29585554522802
 30
0.0
 11
56.99202542165582
 21
-6.5785
 31
0.0
  0
LINE
  5
47E
330
18
100
AcDbEntity
  8
1
 62
     1
100
AcDbLine
 10
57.63157894736842
 20
-5.470761315789473
 30
0.0
 11
56.99202542165582
 21
-6.578499999999981
 31
0.0
  0
ARC
  5
47F
330
18
100
AcDbEntity
  8
1
 62
     1
100
AcDbCircle
 10
89.55124132427473
 20
9.727865114079165
 30
0.0
 40
34.70067573190592
100
AcDbArc
 50
203.0945729275691
 51
205.65480213985
  0
LINE
  5
480
330
18
100
AcDbEntity
  8
1
 62
     1
100
AcDbLine
 10
57.63157894736842
 20
-5.470761315789473
 30
0.0
 11
57.63157894736842
 21
-5.470429037934313
 31
0.0
  0
LINE
  5
481
330
18
100
AcDbEntity
  8
1
 62
     1
100
AcDbLine
 10
57.63157894736842
 20
-5.470429037934313
 30
0.0
 11
57.63157894736843
 21
-5.368280500309318
 31
0.0
  0
LINE
  5
482
330
18
100
AcDbEntity
  8
1
 62
     1
100
AcDbLine
 10
57.63157894736843
 20
-5.368280500309318
 30
0.0
 11
57.63157894736844
 21
-3.883451303483335
 31
0.0
  0
LINE
  5
483
330
18
100
AcDbEntity
  8
1
 62
     1
100
AcDbLine
 10
58.27113247308103
 20
-5.29585554522802
 30
0.0
 11
58.27113247308104
 21
-6.5785
 31
0.0
  0
ARC
  5
484
330
18
100
AcDbEntity
  8
1
 62
     1
100
AcDbCircle
 10
81.5301886926864
 20
9.727865114075108
 30
0.0
 40
34.7006757318957
100
AcDbArc
 50
203.0945729275689
 51
205.6548021398507
  0
LINE
  5
485
330
18
100
AcDbEntity
  8
1
 62
     1
100
AcDbLine
 10
50.2500798415021
 20
-6.578500000000019
 30
0.0
 11
49.61052631578948
 21
-5.470761315789473
 31
0.0
  0
LINE
  5
486
330
18
100
AcDbEntity
  8
1
 62
     1
100
AcDbLine
 10
50.25007984150209
 20
-5.29585554522802
 30
0.0
 11
50.2500798415021
 21
-6.5785
 31
0.0
  0
LINE
  5
487
330
18
100
AcDbEntity
  8
1
 62
     1
100
AcDbLine
 10
49.48548651342466
 20
3.863449646333582
 30
0.0
 11
49.29072519000002
 21
3.847516467512173
 31
0.0
  0
LINE
  5
488
330
18
100
AcDbEntity
  8
1
 62
     1
100
AcDbLine
 10
49.48548651342465
 20
-0.7010997400095755
 30
0.0
 11
49.29072519
 21
-0.582530540337834
 31
0.0
  0
LINE
  5
489
330
18
100
AcDbEntity
  8
1
 62
     1
100
AcDbLine
 10
49.48548651342464
 20
-4.173673844080174
 30
0.0
 11
49.61052631578947
 21
-3.883451303483335
 31
0.0
  0
LINE
  5
48A
330
18
100
AcDbEntity
  8
1
 62
     1
100
AcDbLine
 10
49.48548651342465
 20
-4.173673844080174
 30
0.0
 11
49.48548651342465
 21
-5.687336505475482
 31
0.0
  0
LINE
  5
48B
330
18
100
AcDbEntity
  8
1
 62
     1
100
AcDbLine
 10
49.61052631578948
 20
-5.470761315789473
 30
0.0
 11
49.48548651342465
 21
-5.687336505475468
 31
0.0
  0
LINE
  5
48C
330
18
100
AcDbEntity
  8
1
 62
     1
100
AcDbLine
 10
49.61052631578948
 20
-5.470761315789473
 30
0.0
 11
49.61052631578948
 21
-5.470429037934313
 31
0.0
  0
LINE
  5
48D
330
18
100
AcDbEntity
  8
1
 62
     1
100
AcDbLine
 10
49.61052631578948
 20
-5.470429037934313
 30
0.0
 11
49.61052631578949
 21
-5.368280500309318
 31
0.0
  0
LINE
  5
48E
330
18
100
AcDbEntity
  8
1
 62
     1
100
AcDbLine
 10
49.61052631578949
 20
-5.368280500309318
 30
0.0
 11
49.61052631578949
 21
-3.883451303483335
 31
0.0
  0
ARC
  5
48F
330
18
100
AcDbEntity
  8
1
 62
     1
100
AcDbCircle
 10
17.0254620707509
 20
10.63632616899186
 30
0.0
 40
36.89911758461749
100
AcDbArc
 50
334.4196745597448
 51
336.8273599873037
  0
LINE
  5
490
330
18
100
AcDbEntity
  8
1
 62
     1
100
AcDbLine
 10
50.30781489534004
 20
-5.29585554522802
 30
0.0
 11
50.30781489534004
 21
-6.5785
 31
0.0
  0
LINE
  5
491
330
18
100
AcDbEntity
  8
1
 62
     1
100
AcDbLine
 10
50.94736842105264
 20
-5.470761315789473
 30
0.0
 11
50.30781489534004
 21
-6.578499999999981
 31
0.0
  0
ARC
  5
492
330
18
100
AcDbEntity
  8
1
 62
     1
100
AcDbCircle
 10
82.86703079800618
 20
9.727865114100046
 30
0.0
 40
34.70067573195756
100
AcDbArc
 50
203.0945729275701
 51
205.6548021398473
  0
LINE
  5
493
330
18
100
AcDbEntity
  8
1
 62
     1
100
AcDbLine
 10
50.94736842105264
 20
-5.470761315789473
 30
0.0
 11
50.94736842105264
 21
-5.470429037934313
 31
0.0
  0
LINE
  5
494
330
18
100
AcDbEntity
  8
1
 62
     1
100
AcDbLine
 10
50.94736842105264
 20
-5.470429037934313
 30
0.0
 11
50.94736842105264
 21
-5.368280500309318
 31
0.0
  0
LINE
  5
495
330
18
100
AcDbEntity
  8
1
 62
     1
100
AcDbLine
 10
50.94736842105264
 20
-5.368280500309318
 30
0.0
 11
50.94736842105264
 21
-3.883451303483335
 31
0.0
  0
LINE
  5
496
330
18
100
AcDbEntity
  8
1
 62
     1
100
AcDbLine
 10
51.58692194676526
 20
-6.578500000000019
 30
0.0
 11
50.94736842105264
 21
-5.470761315789473
 31
0.0
  0
LINE
  5
497
330
18
100
AcDbEntity
  8
1
 62
     1
100
AcDbLine
 10
51.58692194676526
 20
-5.29585554522802
 30
0.0
 11
51.58692194676526
 21
-6.5785
 31
0.0
  0
ARC
  5
498
330
18
100
AcDbEntity
  8
1
 62
     1
100
AcDbCircle
 10
18.36230417601653
 20
10.63632616899065
 30
0.0
 40
36.89911758461474
100
AcDbArc
 50
334.4196745597448
 51
336.8273599873039
  0
LINE
  5
499
330
18
100
AcDbEntity
  8
1
 62
     1
100
AcDbLine
 10
51.64465700060317
 20
-5.29585554522802
 30
0.0
 11
51.64465700060318
 21
-6.5785
 31
0.0
  0
LINE
  5
49A
330
18
100
AcDbEntity
  8
1
 62
     1
100
AcDbLine
 10
52.28421052631579
 20
-5.470761315789473
 30
0.0
 11
51.64465700060318
 21
-6.578500000000005
 31
0.0
  0
ARC
  5
49B
330
18
100
AcDbEntity
  8
1
 62
     1
100
AcDbCircle
 10
84.20387290322198
 20
9.72786511407947
 30
0.0
 40
34.70067573190594
100
AcDbArc
 50
203.0945729275696
 51
205.6548021398505
  0
LINE
  5
49C
330
18
100
AcDbEntity
  8
1
 62
     1
100
AcDbLine
 10
52.28421052631579
 20
-5.470761315789473
 30
0.0
 11
52.2842105263158
 21
-5.470429037934313
 31
0.0
  0
LINE
  5
49D
330
18
100
AcDbEntity
  8
1
 62
     1
100
AcDbLine
 10
52.2842105263158
 20
-5.470429037934313
 30
0.0
 11
52.28421052631579
 21
-5.368280500309318
 31
0.0
  0
LINE
  5
49E
330
18
100
AcDbEntity
  8
1
 62
     1
100
AcDbLine
 10
52.28421052631579
 20
-5.368280500309318
 30
0.0
 11
52.2842105263158
 21
-3.883451303483335
 31
0.0
  0
LINE
  5
49F
330
18
100
AcDbEntity
  8
1
 62
     1
100
AcDbLine
 10
52.92376405202841
 20
-6.578500000000006
 30
0.0
 11
52.28421052631579
 21
-5.470761315789473
 31
0.0
  0
LINE
  5
4A0
330
18
100
AcDbEntity
  8
1
 62
     1
100
AcDbLine
 10
52.92376405202841
 20
-5.29585554522802
 30
0.0
 11
52.92376405202841
 21
-6.5785
 31
0.0
  0
ARC
  5
4A1
330
18
100
AcDbEntity
  8
1
 62
     1
100
AcDbCircle
 10
19.69914628131605
 20
10.63632616897345
 30
0.0
 40
36.89911758457454
100
AcDbArc
 50
334.4196745597445
 51
336.8273599873062
  0
LINE
  5
4A2
330
18
100
AcDbEntity
  8
1
 62
     1
100
AcDbLine
 10
52.98149910586637
 20
-5.29585554522802
 30
0.0
 11
52.98149910586636
 21
-6.5785
 31
0.0
  0
LINE
  5
4A3
330
18
100
AcDbEntity
  8
1
 62
     1
100
AcDbLine
 10
53.62105263157895
 20
-5.470761315789473
 30
0.0
 11
52.98149910586636
 21
-6.578499999999968
 31
0.0
  0
LINE
  5
4A4
330
18
100
AcDbEntity
  8
1
 62
     1
100
AcDbLine
 10
53.62105263157895
 20
-5.470761315789473
 30
0.0
 11
53.62105263157895
 21
-5.470429037934313
 31
0.0
  0
LINE
  5
4A5
330
18
100
AcDbEntity
  8
1
 62
     1
100
AcDbLine
 10
53.62105263157895
 20
-5.470429037934313
 30
0.0
 11
53.62105263157895
 21
-5.368280500309318
 31
0.0
  0
LINE
  5
4A6
330
18
100
AcDbEntity
  8
1
 62
     1
100
AcDbLine
 10
53.62105263157895
 20
-5.368280500309318
 30
0.0
 11
53.62105263157895
 21
-3.883451303483335
 31
0.0
  0
LINE
  5
4A7
330
18
100
AcDbEntity
  8
1
 62
     1
100
AcDbLine
 10
50.30781489534003
 20
-5.29585554522802
 30
0.0
 11
50.2500798415021
 21
-5.29585554522802
 31
0.0
  0
LINE
  5
4A8
330
18
100
AcDbEntity
  8
1
 62
     1
100
AcDbLine
 10
54.31834121112954
 20
-5.29585554522802
 30
0.0
 11
54.2606061572916
 21
-5.29585554522802
 31
0.0
  0
LINE
  5
4A9
330
18
100
AcDbEntity
  8
1
 62
     1
100
AcDbLine
 10
61.00255173744532
 20
-5.29585554522802
 30
0.0
 11
60.94481668360737
 21
-5.29585554522802
 31
0.0
  0
LINE
  5
4AA
330
18
100
AcDbEntity
  8
1
 62
     1
100
AcDbLine
 10
62.33939384270844
 20
-5.29585554522802
 30
0.0
 11
62.28165878887052
 21
-5.29585554522802
 31
0.0
  0
LINE
  5
4AB
330
18
100
AcDbEntity
  8
1
 62
     1
100
AcDbLine
 10
63.67623594797164
 20
-5.29585554522802
 30
0.0
 11
63.61850089413366
 21
-5.29585554522802
 31
0.0
  0
LINE
  5
4AC
330
18
100
AcDbEntity
  8
1
 62
     1
100
AcDbLine
 10
67.68676226376108
 20
-5.29585554522802
 30
0.0
 11
67.62902720992318
 21
-5.29585554522802
 31
0.0
  0
LINE
  5
4AD
330
18
100
AcDbEntity
  8
1
 62
     1
100
AcDbLine
 10
58.32886752691898
 20
-1.012704326804517
 30
0.0
 11
58.27113247308105
 21
-1.012704326804517
 31
0.0
  0
LINE
  5
4AE
330
18
100
AcDbEntity
  8
1
 62
     1
100
AcDbLine
 10
52.98149910586635
 20
-1.012704326804517
 30
0.0
 11
52.9237640520284
 21
-1.012704326804517
 31
0.0
  0
ARC
  5
4AF
330
18
100
AcDbEntity
  8
1
 62
     1
100
AcDbCircle
 10
74.42967821516235
 20
-54.19737581503428
 30
0.0
 40
58.24605220058565
100
AcDbArc
 50
94.3459969524808
 51
94.69400477117803
  0
LINE
  5
4B0
330
18
100
AcDbEntity
  8
1
 62
     1
100
AcDbLine
 10
69.66315789473684
 20
-0.6250236764142532
 30
0.0
 11
70.01583594442613
 21
-0.8392186431056285
 31
0.0
  0
LINE
  5
4B1
330
18
100
AcDbEntity
  8
1
 62
     1
100
AcDbLine
 10
70.01583594442612
 20
3.881205229588616
 30
0.0
 11
70.01583594442613
 21
-0.8392186431056023
 31
0.0
  0
ARC
  5
4B2
330
18
100
AcDbEntity
  8
1
 62
     1
100
AcDbCircle
 10
64.1097237867122
 20
-64.15777620162663
 30
0.0
 40
68.23746799527952
100
AcDbArc
 50
85.33187937217112
 51
85.74398313061207
  0
LINE
  5
4B3
330
18
100
AcDbEntity
  8
1
 62
     1
100
AcDbLine
 10
69.17384597055029
 20
3.891523813276486
 30
0.0
 11
69.17384597055029
 21
-0.9219185708804007
 31
0.0
  0
LINE
  5
4B4
330
18
100
AcDbEntity
  8
1
 62
     1
100
AcDbLine
 10
69.17384597055029
 20
-0.921918570631235
 30
0.0
 11
69.66315789473684
 21
-0.6250236764142532
 31
0.0
  0
LINE
  5
4B5
330
18
100
AcDbEntity
  8
1
 62
     1
100
AcDbLine
 10
69.66315789473684
 20
-0.6250236764142629
 30
0.0
 11
69.66315789473684
 21
3.853314851892089
 31
0.0
  0
ARC
  5
4B6
330
18
100
AcDbEntity
  8
1
 62
     1
100
AcDbCircle
 10
73.66511497263308
 20
-61.36831725829609
 30
0.0
 40
65.43977929259314
100
AcDbArc
 50
94.20595236116141
 51
94.67958533185966
  0
LINE
  5
4B7
330
18
100
AcDbEntity
  8
1
 62
     1
100
AcDbLine
 10
68.32631578947368
 20
-0.6250236764142532
 30
0.0
 11
68.86564156569942
 21
-0.9521567767122259
 31
0.0
  0
LINE
  5
4B8
330
18
100
AcDbEntity
  8
1
 62
     1
100
AcDbLine
 10
70.76964651764749
 20
5.819673343726755
 30
0.0
 11
70.01583594442603
 21
6.023436016008803
 31
0.0
  0
LINE
  5
4B9
330
18
100
AcDbEntity
  8
1
 62
     1
100
AcDbLine
 10
70.01583594442612
 20
6.081617331753778
 30
0.0
 11
70.76964651764749
 21
5.869745064898136
 31
0.0
  0
LINE
  5
4BA
330
18
100
AcDbEntity
  8
1
 62
     1
100
AcDbLine
 10
69.17384597090825
 20
6.25065220064833
 30
0.0
 11
68.86564156569942
 21
6.333730987888355
 31
0.0
  0
LINE
  5
4BB
330
18
100
AcDbEntity
  8
1
 62
     1
100
AcDbLine
 10
68.86564156569942
 20
6.404900526501269
 30
0.0
 11
69.17384597055029
 21
6.318274034076796
 31
0.0
  0
LINE
  5
4BC
330
18
100
AcDbEntity
  8
1
 62
     1
100
AcDbLine
 10
70.76964651764749
 20
3.871762745634371
 30
0.0
 11
71.0
 21
3.853314851892089
 31
0.0
  0
LINE
  5
4BD
330
18
100
AcDbEntity
  8
1
 62
     1
100
AcDbLine
 10
70.76964651764749
 20
3.871762745634359
 30
0.0
 11
70.76964651764749
 21
-0.7650550955410015
 31
0.0
  0
LINE
  5
4BE
330
18
100
AcDbEntity
  8
1
 62
     1
100
AcDbLine
 10
70.76964651764749
 20
-0.765055095540409
 30
0.0
 11
71.0
 21
-0.6250236764142532
 31
0.0
  0
LINE
  5
4BF
330
18
100
AcDbEntity
  8
1
 62
     1
100
AcDbLine
 10
67.68676226376108
 20
6.500084014570229
 30
0.0
 11
67.62902720992317
 21
6.500084014570229
 31
0.0
  0
LINE
  5
4C0
330
18
100
AcDbEntity
  8
1
 62
     1
100
AcDbLine
 10
67.62902720992314
 20
6.5785
 30
0.0
 11
67.68676226376107
 21
6.5785
 31
0.0
  0
LINE
  5
4C1
330
18
100
AcDbEntity
  8
1
 62
     1
100
AcDbLine
 10
66.34992015849791
 20
6.500084014570226
 30
0.0
 11
66.29218510465994
 21
6.500084014570226
 31
0.0
  0
LINE
  5
4C2
330
18
100
AcDbEntity
  8
1
 62
     1
100
AcDbLine
 10
65.01307805323475
 20
6.500084014570229
 30
0.0
 11
64.95534299939682
 21
6.500084014570229
 31
0.0
  0
LINE
  5
4C3
330
18
100
AcDbEntity
  8
1
 62
     1
100
AcDbLine
 10
64.95534299939683
 20
6.5785
 30
0.0
 11
65.01307805323476
 21
6.578499999999999
 31
0.0
  0
LINE
  5
4C4
330
18
100
AcDbEntity
  8
1
 62
     1
100
AcDbLine
 10
63.67623594797165
 20
6.500084014570229
 30
0.0
 11
63.61850089413369
 21
6.500084014570229
 31
0.0
  0
LINE
  5
4C5
330
18
100
AcDbEntity
  8
1
 62
     1
100
AcDbLine
 10
63.61850089413367
 20
6.5785
 30
0.0
 11
63.67623594797163
 21
6.5785
 31
0.0
  0
LINE
  5
4C6
330
18
100
AcDbEntity
  8
1
 62
     1
100
AcDbLine
 10
62.33939384270843
 20
6.500084014570229
 30
0.0
 11
62.2816587888705
 21
6.500084014570229
 31
0.0
  0
LINE
  5
4C7
330
18
100
AcDbEntity
  8
1
 62
     1
100
AcDbLine
 10
61.00255173744527
 20
6.500084014570229
 30
0.0
 11
60.94481668360736
 21
6.500084014570229
 31
0.0
  0
LINE
  5
4C8
330
18
100
AcDbEntity
  8
1
 62
     1
100
AcDbLine
 10
60.94481668360736
 20
6.5785
 30
0.0
 11
61.0025517374453
 21
6.5785
 31
0.0
  0
LINE
  5
4C9
330
18
100
AcDbEntity
  8
1
 62
     1
100
AcDbLine
 10
59.66570963218213
 20
6.500084014570229
 30
0.0
 11
59.60797457834419
 21
6.500084014570229
 31
0.0
  0
LINE
  5
4CA
330
18
100
AcDbEntity
  8
1
 62
     1
100
AcDbLine
 10
59.6079745783442
 20
6.5785
 30
0.0
 11
59.66570963218214
 21
6.5785
 31
0.0
  0
LINE
  5
4CB
330
18
100
AcDbEntity
  8
1
 62
     1
100
AcDbLine
 10
58.32886752691898
 20
6.500084014570229
 30
0.0
 11
58.27113247308105
 21
6.500084014570229
 31
0.0
  0
LINE
  5
4CC
330
18
100
AcDbEntity
  8
1
 62
     1
100
AcDbLine
 10
56.99202542165584
 20
6.500084014570229
 30
0.0
 11
56.93429036781787
 21
6.500084014570226
 31
0.0
  0
LINE
  5
4CD
330
18
100
AcDbEntity
  8
1
 62
     1
100
AcDbLine
 10
55.65518331639265
 20
6.500084014570229
 30
0.0
 11
55.59744826255472
 21
6.500084014570229
 31
0.0
  0
LINE
  5
4CE
330
18
100
AcDbEntity
  8
1
 62
     1
100
AcDbLine
 10
54.31834121112952
 20
6.500084014570229
 30
0.0
 11
54.26060615729156
 21
6.500084014570229
 31
0.0
  0
LINE
  5
4CF
330
18
100
AcDbEntity
  8
1
 62
     1
100
AcDbLine
 10
52.98149910586636
 20
6.500084014570229
 30
0.0
 11
52.9237640520284
 21
6.500084014570229
 31
0.0
  0
LINE
  5
4D0
330
18
100
AcDbEntity
  8
1
 62
     1
100
AcDbLine
 10
51.64465700060318
 20
6.500084014570229
 30
0.0
 11
51.58692194676527
 21
6.500084014570229
 31
0.0
  0
LINE
  5
4D1
330
18
100
AcDbEntity
  8
1
 62
     1
100
AcDbLine
 10
51.58692194676526
 20
6.5785
 30
0.0
 11
51.64465700060318
 21
6.5785
 31
0.0
  0
LINE
  5
4D2
330
18
100
AcDbEntity
  8
1
 62
     1
100
AcDbLine
 10
50.30781489534003
 20
6.500084014570229
 30
0.0
 11
50.25007984150211
 21
6.500084014570229
 31
0.0
  0
ARC
  5
4D3
330
18
100
AcDbEntity
  8
1
 62
     1
100
AcDbCircle
 10
58.16166076889589
 20
-71.85088732701381
 30
0.0
 40
75.95397198521236
100
AcDbArc
 50
85.35254394782295
 51
85.83642439905061
  0
LINE
  5
4D4
330
18
100
AcDbEntity
  8
1
 62
     1
100
AcDbLine
 10
63.67623594797163
 20
3.902637094847231
 30
0.0
 11
63.67623594797164
 21
-1.012704326804527
 31
0.0
  0
LINE
  5
4D5
330
18
100
AcDbEntity
  8
1
 62
     1
100
AcDbLine
 10
63.67623594797161
 20
-1.012704326804516
 30
0.0
 11
64.31578947368422
 21
-0.6250236764142532
 31
0.0
  0
LINE
  5
4D6
330
18
100
AcDbEntity
  8
1
 62
     1
100
AcDbLine
 10
64.31578947368422
 20
-0.6250236764142629
 30
0.0
 11
64.31578947368422
 21
3.853314851892089
 31
0.0
  0
ARC
  5
4D7
330
18
100
AcDbEntity
  8
1
 62
     1
100
AcDbCircle
 10
68.63024414874224
 20
-65.31762592154006
 30
0.0
 40
69.40142099784468
100
AcDbArc
 50
94.14115072963892
 51
94.67071694331779
  0
LINE
  5
4D8
330
18
100
AcDbEntity
  8
1
 62
     1
100
AcDbLine
 10
62.97894736842106
 20
-0.6250236764142532
 30
0.0
 11
63.61850089413367
 21
-1.012704326804524
 31
0.0
  0
LINE
  5
4D9
330
18
100
AcDbEntity
  8
1
 62
     1
100
AcDbLine
 10
63.61850089413367
 20
3.902637094847231
 30
0.0
 11
63.61850089413368
 21
-1.012704326804527
 31
0.0
  0
ARC
  5
4DA
330
18
100
AcDbEntity
  8
1
 62
     1
100
AcDbCircle
 10
56.82481866364309
 20
-71.85088732687885
 30
0.0
 40
75.953971985077
100
AcDbArc
 50
85.35254394782245
 51
85.836424399051
  0
LINE
  5
4DB
330
18
100
AcDbEntity
  8
1
 62
     1
100
AcDbLine
 10
62.33939384270844
 20
3.902637094847231
 30
0.0
 11
62.33939384270844
 21
-1.012704326804524
 31
0.0
  0
LINE
  5
4DC
330
18
100
AcDbEntity
  8
1
 62
     1
100
AcDbLine
 10
62.33939384270845
 20
-1.01270432680452
 30
0.0
 11
62.97894736842106
 21
-0.6250236764142532
 31
0.0
  0
LINE
  5
4DD
330
18
100
AcDbEntity
  8
1
 62
     1
100
AcDbLine
 10
62.97894736842105
 20
-0.6250236764142629
 30
0.0
 11
62.97894736842107
 21
3.853314851892089
 31
0.0
  0
ARC
  5
4DE
330
18
100
AcDbEntity
  8
1
 62
     1
100
AcDbCircle
 10
67.29340204349171
 20
-65.31762592170277
 30
0.0
 40
69.40142099800788
100
AcDbArc
 50
94.14115072963966
 51
94.67071694331723
  0
LINE
  5
4DF
330
18
100
AcDbEntity
  8
1
 62
     1
100
AcDbLine
 10
61.6421052631579
 20
-0.6250236764142532
 30
0.0
 11
62.2816587888705
 21
-1.012704326804519
 31
0.0
  0
LINE
  5
4E0
330
18
100
AcDbEntity
  8
1
 62
     1
100
AcDbLine
 10
62.28165878887051
 20
3.902637094847231
 30
0.0
 11
62.28165878887052
 21
-1.012704326804527
 31
0.0
  0
ARC
  5
4E1
330
18
100
AcDbEntity
  8
1
 62
     1
100
AcDbCircle
 10
55.48797655836223
 20
-71.85088732711014
 30
0.0
 40
75.95397198530897
100
AcDbArc
 50
85.3525439478233
 51
85.83642439905036
  0
LINE
  5
4E2
330
18
100
AcDbEntity
  8
1
 62
     1
100
AcDbLine
 10
61.0025517374453
 20
3.902637094847231
 30
0.0
 11
61.00255173744531
 21
-1.012704326804527
 31
0.0
  0
LINE
  5
4E3
330
18
100
AcDbEntity
  8
1
 62
     1
100
AcDbLine
 10
61.00255173744529
 20
-1.012704326804516
 30
0.0
 11
61.6421052631579
 21
-0.6250236764142532
 31
0.0
  0
LINE
  5
4E4
330
18
100
AcDbEntity
  8
1
 62
     1
100
AcDbLine
 10
61.64210526315789
 20
-0.6250236764142629
 30
0.0
 11
61.64210526315791
 21
3.853314851892089
 31
0.0
  0
ARC
  5
4E5
330
18
100
AcDbEntity
  8
1
 62
     1
100
AcDbCircle
 10
54.15113445311977
 20
-71.8508873268402
 30
0.0
 40
75.95397198503824
100
AcDbArc
 50
85.35254394782237
 51
85.83642439905114
  0
LINE
  5
4E6
330
18
100
AcDbEntity
  8
1
 62
     1
100
AcDbLine
 10
59.66570963218214
 20
3.902637094847231
 30
0.0
 11
59.66570963218214
 21
-1.012704326804527
 31
0.0
  0
LINE
  5
4E7
330
18
100
AcDbEntity
  8
1
 62
     1
100
AcDbLine
 10
59.66570963218213
 20
-1.012704326804516
 30
0.0
 11
60.30526315789474
 21
-0.6250236764142532
 31
0.0
  0
LINE
  5
4E8
330
18
100
AcDbEntity
  8
1
 62
     1
100
AcDbLine
 10
60.30526315789474
 20
-0.6250236764142629
 30
0.0
 11
60.30526315789476
 21
3.853314851892089
 31
0.0
  0
ARC
  5
4E9
330
18
100
AcDbEntity
  8
1
 62
     1
100
AcDbCircle
 10
62.17218708469508
 20
-71.85088732688747
 30
0.0
 40
75.95397198508564
100
AcDbArc
 50
85.35254394782253
 51
85.836424399051
  0
LINE
  5
4EA
330
18
100
AcDbEntity
  8
1
 62
     1
100
AcDbLine
 10
67.68676226376107
 20
3.902637094847231
 30
0.0
 11
67.68676226376107
 21
-1.012704326804527
 31
0.0
  0
LINE
  5
4EB
330
18
100
AcDbEntity
  8
1
 62
     1
100
AcDbLine
 10
67.68676226376107
 20
-1.012704326804523
 30
0.0
 11
68.32631578947368
 21
-0.6250236764142532
 31
0.0
  0
LINE
  5
4EC
330
18
100
AcDbEntity
  8
1
 62
     1
100
AcDbLine
 10
68.32631578947368
 20
-0.6250236764142629
 30
0.0
 11
68.3263157894737
 21
3.853314851892089
 31
0.0
  0
ARC
  5
4ED
330
18
100
AcDbEntity
  8
1
 62
     1
100
AcDbCircle
 10
52.81429234784711
 20
-71.85088732695893
 30
0.0
 40
75.95397198515734
100
AcDbArc
 50
85.35254394782248
 51
85.8364243990505
  0
LINE
  5
4EE
330
18
100
AcDbEntity
  8
1
 62
     1
100
AcDbLine
 10
58.32886752691897
 20
3.902637094847231
 30
0.0
 11
58.32886752691898
 21
-1.012704326804527
 31
0.0
  0
LINE
  5
4EF
330
18
100
AcDbEntity
  8
1
 62
     1
100
AcDbLine
 10
58.32886752691897
 20
-1.012704326804516
 30
0.0
 11
58.96842105263158
 21
-0.6250236764142532
 31
0.0
  0
LINE
  5
4F0
330
18
100
AcDbEntity
  8
1
 62
     1
100
AcDbLine
 10
58.96842105263158
 20
-0.6250236764142629
 30
0.0
 11
58.96842105263159
 21
3.853314851892089
 31
0.0
  0
ARC
  5
4F1
330
18
100
AcDbEntity
  8
1
 62
     1
100
AcDbCircle
 10
64.61971783296634
 20
-65.31762592171648
 30
0.0
 40
69.40142099802162
100
AcDbArc
 50
94.14115072963962
 51
94.67071694331712
  0
LINE
  5
4F2
330
18
100
AcDbEntity
  8
1
 62
     1
100
AcDbLine
 10
58.96842105263158
 20
-0.6250236764142532
 30
0.0
 11
59.6079745783442
 21
-1.01270432680452
 31
0.0
  0
LINE
  5
4F3
330
18
100
AcDbEntity
  8
1
 62
     1
100
AcDbLine
 10
59.6079745783442
 20
3.902637094847231
 30
0.0
 11
59.60797457834419
 21
-1.012704326804524
 31
0.0
  0
ARC
  5
4F4
330
18
100
AcDbEntity
  8
1
 62
     1
100
AcDbCircle
 10
69.96708625399374
 20
-65.31762592139147
 30
0.0
 40
69.40142099769564
100
AcDbArc
 50
94.14115072963823
 51
94.67071694331821
  0
LINE
  5
4F5
330
18
100
AcDbEntity
  8
1
 62
     1
100
AcDbLine
 10
64.31578947368422
 20
-0.6250236764142532
 30
0.0
 11
64.95534299939683
 21
-1.012704326804524
 31
0.0
  0
LINE
  5
4F6
330
18
100
AcDbEntity
  8
1
 62
     1
100
AcDbLine
 10
64.95534299939683
 20
3.902637094847231
 30
0.0
 11
64.95534299939683
 21
-1.012704326804527
 31
0.0
  0
ARC
  5
4F7
330
18
100
AcDbEntity
  8
1
 62
     1
100
AcDbCircle
 10
72.64077046453738
 20
-65.31762592161365
 30
0.0
 40
69.4014209979185
100
AcDbArc
 50
94.14115072963922
 51
94.67071694331752
  0
LINE
  5
4F8
330
18
100
AcDbEntity
  8
1
 62
     1
100
AcDbLine
 10
66.98947368421054
 20
-0.6250236764142532
 30
0.0
 11
67.62902720992315
 21
-1.012704326804518
 31
0.0
  0
LINE
  5
4F9
330
18
100
AcDbEntity
  8
1
 62
     1
100
AcDbLine
 10
67.62902720992314
 20
3.902637094847232
 30
0.0
 11
67.62902720992314
 21
-1.012704326804524
 31
0.0
  0
ARC
  5
4FA
330
18
100
AcDbEntity
  8
1
 62
     1
100
AcDbCircle
 10
59.49850287416545
 20
-71.85088732693019
 30
0.0
 40
75.9539719851285
100
AcDbArc
 50
85.35254394782264
 51
85.83642439905086
  0
LINE
  5
4FB
330
18
100
AcDbEntity
  8
1
 62
     1
100
AcDbLine
 10
65.01307805323476
 20
3.90263709484723
 30
0.0
 11
65.01307805323475
 21
-1.012704326804524
 31
0.0
  0
LINE
  5
4FC
330
18
100
AcDbEntity
  8
1
 62
     1
100
AcDbLine
 10
65.01307805323476
 20
-1.012704326804516
 30
0.0
 11
65.65263157894738
 21
-0.6250236764142532
 31
0.0
  0
LINE
  5
4FD
330
18
100
AcDbEntity
  8
1
 62
     1
100
AcDbLine
 10
65.65263157894738
 20
-0.6250236764142629
 30
0.0
 11
65.65263157894739
 21
3.853314851892089
 31
0.0
  0
ARC
  5
4FE
330
18
100
AcDbEntity
  8
1
 62
     1
100
AcDbCircle
 10
71.30392835927303
 20
-65.31762592159538
 30
0.0
 40
69.40142099790019
100
AcDbArc
 50
94.14115072963934
 51
94.67071694331776
  0
LINE
  5
4FF
330
18
100
AcDbEntity
  8
1
 62
     1
100
AcDbLine
 10
65.65263157894738
 20
-0.6250236764142532
 30
0.0
 11
66.29218510465998
 21
-1.012704326804518
 31
0.0
  0
LINE
  5
500
330
18
100
AcDbEntity
  8
1
 62
     1
100
AcDbLine
 10
66.29218510465998
 20
3.90263709484723
 30
0.0
 11
66.29218510465998
 21
-1.012704326804527
 31
0.0
  0
ARC
  5
501
330
18
100
AcDbEntity
  8
1
 62
     1
100
AcDbCircle
 10
60.83534497944459
 20
-71.85088732672313
 30
0.0
 40
75.9539719849208
100
AcDbArc
 50
85.35254394782201
 51
85.83642439905151
  0
LINE
  5
502
330
18
100
AcDbEntity
  8
1
 62
     1
100
AcDbLine
 10
66.34992015849791
 20
3.902637094847232
 30
0.0
 11
66.34992015849794
 21
-1.012704326804527
 31
0.0
  0
LINE
  5
503
330
18
100
AcDbEntity
  8
1
 62
     1
100
AcDbLine
 10
66.34992015849792
 20
-1.012704326804516
 30
0.0
 11
66.98947368421054
 21
-0.6250236764142532
 31
0.0
  0
LINE
  5
504
330
18
100
AcDbEntity
  8
1
 62
     1
100
AcDbLine
 10
66.98947368421054
 20
-0.6250236764142629
 30
0.0
 11
66.98947368421054
 21
3.853314851892089
 31
0.0
  0
ARC
  5
505
330
18
100
AcDbEntity
  8
1
 62
     1
100
AcDbCircle
 10
65.95655993823323
 20
-65.31762592176442
 30
0.0
 40
69.40142099806971
100
AcDbArc
 50
94.14115072963982
 51
94.67071694331695
  0
LINE
  5
506
330
18
100
AcDbEntity
  8
1
 62
     1
100
AcDbLine
 10
60.30526315789474
 20
-0.6250236764142532
 30
0.0
 11
60.94481668360736
 21
-1.01270432680452
 31
0.0
  0
ARC
  5
507
330
18
100
AcDbEntity
  8
1
 62
     1
100
AcDbCircle
 10
63.28287572769891
 20
-65.3176259216608
 30
0.0
 40
69.4014209979658
100
AcDbArc
 50
94.1411507296394
 51
94.67071694331733
  0
LINE
  5
508
330
18
100
AcDbEntity
  8
1
 62
     1
100
AcDbLine
 10
57.63157894736842
 20
-0.6250236764142532
 30
0.0
 11
58.27113247308104
 21
-1.01270432680452
 31
0.0
  0
LINE
  5
509
330
18
100
AcDbEntity
  8
1
 62
     1
100
AcDbLine
 10
58.27113247308105
 20
3.902637094847231
 30
0.0
 11
58.27113247308104
 21
-1.012704326804527
 31
0.0
  0
ARC
  5
50A
330
18
100
AcDbEntity
  8
1
 62
     1
100
AcDbCircle
 10
51.47745024258582
 20
-71.85088732694078
 30
0.0
 40
75.9539719851391
100
AcDbArc
 50
85.3525439478228
 51
85.83642439905093
  0
LINE
  5
50B
330
18
100
AcDbEntity
  8
1
 62
     1
100
AcDbLine
 10
56.99202542165581
 20
-1.012704326804516
 30
0.0
 11
57.63157894736842
 21
-0.6250236764142532
 31
0.0
  0
LINE
  5
50C
330
18
100
AcDbEntity
  8
1
 62
     1
100
AcDbLine
 10
57.63157894736842
 20
-0.6250236764142629
 30
0.0
 11
57.63157894736844
 21
3.853314851892089
 31
0.0
  0
ARC
  5
50D
330
18
100
AcDbEntity
  8
1
 62
     1
100
AcDbCircle
 10
61.94603362243766
 20
-65.31762592168647
 30
0.0
 40
69.40142099799152
100
AcDbArc
 50
94.14115072963946
 51
94.67071694331719
  0
LINE
  5
50E
330
18
100
AcDbEntity
  8
1
 62
     1
100
AcDbLine
 10
56.29473684210527
 20
-0.6250236764142532
 30
0.0
 11
56.93429036781788
 21
-1.01270432680452
 31
0.0
  0
LINE
  5
50F
330
18
100
AcDbEntity
  8
1
 62
     1
100
AcDbLine
 10
56.93429036781788
 20
3.902637094847231
 30
0.0
 11
56.93429036781789
 21
-1.012704326804527
 31
0.0
  0
ARC
  5
510
330
18
100
AcDbEntity
  8
1
 62
     1
100
AcDbCircle
 10
59.27234941191538
 20
-65.31762592173753
 30
0.0
 40
69.40142099804275
100
AcDbArc
 50
94.14115072963972
 51
94.67071694331709
  0
LINE
  5
511
330
18
100
AcDbEntity
  8
1
 62
     1
100
AcDbLine
 10
53.62105263157895
 20
-0.6250236764142532
 30
0.0
 11
54.26060615729156
 21
-1.01270432680452
 31
0.0
  0
LINE
  5
512
330
18
100
AcDbEntity
  8
1
 62
     1
100
AcDbLine
 10
54.26060615729158
 20
3.902637094847231
 30
0.0
 11
54.26060615729156
 21
-1.012704326804527
 31
0.0
  0
ARC
  5
513
330
18
100
AcDbEntity
  8
1
 62
     1
100
AcDbCircle
 10
48.80376603203992
 20
-71.85088732719777
 30
0.0
 40
75.95397198539683
100
AcDbArc
 50
85.35254394782378
 51
85.83642439905026
  0
LINE
  5
514
330
18
100
AcDbEntity
  8
1
 62
     1
100
AcDbLine
 10
54.31834121112952
 20
3.902637094847231
 30
0.0
 11
54.31834121112953
 21
-1.012704326804527
 31
0.0
  0
LINE
  5
515
330
18
100
AcDbEntity
  8
1
 62
     1
100
AcDbLine
 10
54.3183412111295
 20
-1.012704326804516
 30
0.0
 11
54.95789473684211
 21
-0.6250236764142532
 31
0.0
  0
LINE
  5
516
330
18
100
AcDbEntity
  8
1
 62
     1
100
AcDbLine
 10
54.9578947368421
 20
-0.6250236764142629
 30
0.0
 11
54.95789473684211
 21
3.853314851892089
 31
0.0
  0
ARC
  5
517
330
18
100
AcDbEntity
  8
1
 62
     1
100
AcDbCircle
 10
60.60919151717755
 20
-65.31762592172623
 30
0.0
 40
69.4014209980314
100
AcDbArc
 50
94.14115072963958
 51
94.67071694331702
  0
LINE
  5
518
330
18
100
AcDbEntity
  8
1
 62
     1
100
AcDbLine
 10
54.95789473684211
 20
-0.6250236764142532
 30
0.0
 11
55.59744826255472
 21
-1.01270432680452
 31
0.0
  0
LINE
  5
519
330
18
100
AcDbEntity
  8
1
 62
     1
100
AcDbLine
 10
55.59744826255471
 20
3.902637094847231
 30
0.0
 11
55.59744826255473
 21
-1.012704326804527
 31
0.0
  0
ARC
  5
51A
330
18
100
AcDbEntity
  8
1
 62
     1
100
AcDbCircle
 10
50.14060813729355
 20
-71.8508873273196
 30
0.0
 40
75.95397198551905
100
AcDbArc
 50
85.35254394782405
 51
85.83642439904975
  0
LINE
  5
51B
330
18
100
AcDbEntity
  8
1
 62
     1
100
AcDbLine
 10
55.65518331639266
 20
3.902637094847231
 30
0.0
 11
55.65518331639266
 21
-1.012704326804527
 31
0.0
  0
LINE
  5
51C
330
18
100
AcDbEntity
  8
1
 62
     1
100
AcDbLine
 10
55.65518331639266
 20
-1.012704326804516
 30
0.0
 11
56.29473684210527
 21
-0.6250236764142532
 31
0.0
  0
LINE
  5
51D
330
18
100
AcDbEntity
  8
1
 62
     1
100
AcDbLine
 10
56.29473684210527
 20
-0.6250236764142629
 30
0.0
 11
56.29473684210527
 21
3.853314851892089
 31
0.0
  0
ARC
  5
51E
330
18
100
AcDbEntity
  8
1
 62
     1
100
AcDbCircle
 10
55.2618230961132
 20
-65.3176259215753
 30
0.0
 40
69.40142099788002
100
AcDbArc
 50
94.14115072963892
 51
94.67071694331753
  0
LINE
  5
51F
330
18
100
AcDbEntity
  8
1
 62
     1
100
AcDbLine
 10
49.61052631578947
 20
-0.6250236764142629
 30
0.0
 11
49.61052631578949
 21
3.853314851892089
 31
0.0
  0
LINE
  5
520
330
18
100
AcDbEntity
  8
1
 62
     1
100
AcDbLine
 10
49.61052631578947
 20
-0.6250236764142532
 30
0.0
 11
50.2500798415021
 21
-1.012704326804524
 31
0.0
  0
LINE
  5
521
330
18
100
AcDbEntity
  8
1
 62
     1
100
AcDbLine
 10
50.25007984150209
 20
3.902637094847232
 30
0.0
 11
50.25007984150209
 21
-1.012704326804524
 31
0.0
  0
LINE
  5
522
330
18
100
AcDbEntity
  8
1
 62
     1
100
AcDbLine
 10
49.48548651342466
 20
5.643957448552618
 30
0.0
 11
49.29072519
 21
5.318191249811698
 31
0.0
  0
LINE
  5
523
330
18
100
AcDbEntity
  8
1
 62
     1
100
AcDbLine
 10
49.48548651342464
 20
3.863449646333583
 30
0.0
 11
49.61052631578947
 21
3.853314851892089
 31
0.0
  0
LINE
  5
524
330
18
100
AcDbEntity
  8
1
 62
     1
100
AcDbLine
 10
49.48548651342465
 20
3.863449646333584
 30
0.0
 11
49.48548651342465
 21
-0.7010997400097018
 31
0.0
  0
LINE
  5
525
330
18
100
AcDbEntity
  8
1
 62
     1
100
AcDbLine
 10
49.48548651342464
 20
-0.7010997400095766
 30
0.0
 11
49.61052631578947
 21
-0.6250236764142532
 31
0.0
  0
ARC
  5
526
330
18
100
AcDbEntity
  8
1
 62
     1
100
AcDbCircle
 10
44.793239716265
 20
-71.85088732700615
 30
0.0
 40
75.95397198520467
100
AcDbArc
 50
85.35254394782301
 51
85.83642439905073
  0
LINE
  5
527
330
18
100
AcDbEntity
  8
1
 62
     1
100
AcDbLine
 10
50.30781489534004
 20
3.902637094847231
 30
0.0
 11
50.30781489534004
 21
-1.012704326804527
 31
0.0
  0
LINE
  5
528
330
18
100
AcDbEntity
  8
1
 62
     1
100
AcDbLine
 10
50.30781489534003
 20
-1.012704326804516
 30
0.0
 11
50.94736842105264
 21
-0.6250236764142532
 31
0.0
  0
LINE
  5
529
330
18
100
AcDbEntity
  8
1
 62
     1
100
AcDbLine
 10
50.94736842105264
 20
-0.6250236764142629
 30
0.0
 11
50.94736842105264
 21
3.853314851892089
 31
0.0
  0
ARC
  5
52A
330
18
100
AcDbEntity
  8
1
 62
     1
100
AcDbCircle
 10
56.59866520137938
 20
-65.31762592161408
 30
0.0
 40
69.4014209979189
100
AcDbArc
 50
94.1411507296391
 51
94.67071694331739
  0
LINE
  5
52B
330
18
100
AcDbEntity
  8
1
 62
     1
100
AcDbLine
 10
50.94736842105264
 20
-0.6250236764142532
 30
0.0
 11
51.58692194676526
 21
-1.012704326804524
 31
0.0
  0
LINE
  5
52C
330
18
100
AcDbEntity
  8
1
 62
     1
100
AcDbLine
 10
51.58692194676525
 20
3.902637094847231
 30
0.0
 11
51.58692194676526
 21
-1.012704326804524
 31
0.0
  0
ARC
  5
52D
330
18
100
AcDbEntity
  8
1
 62
     1
100
AcDbCircle
 10
46.1300818215081
 20
-71.8508873272646
 30
0.0
 40
75.95397198546388
100
AcDbArc
 50
85.35254394782373
 51
85.83642439904978
  0
LINE
  5
52E
330
18
100
AcDbEntity
  8
1
 62
     1
100
AcDbLine
 10
51.64465700060317
 20
3.902637094847231
 30
0.0
 11
51.64465700060318
 21
-1.012704326804527
 31
0.0
  0
LINE
  5
52F
330
18
100
AcDbEntity
  8
1
 62
     1
100
AcDbLine
 10
51.64465700060318
 20
-1.012704326804519
 30
0.0
 11
52.28421052631579
 21
-0.6250236764142532
 31
0.0
  0
LINE
  5
530
330
18
100
AcDbEntity
  8
1
 62
     1
100
AcDbLine
 10
52.28421052631579
 20
-0.6250236764142629
 30
0.0
 11
52.2842105263158
 21
3.853314851892089
 31
0.0
  0
ARC
  5
531
330
18
100
AcDbEntity
  8
1
 62
     1
100
AcDbCircle
 10
57.93550730664683
 20
-65.31762592166893
 30
0.0
 40
69.40142099797393
100
AcDbArc
 50
94.14115072963938
 51
94.67071694331723
  0
LINE
  5
532
330
18
100
AcDbEntity
  8
1
 62
     1
100
AcDbLine
 10
52.28421052631579
 20
-0.6250236764142532
 30
0.0
 11
52.9237640520284
 21
-1.01270432680452
 31
0.0
  0
LINE
  5
533
330
18
100
AcDbEntity
  8
1
 62
     1
100
AcDbLine
 10
52.92376405202841
 20
3.902637094847231
 30
0.0
 11
52.92376405202841
 21
-1.012704326804527
 31
0.0
  0
ARC
  5
534
330
18
100
AcDbEntity
  8
1
 62
     1
100
AcDbCircle
 10
47.46692392680994
 20
-71.85088732676054
 30
0.0
 40
75.95397198495836
100
AcDbArc
 50
85.35254394782201
 51
85.83642439905127
  0
LINE
  5
535
330
18
100
AcDbEntity
  8
1
 62
     1
100
AcDbLine
 10
52.98149910586635
 20
-1.012704326804516
 30
0.0
 11
53.62105263157895
 21
-0.6250236764142532
 31
0.0
  0
LINE
  5
536
330
18
100
AcDbEntity
  8
1
 62
     1
100
AcDbLine
 10
53.62105263157894
 20
-0.6250236764142629
 30
0.0
 11
53.62105263157895
 21
3.853314851892089
 31
0.0
  0
LINE
  5
537
330
18
100
AcDbEntity
  8
1
 62
     1
100
AcDbLine
 10
54.31834121112951
 20
3.902637094847232
 30
0.0
 11
54.26060615729159
 21
3.902637094847232
 31
0.0
  0
LINE
  5
538
330
18
100
AcDbEntity
  8
1
 62
     1
100
AcDbLine
 10
58.32886752691898
 20
3.902637094847232
 30
0.0
 11
58.27113247308105
 21
3.902637094847232
 31
0.0
  0
LINE
  5
539
330
18
100
AcDbEntity
  8
1
 62
     1
100
AcDbLine
 10
62.33939384270845
 20
3.902637094847231
 30
0.0
 11
62.28165878887049
 21
3.902637094847231
 31
0.0
  0
LINE
  5
53A
330
18
100
AcDbEntity
  8
1
 62
     1
100
AcDbLine
 10
65.01307805323478
 20
3.902637094847231
 30
0.0
 11
64.95534299939685
 21
3.902637094847231
 31
0.0
  0
LINE
  5
53B
330
18
100
AcDbEntity
  8
1
 62
     1
100
AcDbLine
 10
66.34992015849792
 20
3.902637094847232
 30
0.0
 11
66.29218510465995
 21
3.902637094847232
 31
0.0
  0
LINE
  5
53C
330
18
100
AcDbEntity
  8
1
 62
     1
100
AcDbLine
 10
67.68676226376107
 20
3.902637094847232
 30
0.0
 11
67.62902720992317
 21
3.902637094847232
 31
0.0
  0
LINE
  5
53D
330
18
100
AcDbEntity
  8
1
 62
     1
100
AcDbLine
 10
68.32631578947368
 20
5.434940181663471
 30
0.0
 11
68.32631578947368
 21
5.470761315789473
 31
0.0
  0
LINE
  5
53E
330
18
100
AcDbEntity
  8
1
 62
     1
100
AcDbLine
 10
68.32631578947368
 20
5.434940181663473
 30
0.0
 11
68.86564156569942
 21
6.333730987888355
 31
0.0
  0
LINE
  5
53F
330
18
100
AcDbEntity
  8
1
 62
     1
100
AcDbLine
 10
68.86564156569942
 20
6.404900526501269
 30
0.0
 11
68.86564156569942
 21
6.404884072302273
 31
0.0
  0
LINE
  5
540
330
18
100
AcDbEntity
  8
1
 62
     1
100
AcDbLine
 10
68.86564156569942
 20
6.404884072302273
 30
0.0
 11
68.86564156569943
 21
6.400074826544619
 31
0.0
  0
LINE
  5
541
330
18
100
AcDbEntity
  8
1
 62
     1
100
AcDbLine
 10
68.86564156569943
 20
6.400074826544619
 30
0.0
 11
68.86564156569942
 21
6.333730987888356
 31
0.0
  0
LINE
  5
542
330
18
100
AcDbEntity
  8
1
 62
     1
100
AcDbLine
 10
69.17384597055029
 20
6.318274034076797
 30
0.0
 11
69.17384597055029
 21
6.31825838602242
 31
0.0
  0
LINE
  5
543
330
18
100
AcDbEntity
  8
1
 62
     1
100
AcDbLine
 10
69.17384597055029
 20
6.31825838602242
 30
0.0
 11
69.17384597055027
 21
6.313685958380542
 31
0.0
  0
LINE
  5
544
330
18
100
AcDbEntity
  8
1
 62
     1
100
AcDbLine
 10
69.17384597055027
 20
6.313685958380542
 30
0.0
 11
69.17384597055027
 21
6.250652199476015
 31
0.0
  0
LINE
  5
545
330
18
100
AcDbEntity
  8
1
 62
     1
100
AcDbLine
 10
69.17384597055029
 20
6.250652199476017
 30
0.0
 11
69.66315789473684
 21
5.434940181663473
 31
0.0
  0
LINE
  5
546
330
18
100
AcDbEntity
  8
1
 62
     1
100
AcDbLine
 10
69.66315789473684
 20
5.434940181663471
 30
0.0
 11
69.66315789473684
 21
5.461993201376347
 31
0.0
  0
LINE
  5
547
330
18
100
AcDbEntity
  8
1
 62
     1
100
AcDbLine
 10
69.66315789473684
 20
5.461993201376347
 30
0.0
 11
69.66315789473684
 21
5.468593468109653
 31
0.0
  0
LINE
  5
548
330
18
100
AcDbEntity
  8
1
 62
     1
100
AcDbLine
 10
69.66315789473684
 20
5.468593468109653
 30
0.0
 11
69.66315789473684
 21
5.470222420047644
 31
0.0
  0
LINE
  5
549
330
18
100
AcDbEntity
  8
1
 62
     1
100
AcDbLine
 10
69.66315789473684
 20
5.470222420047644
 30
0.0
 11
69.66315789473684
 21
5.470626977680238
 31
0.0
  0
LINE
  5
54A
330
18
100
AcDbEntity
  8
1
 62
     1
100
AcDbLine
 10
69.66315789473684
 20
5.470626977680238
 30
0.0
 11
69.66315789473684
 21
5.470727779644843
 31
0.0
  0
LINE
  5
54B
330
18
100
AcDbEntity
  8
1
 62
     1
100
AcDbLine
 10
69.66315789473684
 20
5.470727779644843
 30
0.0
 11
69.66315789473684
 21
5.470752937810638
 31
0.0
  0
LINE
  5
54C
330
18
100
AcDbEntity
  8
1
 62
     1
100
AcDbLine
 10
69.66315789473684
 20
5.470752937810638
 30
0.0
 11
69.66315789473684
 21
5.470759222052518
 31
0.0
  0
LINE
  5
54D
330
18
100
AcDbEntity
  8
1
 62
     1
100
AcDbLine
 10
69.66315789473684
 20
5.470759222052518
 30
0.0
 11
69.66315789473686
 21
5.47076079244999
 31
0.0
  0
LINE
  5
54E
330
18
100
AcDbEntity
  8
1
 62
     1
100
AcDbLine
 10
69.66315789473686
 20
5.47076079244999
 30
0.0
 11
69.66315789473686
 21
5.47076118496645
 31
0.0
  0
LINE
  5
54F
330
18
100
AcDbEntity
  8
1
 62
     1
100
AcDbLine
 10
69.66315789473686
 20
5.47076118496645
 30
0.0
 11
69.66315789473684
 21
5.470761283085198
 31
0.0
  0
LINE
  5
550
330
18
100
AcDbEntity
  8
1
 62
     1
100
AcDbLine
 10
69.66315789473684
 20
5.470761283085198
 30
0.0
 11
69.66315789473684
 21
5.470761307613589
 31
0.0
  0
LINE
  5
551
330
18
100
AcDbEntity
  8
1
 62
     1
100
AcDbLine
 10
69.66315789473684
 20
5.470761307613589
 30
0.0
 11
69.66315789473684
 21
5.470761313745525
 31
0.0
  0
LINE
  5
552
330
18
100
AcDbEntity
  8
1
 62
     1
100
AcDbLine
 10
69.66315789473684
 20
5.470761313745525
 30
0.0
 11
69.66315789473684
 21
5.470761315278489
 31
0.0
  0
LINE
  5
553
330
18
100
AcDbEntity
  8
1
 62
     1
100
AcDbLine
 10
69.66315789473684
 20
5.470761315278489
 30
0.0
 11
69.66315789473684
 21
5.470761315661727
 31
0.0
  0
LINE
  5
554
330
18
100
AcDbEntity
  8
1
 62
     1
100
AcDbLine
 10
69.66315789473684
 20
5.470761315661727
 30
0.0
 11
69.66315789473684
 21
5.470761315757536
 31
0.0
  0
LINE
  5
555
330
18
100
AcDbEntity
  8
1
 62
     1
100
AcDbLine
 10
69.66315789473684
 20
5.470761315757536
 30
0.0
 11
69.66315789473684
 21
5.470761315781489
 31
0.0
  0
LINE
  5
556
330
18
100
AcDbEntity
  8
1
 62
     1
100
AcDbLine
 10
69.66315789473684
 20
5.470761315781489
 30
0.0
 11
69.66315789473684
 21
5.470761315788525
 31
0.0
  0
LINE
  5
557
330
18
100
AcDbEntity
  8
1
 62
     1
100
AcDbLine
 10
69.66315789473684
 20
5.470761315788525
 30
0.0
 11
69.66315789473684
 21
5.470761315789473
 31
0.0
  0
LINE
  5
558
330
18
100
AcDbEntity
  8
1
 62
     1
100
AcDbLine
 10
69.66315789473684
 20
5.434940181663473
 30
0.0
 11
70.01583594442613
 21
6.023436016008827
 31
0.0
  0
LINE
  5
559
330
18
100
AcDbEntity
  8
1
 62
     1
100
AcDbLine
 10
70.01583594442612
 20
6.081617331753778
 30
0.0
 11
70.01583594442612
 21
6.081603833022783
 31
0.0
  0
LINE
  5
55A
330
18
100
AcDbEntity
  8
1
 62
     1
100
AcDbLine
 10
70.01583594442612
 20
6.081603833022783
 30
0.0
 11
70.01583594442612
 21
6.077662430877869
 31
0.0
  0
LINE
  5
55B
330
18
100
AcDbEntity
  8
1
 62
     1
100
AcDbLine
 10
70.01583594442612
 20
6.077662430877869
 30
0.0
 11
70.01583594442612
 21
6.023436016008795
 31
0.0
  0
LINE
  5
55C
330
18
100
AcDbEntity
  8
1
 62
     1
100
AcDbLine
 10
70.76964651764749
 20
5.869745064898135
 30
0.0
 11
70.7696465176475
 21
5.869733417923514
 31
0.0
  0
LINE
  5
55D
330
18
100
AcDbEntity
  8
1
 62
     1
100
AcDbLine
 10
70.7696465176475
 20
5.869733417923514
 30
0.0
 11
70.76964651764749
 21
5.866335193312617
 31
0.0
  0
LINE
  5
55E
330
18
100
AcDbEntity
  8
1
 62
     1
100
AcDbLine
 10
70.76964651764749
 20
5.866335193312617
 30
0.0
 11
70.76964651764749
 21
5.819673343726671
 31
0.0
  0
LINE
  5
55F
330
18
100
AcDbEntity
  8
1
 62
     1
100
AcDbLine
 10
70.76964651764749
 20
5.819673343726766
 30
0.0
 11
71.0
 21
5.434940181663473
 31
0.0
  0
LINE
  5
560
330
18
100
AcDbEntity
  8
1
 62
     1
100
AcDbLine
 10
63.67623594797163
 20
6.5785
 30
0.0
 11
63.67623594797163
 21
6.578481901573171
 31
0.0
  0
LINE
  5
561
330
18
100
AcDbEntity
  8
1
 62
     1
100
AcDbLine
 10
63.67623594797163
 20
6.578481901573171
 30
0.0
 11
63.67623594797164
 21
6.573189421633208
 31
0.0
  0
LINE
  5
562
330
18
100
AcDbEntity
  8
1
 62
     1
100
AcDbLine
 10
63.67623594797164
 20
6.573189421633208
 30
0.0
 11
63.67623594797163
 21
6.500084014570227
 31
0.0
  0
LINE
  5
563
330
18
100
AcDbEntity
  8
1
 62
     1
100
AcDbLine
 10
63.6762359479716
 20
6.500084014570222
 30
0.0
 11
64.31578947368422
 21
5.434940181663473
 31
0.0
  0
LINE
  5
564
330
18
100
AcDbEntity
  8
1
 62
     1
100
AcDbLine
 10
64.31578947368422
 20
5.434940181663471
 30
0.0
 11
64.31578947368422
 21
5.470761315789473
 31
0.0
  0
LINE
  5
565
330
18
100
AcDbEntity
  8
1
 62
     1
100
AcDbLine
 10
62.97894736842106
 20
5.434940181663473
 30
0.0
 11
63.61850089413367
 21
6.500084014570245
 31
0.0
  0
LINE
  5
566
330
18
100
AcDbEntity
  8
1
 62
     1
100
AcDbLine
 10
63.61850089413367
 20
6.5785
 30
0.0
 11
63.61850089413367
 21
6.578481901573171
 31
0.0
  0
LINE
  5
567
330
18
100
AcDbEntity
  8
1
 62
     1
100
AcDbLine
 10
63.61850089413367
 20
6.578481901573171
 30
0.0
 11
63.61850089413368
 21
6.573189421633208
 31
0.0
  0
LINE
  5
568
330
18
100
AcDbEntity
  8
1
 62
     1
100
AcDbLine
 10
63.61850089413368
 20
6.573189421633208
 30
0.0
 11
63.61850089413367
 21
6.500084014570227
 31
0.0
  0
LINE
  5
569
330
18
100
AcDbEntity
  8
1
 62
     1
100
AcDbLine
 10
62.33939384270844
 20
6.5785
 30
0.0
 11
62.33939384270843
 21
6.578481901573171
 31
0.0
  0
LINE
  5
56A
330
18
100
AcDbEntity
  8
1
 62
     1
100
AcDbLine
 10
62.33939384270843
 20
6.578481901573171
 30
0.0
 11
62.33939384270844
 21
6.573189421633208
 31
0.0
  0
LINE
  5
56B
330
18
100
AcDbEntity
  8
1
 62
     1
100
AcDbLine
 10
62.33939384270844
 20
6.573189421633208
 30
0.0
 11
62.33939384270844
 21
6.500084014570227
 31
0.0
  0
LINE
  5
56C
330
18
100
AcDbEntity
  8
1
 62
     1
100
AcDbLine
 10
62.33939384270844
 20
6.500084014570234
 30
0.0
 11
62.97894736842106
 21
5.434940181663473
 31
0.0
  0
LINE
  5
56D
330
18
100
AcDbEntity
  8
1
 62
     1
100
AcDbLine
 10
62.97894736842105
 20
5.434940181663471
 30
0.0
 11
62.97894736842106
 21
5.470761315789473
 31
0.0
  0
LINE
  5
56E
330
18
100
AcDbEntity
  8
1
 62
     1
100
AcDbLine
 10
61.6421052631579
 20
5.434940181663473
 30
0.0
 11
62.2816587888705
 21
6.500084014570232
 31
0.0
  0
LINE
  5
56F
330
18
100
AcDbEntity
  8
1
 62
     1
100
AcDbLine
 10
62.28165878887051
 20
6.5785
 30
0.0
 11
62.28165878887051
 21
6.578481901573171
 31
0.0
  0
LINE
  5
570
330
18
100
AcDbEntity
  8
1
 62
     1
100
AcDbLine
 10
62.28165878887051
 20
6.578481901573171
 30
0.0
 11
62.28165878887051
 21
6.573189421633208
 31
0.0
  0
LINE
  5
571
330
18
100
AcDbEntity
  8
1
 62
     1
100
AcDbLine
 10
62.28165878887051
 20
6.573189421633208
 30
0.0
 11
62.28165878887051
 21
6.500084014570227
 31
0.0
  0
LINE
  5
572
330
18
100
AcDbEntity
  8
1
 62
     1
100
AcDbLine
 10
61.0025517374453
 20
6.5785
 30
0.0
 11
61.00255173744529
 21
6.578481901573171
 31
0.0
  0
LINE
  5
573
330
18
100
AcDbEntity
  8
1
 62
     1
100
AcDbLine
 10
61.00255173744529
 20
6.578481901573171
 30
0.0
 11
61.00255173744531
 21
6.573189421633208
 31
0.0
  0
LINE
  5
574
330
18
100
AcDbEntity
  8
1
 62
     1
100
AcDbLine
 10
61.00255173744531
 20
6.573189421633208
 30
0.0
 11
61.00255173744529
 21
6.500084014570227
 31
0.0
  0
LINE
  5
575
330
18
100
AcDbEntity
  8
1
 62
     1
100
AcDbLine
 10
61.00255173744529
 20
6.500084014570223
 30
0.0
 11
61.6421052631579
 21
5.434940181663473
 31
0.0
  0
LINE
  5
576
330
18
100
AcDbEntity
  8
1
 62
     1
100
AcDbLine
 10
61.64210526315789
 20
5.434940181663471
 30
0.0
 11
61.6421052631579
 21
5.470761315789473
 31
0.0
  0
LINE
  5
577
330
18
100
AcDbEntity
  8
1
 62
     1
100
AcDbLine
 10
59.66570963218214
 20
6.5785
 30
0.0
 11
59.66570963218214
 21
6.578481901573171
 31
0.0
  0
LINE
  5
578
330
18
100
AcDbEntity
  8
1
 62
     1
100
AcDbLine
 10
59.66570963218214
 20
6.578481901573171
 30
0.0
 11
59.66570963218214
 21
6.573189421633208
 31
0.0
  0
LINE
  5
579
330
18
100
AcDbEntity
  8
1
 62
     1
100
AcDbLine
 10
59.66570963218214
 20
6.573189421633208
 30
0.0
 11
59.66570963218214
 21
6.500084014570227
 31
0.0
  0
LINE
  5
57A
330
18
100
AcDbEntity
  8
1
 62
     1
100
AcDbLine
 10
59.66570963218213
 20
6.500084014570225
 30
0.0
 11
60.30526315789474
 21
5.434940181663473
 31
0.0
  0
LINE
  5
57B
330
18
100
AcDbEntity
  8
1
 62
     1
100
AcDbLine
 10
60.30526315789474
 20
5.434940181663471
 30
0.0
 11
60.30526315789474
 21
5.470761314970058
 31
0.0
  0
LINE
  5
57C
330
18
100
AcDbEntity
  8
1
 62
     1
100
AcDbLine
 10
67.68676226376107
 20
6.5785
 30
0.0
 11
67.68676226376105
 21
6.578481901573171
 31
0.0
  0
LINE
  5
57D
330
18
100
AcDbEntity
  8
1
 62
     1
100
AcDbLine
 10
67.68676226376105
 20
6.578481901573171
 30
0.0
 11
67.68676226376108
 21
6.573189421633208
 31
0.0
  0
LINE
  5
57E
330
18
100
AcDbEntity
  8
1
 62
     1
100
AcDbLine
 10
67.68676226376108
 20
6.573189421633208
 30
0.0
 11
67.68676226376108
 21
6.500084014570227
 31
0.0
  0
LINE
  5
57F
330
18
100
AcDbEntity
  8
1
 62
     1
100
AcDbLine
 10
67.68676226376107
 20
6.500084014570245
 30
0.0
 11
68.32631578947368
 21
5.434940181663473
 31
0.0
  0
LINE
  5
580
330
18
100
AcDbEntity
  8
1
 62
     1
100
AcDbLine
 10
58.32886752691898
 20
6.5785
 30
0.0
 11
58.32886752691897
 21
6.578481901573171
 31
0.0
  0
LINE
  5
581
330
18
100
AcDbEntity
  8
1
 62
     1
100
AcDbLine
 10
58.32886752691897
 20
6.578481901573171
 30
0.0
 11
58.32886752691898
 21
6.573189421633208
 31
0.0
  0
LINE
  5
582
330
18
100
AcDbEntity
  8
1
 62
     1
100
AcDbLine
 10
58.32886752691898
 20
6.573189421633208
 30
0.0
 11
58.32886752691897
 21
6.500084014570227
 31
0.0
  0
LINE
  5
583
330
18
100
AcDbEntity
  8
1
 62
     1
100
AcDbLine
 10
58.32886752691897
 20
6.500084014570225
 30
0.0
 11
58.96842105263158
 21
5.434940181663473
 31
0.0
  0
LINE
  5
584
330
18
100
AcDbEntity
  8
1
 62
     1
100
AcDbLine
 10
58.96842105263158
 20
5.434940181663471
 30
0.0
 11
58.96842105263159
 21
5.470761314970058
 31
0.0
  0
LINE
  5
585
330
18
100
AcDbEntity
  8
1
 62
     1
100
AcDbLine
 10
58.96842105263158
 20
5.434940181663473
 30
0.0
 11
59.6079745783442
 21
6.500084014570233
 31
0.0
  0
LINE
  5
586
330
18
100
AcDbEntity
  8
1
 62
     1
100
AcDbLine
 10
59.6079745783442
 20
6.5785
 30
0.0
 11
59.6079745783442
 21
6.578481901573171
 31
0.0
  0
LINE
  5
587
330
18
100
AcDbEntity
  8
1
 62
     1
100
AcDbLine
 10
59.6079745783442
 20
6.578481901573171
 30
0.0
 11
59.6079745783442
 21
6.573189421633208
 31
0.0
  0
LINE
  5
588
330
18
100
AcDbEntity
  8
1
 62
     1
100
AcDbLine
 10
59.6079745783442
 20
6.573189421633208
 30
0.0
 11
59.60797457834419
 21
6.500084014570227
 31
0.0
  0
LINE
  5
589
330
18
100
AcDbEntity
  8
1
 62
     1
100
AcDbLine
 10
64.31578947368422
 20
5.434940181663473
 30
0.0
 11
64.95534299939683
 21
6.500084014570245
 31
0.0
  0
LINE
  5
58A
330
18
100
AcDbEntity
  8
1
 62
     1
100
AcDbLine
 10
64.95534299939683
 20
6.5785
 30
0.0
 11
64.95534299939683
 21
6.578481901573171
 31
0.0
  0
LINE
  5
58B
330
18
100
AcDbEntity
  8
1
 62
     1
100
AcDbLine
 10
64.95534299939683
 20
6.578481901573171
 30
0.0
 11
64.95534299939683
 21
6.573189421633208
 31
0.0
  0
LINE
  5
58C
330
18
100
AcDbEntity
  8
1
 62
     1
100
AcDbLine
 10
64.95534299939683
 20
6.573189421633208
 30
0.0
 11
64.95534299939683
 21
6.500084014570227
 31
0.0
  0
LINE
  5
58D
330
18
100
AcDbEntity
  8
1
 62
     1
100
AcDbLine
 10
66.98947368421054
 20
5.434940181663473
 30
0.0
 11
67.62902720992315
 21
6.500084014570231
 31
0.0
  0
LINE
  5
58E
330
18
100
AcDbEntity
  8
1
 62
     1
100
AcDbLine
 10
67.62902720992314
 20
6.5785
 30
0.0
 11
67.62902720992314
 21
6.578481901573171
 31
0.0
  0
LINE
  5
58F
330
18
100
AcDbEntity
  8
1
 62
     1
100
AcDbLine
 10
67.62902720992314
 20
6.578481901573171
 30
0.0
 11
67.62902720992314
 21
6.573189421633208
 31
0.0
  0
LINE
  5
590
330
18
100
AcDbEntity
  8
1
 62
     1
100
AcDbLine
 10
67.62902720992314
 20
6.573189421633208
 30
0.0
 11
67.62902720992314
 21
6.500084014570227
 31
0.0
  0
LINE
  5
591
330
18
100
AcDbEntity
  8
1
 62
     1
100
AcDbLine
 10
65.01307805323476
 20
6.5785
 30
0.0
 11
65.01307805323476
 21
6.578481901573171
 31
0.0
  0
LINE
  5
592
330
18
100
AcDbEntity
  8
1
 62
     1
100
AcDbLine
 10
65.01307805323476
 20
6.578481901573171
 30
0.0
 11
65.01307805323476
 21
6.573189421633208
 31
0.0
  0
LINE
  5
593
330
18
100
AcDbEntity
  8
1
 62
     1
100
AcDbLine
 10
65.01307805323476
 20
6.573189421633208
 30
0.0
 11
65.01307805323476
 21
6.500084014570227
 31
0.0
  0
LINE
  5
594
330
18
100
AcDbEntity
  8
1
 62
     1
100
AcDbLine
 10
65.01307805323476
 20
6.500084014570225
 30
0.0
 11
65.65263157894738
 21
5.434940181663473
 31
0.0
  0
LINE
  5
595
330
18
100
AcDbEntity
  8
1
 62
     1
100
AcDbLine
 10
65.65263157894738
 20
5.434940181663471
 30
0.0
 11
65.65263157894738
 21
5.470761315789473
 31
0.0
  0
LINE
  5
596
330
18
100
AcDbEntity
  8
1
 62
     1
100
AcDbLine
 10
65.65263157894738
 20
5.434940181663473
 30
0.0
 11
66.29218510465998
 21
6.500084014570231
 31
0.0
  0
LINE
  5
597
330
18
100
AcDbEntity
  8
1
 62
     1
100
AcDbLine
 10
66.29218510465998
 20
6.5785
 30
0.0
 11
66.29218510465996
 21
6.578481901573171
 31
0.0
  0
LINE
  5
598
330
18
100
AcDbEntity
  8
1
 62
     1
100
AcDbLine
 10
66.29218510465996
 20
6.578481901573171
 30
0.0
 11
66.29218510465998
 21
6.573189421633208
 31
0.0
  0
LINE
  5
599
330
18
100
AcDbEntity
  8
1
 62
     1
100
AcDbLine
 10
66.29218510465998
 20
6.573189421633208
 30
0.0
 11
66.29218510465998
 21
6.500084014570227
 31
0.0
  0
LINE
  5
59A
330
18
100
AcDbEntity
  8
1
 62
     1
100
AcDbLine
 10
66.34992015849792
 20
6.5785
 30
0.0
 11
66.34992015849792
 21
6.578481901573171
 31
0.0
  0
LINE
  5
59B
330
18
100
AcDbEntity
  8
1
 62
     1
100
AcDbLine
 10
66.34992015849792
 20
6.578481901573171
 30
0.0
 11
66.34992015849792
 21
6.573189421633208
 31
0.0
  0
LINE
  5
59C
330
18
100
AcDbEntity
  8
1
 62
     1
100
AcDbLine
 10
66.34992015849792
 20
6.573189421633208
 30
0.0
 11
66.34992015849792
 21
6.500084014570227
 31
0.0
  0
LINE
  5
59D
330
18
100
AcDbEntity
  8
1
 62
     1
100
AcDbLine
 10
66.34992015849792
 20
6.500084014570225
 30
0.0
 11
66.98947368421054
 21
5.434940181663473
 31
0.0
  0
LINE
  5
59E
330
18
100
AcDbEntity
  8
1
 62
     1
100
AcDbLine
 10
66.98947368421054
 20
5.434940181663471
 30
0.0
 11
66.98947368421054
 21
5.470761315789473
 31
0.0
  0
LINE
  5
59F
330
18
100
AcDbEntity
  8
1
 62
     1
100
AcDbLine
 10
60.30526315789474
 20
5.434940181663473
 30
0.0
 11
60.94481668360736
 21
6.500084014570233
 31
0.0
  0
LINE
  5
5A0
330
18
100
AcDbEntity
  8
1
 62
     1
100
AcDbLine
 10
60.94481668360736
 20
6.5785
 30
0.0
 11
60.94481668360735
 21
6.578481901573171
 31
0.0
  0
LINE
  5
5A1
330
18
100
AcDbEntity
  8
1
 62
     1
100
AcDbLine
 10
60.94481668360735
 20
6.578481901573171
 30
0.0
 11
60.94481668360737
 21
6.573189421633208
 31
0.0
  0
LINE
  5
5A2
330
18
100
AcDbEntity
  8
1
 62
     1
100
AcDbLine
 10
60.94481668360737
 20
6.573189421633208
 30
0.0
 11
60.94481668360736
 21
6.500084014570227
 31
0.0
  0
LINE
  5
5A3
330
18
100
AcDbEntity
  8
1
 62
     1
100
AcDbLine
 10
57.63157894736842
 20
5.434940181663473
 30
0.0
 11
58.27113247308104
 21
6.500084014570233
 31
0.0
  0
LINE
  5
5A4
330
18
100
AcDbEntity
  8
1
 62
     1
100
AcDbLine
 10
58.27113247308104
 20
6.5785
 30
0.0
 11
58.27113247308104
 21
6.578481901573171
 31
0.0
  0
LINE
  5
5A5
330
18
100
AcDbEntity
  8
1
 62
     1
100
AcDbLine
 10
58.27113247308104
 20
6.578481901573171
 30
0.0
 11
58.27113247308103
 21
6.573189421633208
 31
0.0
  0
LINE
  5
5A6
330
18
100
AcDbEntity
  8
1
 62
     1
100
AcDbLine
 10
58.27113247308103
 20
6.573189421633208
 30
0.0
 11
58.27113247308102
 21
6.500084014570227
 31
0.0
  0
LINE
  5
5A7
330
18
100
AcDbEntity
  8
1
 62
     1
100
AcDbLine
 10
56.99202542165582
 20
6.5785
 30
0.0
 11
56.99202542165582
 21
6.578481901573171
 31
0.0
  0
LINE
  5
5A8
330
18
100
AcDbEntity
  8
1
 62
     1
100
AcDbLine
 10
56.99202542165582
 20
6.578481901573171
 30
0.0
 11
56.99202542165582
 21
6.573189421633208
 31
0.0
  0
LINE
  5
5A9
330
18
100
AcDbEntity
  8
1
 62
     1
100
AcDbLine
 10
56.99202542165582
 20
6.573189421633208
 30
0.0
 11
56.99202542165582
 21
6.500084014570227
 31
0.0
  0
LINE
  5
5AA
330
18
100
AcDbEntity
  8
1
 62
     1
100
AcDbLine
 10
56.99202542165581
 20
6.500084014570225
 30
0.0
 11
57.63157894736842
 21
5.434940181663473
 31
0.0
  0
LINE
  5
5AB
330
18
100
AcDbEntity
  8
1
 62
     1
100
AcDbLine
 10
57.63157894736842
 20
5.434940181663471
 30
0.0
 11
57.63157894736842
 21
5.470761315789473
 31
0.0
  0
LINE
  5
5AC
330
18
100
AcDbEntity
  8
1
 62
     1
100
AcDbLine
 10
56.29473684210526
 20
5.434940181663473
 30
0.0
 11
56.93429036781788
 21
6.500084014570233
 31
0.0
  0
LINE
  5
5AD
330
18
100
AcDbEntity
  8
1
 62
     1
100
AcDbLine
 10
56.93429036781788
 20
6.5785
 30
0.0
 11
56.93429036781788
 21
6.578481901573171
 31
0.0
  0
LINE
  5
5AE
330
18
100
AcDbEntity
  8
1
 62
     1
100
AcDbLine
 10
56.93429036781788
 20
6.578481901573171
 30
0.0
 11
56.93429036781788
 21
6.573189421633208
 31
0.0
  0
LINE
  5
5AF
330
18
100
AcDbEntity
  8
1
 62
     1
100
AcDbLine
 10
56.93429036781788
 20
6.573189421633208
 30
0.0
 11
56.93429036781788
 21
6.500084014570227
 31
0.0
  0
LINE
  5
5B0
330
18
100
AcDbEntity
  8
1
 62
     1
100
AcDbLine
 10
53.62105263157895
 20
5.434940181663473
 30
0.0
 11
54.26060615729157
 21
6.500084014570234
 31
0.0
  0
LINE
  5
5B1
330
18
100
AcDbEntity
  8
1
 62
     1
100
AcDbLine
 10
54.26060615729157
 20
6.5785
 30
0.0
 11
54.26060615729156
 21
6.578481901573171
 31
0.0
  0
LINE
  5
5B2
330
18
100
AcDbEntity
  8
1
 62
     1
100
AcDbLine
 10
54.26060615729156
 20
6.578481901573171
 30
0.0
 11
54.26060615729156
 21
6.573189421633208
 31
0.0
  0
LINE
  5
5B3
330
18
100
AcDbEntity
  8
1
 62
     1
100
AcDbLine
 10
54.26060615729156
 20
6.573189421633208
 30
0.0
 11
54.26060615729156
 21
6.500084014570227
 31
0.0
  0
LINE
  5
5B4
330
18
100
AcDbEntity
  8
1
 62
     1
100
AcDbLine
 10
54.31834121112952
 20
6.5785
 30
0.0
 11
54.31834121112952
 21
6.578481901573171
 31
0.0
  0
LINE
  5
5B5
330
18
100
AcDbEntity
  8
1
 62
     1
100
AcDbLine
 10
54.31834121112952
 20
6.578481901573171
 30
0.0
 11
54.31834121112952
 21
6.573189421633208
 31
0.0
  0
LINE
  5
5B6
330
18
100
AcDbEntity
  8
1
 62
     1
100
AcDbLine
 10
54.31834121112952
 20
6.573189421633208
 30
0.0
 11
54.31834121112951
 21
6.500084014570227
 31
0.0
  0
LINE
  5
5B7
330
18
100
AcDbEntity
  8
1
 62
     1
100
AcDbLine
 10
54.31834121112949
 20
6.500084014570223
 30
0.0
 11
54.95789473684211
 21
5.434940181663473
 31
0.0
  0
LINE
  5
5B8
330
18
100
AcDbEntity
  8
1
 62
     1
100
AcDbLine
 10
54.9578947368421
 20
5.434940181663471
 30
0.0
 11
54.95789473684211
 21
5.470761315789473
 31
0.0
  0
LINE
  5
5B9
330
18
100
AcDbEntity
  8
1
 62
     1
100
AcDbLine
 10
54.95789473684211
 20
5.434940181663473
 30
0.0
 11
55.59744826255472
 21
6.500084014570233
 31
0.0
  0
LINE
  5
5BA
330
18
100
AcDbEntity
  8
1
 62
     1
100
AcDbLine
 10
55.59744826255472
 20
6.5785
 30
0.0
 11
55.59744826255472
 21
6.578481901573171
 31
0.0
  0
LINE
  5
5BB
330
18
100
AcDbEntity
  8
1
 62
     1
100
AcDbLine
 10
55.59744826255472
 20
6.578481901573171
 30
0.0
 11
55.59744826255471
 21
6.573189421633208
 31
0.0
  0
LINE
  5
5BC
330
18
100
AcDbEntity
  8
1
 62
     1
100
AcDbLine
 10
55.59744826255471
 20
6.573189421633208
 30
0.0
 11
55.59744826255471
 21
6.500084014570227
 31
0.0
  0
LINE
  5
5BD
330
18
100
AcDbEntity
  8
1
 62
     1
100
AcDbLine
 10
55.65518331639266
 20
6.5785
 30
0.0
 11
55.65518331639266
 21
6.578481901573171
 31
0.0
  0
LINE
  5
5BE
330
18
100
AcDbEntity
  8
1
 62
     1
100
AcDbLine
 10
55.65518331639266
 20
6.578481901573171
 30
0.0
 11
55.65518331639266
 21
6.573189421633208
 31
0.0
  0
LINE
  5
5BF
330
18
100
AcDbEntity
  8
1
 62
     1
100
AcDbLine
 10
55.65518331639266
 20
6.573189421633208
 30
0.0
 11
55.65518331639265
 21
6.500084014570227
 31
0.0
  0
LINE
  5
5C0
330
18
100
AcDbEntity
  8
1
 62
     1
100
AcDbLine
 10
55.65518331639266
 20
6.500084014570225
 30
0.0
 11
56.29473684210527
 21
5.434940181663473
 31
0.0
  0
LINE
  5
5C1
330
18
100
AcDbEntity
  8
1
 62
     1
100
AcDbLine
 10
56.29473684210527
 20
5.434940181663471
 30
0.0
 11
56.29473684210527
 21
5.470761315789473
 31
0.0
  0
LINE
  5
5C2
330
18
100
AcDbEntity
  8
1
 62
     1
100
AcDbLine
 10
49.61052631578947
 20
5.434940181663471
 30
0.0
 11
49.61052631578948
 21
5.470761315789473
 31
0.0
  0
LINE
  5
5C3
330
18
100
AcDbEntity
  8
1
 62
     1
100
AcDbLine
 10
49.61052631578947
 20
5.434940181663473
 30
0.0
 11
50.2500798415021
 21
6.500084014570246
 31
0.0
  0
LINE
  5
5C4
330
18
100
AcDbEntity
  8
1
 62
     1
100
AcDbLine
 10
50.2500798415021
 20
6.5785
 30
0.0
 11
50.2500798415021
 21
6.578481901573171
 31
0.0
  0
LINE
  5
5C5
330
18
100
AcDbEntity
  8
1
 62
     1
100
AcDbLine
 10
50.2500798415021
 20
6.578481901573171
 30
0.0
 11
50.2500798415021
 21
6.573189421633208
 31
0.0
  0
LINE
  5
5C6
330
18
100
AcDbEntity
  8
1
 62
     1
100
AcDbLine
 10
50.2500798415021
 20
6.573189421633208
 30
0.0
 11
50.25007984150209
 21
6.500084014570227
 31
0.0
  0
LINE
  5
5C7
330
18
100
AcDbEntity
  8
1
 62
     1
100
AcDbLine
 10
49.48548651342465
 20
5.687336505475482
 30
0.0
 11
49.48548651342465
 21
5.687326391121413
 31
0.0
  0
LINE
  5
5C8
330
18
100
AcDbEntity
  8
1
 62
     1
100
AcDbLine
 10
49.48548651342465
 20
5.687326391121413
 30
0.0
 11
49.48548651342465
 21
5.684377344106888
 31
0.0
  0
LINE
  5
5C9
330
18
100
AcDbEntity
  8
1
 62
     1
100
AcDbLine
 10
49.48548651342465
 20
5.684377344106888
 30
0.0
 11
49.48548651342465
 21
5.643957448552603
 31
0.0
  0
LINE
  5
5CA
330
18
100
AcDbEntity
  8
1
 62
     1
100
AcDbLine
 10
49.48548651342464
 20
5.643957448552619
 30
0.0
 11
49.61052631578947
 21
5.434940181663473
 31
0.0
  0
LINE
  5
5CB
330
18
100
AcDbEntity
  8
1
 62
     1
100
AcDbLine
 10
50.30781489534004
 20
6.5785
 30
0.0
 11
50.30781489534004
 21
6.578481901573171
 31
0.0
  0
LINE
  5
5CC
330
18
100
AcDbEntity
  8
1
 62
     1
100
AcDbLine
 10
50.30781489534004
 20
6.578481901573171
 30
0.0
 11
50.30781489534004
 21
6.573189421633208
 31
0.0
  0
LINE
  5
5CD
330
18
100
AcDbEntity
  8
1
 62
     1
100
AcDbLine
 10
50.30781489534004
 20
6.573189421633208
 30
0.0
 11
50.30781489534003
 21
6.500084014570227
 31
0.0
  0
LINE
  5
5CE
330
18
100
AcDbEntity
  8
1
 62
     1
100
AcDbLine
 10
50.30781489534003
 20
6.500084014570225
 30
0.0
 11
50.94736842105263
 21
5.434940181663473
 31
0.0
  0
LINE
  5
5CF
330
18
100
AcDbEntity
  8
1
 62
     1
100
AcDbLine
 10
50.94736842105264
 20
5.434940181663471
 30
0.0
 11
50.94736842105264
 21
5.470761314970058
 31
0.0
  0
LINE
  5
5D0
330
18
100
AcDbEntity
  8
1
 62
     1
100
AcDbLine
 10
50.94736842105263
 20
5.434940181663473
 30
0.0
 11
51.58692194676526
 21
6.500084014570246
 31
0.0
  0
LINE
  5
5D1
330
18
100
AcDbEntity
  8
1
 62
     1
100
AcDbLine
 10
51.58692194676526
 20
6.5785
 30
0.0
 11
51.58692194676525
 21
6.578481901573171
 31
0.0
  0
LINE
  5
5D2
330
18
100
AcDbEntity
  8
1
 62
     1
100
AcDbLine
 10
51.58692194676525
 20
6.578481901573171
 30
0.0
 11
51.58692194676525
 21
6.573189421633208
 31
0.0
  0
LINE
  5
5D3
330
18
100
AcDbEntity
  8
1
 62
     1
100
AcDbLine
 10
51.58692194676525
 20
6.573189421633208
 30
0.0
 11
51.58692194676525
 21
6.500084014570227
 31
0.0
  0
LINE
  5
5D4
330
18
100
AcDbEntity
  8
1
 62
     1
100
AcDbLine
 10
51.64465700060318
 20
6.5785
 30
0.0
 11
51.64465700060317
 21
6.578481901573171
 31
0.0
  0
LINE
  5
5D5
330
18
100
AcDbEntity
  8
1
 62
     1
100
AcDbLine
 10
51.64465700060317
 20
6.578481901573171
 30
0.0
 11
51.64465700060318
 21
6.573189421633208
 31
0.0
  0
LINE
  5
5D6
330
18
100
AcDbEntity
  8
1
 62
     1
100
AcDbLine
 10
51.64465700060318
 20
6.573189421633208
 30
0.0
 11
51.64465700060317
 21
6.500084014570227
 31
0.0
  0
LINE
  5
5D7
330
18
100
AcDbEntity
  8
1
 62
     1
100
AcDbLine
 10
51.64465700060317
 20
6.500084014570232
 30
0.0
 11
52.28421052631579
 21
5.434940181663473
 31
0.0
  0
LINE
  5
5D8
330
18
100
AcDbEntity
  8
1
 62
     1
100
AcDbLine
 10
52.28421052631579
 20
5.434940181663471
 30
0.0
 11
52.28421052631579
 21
5.470761315789473
 31
0.0
  0
LINE
  5
5D9
330
18
100
AcDbEntity
  8
1
 62
     1
100
AcDbLine
 10
52.28421052631579
 20
5.434940181663473
 30
0.0
 11
52.9237640520284
 21
6.500084014570234
 31
0.0
  0
LINE
  5
5DA
330
18
100
AcDbEntity
  8
1
 62
     1
100
AcDbLine
 10
52.92376405202841
 20
6.5785
 30
0.0
 11
52.92376405202841
 21
6.578481901573171
 31
0.0
  0
LINE
  5
5DB
330
18
100
AcDbEntity
  8
1
 62
     1
100
AcDbLine
 10
52.92376405202841
 20
6.578481901573171
 30
0.0
 11
52.92376405202842
 21
6.573189421633208
 31
0.0
  0
LINE
  5
5DC
330
18
100
AcDbEntity
  8
1
 62
     1
100
AcDbLine
 10
52.92376405202842
 20
6.573189421633208
 30
0.0
 11
52.92376405202841
 21
6.500084014570227
 31
0.0
  0
LINE
  5
5DD
330
18
100
AcDbEntity
  8
1
 62
     1
100
AcDbLine
 10
52.98149910586636
 20
6.5785
 30
0.0
 11
52.98149910586636
 21
6.578481901573171
 31
0.0
  0
LINE
  5
5DE
330
18
100
AcDbEntity
  8
1
 62
     1
100
AcDbLine
 10
52.98149910586636
 20
6.578481901573171
 30
0.0
 11
52.98149910586636
 21
6.573189421633208
 31
0.0
  0
LINE
  5
5DF
330
18
100
AcDbEntity
  8
1
 62
     1
100
AcDbLine
 10
52.98149910586636
 20
6.573189421633208
 30
0.0
 11
52.98149910586636
 21
6.500084014570227
 31
0.0
  0
LINE
  5
5E0
330
18
100
AcDbEntity
  8
1
 62
     1
100
AcDbLine
 10
52.98149910586635
 20
6.500084014570223
 30
0.0
 11
53.62105263157895
 21
5.434940181663473
 31
0.0
  0
LINE
  5
5E1
330
18
100
AcDbEntity
  8
1
 62
     1
100
AcDbLine
 10
53.62105263157894
 20
5.434940181663471
 30
0.0
 11
53.62105263157895
 21
5.470761315789473
 31
0.0
  0
LINE
  5
5E2
330
18
100
AcDbEntity
  8
1
 62
     1
100
AcDbLine
 10
71.0
 20
5.434940181663472
 30
0.0
 11
71.0
 21
5.470761315789473
 31
0.0
  0
LINE
  5
5E3
330
18
100
AcDbEntity
  8
1
 62
     1
100
AcDbLine
 10
71.00000000000001
 20
5.016172514379936
 30
0.0
 11
71.00000000000001
 21
5.434940181663473
 31
0.0
  0
LINE
  5
5E4
330
18
100
AcDbEntity
  8
1
 62
     1
100
AcDbLine
 10
71.00000000000001
 20
5.016172514379937
 30
0.0
 11
71.00000000000001
 21
3.853314851892089
 31
0.0
  0
LINE
  5
5E5
330
18
100
AcDbEntity
  8
1
 62
     1
100
AcDbLine
 10
71.0
 20
-0.625023676414263
 30
0.0
 11
71.0
 21
3.853314851892089
 31
0.0
  0
LINE
  5
5E6
330
18
100
AcDbEntity
  8
1
 62
     1
100
AcDbLine
 10
71.0
 20
-3.883451303483335
 30
0.0
 11
71.0
 21
-1.380961974453044
 31
0.0
  0
LINE
  5
5E7
330
18
100
AcDbEntity
  8
1
 62
     1
100
AcDbLine
 10
71.0
 20
-5.470761315789473
 30
0.0
 11
71.00000000000001
 21
-5.470429037934313
 31
0.0
  0
LINE
  5
5E8
330
18
100
AcDbEntity
  8
1
 62
     1
100
AcDbLine
 10
71.00000000000001
 20
-5.470429037934313
 30
0.0
 11
71.0
 21
-5.368280500309318
 31
0.0
  0
LINE
  5
5E9
330
18
100
AcDbEntity
  8
1
 62
     1
100
AcDbLine
 10
71.0
 20
-5.368280500309318
 30
0.0
 11
71.0
 21
-3.883451303483335
 31
0.0
  0
LINE
  5
5EA
330
18
100
AcDbEntity
  8
1
 62
     1
100
AcDbLine
 10
70.76964651764749
 20
-4.411729861223829
 30
0.0
 11
70.01583594442612
 21
-4.68212722335713
 31
0.0
  0
LINE
  5
5EB
330
18
100
AcDbEntity
  8
1
 62
     1
100
AcDbLine
 10
69.17384597055029
 20
-4.977612799363889
 30
0.0
 11
68.86564156569942
 21
-5.084268994122064
 31
0.0
  0
LINE
  5
5EC
330
18
100
AcDbEntity
  8
1
 62
     1
100
AcDbLine
 10
66.34992015849791
 20
-5.29585554522802
 30
0.0
 11
66.29218510465996
 21
-5.29585554522802
 31
0.0
  0
LINE
  5
5ED
330
18
100
AcDbEntity
  8
1
 62
     1
100
AcDbLine
 10
65.01307805323478
 20
-5.29585554522802
 30
0.0
 11
64.95534299939685
 21
-5.29585554522802
 31
0.0
  0
LINE
  5
5EE
330
18
100
AcDbEntity
  8
1
 62
     1
100
AcDbLine
 10
59.66570963218213
 20
-5.29585554522802
 30
0.0
 11
59.60797457834418
 21
-5.295855545228018
 31
0.0
  0
LINE
  5
5EF
330
18
100
AcDbEntity
  8
1
 62
     1
100
AcDbLine
 10
58.32886752691898
 20
-5.29585554522802
 30
0.0
 11
58.27113247308104
 21
-5.295855545228023
 31
0.0
  0
LINE
  5
5F0
330
18
100
AcDbEntity
  8
1
 62
     1
100
AcDbLine
 10
56.99202542165583
 20
-5.29585554522802
 30
0.0
 11
56.93429036781789
 21
-5.295855545228023
 31
0.0
  0
LINE
  5
5F1
330
18
100
AcDbEntity
  8
1
 62
     1
100
AcDbLine
 10
55.65518331639267
 20
-5.29585554522802
 30
0.0
 11
55.59744826255471
 21
-5.29585554522802
 31
0.0
  0
LINE
  5
5F2
330
18
100
AcDbEntity
  8
1
 62
     1
100
AcDbLine
 10
52.98149910586637
 20
-5.29585554522802
 30
0.0
 11
52.92376405202842
 21
-5.29585554522802
 31
0.0
  0
LINE
  5
5F3
330
18
100
AcDbEntity
  8
1
 62
     1
100
AcDbLine
 10
51.64465700060317
 20
-5.29585554522802
 30
0.0
 11
51.58692194676524
 21
-5.295855545228019
 31
0.0
  0
LINE
  5
5F4
330
18
100
AcDbEntity
  8
1
 62
     1
100
AcDbLine
 10
49.48548651342465
 20
-4.173673844080174
 30
0.0
 11
49.29072519
 21
-3.717407299748394
 31
0.0
  0
LINE
  5
5F5
330
18
100
AcDbEntity
  8
1
 62
     1
100
AcDbLine
 10
49.29072519
 20
5.35
 30
0.0
 11
49.29072519
 21
5.349992546628171
 31
0.0
  0
LINE
  5
5F6
330
18
100
AcDbEntity
  8
1
 62
     1
100
AcDbLine
 10
49.29072519
 20
5.349992546628171
 30
0.0
 11
49.29072519000001
 21
5.347822388905659
 31
0.0
  0
LINE
  5
5F7
330
18
100
AcDbEntity
  8
1
 62
     1
100
AcDbLine
 10
49.29072519000001
 20
5.347822388905659
 30
0.0
 11
49.29072519
 21
5.318191249811698
 31
0.0
  0
LINE
  5
5F8
330
18
100
AcDbEntity
  8
1
 62
     1
100
AcDbLine
 10
49.29072519000001
 20
-3.717407299748395
 30
0.0
 11
49.29072519
 21
-5.349999998841287
 31
0.0
  0
LINE
  5
5F9
330
18
100
AcDbEntity
  8
1
 62
     1
100
AcDbLine
 10
49.29072519
 20
-1.380961974453044
 30
0.0
 11
49.29072519
 21
-3.717407299748394
 31
0.0
  0
LINE
  5
5FA
330
18
100
AcDbEntity
  8
1
 62
     1
100
AcDbLine
 10
49.29072519000001
 20
3.847516467512174
 30
0.0
 11
49.29072519
 21
-0.5825305403378356
 31
0.0
  0
LINE
  5
5FB
330
18
100
AcDbEntity
  8
1
 62
     1
100
AcDbLine
 10
49.29072519
 20
5.016172514379937
 30
0.0
 11
49.29072519
 21
3.847516467512658
 31
0.0
  0
LINE
  5
5FC
330
18
100
AcDbEntity
  8
1
 62
     1
100
AcDbLine
 10
49.29072519
 20
5.318191249811697
 30
0.0
 11
49.29072519
 21
5.016172514379942
 31
0.0
  0
LINE
  5
5FD
330
18
100
AcDbEntity
  8
1
 62
     1
100
AcDbLine
 10
71.0
 20
-0.6250236764142629
 30
0.0
 11
71.0
 21
-1.380961974453043
 31
0.0
  0
LINE
  5
5FE
330
18
100
AcDbEntity
  8
1
 62
     1
100
AcDbLine
 10
49.29072519
 20
-0.582530540337928
 30
0.0
 11
49.29072519
 21
-1.380961974453043
 31
0.0
  0
LINE
  5
5FF
330
18
100
AcDbEntity
  8
1
 62
     1
100
AcDbLine
 10
68.86564156569942
 20
6.40490052650127
 30
0.0
 11
68.3263157894737
 21
5.470761315789473
 31
0.0
  0
LINE
  5
600
330
18
100
AcDbEntity
  8
1
 62
     1
100
AcDbLine
 10
69.66315789473686
 20
5.470761315789473
 30
0.0
 11
69.17384597055029
 21
6.318274034076798
 31
0.0
  0
LINE
  5
601
330
18
100
AcDbEntity
  8
1
 62
     1
100
AcDbLine
 10
70.01583594442613
 20
6.081617331753781
 30
0.0
 11
69.66315789473684
 21
5.470761315789474
 31
0.0
  0
LINE
  5
602
330
18
100
AcDbEntity
  8
1
 62
     1
100
AcDbLine
 10
71.0
 20
5.470761315789473
 30
0.0
 11
70.76964651764749
 21
5.869745064898146
 31
0.0
  0
LINE
  5
603
330
18
100
AcDbEntity
  8
1
 62
     1
100
AcDbLine
 10
64.31578947368422
 20
5.470761315789473
 30
0.0
 11
63.6762359479716
 21
6.578499999999994
 31
0.0
  0
LINE
  5
604
330
18
100
AcDbEntity
  8
1
 62
     1
100
AcDbLine
 10
63.61850089413367
 20
6.578500000000019
 30
0.0
 11
62.97894736842106
 21
5.470761315789474
 31
0.0
  0
LINE
  5
605
330
18
100
AcDbEntity
  8
1
 62
     1
100
AcDbLine
 10
62.97894736842105
 20
5.470761315789472
 30
0.0
 11
62.33939384270844
 21
6.578500000000007
 31
0.0
  0
LINE
  5
606
330
18
100
AcDbEntity
  8
1
 62
     1
100
AcDbLine
 10
62.2816587888705
 20
6.578500000000005
 30
0.0
 11
61.6421052631579
 21
5.470761315789473
 31
0.0
  0
LINE
  5
607
330
18
100
AcDbEntity
  8
1
 62
     1
100
AcDbLine
 10
61.64210526315791
 20
5.470761315789474
 30
0.0
 11
61.0025517374453
 21
6.578499999999995
 31
0.0
  0
LINE
  5
608
330
18
100
AcDbEntity
  8
1
 62
     1
100
AcDbLine
 10
60.30526315789475
 20
5.470761315789473
 30
0.0
 11
59.66570963218214
 21
6.578499999999999
 31
0.0
  0
LINE
  5
609
330
18
100
AcDbEntity
  8
1
 62
     1
100
AcDbLine
 10
68.32631578947368
 20
5.470761315789474
 30
0.0
 11
67.68676226376107
 21
6.578500000000018
 31
0.0
  0
LINE
  5
60A
330
18
100
AcDbEntity
  8
1
 62
     1
100
AcDbLine
 10
58.96842105263158
 20
5.470761315789473
 30
0.0
 11
58.32886752691896
 21
6.578499999999998
 31
0.0
  0
LINE
  5
60B
330
18
100
AcDbEntity
  8
1
 62
     1
100
AcDbLine
 10
59.6079745783442
 20
6.578500000000004
 30
0.0
 11
58.96842105263158
 21
5.470761315789473
 31
0.0
  0
LINE
  5
60C
330
18
100
AcDbEntity
  8
1
 62
     1
100
AcDbLine
 10
64.95534299939683
 20
6.578500000000018
 30
0.0
 11
64.31578947368422
 21
5.470761315789472
 31
0.0
  0
LINE
  5
60D
330
18
100
AcDbEntity
  8
1
 62
     1
100
AcDbLine
 10
67.62902720992314
 20
6.578500000000002
 30
0.0
 11
66.98947368421054
 21
5.470761315789473
 31
0.0
  0
LINE
  5
60E
330
18
100
AcDbEntity
  8
1
 62
     1
100
AcDbLine
 10
65.65263157894738
 20
5.470761315789473
 30
0.0
 11
65.01307805323476
 21
6.578499999999998
 31
0.0
  0
LINE
  5
60F
330
18
100
AcDbEntity
  8
1
 62
     1
100
AcDbLine
 10
66.29218510465998
 20
6.578500000000003
 30
0.0
 11
65.65263157894738
 21
5.470761315789473
 31
0.0
  0
LINE
  5
610
330
18
100
AcDbEntity
  8
1
 62
     1
100
AcDbLine
 10
66.98947368421054
 20
5.470761315789473
 30
0.0
 11
66.34992015849792
 21
6.578499999999998
 31
0.0
  0
LINE
  5
611
330
18
100
AcDbEntity
  8
1
 62
     1
100
AcDbLine
 10
60.94481668360736
 20
6.578500000000005
 30
0.0
 11
60.30526315789474
 21
5.470761315789473
 31
0.0
  0
LINE
  5
612
330
18
100
AcDbEntity
  8
1
 62
     1
100
AcDbLine
 10
58.27113247308104
 20
6.578500000000005
 30
0.0
 11
57.63157894736842
 21
5.470761315789473
 31
0.0
  0
LINE
  5
613
330
18
100
AcDbEntity
  8
1
 62
     1
100
AcDbLine
 10
57.63157894736843
 20
5.470761315789473
 30
0.0
 11
56.99202542165581
 21
6.578499999999998
 31
0.0
  0
LINE
  5
614
330
18
100
AcDbEntity
  8
1
 62
     1
100
AcDbLine
 10
56.93429036781787
 20
6.578500000000005
 30
0.0
 11
56.29473684210527
 21
5.470761315789473
 31
0.0
  0
LINE
  5
615
330
18
100
AcDbEntity
  8
1
 62
     1
100
AcDbLine
 10
54.26060615729157
 20
6.578500000000006
 30
0.0
 11
53.62105263157895
 21
5.470761315789474
 31
0.0
  0
LINE
  5
616
330
18
100
AcDbEntity
  8
1
 62
     1
100
AcDbLine
 10
54.95789473684211
 20
5.470761315789473
 30
0.0
 11
54.3183412111295
 21
6.578499999999996
 31
0.0
  0
LINE
  5
617
330
18
100
AcDbEntity
  8
1
 62
     1
100
AcDbLine
 10
55.59744826255472
 20
6.578500000000005
 30
0.0
 11
54.95789473684211
 21
5.470761315789473
 31
0.0
  0
LINE
  5
618
330
18
100
AcDbEntity
  8
1
 62
     1
100
AcDbLine
 10
56.29473684210527
 20
5.470761315789473
 30
0.0
 11
55.65518331639265
 21
6.578499999999998
 31
0.0
  0
LINE
  5
619
330
18
100
AcDbEntity
  8
1
 62
     1
100
AcDbLine
 10
50.2500798415021
 20
6.578500000000019
 30
0.0
 11
49.61052631578948
 21
5.470761315789474
 31
0.0
  0
LINE
  5
61A
330
18
100
AcDbEntity
  8
1
 62
     1
100
AcDbLine
 10
49.61052631578948
 20
5.470761315789473
 30
0.0
 11
49.48548651342465
 21
5.687336505475482
 31
0.0
  0
LINE
  5
61B
330
18
100
AcDbEntity
  8
1
 62
     1
100
AcDbLine
 10
50.94736842105264
 20
5.470761315789473
 30
0.0
 11
50.30781489534003
 21
6.578499999999998
 31
0.0
  0
LINE
  5
61C
330
18
100
AcDbEntity
  8
1
 62
     1
100
AcDbLine
 10
51.58692194676526
 20
6.578500000000019
 30
0.0
 11
50.94736842105264
 21
5.470761315789472
 31
0.0
  0
LINE
  5
61D
330
18
100
AcDbEntity
  8
1
 62
     1
100
AcDbLine
 10
52.28421052631579
 20
5.470761315789473
 30
0.0
 11
51.64465700060319
 21
6.578500000000005
 31
0.0
  0
LINE
  5
61E
330
18
100
AcDbEntity
  8
1
 62
     1
100
AcDbLine
 10
52.9237640520284
 20
6.578500000000006
 30
0.0
 11
52.28421052631579
 21
5.470761315789472
 31
0.0
  0
LINE
  5
61F
330
18
100
AcDbEntity
  8
1
 62
     1
100
AcDbLine
 10
53.62105263157895
 20
5.470761315789473
 30
0.0
 11
52.98149910586635
 21
6.578499999999996
 31
0.0
  0
LINE
  5
620
330
18
100
AcDbEntity
  8
1
 62
     1
100
AcDbLine
 10
70.01583594442612
 20
-6.081617331753777
 30
0.0
 11
70.76964651764749
 21
-5.869745064898135
 31
0.0
  0
LINE
  5
621
330
18
100
AcDbEntity
  8
1
 62
     1
100
AcDbLine
 10
68.86564156569942
 20
-6.40490052650127
 30
0.0
 11
69.17384597055029
 21
-6.318274034076797
 31
0.0
  0
LINE
  5
622
330
18
100
AcDbEntity
  8
1
 62
     1
100
AcDbLine
 10
67.62902720992314
 20
-6.5785
 30
0.0
 11
67.68676226376108
 21
-6.5785
 31
0.0
  0
LINE
  5
623
330
18
100
AcDbEntity
  8
1
 62
     1
100
AcDbLine
 10
66.29218510465996
 20
-6.5785
 30
0.0
 11
66.34992015849794
 21
-6.5785
 31
0.0
  0
LINE
  5
624
330
18
100
AcDbEntity
  8
1
 62
     1
100
AcDbLine
 10
64.95534299939685
 20
-6.5785
 30
0.0
 11
65.01307805323479
 21
-6.5785
 31
0.0
  0
LINE
  5
625
330
18
100
AcDbEntity
  8
1
 62
     1
100
AcDbLine
 10
63.61850089413367
 20
-6.5785
 30
0.0
 11
63.67623594797165
 21
-6.5785
 31
0.0
  0
LINE
  5
626
330
18
100
AcDbEntity
  8
1
 62
     1
100
AcDbLine
 10
62.28165878887052
 20
-6.5785
 30
0.0
 11
62.33939384270845
 21
-6.5785
 31
0.0
  0
LINE
  5
627
330
18
100
AcDbEntity
  8
1
 62
     1
100
AcDbLine
 10
60.94481668360736
 20
-6.5785
 30
0.0
 11
61.00255173744532
 21
-6.5785
 31
0.0
  0
LINE
  5
628
330
18
100
AcDbEntity
  8
1
 62
     1
100
AcDbLine
 10
59.6079745783442
 20
-6.5785
 30
0.0
 11
59.66570963218216
 21
-6.578500000000001
 31
0.0
  0
LINE
  5
629
330
18
100
AcDbEntity
  8
1
 62
     1
100
AcDbLine
 10
58.27113247308104
 20
-6.5785
 30
0.0
 11
58.32886752691898
 21
-6.5785
 31
0.0
  0
LINE
  5
62A
330
18
100
AcDbEntity
  8
1
 62
     1
100
AcDbLine
 10
56.93429036781788
 20
-6.5785
 30
0.0
 11
56.99202542165584
 21
-6.5785
 31
0.0
  0
LINE
  5
62B
330
18
100
AcDbEntity
  8
1
 62
     1
100
AcDbLine
 10
55.59744826255471
 20
-6.578499999999999
 30
0.0
 11
55.65518331639267
 21
-6.578499999999999
 31
0.0
  0
LINE
  5
62C
330
18
100
AcDbEntity
  8
1
 62
     1
100
AcDbLine
 10
54.26060615729155
 20
-6.578499999999999
 30
0.0
 11
54.31834121112951
 21
-6.578499999999999
 31
0.0
  0
LINE
  5
62D
330
18
100
AcDbEntity
  8
1
 62
     1
100
AcDbLine
 10
52.9237640520284
 20
-6.5785
 30
0.0
 11
52.98149910586636
 21
-6.5785
 31
0.0
  0
LINE
  5
62E
330
18
100
AcDbEntity
  8
1
 62
     1
100
AcDbLine
 10
51.58692194676525
 20
-6.578499999999999
 30
0.0
 11
51.64465700060318
 21
-6.578499999999999
 31
0.0
  0
LINE
  5
62F
330
18
100
AcDbEntity
  8
1
 62
     1
100
AcDbLine
 10
50.25007984150209
 20
-6.578499999999999
 30
0.0
 11
50.30781489534004
 21
-6.578499999999999
 31
0.0
  0
LINE
  5
630
330
18
100
AcDbEntity
  8
1
 62
     1
100
AcDbLine
 10
49.29072519
 20
-5.350000000000001
 30
0.0
 11
49.48548651342466
 21
-5.687336505475481
 31
0.0
  0
LINE
  5
631
330
18
100
AcDbEntity
  8
SK1
100
AcDbLine
 10
0.0000000000000036
 20
5.5
 30
0.0
 11
-17.0
 21
5.5
 31
0.0
  0
LINE
  5
632
330
18
100
AcDbEntity
  8
SK1
100
AcDbLine
 10
-29.0
 20
-4.5
 30
0.0
 11
-28.45000000000001
 21
-4.5
 31
0.0
  0
LINE
  5
633
330
18
100
AcDbEntity
  8
SK1
100
AcDbLine
 10
-28.45
 20
-4.5
 30
0.0
 11
-17.0
 21
-4.5
 31
0.0
  0
LINE
  5
634
330
18
100
AcDbEntity
  8
SK1
100
AcDbLine
 10
-17.0
 20
-4.500000000000001
 30
0.0
 11
-17.0
 21
-5.5
 31
0.0
  0
LINE
  5
635
330
18
100
AcDbEntity
  8
SK1
100
AcDbLine
 10
-29.0
 20
4.499999999999999
 30
0.0
 11
-28.45
 21
4.499999999999999
 31
0.0
  0
LINE
  5
636
330
18
100
AcDbEntity
  8
SK1
100
AcDbLine
 10
-28.45000000000001
 20
3.162277660168383
 30
0.0
 11
-17.0
 21
3.162277660168383
 31
0.0
  0
LINE
  5
637
330
18
100
AcDbEntity
  8
SK1
100
AcDbLine
 10
-28.45
 20
4.5
 30
0.0
 11
-17.0
 21
4.5
 31
0.0
  0
ARC
  5
638
330
18
100
AcDbEntity
  8
SK1
100
AcDbCircle
 10
-20.24734931215675
 20
-1.632121952865278
 30
0.0
 40
9.500461241837659
100
AcDbArc
 50
149.6939729430381
 51
157.1165744850045
  0
LINE
  5
639
330
18
100
AcDbEntity
  8
SK1
100
AcDbLine
 10
-28.45000000000001
 20
4.5
 30
0.0
 11
-28.45
 21
3.162277660168382
 31
0.0
  0
LINE
  5
63A
330
18
100
AcDbEntity
  8
SK1
100
AcDbLine
 10
-29.0
 20
4.500000000000001
 30
0.0
 11
-28.45
 21
4.500000000000002
 31
0.0
  0
LINE
  5
63B
330
18
100
AcDbEntity
  8
SK1
100
AcDbLine
 10
-17.0
 20
5.5
 30
0.0
 11
-17.0
 21
5.499789290881576
 31
0.0
  0
LINE
  5
63C
330
18
100
AcDbEntity
  8
SK1
100
AcDbLine
 10
-17.0
 20
5.499789290881576
 30
0.0
 11
-17.0
 21
5.435788300691358
 31
0.0
  0
LINE
  5
63D
330
18
100
AcDbEntity
  8
SK1
100
AcDbLine
 10
-17.0
 20
5.435788300691358
 30
0.0
 11
-17.0
 21
4.500000000000001
 31
0.0
  0
LINE
  5
63E
330
18
100
AcDbEntity
  8
SK1
100
AcDbLine
 10
-28.45
 20
-3.162277660168376
 30
0.0
 11
-17.0
 21
-3.162277660168376
 31
0.0
  0
LINE
  5
63F
330
18
100
AcDbEntity
  8
SK1
100
AcDbLine
 10
-29.0
 20
4.499999999999999
 30
0.0
 11
-29.0
 21
2.06215906273013
 31
0.0
  0
LINE
  5
640
330
18
100
AcDbEntity
  8
SK1
100
AcDbLine
 10
-29.0
 20
-2.06215906273013
 30
0.0
 11
-29.0
 21
-4.5
 31
0.0
  0
ARC
  5
641
330
18
100
AcDbEntity
  8
SK1
100
AcDbCircle
 10
-20.24734931215312
 20
1.632121952867184
 30
0.0
 40
9.500461241841746
100
AcDbArc
 50
202.8834255149976
 51
210.3060270569608
  0
LINE
  5
642
330
18
100
AcDbEntity
  8
SK1
100
AcDbLine
 10
-29.0
 20
-4.5
 30
0.0
 11
-28.45
 21
-4.5
 31
0.0
  0
LINE
  5
643
330
18
100
AcDbEntity
  8
SK1
100
AcDbLine
 10
-28.45
 20
-3.162277660168376
 30
0.0
 11
-28.45
 21
-4.499999999999999
 31
0.0
  0
LINE
  5
644
330
18
100
AcDbEntity
  8
SK1
100
AcDbLine
 10
-17.0
 20
3.162277660168381
 30
0.0
 11
-17.0
 21
-3.16227766016838
 31
0.0
  0
LINE
  5
645
330
18
100
AcDbEntity
  8
SK1
100
AcDbLine
 10
-29.0
 20
2.062159062730129
 30
0.0
 11
-29.0
 21
-2.062159062730128
 31
0.0
  0
LINE
  5
646
330
18
100
AcDbEntity
  8
SK1
100
AcDbLine
 10
-17.0
 20
-5.5
 30
0.0
 11
0.0000000000000049
 21
-5.5
 31
0.0
  0
DIMENSION
  5
647
330
18
100
AcDbEntity
  8
2
100
AcDbDimension
  2
*D0
 10
86.00000000000006
 20
-6.578499999999948
 30
0.0
 11
82.8007500000001
 21
-20.81424999999996
 31
0.0
 70
    32
  1
G1/4-19
 71
     5
 42
13.157
  3
STANDARD
100
AcDbAlignedDimension
 13
71.0
 23
6.5785
 33
0.0
 14
71.0
 24
-6.5785
 34
0.0
 50
90.0000000000002
100
AcDbRotatedDimension
  0
DIMENSION
  5
655
330
18
100
AcDbEntity
  8
2
100
AcDbDimension
  2
*D1
 10
71.0
 20
75.0
 30
0.0
 11
35.5
 21
77.38025
 31
0.0
 70
    32
  1
<>
 71
     5
 42
71.0
  3
STANDARD
100
AcDbAlignedDimension
 13
0.0
 23
0.0
 33
0.0
 14
71.0
 24
0.0
 34
0.0
100
AcDbRotatedDimension
  0
DIMENSION
  5
662
330
18
100
AcDbEntity
  8
SK2
100
AcDbDimension
  2
*D2
 10
-43.99999999997193
 20
-5.500000000137792
 30
0.0
 11
-46.39075
 21
-0.0000000001499935
 31
0.0
 70
    32
  1
%%c<>
 71
     5
 42
11.0
  3
STANDARD
100
AcDbAlignedDimension
 13
-17.0
 23
5.5
 33
0.0
 14
-17.0
 24
-5.5
 34
0.0
 50
90.0000000002924
100
AcDbRotatedDimension
  0
DIMENSION
  5
66F
330
18
100
AcDbEntity
  8
2
100
AcDbDimension
  2
*D3
 10
71.0
 20
60.0
 30
0.0
 11
60.145362595
 21
62.39775
 31
0.0
 70
    32
  1
<>
 71
     5
 42
21.70927481
  3
STANDARD
100
AcDbAlignedDimension
 13
49.29072519
 23
5.35
 33
0.0
 14
71.0
 24
6.5785
 34
0.0
100
AcDbRotatedDimension
  0
DIMENSION
  5
67C
330
18
100
AcDbEntity
  8
SK2
100
AcDbDimension
  2
*D4
 10
71.0
 20
90.0
 30
0.0
 11
21.0
 21
92.39075
 31
0.0
 70
    32
  1
<>
 71
     5
 42
100.0
  3
STANDARD
100
AcDbAlignedDimension
 13
-29.0
 23
6.5785
 33
0.0
 14
71.0
 24
6.5785
 34
0.0
100
AcDbRotatedDimension
  0
ENDSEC
  0
SECTION
  2
OBJECTS
  0
DICTIONARY
  5
C
330
0
100
AcDbDictionary
281
     1
  3
ACAD_COLOR
350
387
  3
ACAD_GROUP
350
D
  3
ACAD_LAYOUT
350
301
  3
ACAD_MATERIAL
350
386
  3
ACAD_MLEADERSTYLE
350
689
  3
ACAD_MLINESTYLE
350
E
  3
ACAD_PLOTSETTINGS
350
302
  3
ACAD_PLOTSTYLENAME
350
2FF
  3
ACAD_SCALELIST
350
3A0
  3
ACAD_TABLESTYLE
350
388
  3
ACAD_VISUALSTYLE
350
3C5
  3
ACDBHEADERROUNDTRIPXREC
350
68A
  3
AcDbVariableDictionary
350
357
  0
DICTIONARY
  5
387
102
{ACAD_REACTORS
330
C
102
}
330
C
100
AcDbDictionary
281
     1
  0
DICTIONARY
  5
D
102
{ACAD_REACTORS
330
C
102
}
330
C
100
AcDbDictionary
281
     1
  0
DICTIONARY
  5
301
102
{ACAD_REACTORS
330
C
102
}
330
C
100
AcDbDictionary
281
     1
  3
Layout1
350
33B
  3
Model
350
303
  0
DICTIONARY
  5
386
102
{ACAD_REACTORS
330
C
102
}
330
C
100
AcDbDictionary
281
     1
  3
ByBlock
350
3C3
  3
ByLayer
350
3C2
  3
Global
350
3C4
  0
DICTIONARY
  5
689
102
{ACAD_REACTORS
330
C
102
}
330
C
100
AcDbDictionary
281
     1
  0
DICTIONARY
  5
E
102
{ACAD_REACTORS
330
C
102
}
330
C
100
AcDbDictionary
281
     1
  3
STANDARD
350
1B
  0
DICTIONARY
  5
302
102
{ACAD_REACTORS
330
C
102
}
330
C
100
AcDbDictionary
281
     1
  0
ACDBDICTIONARYWDFLT
  5
2FF
102
{ACAD_REACTORS
330
C
102
}
330
C
100
AcDbDictionary
281
     1
  3
Normal
350
300
100
AcDbDictionaryWithDefault
340
300
  0
DICTIONARY
  5
3A0
102
{ACAD_REACTORS
330
C
102
}
330
C
100
AcDbDictionary
281
     1
  3
A0
350
3A1
  3
A1
350
3A2
  3
A2
350
3A3
  3
A3
350
3A4
  3
A4
350
3A5
  3
A5
350
3A6
  3
A6
350
3A7
  3
A7
350
3A8
  3
A8
350
3A9
  3
A9
350
3AA
  3
B0
350
3AB
  3
B1
350
3AC
  3
B2
350
3AD
  3
B3
350
3AE
  3
B4
350
3AF
  3
B5
350
3B0
  3
B6
350
3B1
  3
B7
350
3B2
  3
B8
350
3B3
  3
B9
350
3B4
  3
C0
350
3B5
  3
C1
350
3B6
  3
C2
350
3B7
  3
C3
350
3B8
  3
C4
350
3B9
  3
C5
350
3BA
  3
C6
350
3BB
  3
C7
350
3BC
  3
C8
350
3BD
  3
C9
350
3BE
  3
D0
350
3BF
  3
D1
350
3C0
  3
D2
350
3C1
  0
DICTIONARY
  5
388
102
{ACAD_REACTORS
330
C
102
}
330
C
100
AcDbDictionary
281
     1
  3
Standard
350
389
  0
DICTIONARY
  5
3C5
102
{ACAD_REACTORS
330
C
102
}
330
C
100
AcDbDictionary
281
     1
  3
2dWireframe
350
3CA
  3
3D Hidden
350
3CC
  3
3dWireframe
350
3CB
  3
Basic
350
3CD
  3
Brighten
350
3D1
  3
ColorChange
350
3D5
  3
Conceptual
350
3CF
  3
Dim
350
3D0
  3
Facepattern
350
3D4
  3
Flat
350
3C6
  3
FlatWithEdges
350
3C7
  3
Gouraud
350
3C8
  3
GouraudWithEdges
350
3C9
  3
Linepattern
350
3D3
  3
Realistic
350
3CE
  3
Thicken
350
3D2
  0
DICTIONARY
  5
68A
102
{ACAD_REACTORS
330
C
102
}
330
C
100
AcDbDictionary
281
     1
  3
COLORDICT
350
68B
  3
MATERIALDICT
350
68C
  0
DICTIONARY
  5
357
102
{ACAD_REACTORS
330
C
102
}
330
C
100
AcDbDictionary
281
     1
  3
CANNOSCALE
350
68D
  3
CTABLESTYLE
350
38D
  3
DIMASSOC
350
359
  3
HIDETEXT
350
358
  3
PROJECTNAME
350
38E
  0
LAYOUT
  5
33B
102
{ACAD_REACTORS
330
301
102
}
330
301
100
AcDbPlotSettings
  1

  2
Lexmark Optra PS2
  4

  6

 40
0.0
 41
0.0
 42
0.0
 43
0.0
 44
0.0
 45
0.0
 46
0.0
 47
0.0
 48
0.0
 49
0.0
140
0.0
141
0.0
142
1.0
143
1.0
 70
   688
 72
     0
 73
     0
 74
     5
  7
monochrome.ctb
 75
    16
147
1.0
148
0.0
149
0.0
100
AcDbLayout
  1
Layout1
 70
     1
 71
     1
 10
0.0
 20
0.0
 11
12.0
 21
9.0
 12
0.0
 22
0.0
 32
0.0
 14
0.0
 24
0.0
 34
0.0
 15
0.0
 25
0.0
 35
0.0
146
0.0
 13
0.0
 23
0.0
 33
0.0
 16
1.0
 26
0.0
 36
0.0
 17
0.0
 27
1.0
 37
0.0
 76
     0
330
338
  0
LAYOUT
  5
303
102
{ACAD_REACTORS
330
301
102
}
330
301
100
AcDbPlotSettings
  1

  2
Lexmark Optra Rx
  4
A4
  6

 40
6.805083274841307
 41
5.535083293914794
 42
6.974411010742187
 43
7.14373779296875
 44
209.9733276367186
 45
296.9259948730469
 46
0.0
 47
0.0
 48
0.0
 49
0.0
140
0.0
141
0.0
142
1.0
143
2.976565420630886
 70
 11952
 72
     1
 73
     1
 74
     0
  7
monochrome.ctb
 75
     0
147
0.335957675604539
148
204.1199660668592
149
172.3933209647495
100
AcDbLayout
  1
Model
 70
     1
 71
     0
 10
0.0
 20
0.0
 11
12.0
 21
9.0
 12
0.0
 22
0.0
 32
0.0
 14
0.0
 24
0.0
 34
0.0
 15
0.0
 25
0.0
 35
0.0
146
0.0
 13
0.0
 23
0.0
 33
0.0
 16
1.0
 26
0.0
 36
0.0
 17
0.0
 27
1.0
 37
0.0
 76
     0
330
18
331
39A
  0
MATERIAL
  5
3C3
102
{ACAD_REACTORS
330
386
102
}
102
{ACAD_XDICTIONARY
360
690
102
}
330
386
100
AcDbMaterial
  1
ByBlock
  0
MATERIAL
  5
3C2
102
{ACAD_REACTORS
330
386
102
}
102
{ACAD_XDICTIONARY
360
68E
102
}
330
386
100
AcDbMaterial
  1
ByLayer
  0
MATERIAL
  5
3C4
102
{ACAD_REACTORS
330
386
102
}
102
{ACAD_XDICTIONARY
360
692
102
}
330
386
100
AcDbMaterial
  1
Global
  0
MLINESTYLE
  5
1B
102
{ACAD_REACTORS
330
E
102
}
330
E
100
AcDbMlineStyle
  2
STANDARD
 70
     0
  3

 62
     0
 51
90.0
 52
90.0
 71
     2
 49
0.5
 62
   256
  6
BYLAYER
 49
-0.5
 62
   256
  6
BYLAYER
  0
ACDBPLACEHOLDER
  5
300
102
{ACAD_REACTORS
330
2FF
102
}
330
2FF
  0
SCALE
  5
3A1
102
{ACAD_REACTORS
330
3A0
102
}
330
3A0
100
AcDbScale
 70
     0
300
1:1
140
1.0
141
1.0
290
     1
  0
SCALE
  5
3A2
102
{ACAD_REACTORS
330
3A0
102
}
330
3A0
100
AcDbScale
 70
     0
300
1:2
140
1.0
141
2.0
290
     0
  0
SCALE
  5
3A3
102
{ACAD_REACTORS
330
3A0
102
}
330
3A0
100
AcDbScale
 70
     0
300
1:4
140
1.0
141
4.0
290
     0
  0
SCALE
  5
3A4
102
{ACAD_REACTORS
330
3A0
102
}
330
3A0
100
AcDbScale
 70
     0
300
1:5
140
1.0
141
5.0
290
     0
  0
SCALE
  5
3A5
102
{ACAD_REACTORS
330
3A0
102
}
330
3A0
100
AcDbScale
 70
     0
300
1:8
140
1.0
141
8.0
290
     0
  0
SCALE
  5
3A6
102
{ACAD_REACTORS
330
3A0
102
}
330
3A0
100
AcDbScale
 70
     0
300
1:10
140
1.0
141
10.0
290
     0
  0
SCALE
  5
3A7
102
{ACAD_REACTORS
330
3A0
102
}
330
3A0
100
AcDbScale
 70
     0
300
1:16
140
1.0
141
16.0
290
     0
  0
SCALE
  5
3A8
102
{ACAD_REACTORS
330
3A0
102
}
330
3A0
100
AcDbScale
 70
     0
300
1:20
140
1.0
141
20.0
290
     0
  0
SCALE
  5
3A9
102
{ACAD_REACTORS
330
3A0
102
}
330
3A0
100
AcDbScale
 70
     0
300
1:30
140
1.0
141
30.0
290
     0
  0
SCALE
  5
3AA
102
{ACAD_REACTORS
330
3A0
102
}
330
3A0
100
AcDbScale
 70
     0
300
1:40
140
1.0
141
40.0
290
     0
  0
SCALE
  5
3AB
102
{ACAD_REACTORS
330
3A0
102
}
330
3A0
100
AcDbScale
 70
     0
300
1:50
140
1.0
141
50.0
290
     0
  0
SCALE
  5
3AC
102
{ACAD_REACTORS
330
3A0
102
}
330
3A0
100
AcDbScale
 70
     0
300
1:100
140
1.0
141
100.0
290
     0
  0
SCALE
  5
3AD
102
{ACAD_REACTORS
330
3A0
102
}
330
3A0
100
AcDbScale
 70
     0
300
2:1
140
2.0
141
1.0
290
     0
  0
SCALE
  5
3AE
102
{ACAD_REACTORS
330
3A0
102
}
330
3A0
100
AcDbScale
 70
     0
300
4:1
140
4.0
141
1.0
290
     0
  0
SCALE
  5
3AF
102
{ACAD_REACTORS
330
3A0
102
}
330
3A0
100
AcDbScale
 70
     0
300
8:1
140
8.0
141
1.0
290
     0
  0
SCALE
  5
3B0
102
{ACAD_REACTORS
330
3A0
102
}
330
3A0
100
AcDbScale
 70
     0
300
10:1
140
10.0
141
1.0
290
     0
  0
SCALE
  5
3B1
102
{ACAD_REACTORS
330
3A0
102
}
330
3A0
100
AcDbScale
 70
     0
300
100:1
140
100.0
141
1.0
290
     0
  0
SCALE
  5
3B2
102
{ACAD_REACTORS
330
3A0
102
}
330
3A0
100
AcDbScale
 70
     0
300
1/128" = 1'-0"
140
0.0078125
141
12.0
290
     0
  0
SCALE
  5
3B3
102
{ACAD_REACTORS
330
3A0
102
}
330
3A0
100
AcDbScale
 70
     0
300
1/64" = 1'-0"
140
0.015625
141
12.0
290
     0
  0
SCALE
  5
3B4
102
{ACAD_REACTORS
330
3A0
102
}
330
3A0
100
AcDbScale
 70
     0
300
1/32" = 1'-0"
140
0.03125
141
12.0
290
     0
  0
SCALE
  5
3B5
102
{ACAD_REACTORS
330
3A0
102
}
330
3A0
100
AcDbScale
 70
     0
300
1/16" = 1'-0"
140
0.0625
141
12.0
290
     0
  0
SCALE
  5
3B6
102
{ACAD_REACTORS
330
3A0
102
}
330
3A0
100
AcDbScale
 70
     0
300
3/32" = 1'-0"
140
0.09375
141
12.0
290
     0
  0
SCALE
  5
3B7
102
{ACAD_REACTORS
330
3A0
102
}
330
3A0
100
AcDbScale
 70
     0
300
1/8" = 1'-0"
140
0.125
141
12.0
290
     0
  0
SCALE
  5
3B8
102
{ACAD_REACTORS
330
3A0
102
}
330
3A0
100
AcDbScale
 70
     0
300
3/16" = 1'-0"
140
0.1875
141
12.0
290
     0
  0
SCALE
  5
3B9
102
{ACAD_REACTORS
330
3A0
102
}
330
3A0
100
AcDbScale
 70
     0
300
1/4" = 1'-0"
140
0.25
141
12.0
290
     0
  0
SCALE
  5
3BA
102
{ACAD_REACTORS
330
3A0
102
}
330
3A0
100
AcDbScale
 70
     0
300
3/8" = 1'-0"
140
0.375
141
12.0
290
     0
  0
SCALE
  5
3BB
102
{ACAD_REACTORS
330
3A0
102
}
330
3A0
100
AcDbScale
 70
     0
300
1/2" = 1'-0"
140
0.5
141
12.0
290
     0
  0
SCALE
  5
3BC
102
{ACAD_REACTORS
330
3A0
102
}
330
3A0
100
AcDbScale
 70
     0
300
3/4" = 1'-0"
140
0.75
141
12.0
290
     0
  0
SCALE
  5
3BD
102
{ACAD_REACTORS
330
3A0
102
}
330
3A0
100
AcDbScale
 70
     0
300
1" = 1'-0"
140
1.0
141
12.0
290
     0
  0
SCALE
  5
3BE
102
{ACAD_REACTORS
330
3A0
102
}
330
3A0
100
AcDbScale
 70
     0
300
1-1/2" = 1'-0"
140
1.5
141
12.0
290
     0
  0
SCALE
  5
3BF
102
{ACAD_REACTORS
330
3A0
102
}
330
3A0
100
AcDbScale
 70
     0
300
3" = 1'-0"
140
3.0
141
12.0
290
     0
  0
SCALE
  5
3C0
102
{ACAD_REACTORS
330
3A0
102
}
330
3A0
100
AcDbScale
 70
     0
300
6" = 1'-0"
140
6.0
141
12.0
290
     0
  0
SCALE
  5
3C1
102
{ACAD_REACTORS
330
3A0
102
}
330
3A0
100
AcDbScale
 70
     0
300
1'-0" = 1'-0"
140
12.0
141
12.0
290
     0
  0
TABLESTYLE
  5
389
102
{ACAD_REACTORS
330
388
102
}
330
388
100
AcDbTableStyle
  3
Standard
 70
     0
 71
     0
 40
1.5
 41
1.5
280
     0
281
     0
  7
STANDARD
140
4.5
170
     2
 62
     0
 63
   257
283
     0
274
    -2
284
     1
 64
     0
275
    -2
285
     1
 65
     0
276
    -2
286
     1
 66
     0
277
    -2
287
     1
 67
     0
278
    -2
288
     1
 68
     0
279
    -2
289
     1
 69
     0
  7
STANDARD
140
6.0
170
     5
 62
     0
 63
   257
283
     0
274
    -2
284
     1
 64
     0
275
    -2
285
     1
 65
     0
276
    -2
286
     1
 66
     0
277
    -2
287
     1
 67
     0
278
    -2
288
     1
 68
     0
279
    -2
289
     1
 69
     0
  7
STANDARD
140
4.5
170
     5
 62
     0
 63
   257
283
     0
274
    -2
284
     1
 64
     0
275
    -2
285
     1
 65
     0
276
    -2
286
     1
 66
     0
277
    -2
287
     1
 67
     0
278
    -2
288
     1
 68
     0
279
    -2
289
     1
 69
     0
  0
VISUALSTYLE
  5
3CA
102
{ACAD_REACTORS
330
3C5
102
}
102
{ACAD_XDICTIONARY
360
69C
102
}
330
3C5
100
AcDbVisualStyle
  2
2dWireframe
 70
     4
 71
     0
 72
     2
 73
     0
 90
        0
 40
-0.6
 41
-30.0
 62
     5
 63
     7
 74
     1
 91
        4
 64
     7
 65
   257
 75
     1
175
     1
 42
1.0
 92
        0
 66
   257
 43
1.0
 76
     1
 77
     6
 78
     2
 67
     7
 79
     5
170
     0
171
     0
290
     0
174
     0
 93
        1
 44
0.0
173
     0
291
     0
 45
0.0
1001
ACAD
1000
AcDbSavedByObjectVersion
1070
     0
  0
VISUALSTYLE
  5
3CC
102
{ACAD_REACTORS
330
3C5
102
}
102
{ACAD_XDICTIONARY
360
6A0
102
}
330
3C5
100
AcDbVisualStyle
  2
3D Hidden
 70
     6
 71
     1
 72
     2
 73
     2
 90
        0
 40
-0.6
 41
-30.0
 62
     5
 63
     7
 74
     2
 91
        2
 64
     7
 65
   257
 75
     2
175
     1
 42
40.0
 92
        0
 66
   257
 43
1.0
 76
     1
 77
     6
 78
     2
 67
     7
 79
     3
170
     0
171
     0
290
     0
174
     0
 93
        1
 44
0.0
173
     0
291
     0
 45
0.0
1001
ACAD
1000
AcDbSavedByObjectVersion
1070
     0
  0
VISUALSTYLE
  5
3CB
102
{ACAD_REACTORS
330
3C5
102
}
102
{ACAD_XDICTIONARY
360
69E
102
}
330
3C5
100
AcDbVisualStyle
  2
3dWireframe
 70
     5
 71
     0
 72
     2
 73
     0
 90
        0
 40
-0.6
 41
-30.0
 62
     5
 63
     7
 74
     1
 91
        4
 64
     7
 65
   257
 75
     1
175
     1
 42
1.0
 92
        0
 66
   257
 43
1.0
 76
     1
 77
     6
 78
     2
 67
     7
 79
     5
170
     0
171
     0
290
     0
174
     0
 93
        1
 44
0.0
173
     0
291
     0
 45
0.0
1001
ACAD
1000
AcDbSavedByObjectVersion
1070
     0
  0
VISUALSTYLE
  5
3CD
102
{ACAD_REACTORS
330
3C5
102
}
102
{ACAD_XDICTIONARY
360
6A2
102
}
330
3C5
100
AcDbVisualStyle
  2
Basic
 70
     7
 71
     1
 72
     0
 73
     1
 90
        0
 40
-0.6
 41
-30.0
 62
     5
 63
     7
 74
     0
 91
        4
 64
     7
 65
   257
 75
     1
175
     1
 42
1.0
 92
        8
 66
     7
 43
1.0
 76
     1
 77
     6
 78
     2
 67
     7
 79
     5
170
     0
171
     0
290
     0
174
     0
 93
        1
 44
0.0
173
     0
291
     1
 45
0.0
1001
ACAD
1000
AcDbSavedByObjectVersion
1070
     0
  0
VISUALSTYLE
  5
3D1
102
{ACAD_REACTORS
330
3C5
102
}
102
{ACAD_XDICTIONARY
360
6AA
102
}
330
3C5
100
AcDbVisualStyle
  2
Brighten
 70
    12
 71
     2
 72
     2
 73
     0
 90
        0
 40
-0.6
 41
-30.0
 62
     5
 63
     7
 74
     1
 91
        4
 64
     7
 65
   257
 75
     1
175
     1
 42
1.0
 92
        8
 66
     7
 43
1.0
 76
     1
 77
     6
 78
     2
 67
     7
 79
     5
170
     0
171
     0
290
     0
174
     0
 93
        1
 44
50.0
173
     0
291
     1
 45
0.0
1001
ACAD
1000
AcDbSavedByObjectVersion
1070
     0
  0
VISUALSTYLE
  5
3D5
102
{ACAD_REACTORS
330
3C5
102
}
102
{ACAD_XDICTIONARY
360
6B2
102
}
330
3C5
100
AcDbVisualStyle
  2
ColorChange
 70
    16
 71
     2
 72
     2
 73
     3
 90
        0
 40
-0.6
 41
-30.0
 62
     5
 63
     8
 74
     1
 91
        4
 64
     7
 65
   257
 75
     1
175
     1
 42
1.0
 92
        8
 66
     8
 43
1.0
 76
     1
 77
     6
 78
     2
 67
     7
 79
     5
170
     0
171
     0
290
     0
174
     0
 93
        1
 44
0.0
173
     0
291
     1
 45
0.0
1001
ACAD
1000
AcDbSavedByObjectVersion
1070
     0
  0
VISUALSTYLE
  5
3CF
102
{ACAD_REACTORS
330
3C5
102
}
102
{ACAD_XDICTIONARY
360
6A6
102
}
330
3C5
100
AcDbVisualStyle
  2
Conceptual
 70
     9
 71
     3
 72
     2
 73
     0
 90
        0
 40
-0.6
 41
-30.0
 62
     5
 63
     7
 74
     2
 91
        2
 64
     7
 65
   257
 75
     1
175
     1
 42
40.0
 92
        8
 66
     7
 43
1.0
 76
     1
 77
     6
 78
     2
 67
     7
 79
     3
170
     0
171
     0
290
     0
174
     0
 93
        1
 44
0.0
173
     0
291
     0
 45
0.0
1001
ACAD
1000
AcDbSavedByObjectVersion
1070
     0
  0
VISUALSTYLE
  5
3D0
102
{ACAD_REACTORS
330
3C5
102
}
102
{ACAD_XDICTIONARY
360
6A8
102
}
330
3C5
100
AcDbVisualStyle
  2
Dim
 70
    11
 71
     2
 72
     2
 73
     0
 90
        0
 40
-0.6
 41
-30.0
 62
     5
 63
     7
 74
     1
 91
        4
 64
     7
 65
   257
 75
     1
175
     1
 42
1.0
 92
        8
 66
     7
 43
1.0
 76
     1
 77
     6
 78
     2
 67
     7
 79
     5
170
     0
171
     0
290
     0
174
     0
 93
        1
 44
-50.0
173
     0
291
     1
 45
0.0
1001
ACAD
1000
AcDbSavedByObjectVersion
1070
     0
  0
VISUALSTYLE
  5
3D4
102
{ACAD_REACTORS
330
3C5
102
}
102
{ACAD_XDICTIONARY
360
6B0
102
}
330
3C5
100
AcDbVisualStyle
  2
Facepattern
 70
    15
 71
     2
 72
     2
 73
     0
 90
        0
 40
-0.6
 41
-30.0
 62
     5
 63
     7
 74
     1
 91
        4
 64
     7
 65
   257
 75
     1
175
     1
 42
1.0
 92
        8
 66
     7
 43
1.0
 76
     1
 77
     6
 78
     2
 67
     7
 79
     5
170
     0
171
     0
290
     0
174
     0
 93
        1
 44
0.0
173
     0
291
     1
 45
0.0
1001
ACAD
1000
AcDbSavedByObjectVersion
1070
     0
  0
VISUALSTYLE
  5
3C6
102
{ACAD_REACTORS
330
3C5
102
}
102
{ACAD_XDICTIONARY
360
694
102
}
330
3C5
100
AcDbVisualStyle
  2
Flat
 70
     0
 71
     2
 72
     1
 73
     1
 90
        2
 40
-0.6
 41
30.0
 62
     5
 63
     7
 74
     0
 91
        4
 64
     7
 65
   257
 75
     1
175
     1
 42
1.0
 92
        8
 66
     7
 43
1.0
 76
     1
 77
     6
 78
     2
 67
     7
 79
     5
170
     0
171
     0
290
     0
174
     0
 93
       13
 44
0.0
173
     0
291
     1
 45
0.0
1001
ACAD
1000
AcDbSavedByObjectVersion
1070
     0
  0
VISUALSTYLE
  5
3C7
102
{ACAD_REACTORS
330
3C5
102
}
102
{ACAD_XDICTIONARY
360
696
102
}
330
3C5
100
AcDbVisualStyle
  2
FlatWithEdges
 70
     1
 71
     2
 72
     1
 73
     1
 90
        2
 40
-0.6
 41
30.0
 62
     5
 63
     7
 74
     1
 91
        4
 64
     7
 65
   257
 75
     1
175
     1
 42
1.0
 92
        0
 66
   257
 43
1.0
 76
     1
 77
     6
 78
     2
 67
     7
 79
     5
170
     0
171
     0
290
     0
174
     0
 93
       13
 44
0.0
173
     0
291
     1
 45
0.0
1001
ACAD
1000
AcDbSavedByObjectVersion
1070
     0
  0
VISUALSTYLE
  5
3C8
102
{ACAD_REACTORS
330
3C5
102
}
102
{ACAD_XDICTIONARY
360
698
102
}
330
3C5
100
AcDbVisualStyle
  2
Gouraud
 70
     2
 71
     2
 72
     2
 73
     1
 90
        2
 40
-0.6
 41
30.0
 62
     5
 63
     7
 74
     0
 91
        4
 64
     7
 65
   257
 75
     1
175
     1
 42
1.0
 92
        0
 66
     7
 43
1.0
 76
     1
 77
     6
 78
     2
 67
     7
 79
     5
170
     0
171
     0
290
     0
174
     0
 93
       13
 44
0.0
173
     0
291
     1
 45
0.0
1001
ACAD
1000
AcDbSavedByObjectVersion
1070
     0
  0
VISUALSTYLE
  5
3C9
102
{ACAD_REACTORS
330
3C5
102
}
102
{ACAD_XDICTIONARY
360
69A
102
}
330
3C5
100
AcDbVisualStyle
  2
GouraudWithEdges
 70
     3
 71
     2
 72
     2
 73
     1
 90
        2
 40
-0.6
 41
30.0
 62
     5
 63
     7
 74
     1
 91
        4
 64
     7
 65
   257
 75
     1
175
     1
 42
1.0
 92
        0
 66
   257
 43
1.0
 76
     1
 77
     6
 78
     2
 67
     7
 79
     5
170
     0
171
     0
290
     0
174
     0
 93
       13
 44
0.0
173
     0
291
     1
 45
0.0
1001
ACAD
1000
AcDbSavedByObjectVersion
1070
     0
  0
VISUALSTYLE
  5
3D3
102
{ACAD_REACTORS
330
3C5
102
}
102
{ACAD_XDICTIONARY
360
6AE
102
}
330
3C5
100
AcDbVisualStyle
  2
Linepattern
 70
    14
 71
     2
 72
     2
 73
     0
 90
        0
 40
-0.6
 41
-30.0
 62
     5
 63
     7
 74
     1
 91
        4
 64
     7
 65
   257
 75
     7
175
     7
 42
1.0
 92
        8
 66
     7
 43
1.0
 76
     1
 77
     6
 78
     2
 67
     7
 79
     5
170
     0
171
     0
290
     0
174
     0
 93
        1
 44
0.0
173
     0
291
     1
 45
0.0
1001
ACAD
1000
AcDbSavedByObjectVersion
1070
     0
  0
VISUALSTYLE
  5
3CE
102
{ACAD_REACTORS
330
3C5
102
}
102
{ACAD_XDICTIONARY
360
6A4
102
}
330
3C5
100
AcDbVisualStyle
  2
Realistic
 70
     8
 71
     2
 72
     2
 73
     0
 90
        0
 40
-0.6
 41
-30.0
 62
     5
 63
     7
 74
     1
 91
        0
 64
     7
 65
   257
 75
     1
175
     1
 42
1.0
 92
        8
 66
     8
 43
1.0
 76
     1
 77
     6
 78
     2
 67
     7
 79
     5
170
     0
171
     0
290
     0
174
     0
 93
       13
 44
0.0
173
     0
291
     0
 45
0.0
1001
ACAD
1000
AcDbSavedByObjectVersion
1070
     0
  0
VISUALSTYLE
  5
3D2
102
{ACAD_REACTORS
330
3C5
102
}
102
{ACAD_XDICTIONARY
360
6AC
102
}
330
3C5
100
AcDbVisualStyle
  2
Thicken
 70
    13
 71
     2
 72
     2
 73
     0
 90
        0
 40
-0.6
 41
-30.0
 62
     5
 63
     7
 74
     1
 91
        4
 64
     7
 65
   257
 75
     1
175
     1
 42
1.0
 92
       12
 66
     7
 43
1.0
 76
     1
 77
     6
 78
     2
 67
     7
 79
     5
170
     0
171
     0
290
     0
174
     0
 93
        1
 44
0.0
173
     0
291
     1
 45
0.0
1001
ACAD
1000
AcDbSavedByObjectVersion
1070
     0
  0
XRECORD
  5
68B
102
{ACAD_REACTORS
330
68A
102
}
330
68A
100
AcDbXrecord
280
     1
340
387
  0
XRECORD
  5
68C
102
{ACAD_REACTORS
330
68A
102
}
330
68A
100
AcDbXrecord
280
     1
340
386
  0
DICTIONARYVAR
  5
68D
102
{ACAD_REACTORS
330
357
102
}
330
357
100
DictionaryVariables
280
     0
  1
1:1
  0
DICTIONARYVAR
  5
38D
102
{ACAD_REACTORS
330
357
102
}
330
357
100
DictionaryVariables
280
     0
  1
Standard
  0
DICTIONARYVAR
  5
359
102
{ACAD_REACTORS
330
357
102
}
330
357
100
DictionaryVariables
280
     0
  1
2
  0
DICTIONARYVAR
  5
358
102
{ACAD_REACTORS
330
357
102
}
330
357
100
DictionaryVariables
280
     0
  1
1
  0
DICTIONARYVAR
  5
38E
102
{ACAD_REACTORS
330
357
102
}
330
357
100
DictionaryVariables
280
     0
  1

  0
DICTIONARY
  5
690
330
3C3
100
AcDbDictionary
280
     1
281
     1
  3
ACAD_XREC_ROUNDTRIP
360
691
  0
DICTIONARY
  5
68E
330
3C2
100
AcDbDictionary
280
     1
281
     1
  3
ACAD_XREC_ROUNDTRIP
360
68F
  0
DICTIONARY
  5
692
330
3C4
100
AcDbDictionary
280
     1
281
     1
  3
ACAD_XREC_ROUNDTRIP
360
693
  0
DICTIONARY
  5
69C
330
3CA
100
AcDbDictionary
280
     1
281
     1
  3
ACAD_XREC_ROUNDTRIP
360
69D
  0
DICTIONARY
  5
6A0
330
3CC
100
AcDbDictionary
280
     1
281
     1
  3
ACAD_XREC_ROUNDTRIP
360
6A1
  0
DICTIONARY
  5
69E
330
3CB
100
AcDbDictionary
280
     1
281
     1
  3
ACAD_XREC_ROUNDTRIP
360
69F
  0
DICTIONARY
  5
6A2
330
3CD
100
AcDbDictionary
280
     1
281
     1
  3
ACAD_XREC_ROUNDTRIP
360
6A3
  0
DICTIONARY
  5
6AA
330
3D1
100
AcDbDictionary
280
     1
281
     1
  3
ACAD_XREC_ROUNDTRIP
360
6AB
  0
DICTIONARY
  5
6B2
330
3D5
100
AcDbDictionary
280
     1
281
     1
  3
ACAD_XREC_ROUNDTRIP
360
6B3
  0
DICTIONARY
  5
6A6
330
3CF
100
AcDbDictionary
280
     1
281
     1
  3
ACAD_XREC_ROUNDTRIP
360
6A7
  0
DICTIONARY
  5
6A8
330
3D0
100
AcDbDictionary
280
     1
281
     1
  3
ACAD_XREC_ROUNDTRIP
360
6A9
  0
DICTIONARY
  5
6B0
330
3D4
100
AcDbDictionary
280
     1
281
     1
  3
ACAD_XREC_ROUNDTRIP
360
6B1
  0
DICTIONARY
  5
694
330
3C6
100
AcDbDictionary
280
     1
281
     1
  3
ACAD_XREC_ROUNDTRIP
360
695
  0
DICTIONARY
  5
696
330
3C7
100
AcDbDictionary
280
     1
281
     1
  3
ACAD_XREC_ROUNDTRIP
360
697
  0
DICTIONARY
  5
698
330
3C8
100
AcDbDictionary
280
     1
281
     1
  3
ACAD_XREC_ROUNDTRIP
360
699
  0
DICTIONARY
  5
69A
330
3C9
100
AcDbDictionary
280
     1
281
     1
  3
ACAD_XREC_ROUNDTRIP
360
69B
  0
DICTIONARY
  5
6AE
330
3D3
100
AcDbDictionary
280
     1
281
     1
  3
ACAD_XREC_ROUNDTRIP
360
6AF
  0
DICTIONARY
  5
6A4
330
3CE
100
AcDbDictionary
280
     1
281
     1
  3
ACAD_XREC_ROUNDTRIP
360
6A5
  0
DICTIONARY
  5
6AC
330
3D2
100
AcDbDictionary
280
     1
281
     1
  3
ACAD_XREC_ROUNDTRIP
360
6AD
  0
XRECORD
  5
691
102
{ACAD_REACTORS
330
690
102
}
330
690
100
AcDbXrecord
280
     1
102
MATERIAL
148
0.0
149
0.0
149
0.0
 93
        0
 94
      127
282
     0
 72
     1
 77
     1
171
     1
175
     1
179
     1
273
     0
  0
XRECORD
  5
68F
102
{ACAD_REACTORS
330
68E
102
}
330
68E
100
AcDbXrecord
280
     1
102
MATERIAL
148
0.0
149
0.0
149
0.0
 93
        0
 94
      127
282
     0
 72
     1
 77
     1
171
     1
175
     1
179
     1
273
     0
  0
XRECORD
  5
693
102
{ACAD_REACTORS
330
692
102
}
330
692
100
AcDbXrecord
280
     1
102
MATERIAL
148
0.0
149
0.0
149
0.0
 93
        0
 94
      127
282
     0
 72
     1
 77
     1
171
     1
175
     1
179
     1
273
     0
  0
XRECORD
  5
69D
102
{ACAD_REACTORS
330
69C
102
}
330
69C
100
AcDbXrecord
280
     1
102
RTVSPropertyOp0
 70
     1
102
RTVSPropertyOp1
 70
     1
102
RTVSPropertyOp2
 70
     1
102
RTVSPropertyOp3
 70
     1
102
RTVSPropertyOp4
 70
     1
102
RTVSPropertyOp5
 70
     1
102
RTVSPropertyOp6
 70
     1
102
RTVSPropertyOp7
 70
     1
102
RTVSPropertyOp8
 70
     1
102
RTVSPropertyOp9
 70
     1
102
RTVSPropertyOp10
 70
     1
102
RTVSPropertyOp11
 70
     1
102
RTVSPropertyOp12
 70
     1
102
RTVSPropertyOp13
 70
     1
102
RTVSPropertyOp14
 70
     1
102
RTVSPropertyOp15
 70
     1
102
RTVSPropertyOp16
 70
     1
102
RTVSPropertyOp17
 70
     1
102
RTVSPropertyOp18
 70
     1
102
RTVSPropertyOp19
 70
     1
102
RTVSPropertyOp20
 70
     1
102
RTVSPropertyOp21
 70
     1
102
RTVSPropertyOp22
 70
     1
102
RTVSPropertyOp23
 70
     1
102
RTVSPropertyOp24
 70
     1
102
RTVSPropertyOp25
 70
     1
102
RTVSPropertyOp26
 70
     1
102
RTVSPropertyOp27
 70
     1
102
RTVSPropertyOp28
 70
     1
102
RTVSPropertyOp29
 70
     1
102
RTVSPropertyOp30
 70
     1
102
RTVSPropertyOp31
 70
     1
102
RTVSPropertyOp32
 70
     1
  0
XRECORD
  5
6A1
102
{ACAD_REACTORS
330
6A0
102
}
330
6A0
100
AcDbXrecord
280
     1
102
RTVSPropertyOp0
 70
     1
102
RTVSPropertyOp1
 70
     1
102
RTVSPropertyOp2
 70
     1
102
RTVSPropertyOp3
 70
     1
102
RTVSPropertyOp4
 70
     1
102
RTVSPropertyOp5
 70
     1
102
RTVSPropertyOp6
 70
     1
102
RTVSPropertyOp7
 70
     1
102
RTVSPropertyOp8
 70
     1
102
RTVSPropertyOp9
 70
     1
102
RTVSPropertyOp10
 70
     1
102
RTVSPropertyOp11
 70
     1
102
RTVSPropertyOp12
 70
     1
102
RTVSPropertyOp13
 70
     1
102
RTVSPropertyOp14
 70
     1
102
RTVSPropertyOp15
 70
     1
102
RTVSPropertyOp16
 70
     1
102
RTVSPropertyOp17
 70
     1
102
RTVSPropertyOp18
 70
     1
102
RTVSPropertyOp19
 70
     1
102
RTVSPropertyOp20
 70
     1
102
RTVSPropertyOp21
 70
     1
102
RTVSPropertyOp22
 70
     1
102
RTVSPropertyOp23
 70
     1
102
RTVSPropertyOp24
 70
     1
102
RTVSPropertyOp25
 70
     1
102
RTVSPropertyOp26
 70
     1
102
RTVSPropertyOp27
 70
     1
102
RTVSPropertyOp28
 70
     1
102
RTVSPropertyOp29
 70
     1
102
RTVSPropertyOp30
 70
     1
102
RTVSPropertyOp31
 70
     1
102
RTVSPropertyOp32
 70
     1
  0
XRECORD
  5
69F
102
{ACAD_REACTORS
330
69E
102
}
330
69E
100
AcDbXrecord
280
     1
102
RTVSPropertyOp0
 70
     1
102
RTVSPropertyOp1
 70
     1
102
RTVSPropertyOp2
 70
     1
102
RTVSPropertyOp3
 70
     1
102
RTVSPropertyOp4
 70
     1
102
RTVSPropertyOp5
 70
     1
102
RTVSPropertyOp6
 70
     1
102
RTVSPropertyOp7
 70
     1
102
RTVSPropertyOp8
 70
     1
102
RTVSPropertyOp9
 70
     1
102
RTVSPropertyOp10
 70
     1
102
RTVSPropertyOp11
 70
     1
102
RTVSPropertyOp12
 70
     1
102
RTVSPropertyOp13
 70
     1
102
RTVSPropertyOp14
 70
     1
102
RTVSPropertyOp15
 70
     1
102
RTVSPropertyOp16
 70
     1
102
RTVSPropertyOp17
 70
     1
102
RTVSPropertyOp18
 70
     1
102
RTVSPropertyOp19
 70
     1
102
RTVSPropertyOp20
 70
     1
102
RTVSPropertyOp21
 70
     1
102
RTVSPropertyOp22
 70
     1
102
RTVSPropertyOp23
 70
     1
102
RTVSPropertyOp24
 70
     1
102
RTVSPropertyOp25
 70
     1
102
RTVSPropertyOp26
 70
     1
102
RTVSPropertyOp27
 70
     1
102
RTVSPropertyOp28
 70
     1
102
RTVSPropertyOp29
 70
     1
102
RTVSPropertyOp30
 70
     1
102
RTVSPropertyOp31
 70
     1
102
RTVSPropertyOp32
 70
     1
  0
XRECORD
  5
6A3
102
{ACAD_REACTORS
330
6A2
102
}
330
6A2
100
AcDbXrecord
280
     1
102
RTVSPropertyOp0
 70
     1
102
RTVSPropertyOp1
 70
     1
102
RTVSPropertyOp2
 70
     1
102
RTVSPropertyOp3
 70
     1
102
RTVSPropertyOp4
 70
     1
102
RTVSPropertyOp5
 70
     1
102
RTVSPropertyOp6
 70
     1
102
RTVSPropertyOp7
 70
     1
102
RTVSPropertyOp8
 70
     1
102
RTVSPropertyOp9
 70
     1
102
RTVSPropertyOp10
 70
     1
102
RTVSPropertyOp11
 70
     1
102
RTVSPropertyOp12
 70
     1
102
RTVSPropertyOp13
 70
     1
102
RTVSPropertyOp14
 70
     1
102
RTVSPropertyOp15
 70
     1
102
RTVSPropertyOp16
 70
     1
102
RTVSPropertyOp17
 70
     1
102
RTVSPropertyOp18
 70
     1
102
RTVSPropertyOp19
 70
     1
102
RTVSPropertyOp20
 70
     1
102
RTVSPropertyOp21
 70
     1
102
RTVSPropertyOp22
 70
     1
102
RTVSPropertyOp23
 70
     1
102
RTVSPropertyOp24
 70
     1
102
RTVSPropertyOp25
 70
     1
102
RTVSPropertyOp26
 70
     1
102
RTVSPropertyOp27
 70
     1
102
RTVSPropertyOp28
 70
     1
102
RTVSPropertyOp29
 70
     1
102
RTVSPropertyOp30
 70
     1
102
RTVSPropertyOp31
 70
     1
102
RTVSPropertyOp32
 70
     1
  0
XRECORD
  5
6AB
102
{ACAD_REACTORS
330
6AA
102
}
330
6AA
100
AcDbXrecord
280
     1
102
RTVSPropertyOp0
 70
     1
102
RTVSPropertyOp1
 70
     1
102
RTVSPropertyOp2
 70
     1
102
RTVSPropertyOp3
 70
     1
102
RTVSPropertyOp4
 70
     1
102
RTVSPropertyOp5
 70
     1
102
RTVSPropertyOp6
 70
     1
102
RTVSPropertyOp7
 70
     1
102
RTVSPropertyOp8
 70
     1
102
RTVSPropertyOp9
 70
     1
102
RTVSPropertyOp10
 70
     1
102
RTVSPropertyOp11
 70
     1
102
RTVSPropertyOp12
 70
     1
102
RTVSPropertyOp13
 70
     1
102
RTVSPropertyOp14
 70
     1
102
RTVSPropertyOp15
 70
     1
102
RTVSPropertyOp16
 70
     1
102
RTVSPropertyOp17
 70
     1
102
RTVSPropertyOp18
 70
     1
102
RTVSPropertyOp19
 70
     1
102
RTVSPropertyOp20
 70
     1
102
RTVSPropertyOp21
 70
     1
102
RTVSPropertyOp22
 70
     1
102
RTVSPropertyOp23
 70
     1
102
RTVSPropertyOp24
 70
     1
102
RTVSPropertyOp25
 70
     1
102
RTVSPropertyOp26
 70
     1
102
RTVSPropertyOp27
 70
     1
102
RTVSPropertyOp28
 70
     1
102
RTVSPropertyOp29
 70
     1
102
RTVSPropertyOp30
 70
     1
102
RTVSPropertyOp31
 70
     1
102
RTVSPropertyOp32
 70
     1
  0
XRECORD
  5
6B3
102
{ACAD_REACTORS
330
6B2
102
}
330
6B2
100
AcDbXrecord
280
     1
102
RTVSPropertyOp0
 70
     1
102
RTVSPropertyOp1
 70
     1
102
RTVSPropertyOp2
 70
     1
102
RTVSPropertyOp3
 70
     1
102
RTVSPropertyOp4
 70
     1
102
RTVSPropertyOp5
 70
     1
102
RTVSPropertyOp6
 70
     1
102
RTVSPropertyOp7
 70
     1
102
RTVSPropertyOp8
 70
     1
102
RTVSPropertyOp9
 70
     1
102
RTVSPropertyOp10
 70
     1
102
RTVSPropertyOp11
 70
     1
102
RTVSPropertyOp12
 70
     1
102
RTVSPropertyOp13
 70
     1
102
RTVSPropertyOp14
 70
     1
102
RTVSPropertyOp15
 70
     1
102
RTVSPropertyOp16
 70
     1
102
RTVSPropertyOp17
 70
     1
102
RTVSPropertyOp18
 70
     1
102
RTVSPropertyOp19
 70
     1
102
RTVSPropertyOp20
 70
     1
102
RTVSPropertyOp21
 70
     1
102
RTVSPropertyOp22
 70
     1
102
RTVSPropertyOp23
 70
     1
102
RTVSPropertyOp24
 70
     1
102
RTVSPropertyOp25
 70
     1
102
RTVSPropertyOp26
 70
     1
102
RTVSPropertyOp27
 70
     1
102
RTVSPropertyOp28
 70
     1
102
RTVSPropertyOp29
 70
     1
102
RTVSPropertyOp30
 70
     1
102
RTVSPropertyOp31
 70
     1
102
RTVSPropertyOp32
 70
     1
  0
XRECORD
  5
6A7
102
{ACAD_REACTORS
330
6A6
102
}
330
6A6
100
AcDbXrecord
280
     1
102
RTVSPropertyOp0
 70
     1
102
RTVSPropertyOp1
 70
     1
102
RTVSPropertyOp2
 70
     1
102
RTVSPropertyOp3
 70
     1
102
RTVSPropertyOp4
 70
     1
102
RTVSPropertyOp5
 70
     1
102
RTVSPropertyOp6
 70
     1
102
RTVSPropertyOp7
 70
     1
102
RTVSPropertyOp8
 70
     1
102
RTVSPropertyOp9
 70
     1
102
RTVSPropertyOp10
 70
     1
102
RTVSPropertyOp11
 70
     1
102
RTVSPropertyOp12
 70
     1
102
RTVSPropertyOp13
 70
     1
102
RTVSPropertyOp14
 70
     1
102
RTVSPropertyOp15
 70
     1
102
RTVSPropertyOp16
 70
     1
102
RTVSPropertyOp17
 70
     1
102
RTVSPropertyOp18
 70
     1
102
RTVSPropertyOp19
 70
     1
102
RTVSPropertyOp20
 70
     1
102
RTVSPropertyOp21
 70
     1
102
RTVSPropertyOp22
 70
     1
102
RTVSPropertyOp23
 70
     1
102
RTVSPropertyOp24
 70
     1
102
RTVSPropertyOp25
 70
     1
102
RTVSPropertyOp26
 70
     1
102
RTVSPropertyOp27
 70
     1
102
RTVSPropertyOp28
 70
     1
102
RTVSPropertyOp29
 70
     1
102
RTVSPropertyOp30
 70
     1
102
RTVSPropertyOp31
 70
     1
102
RTVSPropertyOp32
 70
     1
  0
XRECORD
  5
6A9
102
{ACAD_REACTORS
330
6A8
102
}
330
6A8
100
AcDbXrecord
280
     1
102
RTVSPropertyOp0
 70
     1
102
RTVSPropertyOp1
 70
     1
102
RTVSPropertyOp2
 70
     1
102
RTVSPropertyOp3
 70
     1
102
RTVSPropertyOp4
 70
     1
102
RTVSPropertyOp5
 70
     1
102
RTVSPropertyOp6
 70
     1
102
RTVSPropertyOp7
 70
     1
102
RTVSPropertyOp8
 70
     1
102
RTVSPropertyOp9
 70
     1
102
RTVSPropertyOp10
 70
     1
102
RTVSPropertyOp11
 70
     1
102
RTVSPropertyOp12
 70
     1
102
RTVSPropertyOp13
 70
     1
102
RTVSPropertyOp14
 70
     1
102
RTVSPropertyOp15
 70
     1
102
RTVSPropertyOp16
 70
     1
102
RTVSPropertyOp17
 70
     1
102
RTVSPropertyOp18
 70
     1
102
RTVSPropertyOp19
 70
     1
102
RTVSPropertyOp20
 70
     1
102
RTVSPropertyOp21
 70
     1
102
RTVSPropertyOp22
 70
     1
102
RTVSPropertyOp23
 70
     1
102
RTVSPropertyOp24
 70
     1
102
RTVSPropertyOp25
 70
     1
102
RTVSPropertyOp26
 70
     1
102
RTVSPropertyOp27
 70
     1
102
RTVSPropertyOp28
 70
     1
102
RTVSPropertyOp29
 70
     1
102
RTVSPropertyOp30
 70
     1
102
RTVSPropertyOp31
 70
     1
102
RTVSPropertyOp32
 70
     1
  0
XRECORD
  5
6B1
102
{ACAD_REACTORS
330
6B0
102
}
330
6B0
100
AcDbXrecord
280
     1
102
RTVSPropertyOp0
 70
     1
102
RTVSPropertyOp1
 70
     1
102
RTVSPropertyOp2
 70
     1
102
RTVSPropertyOp3
 70
     1
102
RTVSPropertyOp4
 70
     1
102
RTVSPropertyOp5
 70
     1
102
RTVSPropertyOp6
 70
     1
102
RTVSPropertyOp7
 70
     1
102
RTVSPropertyOp8
 70
     1
102
RTVSPropertyOp9
 70
     1
102
RTVSPropertyOp10
 70
     1
102
RTVSPropertyOp11
 70
     1
102
RTVSPropertyOp12
 70
     1
102
RTVSPropertyOp13
 70
     1
102
RTVSPropertyOp14
 70
     1
102
RTVSPropertyOp15
 70
     1
102
RTVSPropertyOp16
 70
     1
102
RTVSPropertyOp17
 70
     1
102
RTVSPropertyOp18
 70
     1
102
RTVSPropertyOp19
 70
     1
102
RTVSPropertyOp20
 70
     1
102
RTVSPropertyOp21
 70
     1
102
RTVSPropertyOp22
 70
     1
102
RTVSPropertyOp23
 70
     1
102
RTVSPropertyOp24
 70
     1
102
RTVSPropertyOp25
 70
     1
102
RTVSPropertyOp26
 70
     1
102
RTVSPropertyOp27
 70
     1
102
RTVSPropertyOp28
 70
     1
102
RTVSPropertyOp29
 70
     1
102
RTVSPropertyOp30
 70
     1
102
RTVSPropertyOp31
 70
     1
102
RTVSPropertyOp32
 70
     1
  0
XRECORD
  5
695
102
{ACAD_REACTORS
330
694
102
}
330
694
100
AcDbXrecord
280
     1
102
RTVSPropertyOp0
 70
     1
102
RTVSPropertyOp1
 70
     1
102
RTVSPropertyOp2
 70
     1
102
RTVSPropertyOp3
 70
     1
102
RTVSPropertyOp4
 70
     1
102
RTVSPropertyOp5
 70
     1
102
RTVSPropertyOp6
 70
     1
102
RTVSPropertyOp7
 70
     1
102
RTVSPropertyOp8
 70
     1
102
RTVSPropertyOp9
 70
     1
102
RTVSPropertyOp10
 70
     1
102
RTVSPropertyOp11
 70
     1
102
RTVSPropertyOp12
 70
     1
102
RTVSPropertyOp13
 70
     1
102
RTVSPropertyOp14
 70
     1
102
RTVSPropertyOp15
 70
     1
102
RTVSPropertyOp16
 70
     1
102
RTVSPropertyOp17
 70
     1
102
RTVSPropertyOp18
 70
     1
102
RTVSPropertyOp19
 70
     1
102
RTVSPropertyOp20
 70
     1
102
RTVSPropertyOp21
 70
     1
102
RTVSPropertyOp22
 70
     1
102
RTVSPropertyOp23
 70
     1
102
RTVSPropertyOp24
 70
     1
102
RTVSPropertyOp25
 70
     1
102
RTVSPropertyOp26
 70
     1
102
RTVSPropertyOp27
 70
     1
102
RTVSPropertyOp28
 70
     1
102
RTVSPropertyOp29
 70
     1
102
RTVSPropertyOp30
 70
     1
102
RTVSPropertyOp31
 70
     1
102
RTVSPropertyOp32
 70
     1
  0
XRECORD
  5
697
102
{ACAD_REACTORS
330
696
102
}
330
696
100
AcDbXrecord
280
     1
102
RTVSPropertyOp0
 70
     1
102
RTVSPropertyOp1
 70
     1
102
RTVSPropertyOp2
 70
     1
102
RTVSPropertyOp3
 70
     1
102
RTVSPropertyOp4
 70
     1
102
RTVSPropertyOp5
 70
     1
102
RTVSPropertyOp6
 70
     1
102
RTVSPropertyOp7
 70
     1
102
RTVSPropertyOp8
 70
     1
102
RTVSPropertyOp9
 70
     1
102
RTVSPropertyOp10
 70
     1
102
RTVSPropertyOp11
 70
     1
102
RTVSPropertyOp12
 70
     1
102
RTVSPropertyOp13
 70
     1
102
RTVSPropertyOp14
 70
     1
102
RTVSPropertyOp15
 70
     1
102
RTVSPropertyOp16
 70
     1
102
RTVSPropertyOp17
 70
     1
102
RTVSPropertyOp18
 70
     1
102
RTVSPropertyOp19
 70
     1
102
RTVSPropertyOp20
 70
     1
102
RTVSPropertyOp21
 70
     1
102
RTVSPropertyOp22
 70
     1
102
RTVSPropertyOp23
 70
     1
102
RTVSPropertyOp24
 70
     1
102
RTVSPropertyOp25
 70
     1
102
RTVSPropertyOp26
 70
     1
102
RTVSPropertyOp27
 70
     1
102
RTVSPropertyOp28
 70
     1
102
RTVSPropertyOp29
 70
     1
102
RTVSPropertyOp30
 70
     1
102
RTVSPropertyOp31
 70
     1
102
RTVSPropertyOp32
 70
     1
  0
XRECORD
  5
699
102
{ACAD_REACTORS
330
698
102
}
330
698
100
AcDbXrecord
280
     1
102
RTVSPropertyOp0
 70
     1
102
RTVSPropertyOp1
 70
     1
102
RTVSPropertyOp2
 70
     1
102
RTVSPropertyOp3
 70
     1
102
RTVSPropertyOp4
 70
     1
102
RTVSPropertyOp5
 70
     1
102
RTVSPropertyOp6
 70
     1
102
RTVSPropertyOp7
 70
     1
102
RTVSPropertyOp8
 70
     1
102
RTVSPropertyOp9
 70
     1
102
RTVSPropertyOp10
 70
     1
102
RTVSPropertyOp11
 70
     1
102
RTVSPropertyOp12
 70
     1
102
RTVSPropertyOp13
 70
     1
102
RTVSPropertyOp14
 70
     1
102
RTVSPropertyOp15
 70
     1
102
RTVSPropertyOp16
 70
     1
102
RTVSPropertyOp17
 70
     1
102
RTVSPropertyOp18
 70
     1
102
RTVSPropertyOp19
 70
     1
102
RTVSPropertyOp20
 70
     1
102
RTVSPropertyOp21
 70
     1
102
RTVSPropertyOp22
 70
     1
102
RTVSPropertyOp23
 70
     1
102
RTVSPropertyOp24
 70
     1
102
RTVSPropertyOp25
 70
     1
102
RTVSPropertyOp26
 70
     1
102
RTVSPropertyOp27
 70
     1
102
RTVSPropertyOp28
 70
     1
102
RTVSPropertyOp29
 70
     1
102
RTVSPropertyOp30
 70
     1
102
RTVSPropertyOp31
 70
     1
102
RTVSPropertyOp32
 70
     1
  0
XRECORD
  5
69B
102
{ACAD_REACTORS
330
69A
102
}
330
69A
100
AcDbXrecord
280
     1
102
RTVSPropertyOp0
 70
     1
102
RTVSPropertyOp1
 70
     1
102
RTVSPropertyOp2
 70
     1
102
RTVSPropertyOp3
 70
     1
102
RTVSPropertyOp4
 70
     1
102
RTVSPropertyOp5
 70
     1
102
RTVSPropertyOp6
 70
     1
102
RTVSPropertyOp7
 70
     1
102
RTVSPropertyOp8
 70
     1
102
RTVSPropertyOp9
 70
     1
102
RTVSPropertyOp10
 70
     1
102
RTVSPropertyOp11
 70
     1
102
RTVSPropertyOp12
 70
     1
102
RTVSPropertyOp13
 70
     1
102
RTVSPropertyOp14
 70
     1
102
RTVSPropertyOp15
 70
     1
102
RTVSPropertyOp16
 70
     1
102
RTVSPropertyOp17
 70
     1
102
RTVSPropertyOp18
 70
     1
102
RTVSPropertyOp19
 70
     1
102
RTVSPropertyOp20
 70
     1
102
RTVSPropertyOp21
 70
     1
102
RTVSPropertyOp22
 70
     1
102
RTVSPropertyOp23
 70
     1
102
RTVSPropertyOp24
 70
     1
102
RTVSPropertyOp25
 70
     1
102
RTVSPropertyOp26
 70
     1
102
RTVSPropertyOp27
 70
     1
102
RTVSPropertyOp28
 70
     1
102
RTVSPropertyOp29
 70
     1
102
RTVSPropertyOp30
 70
     1
102
RTVSPropertyOp31
 70
     1
102
RTVSPropertyOp32
 70
     1
  0
XRECORD
  5
6AF
102
{ACAD_REACTORS
330
6AE
102
}
330
6AE
100
AcDbXrecord
280
     1
102
RTVSPropertyOp0
 70
     1
102
RTVSPropertyOp1
 70
     1
102
RTVSPropertyOp2
 70
     1
102
RTVSPropertyOp3
 70
     1
102
RTVSPropertyOp4
 70
     1
102
RTVSPropertyOp5
 70
     1
102
RTVSPropertyOp6
 70
     1
102
RTVSPropertyOp7
 70
     1
102
RTVSPropertyOp8
 70
     1
102
RTVSPropertyOp9
 70
     1
102
RTVSPropertyOp10
 70
     1
102
RTVSPropertyOp11
 70
     1
102
RTVSPropertyOp12
 70
     1
102
RTVSPropertyOp13
 70
     1
102
RTVSPropertyOp14
 70
     1
102
RTVSPropertyOp15
 70
     1
102
RTVSPropertyOp16
 70
     1
102
RTVSPropertyOp17
 70
     1
102
RTVSPropertyOp18
 70
     1
102
RTVSPropertyOp19
 70
     1
102
RTVSPropertyOp20
 70
     1
102
RTVSPropertyOp21
 70
     1
102
RTVSPropertyOp22
 70
     1
102
RTVSPropertyOp23
 70
     1
102
RTVSPropertyOp24
 70
     1
102
RTVSPropertyOp25
 70
     1
102
RTVSPropertyOp26
 70
     1
102
RTVSPropertyOp27
 70
     1
102
RTVSPropertyOp28
 70
     1
102
RTVSPropertyOp29
 70
     1
102
RTVSPropertyOp30
 70
     1
102
RTVSPropertyOp31
 70
     1
102
RTVSPropertyOp32
 70
     1
  0
XRECORD
  5
6A5
102
{ACAD_REACTORS
330
6A4
102
}
330
6A4
100
AcDbXrecord
280
     1
102
RTVSPropertyOp0
 70
     1
102
RTVSPropertyOp1
 70
     1
102
RTVSPropertyOp2
 70
     1
102
RTVSPropertyOp3
 70
     1
102
RTVSPropertyOp4
 70
     1
102
RTVSPropertyOp5
 70
     1
102
RTVSPropertyOp6
 70
     1
102
RTVSPropertyOp7
 70
     1
102
RTVSPropertyOp8
 70
     1
102
RTVSPropertyOp9
 70
     1
102
RTVSPropertyOp10
 70
     1
102
RTVSPropertyOp11
 70
     1
102
RTVSPropertyOp12
 70
     1
102
RTVSPropertyOp13
 70
     1
102
RTVSPropertyOp14
 70
     1
102
RTVSPropertyOp15
 70
     1
102
RTVSPropertyOp16
 70
     1
102
RTVSPropertyOp17
 70
     1
102
RTVSPropertyOp18
 70
     1
102
RTVSPropertyOp19
 70
     1
102
RTVSPropertyOp20
 70
     1
102
RTVSPropertyOp21
 70
     1
102
RTVSPropertyOp22
 70
     1
102
RTVSPropertyOp23
 70
     1
102
RTVSPropertyOp24
 70
     1
102
RTVSPropertyOp25
 70
     1
102
RTVSPropertyOp26
 70
     1
102
RTVSPropertyOp27
 70
     1
102
RTVSPropertyOp28
 70
     1
102
RTVSPropertyOp29
 70
     1
102
RTVSPropertyOp30
 70
     1
102
RTVSPropertyOp31
 70
     1
102
RTVSPropertyOp32
 70
     1
  0
XRECORD
  5
6AD
102
{ACAD_REACTORS
330
6AC
102
}
330
6AC
100
AcDbXrecord
280
     1
102
RTVSPropertyOp0
 70
     1
102
RTVSPropertyOp1
 70
     1
102
RTVSPropertyOp2
 70
     1
102
RTVSPropertyOp3
 70
     1
102
RTVSPropertyOp4
 70
     1
102
RTVSPropertyOp5
 70
     1
102
RTVSPropertyOp6
 70
     1
102
RTVSPropertyOp7
 70
     1
102
RTVSPropertyOp8
 70
     1
102
RTVSPropertyOp9
 70
     1
102
RTVSPropertyOp10
 70
     1
102
RTVSPropertyOp11
 70
     1
102
RTVSPropertyOp12
 70
     1
102
RTVSPropertyOp13
 70
     1
102
RTVSPropertyOp14
 70
     1
102
RTVSPropertyOp15
 70
     1
102
RTVSPropertyOp16
 70
     1
102
RTVSPropertyOp17
 70
     1
102
RTVSPropertyOp18
 70
     1
102
RTVSPropertyOp19
 70
     1
102
RTVSPropertyOp20
 70
     1
102
RTVSPropertyOp21
 70
     1
102
RTVSPropertyOp22
 70
     1
102
RTVSPropertyOp23
 70
     1
102
RTVSPropertyOp24
 70
     1
102
RTVSPropertyOp25
 70
     1
102
RTVSPropertyOp26
 70
     1
102
RTVSPropertyOp27
 70
     1
102
RTVSPropertyOp28
 70
     1
102
RTVSPropertyOp29
 70
     1
102
RTVSPropertyOp30
 70
     1
102
RTVSPropertyOp31
 70
     1
102
RTVSPropertyOp32
 70
     1
  0
ENDSEC
  0
EOF
