  0
SECTION
  2
HEADER
  9
$ACADVER
  1
AC1015
  9
$ACADMAINTVER
 70
     6
  9
$DWGCODEPAGE
  3
ANSI_1252
  9
$INSBASE
 10
0.0
 20
0.0
 30
0.0
  9
$EXTMIN
 10
1.000000000000000E+20
 20
1.000000000000000E+20
 30
1.000000000000000E+20
  9
$EXTMAX
 10
-1.000000000000000E+20
 20
-1.000000000000000E+20
 30
-1.000000000000000E+20
  9
$LIMMIN
 10
-170.0
 20
-170.0
  9
$LIMMAX
 10
519.0
 20
260.0
  9
$ORTHOMODE
 70
     0
  9
$REGENMODE
 70
     1
  9
$FILLMODE
 70
     1
  9
$QTEXTMODE
 70
     0
  9
$MIRRTEXT
 70
     0
  9
$LTSCALE
 40
1.0
  9
$ATTMODE
 70
     1
  9
$TEXTSIZE
 40
3.5
  9
$TRACEWID
 40
1.0
  9
$TEXTSTYLE
  7
SIMPLEX
  9
$CLAYER
  8
1
  9
$CELTYPE
  6
BYLAYER
  9
$CECOLOR
 62
   256
  9
$CELTSCALE
 40
1.0
  9
$DISPSILH
 70
     0
  9
$DIMSCALE
 40
1.0
  9
$DIMASZ
 40
2.5
  9
$DIMEXO
 40
0.0
  9
$DIMDLI
 40
3.75
  9
$DIMRND
 40
0.0
  9
$DIMDLE
 40
0.0
  9
$DIMEXE
 40
1.25
  9
$DIMTP
 40
0.0
  9
$DIMTM
 40
0.0
  9
$DIMTXT
 40
3.5
  9
$DIMCEN
 40
0.0
  9
$DIMTSZ
 40
0.0
  9
$DIMTOL
 70
     0
  9
$DIMLIM
 70
     0
  9
$DIMTIH
 70
     0
  9
$DIMTOH
 70
     0
  9
$DIMSE1
 70
     0
  9
$DIMSE2
 70
     0
  9
$DIMTAD
 70
     1
  9
$DIMZIN
 70
     8
  9
$DIMBLK
  1

  9
$DIMASO
 70
     1
  9
$DIMSHO
 70
     1
  9
$DIMPOST
  1

  9
$DIMAPOST
  1

  9
$DIMALT
 70
     0
  9
$DIMALTD
 70
     3
  9
$DIMALTF
 40
0.039370078
  9
$DIMLFAC
 40
1.0
  9
$DIMTOFL
 70
     0
  9
$DIMTVP
 40
0.0
  9
$DIMTIX
 70
     0
  9
$DIMSOXD
 70
     0
  9
$DIMSAH
 70
     0
  9
$DIMBLK1
  1

  9
$DIMBLK2
  1

  9
$DIMSTYLE
  2
STANDARD
  9
$DIMCLRD
 70
     0
  9
$DIMCLRE
 70
     0
  9
$DIMCLRT
 70
     0
  9
$DIMTFAC
 40
1.0
  9
$DIMGAP
 40
0.625
  9
$DIMJUST
 70
     0
  9
$DIMSD1
 70
     0
  9
$DIMSD2
 70
     0
  9
$DIMTOLJ
 70
     0
  9
$DIMTZIN
 70
     8
  9
$DIMALTZ
 70
     0
  9
$DIMALTTZ
 70
     0
  9
$DIMUPT
 70
     0
  9
$DIMDEC
 70
     2
  9
$DIMTDEC
 70
     2
  9
$DIMALTU
 70
     2
  9
$DIMALTTD
 70
     3
  9
$DIMTXSTY
  7
SIMPLEX
  9
$DIMAUNIT
 70
     0
  9
$DIMADEC
 70
     2
  9
$DIMALTRND
 40
0.0
  9
$DIMAZIN
 70
     2
  9
$DIMDSEP
 70
    46
  9
$DIMATFIT
 70
     3
  9
$DIMFRAC
 70
     0
  9
$DIMLDRBLK
  1

  9
$DIMLUNIT
 70
     2
  9
$DIMLWD
 70
    -2
  9
$DIMLWE
 70
    -2
  9
$DIMTMOVE
 70
     0
  9
$LUNITS
 70
     2
  9
$LUPREC
 70
     4
  9
$SKETCHINC
 40
1.0
  9
$FILLETRAD
 40
0.0
  9
$AUNITS
 70
     0
  9
$AUPREC
 70
     0
  9
$MENU
  1
c:\tdm21\cad\caduti13\tdm13
  9
$ELEVATION
 40
0.0
  9
$PELEVATION
 40
0.0
  9
$THICKNESS
 40
0.0
  9
$LIMCHECK
 70
     0
  9
$CHAMFERA
 40
0.0
  9
$CHAMFERB
 40
0.0
  9
$CHAMFERC
 40
0.0
  9
$CHAMFERD
 40
0.0
  9
$SKPOLY
 70
     0
  9
$TDCREATE
 40
2454957.593642639
  9
$TDUCREATE
 40
2454957.510309306
  9
$TDUPDATE
 40
2456860.711918009
  9
$TDUUPDATE
 40
2456860.628584676
  9
$TDINDWG
 40
0.0009643519
  9
$TDUSRTIMER
 40
0.0009475231
  9
$USRTIMER
 70
     1
  9
$ANGBASE
 50
0.0
  9
$ANGDIR
 70
     0
  9
$PDMODE
 70
     1
  9
$PDSIZE
 40
0.0
  9
$PLINEWID
 40
0.0
  9
$SPLFRAME
 70
     0
  9
$SPLINETYPE
 70
     6
  9
$SPLINESEGS
 70
     8
  9
$HANDSEED
  5
5F3
  9
$SURFTAB1
 70
     6
  9
$SURFTAB2
 70
     6
  9
$SURFTYPE
 70
     6
  9
$SURFU
 70
     6
  9
$SURFV
 70
     6
  9
$UCSBASE
  2

  9
$UCSNAME
  2

  9
$UCSORG
 10
0.0
 20
0.0
 30
0.0
  9
$UCSXDIR
 10
1.0
 20
0.0
 30
0.0
  9
$UCSYDIR
 10
0.0
 20
1.0
 30
0.0
  9
$UCSORTHOREF
  2

  9
$UCSORTHOVIEW
 70
     0
  9
$UCSORGTOP
 10
0.0
 20
0.0
 30
0.0
  9
$UCSORGBOTTOM
 10
0.0
 20
0.0
 30
0.0
  9
$UCSORGLEFT
 10
0.0
 20
0.0
 30
0.0
  9
$UCSORGRIGHT
 10
0.0
 20
0.0
 30
0.0
  9
$UCSORGFRONT
 10
0.0
 20
0.0
 30
0.0
  9
$UCSORGBACK
 10
0.0
 20
0.0
 30
0.0
  9
$PUCSBASE
  2

  9
$PUCSNAME
  2

  9
$PUCSORG
 10
0.0
 20
0.0
 30
0.0
  9
$PUCSXDIR
 10
1.0
 20
0.0
 30
0.0
  9
$PUCSYDIR
 10
0.0
 20
1.0
 30
0.0
  9
$PUCSORTHOREF
  2

  9
$PUCSORTHOVIEW
 70
     0
  9
$PUCSORGTOP
 10
0.0
 20
0.0
 30
0.0
  9
$PUCSORGBOTTOM
 10
0.0
 20
0.0
 30
0.0
  9
$PUCSORGLEFT
 10
0.0
 20
0.0
 30
0.0
  9
$PUCSORGRIGHT
 10
0.0
 20
0.0
 30
0.0
  9
$PUCSORGFRONT
 10
0.0
 20
0.0
 30
0.0
  9
$PUCSORGBACK
 10
0.0
 20
0.0
 30
0.0
  9
$USERI1
 70
     0
  9
$USERI2
 70
     0
  9
$USERI3
 70
     0
  9
$USERI4
 70
     0
  9
$USERI5
 70
     0
  9
$USERR1
 40
0.0
  9
$USERR2
 40
0.0
  9
$USERR3
 40
0.0
  9
$USERR4
 40
0.0
  9
$USERR5
 40
0.0
  9
$WORLDVIEW
 70
     1
  9
$SHADEDGE
 70
     3
  9
$SHADEDIF
 70
    70
  9
$TILEMODE
 70
     1
  9
$MAXACTVP
 70
    64
  9
$PINSBASE
 10
0.0
 20
0.0
 30
0.0
  9
$PLIMCHECK
 70
     0
  9
$PEXTMIN
 10
0.0
 20
0.0
 30
0.0
  9
$PEXTMAX
 10
0.0
 20
0.0
 30
0.0
  9
$PLIMMIN
 10
0.0
 20
0.0
  9
$PLIMMAX
 10
12.0
 20
9.0
  9
$UNITMODE
 70
     0
  9
$VISRETAIN
 70
     0
  9
$PLINEGEN
 70
     0
  9
$PSLTSCALE
 70
     1
  9
$TREEDEPTH
 70
  3020
  9
$CMLSTYLE
  2
STANDARD
  9
$CMLJUST
 70
     0
  9
$CMLSCALE
 40
20.0
  9
$PROXYGRAPHICS
 70
     1
  9
$MEASUREMENT
 70
     1
  9
$CELWEIGHT
370
    -1
  9
$ENDCAPS
280
     0
  9
$JOINSTYLE
280
     0
  9
$LWDISPLAY
290
     0
  9
$INSUNITS
 70
     4
  9
$HYPERLINKBASE
  1

  9
$STYLESHEET
  1
MONOCHROME.CTB
  9
$XEDIT
290
     1
  9
$CEPSNTYPE
380
     0
  9
$PSTYLEMODE
290
     1
  9
$FINGERPRINTGUID
  2
{46B44192-1510-48B1-B61B-CBE2ADA013A7}
  9
$VERSIONGUID
  2
{6160D478-9A74-4C97-9D8A-D4A65CE74B12}
  9
$EXTNAMES
290
     1
  9
$PSVPSCALE
 40
0.0
  9
$OLESTARTUP
290
     0
  0
ENDSEC
  0
SECTION
  2
CLASSES
  0
CLASS
  1
ACDBDICTIONARYWDFLT
  2
AcDbDictionaryWithDefault
  3
ObjectDBX Classes
 90
        0
280
     0
281
     0
  0
CLASS
  1
ACDBPLACEHOLDER
  2
AcDbPlaceHolder
  3
ObjectDBX Classes
 90
        0
280
     0
281
     0
  0
CLASS
  1
LAYOUT
  2
AcDbLayout
  3
ObjectDBX Classes
 90
        0
280
     0
281
     0
  0
CLASS
  1
DICTIONARYVAR
  2
AcDbDictionaryVar
  3
ObjectDBX Classes
 90
        0
280
     0
281
     0
  0
CLASS
  1
TABLESTYLE
  2
AcDbTableStyle
  3
ObjectDBX Classes
 90
     4095
280
     0
281
     0
  0
CLASS
  1
SCALE
  2
AcDbScale
  3
ObjectDBX Classes
 90
     1153
280
     0
281
     0
  0
CLASS
  1
MATERIAL
  2
AcDbMaterial
  3
ObjectDBX Classes
 90
     1153
280
     0
281
     0
  0
CLASS
  1
VISUALSTYLE
  2
AcDbVisualStyle
  3
ObjectDBX Classes
 90
     4095
280
     0
281
     0
  0
ENDSEC
  0
SECTION
  2
TABLES
  0
TABLE
  2
VPORT
  5
8
330
0
100
AcDbSymbolTable
 70
     1
  0
VPORT
  5
39A
330
8
100
AcDbSymbolTableRecord
100
AcDbViewportTableRecord
  2
*Active
 70
     0
 10
0.0
 20
0.0
 11
1.0
 21
1.0
 12
218.9201881351169
 22
109.7549380673833
 13
0.0
 23
0.0
 14
5.0
 24
5.0
 15
5.0
 25
5.0
 16
0.0
 26
0.0
 36
1.0
 17
0.0
 27
0.0
 37
0.0
 40
564.6711112651689
 41
1.066073697585768
 42
50.0
 43
0.0
 44
0.0
 50
0.0
 51
0.0
 71
     0
 72
  2000
 73
     1
 74
     1
 75
     0
 76
     0
 77
     0
 78
     0
281
     0
 65
     1
110
0.0
120
0.0
130
0.0
111
1.0
121
0.0
131
0.0
112
0.0
122
1.0
132
0.0
 79
     0
146
0.0
  0
ENDTAB
  0
TABLE
  2
LTYPE
  5
5
330
0
100
AcDbSymbolTable
 70
     3
  0
LTYPE
  5
12
330
5
100
AcDbSymbolTableRecord
100
AcDbLinetypeTableRecord
  2
BYBLOCK
 70
     0
  3

 72
    65
 73
     0
 40
0.0
  0
LTYPE
  5
13
330
5
100
AcDbSymbolTableRecord
100
AcDbLinetypeTableRecord
  2
BYLAYER
 70
     0
  3

 72
    65
 73
     0
 40
0.0
  0
LTYPE
  5
14
330
5
100
AcDbSymbolTableRecord
100
AcDbLinetypeTableRecord
  2
CONTINUOUS
 70
     0
  3
Solid line
 72
    65
 73
     0
 40
0.0
  0
LTYPE
  5
20
330
5
100
AcDbSymbolTableRecord
100
AcDbLinetypeTableRecord
  2
HIDDEN
 70
     0
  3
Hidden __ __ __ __ __ __ __ __ __ __ __ __ __ _
 72
    65
 73
     2
 40
9.524999999999997
 49
6.349999999999998
 74
     0
 49
-3.174999999999998
 74
     0
  0
LTYPE
  5
351
330
5
100
AcDbSymbolTableRecord
100
AcDbLinetypeTableRecord
  2
CENTER
 70
     0
  3
Dash dot __ . __ . __ . __ . __ . __ . __ . __
 72
    65
 73
     4
 40
25.4
 49
12.7
 74
     0
 49
-6.349999999999998
 74
     0
 49
0.0
 74
     0
 49
-6.349999999999998
 74
     0
  0
ENDTAB
  0
TABLE
  2
LAYER
  5
2
330
0
100
AcDbSymbolTable
 70
    16
  0
LAYER
  5
F
330
2
100
AcDbSymbolTableRecord
100
AcDbLayerTableRecord
  2
0
 70
     0
 62
     7
  6
CONTINUOUS
370
    -3
390
300
  0
LAYER
  5
23
330
2
100
AcDbSymbolTableRecord
100
AcDbLayerTableRecord
  2
1
 70
     0
 62
     4
  6
CONTINUOUS
370
    -3
390
300
  0
LAYER
  5
24
330
2
100
AcDbSymbolTableRecord
100
AcDbLayerTableRecord
  2
SK1
 70
     0
 62
     4
  6
CONTINUOUS
370
    -3
390
300
  0
LAYER
  5
25
330
2
100
AcDbSymbolTableRecord
100
AcDbLayerTableRecord
  2
2
 70
     0
 62
     7
  6
CONTINUOUS
370
    -3
390
300
  0
LAYER
  5
26
330
2
100
AcDbSymbolTableRecord
100
AcDbLayerTableRecord
  2
2L
 70
     0
 62
     7
  6
CONTINUOUS
370
    -3
390
300
  0
LAYER
  5
27
330
2
100
AcDbSymbolTableRecord
100
AcDbLayerTableRecord
  2
SK2
 70
     0
 62
     7
  6
CONTINUOUS
370
    -3
390
300
  0
LAYER
  5
28
330
2
100
AcDbSymbolTableRecord
100
AcDbLayerTableRecord
  2
3
 70
     0
 62
     1
  6
HIDDEN
370
    -3
390
300
  0
LAYER
  5
29
330
2
100
AcDbSymbolTableRecord
100
AcDbLayerTableRecord
  2
SK3
 70
     0
 62
     1
  6
HIDDEN
370
    -3
390
300
  0
LAYER
  5
2A
330
2
100
AcDbSymbolTableRecord
100
AcDbLayerTableRecord
  2
4
 70
     0
 62
     2
  6
CENTER
370
    -3
390
300
  0
LAYER
  5
2B
330
2
100
AcDbSymbolTableRecord
100
AcDbLayerTableRecord
  2
SK4
 70
     0
 62
     2
  6
CENTER
370
    -3
390
300
  0
LAYER
  5
2C
330
2
100
AcDbSymbolTableRecord
100
AcDbLayerTableRecord
  2
5
 70
     0
 62
    -7
  6
CONTINUOUS
370
    -3
390
300
  0
LAYER
  5
2D
330
2
100
AcDbSymbolTableRecord
100
AcDbLayerTableRecord
  2
6
 70
     0
 62
     5
  6
CONTINUOUS
370
    -3
390
300
  0
LAYER
  5
2E
330
2
100
AcDbSymbolTableRecord
100
AcDbLayerTableRecord
  2
SK6
 70
     0
 62
     5
  6
CONTINUOUS
370
    -3
390
300
  0
LAYER
  5
2F
330
2
100
AcDbSymbolTableRecord
100
AcDbLayerTableRecord
  2
DEFPOINTS
 70
     0
 62
     7
  6
CONTINUOUS
290
     0
370
    -3
390
300
  0
LAYER
  5
375
330
2
100
AcDbSymbolTableRecord
100
AcDbLayerTableRecord
  2
CUT
 70
     0
 62
     1
  6
CONTINUOUS
370
    -3
390
300
  0
LAYER
  5
376
330
2
100
AcDbSymbolTableRecord
100
AcDbLayerTableRecord
  2
NOCUT
 70
     0
 62
     7
  6
CONTINUOUS
370
    -3
390
300
  0
ENDTAB
  0
TABLE
  2
STYLE
  5
3
330
0
100
AcDbSymbolTable
 70
     4
  0
STYLE
  5
10
330
3
100
AcDbSymbolTableRecord
100
AcDbTextStyleTableRecord
  2
STANDARD
 70
     0
 40
0.0
 41
1.0
 50
0.0
 71
     0
 42
5.0
  3
txt
  4

  0
STYLE
  5
1D
330
3
100
AcDbSymbolTableRecord
100
AcDbTextStyleTableRecord
  2
TXT
 70
     0
 40
8.0
 41
1.0
 50
0.0
 71
     0
 42
8.0
  3
txt
  4

  0
STYLE
  5
1E
330
3
100
AcDbSymbolTableRecord
100
AcDbTextStyleTableRecord
  2
SIMPLEX
 70
     0
 40
0.0
 41
1.0
 50
0.0
 71
     0
 42
3.5
  3
simplex
  4

  0
STYLE
  5
34C
330
3
100
AcDbSymbolTableRecord
100
AcDbTextStyleTableRecord
  2

 70
     1
 40
0.0
 41
1.0
 50
0.0
 71
     0
 42
2.5
  3
ltypeshp.shx
  4

  0
ENDTAB
  0
TABLE
  2
VIEW
  5
6
330
0
100
AcDbSymbolTable
 70
     0
  0
ENDTAB
  0
TABLE
  2
UCS
  5
7
330
0
100
AcDbSymbolTable
 70
     0
  0
ENDTAB
  0
TABLE
  2
APPID
  5
9
330
0
100
AcDbSymbolTable
 70
     1
  0
APPID
  5
11
330
9
100
AcDbSymbolTableRecord
100
AcDbRegAppTableRecord
  2
ACAD
 70
     0
  0
ENDTAB
  0
TABLE
  2
DIMSTYLE
  5
A
330
0
100
AcDbSymbolTable
 70
     1
100
AcDbDimStyleTable
  0
DIMSTYLE
105
3F
102
{ACAD_REACTORS
330
584
330
592
330
59F
330
5AD
330
5BB
102
}
330
A
100
AcDbSymbolTableRecord
100
AcDbDimStyleTableRecord
  2
STANDARD
 70
     0
 41
2.5
 42
0.0
 43
3.75
 44
1.25
 73
     0
 74
     0
 77
     1
 78
     8
 79
     2
140
3.5
141
0.0
143
0.039370078
147
0.625
171
     3
178
     0
179
     2
271
     2
272
     2
274
     3
283
     0
284
     8
340
1E
  0
ENDTAB
  0
TABLE
  2
BLOCK_RECORD
  5
1
330
0
100
AcDbSymbolTable
 70
     5
  0
BLOCK_RECORD
  5
18
330
1
100
AcDbSymbolTableRecord
100
AcDbBlockTableRecord
  2
*MODEL_SPACE
340
303
  0
BLOCK_RECORD
  5
338
330
1
100
AcDbSymbolTableRecord
100
AcDbBlockTableRecord
  2
*Paper_Space
340
33B
  0
BLOCK_RECORD
  5
585
330
1
100
AcDbSymbolTableRecord
100
AcDbBlockTableRecord
  2
*D0
340
0
  0
BLOCK_RECORD
  5
593
330
1
100
AcDbSymbolTableRecord
100
AcDbBlockTableRecord
  2
*D1
340
0
  0
BLOCK_RECORD
  5
5A0
330
1
100
AcDbSymbolTableRecord
100
AcDbBlockTableRecord
  2
*D2
340
0
  0
BLOCK_RECORD
  5
5AE
330
1
100
AcDbSymbolTableRecord
100
AcDbBlockTableRecord
  2
*D3
340
0
  0
BLOCK_RECORD
  5
5BC
330
1
100
AcDbSymbolTableRecord
100
AcDbBlockTableRecord
  2
*D4
340
0
  0
ENDTAB
  0
ENDSEC
  0
SECTION
  2
BLOCKS
  0
BLOCK
  5
32
330
18
100
AcDbEntity
  8
0
100
AcDbBlockBegin
  2
*MODEL_SPACE
 70
     0
 10
0.0
 20
0.0
 30
0.0
  3
*MODEL_SPACE
  1

  0
ENDBLK
  5
33
330
18
100
AcDbEntity
  8
0
100
AcDbBlockEnd
  0
BLOCK
  5
339
330
338
100
AcDbEntity
 67
     1
  8
0
100
AcDbBlockBegin
  2
*Paper_Space
 70
     0
 10
0.0
 20
0.0
 30
0.0
  3
*Paper_Space
  1

  0
ENDBLK
  5
33A
330
338
100
AcDbEntity
 67
     1
  8
0
100
AcDbBlockEnd
  0
BLOCK
  5
586
330
585
100
AcDbEntity
  8
0
100
AcDbBlockBegin
  2
*D0
 70
     1
 10
0.0
 20
0.0
 30
0.0
  3
*D0
  1

  0
LINE
  5
588
330
585
100
AcDbEntity
  8
2
 62
     0
370
    -2
100
AcDbLine
 10
42.0
 20
2.0
 30
0.0
 11
58.25
 21
2.000000000000057
 31
0.0
  0
LINE
  5
589
330
585
100
AcDbEntity
  8
2
 62
     0
370
    -2
100
AcDbLine
 10
42.0
 20
-2.0
 30
0.0
 11
58.25000000000001
 21
-1.999999999999943
 31
0.0
  0
LINE
  5
58A
330
585
100
AcDbEntity
  8
2
 62
     0
370
    -2
100
AcDbLine
 10
57.00000000000002
 20
-4.499999999999948
 30
0.0
 11
57.00000000000006
 21
-14.53249999999995
 31
0.0
  0
LINE
  5
58B
330
585
100
AcDbEntity
  8
2
 62
     0
370
    -2
100
AcDbLine
 10
56.99999999999999
 20
4.500000000000052
 30
0.0
 11
56.99999999999999
 21
7.000000000000052
 31
0.0
  0
SOLID
  5
58C
330
585
100
AcDbEntity
  8
2
 62
     0
100
AcDbTrace
 10
56.58333333333333
 20
4.500000000000051
 30
0.0
 11
57.41666666666666
 21
4.500000000000054
 31
0.0
 12
57.0
 22
2.000000000000052
 32
0.0
 13
57.0
 23
2.000000000000052
 33
0.0
  0
SOLID
  5
58D
330
585
100
AcDbEntity
  8
2
 62
     0
100
AcDbTrace
 10
57.41666666666669
 20
-4.499999999999946
 30
0.0
 11
56.58333333333336
 21
-4.499999999999949
 31
0.0
 12
57.00000000000001
 22
-1.999999999999948
 32
0.0
 13
57.00000000000001
 23
-1.999999999999948
 33
0.0
  0
MTEXT
  5
58E
330
585
100
AcDbEntity
  8
2
 62
     0
100
AcDbMText
 10
54.58475000000004
 20
-10.76624999999996
 30
0.0
 40
3.5
 41
0.0
 71
     5
 72
     1
  1
M4
  7
SIMPLEX
 11
-3.552713678800501E-15
 21
1.0
 31
0.0
 73
     1
 44
1.0
  0
POINT
  5
58F
330
585
100
AcDbEntity
  8
DEFPOINTS
 62
     0
100
AcDbPoint
 10
42.0
 20
2.0
 30
0.0
  0
POINT
  5
590
330
585
100
AcDbEntity
  8
DEFPOINTS
 62
     0
100
AcDbPoint
 10
42.0
 20
-2.0
 30
0.0
  0
POINT
  5
591
330
585
100
AcDbEntity
  8
DEFPOINTS
 62
     0
100
AcDbPoint
 10
57.00000000000001
 20
-1.999999999999948
 30
0.0
  0
ENDBLK
  5
587
330
585
100
AcDbEntity
  8
0
100
AcDbBlockEnd
  0
BLOCK
  5
594
330
593
100
AcDbEntity
  8
0
100
AcDbBlockBegin
  2
*D1
 70
     1
 10
0.0
 20
0.0
 30
0.0
  3
*D1
  1

  0
LINE
  5
596
330
593
100
AcDbEntity
  8
2
 62
     0
370
    -2
100
AcDbLine
 10
0.0
 20
0.0
 30
0.0
 11
0.0
 21
76.25
 31
0.0
  0
LINE
  5
597
330
593
100
AcDbEntity
  8
2
 62
     0
370
    -2
100
AcDbLine
 10
42.0
 20
0.0
 30
0.0
 11
42.0
 21
76.25
 31
0.0
  0
LINE
  5
598
330
593
100
AcDbEntity
  8
2
 62
     0
370
    -2
100
AcDbLine
 10
2.5
 20
75.0
 30
0.0
 11
39.5
 21
75.0
 31
0.0
  0
SOLID
  5
599
330
593
100
AcDbEntity
  8
2
 62
     0
100
AcDbTrace
 10
2.5
 20
75.41666666666667
 30
0.0
 11
2.5
 21
74.58333333333333
 31
0.0
 12
0.0
 22
75.0
 32
0.0
 13
0.0
 23
75.0
 33
0.0
  0
SOLID
  5
59A
330
593
100
AcDbEntity
  8
2
 62
     0
100
AcDbTrace
 10
39.5
 20
74.58333333333333
 30
0.0
 11
39.5
 21
75.41666666666667
 31
0.0
 12
42.0
 22
75.0
 32
0.0
 13
42.0
 23
75.0
 33
0.0
  0
MTEXT
  5
59B
330
593
100
AcDbEntity
  8
2
 62
     0
100
AcDbMText
 10
21.0
 20
77.431
 30
0.0
 40
3.5
 41
0.0
 71
     5
 72
     1
  1
42
  7
SIMPLEX
 73
     1
 44
1.0
  0
POINT
  5
59C
330
593
100
AcDbEntity
  8
DEFPOINTS
 62
     0
100
AcDbPoint
 10
0.0
 20
0.0
 30
0.0
  0
POINT
  5
59D
330
593
100
AcDbEntity
  8
DEFPOINTS
 62
     0
100
AcDbPoint
 10
42.0
 20
0.0
 30
0.0
  0
POINT
  5
59E
330
593
100
AcDbEntity
  8
DEFPOINTS
 62
     0
100
AcDbPoint
 10
42.0
 20
75.0
 30
0.0
  0
ENDBLK
  5
595
330
593
100
AcDbEntity
  8
0
100
AcDbBlockEnd
  0
BLOCK
  5
5A1
330
5A0
100
AcDbEntity
  8
0
100
AcDbBlockBegin
  2
*D2
 70
     1
 10
0.0
 20
0.0
 30
0.0
  3
*D2
  1

  0
LINE
  5
5A3
330
5A0
100
AcDbEntity
  8
SK2
 62
     0
370
    -2
100
AcDbLine
 10
-15.02
 20
2.25
 30
0.0
 11
-37.27000000001148
 21
2.249999999886449
 31
0.0
  0
LINE
  5
5A4
330
5A0
100
AcDbEntity
  8
SK2
 62
     0
370
    -2
100
AcDbLine
 10
-15.02
 20
-2.25
 30
0.0
 11
-37.26999999998851
 21
-2.250000000113551
 31
0.0
  0
LINE
  5
5A5
330
5A0
100
AcDbEntity
  8
SK2
 62
     0
370
    -2
100
AcDbLine
 10
-36.01999999997575
 20
-4.750000000107171
 30
0.0
 11
-36.019999999901
 21
-19.39900000010717
 31
0.0
  0
LINE
  5
5A6
330
5A0
100
AcDbEntity
  8
SK2
 62
     0
370
    -2
100
AcDbLine
 10
-36.02000000002424
 20
4.749999999892829
 30
0.0
 11
-36.020000000037
 21
7.249999999892829
 31
0.0
  0
SOLID
  5
5A7
330
5A0
100
AcDbEntity
  8
SK2
 62
     0
100
AcDbTrace
 10
-36.4366666666909
 20
4.749999999890703
 30
0.0
 11
-35.60333333335758
 21
4.749999999894955
 31
0.0
 12
-36.02000000001148
 22
2.249999999892828
 32
0.0
 13
-36.02000000001148
 23
2.249999999892828
 33
0.0
  0
SOLID
  5
5A8
330
5A0
100
AcDbEntity
  8
SK2
 62
     0
100
AcDbTrace
 10
-35.60333333330909
 20
-4.750000000105045
 30
0.0
 11
-36.43666666664242
 21
-4.750000000109297
 31
0.0
 12
-36.01999999998851
 22
-2.250000000107172
 32
0.0
 13
-36.01999999998851
 23
-2.250000000107172
 33
0.0
  0
MTEXT
  5
5A9
330
5A0
100
AcDbEntity
  8
SK2
 62
     0
100
AcDbMText
 10
-38.457999999932
 20
-13.32450000011961
 30
0.0
 40
3.5
 41
0.0
 71
     5
 72
     1
  1
%%c4.5
  7
SIMPLEX
 11
-5.103275826614764E-12
 21
1.0
 31
0.0
 73
     1
 44
1.0
  0
POINT
  5
5AA
330
5A0
100
AcDbEntity
  8
DEFPOINTS
 62
     0
100
AcDbPoint
 10
-15.02
 20
2.25
 30
0.0
  0
POINT
  5
5AB
330
5A0
100
AcDbEntity
  8
DEFPOINTS
 62
     0
100
AcDbPoint
 10
-15.02
 20
-2.25
 30
0.0
  0
POINT
  5
5AC
330
5A0
100
AcDbEntity
  8
DEFPOINTS
 62
     0
100
AcDbPoint
 10
-36.01999999998851
 20
-2.250000000107172
 30
0.0
  0
ENDBLK
  5
5A2
330
5A0
100
AcDbEntity
  8
0
100
AcDbBlockEnd
  0
BLOCK
  5
5AF
330
5AE
100
AcDbEntity
  8
0
100
AcDbBlockBegin
  2
*D3
 70
     1
 10
0.0
 20
0.0
 30
0.0
  3
*D3
  1

  0
LINE
  5
5B1
330
5AE
100
AcDbEntity
  8
2
 62
     0
370
    -2
100
AcDbLine
 10
29.14263485
 20
1.505
 30
0.0
 11
29.14263485
 21
61.25
 31
0.0
  0
LINE
  5
5B2
330
5AE
100
AcDbEntity
  8
2
 62
     0
370
    -2
100
AcDbLine
 10
42.0
 20
2.0
 30
0.0
 11
42.0
 21
61.25
 31
0.0
  0
LINE
  5
5B3
330
5AE
100
AcDbEntity
  8
2
 62
     0
370
    -2
100
AcDbLine
 10
42.0
 20
60.0
 30
0.0
 11
58.756
 21
60.0
 31
0.0
  0
LINE
  5
5B4
330
5AE
100
AcDbEntity
  8
2
 62
     0
370
    -2
100
AcDbLine
 10
31.64263485
 20
60.0
 30
0.0
 11
39.5
 21
60.0
 31
0.0
  0
SOLID
  5
5B5
330
5AE
100
AcDbEntity
  8
2
 62
     0
100
AcDbTrace
 10
31.64263485
 20
60.41666666666666
 30
0.0
 11
31.64263485
 21
59.58333333333334
 31
0.0
 12
29.14263485
 22
60.0
 32
0.0
 13
29.14263485
 23
60.0
 33
0.0
  0
SOLID
  5
5B6
330
5AE
100
AcDbEntity
  8
2
 62
     0
100
AcDbTrace
 10
39.5
 20
59.58333333333334
 30
0.0
 11
39.5
 21
60.41666666666666
 31
0.0
 12
42.0
 22
60.0
 32
0.0
 13
42.0
 23
60.0
 33
0.0
  0
MTEXT
  5
5B7
330
5AE
100
AcDbEntity
  8
2
 62
     0
100
AcDbMText
 10
51.628
 20
62.39775
 30
0.0
 40
3.5
 41
0.0
 71
     5
 72
     1
  1
12.86
  7
SIMPLEX
 73
     1
 44
1.0
  0
POINT
  5
5B8
330
5AE
100
AcDbEntity
  8
DEFPOINTS
 62
     0
100
AcDbPoint
 10
29.14263485
 20
1.505
 30
0.0
  0
POINT
  5
5B9
330
5AE
100
AcDbEntity
  8
DEFPOINTS
 62
     0
100
AcDbPoint
 10
42.0
 20
2.0
 30
0.0
  0
POINT
  5
5BA
330
5AE
100
AcDbEntity
  8
DEFPOINTS
 62
     0
100
AcDbPoint
 10
42.0
 20
60.0
 30
0.0
  0
ENDBLK
  5
5B0
330
5AE
100
AcDbEntity
  8
0
100
AcDbBlockEnd
  0
BLOCK
  5
5BD
330
5BC
100
AcDbEntity
  8
0
100
AcDbBlockBegin
  2
*D4
 70
     1
 10
0.0
 20
0.0
 30
0.0
  3
*D4
  1

  0
LINE
  5
5BF
330
5BC
100
AcDbEntity
  8
SK2
 62
     0
370
    -2
100
AcDbLine
 10
-21.02
 20
2.0
 30
0.0
 11
-21.02
 21
91.25
 31
0.0
  0
LINE
  5
5C0
330
5BC
100
AcDbEntity
  8
SK2
 62
     0
370
    -2
100
AcDbLine
 10
43.81
 20
2.0
 30
0.0
 11
43.81
 21
91.25
 31
0.0
  0
LINE
  5
5C1
330
5BC
100
AcDbEntity
  8
SK2
 62
     0
370
    -2
100
AcDbLine
 10
-18.52
 20
90.0
 30
0.0
 11
41.31
 21
90.0
 31
0.0
  0
SOLID
  5
5C2
330
5BC
100
AcDbEntity
  8
SK2
 62
     0
100
AcDbTrace
 10
-18.52
 20
90.41666666666667
 30
0.0
 11
-18.52
 21
89.58333333333333
 31
0.0
 12
-21.02
 22
90.0
 32
0.0
 13
-21.02
 23
90.0
 33
0.0
  0
SOLID
  5
5C3
330
5BC
100
AcDbEntity
  8
SK2
 62
     0
100
AcDbTrace
 10
41.31
 20
89.58333333333333
 30
0.0
 11
41.31
 21
90.41666666666667
 31
0.0
 12
43.81
 22
90.0
 32
0.0
 13
43.81
 23
90.0
 33
0.0
  0
MTEXT
  5
5C4
330
5BC
100
AcDbEntity
  8
SK2
 62
     0
100
AcDbMText
 10
11.395
 20
92.438
 30
0.0
 40
3.5
 41
0.0
 71
     5
 72
     1
  1
64.83
  7
SIMPLEX
 73
     1
 44
1.0
  0
POINT
  5
5C5
330
5BC
100
AcDbEntity
  8
DEFPOINTS
 62
     0
100
AcDbPoint
 10
-21.02
 20
2.0
 30
0.0
  0
POINT
  5
5C6
330
5BC
100
AcDbEntity
  8
DEFPOINTS
 62
     0
100
AcDbPoint
 10
43.81
 20
2.0
 30
0.0
  0
POINT
  5
5C7
330
5BC
100
AcDbEntity
  8
DEFPOINTS
 62
     0
100
AcDbPoint
 10
43.81
 20
90.0
 30
0.0
  0
ENDBLK
  5
5BE
330
5BC
100
AcDbEntity
  8
0
100
AcDbBlockEnd
  0
ENDSEC
  0
SECTION
  2
ENTITIES
  0
LINE
  5
3D6
330
18
100
AcDbEntity
  8
SK4
100
AcDbLine
 10
-23.02
 20
0.0
 30
0.0
 11
17.4
 21
0.0
 31
0.0
  0
LINE
  5
3D7
330
18
100
AcDbEntity
  8
4
100
AcDbLine
 10
15.4
 20
0.0
 30
0.0
 11
45.81
 21
0.0
 31
0.0
  0
LINE
  5
3D8
330
18
100
AcDbEntity
  8
SK4
100
AcDbLine
 10
15.4
 20
0.0
 30
0.0
 11
45.81
 21
0.0
 31
0.0
  0
LINE
  5
3D9
330
18
100
AcDbEntity
  8
1
100
AcDbLine
 10
17.4
 20
2.25
 30
0.0
 11
-0.0000000000000036
 21
2.25
 31
0.0
  0
LINE
  5
3DA
330
18
100
AcDbEntity
  8
1
100
AcDbLine
 10
17.4
 20
2.25
 30
0.0
 11
17.4
 21
2.247763065087757
 31
0.0
  0
LINE
  5
3DB
330
18
100
AcDbEntity
  8
1
100
AcDbLine
 10
17.4
 20
2.247763065087757
 30
0.0
 11
17.4
 21
2.048115122452695
 31
0.0
  0
LINE
  5
3DC
330
18
100
AcDbEntity
  8
1
100
AcDbLine
 10
17.4
 20
2.048115122452695
 30
0.0
 11
17.4
 21
-2.25
 31
0.0
  0
LINE
  5
3DD
330
18
100
AcDbEntity
  8
1
100
AcDbLine
 10
17.4
 20
2.25
 30
0.0
 11
21.62510496
 21
1.505
 31
0.0
  0
LINE
  5
3DE
330
18
100
AcDbEntity
  8
1
100
AcDbLine
 10
21.62510496
 20
1.505
 30
0.0
 11
21.62510496
 21
1.503503739092033
 31
0.0
  0
LINE
  5
3DF
330
18
100
AcDbEntity
  8
1
100
AcDbLine
 10
21.62510496
 20
1.503503739092033
 30
0.0
 11
21.62510496
 21
1.369961448573914
 31
0.0
  0
LINE
  5
3E0
330
18
100
AcDbEntity
  8
1
100
AcDbLine
 10
21.62510496
 20
1.369961448573914
 30
0.0
 11
21.62510496
 21
-1.505
 31
0.0
  0
LINE
  5
3E1
330
18
100
AcDbEntity
  8
1
100
AcDbLine
 10
21.62510496
 20
1.505
 30
0.0
 11
29.14263485
 21
1.505
 31
0.0
  0
LINE
  5
3E2
330
18
100
AcDbEntity
  8
1
100
AcDbLine
 10
29.14263485
 20
1.505
 30
0.0
 11
29.14263485
 21
1.503503739092033
 31
0.0
  0
LINE
  5
3E3
330
18
100
AcDbEntity
  8
1
100
AcDbLine
 10
29.14263485
 20
1.503503739092033
 30
0.0
 11
29.14263485
 21
1.369961448573914
 31
0.0
  0
LINE
  5
3E4
330
18
100
AcDbEntity
  8
1
100
AcDbLine
 10
29.14263485
 20
1.369961448573914
 30
0.0
 11
29.14263485
 21
-1.505
 31
0.0
  0
LINE
  5
3E5
330
18
100
AcDbEntity
  8
1
100
AcDbLine
 10
-0.0000000000000027
 20
-2.25
 30
0.0
 11
17.4
 21
-2.25
 31
0.0
  0
LINE
  5
3E6
330
18
100
AcDbEntity
  8
1
100
AcDbLine
 10
17.4
 20
-2.25
 30
0.0
 11
21.62510496
 21
-1.505
 31
0.0
  0
LINE
  5
3E7
330
18
100
AcDbEntity
  8
1
100
AcDbLine
 10
21.62510496
 20
-1.505
 30
0.0
 11
29.14263485
 21
-1.505
 31
0.0
  0
LINE
  5
3E8
330
18
100
AcDbEntity
  8
1
 62
     1
100
AcDbLine
 10
40.92048320672321
 20
1.96887543820495
 30
0.0
 11
40.98499869054267
 21
1.959380518045619
 31
0.0
  0
LINE
  5
3E9
330
18
100
AcDbEntity
  8
1
 62
     1
100
AcDbLine
 10
41.56566218304201
 20
1.873922684137892
 30
0.0
 11
41.75000114609593
 21
1.84679301490455
 31
0.0
  0
LINE
  5
3EA
330
18
100
AcDbEntity
  8
1
 62
     1
100
AcDbLine
 10
36.03845298923242
 20
2.0
 30
0.0
 11
36.06154701076759
 21
2.0
 31
0.0
  0
LINE
  5
3EB
330
18
100
AcDbEntity
  8
1
 62
     1
100
AcDbLine
 10
36.73845298923241
 20
2.0
 30
0.0
 11
36.76154701076759
 21
2.0
 31
0.0
  0
LINE
  5
3EC
330
18
100
AcDbEntity
  8
1
 62
     1
100
AcDbLine
 10
37.43845298923242
 20
2.0
 30
0.0
 11
37.4615470107676
 21
2.0
 31
0.0
  0
LINE
  5
3ED
330
18
100
AcDbEntity
  8
1
 62
     1
100
AcDbLine
 10
38.83845298923242
 20
2.0
 30
0.0
 11
38.86154701076759
 21
2.0
 31
0.0
  0
LINE
  5
3EE
330
18
100
AcDbEntity
  8
1
 62
     1
100
AcDbLine
 10
39.53845298923244
 20
2.0
 30
0.0
 11
39.56154701076759
 21
2.0
 31
0.0
  0
LINE
  5
3EF
330
18
100
AcDbEntity
  8
1
 62
     1
100
AcDbLine
 10
40.23845298923241
 20
2.0
 30
0.0
 11
40.26154701076759
 21
2.0
 31
0.0
  0
LINE
  5
3F0
330
18
100
AcDbEntity
  8
1
 62
     1
100
AcDbLine
 10
40.23845298923241
 20
2.0
 30
0.0
 11
40.23845298923241
 21
1.99801161341134
 31
0.0
  0
LINE
  5
3F1
330
18
100
AcDbEntity
  8
1
 62
     1
100
AcDbLine
 10
40.23845298923241
 20
1.99801161341134
 30
0.0
 11
40.23845298923241
 21
1.820546775513507
 31
0.0
  0
LINE
  5
3F2
330
18
100
AcDbEntity
  8
1
 62
     1
100
AcDbLine
 10
40.23845298923241
 20
1.820546775513507
 30
0.0
 11
40.23845298923241
 21
-2.0
 31
0.0
  0
LINE
  5
3F3
330
18
100
AcDbEntity
  8
1
 62
     1
100
AcDbLine
 10
38.13845298923241
 20
2.0
 30
0.0
 11
38.1615470107676
 21
2.0
 31
0.0
  0
LINE
  5
3F4
330
18
100
AcDbEntity
  8
1
 62
     1
100
AcDbLine
 10
30.43845298923241
 20
2.0
 30
0.0
 11
30.46154701076759
 21
2.0
 31
0.0
  0
LINE
  5
3F5
330
18
100
AcDbEntity
  8
1
 62
     1
100
AcDbLine
 10
31.13845298923242
 20
2.0
 30
0.0
 11
31.16154701076761
 21
2.0
 31
0.0
  0
LINE
  5
3F6
330
18
100
AcDbEntity
  8
1
 62
     1
100
AcDbLine
 10
31.83845298923242
 20
2.0
 30
0.0
 11
31.86154701076759
 21
2.0
 31
0.0
  0
LINE
  5
3F7
330
18
100
AcDbEntity
  8
1
 62
     1
100
AcDbLine
 10
35.33845298923243
 20
2.0
 30
0.0
 11
35.36154701076759
 21
2.0
 31
0.0
  0
LINE
  5
3F8
330
18
100
AcDbEntity
  8
1
 62
     1
100
AcDbLine
 10
34.63845298923242
 20
2.0
 30
0.0
 11
34.66154701076759
 21
2.0
 31
0.0
  0
LINE
  5
3F9
330
18
100
AcDbEntity
  8
1
 62
     1
100
AcDbLine
 10
33.93845298923242
 20
2.0
 30
0.0
 11
33.96154701076759
 21
2.0
 31
0.0
  0
LINE
  5
3FA
330
18
100
AcDbEntity
  8
1
 62
     1
100
AcDbLine
 10
33.23845298923241
 20
2.0
 30
0.0
 11
33.26154701076759
 21
2.0
 31
0.0
  0
LINE
  5
3FB
330
18
100
AcDbEntity
  8
1
 62
     1
100
AcDbLine
 10
32.53845298923242
 20
2.0
 30
0.0
 11
32.56154701076759
 21
2.0
 31
0.0
  0
LINE
  5
3FC
330
18
100
AcDbEntity
  8
1
 62
     1
100
AcDbLine
 10
29.14263485
 20
1.505
 30
0.0
 11
29.29616034006505
 21
1.59363798299033
 31
0.0
  0
LINE
  5
3FD
330
18
100
AcDbEntity
  8
1
 62
     1
100
AcDbLine
 10
29.6076793924468
 20
1.773493591687472
 30
0.0
 11
29.8211602789085
 21
1.896746838916541
 31
0.0
  0
LINE
  5
3FE
330
18
100
AcDbEntity
  8
1
 62
     1
100
AcDbLine
 10
41.75000114609593
 20
1.84679301490455
 30
0.0
 11
41.75000114609593
 21
1.844956945673116
 31
0.0
  0
LINE
  5
3FF
330
18
100
AcDbEntity
  8
1
 62
     1
100
AcDbLine
 10
41.75000114609593
 20
1.844956945673116
 30
0.0
 11
41.75000114609593
 21
1.681086534162673
 31
0.0
  0
LINE
  5
400
330
18
100
AcDbEntity
  8
1
 62
     1
100
AcDbLine
 10
41.75000114609593
 20
1.681086534162673
 30
0.0
 11
41.75000114609593
 21
-1.84679301490455
 31
0.0
  0
LINE
  5
401
330
18
100
AcDbEntity
  8
1
 62
     1
100
AcDbLine
 10
42.0
 20
-1.4137825
 30
0.0
 11
41.75000114609593
 21
-1.846793014904559
 31
0.0
  0
LINE
  5
402
330
18
100
AcDbEntity
  8
1
 62
     1
100
AcDbLine
 10
40.9204832067232
 20
-1.968875438204934
 30
0.0
 11
40.6
 21
-1.4137825
 31
0.0
  0
LINE
  5
403
330
18
100
AcDbEntity
  8
1
 62
     1
100
AcDbLine
 10
40.92048320672321
 20
1.96887543820495
 30
0.0
 11
40.92048320672321
 21
1.966917995446915
 31
0.0
  0
LINE
  5
404
330
18
100
AcDbEntity
  8
1
 62
     1
100
AcDbLine
 10
40.92048320672321
 20
1.966917995446915
 30
0.0
 11
40.92048320672321
 21
1.792214915205882
 31
0.0
  0
LINE
  5
405
330
18
100
AcDbEntity
  8
1
 62
     1
100
AcDbLine
 10
40.92048320672321
 20
1.792214915205882
 30
0.0
 11
40.92048320672321
 21
-1.96887543820495
 31
0.0
  0
LINE
  5
406
330
18
100
AcDbEntity
  8
1
 62
     1
100
AcDbLine
 10
40.26154701076759
 20
2.0
 30
0.0
 11
40.26154701076759
 21
1.99801161341134
 31
0.0
  0
LINE
  5
407
330
18
100
AcDbEntity
  8
1
 62
     1
100
AcDbLine
 10
40.26154701076759
 20
1.99801161341134
 30
0.0
 11
40.26154701076759
 21
1.820546775513507
 31
0.0
  0
LINE
  5
408
330
18
100
AcDbEntity
  8
1
 62
     1
100
AcDbLine
 10
40.26154701076759
 20
1.820546775513507
 30
0.0
 11
40.26154701076759
 21
-2.0
 31
0.0
  0
LINE
  5
409
330
18
100
AcDbEntity
  8
1
 62
     1
100
AcDbLine
 10
40.6
 20
-1.4137825
 30
0.0
 11
40.26154701076759
 21
-2.000000000000003
 31
0.0
  0
LINE
  5
40A
330
18
100
AcDbEntity
  8
1
 62
     1
100
AcDbLine
 10
40.6
 20
-1.4137825
 30
0.0
 11
40.6
 21
-1.412376926918858
 31
0.0
  0
LINE
  5
40B
330
18
100
AcDbEntity
  8
1
 62
     1
100
AcDbLine
 10
40.6
 20
-1.412376926918858
 30
0.0
 11
40.59999999999999
 21
-1.286928585826209
 31
0.0
  0
LINE
  5
40C
330
18
100
AcDbEntity
  8
1
 62
     1
100
AcDbLine
 10
40.59999999999999
 20
-1.286928585826209
 30
0.0
 11
40.6
 21
1.4137825
 31
0.0
  0
LINE
  5
40D
330
18
100
AcDbEntity
  8
1
 62
     1
100
AcDbLine
 10
40.98499869054267
 20
1.959380518045619
 30
0.0
 11
40.98499869054267
 21
1.957432515073537
 31
0.0
  0
LINE
  5
40E
330
18
100
AcDbEntity
  8
1
 62
     1
100
AcDbLine
 10
40.98499869054267
 20
1.957432515073537
 30
0.0
 11
40.98499869054267
 21
1.783571942065968
 31
0.0
  0
LINE
  5
40F
330
18
100
AcDbEntity
  8
1
 62
     1
100
AcDbLine
 10
40.98499869054267
 20
1.783571942065968
 30
0.0
 11
40.98499869054267
 21
-1.959380518045619
 31
0.0
  0
LINE
  5
410
330
18
100
AcDbEntity
  8
1
 62
     1
100
AcDbLine
 10
41.3
 20
-1.4137825
 30
0.0
 11
40.98499869054267
 21
-1.959380518045578
 31
0.0
  0
LINE
  5
411
330
18
100
AcDbEntity
  8
1
 62
     1
100
AcDbLine
 10
41.56566218304201
 20
-1.8739226841379
 30
0.0
 11
41.3
 21
-1.4137825
 31
0.0
  0
LINE
  5
412
330
18
100
AcDbEntity
  8
1
 62
     1
100
AcDbLine
 10
41.3
 20
-1.4137825
 30
0.0
 11
41.30000000000001
 21
-1.412376926918858
 31
0.0
  0
LINE
  5
413
330
18
100
AcDbEntity
  8
1
 62
     1
100
AcDbLine
 10
41.30000000000001
 20
-1.412376926918858
 30
0.0
 11
41.3
 21
-1.286928585826209
 31
0.0
  0
LINE
  5
414
330
18
100
AcDbEntity
  8
1
 62
     1
100
AcDbLine
 10
41.3
 20
-1.286928585826209
 30
0.0
 11
41.3
 21
1.4137825
 31
0.0
  0
LINE
  5
415
330
18
100
AcDbEntity
  8
1
 62
     1
100
AcDbLine
 10
41.56566218304201
 20
1.873922684137892
 30
0.0
 11
41.56566218304201
 21
1.872059642771229
 31
0.0
  0
LINE
  5
416
330
18
100
AcDbEntity
  8
1
 62
     1
100
AcDbLine
 10
41.56566218304201
 20
1.872059642771229
 30
0.0
 11
41.56566218304201
 21
1.705781950084428
 31
0.0
  0
LINE
  5
417
330
18
100
AcDbEntity
  8
1
 62
     1
100
AcDbLine
 10
41.56566218304201
 20
1.705781950084428
 30
0.0
 11
41.56566218304201
 21
-1.873922684137892
 31
0.0
  0
LINE
  5
418
330
18
100
AcDbEntity
  8
1
 62
     1
100
AcDbLine
 10
36.06154701076759
 20
2.0
 30
0.0
 11
36.06154701076759
 21
1.99801161341134
 31
0.0
  0
LINE
  5
419
330
18
100
AcDbEntity
  8
1
 62
     1
100
AcDbLine
 10
36.06154701076759
 20
1.99801161341134
 30
0.0
 11
36.06154701076759
 21
1.820546775513507
 31
0.0
  0
LINE
  5
41A
330
18
100
AcDbEntity
  8
1
 62
     1
100
AcDbLine
 10
36.06154701076759
 20
1.820546775513507
 30
0.0
 11
36.06154701076759
 21
-2.0
 31
0.0
  0
LINE
  5
41B
330
18
100
AcDbEntity
  8
1
 62
     1
100
AcDbLine
 10
36.40000000000001
 20
-1.4137825
 30
0.0
 11
36.06154701076759
 21
-2.000000000000003
 31
0.0
  0
LINE
  5
41C
330
18
100
AcDbEntity
  8
1
 62
     1
100
AcDbLine
 10
36.73845298923241
 20
-2.000000000000002
 30
0.0
 11
36.40000000000001
 21
-1.4137825
 31
0.0
  0
LINE
  5
41D
330
18
100
AcDbEntity
  8
1
 62
     1
100
AcDbLine
 10
36.40000000000001
 20
-1.4137825
 30
0.0
 11
36.40000000000001
 21
-1.412376926918858
 31
0.0
  0
LINE
  5
41E
330
18
100
AcDbEntity
  8
1
 62
     1
100
AcDbLine
 10
36.40000000000001
 20
-1.412376926918858
 30
0.0
 11
36.40000000000001
 21
-1.286928585826209
 31
0.0
  0
LINE
  5
41F
330
18
100
AcDbEntity
  8
1
 62
     1
100
AcDbLine
 10
36.40000000000001
 20
-1.286928585826209
 30
0.0
 11
36.40000000000001
 21
1.4137825
 31
0.0
  0
LINE
  5
420
330
18
100
AcDbEntity
  8
1
 62
     1
100
AcDbLine
 10
36.73845298923241
 20
2.0
 30
0.0
 11
36.73845298923242
 21
1.99801161341134
 31
0.0
  0
LINE
  5
421
330
18
100
AcDbEntity
  8
1
 62
     1
100
AcDbLine
 10
36.73845298923242
 20
1.99801161341134
 30
0.0
 11
36.73845298923241
 21
1.820546775513507
 31
0.0
  0
LINE
  5
422
330
18
100
AcDbEntity
  8
1
 62
     1
100
AcDbLine
 10
36.73845298923241
 20
1.820546775513507
 30
0.0
 11
36.73845298923241
 21
-2.0
 31
0.0
  0
LINE
  5
423
330
18
100
AcDbEntity
  8
1
 62
     1
100
AcDbLine
 10
36.76154701076759
 20
2.0
 30
0.0
 11
36.76154701076759
 21
1.99801161341134
 31
0.0
  0
LINE
  5
424
330
18
100
AcDbEntity
  8
1
 62
     1
100
AcDbLine
 10
36.76154701076759
 20
1.99801161341134
 30
0.0
 11
36.76154701076759
 21
1.820546775513507
 31
0.0
  0
LINE
  5
425
330
18
100
AcDbEntity
  8
1
 62
     1
100
AcDbLine
 10
36.76154701076759
 20
1.820546775513507
 30
0.0
 11
36.76154701076759
 21
-2.0
 31
0.0
  0
LINE
  5
426
330
18
100
AcDbEntity
  8
1
 62
     1
100
AcDbLine
 10
37.1
 20
-1.4137825
 30
0.0
 11
36.76154701076759
 21
-2.000000000000003
 31
0.0
  0
LINE
  5
427
330
18
100
AcDbEntity
  8
1
 62
     1
100
AcDbLine
 10
37.43845298923242
 20
-2.000000000000003
 30
0.0
 11
37.1
 21
-1.4137825
 31
0.0
  0
LINE
  5
428
330
18
100
AcDbEntity
  8
1
 62
     1
100
AcDbLine
 10
37.1
 20
-1.4137825
 30
0.0
 11
37.1
 21
-1.412376926918858
 31
0.0
  0
LINE
  5
429
330
18
100
AcDbEntity
  8
1
 62
     1
100
AcDbLine
 10
37.1
 20
-1.412376926918858
 30
0.0
 11
37.1
 21
-1.286928585826209
 31
0.0
  0
LINE
  5
42A
330
18
100
AcDbEntity
  8
1
 62
     1
100
AcDbLine
 10
37.1
 20
-1.286928585826209
 30
0.0
 11
37.1
 21
1.4137825
 31
0.0
  0
LINE
  5
42B
330
18
100
AcDbEntity
  8
1
 62
     1
100
AcDbLine
 10
37.43845298923242
 20
2.0
 30
0.0
 11
37.43845298923242
 21
1.99801161341134
 31
0.0
  0
LINE
  5
42C
330
18
100
AcDbEntity
  8
1
 62
     1
100
AcDbLine
 10
37.43845298923242
 20
1.99801161341134
 30
0.0
 11
37.43845298923242
 21
1.820546775513507
 31
0.0
  0
LINE
  5
42D
330
18
100
AcDbEntity
  8
1
 62
     1
100
AcDbLine
 10
37.43845298923242
 20
1.820546775513507
 30
0.0
 11
37.43845298923242
 21
-2.0
 31
0.0
  0
LINE
  5
42E
330
18
100
AcDbEntity
  8
1
 62
     1
100
AcDbLine
 10
37.4615470107676
 20
2.0
 30
0.0
 11
37.4615470107676
 21
1.99801161341134
 31
0.0
  0
LINE
  5
42F
330
18
100
AcDbEntity
  8
1
 62
     1
100
AcDbLine
 10
37.4615470107676
 20
1.99801161341134
 30
0.0
 11
37.4615470107676
 21
1.820546775513507
 31
0.0
  0
LINE
  5
430
330
18
100
AcDbEntity
  8
1
 62
     1
100
AcDbLine
 10
37.4615470107676
 20
1.820546775513507
 30
0.0
 11
37.4615470107676
 21
-2.0
 31
0.0
  0
LINE
  5
431
330
18
100
AcDbEntity
  8
1
 62
     1
100
AcDbLine
 10
37.8
 20
-1.4137825
 30
0.0
 11
37.46154701076759
 21
-1.99999999999999
 31
0.0
  0
LINE
  5
432
330
18
100
AcDbEntity
  8
1
 62
     1
100
AcDbLine
 10
38.13845298923241
 20
-1.99999999999999
 30
0.0
 11
37.8
 21
-1.4137825
 31
0.0
  0
LINE
  5
433
330
18
100
AcDbEntity
  8
1
 62
     1
100
AcDbLine
 10
37.8
 20
-1.4137825
 30
0.0
 11
37.80000000000001
 21
-1.412376926918858
 31
0.0
  0
LINE
  5
434
330
18
100
AcDbEntity
  8
1
 62
     1
100
AcDbLine
 10
37.80000000000001
 20
-1.412376926918858
 30
0.0
 11
37.8
 21
-1.286928585826209
 31
0.0
  0
LINE
  5
435
330
18
100
AcDbEntity
  8
1
 62
     1
100
AcDbLine
 10
37.8
 20
-1.286928585826209
 30
0.0
 11
37.8
 21
1.4137825
 31
0.0
  0
LINE
  5
436
330
18
100
AcDbEntity
  8
1
 62
     1
100
AcDbLine
 10
38.13845298923241
 20
2.0
 30
0.0
 11
38.13845298923242
 21
1.99801161341134
 31
0.0
  0
LINE
  5
437
330
18
100
AcDbEntity
  8
1
 62
     1
100
AcDbLine
 10
38.13845298923242
 20
1.99801161341134
 30
0.0
 11
38.13845298923241
 21
1.820546775513507
 31
0.0
  0
LINE
  5
438
330
18
100
AcDbEntity
  8
1
 62
     1
100
AcDbLine
 10
38.13845298923241
 20
1.820546775513507
 30
0.0
 11
38.13845298923241
 21
-2.0
 31
0.0
  0
LINE
  5
439
330
18
100
AcDbEntity
  8
1
 62
     1
100
AcDbLine
 10
38.83845298923242
 20
-2.000000000000003
 30
0.0
 11
38.5
 21
-1.4137825
 31
0.0
  0
LINE
  5
43A
330
18
100
AcDbEntity
  8
1
 62
     1
100
AcDbLine
 10
38.83845298923242
 20
2.0
 30
0.0
 11
38.83845298923242
 21
1.99801161341134
 31
0.0
  0
LINE
  5
43B
330
18
100
AcDbEntity
  8
1
 62
     1
100
AcDbLine
 10
38.83845298923242
 20
1.99801161341134
 30
0.0
 11
38.83845298923242
 21
1.820546775513507
 31
0.0
  0
LINE
  5
43C
330
18
100
AcDbEntity
  8
1
 62
     1
100
AcDbLine
 10
38.83845298923242
 20
1.820546775513507
 30
0.0
 11
38.83845298923242
 21
-2.0
 31
0.0
  0
LINE
  5
43D
330
18
100
AcDbEntity
  8
1
 62
     1
100
AcDbLine
 10
38.1615470107676
 20
2.0
 30
0.0
 11
38.16154701076761
 21
1.99801161341134
 31
0.0
  0
LINE
  5
43E
330
18
100
AcDbEntity
  8
1
 62
     1
100
AcDbLine
 10
38.16154701076761
 20
1.99801161341134
 30
0.0
 11
38.16154701076759
 21
1.820546775513507
 31
0.0
  0
LINE
  5
43F
330
18
100
AcDbEntity
  8
1
 62
     1
100
AcDbLine
 10
38.16154701076759
 20
1.820546775513507
 30
0.0
 11
38.1615470107676
 21
-2.0
 31
0.0
  0
LINE
  5
440
330
18
100
AcDbEntity
  8
1
 62
     1
100
AcDbLine
 10
38.5
 20
-1.4137825
 30
0.0
 11
38.1615470107676
 21
-1.99999999999999
 31
0.0
  0
LINE
  5
441
330
18
100
AcDbEntity
  8
1
 62
     1
100
AcDbLine
 10
38.5
 20
-1.4137825
 30
0.0
 11
38.5
 21
-1.412376926918858
 31
0.0
  0
LINE
  5
442
330
18
100
AcDbEntity
  8
1
 62
     1
100
AcDbLine
 10
38.5
 20
-1.412376926918858
 30
0.0
 11
38.5
 21
-1.286928585826209
 31
0.0
  0
LINE
  5
443
330
18
100
AcDbEntity
  8
1
 62
     1
100
AcDbLine
 10
38.5
 20
-1.286928585826209
 30
0.0
 11
38.5
 21
1.4137825
 31
0.0
  0
LINE
  5
444
330
18
100
AcDbEntity
  8
1
 62
     1
100
AcDbLine
 10
38.86154701076759
 20
2.0
 30
0.0
 11
38.86154701076759
 21
1.99801161341134
 31
0.0
  0
LINE
  5
445
330
18
100
AcDbEntity
  8
1
 62
     1
100
AcDbLine
 10
38.86154701076759
 20
1.99801161341134
 30
0.0
 11
38.86154701076759
 21
1.820546775513507
 31
0.0
  0
LINE
  5
446
330
18
100
AcDbEntity
  8
1
 62
     1
100
AcDbLine
 10
38.86154701076759
 20
1.820546775513507
 30
0.0
 11
38.86154701076759
 21
-2.0
 31
0.0
  0
LINE
  5
447
330
18
100
AcDbEntity
  8
1
 62
     1
100
AcDbLine
 10
39.2
 20
-1.4137825
 30
0.0
 11
38.86154701076759
 21
-1.99999999999999
 31
0.0
  0
LINE
  5
448
330
18
100
AcDbEntity
  8
1
 62
     1
100
AcDbLine
 10
39.53845298923244
 20
-2.00000000000004
 30
0.0
 11
39.2
 21
-1.4137825
 31
0.0
  0
LINE
  5
449
330
18
100
AcDbEntity
  8
1
 62
     1
100
AcDbLine
 10
39.2
 20
-1.4137825
 30
0.0
 11
39.20000000000001
 21
-1.412376926918858
 31
0.0
  0
LINE
  5
44A
330
18
100
AcDbEntity
  8
1
 62
     1
100
AcDbLine
 10
39.20000000000001
 20
-1.412376926918858
 30
0.0
 11
39.2
 21
-1.286928585826209
 31
0.0
  0
LINE
  5
44B
330
18
100
AcDbEntity
  8
1
 62
     1
100
AcDbLine
 10
39.2
 20
-1.286928585826209
 30
0.0
 11
39.2
 21
1.4137825
 31
0.0
  0
LINE
  5
44C
330
18
100
AcDbEntity
  8
1
 62
     1
100
AcDbLine
 10
39.53845298923244
 20
2.0
 30
0.0
 11
39.53845298923244
 21
1.99801161341134
 31
0.0
  0
LINE
  5
44D
330
18
100
AcDbEntity
  8
1
 62
     1
100
AcDbLine
 10
39.53845298923244
 20
1.99801161341134
 30
0.0
 11
39.53845298923244
 21
1.820546775513507
 31
0.0
  0
LINE
  5
44E
330
18
100
AcDbEntity
  8
1
 62
     1
100
AcDbLine
 10
39.53845298923244
 20
1.820546775513507
 30
0.0
 11
39.53845298923244
 21
-2.0
 31
0.0
  0
LINE
  5
44F
330
18
100
AcDbEntity
  8
1
 62
     1
100
AcDbLine
 10
39.56154701076759
 20
2.0
 30
0.0
 11
39.56154701076759
 21
1.99801161341134
 31
0.0
  0
LINE
  5
450
330
18
100
AcDbEntity
  8
1
 62
     1
100
AcDbLine
 10
39.56154701076759
 20
1.99801161341134
 30
0.0
 11
39.56154701076759
 21
1.820546775513507
 31
0.0
  0
LINE
  5
451
330
18
100
AcDbEntity
  8
1
 62
     1
100
AcDbLine
 10
39.56154701076759
 20
1.820546775513507
 30
0.0
 11
39.56154701076759
 21
-2.0
 31
0.0
  0
LINE
  5
452
330
18
100
AcDbEntity
  8
1
 62
     1
100
AcDbLine
 10
39.90000000000001
 20
-1.4137825
 30
0.0
 11
39.56154701076759
 21
-2.000000000000003
 31
0.0
  0
LINE
  5
453
330
18
100
AcDbEntity
  8
1
 62
     1
100
AcDbLine
 10
40.23845298923241
 20
-2.000000000000002
 30
0.0
 11
39.90000000000001
 21
-1.4137825
 31
0.0
  0
LINE
  5
454
330
18
100
AcDbEntity
  8
1
 62
     1
100
AcDbLine
 10
39.90000000000001
 20
-1.4137825
 30
0.0
 11
39.90000000000001
 21
-1.412376926918858
 31
0.0
  0
LINE
  5
455
330
18
100
AcDbEntity
  8
1
 62
     1
100
AcDbLine
 10
39.90000000000001
 20
-1.412376926918858
 30
0.0
 11
39.90000000000001
 21
-1.286928585826209
 31
0.0
  0
LINE
  5
456
330
18
100
AcDbEntity
  8
1
 62
     1
100
AcDbLine
 10
39.90000000000001
 20
-1.286928585826209
 30
0.0
 11
39.90000000000001
 21
1.4137825
 31
0.0
  0
LINE
  5
457
330
18
100
AcDbEntity
  8
1
 62
     1
100
AcDbLine
 10
30.43845298923241
 20
-1.999999999999996
 30
0.0
 11
30.1
 21
-1.4137825
 31
0.0
  0
LINE
  5
458
330
18
100
AcDbEntity
  8
1
 62
     1
100
AcDbLine
 10
30.43845298923241
 20
2.0
 30
0.0
 11
30.43845298923241
 21
1.99801161341134
 31
0.0
  0
LINE
  5
459
330
18
100
AcDbEntity
  8
1
 62
     1
100
AcDbLine
 10
30.43845298923241
 20
1.99801161341134
 30
0.0
 11
30.43845298923241
 21
1.820546775513507
 31
0.0
  0
LINE
  5
45A
330
18
100
AcDbEntity
  8
1
 62
     1
100
AcDbLine
 10
30.43845298923241
 20
1.820546775513507
 30
0.0
 11
30.43845298923241
 21
-2.0
 31
0.0
  0
LINE
  5
45B
330
18
100
AcDbEntity
  8
1
 62
     1
100
AcDbLine
 10
29.8211602789085
 20
1.896746838916541
 30
0.0
 11
29.8211602789085
 21
1.894861105928248
 31
0.0
  0
LINE
  5
45C
330
18
100
AcDbEntity
  8
1
 62
     1
100
AcDbLine
 10
29.8211602789085
 20
1.894861105928248
 30
0.0
 11
29.82116027890849
 21
1.726558170777473
 31
0.0
  0
LINE
  5
45D
330
18
100
AcDbEntity
  8
1
 62
     1
100
AcDbLine
 10
29.82116027890849
 20
1.726558170777473
 30
0.0
 11
29.8211602789085
 21
-1.896746838916541
 31
0.0
  0
LINE
  5
45E
330
18
100
AcDbEntity
  8
1
 62
     1
100
AcDbLine
 10
30.1
 20
-1.4137825
 30
0.0
 11
29.8211602789085
 21
-1.896746838916544
 31
0.0
  0
LINE
  5
45F
330
18
100
AcDbEntity
  8
1
 62
     1
100
AcDbLine
 10
30.1
 20
-1.4137825
 30
0.0
 11
30.1
 21
-1.412376926918858
 31
0.0
  0
LINE
  5
460
330
18
100
AcDbEntity
  8
1
 62
     1
100
AcDbLine
 10
30.1
 20
-1.412376926918858
 30
0.0
 11
30.1
 21
-1.286928585826209
 31
0.0
  0
LINE
  5
461
330
18
100
AcDbEntity
  8
1
 62
     1
100
AcDbLine
 10
30.1
 20
-1.286928585826209
 30
0.0
 11
30.1
 21
1.4137825
 31
0.0
  0
LINE
  5
462
330
18
100
AcDbEntity
  8
1
 62
     1
100
AcDbLine
 10
30.46154701076759
 20
2.0
 30
0.0
 11
30.4615470107676
 21
1.99801161341134
 31
0.0
  0
LINE
  5
463
330
18
100
AcDbEntity
  8
1
 62
     1
100
AcDbLine
 10
30.4615470107676
 20
1.99801161341134
 30
0.0
 11
30.46154701076759
 21
1.820546775513507
 31
0.0
  0
LINE
  5
464
330
18
100
AcDbEntity
  8
1
 62
     1
100
AcDbLine
 10
30.46154701076759
 20
1.820546775513507
 30
0.0
 11
30.46154701076759
 21
-2.0
 31
0.0
  0
LINE
  5
465
330
18
100
AcDbEntity
  8
1
 62
     1
100
AcDbLine
 10
30.8
 20
-1.4137825
 30
0.0
 11
30.46154701076759
 21
-1.999999999999996
 31
0.0
  0
LINE
  5
466
330
18
100
AcDbEntity
  8
1
 62
     1
100
AcDbLine
 10
31.13845298923241
 20
-1.999999999999996
 30
0.0
 11
30.8
 21
-1.4137825
 31
0.0
  0
LINE
  5
467
330
18
100
AcDbEntity
  8
1
 62
     1
100
AcDbLine
 10
30.8
 20
-1.4137825
 30
0.0
 11
30.80000000000001
 21
-1.412376926918858
 31
0.0
  0
LINE
  5
468
330
18
100
AcDbEntity
  8
1
 62
     1
100
AcDbLine
 10
30.80000000000001
 20
-1.412376926918858
 30
0.0
 11
30.8
 21
-1.286928585826209
 31
0.0
  0
LINE
  5
469
330
18
100
AcDbEntity
  8
1
 62
     1
100
AcDbLine
 10
30.8
 20
-1.286928585826209
 30
0.0
 11
30.8
 21
1.4137825
 31
0.0
  0
LINE
  5
46A
330
18
100
AcDbEntity
  8
1
 62
     1
100
AcDbLine
 10
31.13845298923242
 20
2.0
 30
0.0
 11
31.13845298923242
 21
1.99801161341134
 31
0.0
  0
LINE
  5
46B
330
18
100
AcDbEntity
  8
1
 62
     1
100
AcDbLine
 10
31.13845298923242
 20
1.99801161341134
 30
0.0
 11
31.13845298923241
 21
1.820546775513507
 31
0.0
  0
LINE
  5
46C
330
18
100
AcDbEntity
  8
1
 62
     1
100
AcDbLine
 10
31.13845298923241
 20
1.820546775513507
 30
0.0
 11
31.13845298923242
 21
-2.0
 31
0.0
  0
LINE
  5
46D
330
18
100
AcDbEntity
  8
1
 62
     1
100
AcDbLine
 10
31.1615470107676
 20
2.0
 30
0.0
 11
31.16154701076761
 21
1.99801161341134
 31
0.0
  0
LINE
  5
46E
330
18
100
AcDbEntity
  8
1
 62
     1
100
AcDbLine
 10
31.16154701076761
 20
1.99801161341134
 30
0.0
 11
31.1615470107676
 21
1.820546775513507
 31
0.0
  0
LINE
  5
46F
330
18
100
AcDbEntity
  8
1
 62
     1
100
AcDbLine
 10
31.1615470107676
 20
1.820546775513507
 30
0.0
 11
31.1615470107676
 21
-2.0
 31
0.0
  0
LINE
  5
470
330
18
100
AcDbEntity
  8
1
 62
     1
100
AcDbLine
 10
31.5
 20
-1.4137825
 30
0.0
 11
31.1615470107676
 21
-1.999999999999984
 31
0.0
  0
LINE
  5
471
330
18
100
AcDbEntity
  8
1
 62
     1
100
AcDbLine
 10
31.83845298923242
 20
-2.000000000000003
 30
0.0
 11
31.5
 21
-1.4137825
 31
0.0
  0
LINE
  5
472
330
18
100
AcDbEntity
  8
1
 62
     1
100
AcDbLine
 10
31.5
 20
-1.4137825
 30
0.0
 11
31.5
 21
-1.412376926918858
 31
0.0
  0
LINE
  5
473
330
18
100
AcDbEntity
  8
1
 62
     1
100
AcDbLine
 10
31.5
 20
-1.412376926918858
 30
0.0
 11
31.50000000000001
 21
-1.286928585826209
 31
0.0
  0
LINE
  5
474
330
18
100
AcDbEntity
  8
1
 62
     1
100
AcDbLine
 10
31.50000000000001
 20
-1.286928585826209
 30
0.0
 11
31.5
 21
1.4137825
 31
0.0
  0
LINE
  5
475
330
18
100
AcDbEntity
  8
1
 62
     1
100
AcDbLine
 10
31.83845298923242
 20
2.0
 30
0.0
 11
31.83845298923242
 21
1.99801161341134
 31
0.0
  0
LINE
  5
476
330
18
100
AcDbEntity
  8
1
 62
     1
100
AcDbLine
 10
31.83845298923242
 20
1.99801161341134
 30
0.0
 11
31.83845298923242
 21
1.820546775513507
 31
0.0
  0
LINE
  5
477
330
18
100
AcDbEntity
  8
1
 62
     1
100
AcDbLine
 10
31.83845298923242
 20
1.820546775513507
 30
0.0
 11
31.83845298923242
 21
-2.0
 31
0.0
  0
LINE
  5
478
330
18
100
AcDbEntity
  8
1
 62
     1
100
AcDbLine
 10
31.86154701076759
 20
2.0
 30
0.0
 11
31.86154701076759
 21
1.99801161341134
 31
0.0
  0
LINE
  5
479
330
18
100
AcDbEntity
  8
1
 62
     1
100
AcDbLine
 10
31.86154701076759
 20
1.99801161341134
 30
0.0
 11
31.86154701076759
 21
1.820546775513507
 31
0.0
  0
LINE
  5
47A
330
18
100
AcDbEntity
  8
1
 62
     1
100
AcDbLine
 10
31.86154701076759
 20
1.820546775513507
 30
0.0
 11
31.86154701076759
 21
-2.0
 31
0.0
  0
LINE
  5
47B
330
18
100
AcDbEntity
  8
1
 62
     1
100
AcDbLine
 10
32.2
 20
-1.4137825
 30
0.0
 11
31.86154701076759
 21
-1.999999999999996
 31
0.0
  0
LINE
  5
47C
330
18
100
AcDbEntity
  8
1
 62
     1
100
AcDbLine
 10
32.53845298923242
 20
-2.000000000000003
 30
0.0
 11
32.2
 21
-1.4137825
 31
0.0
  0
LINE
  5
47D
330
18
100
AcDbEntity
  8
1
 62
     1
100
AcDbLine
 10
32.2
 20
-1.4137825
 30
0.0
 11
32.2
 21
-1.412376926918858
 31
0.0
  0
LINE
  5
47E
330
18
100
AcDbEntity
  8
1
 62
     1
100
AcDbLine
 10
32.2
 20
-1.412376926918858
 30
0.0
 11
32.2
 21
-1.286928585826209
 31
0.0
  0
LINE
  5
47F
330
18
100
AcDbEntity
  8
1
 62
     1
100
AcDbLine
 10
32.2
 20
-1.286928585826209
 30
0.0
 11
32.2
 21
1.4137825
 31
0.0
  0
LINE
  5
480
330
18
100
AcDbEntity
  8
1
 62
     1
100
AcDbLine
 10
32.53845298923242
 20
2.0
 30
0.0
 11
32.53845298923242
 21
1.99801161341134
 31
0.0
  0
LINE
  5
481
330
18
100
AcDbEntity
  8
1
 62
     1
100
AcDbLine
 10
32.53845298923242
 20
1.99801161341134
 30
0.0
 11
32.53845298923242
 21
1.820546775513507
 31
0.0
  0
LINE
  5
482
330
18
100
AcDbEntity
  8
1
 62
     1
100
AcDbLine
 10
32.53845298923242
 20
1.820546775513507
 30
0.0
 11
32.53845298923242
 21
-2.0
 31
0.0
  0
LINE
  5
483
330
18
100
AcDbEntity
  8
1
 62
     1
100
AcDbLine
 10
36.03845298923243
 20
-2.000000000000003
 30
0.0
 11
35.7
 21
-1.4137825
 31
0.0
  0
LINE
  5
484
330
18
100
AcDbEntity
  8
1
 62
     1
100
AcDbLine
 10
36.03845298923242
 20
2.0
 30
0.0
 11
36.03845298923242
 21
1.99801161341134
 31
0.0
  0
LINE
  5
485
330
18
100
AcDbEntity
  8
1
 62
     1
100
AcDbLine
 10
36.03845298923242
 20
1.99801161341134
 30
0.0
 11
36.03845298923242
 21
1.820546775513507
 31
0.0
  0
LINE
  5
486
330
18
100
AcDbEntity
  8
1
 62
     1
100
AcDbLine
 10
36.03845298923242
 20
1.820546775513507
 30
0.0
 11
36.03845298923242
 21
-2.0
 31
0.0
  0
LINE
  5
487
330
18
100
AcDbEntity
  8
1
 62
     1
100
AcDbLine
 10
35.36154701076759
 20
2.0
 30
0.0
 11
35.36154701076759
 21
1.99801161341134
 31
0.0
  0
LINE
  5
488
330
18
100
AcDbEntity
  8
1
 62
     1
100
AcDbLine
 10
35.36154701076759
 20
1.99801161341134
 30
0.0
 11
35.36154701076759
 21
1.820546775513507
 31
0.0
  0
LINE
  5
489
330
18
100
AcDbEntity
  8
1
 62
     1
100
AcDbLine
 10
35.36154701076759
 20
1.820546775513507
 30
0.0
 11
35.36154701076759
 21
-2.0
 31
0.0
  0
LINE
  5
48A
330
18
100
AcDbEntity
  8
1
 62
     1
100
AcDbLine
 10
35.7
 20
-1.4137825
 30
0.0
 11
35.36154701076759
 21
-1.99999999999999
 31
0.0
  0
LINE
  5
48B
330
18
100
AcDbEntity
  8
1
 62
     1
100
AcDbLine
 10
35.7
 20
-1.4137825
 30
0.0
 11
35.70000000000001
 21
-1.412376926918858
 31
0.0
  0
LINE
  5
48C
330
18
100
AcDbEntity
  8
1
 62
     1
100
AcDbLine
 10
35.70000000000001
 20
-1.412376926918858
 30
0.0
 11
35.7
 21
-1.286928585826209
 31
0.0
  0
LINE
  5
48D
330
18
100
AcDbEntity
  8
1
 62
     1
100
AcDbLine
 10
35.7
 20
-1.286928585826209
 30
0.0
 11
35.7
 21
1.4137825
 31
0.0
  0
LINE
  5
48E
330
18
100
AcDbEntity
  8
1
 62
     1
100
AcDbLine
 10
35.33845298923243
 20
-2.000000000000027
 30
0.0
 11
35.0
 21
-1.4137825
 31
0.0
  0
LINE
  5
48F
330
18
100
AcDbEntity
  8
1
 62
     1
100
AcDbLine
 10
35.33845298923243
 20
2.0
 30
0.0
 11
35.33845298923244
 21
1.99801161341134
 31
0.0
  0
LINE
  5
490
330
18
100
AcDbEntity
  8
1
 62
     1
100
AcDbLine
 10
35.33845298923244
 20
1.99801161341134
 30
0.0
 11
35.33845298923243
 21
1.820546775513507
 31
0.0
  0
LINE
  5
491
330
18
100
AcDbEntity
  8
1
 62
     1
100
AcDbLine
 10
35.33845298923243
 20
1.820546775513507
 30
0.0
 11
35.33845298923243
 21
-2.0
 31
0.0
  0
LINE
  5
492
330
18
100
AcDbEntity
  8
1
 62
     1
100
AcDbLine
 10
34.66154701076759
 20
2.0
 30
0.0
 11
34.6615470107676
 21
1.99801161341134
 31
0.0
  0
LINE
  5
493
330
18
100
AcDbEntity
  8
1
 62
     1
100
AcDbLine
 10
34.6615470107676
 20
1.99801161341134
 30
0.0
 11
34.66154701076759
 21
1.820546775513507
 31
0.0
  0
LINE
  5
494
330
18
100
AcDbEntity
  8
1
 62
     1
100
AcDbLine
 10
34.66154701076759
 20
1.820546775513507
 30
0.0
 11
34.66154701076759
 21
-2.0
 31
0.0
  0
LINE
  5
495
330
18
100
AcDbEntity
  8
1
 62
     1
100
AcDbLine
 10
35.0
 20
-1.4137825
 30
0.0
 11
34.66154701076759
 21
-2.000000000000002
 31
0.0
  0
LINE
  5
496
330
18
100
AcDbEntity
  8
1
 62
     1
100
AcDbLine
 10
35.0
 20
-1.4137825
 30
0.0
 11
35.0
 21
-1.412376926918858
 31
0.0
  0
LINE
  5
497
330
18
100
AcDbEntity
  8
1
 62
     1
100
AcDbLine
 10
35.0
 20
-1.412376926918858
 30
0.0
 11
35.0
 21
-1.286928585826209
 31
0.0
  0
LINE
  5
498
330
18
100
AcDbEntity
  8
1
 62
     1
100
AcDbLine
 10
35.0
 20
-1.286928585826209
 30
0.0
 11
35.0
 21
1.4137825
 31
0.0
  0
LINE
  5
499
330
18
100
AcDbEntity
  8
1
 62
     1
100
AcDbLine
 10
34.63845298923243
 20
-2.000000000000003
 30
0.0
 11
34.3
 21
-1.4137825
 31
0.0
  0
LINE
  5
49A
330
18
100
AcDbEntity
  8
1
 62
     1
100
AcDbLine
 10
34.63845298923242
 20
2.0
 30
0.0
 11
34.63845298923242
 21
1.99801161341134
 31
0.0
  0
LINE
  5
49B
330
18
100
AcDbEntity
  8
1
 62
     1
100
AcDbLine
 10
34.63845298923242
 20
1.99801161341134
 30
0.0
 11
34.63845298923242
 21
1.820546775513507
 31
0.0
  0
LINE
  5
49C
330
18
100
AcDbEntity
  8
1
 62
     1
100
AcDbLine
 10
34.63845298923242
 20
1.820546775513507
 30
0.0
 11
34.63845298923242
 21
-2.0
 31
0.0
  0
LINE
  5
49D
330
18
100
AcDbEntity
  8
1
 62
     1
100
AcDbLine
 10
33.96154701076759
 20
2.0
 30
0.0
 11
33.96154701076759
 21
1.99801161341134
 31
0.0
  0
LINE
  5
49E
330
18
100
AcDbEntity
  8
1
 62
     1
100
AcDbLine
 10
33.96154701076759
 20
1.99801161341134
 30
0.0
 11
33.96154701076759
 21
1.820546775513507
 31
0.0
  0
LINE
  5
49F
330
18
100
AcDbEntity
  8
1
 62
     1
100
AcDbLine
 10
33.96154701076759
 20
1.820546775513507
 30
0.0
 11
33.96154701076759
 21
-2.0
 31
0.0
  0
LINE
  5
4A0
330
18
100
AcDbEntity
  8
1
 62
     1
100
AcDbLine
 10
34.3
 20
-1.4137825
 30
0.0
 11
33.96154701076759
 21
-2.000000000000003
 31
0.0
  0
LINE
  5
4A1
330
18
100
AcDbEntity
  8
1
 62
     1
100
AcDbLine
 10
34.3
 20
-1.4137825
 30
0.0
 11
34.3
 21
-1.412376926918858
 31
0.0
  0
LINE
  5
4A2
330
18
100
AcDbEntity
  8
1
 62
     1
100
AcDbLine
 10
34.3
 20
-1.412376926918858
 30
0.0
 11
34.3
 21
-1.286928585826209
 31
0.0
  0
LINE
  5
4A3
330
18
100
AcDbEntity
  8
1
 62
     1
100
AcDbLine
 10
34.3
 20
-1.286928585826209
 30
0.0
 11
34.3
 21
1.4137825
 31
0.0
  0
LINE
  5
4A4
330
18
100
AcDbEntity
  8
1
 62
     1
100
AcDbLine
 10
33.93845298923242
 20
-2.000000000000002
 30
0.0
 11
33.60000000000001
 21
-1.4137825
 31
0.0
  0
LINE
  5
4A5
330
18
100
AcDbEntity
  8
1
 62
     1
100
AcDbLine
 10
33.93845298923242
 20
2.0
 30
0.0
 11
33.93845298923242
 21
1.99801161341134
 31
0.0
  0
LINE
  5
4A6
330
18
100
AcDbEntity
  8
1
 62
     1
100
AcDbLine
 10
33.93845298923242
 20
1.99801161341134
 30
0.0
 11
33.93845298923242
 21
1.820546775513507
 31
0.0
  0
LINE
  5
4A7
330
18
100
AcDbEntity
  8
1
 62
     1
100
AcDbLine
 10
33.93845298923242
 20
1.820546775513507
 30
0.0
 11
33.93845298923242
 21
-2.0
 31
0.0
  0
LINE
  5
4A8
330
18
100
AcDbEntity
  8
1
 62
     1
100
AcDbLine
 10
33.26154701076759
 20
2.0
 30
0.0
 11
33.26154701076759
 21
1.99801161341134
 31
0.0
  0
LINE
  5
4A9
330
18
100
AcDbEntity
  8
1
 62
     1
100
AcDbLine
 10
33.26154701076759
 20
1.99801161341134
 30
0.0
 11
33.26154701076759
 21
1.820546775513507
 31
0.0
  0
LINE
  5
4AA
330
18
100
AcDbEntity
  8
1
 62
     1
100
AcDbLine
 10
33.26154701076759
 20
1.820546775513507
 30
0.0
 11
33.26154701076759
 21
-2.0
 31
0.0
  0
LINE
  5
4AB
330
18
100
AcDbEntity
  8
1
 62
     1
100
AcDbLine
 10
33.60000000000001
 20
-1.4137825
 30
0.0
 11
33.26154701076759
 21
-2.000000000000003
 31
0.0
  0
LINE
  5
4AC
330
18
100
AcDbEntity
  8
1
 62
     1
100
AcDbLine
 10
33.60000000000001
 20
-1.4137825
 30
0.0
 11
33.60000000000001
 21
-1.412376926918858
 31
0.0
  0
LINE
  5
4AD
330
18
100
AcDbEntity
  8
1
 62
     1
100
AcDbLine
 10
33.60000000000001
 20
-1.412376926918858
 30
0.0
 11
33.60000000000001
 21
-1.286928585826209
 31
0.0
  0
LINE
  5
4AE
330
18
100
AcDbEntity
  8
1
 62
     1
100
AcDbLine
 10
33.60000000000001
 20
-1.286928585826209
 30
0.0
 11
33.60000000000001
 21
1.4137825
 31
0.0
  0
LINE
  5
4AF
330
18
100
AcDbEntity
  8
1
 62
     1
100
AcDbLine
 10
33.23845298923241
 20
-1.99999999999999
 30
0.0
 11
32.90000000000001
 21
-1.4137825
 31
0.0
  0
LINE
  5
4B0
330
18
100
AcDbEntity
  8
1
 62
     1
100
AcDbLine
 10
32.90000000000001
 20
-1.4137825
 30
0.0
 11
32.90000000000001
 21
-1.412376926918858
 31
0.0
  0
LINE
  5
4B1
330
18
100
AcDbEntity
  8
1
 62
     1
100
AcDbLine
 10
32.90000000000001
 20
-1.412376926918858
 30
0.0
 11
32.90000000000001
 21
-1.286928585826209
 31
0.0
  0
LINE
  5
4B2
330
18
100
AcDbEntity
  8
1
 62
     1
100
AcDbLine
 10
32.90000000000001
 20
-1.286928585826209
 30
0.0
 11
32.90000000000001
 21
1.4137825
 31
0.0
  0
LINE
  5
4B3
330
18
100
AcDbEntity
  8
1
 62
     1
100
AcDbLine
 10
33.23845298923241
 20
2.0
 30
0.0
 11
33.23845298923241
 21
1.99801161341134
 31
0.0
  0
LINE
  5
4B4
330
18
100
AcDbEntity
  8
1
 62
     1
100
AcDbLine
 10
33.23845298923241
 20
1.99801161341134
 30
0.0
 11
33.23845298923241
 21
1.820546775513507
 31
0.0
  0
LINE
  5
4B5
330
18
100
AcDbEntity
  8
1
 62
     1
100
AcDbLine
 10
33.23845298923241
 20
1.820546775513507
 30
0.0
 11
33.23845298923241
 21
-2.0
 31
0.0
  0
LINE
  5
4B6
330
18
100
AcDbEntity
  8
1
 62
     1
100
AcDbLine
 10
32.56154701076759
 20
2.0
 30
0.0
 11
32.5615470107676
 21
1.99801161341134
 31
0.0
  0
LINE
  5
4B7
330
18
100
AcDbEntity
  8
1
 62
     1
100
AcDbLine
 10
32.5615470107676
 20
1.99801161341134
 30
0.0
 11
32.5615470107676
 21
1.820546775513507
 31
0.0
  0
LINE
  5
4B8
330
18
100
AcDbEntity
  8
1
 62
     1
100
AcDbLine
 10
32.5615470107676
 20
1.820546775513507
 30
0.0
 11
32.56154701076759
 21
-2.0
 31
0.0
  0
LINE
  5
4B9
330
18
100
AcDbEntity
  8
1
 62
     1
100
AcDbLine
 10
32.90000000000001
 20
-1.4137825
 30
0.0
 11
32.56154701076759
 21
-2.000000000000003
 31
0.0
  0
LINE
  5
4BA
330
18
100
AcDbEntity
  8
1
 62
     1
100
AcDbLine
 10
29.29616034006505
 20
1.59363798299033
 30
0.0
 11
29.29616034006505
 21
1.592053598794051
 31
0.0
  0
LINE
  5
4BB
330
18
100
AcDbEntity
  8
1
 62
     1
100
AcDbLine
 10
29.29616034006505
 20
1.592053598794051
 30
0.0
 11
29.29616034006506
 21
1.450646245634446
 31
0.0
  0
LINE
  5
4BC
330
18
100
AcDbEntity
  8
1
 62
     1
100
AcDbLine
 10
29.29616034006506
 20
1.450646245634446
 30
0.0
 11
29.29616034006505
 21
-1.59363798299033
 31
0.0
  0
LINE
  5
4BD
330
18
100
AcDbEntity
  8
1
 62
     1
100
AcDbLine
 10
29.40000000000001
 20
-1.4137825
 30
0.0
 11
29.29616034006505
 21
-1.593637982990332
 31
0.0
  0
LINE
  5
4BE
330
18
100
AcDbEntity
  8
1
 62
     1
100
AcDbLine
 10
29.6076793924468
 20
-1.773493591687481
 30
0.0
 11
29.40000000000001
 21
-1.4137825
 31
0.0
  0
LINE
  5
4BF
330
18
100
AcDbEntity
  8
1
 62
     1
100
AcDbLine
 10
29.40000000000001
 20
-1.4137825
 30
0.0
 11
29.40000000000001
 21
-1.412376926918858
 31
0.0
  0
LINE
  5
4C0
330
18
100
AcDbEntity
  8
1
 62
     1
100
AcDbLine
 10
29.40000000000001
 20
-1.412376926918858
 30
0.0
 11
29.40000000000001
 21
-1.286928585826209
 31
0.0
  0
LINE
  5
4C1
330
18
100
AcDbEntity
  8
1
 62
     1
100
AcDbLine
 10
29.40000000000001
 20
-1.286928585826209
 30
0.0
 11
29.40000000000001
 21
1.4137825
 31
0.0
  0
LINE
  5
4C2
330
18
100
AcDbEntity
  8
1
 62
     1
100
AcDbLine
 10
29.6076793924468
 20
1.773493591687472
 30
0.0
 11
29.60767939244681
 21
1.771730396251079
 31
0.0
  0
LINE
  5
4C3
330
18
100
AcDbEntity
  8
1
 62
     1
100
AcDbLine
 10
29.60767939244681
 20
1.771730396251079
 30
0.0
 11
29.6076793924468
 21
1.614364019870247
 31
0.0
  0
LINE
  5
4C4
330
18
100
AcDbEntity
  8
1
 62
     1
100
AcDbLine
 10
29.6076793924468
 20
1.614364019870247
 30
0.0
 11
29.6076793924468
 21
-1.773493591687472
 31
0.0
  0
LINE
  5
4C5
330
18
100
AcDbEntity
  8
1
 62
     1
100
AcDbLine
 10
42.59948144278056
 20
-0.7523120715251219
 30
0.0
 11
42.60390564328161
 21
-0.7407112666854926
 31
0.0
  0
LINE
  5
4C6
330
18
100
AcDbEntity
  8
1
 62
     1
100
AcDbLine
 10
42.60390564328161
 20
-0.7407112666854926
 30
0.0
 11
42.60779227784742
 21
-0.7290873374911055
 31
0.0
  0
LINE
  5
4C7
330
18
100
AcDbEntity
  8
1
 62
     1
100
AcDbLine
 10
42.60779227784742
 20
-0.7290873374911055
 30
0.0
 11
42.61108953869393
 21
-0.7175057965916044
 31
0.0
  0
LINE
  5
4C8
330
18
100
AcDbEntity
  8
1
 62
     1
100
AcDbLine
 10
42.61108953869393
 20
-0.7175057965916044
 30
0.0
 11
42.61375504553248
 21
-0.706008427121487
 31
0.0
  0
LINE
  5
4C9
330
18
100
AcDbEntity
  8
1
 62
     1
100
AcDbLine
 10
42.61375504553248
 20
-0.706008427121487
 30
0.0
 11
42.61575624548926
 21
-0.6946445938451955
 31
0.0
  0
LINE
  5
4CA
330
18
100
AcDbEntity
  8
1
 62
     1
100
AcDbLine
 10
42.61575624548926
 20
-0.6946445938451955
 30
0.0
 11
42.61706005242347
 21
-0.6834749458443176
 31
0.0
  0
LINE
  5
4CB
330
18
100
AcDbEntity
  8
1
 62
     1
100
AcDbLine
 10
42.61706005242347
 20
-0.6834749458443176
 30
0.0
 11
42.61764893121262
 21
-0.6725563129874907
 31
0.0
  0
LINE
  5
4CC
330
18
100
AcDbEntity
  8
1
 62
     1
100
AcDbLine
 10
42.61764893121262
 20
-0.6725563129874907
 30
0.0
 11
42.61750989969977
 21
-0.661952743493593
 31
0.0
  0
LINE
  5
4CD
330
18
100
AcDbEntity
  8
1
 62
     1
100
AcDbLine
 10
42.61750989969977
 20
-0.661952743493593
 30
0.0
 11
42.61716874896742
 21
-0.6567825632931416
 31
0.0
  0
LINE
  5
4CE
330
18
100
AcDbEntity
  8
1
 62
     1
100
AcDbLine
 10
42.61716874896742
 20
-0.6567825632931416
 30
0.0
 11
42.61664831463659
 21
-0.6517131263842776
 31
0.0
  0
LINE
  5
4CF
330
18
100
AcDbEntity
  8
1
 62
     1
100
AcDbLine
 10
42.61664831463659
 20
-0.6517131263842776
 30
0.0
 11
42.61594977679059
 21
-0.6467501408784619
 31
0.0
  0
LINE
  5
4D0
330
18
100
AcDbEntity
  8
1
 62
     1
100
AcDbLine
 10
42.61594977679059
 20
-0.6467501408784619
 30
0.0
 11
42.61507571956079
 21
-0.6418932066183762
 31
0.0
  0
LINE
  5
4D1
330
18
100
AcDbEntity
  8
1
 62
     1
100
AcDbLine
 10
42.61507571956079
 20
-0.6418932066183762
 30
0.0
 11
42.61403047466125
 21
-0.6371492209628504
 31
0.0
  0
LINE
  5
4D2
330
18
100
AcDbEntity
  8
1
 62
     1
100
AcDbLine
 10
42.61403047466125
 20
-0.6371492209628504
 30
0.0
 11
42.61281840903246
 21
-0.6325253582261684
 31
0.0
  0
LINE
  5
4D3
330
18
100
AcDbEntity
  8
1
 62
     1
100
AcDbLine
 10
42.61281840903246
 20
-0.6325253582261684
 30
0.0
 11
42.61144327919767
 21
-0.6280256501492079
 31
0.0
  0
LINE
  5
4D4
330
18
100
AcDbEntity
  8
1
 62
     1
100
AcDbLine
 10
42.61144327919767
 20
-0.6280256501492079
 30
0.0
 11
42.60990886115014
 21
-0.6236480433779936
 31
0.0
  0
LINE
  5
4D5
330
18
100
AcDbEntity
  8
1
 62
     1
100
AcDbLine
 10
42.60990886115014
 20
-0.6236480433779936
 30
0.0
 11
42.6082212027972
 21
-0.6193963724235639
 31
0.0
  0
LINE
  5
4D6
330
18
100
AcDbEntity
  8
1
 62
     1
100
AcDbLine
 10
42.6082212027972
 20
-0.6193963724235639
 30
0.0
 11
42.60638643840714
 21
-0.6152747900040015
 31
0.0
  0
LINE
  5
4D7
330
18
100
AcDbEntity
  8
1
 62
     1
100
AcDbLine
 10
42.60638643840714
 20
-0.6152747900040015
 30
0.0
 11
42.60440986616608
 21
-0.6112852558550053
 31
0.0
  0
LINE
  5
4D8
330
18
100
AcDbEntity
  8
1
 62
     1
100
AcDbLine
 10
42.60440986616608
 20
-0.6112852558550053
 30
0.0
 11
42.60229554584021
 21
-0.6074246430875682
 31
0.0
  0
LINE
  5
4D9
330
18
100
AcDbEntity
  8
1
 62
     1
100
AcDbLine
 10
42.60229554584021
 20
-0.6074246430875682
 30
0.0
 11
42.60004993850269
 21
-0.6036942617228774
 31
0.0
  0
LINE
  5
4DA
330
18
100
AcDbEntity
  8
1
 62
     1
100
AcDbLine
 10
42.60004993850269
 20
-0.6036942617228774
 30
0.0
 11
42.59767964454614
 21
-0.6000957363868239
 31
0.0
  0
LINE
  5
4DB
330
18
100
AcDbEntity
  8
1
 62
     1
100
AcDbLine
 10
42.59767964454614
 20
-0.6000957363868239
 30
0.0
 11
42.59519039422896
 21
-0.5966292696439938
 31
0.0
  0
LINE
  5
4DC
330
18
100
AcDbEntity
  8
1
 62
     1
100
AcDbLine
 10
42.59519039422896
 20
-0.5966292696439938
 30
0.0
 11
42.59258592339219
 21
-0.5932913199008575
 31
0.0
  0
LINE
  5
4DD
330
18
100
AcDbEntity
  8
1
 62
     1
100
AcDbLine
 10
42.59258592339219
 20
-0.5932913199008575
 30
0.0
 11
42.58987224381472
 21
-0.5900815404607368
 31
0.0
  0
LINE
  5
4DE
330
18
100
AcDbEntity
  8
1
 62
     1
100
AcDbLine
 10
42.58987224381472
 20
-0.5900815404607368
 30
0.0
 11
42.58705554766093
 21
-0.5869998622525006
 31
0.0
  0
LINE
  5
4DF
330
18
100
AcDbEntity
  8
1
 62
     1
100
AcDbLine
 10
42.58705554766093
 20
-0.5869998622525006
 30
0.0
 11
42.58414123738628
 21
-0.5840453378531862
 31
0.0
  0
LINE
  5
4E0
330
18
100
AcDbEntity
  8
1
 62
     1
100
AcDbLine
 10
42.58414123738628
 20
-0.5840453378531862
 30
0.0
 11
42.58113245981619
 21
-0.5812144908856076
 31
0.0
  0
LINE
  5
4E1
330
18
100
AcDbEntity
  8
1
 62
     1
100
AcDbLine
 10
42.58113245981619
 20
-0.5812144908856076
 30
0.0
 11
42.57803439765744
 21
-0.5785060862529798
 31
0.0
  0
LINE
  5
4E2
330
18
100
AcDbEntity
  8
1
 62
     1
100
AcDbLine
 10
42.57803439765744
 20
-0.5785060862529798
 30
0.0
 11
42.57485243779946
 21
-0.5759191150817117
 31
0.0
  0
LINE
  5
4E3
330
18
100
AcDbEntity
  8
1
 62
     1
100
AcDbLine
 10
42.57485243779946
 20
-0.5759191150817117
 30
0.0
 11
42.56825283204097
 21
-0.5711012565849605
 31
0.0
  0
LINE
  5
4E4
330
18
100
AcDbEntity
  8
1
 62
     1
100
AcDbLine
 10
42.56825283204097
 20
-0.5711012565849605
 30
0.0
 11
42.56136107856201
 21
-0.5667426217213046
 31
0.0
  0
LINE
  5
4E5
330
18
100
AcDbEntity
  8
1
 62
     1
100
AcDbLine
 10
42.56136107856201
 20
-0.5667426217213046
 30
0.0
 11
42.55421133305765
 21
-0.5628312829276996
 31
0.0
  0
LINE
  5
4E6
330
18
100
AcDbEntity
  8
1
 62
     1
100
AcDbLine
 10
42.55421133305765
 20
-0.5628312829276996
 30
0.0
 11
42.54683306885937
 21
-0.5593532483953217
 31
0.0
  0
LINE
  5
4E7
330
18
100
AcDbEntity
  8
1
 62
     1
100
AcDbLine
 10
42.54683306885937
 20
-0.5593532483953217
 30
0.0
 11
42.53924568360365
 21
-0.5562913448089057
 31
0.0
  0
LINE
  5
4E8
330
18
100
AcDbEntity
  8
1
 62
     1
100
AcDbLine
 10
42.53924568360365
 20
-0.5562913448089057
 30
0.0
 11
42.53146591132518
 21
-0.5536300639422236
 31
0.0
  0
LINE
  5
4E9
330
18
100
AcDbEntity
  8
1
 62
     1
100
AcDbLine
 10
42.53146591132518
 20
-0.5536300639422236
 30
0.0
 11
42.52351327363732
 21
-0.5513577049559191
 31
0.0
  0
LINE
  5
4EA
330
18
100
AcDbEntity
  8
1
 62
     1
100
AcDbLine
 10
42.52351327363732
 20
-0.5513577049559191
 30
0.0
 11
42.51540858681045
 21
-0.5494633492940676
 31
0.0
  0
LINE
  5
4EB
330
18
100
AcDbEntity
  8
1
 62
     1
100
AcDbLine
 10
42.51540858681045
 20
-0.5494633492940676
 30
0.0
 11
42.50717266711494
 21
-0.5479360784007449
 31
0.0
  0
LINE
  5
4EC
330
18
100
AcDbEntity
  8
1
 62
     1
100
AcDbLine
 10
42.50717266711494
 20
-0.5479360784007449
 30
0.0
 11
42.49881862274904
 21
-0.5467641735901081
 31
0.0
  0
LINE
  5
4ED
330
18
100
AcDbEntity
  8
1
 62
     1
100
AcDbLine
 10
42.49881862274904
 20
-0.5467641735901081
 30
0.0
 11
42.49035124671635
 21
-0.5459371472432368
 31
0.0
  0
LINE
  5
4EE
330
18
100
AcDbEntity
  8
1
 62
     1
100
AcDbLine
 10
42.49035124671635
 20
-0.5459371472432368
 30
0.0
 11
42.48178427373131
 21
-0.5454468794889473
 31
0.0
  0
LINE
  5
4EF
330
18
100
AcDbEntity
  8
1
 62
     1
100
AcDbLine
 10
42.48178427373131
 20
-0.5454468794889473
 30
0.0
 11
42.47313155668143
 21
-0.545285270728676
 31
0.0
  0
LINE
  5
4F0
330
18
100
AcDbEntity
  8
1
 62
     1
100
AcDbLine
 10
42.47313155668143
 20
-0.545285270728676
 30
0.0
 11
42.47312759568144
 21
-0.5452852707714806
 31
0.0
  0
LINE
  5
4F1
330
18
100
AcDbEntity
  8
1
 62
     1
100
AcDbLine
 10
42.0
 20
-1.135669167847034
 30
0.0
 11
41.99999999999999
 21
-0.7885161169374276
 31
0.0
  0
LINE
  5
4F2
330
18
100
AcDbEntity
  8
1
 62
     1
100
AcDbLine
 10
42.0
 20
0.4498894571078693
 30
0.0
 11
42.0
 21
0.1427264045903758
 31
0.0
  0
LINE
  5
4F3
330
18
100
AcDbEntity
  8
1
 62
     1
100
AcDbLine
 10
42.0
 20
0.1427264045903751
 30
0.0
 11
42.0
 21
-0.7885161169374278
 31
0.0
  0
LINE
  5
4F4
330
18
100
AcDbEntity
  8
1
 62
     1
100
AcDbLine
 10
42.59948144278055
 20
0.6694642529617798
 30
0.0
 11
42.60135225104966
 21
0.6722201405726651
 31
0.0
  0
LINE
  5
4F5
330
18
100
AcDbEntity
  8
1
 62
     1
100
AcDbLine
 10
42.60135225104966
 20
0.6722201405726651
 30
0.0
 11
42.60313828968234
 21
0.6750683315471029
 31
0.0
  0
LINE
  5
4F6
330
18
100
AcDbEntity
  8
1
 62
     1
100
AcDbLine
 10
42.60313828968234
 20
0.6750683315471029
 30
0.0
 11
42.6048360162679
 21
0.678007528381602
 31
0.0
  0
LINE
  5
4F7
330
18
100
AcDbEntity
  8
1
 62
     1
100
AcDbLine
 10
42.6048360162679
 20
0.678007528381602
 30
0.0
 11
42.60644188839562
 21
0.68103643357267
 31
0.0
  0
LINE
  5
4F8
330
18
100
AcDbEntity
  8
1
 62
     1
100
AcDbLine
 10
42.60644188839562
 20
0.68103643357267
 30
0.0
 11
42.60795236365482
 21
0.6841537496168151
 31
0.0
  0
LINE
  5
4F9
330
18
100
AcDbEntity
  8
1
 62
     1
100
AcDbLine
 10
42.60795236365482
 20
0.6841537496168151
 30
0.0
 11
42.6093638996348
 21
0.6873581790105453
 31
0.0
  0
LINE
  5
4FA
330
18
100
AcDbEntity
  8
1
 62
     1
100
AcDbLine
 10
42.6093638996348
 20
0.6873581790105453
 30
0.0
 11
42.61067295392487
 21
0.6906484242503689
 31
0.0
  0
LINE
  5
4FB
330
18
100
AcDbEntity
  8
1
 62
     1
100
AcDbLine
 10
42.61067295392487
 20
0.6906484242503689
 30
0.0
 11
42.61187643226513
 21
0.6940241476268577
 31
0.0
  0
LINE
  5
4FC
330
18
100
AcDbEntity
  8
1
 62
     1
100
AcDbLine
 10
42.61187643226513
 20
0.6940241476268577
 30
0.0
 11
42.61297332580826
 21
0.6974879436679124
 31
0.0
  0
LINE
  5
4FD
330
18
100
AcDbEntity
  8
1
 62
     1
100
AcDbLine
 10
42.61297332580826
 20
0.6974879436679124
 30
0.0
 11
42.61396122678276
 21
0.7010372596021652
 31
0.0
  0
LINE
  5
4FE
330
18
100
AcDbEntity
  8
1
 62
     1
100
AcDbLine
 10
42.61396122678276
 20
0.7010372596021652
 30
0.0
 11
42.61559937338808
 21
0.7083794930865399
 31
0.0
  0
LINE
  5
4FF
330
18
100
AcDbEntity
  8
1
 62
     1
100
AcDbLine
 10
42.61559937338808
 20
0.7083794930865399
 30
0.0
 11
42.61677200848873
 21
0.716033743208156
 31
0.0
  0
LINE
  5
500
330
18
100
AcDbEntity
  8
1
 62
     1
100
AcDbLine
 10
42.61677200848873
 20
0.716033743208156
 30
0.0
 11
42.61746947008972
 21
0.7239853358673757
 31
0.0
  0
LINE
  5
501
330
18
100
AcDbEntity
  8
1
 62
     1
100
AcDbLine
 10
42.61746947008972
 20
0.7239853358673757
 30
0.0
 11
42.61768278196229
 21
0.7321983375342731
 31
0.0
  0
LINE
  5
502
330
18
100
AcDbEntity
  8
1
 62
     1
100
AcDbLine
 10
42.61768278196229
 20
0.7321983375342731
 30
0.0
 11
42.6174087696462
 21
0.7406564298329179
 31
0.0
  0
LINE
  5
503
330
18
100
AcDbEntity
  8
1
 62
     1
100
AcDbLine
 10
42.6174087696462
 20
0.7406564298329179
 30
0.0
 11
42.61665275223888
 21
0.7493218169837492
 31
0.0
  0
LINE
  5
504
330
18
100
AcDbEntity
  8
1
 62
     1
100
AcDbLine
 10
42.61665275223888
 20
0.7493218169837492
 30
0.0
 11
42.61542075289832
 21
0.7581615475432988
 31
0.0
  0
LINE
  5
505
330
18
100
AcDbEntity
  8
1
 62
     1
100
AcDbLine
 10
42.61542075289832
 20
0.7581615475432988
 30
0.0
 11
42.61372640009702
 21
0.7671516605700983
 31
0.0
  0
LINE
  5
506
330
18
100
AcDbEntity
  8
1
 62
     1
100
AcDbLine
 10
42.61372640009702
 20
0.7671516605700983
 30
0.0
 11
42.61158835617982
 21
0.7762490495933125
 31
0.0
  0
LINE
  5
507
330
18
100
AcDbEntity
  8
1
 62
     1
100
AcDbLine
 10
42.61158835617982
 20
0.7762490495933125
 30
0.0
 11
42.60902381334418
 21
0.7854347549286966
 31
0.0
  0
LINE
  5
508
330
18
100
AcDbEntity
  8
1
 62
     1
100
AcDbLine
 10
42.60902381334418
 20
0.7854347549286966
 30
0.0
 11
42.60605802209797
 21
0.7946749408357476
 31
0.0
  0
LINE
  5
509
330
18
100
AcDbEntity
  8
1
 62
     1
100
AcDbLine
 10
42.60605802209797
 20
0.7946749408357476
 30
0.0
 11
42.59901587286218
 21
0.8132229235611347
 31
0.0
  0
LINE
  5
50A
330
18
100
AcDbEntity
  8
1
 62
     1
100
AcDbLine
 10
42.59901587286218
 20
0.8132229235611347
 30
0.0
 11
42.59065921819672
 21
0.8317235158393113
 31
0.0
  0
LINE
  5
50B
330
18
100
AcDbEntity
  8
1
 62
     1
100
AcDbLine
 10
42.59065921819672
 20
0.8317235158393113
 30
0.0
 11
42.58117713734382
 21
0.8500512246554043
 31
0.0
  0
LINE
  5
50C
330
18
100
AcDbEntity
  8
1
 62
     1
100
AcDbLine
 10
42.58117713734382
 20
0.8500512246554043
 30
0.0
 11
42.57074124925308
 21
0.8681161691487167
 31
0.0
  0
LINE
  5
50D
330
18
100
AcDbEntity
  8
1
 62
     1
100
AcDbLine
 10
42.57074124925308
 20
0.8681161691487167
 30
0.0
 11
42.55949669609208
 21
0.8858639723871903
 31
0.0
  0
LINE
  5
50E
330
18
100
AcDbEntity
  8
1
 62
     1
100
AcDbLine
 10
42.55949669609208
 20
0.8858639723871903
 30
0.0
 11
42.53510265308841
 21
0.9202148265997059
 31
0.0
  0
LINE
  5
50F
330
18
100
AcDbEntity
  8
1
 62
     1
100
AcDbLine
 10
42.53510265308841
 20
0.9202148265997059
 30
0.0
 11
42.50877259275801
 21
0.9529500034434103
 31
0.0
  0
LINE
  5
510
330
18
100
AcDbEntity
  8
1
 62
     1
100
AcDbLine
 10
42.50877259275801
 20
0.9529500034434103
 30
0.0
 11
42.48111016314284
 21
0.9839471334224186
 31
0.0
  0
LINE
  5
511
330
18
100
AcDbEntity
  8
1
 62
     1
100
AcDbLine
 10
42.48111016314284
 20
0.9839471334224186
 30
0.0
 11
42.45251962514744
 21
1.013169815049289
 31
0.0
  0
LINE
  5
512
330
18
100
AcDbEntity
  8
1
 62
     1
100
AcDbLine
 10
42.45251962514744
 20
1.013169815049289
 30
0.0
 11
42.4233035495181
 21
1.040579423645861
 31
0.0
  0
LINE
  5
513
330
18
100
AcDbEntity
  8
1
 62
     1
100
AcDbLine
 10
42.4233035495181
 20
1.040579423645861
 30
0.0
 11
42.39370324784302
 21
1.066116453034404
 31
0.0
  0
LINE
  5
514
330
18
100
AcDbEntity
  8
1
 62
     1
100
AcDbLine
 10
42.39370324784302
 20
1.066116453034404
 30
0.0
 11
42.36392391134328
 21
1.089693737827147
 31
0.0
  0
LINE
  5
515
330
18
100
AcDbEntity
  8
1
 62
     1
100
AcDbLine
 10
42.36392391134328
 20
1.089693737827147
 30
0.0
 11
42.3341359567986
 21
1.111206177755495
 31
0.0
  0
LINE
  5
516
330
18
100
AcDbEntity
  8
1
 62
     1
100
AcDbLine
 10
42.3341359567986
 20
1.111206177755495
 30
0.0
 11
42.31188257581816
 21
1.12590628162649
 31
0.0
  0
LINE
  5
517
330
18
100
AcDbEntity
  8
1
 62
     1
100
AcDbLine
 10
42.31188257581816
 20
1.12590628162649
 30
0.0
 11
42.28979556684892
 21
1.139289076686933
 31
0.0
  0
LINE
  5
518
330
18
100
AcDbEntity
  8
1
 62
     1
100
AcDbLine
 10
42.0
 20
0.4498894571078697
 30
0.0
 11
42.0
 21
1.064030054519693
 31
0.0
  0
LINE
  5
519
330
18
100
AcDbEntity
  8
1
 62
     1
100
AcDbLine
 10
42.38538833378066
 20
1.424611666219336
 30
0.0
 11
43.81
 21
0.0
 31
0.0
  0
ARC
  5
51A
330
18
100
AcDbEntity
  8
1
 62
     1
100
AcDbCircle
 10
39.04094581848891
 20
-2.036830443613894
 30
0.0
 40
4.813749142200223
100
AcDbArc
 50
45.98487163555709
 51
52.07013242262754
  0
LINE
  5
51B
330
18
100
AcDbEntity
  8
1
 62
     1
100
AcDbLine
 10
42.0
 20
1.305810900216649
 30
0.0
 11
42.28979556684891
 21
1.139289076686933
 31
0.0
  0
LINE
  5
51C
330
18
100
AcDbEntity
  8
1
 62
     1
100
AcDbLine
 10
42.0
 20
0.1427264045903842
 30
0.0
 11
42.17129333059393
 21
0.2668487840929027
 31
0.0
  0
LINE
  5
51D
330
18
100
AcDbEntity
  8
1
 62
     1
100
AcDbLine
 10
42.17129333059393
 20
0.2668487840929027
 30
0.0
 11
42.33284396970601
 21
0.3948829768663994
 31
0.0
  0
LINE
  5
51E
330
18
100
AcDbEntity
  8
1
 62
     1
100
AcDbLine
 10
42.33284396970601
 20
0.3948829768663994
 30
0.0
 11
42.40833134971093
 21
0.4608411733453881
 31
0.0
  0
LINE
  5
51F
330
18
100
AcDbEntity
  8
1
 62
     1
100
AcDbLine
 10
42.40833134971093
 20
0.4608411733453881
 30
0.0
 11
42.47896568547468
 21
0.5284164102401034
 31
0.0
  0
LINE
  5
520
330
18
100
AcDbEntity
  8
1
 62
     1
100
AcDbLine
 10
42.47896568547468
 20
0.5284164102401034
 30
0.0
 11
42.51203403428413
 21
0.562895014953625
 31
0.0
  0
LINE
  5
521
330
18
100
AcDbEntity
  8
1
 62
     1
100
AcDbLine
 10
42.51203403428413
 20
0.562895014953625
 30
0.0
 11
42.5433149685165
 21
0.597876547819778
 31
0.0
  0
LINE
  5
522
330
18
100
AcDbEntity
  8
1
 62
     1
100
AcDbLine
 10
42.5433149685165
 20
0.597876547819778
 30
0.0
 11
42.5725623698029
 21
0.633394904016406
 31
0.0
  0
LINE
  5
523
330
18
100
AcDbEntity
  8
1
 62
     1
100
AcDbLine
 10
42.5725623698029
 20
0.633394904016406
 30
0.0
 11
42.59948144278056
 21
0.6694642529617799
 31
0.0
  0
LINE
  5
524
330
18
100
AcDbEntity
  8
1
 62
     1
100
AcDbLine
 10
42.0
 20
-0.7885161169374255
 30
0.0
 11
42.28979556684892
 21
-0.6051785407416315
 31
0.0
  0
LINE
  5
525
330
18
100
AcDbEntity
  8
1
 62
     1
100
AcDbLine
 10
42.0
 20
-1.671947183966975
 30
0.0
 11
42.17129523093053
 21
-1.455238592198786
 31
0.0
  0
LINE
  5
526
330
18
100
AcDbEntity
  8
1
 62
     1
100
AcDbLine
 10
42.17129523093053
 20
-1.455238592198786
 30
0.0
 11
42.332843319936
 21
-1.231706281342627
 31
0.0
  0
LINE
  5
527
330
18
100
AcDbEntity
  8
1
 62
     1
100
AcDbLine
 10
42.332843319936
 20
-1.231706281342627
 30
0.0
 11
42.40833211187712
 21
-1.116548188963479
 31
0.0
  0
LINE
  5
528
330
18
100
AcDbEntity
  8
1
 62
     1
100
AcDbLine
 10
42.40833211187712
 20
-1.116548188963479
 30
0.0
 11
42.47896789854874
 21
-0.9985659034608783
 31
0.0
  0
LINE
  5
529
330
18
100
AcDbEntity
  8
1
 62
     1
100
AcDbLine
 10
42.47896789854874
 20
-0.9985659034608783
 30
0.0
 11
42.5433186102407
 21
-0.8772914325553196
 31
0.0
  0
LINE
  5
52A
330
18
100
AcDbEntity
  8
1
 62
     1
100
AcDbLine
 10
42.5433186102407
 20
-0.8772914325553196
 30
0.0
 11
42.57256189573513
 21
-0.815285791713136
 31
0.0
  0
LINE
  5
52B
330
18
100
AcDbEntity
  8
1
 62
     1
100
AcDbLine
 10
42.57256189573513
 20
-0.815285791713136
 30
0.0
 11
42.59948144278056
 21
-0.7523120715251219
 31
0.0
  0
LINE
  5
52C
330
18
100
AcDbEntity
  8
1
 62
     1
100
AcDbLine
 10
42.0
 20
1.139289076686941
 30
0.0
 11
42.0
 21
1.064030054519693
 31
0.0
  0
LINE
  5
52D
330
18
100
AcDbEntity
  8
1
 62
     1
100
AcDbLine
 10
42.0
 20
1.305810900216655
 30
0.0
 11
42.0
 21
1.13928907668694
 31
0.0
  0
LINE
  5
52E
330
18
100
AcDbEntity
  8
1
 62
     1
100
AcDbLine
 10
41.99999999999999
 20
1.7601569530959
 30
0.0
 11
42.00000000000001
 21
1.305810900216648
 31
0.0
  0
LINE
  5
52F
330
18
100
AcDbEntity
  8
1
 62
     1
100
AcDbLine
 10
42.0
 20
-1.671947183966979
 30
0.0
 11
42.0
 21
-1.81
 31
0.0
  0
LINE
  5
530
330
18
100
AcDbEntity
  8
1
 62
     1
100
AcDbLine
 10
42.0
 20
-1.135669167847034
 30
0.0
 11
42.0
 21
-1.671947183966989
 31
0.0
  0
LINE
  5
531
330
18
100
AcDbEntity
  8
1
 62
     1
100
AcDbLine
 10
29.14263485
 20
1.505
 30
0.0
 11
29.14263485
 21
1.503503739092033
 31
0.0
  0
LINE
  5
532
330
18
100
AcDbEntity
  8
1
 62
     1
100
AcDbLine
 10
29.14263485
 20
1.503503739092033
 30
0.0
 11
29.14263485
 21
1.369961448573914
 31
0.0
  0
LINE
  5
533
330
18
100
AcDbEntity
  8
1
 62
     1
100
AcDbLine
 10
29.14263485
 20
1.369961448573914
 30
0.0
 11
29.14263485
 21
-1.505
 31
0.0
  0
LINE
  5
534
330
18
100
AcDbEntity
  8
1
 62
     1
100
AcDbLine
 10
40.92048320672321
 20
-1.96887543820495
 30
0.0
 11
40.98499869054267
 21
-1.959380518045619
 31
0.0
  0
LINE
  5
535
330
18
100
AcDbEntity
  8
1
 62
     1
100
AcDbLine
 10
41.56566218304201
 20
-1.873922684137892
 30
0.0
 11
41.75000114609593
 21
-1.84679301490455
 31
0.0
  0
LINE
  5
536
330
18
100
AcDbEntity
  8
1
 62
     1
100
AcDbLine
 10
36.03845298923242
 20
-2.0
 30
0.0
 11
36.06154701076759
 21
-2.0
 31
0.0
  0
LINE
  5
537
330
18
100
AcDbEntity
  8
1
 62
     1
100
AcDbLine
 10
36.73845298923241
 20
-2.0
 30
0.0
 11
36.76154701076759
 21
-2.0
 31
0.0
  0
LINE
  5
538
330
18
100
AcDbEntity
  8
1
 62
     1
100
AcDbLine
 10
37.43845298923242
 20
-2.0
 30
0.0
 11
37.4615470107676
 21
-2.0
 31
0.0
  0
LINE
  5
539
330
18
100
AcDbEntity
  8
1
 62
     1
100
AcDbLine
 10
38.83845298923242
 20
-2.0
 30
0.0
 11
38.86154701076759
 21
-2.0
 31
0.0
  0
LINE
  5
53A
330
18
100
AcDbEntity
  8
1
 62
     1
100
AcDbLine
 10
39.53845298923244
 20
-2.0
 30
0.0
 11
39.56154701076759
 21
-2.0
 31
0.0
  0
LINE
  5
53B
330
18
100
AcDbEntity
  8
1
 62
     1
100
AcDbLine
 10
40.23845298923241
 20
-2.0
 30
0.0
 11
40.26154701076759
 21
-2.0
 31
0.0
  0
LINE
  5
53C
330
18
100
AcDbEntity
  8
1
 62
     1
100
AcDbLine
 10
38.13845298923241
 20
-2.0
 30
0.0
 11
38.1615470107676
 21
-2.0
 31
0.0
  0
LINE
  5
53D
330
18
100
AcDbEntity
  8
1
 62
     1
100
AcDbLine
 10
30.43845298923241
 20
-2.0
 30
0.0
 11
30.46154701076759
 21
-2.0
 31
0.0
  0
LINE
  5
53E
330
18
100
AcDbEntity
  8
1
 62
     1
100
AcDbLine
 10
31.13845298923242
 20
-2.0
 30
0.0
 11
31.16154701076761
 21
-2.0
 31
0.0
  0
LINE
  5
53F
330
18
100
AcDbEntity
  8
1
 62
     1
100
AcDbLine
 10
31.83845298923242
 20
-2.0
 30
0.0
 11
31.86154701076759
 21
-2.0
 31
0.0
  0
LINE
  5
540
330
18
100
AcDbEntity
  8
1
 62
     1
100
AcDbLine
 10
35.33845298923243
 20
-2.0
 30
0.0
 11
35.36154701076759
 21
-2.0
 31
0.0
  0
LINE
  5
541
330
18
100
AcDbEntity
  8
1
 62
     1
100
AcDbLine
 10
34.63845298923242
 20
-2.0
 30
0.0
 11
34.66154701076759
 21
-2.0
 31
0.0
  0
LINE
  5
542
330
18
100
AcDbEntity
  8
1
 62
     1
100
AcDbLine
 10
33.93845298923242
 20
-2.0
 30
0.0
 11
33.96154701076759
 21
-2.0
 31
0.0
  0
LINE
  5
543
330
18
100
AcDbEntity
  8
1
 62
     1
100
AcDbLine
 10
33.23845298923241
 20
-2.0
 30
0.0
 11
33.26154701076759
 21
-2.0
 31
0.0
  0
LINE
  5
544
330
18
100
AcDbEntity
  8
1
 62
     1
100
AcDbLine
 10
32.53845298923242
 20
-2.0
 30
0.0
 11
32.56154701076759
 21
-2.0
 31
0.0
  0
LINE
  5
545
330
18
100
AcDbEntity
  8
1
 62
     1
100
AcDbLine
 10
29.14263485
 20
-1.505
 30
0.0
 11
29.29616034006505
 21
-1.59363798299033
 31
0.0
  0
LINE
  5
546
330
18
100
AcDbEntity
  8
1
 62
     1
100
AcDbLine
 10
29.6076793924468
 20
-1.773493591687472
 30
0.0
 11
29.8211602789085
 21
-1.896746838916541
 31
0.0
  0
LINE
  5
547
330
18
100
AcDbEntity
  8
1
 62
     1
100
AcDbLine
 10
42.0
 20
1.4137825
 30
0.0
 11
41.75000114609593
 21
1.846793014904559
 31
0.0
  0
LINE
  5
548
330
18
100
AcDbEntity
  8
1
 62
     1
100
AcDbLine
 10
40.92048320672321
 20
1.968875438204946
 30
0.0
 11
40.6
 21
1.4137825
 31
0.0
  0
LINE
  5
549
330
18
100
AcDbEntity
  8
1
 62
     1
100
AcDbLine
 10
40.6
 20
1.4137825
 30
0.0
 11
40.26154701076759
 21
2.000000000000003
 31
0.0
  0
LINE
  5
54A
330
18
100
AcDbEntity
  8
1
 62
     1
100
AcDbLine
 10
41.3
 20
1.4137825
 30
0.0
 11
40.98499869054265
 21
1.959380518045612
 31
0.0
  0
LINE
  5
54B
330
18
100
AcDbEntity
  8
1
 62
     1
100
AcDbLine
 10
41.56566218304201
 20
1.873922684137901
 30
0.0
 11
41.3
 21
1.4137825
 31
0.0
  0
LINE
  5
54C
330
18
100
AcDbEntity
  8
1
 62
     1
100
AcDbLine
 10
36.40000000000001
 20
1.4137825
 30
0.0
 11
36.06154701076759
 21
2.000000000000003
 31
0.0
  0
LINE
  5
54D
330
18
100
AcDbEntity
  8
1
 62
     1
100
AcDbLine
 10
36.73845298923241
 20
2.000000000000002
 30
0.0
 11
36.40000000000001
 21
1.4137825
 31
0.0
  0
LINE
  5
54E
330
18
100
AcDbEntity
  8
1
 62
     1
100
AcDbLine
 10
37.1
 20
1.4137825
 30
0.0
 11
36.76154701076759
 21
2.000000000000003
 31
0.0
  0
LINE
  5
54F
330
18
100
AcDbEntity
  8
1
 62
     1
100
AcDbLine
 10
37.43845298923242
 20
2.000000000000006
 30
0.0
 11
37.1
 21
1.4137825
 31
0.0
  0
LINE
  5
550
330
18
100
AcDbEntity
  8
1
 62
     1
100
AcDbLine
 10
37.8
 20
1.4137825
 30
0.0
 11
37.46154701076759
 21
1.999999999999997
 31
0.0
  0
LINE
  5
551
330
18
100
AcDbEntity
  8
1
 62
     1
100
AcDbLine
 10
38.13845298923241
 20
1.999999999999998
 30
0.0
 11
37.8
 21
1.4137825
 31
0.0
  0
LINE
  5
552
330
18
100
AcDbEntity
  8
1
 62
     1
100
AcDbLine
 10
38.83845298923242
 20
2.000000000000003
 30
0.0
 11
38.5
 21
1.4137825
 31
0.0
  0
LINE
  5
553
330
18
100
AcDbEntity
  8
1
 62
     1
100
AcDbLine
 10
38.5
 20
1.4137825
 30
0.0
 11
38.16154701076759
 21
1.999999999999997
 31
0.0
  0
LINE
  5
554
330
18
100
AcDbEntity
  8
1
 62
     1
100
AcDbLine
 10
39.2
 20
1.4137825
 30
0.0
 11
38.86154701076759
 21
1.999999999999997
 31
0.0
  0
LINE
  5
555
330
18
100
AcDbEntity
  8
1
 62
     1
100
AcDbLine
 10
39.53845298923243
 20
2.00000000000004
 30
0.0
 11
39.2
 21
1.4137825
 31
0.0
  0
LINE
  5
556
330
18
100
AcDbEntity
  8
1
 62
     1
100
AcDbLine
 10
39.90000000000001
 20
1.4137825
 30
0.0
 11
39.56154701076759
 21
2.000000000000003
 31
0.0
  0
LINE
  5
557
330
18
100
AcDbEntity
  8
1
 62
     1
100
AcDbLine
 10
40.23845298923241
 20
2.0
 30
0.0
 11
39.90000000000001
 21
1.4137825
 31
0.0
  0
LINE
  5
558
330
18
100
AcDbEntity
  8
1
 62
     1
100
AcDbLine
 10
30.43845298923241
 20
1.999999999999999
 30
0.0
 11
30.10000000000001
 21
1.4137825
 31
0.0
  0
LINE
  5
559
330
18
100
AcDbEntity
  8
1
 62
     1
100
AcDbLine
 10
30.1
 20
1.4137825
 30
0.0
 11
29.8211602789085
 21
1.896746838916544
 31
0.0
  0
LINE
  5
55A
330
18
100
AcDbEntity
  8
1
 62
     1
100
AcDbLine
 10
30.8
 20
1.4137825
 30
0.0
 11
30.46154701076759
 21
1.999999999999999
 31
0.0
  0
LINE
  5
55B
330
18
100
AcDbEntity
  8
1
 62
     1
100
AcDbLine
 10
31.13845298923242
 20
1.999999999999999
 30
0.0
 11
30.80000000000001
 21
1.4137825
 31
0.0
  0
LINE
  5
55C
330
18
100
AcDbEntity
  8
1
 62
     1
100
AcDbLine
 10
31.5
 20
1.4137825
 30
0.0
 11
31.1615470107676
 21
1.999999999999998
 31
0.0
  0
LINE
  5
55D
330
18
100
AcDbEntity
  8
1
 62
     1
100
AcDbLine
 10
31.83845298923242
 20
2.000000000000004
 30
0.0
 11
31.50000000000001
 21
1.4137825
 31
0.0
  0
LINE
  5
55E
330
18
100
AcDbEntity
  8
1
 62
     1
100
AcDbLine
 10
32.2
 20
1.4137825
 30
0.0
 11
31.86154701076759
 21
1.999999999999999
 31
0.0
  0
LINE
  5
55F
330
18
100
AcDbEntity
  8
1
 62
     1
100
AcDbLine
 10
32.53845298923242
 20
2.000000000000003
 30
0.0
 11
32.2
 21
1.4137825
 31
0.0
  0
LINE
  5
560
330
18
100
AcDbEntity
  8
1
 62
     1
100
AcDbLine
 10
36.03845298923242
 20
2.000000000000006
 30
0.0
 11
35.7
 21
1.4137825
 31
0.0
  0
LINE
  5
561
330
18
100
AcDbEntity
  8
1
 62
     1
100
AcDbLine
 10
35.7
 20
1.4137825
 30
0.0
 11
35.36154701076759
 21
1.999999999999997
 31
0.0
  0
LINE
  5
562
330
18
100
AcDbEntity
  8
1
 62
     1
100
AcDbLine
 10
35.33845298923243
 20
2.000000000000027
 30
0.0
 11
35.0
 21
1.4137825
 31
0.0
  0
LINE
  5
563
330
18
100
AcDbEntity
  8
1
 62
     1
100
AcDbLine
 10
35.0
 20
1.4137825
 30
0.0
 11
34.66154701076759
 21
2.000000000000002
 31
0.0
  0
LINE
  5
564
330
18
100
AcDbEntity
  8
1
 62
     1
100
AcDbLine
 10
34.63845298923242
 20
2.000000000000005
 30
0.0
 11
34.3
 21
1.4137825
 31
0.0
  0
LINE
  5
565
330
18
100
AcDbEntity
  8
1
 62
     1
100
AcDbLine
 10
34.3
 20
1.4137825
 30
0.0
 11
33.96154701076759
 21
2.000000000000003
 31
0.0
  0
LINE
  5
566
330
18
100
AcDbEntity
  8
1
 62
     1
100
AcDbLine
 10
33.93845298923241
 20
2.000000000000002
 30
0.0
 11
33.60000000000001
 21
1.4137825
 31
0.0
  0
LINE
  5
567
330
18
100
AcDbEntity
  8
1
 62
     1
100
AcDbLine
 10
33.60000000000002
 20
1.4137825
 30
0.0
 11
33.26154701076759
 21
2.000000000000003
 31
0.0
  0
LINE
  5
568
330
18
100
AcDbEntity
  8
1
 62
     1
100
AcDbLine
 10
33.23845298923241
 20
1.999999999999997
 30
0.0
 11
32.90000000000001
 21
1.4137825
 31
0.0
  0
LINE
  5
569
330
18
100
AcDbEntity
  8
1
 62
     1
100
AcDbLine
 10
32.90000000000001
 20
1.4137825
 30
0.0
 11
32.56154701076759
 21
2.000000000000003
 31
0.0
  0
LINE
  5
56A
330
18
100
AcDbEntity
  8
1
 62
     1
100
AcDbLine
 10
29.40000000000001
 20
1.4137825
 30
0.0
 11
29.29616034006505
 21
1.593637982990332
 31
0.0
  0
LINE
  5
56B
330
18
100
AcDbEntity
  8
1
 62
     1
100
AcDbLine
 10
29.6076793924468
 20
1.773493591687481
 30
0.0
 11
29.40000000000001
 21
1.4137825
 31
0.0
  0
LINE
  5
56C
330
18
100
AcDbEntity
  8
1
 62
     1
100
AcDbLine
 10
42.47312759568144
 20
-0.5452852707714807
 30
0.0
 11
42.4729558814302
 21
-0.5452853366166258
 31
0.0
  0
ARC
  5
56D
330
18
100
AcDbEntity
  8
1
 62
     1
100
AcDbCircle
 10
42.48402579462495
 20
-0.885317406113937
 30
0.0
 40
0.3403230165629672
100
AcDbArc
 50
91.86463404323679
 51
124.7349444120745
  0
LINE
  5
56E
330
18
100
AcDbEntity
  8
1
 62
     1
100
AcDbLine
 10
42.47312759568143
 20
-0.5452853366166256
 30
0.0
 11
42.47295588143007
 21
-0.5452853366166256
 31
0.0
  0
LINE
  5
56F
330
18
100
AcDbEntity
  8
1
 62
     1
100
AcDbLine
 10
42.0
 20
-1.81
 30
0.0
 11
43.81
 21
0.0
 31
0.0
  0
LINE
  5
570
330
18
100
AcDbEntity
  8
SK1
100
AcDbLine
 10
0.0000000000000018
 20
2.25
 30
0.0
 11
-15.02
 21
2.25
 31
0.0
  0
LINE
  5
571
330
18
100
AcDbEntity
  8
SK1
100
AcDbLine
 10
-20.79499999999999
 20
-1.7
 30
0.0
 11
-15.02
 21
-1.7
 31
0.0
  0
LINE
  5
572
330
18
100
AcDbEntity
  8
SK1
100
AcDbLine
 10
-15.02
 20
-1.7
 30
0.0
 11
-15.02
 21
-2.25
 31
0.0
  0
LINE
  5
573
330
18
100
AcDbEntity
  8
SK1
100
AcDbLine
 10
-20.79499999999999
 20
1.473940297298397
 30
0.0
 11
-15.02
 21
1.473940297298397
 31
0.0
  0
ARC
  5
574
330
18
100
AcDbEntity
  8
SK1
100
AcDbCircle
 10
-16.4436410575493
 20
-1.40285845967743
 30
0.0
 40
5.216228190686334
100
AcDbArc
 50
146.5302522620768
 51
151.3225532202399
  0
LINE
  5
575
330
18
100
AcDbEntity
  8
SK1
100
AcDbLine
 10
-20.79499999999999
 20
1.7
 30
0.0
 11
-20.79499999999999
 21
1.473940297298389
 31
0.0
  0
LINE
  5
576
330
18
100
AcDbEntity
  8
SK1
100
AcDbLine
 10
-21.02
 20
1.7
 30
0.0
 11
-20.79499999999999
 21
1.7
 31
0.0
  0
LINE
  5
577
330
18
100
AcDbEntity
  8
SK1
100
AcDbLine
 10
-15.02
 20
2.25
 30
0.0
 11
-15.01999999999999
 21
2.249884763484576
 31
0.0
  0
LINE
  5
578
330
18
100
AcDbEntity
  8
SK1
100
AcDbLine
 10
-15.01999999999999
 20
2.249884763484576
 30
0.0
 11
-15.02
 21
2.214624543829443
 31
0.0
  0
LINE
  5
579
330
18
100
AcDbEntity
  8
SK1
100
AcDbLine
 10
-15.02
 20
2.214624543829443
 30
0.0
 11
-15.02
 21
1.7
 31
0.0
  0
LINE
  5
57A
330
18
100
AcDbEntity
  8
SK1
100
AcDbLine
 10
-20.79499999999999
 20
1.7
 30
0.0
 11
-15.02
 21
1.7
 31
0.0
  0
LINE
  5
57B
330
18
100
AcDbEntity
  8
SK1
100
AcDbLine
 10
-21.02
 20
1.699999999999988
 30
0.0
 11
-21.02
 21
1.10028405423327
 31
0.0
  0
LINE
  5
57C
330
18
100
AcDbEntity
  8
SK1
100
AcDbLine
 10
-21.02
 20
-1.100284054233268
 30
0.0
 11
-21.02
 21
-1.7
 31
0.0
  0
ARC
  5
57D
330
18
100
AcDbEntity
  8
SK1
100
AcDbCircle
 10
-16.44364105755247
 20
1.40285845967562
 30
0.0
 40
5.216228190682692
100
AcDbArc
 50
208.6774467797593
 51
213.4697477379258
  0
LINE
  5
57E
330
18
100
AcDbEntity
  8
SK1
100
AcDbLine
 10
-21.02
 20
-1.7
 30
0.0
 11
-20.79499999999999
 21
-1.7
 31
0.0
  0
LINE
  5
57F
330
18
100
AcDbEntity
  8
SK1
100
AcDbLine
 10
-20.79499999999999
 20
-1.473940297298368
 30
0.0
 11
-20.79499999999999
 21
-1.7
 31
0.0
  0
LINE
  5
580
330
18
100
AcDbEntity
  8
SK1
100
AcDbLine
 10
-15.02
 20
1.473940297298369
 30
0.0
 11
-15.02
 21
-1.473940297298368
 31
0.0
  0
LINE
  5
581
330
18
100
AcDbEntity
  8
SK1
100
AcDbLine
 10
-21.02
 20
1.10028405423327
 30
0.0
 11
-21.01999999999999
 21
-1.100284054233269
 31
0.0
  0
LINE
  5
582
330
18
100
AcDbEntity
  8
SK1
100
AcDbLine
 10
-20.79499999999999
 20
-1.473940297298367
 30
0.0
 11
-15.02
 21
-1.473940297298367
 31
0.0
  0
LINE
  5
583
330
18
100
AcDbEntity
  8
SK1
100
AcDbLine
 10
-15.02
 20
-2.25
 30
0.0
 11
0.0000000000000004
 21
-2.25
 31
0.0
  0
DIMENSION
  5
584
330
18
100
AcDbEntity
  8
2
100
AcDbDimension
  2
*D0
 10
57.00000000000001
 20
-1.999999999999948
 30
0.0
 11
54.58475000000004
 21
-10.76624999999996
 31
0.0
 70
    32
  1
M4
 71
     5
 42
4.0
  3
STANDARD
100
AcDbAlignedDimension
 13
42.0
 23
2.0
 33
0.0
 14
42.0
 24
-2.0
 34
0.0
 50
90.0000000000002
100
AcDbRotatedDimension
  0
DIMENSION
  5
592
330
18
100
AcDbEntity
  8
2
100
AcDbDimension
  2
*D1
 10
42.0
 20
75.0
 30
0.0
 11
21.0
 21
77.431
 31
0.0
 70
    32
  1
<>
 71
     5
 42
42.0
  3
STANDARD
100
AcDbAlignedDimension
 13
0.0
 23
0.0
 33
0.0
 14
42.0
 24
0.0
 34
0.0
100
AcDbRotatedDimension
  0
DIMENSION
  5
59F
330
18
100
AcDbEntity
  8
SK2
100
AcDbDimension
  2
*D2
 10
-36.01999999998851
 20
-2.250000000107172
 30
0.0
 11
-38.457999999932
 21
-13.32450000011961
 31
0.0
 70
    32
  1
%%c<>
 71
     5
 42
4.5
  3
STANDARD
100
AcDbAlignedDimension
 13
-15.02
 23
2.25
 33
0.0
 14
-15.02
 24
-2.25
 34
0.0
 50
90.0000000002924
100
AcDbRotatedDimension
  0
DIMENSION
  5
5AD
330
18
100
AcDbEntity
  8
2
100
AcDbDimension
  2
*D3
 10
42.0
 20
60.0
 30
0.0
 11
51.628
 21
62.39775
 31
0.0
 70
    32
  1
<>
 71
     5
 42
12.85736515
  3
STANDARD
100
AcDbAlignedDimension
 13
29.14263485
 23
1.505
 33
0.0
 14
42.0
 24
2.0
 34
0.0
100
AcDbRotatedDimension
  0
DIMENSION
  5
5BB
330
18
100
AcDbEntity
  8
SK2
100
AcDbDimension
  2
*D4
 10
43.81
 20
90.0
 30
0.0
 11
11.395
 21
92.438
 31
0.0
 70
    32
  1
<>
 71
     5
 42
64.83
  3
STANDARD
100
AcDbAlignedDimension
 13
-21.02
 23
2.0
 33
0.0
 14
43.81
 24
2.0
 34
0.0
100
AcDbRotatedDimension
  0
ENDSEC
  0
SECTION
  2
OBJECTS
  0
DICTIONARY
  5
C
330
0
100
AcDbDictionary
281
     1
  3
ACAD_COLOR
350
387
  3
ACAD_GROUP
350
D
  3
ACAD_LAYOUT
350
301
  3
ACAD_MATERIAL
350
386
  3
ACAD_MLEADERSTYLE
350
5C8
  3
ACAD_MLINESTYLE
350
E
  3
ACAD_PLOTSETTINGS
350
302
  3
ACAD_PLOTSTYLENAME
350
2FF
  3
ACAD_SCALELIST
350
3A0
  3
ACAD_TABLESTYLE
350
388
  3
ACAD_VISUALSTYLE
350
3C5
  3
ACDBHEADERROUNDTRIPXREC
350
5C9
  3
AcDbVariableDictionary
350
357
  0
DICTIONARY
  5
387
102
{ACAD_REACTORS
330
C
102
}
330
C
100
AcDbDictionary
281
     1
  0
DICTIONARY
  5
D
102
{ACAD_REACTORS
330
C
102
}
330
C
100
AcDbDictionary
281
     1
  0
DICTIONARY
  5
301
102
{ACAD_REACTORS
330
C
102
}
330
C
100
AcDbDictionary
281
     1
  3
Layout1
350
33B
  3
Model
350
303
  0
DICTIONARY
  5
386
102
{ACAD_REACTORS
330
C
102
}
330
C
100
AcDbDictionary
281
     1
  3
ByBlock
350
3C3
  3
ByLayer
350
3C2
  3
Global
350
3C4
  0
DICTIONARY
  5
5C8
102
{ACAD_REACTORS
330
C
102
}
330
C
100
AcDbDictionary
281
     1
  0
DICTIONARY
  5
E
102
{ACAD_REACTORS
330
C
102
}
330
C
100
AcDbDictionary
281
     1
  3
STANDARD
350
1B
  0
DICTIONARY
  5
302
102
{ACAD_REACTORS
330
C
102
}
330
C
100
AcDbDictionary
281
     1
  0
ACDBDICTIONARYWDFLT
  5
2FF
102
{ACAD_REACTORS
330
C
102
}
330
C
100
AcDbDictionary
281
     1
  3
Normal
350
300
100
AcDbDictionaryWithDefault
340
300
  0
DICTIONARY
  5
3A0
102
{ACAD_REACTORS
330
C
102
}
330
C
100
AcDbDictionary
281
     1
  3
A0
350
3A1
  3
A1
350
3A2
  3
A2
350
3A3
  3
A3
350
3A4
  3
A4
350
3A5
  3
A5
350
3A6
  3
A6
350
3A7
  3
A7
350
3A8
  3
A8
350
3A9
  3
A9
350
3AA
  3
B0
350
3AB
  3
B1
350
3AC
  3
B2
350
3AD
  3
B3
350
3AE
  3
B4
350
3AF
  3
B5
350
3B0
  3
B6
350
3B1
  3
B7
350
3B2
  3
B8
350
3B3
  3
B9
350
3B4
  3
C0
350
3B5
  3
C1
350
3B6
  3
C2
350
3B7
  3
C3
350
3B8
  3
C4
350
3B9
  3
C5
350
3BA
  3
C6
350
3BB
  3
C7
350
3BC
  3
C8
350
3BD
  3
C9
350
3BE
  3
D0
350
3BF
  3
D1
350
3C0
  3
D2
350
3C1
  0
DICTIONARY
  5
388
102
{ACAD_REACTORS
330
C
102
}
330
C
100
AcDbDictionary
281
     1
  3
Standard
350
389
  0
DICTIONARY
  5
3C5
102
{ACAD_REACTORS
330
C
102
}
330
C
100
AcDbDictionary
281
     1
  3
2dWireframe
350
3CA
  3
3D Hidden
350
3CC
  3
3dWireframe
350
3CB
  3
Basic
350
3CD
  3
Brighten
350
3D1
  3
ColorChange
350
3D5
  3
Conceptual
350
3CF
  3
Dim
350
3D0
  3
Facepattern
350
3D4
  3
Flat
350
3C6
  3
FlatWithEdges
350
3C7
  3
Gouraud
350
3C8
  3
GouraudWithEdges
350
3C9
  3
Linepattern
350
3D3
  3
Realistic
350
3CE
  3
Thicken
350
3D2
  0
DICTIONARY
  5
5C9
102
{ACAD_REACTORS
330
C
102
}
330
C
100
AcDbDictionary
281
     1
  3
COLORDICT
350
5CA
  3
MATERIALDICT
350
5CB
  0
DICTIONARY
  5
357
102
{ACAD_REACTORS
330
C
102
}
330
C
100
AcDbDictionary
281
     1
  3
CANNOSCALE
350
5CC
  3
CTABLESTYLE
350
38D
  3
DIMASSOC
350
359
  3
HIDETEXT
350
358
  3
PROJECTNAME
350
38E
  0
LAYOUT
  5
33B
102
{ACAD_REACTORS
330
301
102
}
330
301
100
AcDbPlotSettings
  1

  2
Lexmark Optra PS2
  4

  6

 40
0.0
 41
0.0
 42
0.0
 43
0.0
 44
0.0
 45
0.0
 46
0.0
 47
0.0
 48
0.0
 49
0.0
140
0.0
141
0.0
142
1.0
143
1.0
 70
   688
 72
     0
 73
     0
 74
     5
  7
monochrome.ctb
 75
    16
147
1.0
148
0.0
149
0.0
100
AcDbLayout
  1
Layout1
 70
     1
 71
     1
 10
0.0
 20
0.0
 11
12.0
 21
9.0
 12
0.0
 22
0.0
 32
0.0
 14
0.0
 24
0.0
 34
0.0
 15
0.0
 25
0.0
 35
0.0
146
0.0
 13
0.0
 23
0.0
 33
0.0
 16
1.0
 26
0.0
 36
0.0
 17
0.0
 27
1.0
 37
0.0
 76
     0
330
338
  0
LAYOUT
  5
303
102
{ACAD_REACTORS
330
301
102
}
330
301
100
AcDbPlotSettings
  1

  2
Lexmark Optra Rx
  4
A4
  6

 40
6.805083274841307
 41
5.535083293914794
 42
6.974411010742187
 43
7.14373779296875
 44
209.9733276367186
 45
296.9259948730469
 46
0.0
 47
0.0
 48
0.0
 49
0.0
140
0.0
141
0.0
142
1.0
143
2.976565420630886
 70
 11952
 72
     1
 73
     1
 74
     0
  7
monochrome.ctb
 75
     0
147
0.335957675604539
148
204.1199660668592
149
172.3933209647495
100
AcDbLayout
  1
Model
 70
     1
 71
     0
 10
0.0
 20
0.0
 11
12.0
 21
9.0
 12
0.0
 22
0.0
 32
0.0
 14
0.0
 24
0.0
 34
0.0
 15
0.0
 25
0.0
 35
0.0
146
0.0
 13
0.0
 23
0.0
 33
0.0
 16
1.0
 26
0.0
 36
0.0
 17
0.0
 27
1.0
 37
0.0
 76
     0
330
18
331
39A
  0
MATERIAL
  5
3C3
102
{ACAD_REACTORS
330
386
102
}
102
{ACAD_XDICTIONARY
360
5CF
102
}
330
386
100
AcDbMaterial
  1
ByBlock
  0
MATERIAL
  5
3C2
102
{ACAD_REACTORS
330
386
102
}
102
{ACAD_XDICTIONARY
360
5CD
102
}
330
386
100
AcDbMaterial
  1
ByLayer
  0
MATERIAL
  5
3C4
102
{ACAD_REACTORS
330
386
102
}
102
{ACAD_XDICTIONARY
360
5D1
102
}
330
386
100
AcDbMaterial
  1
Global
  0
MLINESTYLE
  5
1B
102
{ACAD_REACTORS
330
E
102
}
330
E
100
AcDbMlineStyle
  2
STANDARD
 70
     0
  3

 62
     0
 51
90.0
 52
90.0
 71
     2
 49
0.5
 62
   256
  6
BYLAYER
 49
-0.5
 62
   256
  6
BYLAYER
  0
ACDBPLACEHOLDER
  5
300
102
{ACAD_REACTORS
330
2FF
102
}
330
2FF
  0
SCALE
  5
3A1
102
{ACAD_REACTORS
330
3A0
102
}
330
3A0
100
AcDbScale
 70
     0
300
1:1
140
1.0
141
1.0
290
     1
  0
SCALE
  5
3A2
102
{ACAD_REACTORS
330
3A0
102
}
330
3A0
100
AcDbScale
 70
     0
300
1:2
140
1.0
141
2.0
290
     0
  0
SCALE
  5
3A3
102
{ACAD_REACTORS
330
3A0
102
}
330
3A0
100
AcDbScale
 70
     0
300
1:4
140
1.0
141
4.0
290
     0
  0
SCALE
  5
3A4
102
{ACAD_REACTORS
330
3A0
102
}
330
3A0
100
AcDbScale
 70
     0
300
1:5
140
1.0
141
5.0
290
     0
  0
SCALE
  5
3A5
102
{ACAD_REACTORS
330
3A0
102
}
330
3A0
100
AcDbScale
 70
     0
300
1:8
140
1.0
141
8.0
290
     0
  0
SCALE
  5
3A6
102
{ACAD_REACTORS
330
3A0
102
}
330
3A0
100
AcDbScale
 70
     0
300
1:10
140
1.0
141
10.0
290
     0
  0
SCALE
  5
3A7
102
{ACAD_REACTORS
330
3A0
102
}
330
3A0
100
AcDbScale
 70
     0
300
1:16
140
1.0
141
16.0
290
     0
  0
SCALE
  5
3A8
102
{ACAD_REACTORS
330
3A0
102
}
330
3A0
100
AcDbScale
 70
     0
300
1:20
140
1.0
141
20.0
290
     0
  0
SCALE
  5
3A9
102
{ACAD_REACTORS
330
3A0
102
}
330
3A0
100
AcDbScale
 70
     0
300
1:30
140
1.0
141
30.0
290
     0
  0
SCALE
  5
3AA
102
{ACAD_REACTORS
330
3A0
102
}
330
3A0
100
AcDbScale
 70
     0
300
1:40
140
1.0
141
40.0
290
     0
  0
SCALE
  5
3AB
102
{ACAD_REACTORS
330
3A0
102
}
330
3A0
100
AcDbScale
 70
     0
300
1:50
140
1.0
141
50.0
290
     0
  0
SCALE
  5
3AC
102
{ACAD_REACTORS
330
3A0
102
}
330
3A0
100
AcDbScale
 70
     0
300
1:100
140
1.0
141
100.0
290
     0
  0
SCALE
  5
3AD
102
{ACAD_REACTORS
330
3A0
102
}
330
3A0
100
AcDbScale
 70
     0
300
2:1
140
2.0
141
1.0
290
     0
  0
SCALE
  5
3AE
102
{ACAD_REACTORS
330
3A0
102
}
330
3A0
100
AcDbScale
 70
     0
300
4:1
140
4.0
141
1.0
290
     0
  0
SCALE
  5
3AF
102
{ACAD_REACTORS
330
3A0
102
}
330
3A0
100
AcDbScale
 70
     0
300
8:1
140
8.0
141
1.0
290
     0
  0
SCALE
  5
3B0
102
{ACAD_REACTORS
330
3A0
102
}
330
3A0
100
AcDbScale
 70
     0
300
10:1
140
10.0
141
1.0
290
     0
  0
SCALE
  5
3B1
102
{ACAD_REACTORS
330
3A0
102
}
330
3A0
100
AcDbScale
 70
     0
300
100:1
140
100.0
141
1.0
290
     0
  0
SCALE
  5
3B2
102
{ACAD_REACTORS
330
3A0
102
}
330
3A0
100
AcDbScale
 70
     0
300
1/128" = 1'-0"
140
0.0078125
141
12.0
290
     0
  0
SCALE
  5
3B3
102
{ACAD_REACTORS
330
3A0
102
}
330
3A0
100
AcDbScale
 70
     0
300
1/64" = 1'-0"
140
0.015625
141
12.0
290
     0
  0
SCALE
  5
3B4
102
{ACAD_REACTORS
330
3A0
102
}
330
3A0
100
AcDbScale
 70
     0
300
1/32" = 1'-0"
140
0.03125
141
12.0
290
     0
  0
SCALE
  5
3B5
102
{ACAD_REACTORS
330
3A0
102
}
330
3A0
100
AcDbScale
 70
     0
300
1/16" = 1'-0"
140
0.0625
141
12.0
290
     0
  0
SCALE
  5
3B6
102
{ACAD_REACTORS
330
3A0
102
}
330
3A0
100
AcDbScale
 70
     0
300
3/32" = 1'-0"
140
0.09375
141
12.0
290
     0
  0
SCALE
  5
3B7
102
{ACAD_REACTORS
330
3A0
102
}
330
3A0
100
AcDbScale
 70
     0
300
1/8" = 1'-0"
140
0.125
141
12.0
290
     0
  0
SCALE
  5
3B8
102
{ACAD_REACTORS
330
3A0
102
}
330
3A0
100
AcDbScale
 70
     0
300
3/16" = 1'-0"
140
0.1875
141
12.0
290
     0
  0
SCALE
  5
3B9
102
{ACAD_REACTORS
330
3A0
102
}
330
3A0
100
AcDbScale
 70
     0
300
1/4" = 1'-0"
140
0.25
141
12.0
290
     0
  0
SCALE
  5
3BA
102
{ACAD_REACTORS
330
3A0
102
}
330
3A0
100
AcDbScale
 70
     0
300
3/8" = 1'-0"
140
0.375
141
12.0
290
     0
  0
SCALE
  5
3BB
102
{ACAD_REACTORS
330
3A0
102
}
330
3A0
100
AcDbScale
 70
     0
300
1/2" = 1'-0"
140
0.5
141
12.0
290
     0
  0
SCALE
  5
3BC
102
{ACAD_REACTORS
330
3A0
102
}
330
3A0
100
AcDbScale
 70
     0
300
3/4" = 1'-0"
140
0.75
141
12.0
290
     0
  0
SCALE
  5
3BD
102
{ACAD_REACTORS
330
3A0
102
}
330
3A0
100
AcDbScale
 70
     0
300
1" = 1'-0"
140
1.0
141
12.0
290
     0
  0
SCALE
  5
3BE
102
{ACAD_REACTORS
330
3A0
102
}
330
3A0
100
AcDbScale
 70
     0
300
1-1/2" = 1'-0"
140
1.5
141
12.0
290
     0
  0
SCALE
  5
3BF
102
{ACAD_REACTORS
330
3A0
102
}
330
3A0
100
AcDbScale
 70
     0
300
3" = 1'-0"
140
3.0
141
12.0
290
     0
  0
SCALE
  5
3C0
102
{ACAD_REACTORS
330
3A0
102
}
330
3A0
100
AcDbScale
 70
     0
300
6" = 1'-0"
140
6.0
141
12.0
290
     0
  0
SCALE
  5
3C1
102
{ACAD_REACTORS
330
3A0
102
}
330
3A0
100
AcDbScale
 70
     0
300
1'-0" = 1'-0"
140
12.0
141
12.0
290
     0
  0
TABLESTYLE
  5
389
102
{ACAD_REACTORS
330
388
102
}
330
388
100
AcDbTableStyle
  3
Standard
 70
     0
 71
     0
 40
1.5
 41
1.5
280
     0
281
     0
  7
STANDARD
140
4.5
170
     2
 62
     0
 63
   257
283
     0
274
    -2
284
     1
 64
     0
275
    -2
285
     1
 65
     0
276
    -2
286
     1
 66
     0
277
    -2
287
     1
 67
     0
278
    -2
288
     1
 68
     0
279
    -2
289
     1
 69
     0
  7
STANDARD
140
6.0
170
     5
 62
     0
 63
   257
283
     0
274
    -2
284
     1
 64
     0
275
    -2
285
     1
 65
     0
276
    -2
286
     1
 66
     0
277
    -2
287
     1
 67
     0
278
    -2
288
     1
 68
     0
279
    -2
289
     1
 69
     0
  7
STANDARD
140
4.5
170
     5
 62
     0
 63
   257
283
     0
274
    -2
284
     1
 64
     0
275
    -2
285
     1
 65
     0
276
    -2
286
     1
 66
     0
277
    -2
287
     1
 67
     0
278
    -2
288
     1
 68
     0
279
    -2
289
     1
 69
     0
  0
VISUALSTYLE
  5
3CA
102
{ACAD_REACTORS
330
3C5
102
}
102
{ACAD_XDICTIONARY
360
5DB
102
}
330
3C5
100
AcDbVisualStyle
  2
2dWireframe
 70
     4
 71
     0
 72
     2
 73
     0
 90
        0
 40
-0.6
 41
-30.0
 62
     5
 63
     7
 74
     1
 91
        4
 64
     7
 65
   257
 75
     1
175
     1
 42
1.0
 92
        0
 66
   257
 43
1.0
 76
     1
 77
     6
 78
     2
 67
     7
 79
     5
170
     0
171
     0
290
     0
174
     0
 93
        1
 44
0.0
173
     0
291
     0
 45
0.0
1001
ACAD
1000
AcDbSavedByObjectVersion
1070
     0
  0
VISUALSTYLE
  5
3CC
102
{ACAD_REACTORS
330
3C5
102
}
102
{ACAD_XDICTIONARY
360
5DF
102
}
330
3C5
100
AcDbVisualStyle
  2
3D Hidden
 70
     6
 71
     1
 72
     2
 73
     2
 90
        0
 40
-0.6
 41
-30.0
 62
     5
 63
     7
 74
     2
 91
        2
 64
     7
 65
   257
 75
     2
175
     1
 42
40.0
 92
        0
 66
   257
 43
1.0
 76
     1
 77
     6
 78
     2
 67
     7
 79
     3
170
     0
171
     0
290
     0
174
     0
 93
        1
 44
0.0
173
     0
291
     0
 45
0.0
1001
ACAD
1000
AcDbSavedByObjectVersion
1070
     0
  0
VISUALSTYLE
  5
3CB
102
{ACAD_REACTORS
330
3C5
102
}
102
{ACAD_XDICTIONARY
360
5DD
102
}
330
3C5
100
AcDbVisualStyle
  2
3dWireframe
 70
     5
 71
     0
 72
     2
 73
     0
 90
        0
 40
-0.6
 41
-30.0
 62
     5
 63
     7
 74
     1
 91
        4
 64
     7
 65
   257
 75
     1
175
     1
 42
1.0
 92
        0
 66
   257
 43
1.0
 76
     1
 77
     6
 78
     2
 67
     7
 79
     5
170
     0
171
     0
290
     0
174
     0
 93
        1
 44
0.0
173
     0
291
     0
 45
0.0
1001
ACAD
1000
AcDbSavedByObjectVersion
1070
     0
  0
VISUALSTYLE
  5
3CD
102
{ACAD_REACTORS
330
3C5
102
}
102
{ACAD_XDICTIONARY
360
5E1
102
}
330
3C5
100
AcDbVisualStyle
  2
Basic
 70
     7
 71
     1
 72
     0
 73
     1
 90
        0
 40
-0.6
 41
-30.0
 62
     5
 63
     7
 74
     0
 91
        4
 64
     7
 65
   257
 75
     1
175
     1
 42
1.0
 92
        8
 66
     7
 43
1.0
 76
     1
 77
     6
 78
     2
 67
     7
 79
     5
170
     0
171
     0
290
     0
174
     0
 93
        1
 44
0.0
173
     0
291
     1
 45
0.0
1001
ACAD
1000
AcDbSavedByObjectVersion
1070
     0
  0
VISUALSTYLE
  5
3D1
102
{ACAD_REACTORS
330
3C5
102
}
102
{ACAD_XDICTIONARY
360
5E9
102
}
330
3C5
100
AcDbVisualStyle
  2
Brighten
 70
    12
 71
     2
 72
     2
 73
     0
 90
        0
 40
-0.6
 41
-30.0
 62
     5
 63
     7
 74
     1
 91
        4
 64
     7
 65
   257
 75
     1
175
     1
 42
1.0
 92
        8
 66
     7
 43
1.0
 76
     1
 77
     6
 78
     2
 67
     7
 79
     5
170
     0
171
     0
290
     0
174
     0
 93
        1
 44
50.0
173
     0
291
     1
 45
0.0
1001
ACAD
1000
AcDbSavedByObjectVersion
1070
     0
  0
VISUALSTYLE
  5
3D5
102
{ACAD_REACTORS
330
3C5
102
}
102
{ACAD_XDICTIONARY
360
5F1
102
}
330
3C5
100
AcDbVisualStyle
  2
ColorChange
 70
    16
 71
     2
 72
     2
 73
     3
 90
        0
 40
-0.6
 41
-30.0
 62
     5
 63
     8
 74
     1
 91
        4
 64
     7
 65
   257
 75
     1
175
     1
 42
1.0
 92
        8
 66
     8
 43
1.0
 76
     1
 77
     6
 78
     2
 67
     7
 79
     5
170
     0
171
     0
290
     0
174
     0
 93
        1
 44
0.0
173
     0
291
     1
 45
0.0
1001
ACAD
1000
AcDbSavedByObjectVersion
1070
     0
  0
VISUALSTYLE
  5
3CF
102
{ACAD_REACTORS
330
3C5
102
}
102
{ACAD_XDICTIONARY
360
5E5
102
}
330
3C5
100
AcDbVisualStyle
  2
Conceptual
 70
     9
 71
     3
 72
     2
 73
     0
 90
        0
 40
-0.6
 41
-30.0
 62
     5
 63
     7
 74
     2
 91
        2
 64
     7
 65
   257
 75
     1
175
     1
 42
40.0
 92
        8
 66
     7
 43
1.0
 76
     1
 77
     6
 78
     2
 67
     7
 79
     3
170
     0
171
     0
290
     0
174
     0
 93
        1
 44
0.0
173
     0
291
     0
 45
0.0
1001
ACAD
1000
AcDbSavedByObjectVersion
1070
     0
  0
VISUALSTYLE
  5
3D0
102
{ACAD_REACTORS
330
3C5
102
}
102
{ACAD_XDICTIONARY
360
5E7
102
}
330
3C5
100
AcDbVisualStyle
  2
Dim
 70
    11
 71
     2
 72
     2
 73
     0
 90
        0
 40
-0.6
 41
-30.0
 62
     5
 63
     7
 74
     1
 91
        4
 64
     7
 65
   257
 75
     1
175
     1
 42
1.0
 92
        8
 66
     7
 43
1.0
 76
     1
 77
     6
 78
     2
 67
     7
 79
     5
170
     0
171
     0
290
     0
174
     0
 93
        1
 44
-50.0
173
     0
291
     1
 45
0.0
1001
ACAD
1000
AcDbSavedByObjectVersion
1070
     0
  0
VISUALSTYLE
  5
3D4
102
{ACAD_REACTORS
330
3C5
102
}
102
{ACAD_XDICTIONARY
360
5EF
102
}
330
3C5
100
AcDbVisualStyle
  2
Facepattern
 70
    15
 71
     2
 72
     2
 73
     0
 90
        0
 40
-0.6
 41
-30.0
 62
     5
 63
     7
 74
     1
 91
        4
 64
     7
 65
   257
 75
     1
175
     1
 42
1.0
 92
        8
 66
     7
 43
1.0
 76
     1
 77
     6
 78
     2
 67
     7
 79
     5
170
     0
171
     0
290
     0
174
     0
 93
        1
 44
0.0
173
     0
291
     1
 45
0.0
1001
ACAD
1000
AcDbSavedByObjectVersion
1070
     0
  0
VISUALSTYLE
  5
3C6
102
{ACAD_REACTORS
330
3C5
102
}
102
{ACAD_XDICTIONARY
360
5D3
102
}
330
3C5
100
AcDbVisualStyle
  2
Flat
 70
     0
 71
     2
 72
     1
 73
     1
 90
        2
 40
-0.6
 41
30.0
 62
     5
 63
     7
 74
     0
 91
        4
 64
     7
 65
   257
 75
     1
175
     1
 42
1.0
 92
        8
 66
     7
 43
1.0
 76
     1
 77
     6
 78
     2
 67
     7
 79
     5
170
     0
171
     0
290
     0
174
     0
 93
       13
 44
0.0
173
     0
291
     1
 45
0.0
1001
ACAD
1000
AcDbSavedByObjectVersion
1070
     0
  0
VISUALSTYLE
  5
3C7
102
{ACAD_REACTORS
330
3C5
102
}
102
{ACAD_XDICTIONARY
360
5D5
102
}
330
3C5
100
AcDbVisualStyle
  2
FlatWithEdges
 70
     1
 71
     2
 72
     1
 73
     1
 90
        2
 40
-0.6
 41
30.0
 62
     5
 63
     7
 74
     1
 91
        4
 64
     7
 65
   257
 75
     1
175
     1
 42
1.0
 92
        0
 66
   257
 43
1.0
 76
     1
 77
     6
 78
     2
 67
     7
 79
     5
170
     0
171
     0
290
     0
174
     0
 93
       13
 44
0.0
173
     0
291
     1
 45
0.0
1001
ACAD
1000
AcDbSavedByObjectVersion
1070
     0
  0
VISUALSTYLE
  5
3C8
102
{ACAD_REACTORS
330
3C5
102
}
102
{ACAD_XDICTIONARY
360
5D7
102
}
330
3C5
100
AcDbVisualStyle
  2
Gouraud
 70
     2
 71
     2
 72
     2
 73
     1
 90
        2
 40
-0.6
 41
30.0
 62
     5
 63
     7
 74
     0
 91
        4
 64
     7
 65
   257
 75
     1
175
     1
 42
1.0
 92
        0
 66
     7
 43
1.0
 76
     1
 77
     6
 78
     2
 67
     7
 79
     5
170
     0
171
     0
290
     0
174
     0
 93
       13
 44
0.0
173
     0
291
     1
 45
0.0
1001
ACAD
1000
AcDbSavedByObjectVersion
1070
     0
  0
VISUALSTYLE
  5
3C9
102
{ACAD_REACTORS
330
3C5
102
}
102
{ACAD_XDICTIONARY
360
5D9
102
}
330
3C5
100
AcDbVisualStyle
  2
GouraudWithEdges
 70
     3
 71
     2
 72
     2
 73
     1
 90
        2
 40
-0.6
 41
30.0
 62
     5
 63
     7
 74
     1
 91
        4
 64
     7
 65
   257
 75
     1
175
     1
 42
1.0
 92
        0
 66
   257
 43
1.0
 76
     1
 77
     6
 78
     2
 67
     7
 79
     5
170
     0
171
     0
290
     0
174
     0
 93
       13
 44
0.0
173
     0
291
     1
 45
0.0
1001
ACAD
1000
AcDbSavedByObjectVersion
1070
     0
  0
VISUALSTYLE
  5
3D3
102
{ACAD_REACTORS
330
3C5
102
}
102
{ACAD_XDICTIONARY
360
5ED
102
}
330
3C5
100
AcDbVisualStyle
  2
Linepattern
 70
    14
 71
     2
 72
     2
 73
     0
 90
        0
 40
-0.6
 41
-30.0
 62
     5
 63
     7
 74
     1
 91
        4
 64
     7
 65
   257
 75
     7
175
     7
 42
1.0
 92
        8
 66
     7
 43
1.0
 76
     1
 77
     6
 78
     2
 67
     7
 79
     5
170
     0
171
     0
290
     0
174
     0
 93
        1
 44
0.0
173
     0
291
     1
 45
0.0
1001
ACAD
1000
AcDbSavedByObjectVersion
1070
     0
  0
VISUALSTYLE
  5
3CE
102
{ACAD_REACTORS
330
3C5
102
}
102
{ACAD_XDICTIONARY
360
5E3
102
}
330
3C5
100
AcDbVisualStyle
  2
Realistic
 70
     8
 71
     2
 72
     2
 73
     0
 90
        0
 40
-0.6
 41
-30.0
 62
     5
 63
     7
 74
     1
 91
        0
 64
     7
 65
   257
 75
     1
175
     1
 42
1.0
 92
        8
 66
     8
 43
1.0
 76
     1
 77
     6
 78
     2
 67
     7
 79
     5
170
     0
171
     0
290
     0
174
     0
 93
       13
 44
0.0
173
     0
291
     0
 45
0.0
1001
ACAD
1000
AcDbSavedByObjectVersion
1070
     0
  0
VISUALSTYLE
  5
3D2
102
{ACAD_REACTORS
330
3C5
102
}
102
{ACAD_XDICTIONARY
360
5EB
102
}
330
3C5
100
AcDbVisualStyle
  2
Thicken
 70
    13
 71
     2
 72
     2
 73
     0
 90
        0
 40
-0.6
 41
-30.0
 62
     5
 63
     7
 74
     1
 91
        4
 64
     7
 65
   257
 75
     1
175
     1
 42
1.0
 92
       12
 66
     7
 43
1.0
 76
     1
 77
     6
 78
     2
 67
     7
 79
     5
170
     0
171
     0
290
     0
174
     0
 93
        1
 44
0.0
173
     0
291
     1
 45
0.0
1001
ACAD
1000
AcDbSavedByObjectVersion
1070
     0
  0
XRECORD
  5
5CA
102
{ACAD_REACTORS
330
5C9
102
}
330
5C9
100
AcDbXrecord
280
     1
340
387
  0
XRECORD
  5
5CB
102
{ACAD_REACTORS
330
5C9
102
}
330
5C9
100
AcDbXrecord
280
     1
340
386
  0
DICTIONARYVAR
  5
5CC
102
{ACAD_REACTORS
330
357
102
}
330
357
100
DictionaryVariables
280
     0
  1
1:1
  0
DICTIONARYVAR
  5
38D
102
{ACAD_REACTORS
330
357
102
}
330
357
100
DictionaryVariables
280
     0
  1
Standard
  0
DICTIONARYVAR
  5
359
102
{ACAD_REACTORS
330
357
102
}
330
357
100
DictionaryVariables
280
     0
  1
2
  0
DICTIONARYVAR
  5
358
102
{ACAD_REACTORS
330
357
102
}
330
357
100
DictionaryVariables
280
     0
  1
1
  0
DICTIONARYVAR
  5
38E
102
{ACAD_REACTORS
330
357
102
}
330
357
100
DictionaryVariables
280
     0
  1

  0
DICTIONARY
  5
5CF
330
3C3
100
AcDbDictionary
280
     1
281
     1
  3
ACAD_XREC_ROUNDTRIP
360
5D0
  0
DICTIONARY
  5
5CD
330
3C2
100
AcDbDictionary
280
     1
281
     1
  3
ACAD_XREC_ROUNDTRIP
360
5CE
  0
DICTIONARY
  5
5D1
330
3C4
100
AcDbDictionary
280
     1
281
     1
  3
ACAD_XREC_ROUNDTRIP
360
5D2
  0
DICTIONARY
  5
5DB
330
3CA
100
AcDbDictionary
280
     1
281
     1
  3
ACAD_XREC_ROUNDTRIP
360
5DC
  0
DICTIONARY
  5
5DF
330
3CC
100
AcDbDictionary
280
     1
281
     1
  3
ACAD_XREC_ROUNDTRIP
360
5E0
  0
DICTIONARY
  5
5DD
330
3CB
100
AcDbDictionary
280
     1
281
     1
  3
ACAD_XREC_ROUNDTRIP
360
5DE
  0
DICTIONARY
  5
5E1
330
3CD
100
AcDbDictionary
280
     1
281
     1
  3
ACAD_XREC_ROUNDTRIP
360
5E2
  0
DICTIONARY
  5
5E9
330
3D1
100
AcDbDictionary
280
     1
281
     1
  3
ACAD_XREC_ROUNDTRIP
360
5EA
  0
DICTIONARY
  5
5F1
330
3D5
100
AcDbDictionary
280
     1
281
     1
  3
ACAD_XREC_ROUNDTRIP
360
5F2
  0
DICTIONARY
  5
5E5
330
3CF
100
AcDbDictionary
280
     1
281
     1
  3
ACAD_XREC_ROUNDTRIP
360
5E6
  0
DICTIONARY
  5
5E7
330
3D0
100
AcDbDictionary
280
     1
281
     1
  3
ACAD_XREC_ROUNDTRIP
360
5E8
  0
DICTIONARY
  5
5EF
330
3D4
100
AcDbDictionary
280
     1
281
     1
  3
ACAD_XREC_ROUNDTRIP
360
5F0
  0
DICTIONARY
  5
5D3
330
3C6
100
AcDbDictionary
280
     1
281
     1
  3
ACAD_XREC_ROUNDTRIP
360
5D4
  0
DICTIONARY
  5
5D5
330
3C7
100
AcDbDictionary
280
     1
281
     1
  3
ACAD_XREC_ROUNDTRIP
360
5D6
  0
DICTIONARY
  5
5D7
330
3C8
100
AcDbDictionary
280
     1
281
     1
  3
ACAD_XREC_ROUNDTRIP
360
5D8
  0
DICTIONARY
  5
5D9
330
3C9
100
AcDbDictionary
280
     1
281
     1
  3
ACAD_XREC_ROUNDTRIP
360
5DA
  0
DICTIONARY
  5
5ED
330
3D3
100
AcDbDictionary
280
     1
281
     1
  3
ACAD_XREC_ROUNDTRIP
360
5EE
  0
DICTIONARY
  5
5E3
330
3CE
100
AcDbDictionary
280
     1
281
     1
  3
ACAD_XREC_ROUNDTRIP
360
5E4
  0
DICTIONARY
  5
5EB
330
3D2
100
AcDbDictionary
280
     1
281
     1
  3
ACAD_XREC_ROUNDTRIP
360
5EC
  0
XRECORD
  5
5D0
102
{ACAD_REACTORS
330
5CF
102
}
330
5CF
100
AcDbXrecord
280
     1
102
MATERIAL
148
0.0
149
0.0
149
0.0
 93
        0
 94
      127
282
     0
 72
     1
 77
     1
171
     1
175
     1
179
     1
273
     0
  0
XRECORD
  5
5CE
102
{ACAD_REACTORS
330
5CD
102
}
330
5CD
100
AcDbXrecord
280
     1
102
MATERIAL
148
0.0
149
0.0
149
0.0
 93
        0
 94
      127
282
     0
 72
     1
 77
     1
171
     1
175
     1
179
     1
273
     0
  0
XRECORD
  5
5D2
102
{ACAD_REACTORS
330
5D1
102
}
330
5D1
100
AcDbXrecord
280
     1
102
MATERIAL
148
0.0
149
0.0
149
0.0
 93
        0
 94
      127
282
     0
 72
     1
 77
     1
171
     1
175
     1
179
     1
273
     0
  0
XRECORD
  5
5DC
102
{ACAD_REACTORS
330
5DB
102
}
330
5DB
100
AcDbXrecord
280
     1
102
RTVSPropertyOp0
 70
     1
102
RTVSPropertyOp1
 70
     1
102
RTVSPropertyOp2
 70
     1
102
RTVSPropertyOp3
 70
     1
102
RTVSPropertyOp4
 70
     1
102
RTVSPropertyOp5
 70
     1
102
RTVSPropertyOp6
 70
     1
102
RTVSPropertyOp7
 70
     1
102
RTVSPropertyOp8
 70
     1
102
RTVSPropertyOp9
 70
     1
102
RTVSPropertyOp10
 70
     1
102
RTVSPropertyOp11
 70
     1
102
RTVSPropertyOp12
 70
     1
102
RTVSPropertyOp13
 70
     1
102
RTVSPropertyOp14
 70
     1
102
RTVSPropertyOp15
 70
     1
102
RTVSPropertyOp16
 70
     1
102
RTVSPropertyOp17
 70
     1
102
RTVSPropertyOp18
 70
     1
102
RTVSPropertyOp19
 70
     1
102
RTVSPropertyOp20
 70
     1
102
RTVSPropertyOp21
 70
     1
102
RTVSPropertyOp22
 70
     1
102
RTVSPropertyOp23
 70
     1
102
RTVSPropertyOp24
 70
     1
102
RTVSPropertyOp25
 70
     1
102
RTVSPropertyOp26
 70
     1
102
RTVSPropertyOp27
 70
     1
102
RTVSPropertyOp28
 70
     1
102
RTVSPropertyOp29
 70
     1
102
RTVSPropertyOp30
 70
     1
102
RTVSPropertyOp31
 70
     1
102
RTVSPropertyOp32
 70
     1
  0
XRECORD
  5
5E0
102
{ACAD_REACTORS
330
5DF
102
}
330
5DF
100
AcDbXrecord
280
     1
102
RTVSPropertyOp0
 70
     1
102
RTVSPropertyOp1
 70
     1
102
RTVSPropertyOp2
 70
     1
102
RTVSPropertyOp3
 70
     1
102
RTVSPropertyOp4
 70
     1
102
RTVSPropertyOp5
 70
     1
102
RTVSPropertyOp6
 70
     1
102
RTVSPropertyOp7
 70
     1
102
RTVSPropertyOp8
 70
     1
102
RTVSPropertyOp9
 70
     1
102
RTVSPropertyOp10
 70
     1
102
RTVSPropertyOp11
 70
     1
102
RTVSPropertyOp12
 70
     1
102
RTVSPropertyOp13
 70
     1
102
RTVSPropertyOp14
 70
     1
102
RTVSPropertyOp15
 70
     1
102
RTVSPropertyOp16
 70
     1
102
RTVSPropertyOp17
 70
     1
102
RTVSPropertyOp18
 70
     1
102
RTVSPropertyOp19
 70
     1
102
RTVSPropertyOp20
 70
     1
102
RTVSPropertyOp21
 70
     1
102
RTVSPropertyOp22
 70
     1
102
RTVSPropertyOp23
 70
     1
102
RTVSPropertyOp24
 70
     1
102
RTVSPropertyOp25
 70
     1
102
RTVSPropertyOp26
 70
     1
102
RTVSPropertyOp27
 70
     1
102
RTVSPropertyOp28
 70
     1
102
RTVSPropertyOp29
 70
     1
102
RTVSPropertyOp30
 70
     1
102
RTVSPropertyOp31
 70
     1
102
RTVSPropertyOp32
 70
     1
  0
XRECORD
  5
5DE
102
{ACAD_REACTORS
330
5DD
102
}
330
5DD
100
AcDbXrecord
280
     1
102
RTVSPropertyOp0
 70
     1
102
RTVSPropertyOp1
 70
     1
102
RTVSPropertyOp2
 70
     1
102
RTVSPropertyOp3
 70
     1
102
RTVSPropertyOp4
 70
     1
102
RTVSPropertyOp5
 70
     1
102
RTVSPropertyOp6
 70
     1
102
RTVSPropertyOp7
 70
     1
102
RTVSPropertyOp8
 70
     1
102
RTVSPropertyOp9
 70
     1
102
RTVSPropertyOp10
 70
     1
102
RTVSPropertyOp11
 70
     1
102
RTVSPropertyOp12
 70
     1
102
RTVSPropertyOp13
 70
     1
102
RTVSPropertyOp14
 70
     1
102
RTVSPropertyOp15
 70
     1
102
RTVSPropertyOp16
 70
     1
102
RTVSPropertyOp17
 70
     1
102
RTVSPropertyOp18
 70
     1
102
RTVSPropertyOp19
 70
     1
102
RTVSPropertyOp20
 70
     1
102
RTVSPropertyOp21
 70
     1
102
RTVSPropertyOp22
 70
     1
102
RTVSPropertyOp23
 70
     1
102
RTVSPropertyOp24
 70
     1
102
RTVSPropertyOp25
 70
     1
102
RTVSPropertyOp26
 70
     1
102
RTVSPropertyOp27
 70
     1
102
RTVSPropertyOp28
 70
     1
102
RTVSPropertyOp29
 70
     1
102
RTVSPropertyOp30
 70
     1
102
RTVSPropertyOp31
 70
     1
102
RTVSPropertyOp32
 70
     1
  0
XRECORD
  5
5E2
102
{ACAD_REACTORS
330
5E1
102
}
330
5E1
100
AcDbXrecord
280
     1
102
RTVSPropertyOp0
 70
     1
102
RTVSPropertyOp1
 70
     1
102
RTVSPropertyOp2
 70
     1
102
RTVSPropertyOp3
 70
     1
102
RTVSPropertyOp4
 70
     1
102
RTVSPropertyOp5
 70
     1
102
RTVSPropertyOp6
 70
     1
102
RTVSPropertyOp7
 70
     1
102
RTVSPropertyOp8
 70
     1
102
RTVSPropertyOp9
 70
     1
102
RTVSPropertyOp10
 70
     1
102
RTVSPropertyOp11
 70
     1
102
RTVSPropertyOp12
 70
     1
102
RTVSPropertyOp13
 70
     1
102
RTVSPropertyOp14
 70
     1
102
RTVSPropertyOp15
 70
     1
102
RTVSPropertyOp16
 70
     1
102
RTVSPropertyOp17
 70
     1
102
RTVSPropertyOp18
 70
     1
102
RTVSPropertyOp19
 70
     1
102
RTVSPropertyOp20
 70
     1
102
RTVSPropertyOp21
 70
     1
102
RTVSPropertyOp22
 70
     1
102
RTVSPropertyOp23
 70
     1
102
RTVSPropertyOp24
 70
     1
102
RTVSPropertyOp25
 70
     1
102
RTVSPropertyOp26
 70
     1
102
RTVSPropertyOp27
 70
     1
102
RTVSPropertyOp28
 70
     1
102
RTVSPropertyOp29
 70
     1
102
RTVSPropertyOp30
 70
     1
102
RTVSPropertyOp31
 70
     1
102
RTVSPropertyOp32
 70
     1
  0
XRECORD
  5
5EA
102
{ACAD_REACTORS
330
5E9
102
}
330
5E9
100
AcDbXrecord
280
     1
102
RTVSPropertyOp0
 70
     1
102
RTVSPropertyOp1
 70
     1
102
RTVSPropertyOp2
 70
     1
102
RTVSPropertyOp3
 70
     1
102
RTVSPropertyOp4
 70
     1
102
RTVSPropertyOp5
 70
     1
102
RTVSPropertyOp6
 70
     1
102
RTVSPropertyOp7
 70
     1
102
RTVSPropertyOp8
 70
     1
102
RTVSPropertyOp9
 70
     1
102
RTVSPropertyOp10
 70
     1
102
RTVSPropertyOp11
 70
     1
102
RTVSPropertyOp12
 70
     1
102
RTVSPropertyOp13
 70
     1
102
RTVSPropertyOp14
 70
     1
102
RTVSPropertyOp15
 70
     1
102
RTVSPropertyOp16
 70
     1
102
RTVSPropertyOp17
 70
     1
102
RTVSPropertyOp18
 70
     1
102
RTVSPropertyOp19
 70
     1
102
RTVSPropertyOp20
 70
     1
102
RTVSPropertyOp21
 70
     1
102
RTVSPropertyOp22
 70
     1
102
RTVSPropertyOp23
 70
     1
102
RTVSPropertyOp24
 70
     1
102
RTVSPropertyOp25
 70
     1
102
RTVSPropertyOp26
 70
     1
102
RTVSPropertyOp27
 70
     1
102
RTVSPropertyOp28
 70
     1
102
RTVSPropertyOp29
 70
     1
102
RTVSPropertyOp30
 70
     1
102
RTVSPropertyOp31
 70
     1
102
RTVSPropertyOp32
 70
     1
  0
XRECORD
  5
5F2
102
{ACAD_REACTORS
330
5F1
102
}
330
5F1
100
AcDbXrecord
280
     1
102
RTVSPropertyOp0
 70
     1
102
RTVSPropertyOp1
 70
     1
102
RTVSPropertyOp2
 70
     1
102
RTVSPropertyOp3
 70
     1
102
RTVSPropertyOp4
 70
     1
102
RTVSPropertyOp5
 70
     1
102
RTVSPropertyOp6
 70
     1
102
RTVSPropertyOp7
 70
     1
102
RTVSPropertyOp8
 70
     1
102
RTVSPropertyOp9
 70
     1
102
RTVSPropertyOp10
 70
     1
102
RTVSPropertyOp11
 70
     1
102
RTVSPropertyOp12
 70
     1
102
RTVSPropertyOp13
 70
     1
102
RTVSPropertyOp14
 70
     1
102
RTVSPropertyOp15
 70
     1
102
RTVSPropertyOp16
 70
     1
102
RTVSPropertyOp17
 70
     1
102
RTVSPropertyOp18
 70
     1
102
RTVSPropertyOp19
 70
     1
102
RTVSPropertyOp20
 70
     1
102
RTVSPropertyOp21
 70
     1
102
RTVSPropertyOp22
 70
     1
102
RTVSPropertyOp23
 70
     1
102
RTVSPropertyOp24
 70
     1
102
RTVSPropertyOp25
 70
     1
102
RTVSPropertyOp26
 70
     1
102
RTVSPropertyOp27
 70
     1
102
RTVSPropertyOp28
 70
     1
102
RTVSPropertyOp29
 70
     1
102
RTVSPropertyOp30
 70
     1
102
RTVSPropertyOp31
 70
     1
102
RTVSPropertyOp32
 70
     1
  0
XRECORD
  5
5E6
102
{ACAD_REACTORS
330
5E5
102
}
330
5E5
100
AcDbXrecord
280
     1
102
RTVSPropertyOp0
 70
     1
102
RTVSPropertyOp1
 70
     1
102
RTVSPropertyOp2
 70
     1
102
RTVSPropertyOp3
 70
     1
102
RTVSPropertyOp4
 70
     1
102
RTVSPropertyOp5
 70
     1
102
RTVSPropertyOp6
 70
     1
102
RTVSPropertyOp7
 70
     1
102
RTVSPropertyOp8
 70
     1
102
RTVSPropertyOp9
 70
     1
102
RTVSPropertyOp10
 70
     1
102
RTVSPropertyOp11
 70
     1
102
RTVSPropertyOp12
 70
     1
102
RTVSPropertyOp13
 70
     1
102
RTVSPropertyOp14
 70
     1
102
RTVSPropertyOp15
 70
     1
102
RTVSPropertyOp16
 70
     1
102
RTVSPropertyOp17
 70
     1
102
RTVSPropertyOp18
 70
     1
102
RTVSPropertyOp19
 70
     1
102
RTVSPropertyOp20
 70
     1
102
RTVSPropertyOp21
 70
     1
102
RTVSPropertyOp22
 70
     1
102
RTVSPropertyOp23
 70
     1
102
RTVSPropertyOp24
 70
     1
102
RTVSPropertyOp25
 70
     1
102
RTVSPropertyOp26
 70
     1
102
RTVSPropertyOp27
 70
     1
102
RTVSPropertyOp28
 70
     1
102
RTVSPropertyOp29
 70
     1
102
RTVSPropertyOp30
 70
     1
102
RTVSPropertyOp31
 70
     1
102
RTVSPropertyOp32
 70
     1
  0
XRECORD
  5
5E8
102
{ACAD_REACTORS
330
5E7
102
}
330
5E7
100
AcDbXrecord
280
     1
102
RTVSPropertyOp0
 70
     1
102
RTVSPropertyOp1
 70
     1
102
RTVSPropertyOp2
 70
     1
102
RTVSPropertyOp3
 70
     1
102
RTVSPropertyOp4
 70
     1
102
RTVSPropertyOp5
 70
     1
102
RTVSPropertyOp6
 70
     1
102
RTVSPropertyOp7
 70
     1
102
RTVSPropertyOp8
 70
     1
102
RTVSPropertyOp9
 70
     1
102
RTVSPropertyOp10
 70
     1
102
RTVSPropertyOp11
 70
     1
102
RTVSPropertyOp12
 70
     1
102
RTVSPropertyOp13
 70
     1
102
RTVSPropertyOp14
 70
     1
102
RTVSPropertyOp15
 70
     1
102
RTVSPropertyOp16
 70
     1
102
RTVSPropertyOp17
 70
     1
102
RTVSPropertyOp18
 70
     1
102
RTVSPropertyOp19
 70
     1
102
RTVSPropertyOp20
 70
     1
102
RTVSPropertyOp21
 70
     1
102
RTVSPropertyOp22
 70
     1
102
RTVSPropertyOp23
 70
     1
102
RTVSPropertyOp24
 70
     1
102
RTVSPropertyOp25
 70
     1
102
RTVSPropertyOp26
 70
     1
102
RTVSPropertyOp27
 70
     1
102
RTVSPropertyOp28
 70
     1
102
RTVSPropertyOp29
 70
     1
102
RTVSPropertyOp30
 70
     1
102
RTVSPropertyOp31
 70
     1
102
RTVSPropertyOp32
 70
     1
  0
XRECORD
  5
5F0
102
{ACAD_REACTORS
330
5EF
102
}
330
5EF
100
AcDbXrecord
280
     1
102
RTVSPropertyOp0
 70
     1
102
RTVSPropertyOp1
 70
     1
102
RTVSPropertyOp2
 70
     1
102
RTVSPropertyOp3
 70
     1
102
RTVSPropertyOp4
 70
     1
102
RTVSPropertyOp5
 70
     1
102
RTVSPropertyOp6
 70
     1
102
RTVSPropertyOp7
 70
     1
102
RTVSPropertyOp8
 70
     1
102
RTVSPropertyOp9
 70
     1
102
RTVSPropertyOp10
 70
     1
102
RTVSPropertyOp11
 70
     1
102
RTVSPropertyOp12
 70
     1
102
RTVSPropertyOp13
 70
     1
102
RTVSPropertyOp14
 70
     1
102
RTVSPropertyOp15
 70
     1
102
RTVSPropertyOp16
 70
     1
102
RTVSPropertyOp17
 70
     1
102
RTVSPropertyOp18
 70
     1
102
RTVSPropertyOp19
 70
     1
102
RTVSPropertyOp20
 70
     1
102
RTVSPropertyOp21
 70
     1
102
RTVSPropertyOp22
 70
     1
102
RTVSPropertyOp23
 70
     1
102
RTVSPropertyOp24
 70
     1
102
RTVSPropertyOp25
 70
     1
102
RTVSPropertyOp26
 70
     1
102
RTVSPropertyOp27
 70
     1
102
RTVSPropertyOp28
 70
     1
102
RTVSPropertyOp29
 70
     1
102
RTVSPropertyOp30
 70
     1
102
RTVSPropertyOp31
 70
     1
102
RTVSPropertyOp32
 70
     1
  0
XRECORD
  5
5D4
102
{ACAD_REACTORS
330
5D3
102
}
330
5D3
100
AcDbXrecord
280
     1
102
RTVSPropertyOp0
 70
     1
102
RTVSPropertyOp1
 70
     1
102
RTVSPropertyOp2
 70
     1
102
RTVSPropertyOp3
 70
     1
102
RTVSPropertyOp4
 70
     1
102
RTVSPropertyOp5
 70
     1
102
RTVSPropertyOp6
 70
     1
102
RTVSPropertyOp7
 70
     1
102
RTVSPropertyOp8
 70
     1
102
RTVSPropertyOp9
 70
     1
102
RTVSPropertyOp10
 70
     1
102
RTVSPropertyOp11
 70
     1
102
RTVSPropertyOp12
 70
     1
102
RTVSPropertyOp13
 70
     1
102
RTVSPropertyOp14
 70
     1
102
RTVSPropertyOp15
 70
     1
102
RTVSPropertyOp16
 70
     1
102
RTVSPropertyOp17
 70
     1
102
RTVSPropertyOp18
 70
     1
102
RTVSPropertyOp19
 70
     1
102
RTVSPropertyOp20
 70
     1
102
RTVSPropertyOp21
 70
     1
102
RTVSPropertyOp22
 70
     1
102
RTVSPropertyOp23
 70
     1
102
RTVSPropertyOp24
 70
     1
102
RTVSPropertyOp25
 70
     1
102
RTVSPropertyOp26
 70
     1
102
RTVSPropertyOp27
 70
     1
102
RTVSPropertyOp28
 70
     1
102
RTVSPropertyOp29
 70
     1
102
RTVSPropertyOp30
 70
     1
102
RTVSPropertyOp31
 70
     1
102
RTVSPropertyOp32
 70
     1
  0
XRECORD
  5
5D6
102
{ACAD_REACTORS
330
5D5
102
}
330
5D5
100
AcDbXrecord
280
     1
102
RTVSPropertyOp0
 70
     1
102
RTVSPropertyOp1
 70
     1
102
RTVSPropertyOp2
 70
     1
102
RTVSPropertyOp3
 70
     1
102
RTVSPropertyOp4
 70
     1
102
RTVSPropertyOp5
 70
     1
102
RTVSPropertyOp6
 70
     1
102
RTVSPropertyOp7
 70
     1
102
RTVSPropertyOp8
 70
     1
102
RTVSPropertyOp9
 70
     1
102
RTVSPropertyOp10
 70
     1
102
RTVSPropertyOp11
 70
     1
102
RTVSPropertyOp12
 70
     1
102
RTVSPropertyOp13
 70
     1
102
RTVSPropertyOp14
 70
     1
102
RTVSPropertyOp15
 70
     1
102
RTVSPropertyOp16
 70
     1
102
RTVSPropertyOp17
 70
     1
102
RTVSPropertyOp18
 70
     1
102
RTVSPropertyOp19
 70
     1
102
RTVSPropertyOp20
 70
     1
102
RTVSPropertyOp21
 70
     1
102
RTVSPropertyOp22
 70
     1
102
RTVSPropertyOp23
 70
     1
102
RTVSPropertyOp24
 70
     1
102
RTVSPropertyOp25
 70
     1
102
RTVSPropertyOp26
 70
     1
102
RTVSPropertyOp27
 70
     1
102
RTVSPropertyOp28
 70
     1
102
RTVSPropertyOp29
 70
     1
102
RTVSPropertyOp30
 70
     1
102
RTVSPropertyOp31
 70
     1
102
RTVSPropertyOp32
 70
     1
  0
XRECORD
  5
5D8
102
{ACAD_REACTORS
330
5D7
102
}
330
5D7
100
AcDbXrecord
280
     1
102
RTVSPropertyOp0
 70
     1
102
RTVSPropertyOp1
 70
     1
102
RTVSPropertyOp2
 70
     1
102
RTVSPropertyOp3
 70
     1
102
RTVSPropertyOp4
 70
     1
102
RTVSPropertyOp5
 70
     1
102
RTVSPropertyOp6
 70
     1
102
RTVSPropertyOp7
 70
     1
102
RTVSPropertyOp8
 70
     1
102
RTVSPropertyOp9
 70
     1
102
RTVSPropertyOp10
 70
     1
102
RTVSPropertyOp11
 70
     1
102
RTVSPropertyOp12
 70
     1
102
RTVSPropertyOp13
 70
     1
102
RTVSPropertyOp14
 70
     1
102
RTVSPropertyOp15
 70
     1
102
RTVSPropertyOp16
 70
     1
102
RTVSPropertyOp17
 70
     1
102
RTVSPropertyOp18
 70
     1
102
RTVSPropertyOp19
 70
     1
102
RTVSPropertyOp20
 70
     1
102
RTVSPropertyOp21
 70
     1
102
RTVSPropertyOp22
 70
     1
102
RTVSPropertyOp23
 70
     1
102
RTVSPropertyOp24
 70
     1
102
RTVSPropertyOp25
 70
     1
102
RTVSPropertyOp26
 70
     1
102
RTVSPropertyOp27
 70
     1
102
RTVSPropertyOp28
 70
     1
102
RTVSPropertyOp29
 70
     1
102
RTVSPropertyOp30
 70
     1
102
RTVSPropertyOp31
 70
     1
102
RTVSPropertyOp32
 70
     1
  0
XRECORD
  5
5DA
102
{ACAD_REACTORS
330
5D9
102
}
330
5D9
100
AcDbXrecord
280
     1
102
RTVSPropertyOp0
 70
     1
102
RTVSPropertyOp1
 70
     1
102
RTVSPropertyOp2
 70
     1
102
RTVSPropertyOp3
 70
     1
102
RTVSPropertyOp4
 70
     1
102
RTVSPropertyOp5
 70
     1
102
RTVSPropertyOp6
 70
     1
102
RTVSPropertyOp7
 70
     1
102
RTVSPropertyOp8
 70
     1
102
RTVSPropertyOp9
 70
     1
102
RTVSPropertyOp10
 70
     1
102
RTVSPropertyOp11
 70
     1
102
RTVSPropertyOp12
 70
     1
102
RTVSPropertyOp13
 70
     1
102
RTVSPropertyOp14
 70
     1
102
RTVSPropertyOp15
 70
     1
102
RTVSPropertyOp16
 70
     1
102
RTVSPropertyOp17
 70
     1
102
RTVSPropertyOp18
 70
     1
102
RTVSPropertyOp19
 70
     1
102
RTVSPropertyOp20
 70
     1
102
RTVSPropertyOp21
 70
     1
102
RTVSPropertyOp22
 70
     1
102
RTVSPropertyOp23
 70
     1
102
RTVSPropertyOp24
 70
     1
102
RTVSPropertyOp25
 70
     1
102
RTVSPropertyOp26
 70
     1
102
RTVSPropertyOp27
 70
     1
102
RTVSPropertyOp28
 70
     1
102
RTVSPropertyOp29
 70
     1
102
RTVSPropertyOp30
 70
     1
102
RTVSPropertyOp31
 70
     1
102
RTVSPropertyOp32
 70
     1
  0
XRECORD
  5
5EE
102
{ACAD_REACTORS
330
5ED
102
}
330
5ED
100
AcDbXrecord
280
     1
102
RTVSPropertyOp0
 70
     1
102
RTVSPropertyOp1
 70
     1
102
RTVSPropertyOp2
 70
     1
102
RTVSPropertyOp3
 70
     1
102
RTVSPropertyOp4
 70
     1
102
RTVSPropertyOp5
 70
     1
102
RTVSPropertyOp6
 70
     1
102
RTVSPropertyOp7
 70
     1
102
RTVSPropertyOp8
 70
     1
102
RTVSPropertyOp9
 70
     1
102
RTVSPropertyOp10
 70
     1
102
RTVSPropertyOp11
 70
     1
102
RTVSPropertyOp12
 70
     1
102
RTVSPropertyOp13
 70
     1
102
RTVSPropertyOp14
 70
     1
102
RTVSPropertyOp15
 70
     1
102
RTVSPropertyOp16
 70
     1
102
RTVSPropertyOp17
 70
     1
102
RTVSPropertyOp18
 70
     1
102
RTVSPropertyOp19
 70
     1
102
RTVSPropertyOp20
 70
     1
102
RTVSPropertyOp21
 70
     1
102
RTVSPropertyOp22
 70
     1
102
RTVSPropertyOp23
 70
     1
102
RTVSPropertyOp24
 70
     1
102
RTVSPropertyOp25
 70
     1
102
RTVSPropertyOp26
 70
     1
102
RTVSPropertyOp27
 70
     1
102
RTVSPropertyOp28
 70
     1
102
RTVSPropertyOp29
 70
     1
102
RTVSPropertyOp30
 70
     1
102
RTVSPropertyOp31
 70
     1
102
RTVSPropertyOp32
 70
     1
  0
XRECORD
  5
5E4
102
{ACAD_REACTORS
330
5E3
102
}
330
5E3
100
AcDbXrecord
280
     1
102
RTVSPropertyOp0
 70
     1
102
RTVSPropertyOp1
 70
     1
102
RTVSPropertyOp2
 70
     1
102
RTVSPropertyOp3
 70
     1
102
RTVSPropertyOp4
 70
     1
102
RTVSPropertyOp5
 70
     1
102
RTVSPropertyOp6
 70
     1
102
RTVSPropertyOp7
 70
     1
102
RTVSPropertyOp8
 70
     1
102
RTVSPropertyOp9
 70
     1
102
RTVSPropertyOp10
 70
     1
102
RTVSPropertyOp11
 70
     1
102
RTVSPropertyOp12
 70
     1
102
RTVSPropertyOp13
 70
     1
102
RTVSPropertyOp14
 70
     1
102
RTVSPropertyOp15
 70
     1
102
RTVSPropertyOp16
 70
     1
102
RTVSPropertyOp17
 70
     1
102
RTVSPropertyOp18
 70
     1
102
RTVSPropertyOp19
 70
     1
102
RTVSPropertyOp20
 70
     1
102
RTVSPropertyOp21
 70
     1
102
RTVSPropertyOp22
 70
     1
102
RTVSPropertyOp23
 70
     1
102
RTVSPropertyOp24
 70
     1
102
RTVSPropertyOp25
 70
     1
102
RTVSPropertyOp26
 70
     1
102
RTVSPropertyOp27
 70
     1
102
RTVSPropertyOp28
 70
     1
102
RTVSPropertyOp29
 70
     1
102
RTVSPropertyOp30
 70
     1
102
RTVSPropertyOp31
 70
     1
102
RTVSPropertyOp32
 70
     1
  0
XRECORD
  5
5EC
102
{ACAD_REACTORS
330
5EB
102
}
330
5EB
100
AcDbXrecord
280
     1
102
RTVSPropertyOp0
 70
     1
102
RTVSPropertyOp1
 70
     1
102
RTVSPropertyOp2
 70
     1
102
RTVSPropertyOp3
 70
     1
102
RTVSPropertyOp4
 70
     1
102
RTVSPropertyOp5
 70
     1
102
RTVSPropertyOp6
 70
     1
102
RTVSPropertyOp7
 70
     1
102
RTVSPropertyOp8
 70
     1
102
RTVSPropertyOp9
 70
     1
102
RTVSPropertyOp10
 70
     1
102
RTVSPropertyOp11
 70
     1
102
RTVSPropertyOp12
 70
     1
102
RTVSPropertyOp13
 70
     1
102
RTVSPropertyOp14
 70
     1
102
RTVSPropertyOp15
 70
     1
102
RTVSPropertyOp16
 70
     1
102
RTVSPropertyOp17
 70
     1
102
RTVSPropertyOp18
 70
     1
102
RTVSPropertyOp19
 70
     1
102
RTVSPropertyOp20
 70
     1
102
RTVSPropertyOp21
 70
     1
102
RTVSPropertyOp22
 70
     1
102
RTVSPropertyOp23
 70
     1
102
RTVSPropertyOp24
 70
     1
102
RTVSPropertyOp25
 70
     1
102
RTVSPropertyOp26
 70
     1
102
RTVSPropertyOp27
 70
     1
102
RTVSPropertyOp28
 70
     1
102
RTVSPropertyOp29
 70
     1
102
RTVSPropertyOp30
 70
     1
102
RTVSPropertyOp31
 70
     1
102
RTVSPropertyOp32
 70
     1
  0
ENDSEC
  0
EOF
