0
SECTION
2
HEADER
9
$ACADVER
1
AC1015
9
$DWGCODEPAGE
3
ANSI_1252
9
$HANDSEED
5
184
9
$ANGBASE
50
0
9
$ANGDIR
70
0
9
$ATTMODE
70
1
9
$AUNITS
70
0
9
$AUPREC
70
0
9
$CECOLOR
62
256
9
$CELTSCALE
40
1
9
$CELTYPE
6
ByLayer
9
$CELWEIGHT
370
-1
9
$CLAYER
8
0
9
$CMLJUST
70
0
9
$CMLSCALE
40
1
9
$CMLSTYLE
2
Standard
9
$DIMSTYLE
2
Standard
9
$TEXTSIZE
40
0.2
9
$TEXTSTYLE
7
Standard
9
$LUNITS
70
2
9
$LUPREC
70
4
9
$EXTNAMES
290
1
9
$INSUNITS
70
4
9
$LTSCALE
40
1
9
$LWDISPLAY
290
0
9
$PDMODE
70
0
9
$PDSIZE
40
0
9
$PLINEGEN
70
0
0
ENDSEC
0
SECTION
2
CLASSES
0
CLASS
1
RASTERVARIABLES
2
AcDbRasterVariables
3
ISM
90
0
280
0
281
0
0
ENDSEC
0
SECTION
2
TABLES
0
TABLE
2
VPORT
5
17a
100
AcDbSymbolTable
0
VPORT
5
1
100
AcDbSymbolTableRecord
100
AcDbViewportTableRecord
2
*Active
70
0
10
0
20
0
11
1
21
1
12
-1
22
1
13
0
23
0
14
0.5
24
0.5
15
10
25
10
16
0
26
0
36
1
17
0
27
0
37
0
0
ENDTAB
0
TABLE
2
LTYPE
5
17b
100
AcDbSymbolTable
0
LTYPE
5
14
100
AcDbSymbolTableRecord
100
AcDbLinetypeTableRecord
70
0
2
ByBlock
3

72
65
73
0
40
0
0
LTYPE
5
15
100
AcDbSymbolTableRecord
100
AcDbLinetypeTableRecord
70
0
2
ByLayer
3

72
65
73
0
40
0
0
LTYPE
5
16
100
AcDbSymbolTableRecord
100
AcDbLinetypeTableRecord
70
0
2
CONTINUOUS
3
Solid line
72
65
73
0
40
0
0
LTYPE
5
3B
100
AcDbSymbolTableRecord
100
AcDbLinetypeTableRecord
70
0
2
DASHED
3
__ __ __ __ __ __ __ __ __
72
65
73
2
40
25.72
49
12.86
74
0
49
-12.86
74
0
0
LTYPE
5
3C
100
AcDbSymbolTableRecord
100
AcDbLinetypeTableRecord
70
0
2
HIDDEN
3
_ _ _ _ _ _ _ _ _ _ _ _ _ _ _
72
65
73
2
40
0.5
49
0.25
74
0
49
-0.25
74
0
0
LTYPE
5
3D
100
AcDbSymbolTableRecord
100
AcDbLinetypeTableRecord
70
0
2
PHANTOM
3
____ _ _ ____ _ _ _____ _ _ ____
72
65
73
6
40
50.5
49
18
74
0
49
-6.5
74
0
49
6.5
74
0
49
-6.5
74
0
49
6.5
74
0
49
-6.5
74
0
0
LTYPE
5
3E
100
AcDbSymbolTableRecord
100
AcDbLinetypeTableRecord
70
0
2
CENTER
3
____ _ ____ _ ____ _ ____
72
65
73
4
40
47.5
49
22
74
0
49
-8.5
74
0
49
8.5
74
0
49
-8.5
74
0
0
LTYPE
5
3F
100
AcDbSymbolTableRecord
100
AcDbLinetypeTableRecord
70
0
2
DOT
3
.........................
72
65
73
2
40
10
49
0
74
0
49
-10
74
0
0
LTYPE
5
40
100
AcDbSymbolTableRecord
100
AcDbLinetypeTableRecord
70
0
2
DASHDOT
3
_._._._._._._._._._._._._._._._.
72
65
73
4
40
70
49
31
74
0
49
-13
74
0
49
13
74
0
49
-13
74
0
0
ENDTAB
0
TABLE
2
LAYER
5
17c
100
AcDbSymbolTable
0
LAYER
5
10
100
AcDbSymbolTableRecord
100
AcDbLayerTableRecord
2
0
70
0
62
7
6
CONTINUOUS
290
1
370
-3
390
0
0
LAYER
5
42
100
AcDbSymbolTableRecord
100
AcDbLayerTableRecord
2
80
70
0
62
-6
6
CONTINUOUS
290
1
370
-3
390
0
0
LAYER
5
44
100
AcDbSymbolTableRecord
100
AcDbLayerTableRecord
2
81
70
0
62
-3
6
CONTINUOUS
290
1
370
-3
390
0
0
LAYER
5
46
100
AcDbSymbolTableRecord
100
AcDbLayerTableRecord
2
1
70
0
62
4
6
CONTINUOUS
290
1
370
-3
390
0
0
LAYER
5
48
100
AcDbSymbolTableRecord
100
AcDbLayerTableRecord
2
2
70
0
62
7
6
CONTINUOUS
290
1
370
-3
390
0
0
LAYER
5
5D
100
AcDbSymbolTableRecord
100
AcDbLayerTableRecord
2
4
70
0
62
-2
6
CENTER
290
1
370
-3
390
0
0
LAYER
5
166
100
AcDbSymbolTableRecord
100
AcDbLayerTableRecord
2
SK1
70
0
62
4
6
CONTINUOUS
290
1
370
-3
390
0
0
LAYER
5
167
100
AcDbSymbolTableRecord
100
AcDbLayerTableRecord
2
SK4
70
0
62
2
6
CENTER
290
1
370
-3
390
0
0
LAYER
5
168
100
AcDbSymbolTableRecord
100
AcDbLayerTableRecord
2
SK6
70
0
62
5
6
CONTINUOUS
290
1
370
-3
390
0
0
LAYER
5
169
100
AcDbSymbolTableRecord
100
AcDbLayerTableRecord
2
SK2
70
0
62
7
6
CONTINUOUS
290
1
370
-3
390
0
0
ENDTAB
0
TABLE
2
STYLE
5
17d
100
AcDbSymbolTable
0
STYLE
5
11
100
AcDbSymbolTableRecord
100
AcDbTextStyleTableRecord
2
Standard
3
txt
70
0
71
0
40
0
41
1
42
0
50
0
0
STYLE
5
E2
100
AcDbSymbolTableRecord
100
AcDbTextStyleTableRecord
2
DEFAULT
3
simplex.shx
70
0
71
0
40
0
41
1
42
0
50
0
0
STYLE
5
105
100
AcDbSymbolTableRecord
100
AcDbTextStyleTableRecord
2
DWGDirectTextStyle
3
SIMPLEX
70
0
71
0
40
0
41
1
42
0
50
0
0
ENDTAB
0
TABLE
2
DIMSTYLE
5
17e
100
AcDbSymbolTable
100
AcDbDimStyleTable
0
DIMSTYLE
105
27
100
AcDbSymbolTableRecord
100
AcDbDimStyleTableRecord
2
Standard
70
0
3
<>
41
0.18
42
0.0625
44
0.18
140
0.18
147
0.09
73
0
74
0
77
1
271
2
275
0
278
52
280
0
340
11
0
ENDTAB
0
TABLE
2
VIEW
5
17f
100
AcDbSymbolTable
0
ENDTAB
0
TABLE
2
UCS
5
180
100
AcDbSymbolTable
0
ENDTAB
0
TABLE
2
APPID
5
181
100
AcDbSymbolTable
0
APPID
5
12
100
AcDbSymbolTableRecord
100
AcDbRegAppTableRecord
2
ACAD
70
0
0
ENDTAB
0
TABLE
2
BLOCK_RECORD
5
182
100
AcDbSymbolTable
0
BLOCK_RECORD
5
1F
100
AcDbSymbolTableRecord
100
AcDbBlockTableRecord
2
*Model_Space
340
0
70
0
0
BLOCK_RECORD
5
1B
100
AcDbSymbolTableRecord
100
AcDbBlockTableRecord
2
*Paper_Space
340
0
70
0
0
BLOCK_RECORD
5
23
100
AcDbSymbolTableRecord
100
AcDbBlockTableRecord
2
*Paper_Space0
340
0
70
0
0
BLOCK_RECORD
5
107
100
AcDbSymbolTableRecord
100
AcDbBlockTableRecord
2
DimnDraft3D1
340
0
70
0
0
BLOCK_RECORD
5
115
100
AcDbSymbolTableRecord
100
AcDbBlockTableRecord
2
_CLOSED
340
0
70
0
0
BLOCK_RECORD
5
11C
100
AcDbSymbolTableRecord
100
AcDbBlockTableRecord
2
DimnDraft3D2
340
0
70
0
0
BLOCK_RECORD
5
12B
100
AcDbSymbolTableRecord
100
AcDbBlockTableRecord
2
DimnDraft3D3
340
0
70
0
0
BLOCK_RECORD
5
139
100
AcDbSymbolTableRecord
100
AcDbBlockTableRecord
2
DimnDraft3D4
340
0
70
0
0
ENDTAB
0
ENDSEC
0
SECTION
2
BLOCKS
0
BLOCK
5
20
100
AcDbEntity
8
0
100
AcDbBlockBegin
2
*Model_Space
70
0
10
0
20
0
30
0
3
*Model_Space
0
ENDBLK
5
21
100
AcDbEntity
8
0
100
AcDbBlockEnd
0
BLOCK
5
1C
100
AcDbEntity
8
0
100
AcDbBlockBegin
2
*Paper_Space
70
0
10
0
20
0
30
0
3
*Paper_Space
0
ENDBLK
5
1D
100
AcDbEntity
8
0
100
AcDbBlockEnd
0
BLOCK
5
24
100
AcDbEntity
8
0
100
AcDbBlockBegin
2
*Paper_Space0
70
0
10
0
20
0
30
0
3
*Paper_Space0
0
ENDBLK
5
25
100
AcDbEntity
8
0
100
AcDbBlockEnd
0
BLOCK
5
112
100
AcDbEntity
8
0
100
AcDbBlockBegin
2
DimnDraft3D1
70
0
10
0
20
0
30
0
3
DimnDraft3D1
0
MTEXT
5
108
100
AcDbEntity
8
2
62
256
6
ByLayer
370
-1
48
1
60
0
100
AcDbMText
10
161.02
20
-11.925658
30
0
210
0
220
0
230
1
1
\W01.000;\fsimplex.shx,bigfont.shx;17.0 
40
4.5
41
0
44
1.084337
50
90
71
7
72
5
7
DEFAULT
0
LINE
5
109
100
AcDbEntity
8
2
62
256
6
ByLayer
370
-1
48
1
60
0
100
AcDbLine
10
151.895
20
-16.9
30
0
11
164.145
21
-16.9
31
0
39
0
210
0
220
0
230
1
0
LINE
5
10A
100
AcDbEntity
8
2
62
256
6
ByLayer
370
-1
48
1
60
0
100
AcDbLine
10
151.895
20
0
30
0
11
164.145
21
0
31
0
39
0
210
0
220
0
230
1
0
LINE
5
10B
100
AcDbEntity
8
2
62
256
6
ByLayer
370
-1
48
1
60
0
100
AcDbLine
10
162.145
20
-28.15
30
0
11
162.145
21
11.25
31
0
39
0
210
0
220
0
230
1
0
LINE
5
10C
100
AcDbEntity
8
2
62
256
6
ByLayer
370
-1
48
1
60
0
100
AcDbLine
10
162.145
20
-16.9
30
0
11
162.562997
21
-20.074998
31
0
39
0
210
0
220
0
230
1
0
LINE
5
10D
100
AcDbEntity
8
2
62
256
6
ByLayer
370
-1
48
1
60
0
100
AcDbLine
10
162.145
20
-16.9
30
0
11
161.727003
21
-20.075002
31
0
39
0
210
0
220
0
230
1
0
LINE
5
10E
100
AcDbEntity
8
2
62
256
6
ByLayer
370
-1
48
1
60
0
100
AcDbLine
10
162.562997
20
-20.074998
30
0
11
161.727003
21
-20.075002
31
0
39
0
210
0
220
0
230
1
0
LINE
5
10F
100
AcDbEntity
8
2
62
256
6
ByLayer
370
-1
48
1
60
0
100
AcDbLine
10
162.145
20
0
30
0
11
161.727003
21
3.174998
31
0
39
0
210
0
220
0
230
1
0
LINE
5
110
100
AcDbEntity
8
2
62
256
6
ByLayer
370
-1
48
1
60
0
100
AcDbLine
10
162.145
20
0
30
0
11
162.562997
21
3.175002
31
0
39
0
210
0
220
0
230
1
0
LINE
5
111
100
AcDbEntity
8
2
62
256
6
ByLayer
370
-1
48
1
60
0
100
AcDbLine
10
161.727003
20
3.174998
30
0
11
162.562997
21
3.175002
31
0
39
0
210
0
220
0
230
1
0
ENDBLK
5
113
100
AcDbEntity
8
0
100
AcDbBlockEnd
0
BLOCK
5
116
100
AcDbEntity
8
0
100
AcDbBlockBegin
2
_CLOSED
70
0
10
0
20
0
30
0
3
_CLOSED
0
LINE
5
118
100
AcDbEntity
8
0
62
256
6
ByLayer
370
-2
48
1
60
0
100
AcDbLine
10
-1
20
0.166667
30
0
11
0
21
0
31
0
39
0
210
0
220
0
230
1
0
LINE
5
119
100
AcDbEntity
8
0
62
256
6
ByLayer
370
-2
48
1
60
0
100
AcDbLine
10
0
20
0
30
0
11
-1
21
-0.166667
31
0
39
0
210
0
220
0
230
1
0
LINE
5
11A
100
AcDbEntity
8
0
62
256
6
ByLayer
370
-2
48
1
60
0
100
AcDbLine
10
-1
20
0.166667
30
0
11
-1
21
-0.166667
31
0
39
0
210
0
220
0
230
1
0
LINE
5
11B
100
AcDbEntity
8
0
62
256
6
ByLayer
370
-2
48
1
60
0
100
AcDbLine
10
0
20
0
30
0
11
-1
21
0
31
0
39
0
210
0
220
0
230
1
0
ENDBLK
5
117
100
AcDbEntity
8
0
100
AcDbBlockEnd
0
BLOCK
5
128
100
AcDbEntity
8
0
100
AcDbBlockBegin
2
DimnDraft3D2
70
0
10
0
20
0
30
0
3
DimnDraft3D2
0
MTEXT
5
11D
100
AcDbEntity
8
SK2
62
256
6
ByLayer
370
-1
48
1
60
0
100
AcDbMText
10
-132.23
20
-3.659211
30
0
210
0
220
0
230
1
1
\W01.000;\fsimplex.shx,bigfont.shx;%%c25 
40
4.5
41
0
44
1.084337
50
90
71
7
72
5
7
DEFAULT
0
LINE
5
11F
100
AcDbEntity
8
SK2
62
256
6
ByLayer
370
-1
48
1
60
0
100
AcDbLine
10
-123.355
20
-12.49125
30
0
11
-133.105
21
-12.49125
31
0
39
0
210
0
220
0
230
1
0
LINE
5
120
100
AcDbEntity
8
SK2
62
256
6
ByLayer
370
-1
48
1
60
0
100
AcDbLine
10
-123.355
20
12.49125
30
0
11
-133.105
21
12.49125
31
0
39
0
210
0
220
0
230
1
0
LINE
5
121
100
AcDbEntity
8
SK2
62
256
6
ByLayer
370
-1
48
1
60
0
100
AcDbLine
10
-131.105
20
-12.49125
30
0
11
-131.105
21
12.49125
31
0
39
0
210
0
220
0
230
1
0
LINE
5
122
100
AcDbEntity
8
SK2
62
256
6
ByLayer
370
-1
48
1
60
0
100
AcDbLine
10
-131.105
20
-12.49125
30
0
11
-131.522997
21
-9.316252
31
0
39
0
210
0
220
0
230
1
0
LINE
5
123
100
AcDbEntity
8
SK2
62
256
6
ByLayer
370
-1
48
1
60
0
100
AcDbLine
10
-131.105
20
-12.49125
30
0
11
-130.687003
21
-9.316248
31
0
39
0
210
0
220
0
230
1
0
LINE
5
124
100
AcDbEntity
8
SK2
62
256
6
ByLayer
370
-1
48
1
60
0
100
AcDbLine
10
-131.522997
20
-9.316252
30
0
11
-130.687003
21
-9.316248
31
0
39
0
210
0
220
0
230
1
0
LINE
5
125
100
AcDbEntity
8
SK2
62
256
6
ByLayer
370
-1
48
1
60
0
100
AcDbLine
10
-131.105
20
12.49125
30
0
11
-130.687003
21
9.316252
31
0
39
0
210
0
220
0
230
1
0
LINE
5
126
100
AcDbEntity
8
SK2
62
256
6
ByLayer
370
-1
48
1
60
0
100
AcDbLine
10
-131.105
20
12.49125
30
0
11
-131.522997
21
9.316248
31
0
39
0
210
0
220
0
230
1
0
LINE
5
127
100
AcDbEntity
8
SK2
62
256
6
ByLayer
370
-1
48
1
60
0
100
AcDbLine
10
-130.687003
20
9.316252
30
0
11
-131.522997
21
9.316248
31
0
39
0
210
0
220
0
230
1
0
ENDBLK
5
129
100
AcDbEntity
8
0
100
AcDbBlockEnd
0
BLOCK
5
136
100
AcDbEntity
8
0
100
AcDbBlockBegin
2
DimnDraft3D3
70
0
10
0
20
0
30
0
3
DimnDraft3D3
0
MTEXT
5
12C
100
AcDbEntity
8
SK2
62
256
6
ByLayer
370
-1
48
1
60
0
100
AcDbMText
10
8.579868
20
-33.025
30
0
210
0
220
0
230
1
1
\W01.000;\fsimplex.shx,bigfont.shx;270.0 
40
4.5
41
0
44
1.084337
50
0
71
7
72
5
7
DEFAULT
0
LINE
5
12D
100
AcDbEntity
8
SK2
62
256
6
ByLayer
370
-1
48
1
60
0
100
AcDbLine
10
-121.355
20
-14.49125
30
0
11
-121.355
21
-36.15
31
0
39
0
210
0
220
0
230
1
0
LINE
5
12E
100
AcDbEntity
8
SK2
62
256
6
ByLayer
370
-1
48
1
60
0
100
AcDbLine
10
149.895
20
-18.9
30
0
11
149.895
21
-36.15
31
0
39
0
210
0
220
0
230
1
0
LINE
5
12F
100
AcDbEntity
8
SK2
62
256
6
ByLayer
370
-1
48
1
60
0
100
AcDbLine
10
-121.355
20
-34.15
30
0
11
149.895
21
-34.15
31
0
39
0
210
0
220
0
230
1
0
LINE
5
130
100
AcDbEntity
8
SK2
62
256
6
ByLayer
370
-1
48
1
60
0
100
AcDbLine
10
-121.355
20
-34.15
30
0
11
-118.180002
21
-33.732003
31
0
39
0
210
0
220
0
230
1
0
LINE
5
131
100
AcDbEntity
8
SK2
62
256
6
ByLayer
370
-1
48
1
60
0
100
AcDbLine
10
-121.355
20
-34.15
30
0
11
-118.179998
21
-34.567997
31
0
39
0
210
0
220
0
230
1
0
LINE
5
132
100
AcDbEntity
8
SK2
62
256
6
ByLayer
370
-1
48
1
60
0
100
AcDbLine
10
-118.180002
20
-33.732003
30
0
11
-118.179998
21
-34.567997
31
0
39
0
210
0
220
0
230
1
0
LINE
5
133
100
AcDbEntity
8
SK2
62
256
6
ByLayer
370
-1
48
1
60
0
100
AcDbLine
10
149.895
20
-34.15
30
0
11
146.720002
21
-34.567997
31
0
39
0
210
0
220
0
230
1
0
LINE
5
134
100
AcDbEntity
8
SK2
62
256
6
ByLayer
370
-1
48
1
60
0
100
AcDbLine
10
149.895
20
-34.15
30
0
11
146.719998
21
-33.732003
31
0
39
0
210
0
220
0
230
1
0
LINE
5
135
100
AcDbEntity
8
SK2
62
256
6
ByLayer
370
-1
48
1
60
0
100
AcDbLine
10
146.720002
20
-34.567997
30
0
11
146.719998
21
-33.732003
31
0
39
0
210
0
220
0
230
1
0
ENDBLK
5
137
100
AcDbEntity
8
0
100
AcDbBlockEnd
0
BLOCK
5
144
100
AcDbEntity
8
0
100
AcDbBlockBegin
2
DimnDraft3D4
70
0
10
0
20
0
30
0
3
DimnDraft3D4
0
MTEXT
5
13A
100
AcDbEntity
8
2
62
256
6
ByLayer
370
-1
48
1
60
0
100
AcDbMText
10
173.630956
20
31.136179
30
0
210
0
220
0
230
1
1
\W01.000;\fsimplex.shx,bigfont.shx;91%%d0' 
40
4.5
41
0
44
1.084337
50
315.5
71
7
72
5
7
DEFAULT
0
LINE
5
13B
100
AcDbEntity
8
2
62
256
6
ByLayer
370
-1
48
1
60
0
100
AcDbLine
10
149.580857
20
1.097259
30
0
11
148.903198
21
39.920326
31
0
39
0
210
0
220
0
230
1
0
LINE
5
13C
100
AcDbEntity
8
2
62
256
6
ByLayer
370
-1
48
1
60
0
100
AcDbLine
10
151.895
20
0
30
0
11
189.526416
21
0
31
0
39
0
210
0
220
0
230
1
0
ARC
5
13D
100
AcDbEntity
8
2
62
256
6
ByLayer
370
-1
48
1
60
0
100
AcDbCircle
39
0
10
149.600009
20
0
30
0
40
37.9264068640929
210
0
220
0
230
1
100
AcDbArc
50
0
51
91
0
LINE
5
13E
100
AcDbEntity
8
2
62
256
6
ByLayer
370
-1
48
1
60
0
100
AcDbLine
10
148.938102
20
37.92063
30
0
11
152.114529
21
38.327629
31
0
39
0
210
0
220
0
230
1
0
LINE
5
13F
100
AcDbEntity
8
2
62
256
6
ByLayer
370
-1
48
1
60
0
100
AcDbLine
10
148.938102
20
37.92063
30
0
11
152.111637
21
37.491641
31
0
39
0
210
0
220
0
230
1
0
LINE
5
140
100
AcDbEntity
8
2
62
256
6
ByLayer
370
-1
48
1
60
0
100
AcDbLine
10
152.114529
20
38.327629
30
0
11
152.111637
21
37.491641
31
0
39
0
210
0
220
0
230
1
0
LINE
5
141
100
AcDbEntity
8
2
62
256
6
ByLayer
370
-1
48
1
60
0
100
AcDbLine
10
187.526416
20
0
30
0
11
187.042106
21
3.165562
31
0
39
0
210
0
220
0
230
1
0
LINE
5
142
100
AcDbEntity
8
2
62
256
6
ByLayer
370
-1
48
1
60
0
100
AcDbLine
10
187.526416
20
0
30
0
11
187.877916
21
3.183049
31
0
39
0
210
0
220
0
230
1
0
LINE
5
143
100
AcDbEntity
8
2
62
256
6
ByLayer
370
-1
48
1
60
0
100
AcDbLine
10
187.042106
20
3.165562
30
0
11
187.877916
21
3.183049
31
0
39
0
210
0
220
0
230
1
0
ENDBLK
5
145
100
AcDbEntity
8
0
100
AcDbBlockEnd
0
ENDSEC
0
SECTION
2
ENTITIES
0
ELLIPSE
5
94
100
AcDbEntity
8
1
62
256
6
ByLayer
370
-1
48
1
60
0
100
AcDbEllipse
10
137.649198
20
-10.352839
30
0
11
-1.49977154273459
21
-0.0261786096559222
31
0
210
0
220
0
230
1
40
0.998215
41
0.523598775598331
42
2.0943951023932
0
ELLIPSE
5
95
100
AcDbEntity
8
1
62
256
6
ByLayer
370
-1
48
1
60
0
100
AcDbEllipse
10
135.759943
20
-9.201698
30
0
11
1.49977154273459
21
0.0261786096559233
31
0
210
0
220
0
230
1
40
0.998215
41
-3.05766239653043
42
-0.777553605820884
0
ELLIPSE
5
96
100
AcDbEntity
8
1
62
256
6
ByLayer
370
-1
48
1
60
0
100
AcDbEllipse
10
137.518152
20
-10.007548
30
0
11
-1.49977154273459
21
-0.0261786096559222
31
0
210
0
220
0
230
1
40
0.998215
41
0.44743597312699
42
0.523598775598258
0
ELLIPSE
5
97
100
AcDbEntity
8
1
62
256
6
ByLayer
370
-1
48
1
60
0
100
AcDbEllipse
10
135.76062
20
-9.240516
30
0
11
-1.49977154273459
21
-0.0261786096559222
31
0
210
0
220
0
230
1
40
0.998215
41
1.83488092701648
42
2.38713854709763
0
ELLIPSE
5
98
100
AcDbEntity
8
1
62
256
6
ByLayer
370
-1
48
1
60
0
100
AcDbEllipse
10
137.646905
20
-10.221454
30
0
11
-1.49977154273459
21
-0.0261786096559222
31
0
210
0
220
0
230
1
40
0.998215
41
0.523598775598297
42
2.0943951023932
0
ELLIPSE
5
99
100
AcDbEntity
8
1
62
256
6
ByLayer
370
-1
48
1
60
0
100
AcDbEllipse
10
137.522489
20
-10.235679
30
0
11
1.64959622883089
21
0.0287938092795838
31
0
210
0
220
0
230
1
40
0.998215
41
-2.7158602391342
42
-2.61803970333122
0
ELLIPSE
5
9A
100
AcDbEntity
8
1
62
256
6
ByLayer
370
-1
48
1
60
0
100
AcDbEllipse
10
137.520446
20
-10.138934
30
0
11
-1.49977154273459
21
-0.0261786096559222
31
0
210
0
220
0
230
1
40
0.998215
41
0.447435973127002
42
0.523598775598304
0
ELLIPSE
5
9B
100
AcDbEntity
8
1
62
256
6
ByLayer
370
-1
48
1
60
0
100
AcDbEllipse
10
135.764909
20
-9.468537
30
0
11
-1.49977154273459
21
-0.0261786096559222
31
0
210
0
220
0
230
1
40
0.998215
41
-2.53186900189664
42
1.73238736940153
0
ELLIPSE
5
9C
100
AcDbEntity
8
1
62
256
6
ByLayer
370
-1
48
1
60
0
100
AcDbEllipse
10
145.363337
20
-0.014353
30
0
11
0.177505347746755
21
-16.1959803120268
31
0
210
0
220
0
230
-1
40
0.110787
41
-0.0962378512586467
42
-0.0128466361912515
0
ELLIPSE
5
9D
100
AcDbEntity
8
1
62
256
6
ByLayer
370
-1
48
1
60
0
100
AcDbEllipse
10
137.651255
20
-10.449592
30
0
11
1.64959622883089
21
0.0287938092795838
31
0
210
0
220
0
230
1
40
0.998215
41
-2.6180397033313
42
-1.04721409243279
0
ELLIPSE
5
9E
100
AcDbEntity
8
1
62
256
6
ByLayer
370
-1
48
1
60
0
100
AcDbEllipse
10
148.861647
20
-2.403408
30
0
11
0.793879069954041
21
0.0138572107111997
31
0
210
0
220
0
230
1
40
0.998215
41
0
42
2.09437856115705
0
ELLIPSE
5
9F
100
AcDbEntity
8
1
62
256
6
ByLayer
370
-1
48
1
60
0
100
AcDbEllipse
10
145.012792
20
-9.267811
30
0
11
-2.95004630732265
21
-0.0514932498355605
31
0
210
0
220
0
230
1
40
0.998215
41
0
42
6.28318530717959
0
ELLIPSE
5
A0
100
AcDbEntity
8
1
62
256
6
ByLayer
370
-1
48
1
60
0
100
AcDbEllipse
10
145.01393
20
-9.332755
30
0
11
3.07085757045556
21
0.0536020182776062
31
0
210
0
220
0
230
1
40
0.998215
41
0
42
6.28318530717959
0
ELLIPSE
5
A1
100
AcDbEntity
8
1
62
256
6
ByLayer
370
-1
48
1
60
0
100
AcDbEllipse
10
137.078147
20
-9.470781
30
0
11
0.793879069954001
21
0.013857210711199
31
0
210
0
220
0
230
1
40
0.998215
41
2.09437856115695
42
-2.09440976290201
0
ELLIPSE
5
A2
100
AcDbEntity
8
1
62
256
6
ByLayer
370
-1
48
1
60
0
100
AcDbEllipse
10
149.101996
20
-16.124076
30
0
11
0.793879069953915
21
0.0138572107111975
31
0
210
0
220
0
230
1
40
0.998215
41
-2.09440976290191
42
-6.23469092065236E-05
0
ELLIPSE
5
A3
100
AcDbEntity
8
1
62
256
6
ByLayer
370
-1
48
1
60
0
100
AcDbEllipse
10
145.012953
20
-9.277009
30
0
11
3.00559423705108
21
0.0524628425555992
31
0
210
0
220
0
230
1
40
0.998215
41
0
42
6.28318530717959
0
ELLIPSE
5
A4
100
AcDbEntity
8
1
62
256
6
ByLayer
370
-1
48
1
60
0
100
AcDbEllipse
10
144.343769
20
-10.42904
30
0
11
-0.291955526985666
21
-0.00509610267968617
31
0
210
0
220
0
230
1
40
0.998215
41
0.109844304921371
42
2.35618224425619
0
ELLIPSE
5
A5
100
AcDbEntity
8
1
62
256
6
ByLayer
370
-1
48
1
60
0
100
AcDbEllipse
10
146.66555
20
-10.136522
30
0
11
-0.685895518877285
21
-0.0119723508159754
31
0
210
0
220
0
230
1
40
0.998215
41
-0.524994049438937
42
-2.70689944638384E-06
0
ELLIPSE
5
A6
100
AcDbEntity
8
1
62
256
6
ByLayer
370
-1
48
1
60
0
100
AcDbEllipse
10
145.047253
20
-11.10719
30
0
11
-0.685895518877285
21
-0.0119723508159754
31
0
210
0
220
0
230
1
40
0.998215
41
-1.56940105295425
42
-0.785410409333408
0
ELLIPSE
5
A7
100
AcDbEntity
8
1
62
256
6
ByLayer
370
-1
48
1
60
0
100
AcDbEllipse
10
145.012217
20
-9.234987
30
0
11
1.2063162442062
21
0.0210563283665812
31
0
210
0
220
0
230
1
40
0.998215
41
-1.56940107503499
42
-0.525041679963674
0
ELLIPSE
5
A8
100
AcDbEntity
8
1
62
256
6
ByLayer
370
-1
48
1
60
0
100
AcDbEllipse
10
146.627056
20
-8.249467
30
0
11
-0.685895518877285
21
-0.0119723508159754
31
0
210
0
220
0
230
1
40
0.998215
41
-0.267662559322859
42
8.1656213138219E-06
0
ELLIPSE
5
A9
100
AcDbEntity
8
1
62
256
6
ByLayer
370
-1
48
1
60
0
100
AcDbEllipse
10
145.012217
20
-9.234987
30
0
11
-1.20631624420619
21
-0.0210563283665806
31
0
210
0
220
0
230
1
40
0.998215
41
-0.370788273658477
42
0.442021137238119
0
ELLIPSE
5
AA
100
AcDbEntity
8
1
62
256
6
ByLayer
370
-1
48
1
60
0
100
AcDbEllipse
10
143.357737
20
-8.300287
30
0
11
-0.685895518877285
21
-0.0119723508159754
31
0
210
0
220
0
230
1
40
0.998215
41
3.14159039082655
42
-2.88259605940799
0
ELLIPSE
5
AB
100
AcDbEntity
8
1
62
256
6
ByLayer
370
-1
48
1
60
0
100
AcDbEllipse
10
145.013424
20
-9.303884
30
0
11
1.20631624420619
21
0.021056328366581
31
0
210
0
220
0
230
1
40
0.998215
41
-2.68707598654759
42
-2.54900314142043
0
ELLIPSE
5
AC
100
AcDbEntity
8
1
62
256
6
ByLayer
370
-1
48
1
60
0
100
AcDbEllipse
10
145.013708
20
-9.320089
30
0
11
1.67624466092969
21
0.0292589593921037
31
0
210
0
220
0
230
1
40
0.998215
41
3.13873975343231
42
-2.0916190678782
0
ELLIPSE
5
AD
100
AcDbEntity
8
1
62
256
6
ByLayer
370
-1
48
1
60
0
100
AcDbEllipse
10
145.013708
20
-9.320089
30
0
11
1.67624466092969
21
0.0292589593921037
31
0
210
0
220
0
230
1
40
0.998215
41
1.04997358571154
42
2.09437856115681
0
ELLIPSE
5
AE
100
AcDbEntity
8
1
62
256
6
ByLayer
370
-1
48
1
60
0
100
AcDbEllipse
10
145.013708
20
-9.320089
30
0
11
1.67624466092969
21
0.0292589593921037
31
0
210
0
220
0
230
1
40
0.998215
41
-2.0916190678782
42
-1.04721409243284
0
ELLIPSE
5
AF
100
AcDbEntity
8
1
62
256
6
ByLayer
370
-1
48
1
60
0
100
AcDbEllipse
10
145.013708
20
-9.320089
30
0
11
1.79972585128151
21
0.0314143315871079
31
0
210
0
220
0
230
1
40
0.998215
41
0
42
6.28318530717959
0
ELLIPSE
5
B0
100
AcDbEntity
8
1
62
256
6
ByLayer
370
-1
48
1
60
0
100
AcDbEllipse
10
145.013424
20
-9.303884
30
0
11
1.20631624420619
21
0.021056328366581
31
0
210
0
220
0
230
1
40
0.998215
41
0.454516667042796
42
0.592589512168593
0
ELLIPSE
5
B1
100
AcDbEntity
8
1
62
256
6
ByLayer
370
-1
48
1
60
0
100
AcDbEllipse
10
145.012243
20
-9.236481
30
0
11
2.62460019978551
21
0.0458125668978654
31
0
210
0
220
0
230
1
40
0.998215
41
3.11778119252617
42
3.13535083943562
0
ELLIPSE
5
B2
100
AcDbEntity
8
1
62
256
6
ByLayer
370
-1
48
1
60
0
100
AcDbEllipse
10
145.012243
20
-9.236481
30
0
11
2.62460019978551
21
0.0458125668978654
31
0
210
0
220
0
230
1
40
0.998215
41
0.00632251943711452
42
3.11778119252617
0
ELLIPSE
5
B3
100
AcDbEntity
8
1
62
256
6
ByLayer
370
-1
48
1
60
0
100
AcDbEllipse
10
146.66555
20
-10.136522
30
0
11
-0.685895518877285
21
-0.0119723508159754
31
0
210
0
220
0
230
1
40
0.998215
41
-1.30898469305974
42
-0.524994049438937
0
ELLIPSE
5
B4
100
AcDbEntity
8
1
62
256
6
ByLayer
370
-1
48
1
60
0
100
AcDbEllipse
10
143.627292
20
-9.238712
30
0
11
-0.291955526985666
21
-0.00509610267968617
31
0
210
0
220
0
230
1
40
0.998215
41
0.15085859883204
42
1.31486011051919
0
ELLIPSE
5
B5
100
AcDbEntity
8
1
62
256
6
ByLayer
370
-1
48
1
60
0
100
AcDbEllipse
10
145.01342
20
-9.30364
30
0
11
2.62460019978552
21
0.0458125668978656
31
0
210
0
220
0
230
1
40
0.998215
41
0
42
6.28318530717959
0
ELLIPSE
5
B6
100
AcDbEntity
8
1
62
256
6
ByLayer
370
-1
48
1
60
0
100
AcDbEllipse
10
145.012217
20
-9.234987
30
0
11
-1.20631624420619
21
-0.0210563283665806
31
0
210
0
220
0
230
1
40
0.998215
41
-2.49416287023528
42
-1.72735444381482
0
ELLIPSE
5
B7
100
AcDbEntity
8
1
62
256
6
ByLayer
370
-1
48
1
60
0
100
AcDbEllipse
10
145.013708
20
-9.320089
30
0
11
1.67624466092969
21
0.0292589593921037
31
0
210
0
220
0
230
1
40
0.998215
41
2.09437856115681
42
3.13873975343231
0
ELLIPSE
5
B8
100
AcDbEntity
8
1
62
256
6
ByLayer
370
-1
48
1
60
0
100
AcDbEllipse
10
145.012217
20
-9.234987
30
0
11
-1.20631624420619
21
-0.0210563283665806
31
0
210
0
220
0
230
1
40
0.998215
41
-1.37366614953767
42
-0.603990139739832
0
ELLIPSE
5
B9
100
AcDbEntity
8
1
62
256
6
ByLayer
370
-1
48
1
60
0
100
AcDbEllipse
10
145.047253
20
-11.10719
30
0
11
-0.685895518877285
21
-0.0119723508159754
31
0
210
0
220
0
230
1
40
0.998215
41
-2.35339169657497
42
-1.56940105295425
0
ELLIPSE
5
BA
100
AcDbEntity
8
1
62
256
6
ByLayer
370
-1
48
1
60
0
100
AcDbEllipse
10
143.396231
20
-10.187343
30
0
11
-0.685895518877285
21
-0.0119723508159754
31
0
210
0
220
0
230
1
40
0.998215
41
-3.14158407272362
42
-2.73960791920977
0
ELLIPSE
5
BB
100
AcDbEntity
8
1
62
256
6
ByLayer
370
-1
48
1
60
0
100
AcDbEllipse
10
143.396231
20
-10.187343
30
0
11
-0.685895518877285
21
-0.0119723508159754
31
0
210
0
220
0
230
1
40
0.998215
41
-2.4963798367731
42
-1.8267325430701
0
ELLIPSE
5
BC
100
AcDbEntity
8
1
62
256
6
ByLayer
370
-1
48
1
60
0
100
AcDbEllipse
10
145.013708
20
-9.320089
30
0
11
1.67624466092969
21
0.0292589593921037
31
0
210
0
220
0
230
1
40
0.998215
41
-1.04721409243284
42
-0.00285290015748985
0
ELLIPSE
5
BD
100
AcDbEntity
8
1
62
256
6
ByLayer
370
-1
48
1
60
0
100
AcDbEllipse
10
145.724676
20
-10.403013
30
0
11
-0.291955526985666
21
-0.00509610267968617
31
0
210
0
220
0
230
1
40
0.998215
41
0.788200957014959
42
2.98175014838292
0
ELLIPSE
5
BE
100
AcDbEntity
8
1
62
256
6
ByLayer
370
-1
48
1
60
0
100
AcDbEllipse
10
145.012217
20
-9.234987
30
0
11
1.2063162442062
21
0.0210563283665812
31
0
210
0
220
0
230
1
40
0.998215
41
-2.68707598654782
42
-2.54900314142018
0
ELLIPSE
5
BF
100
AcDbEntity
8
1
62
256
6
ByLayer
370
-1
48
1
60
0
100
AcDbEllipse
10
146.395994
20
-9.198098
30
0
11
-0.291955526985666
21
-0.00509610267968617
31
0
210
0
220
0
230
1
40
0.998215
41
1.83260796053027
42
-3.14156601436007
0
ELLIPSE
5
C0
100
AcDbEntity
8
1
62
256
6
ByLayer
370
-1
48
1
60
0
100
AcDbEllipse
10
145.012217
20
-9.234987
30
0
11
-1.20631624420619
21
-0.0210563283665806
31
0
210
0
220
0
230
1
40
0.998215
41
2.62847355516818
42
-2.76224822278795
0
ELLIPSE
5
C1
100
AcDbEntity
8
1
62
256
6
ByLayer
370
-1
48
1
60
0
100
AcDbEllipse
10
145.012217
20
-9.234987
30
0
11
-1.20631624420619
21
-0.0210563283665806
31
0
210
0
220
0
230
1
40
0.998215
41
0.592589512169666
42
1.57219157855485
0
ELLIPSE
5
C2
100
AcDbEntity
8
1
62
256
6
ByLayer
370
-1
48
1
60
0
100
AcDbEllipse
10
145.013708
20
-9.320089
30
0
11
1.67624466092969
21
0.0292589593921037
31
0
210
0
220
0
230
1
40
0.998215
41
-0.00285290015748985
42
1.04997358571154
0
POINT
5
41
100
AcDbEntity
8
80
62
256
6
ByLayer
370
-1
48
1
60
0
100
AcDbPoint
10
0
20
0
30
0
39
0
210
0
220
0
230
1
50
360
0
POINT
5
43
100
AcDbEntity
8
81
62
256
6
ByLayer
370
-1
48
1
60
0
100
AcDbPoint
10
149.895
20
-16.9
30
0
39
0
210
0
220
0
230
1
50
360
0
POINT
5
45
100
AcDbEntity
8
1
62
256
6
ByLayer
370
-1
48
1
60
0
100
AcDbPoint
10
-121.355
20
0
30
0
39
0
210
0
220
0
230
1
50
360
0
POINT
5
47
100
AcDbEntity
8
2
62
256
6
ByLayer
370
-1
48
1
60
0
100
AcDbPoint
10
149.895
20
16.9
30
0
39
0
210
0
220
0
230
1
50
360
0
SPLINE
5
C3
100
AcDbEntity
8
1
62
256
6
ByLayer
370
-1
48
1
60
0
100
AcDbSpline
70
4
71
3
72
28
73
24
40
-0.124999999999994
40
-0.124999999999994
40
0
40
0
40
0.125000000000002
40
0.125000000000002
40
0.187500000000003
40
0.187500000000003
40
0.250000000000004
40
0.250000000000004
40
0.375000000000006
40
0.375000000000006
40
0.500000000000008
40
0.500000000000008
40
0.625000000000009
40
0.625000000000009
40
0.687500000000012
40
0.687500000000012
40
0.718750000000012
40
0.718750000000012
40
0.750000000000011
40
0.750000000000011
40
0.875000000000006
40
0.875000000000006
40
1
40
1
40
1.125
40
1.125
41
1
10
123.809674703185
20
-3.52105299169241
30
0
41
1
10
122.501707956341
20
-2.9540693901275
30
0
41
1
10
121.825811511561
20
-2.77622158792985
30
0
41
1
10
120.803262790762
20
-3.00428804755381
30
0
41
1
10
120.460776229935
20
-3.17689287651359
30
0
41
1
10
119.945438021124
20
-3.81298763319526
30
0
41
1
10
119.814818685974
20
-4.26907134164682
30
0
41
1
10
119.872135673489
20
-5.48083602067067
30
0
41
1
10
120.348334440633
20
-6.07188995638256
30
0
41
1
10
121.439644642792
20
-6.90222332321918
30
0
41
1
10
122.098705720057
20
-7.17050335580507
30
0
41
1
10
123.501410599282
20
-7.51791179790189
30
0
41
1
10
124.255599834685
20
-7.60916238484424
30
0
41
1
10
125.433618925265
20
-7.52480070305657
30
0
41
1
10
125.844426828
20
-7.47170803340583
30
0
41
1
10
126.384509377632
20
-7.16422253428416
30
0
41
1
10
126.548767910336
20
-7.00158383167948
30
0
41
1
10
126.652509023482
20
-6.58396441466317
30
0
41
1
10
126.600230254674
20
-6.36873712995552
30
0
41
1
10
126.210287755714
20
-5.41924783631961
30
0
41
1
10
125.598659894264
20
-4.88416577569166
30
0
41
1
10
124.432456345808
20
-3.92291645630053
30
0
41
1
10
123.809674703185
20
-3.52105299169241
30
0
41
1
10
122.501707956341
20
-2.9540693901275
30
0
0
SPLINE
5
C4
100
AcDbEntity
8
1
62
256
6
ByLayer
370
-1
48
1
60
0
100
AcDbSpline
70
4
71
3
72
14
73
10
40
0
40
0
40
0
40
0
40
0.25
40
0.25
40
0.5
40
0.5
40
0.75
40
0.75
40
1
40
1
40
1
40
1
41
1
10
130.648820050514
20
-12.5411973789354
30
0
41
1
10
128.265368356036
20
-12.5418510981008
30
0
41
1
10
125.941932094431
20
-12.5542812933645
30
0
41
1
10
121.573016978732
20
-12.2925600393098
30
0
41
1
10
119.537780674142
20
-12.020688635507
30
0
41
1
10
116.410986943942
20
-10.4130515596771
30
0
41
1
10
115.419812092894
20
-8.97816723464837
30
0
41
1
10
114.905304323086
20
-5.00563317478014
30
0
41
1
10
115.28146778202
20
-2.62126441146552
30
0
41
1
10
115.938356498059
20
-0.325215046559578
30
0
0
SPLINE
5
C5
100
AcDbEntity
8
1
62
256
6
ByLayer
370
-1
48
1
60
0
100
AcDbSpline
70
4
71
3
72
8
73
4
40
0
40
0
40
0
40
0
40
1
40
1
40
1
40
1
41
1
10
132.434455646154
20
-14.1441761384334
30
0
41
1
10
132.839231141918
20
-14.5076653922014
30
0
41
1
10
133.244020183115
20
-14.8711396163365
30
0
41
1
10
133.64882005
20
-15.2346018261383
30
0
0
SPLINE
5
C6
100
AcDbEntity
8
1
62
256
6
ByLayer
370
-1
48
1
60
0
100
AcDbSpline
70
4
71
3
72
8
73
4
40
0
40
0
40
0
40
0
40
1
40
1
40
1
40
1
41
1
10
136.179618492305
20
-10.8102608050438
30
0
41
1
10
136.131281502532
20
-10.8512318352392
30
0
41
1
10
136.081853530035
20
-10.8898367762753
30
0
41
1
10
136.031411699091
20
-10.9259087085083
30
0
0
SPLINE
5
C7
100
AcDbEntity
8
1
62
256
6
ByLayer
370
-1
48
1
60
0
100
AcDbSpline
70
4
71
3
72
8
73
4
40
0
40
0
40
0
40
0
40
1
40
1
40
1
40
1
41
1
10
147.009116372455
20
-15.8560251257213
30
0
41
1
10
146.574646267149
20
-15.8200335004873
30
0
41
1
10
146.140176447525
20
-15.7840384415802
30
0
41
1
10
145.705706919412
20
-15.7480398799502
30
0
0
SPLINE
5
C8
100
AcDbEntity
8
1
62
256
6
ByLayer
370
-1
48
1
60
0
100
AcDbSpline
70
4
71
3
72
16
73
12
40
0
40
0
40
0
40
0
40
0.106400944576811
40
0.106400944576811
40
0.348555616944256
40
0.348555616944256
40
0.593521160867374
40
0.593521160867374
40
0.862616637442043
40
0.862616637442043
40
1
40
1
40
1
40
1
41
1
10
116.133363537609
20
0.325215046559606
30
0
41
1
10
116.134244558585
20
0.303692714727646
30
0
41
1
10
116.134143308934
20
0.281186945715177
30
0
41
1
10
116.130578979926
20
0.20565857515453
30
0
41
1
10
116.122831399804
20
0.149043219617596
30
0
41
1
10
116.098354917454
20
0.036032266497358
30
0
41
1
10
116.081263323689
20
-0.021732668309653
30
0
41
1
10
116.038835864836
20
-0.136798786387828
30
0
41
1
10
116.012383013402
20
-0.194908875836518
30
0
41
1
10
115.969259183434
20
-0.27480481237825
30
0
41
1
10
115.954008500081
20
-0.300716380949439
30
0
41
1
10
115.938356498059
20
-0.325215046559691
30
0
0
SPLINE
5
C9
100
AcDbEntity
8
1
62
256
6
ByLayer
370
-1
48
1
60
0
100
AcDbSpline
70
4
71
3
72
8
73
4
40
0
40
0
40
0
40
0
40
1
40
1
40
1
40
1
41
1
10
130.648820050514
20
-12.5411973789354
30
0
41
1
10
131.242456398655
20
-13.0744630000044
30
0
41
1
10
131.837933867974
20
-13.608498316343
30
0
41
1
10
132.434455646154
20
-14.1441761384334
30
0
0
SPLINE
5
CA
100
AcDbEntity
8
1
62
256
6
ByLayer
370
-1
48
1
60
0
100
AcDbSpline
70
4
71
3
72
12
73
8
40
0
40
0
40
0
40
0
40
0.25
40
0.25
40
0.5
40
0.5
40
1
40
1
40
1
40
1
41
1
10
116.133363537609
20
0.325215046559606
30
0
41
1
10
116.664793637844
20
2.01984328720954
30
0
41
1
10
117.358814849823
20
3.65687607172683
30
0
41
1
10
119.031421073907
20
6.52498363785674
30
0
41
1
10
120.015192773514
20
7.75768678764464
30
0
41
1
10
123.43813811206
20
10.7137223611249
30
0
41
1
10
126.30812818801
20
11.6162917074207
30
0
41
1
10
129.532352128167
20
12.0359323300882
30
0
0
SPLINE
5
CB
100
AcDbEntity
8
1
62
256
6
ByLayer
370
-1
48
1
60
0
100
AcDbSpline
70
4
71
3
72
8
73
4
40
0
40
0
40
0
40
0
40
1
40
1
40
1
40
1
41
1
10
145.563878204981
20
-16.2087439895294
30
0
41
1
10
141.592190084206
20
-15.8840551347881
30
0
41
1
10
137.620503899651
20
-15.5593426966893
30
0
41
1
10
133.64882005
20
-15.2346018261383
30
0
0
SPLINE
5
CC
100
AcDbEntity
8
SK1
62
256
6
ByLayer
370
-1
48
1
60
0
100
AcDbSpline
70
4
71
3
72
34
73
30
40
0
40
0
40
0
40
0
40
0.21740153606692
40
0.21740153606692
40
0.435096189294327
40
0.435096189294327
40
0.48968271374116
40
0.48968271374116
40
0.49642475261299
40
0.49642475261299
40
0.499827716367704
40
0.499827716367704
40
0.501221335422932
40
0.501221335422932
40
0.502631422620208
40
0.502631422620208
40
0.503888875467978
40
0.503888875467978
40
0.506006326343299
40
0.506006326343299
40
0.511464845544167
40
0.511464845544167
40
0.532512938529041
40
0.532512938529041
40
0.616049656458355
40
0.616049656458355
40
0.949479024380069
40
0.949479024380069
40
1
40
1
40
1
40
1
41
1
10
-50.105
20
0.234670284410242
30
0
41
1
10
-50.5050064432497
20
0.234670284410242
30
0
41
1
10
-50.9051232442571
20
0.227970241868832
30
0
41
1
10
-51.7047893156642
20
0.195494684745
30
0
41
1
10
-52.1063370498954
20
0.176891731587375
30
0
41
1
10
-52.6009938801155
20
0.0996805507180909
30
0
41
1
10
-52.7032572401338
20
0.0865193849705008
30
0
41
1
10
-52.8059539746012
20
0.0396411306649043
30
0
41
1
10
-52.8172855192887
20
0.0337382311875274
30
0
41
1
10
-52.8320213733804
20
0.0219157473507039
30
0
41
1
10
-52.8367110837709
20
0.0173068007107418
30
0
41
1
10
-52.8411192867084
20
0.0095065790779927
30
0
41
1
10
-52.8421371751565
20
0.0070152349105967
30
0
41
1
10
-52.8432348812663
20
0.0018522115921371
30
0
41
1
10
-52.8433006989041
20
-0.000888842752687
30
0
41
1
10
-52.8424703651861
20
-0.0058452740894666
30
0
41
1
10
-52.8416797546009
20
-0.0081402936266386
30
0
41
1
10
-52.8388722032764
20
-0.0138466647667883
30
0
41
1
10
-52.8363741565861
20
-0.0170720040325989
30
0
41
1
10
-52.8265694039989
20
-0.0273045780350287
30
0
41
1
10
-52.8177295794322
20
-0.0328902269627349
30
0
41
1
10
-52.7744809026145
20
-0.0564798090617558
30
0
41
1
10
-52.7360509547037
20
-0.0669596151259952
30
0
41
1
10
-52.5480753590554
20
-0.115123589141433
30
0
41
1
10
-52.3930161696438
20
-0.132424615810123
30
0
41
1
10
-51.6241558505591
20
-0.214102141369466
30
0
41
1
10
-51.0043947302613
20
-0.228220267773338
30
0
41
1
10
-50.2924713289033
20
-0.234275218157563
30
0
41
1
10
-50.1987352330349
20
-0.234670284410242
30
0
41
1
10
-50.105
20
-0.234670284410242
30
0
0
SPLINE
5
CD
100
AcDbEntity
8
1
62
256
6
ByLayer
370
-1
48
1
60
0
100
AcDbSpline
70
4
71
3
72
14
73
10
40
0
40
0
40
0
40
0
40
0.282071481669344
40
0.282071481669344
40
0.566816132590599
40
0.566816132590599
40
0.824447856558816
40
0.824447856558816
40
1
40
1
40
1
40
1
41
1
10
143.55967479625
20
-9.60043490568859
30
0
41
1
10
143.52706336646
20
-9.59356266218273
30
0
41
1
10
143.49483415838
20
-9.58063499342452
30
0
41
1
10
143.436679663486
20
-9.54336336152392
30
0
41
1
10
143.409949862389
20
-9.51828135584148
30
0
41
1
10
143.369969423036
20
-9.46197228582756
30
0
41
1
10
143.355123330431
20
-9.43066996083545
30
0
41
1
10
143.340425388399
20
-9.37530751944473
30
0
41
1
10
143.337154648853
20
-9.35166308171321
30
0
41
1
10
143.336809189605
20
-9.32809640735556
30
0
0
SPLINE
5
CE
100
AcDbEntity
8
1
62
256
6
ByLayer
370
-1
48
1
60
0
100
AcDbSpline
70
4
71
3
72
16
73
12
40
0
40
0
40
0
40
0
40
0.141344803325044
40
0.141344803325044
40
0.363760442661054
40
0.363760442661054
40
0.593306015714943
40
0.593306015714943
40
0.840796075901037
40
0.840796075901037
40
1
40
1
40
1
40
1
41
1
10
145.876544918569
20
-10.7379559919976
30
0
41
1
10
145.860428476689
20
-10.7476227694374
30
0
41
1
10
145.843273581896
20
-10.75571645795
30
0
41
1
10
145.797990504385
20
-10.7718388468756
30
0
41
1
10
145.768595992581
20
-10.7773176846104
30
0
41
1
10
145.710089263982
20
-10.7792523778007
30
0
41
1
10
145.680278796332
20
-10.7754653101796
30
0
41
1
10
145.622441911095
20
-10.7591494724526
30
0
41
1
10
145.594004977717
20
-10.7457893722533
30
0
41
1
10
145.5525679739
20
-10.7180106830527
30
0
41
1
10
145.537445532153
20
-10.7055186179635
30
0
41
1
10
145.523790933388
20
-10.6918536682706
30
0
0
SPLINE
5
CF
100
AcDbEntity
8
1
62
256
6
ByLayer
370
-1
48
1
60
0
100
AcDbSpline
70
4
71
3
72
14
73
10
40
0
40
0
40
0
40
0
40
0.278901186011699
40
0.278901186011699
40
0.564042846402241
40
0.564042846402241
40
0.821997220619097
40
0.821997220619097
40
1
40
1
40
1
40
1
41
1
10
146.46635209895
20
-8.9933586682983
30
0
41
1
10
146.498634080365
20
-9.0022209028275
30
0
41
1
10
146.530534954658
20
-9.01690365363947
30
0
41
1
10
146.588596038981
20
-9.05723077869692
30
0
41
1
10
146.615480289247
20
-9.08379604612531
30
0
41
1
10
146.655752834267
20
-9.14230441962161
30
0
41
1
10
146.670742499261
20
-9.17441359921813
30
0
41
1
10
146.685735981826
20
-9.23087484079895
30
0
41
1
10
146.689098198939
20
-9.25502279264978
30
0
41
1
10
146.689448463571
20
-9.27891728254994
30
0
0
SPLINE
5
D0
100
AcDbEntity
8
1
62
256
6
ByLayer
370
-1
48
1
60
0
100
AcDbSpline
70
4
71
3
72
18
73
14
40
0
40
0
40
0
40
0
40
0.210965823598857
40
0.210965823598857
40
0.385360648441821
40
0.385360648441821
40
0.561454900569862
40
0.561454900569862
40
0.714470859794338
40
0.714470859794338
40
0.917060813728968
40
0.917060813728968
40
1
40
1
40
1
40
1
41
1
10
144.555178938147
20
-10.7101103642837
30
0
41
1
10
144.604090711922
20
-10.6573309238983
30
0
41
1
10
144.662565297972
20
-10.6106261761955
30
0
41
1
10
144.78268035851
20
-10.5442707894496
30
0
41
1
10
144.843450510754
20
-10.5207377959398
30
0
41
1
10
144.970556253109
20
-10.4926481357987
30
0
41
1
10
145.038869254303
20
-10.4880672304189
30
0
41
1
10
145.161786031164
20
-10.4987734030435
30
0
41
1
10
145.218486150584
20
-10.5115673558293
30
0
41
1
10
145.340106384016
20
-10.5554156183373
30
0
41
1
10
145.403925329551
20
-10.5915502656505
30
0
41
1
10
145.481990344758
20
-10.6524788607277
30
0
41
1
10
145.503580187455
20
-10.6716276014958
30
0
41
1
10
145.523790933388
20
-10.6918536682707
30
0
0
SPLINE
5
D1
100
AcDbEntity
8
1
62
256
6
ByLayer
370
-1
48
1
60
0
100
AcDbSpline
70
4
71
3
72
12
73
8
40
0
40
0
40
0
40
0
40
0.320646156790757
40
0.320646156790757
40
0.789530337345576
40
0.789530337345576
40
1
40
1
40
1
40
1
41
1
10
144.023978173685
20
-9.97734674526205
30
0
41
1
10
144.045095686259
20
-10.0249498209803
30
0
41
1
10
144.060663299445
20
-10.0751703900112
30
0
41
1
10
144.08459436304
20
-10.197773570943
30
0
41
1
10
144.086870850723
20
-10.2716957556857
30
0
41
1
10
144.075433725249
20
-10.3735620587268
30
0
41
1
10
144.06978632286
20
-10.4048570562777
30
0
41
1
10
144.062233924565
20
-10.435368977044
30
0
0
SPLINE
5
D2
100
AcDbEntity
8
1
62
256
6
ByLayer
370
-1
48
1
60
0
100
AcDbSpline
70
4
71
3
72
12
73
8
40
0
40
0
40
0
40
0
40
0.495373130888904
40
0.495373130888904
40
0.90032093236304
40
0.90032093236304
40
1
40
1
40
1
40
1
41
1
10
146.46635209895
20
-8.9933586682983
30
0
41
1
10
146.397018608966
20
-8.97432484131599
30
0
41
1
10
146.328040308042
20
-8.94389729759399
30
0
41
1
10
146.211997242977
20
-8.86832091508285
30
0
41
1
10
146.162007021529
20
-8.82589597683747
30
0
41
1
10
146.107816357719
20
-8.76504219724359
30
0
41
1
10
146.097409578838
20
-8.75253245099893
30
0
41
1
10
146.087433978906
20
-8.73966859179873
30
0
0
SPLINE
5
D3
100
AcDbEntity
8
1
62
256
6
ByLayer
370
-1
48
1
60
0
100
AcDbSpline
70
4
71
3
72
16
73
12
40
0
40
0
40
0
40
0
40
0.0707312659487472
40
0.0707312659487472
40
0.381751108874951
40
0.381751108874951
40
0.664108483269779
40
0.664108483269779
40
0.913097406117047
40
0.913097406117047
40
1
40
1
40
1
40
1
41
1
10
146.006963342963
20
-10.4020427916948
30
0
41
1
10
146.009263804189
20
-10.4103820353256
30
0
41
1
10
146.011225248284
20
-10.4188563474425
30
0
41
1
10
146.019805100107
20
-10.464711402831
30
0
41
1
10
146.019948856362
20
-10.5047234133178
30
0
41
1
10
146.005275143994
20
-10.5785371859973
30
0
41
1
10
145.991525797286
20
-10.6137156436427
30
0
41
1
10
145.954226620271
20
-10.6725063214714
30
0
41
1
10
145.93143619323
20
-10.6978327400944
30
0
41
1
10
145.896169503621
20
-10.7253494349542
30
0
41
1
10
145.88652685028
20
-10.7319687453714
30
0
41
1
10
145.876544918569
20
-10.7379559919976
30
0
0
SPLINE
5
D4
100
AcDbEntity
8
1
62
256
6
ByLayer
370
-1
48
1
60
0
100
AcDbSpline
70
4
71
3
72
16
73
12
40
0
40
0
40
0
40
0
40
0.0587773950386166
40
0.0587773950386166
40
0.279491988882871
40
0.279491988882871
40
0.502772554555616
40
0.502772554555616
40
0.74020175809168
40
0.74020175809168
40
1
40
1
40
1
40
1
41
1
10
145.821862529031
20
-7.83754050564224
30
0
41
1
10
145.828822173847
20
-7.8413659608137
30
0
41
1
10
145.835631927962
20
-7.84547029672206
30
0
41
1
10
145.866929989631
20
-7.86607605485131
30
0
41
1
10
145.889288292222
20
-7.88621972780871
30
0
41
1
10
145.926261232458
20
-7.93104187045225
30
0
41
1
10
145.94127188499
20
-7.9563266413283
30
0
41
1
10
145.963270916818
20
-8.00994951710368
30
0
41
1
10
145.969995788984
20
-8.03903971106715
30
0
41
1
10
145.974485093124
20
-8.09851938837554
30
0
41
1
10
145.971456930918
20
-8.12951991485153
30
0
41
1
10
145.96379297063
20
-8.1584245969417
30
0
0
SPLINE
5
D5
100
AcDbEntity
8
1
62
256
6
ByLayer
370
-1
48
1
60
0
100
AcDbSpline
70
4
71
3
72
14
73
10
40
0
40
0
40
0
40
0
40
0.26647923159364
40
0.26647923159364
40
0.554997815982334
40
0.554997815982334
40
0.815945169240237
40
0.815945169240237
40
1
40
1
40
1
40
1
41
1
10
144.019067178147
20
-8.19195851077865
30
0
41
1
10
144.010496075817
20
-8.16271375945013
30
0
41
1
10
144.006679834813
20
-8.13114543146489
30
0
41
1
10
144.010371920467
20
-8.06516622108805
30
0
41
1
10
144.018980222828
20
-8.02969020282794
30
0
41
1
10
144.048087728617
20
-7.96699432567027
30
0
41
1
10
144.067870207893
20
-7.93838402780236
30
0
41
1
10
144.109102491846
20
-7.89700417763061
30
0
41
1
10
144.128692598897
20
-7.88166575216633
30
0
41
1
10
144.149712734608
20
-7.86905769790781
30
0
0
SPLINE
5
D6
100
AcDbEntity
8
1
62
256
6
ByLayer
370
-1
48
1
60
0
100
AcDbSpline
70
4
71
3
72
16
73
12
40
0
40
0
40
0
40
0
40
0.0620063353284119
40
0.0620063353284119
40
0.282753434943234
40
0.282753434943234
40
0.506250339804272
40
0.506250339804272
40
0.744049703739506
40
0.744049703739506
40
1
40
1
40
1
40
1
41
1
10
144.204395124145
20
-10.7694731842634
30
0
41
1
10
144.197058424779
20
-10.7654404763772
30
0
41
1
10
144.189887563288
20
-10.7610769650167
30
0
41
1
10
144.158329333673
20
-10.7399200309632
30
0
41
1
10
144.136064991534
20
-10.7192831857874
30
0
41
1
10
144.099271558697
20
-10.6730354460858
30
0
41
1
10
144.084355505083
20
-10.646792326219
30
0
41
1
10
144.062547079172
20
-10.590845700663
30
0
41
1
10
144.055926441251
20
-10.560339786837
30
0
41
1
10
144.051688137457
20
-10.4981386232608
30
0
41
1
10
144.054706923857
20
-10.4657782907773
30
0
41
1
10
144.062233924565
20
-10.435368977044
30
0
0
SPLINE
5
D7
100
AcDbEntity
8
1
62
256
6
ByLayer
370
-1
48
1
60
0
100
AcDbSpline
70
4
71
3
72
12
73
8
40
0
40
0
40
0
40
0
40
0.493142180083974
40
0.493142180083974
40
0.89847562416382
40
0.89847562416382
40
1
40
1
40
1
40
1
41
1
10
143.55967479625
20
-9.60043490568862
30
0
41
1
10
143.62862017022
20
-9.61496384237088
30
0
41
1
10
143.697211710175
20
-9.6410167127645
30
0
41
1
10
143.812986056827
20
-9.7101012124572
30
0
41
1
10
143.86302971723
20
-9.75021341501247
30
0
41
1
10
143.917500563153
20
-9.80959389896748
30
0
41
1
10
143.928102416547
20
-9.8220491826404
30
0
41
1
10
143.938257939254
20
-9.83493416075407
30
0
0
SPLINE
5
D8
100
AcDbEntity
8
1
62
256
6
ByLayer
370
-1
48
1
60
0
100
AcDbSpline
70
4
71
3
72
18
73
14
40
0
40
0
40
0
40
0
40
0.146509736604607
40
0.146509736604607
40
0.333386325404371
40
0.333386325404371
40
0.490210632960216
40
0.490210632960216
40
0.647325244092445
40
0.647325244092445
40
0.802108540490242
40
0.802108540490242
40
1
40
1
40
1
40
1
41
1
10
144.019067178147
20
-8.19195851077868
30
0
41
1
10
144.03240111632
20
-8.23745414145677
30
0
41
1
10
144.040922853544
20
-8.28536161039892
30
0
41
1
10
144.047609287109
20
-8.39729312497417
30
0
41
1
10
144.042184378334
20
-8.46356195921197
30
0
41
1
10
144.01299766623
20
-8.58406416338411
30
0
41
1
10
143.991856602216
20
-8.63983433662762
30
0
41
1
10
143.936141619612
20
-8.74383945352011
30
0
41
1
10
143.90084906365
20
-8.79332730508432
30
0
41
1
10
143.822502437578
20
-8.87895728752255
30
0
41
1
10
143.778741416787
20
-8.91635928975836
30
0
41
1
10
143.674689661162
20
-8.98680710077545
30
0
41
1
10
143.611812027292
20
-9.01684683873773
30
0
41
1
10
143.548183452725
20
-9.03712345963913
30
0
0
SPLINE
5
D9
100
AcDbEntity
8
1
62
256
6
ByLayer
370
-1
48
1
60
0
100
AcDbSpline
70
4
71
3
72
14
73
10
40
0
40
0
40
0
40
0
40
0.283354615600347
40
0.283354615600347
40
0.569754302956678
40
0.569754302956678
40
0.828981403059255
40
0.828981403059255
40
1
40
1
40
1
40
1
41
1
10
144.555178938147
20
-10.7101103642836
30
0
41
1
10
144.531956283544
20
-10.7351693351537
30
0
41
1
10
144.503762865835
20
-10.7568470963251
30
0
41
1
10
144.440884703505
20
-10.788991024181
30
0
41
1
10
144.40513128881
20
-10.7997751912018
30
0
41
1
10
144.33544830876
20
-10.8064837151232
30
0
41
1
10
144.300610437921
20
-10.8037610375867
30
0
41
1
10
144.245797080178
20
-10.7890530556541
30
0
41
1
10
144.224359854485
20
-10.7804470461411
30
0
41
1
10
144.204395124145
20
-10.7694731842634
30
0
0
SPLINE
5
DA
100
AcDbEntity
8
1
62
256
6
ByLayer
370
-1
48
1
60
0
100
AcDbSpline
70
4
71
3
72
16
73
12
40
0
40
0
40
0
40
0
40
0.0568311993980189
40
0.0568311993980189
40
0.27962922349662
40
0.27962922349662
40
0.504874650263122
40
0.504874650263122
40
0.744284018684724
40
0.744284018684724
40
1
40
1
40
1
40
1
41
1
10
143.336809189605
20
-9.32809640735556
30
0
41
1
10
143.336697792262
20
-9.32049705980327
30
0
41
1
10
143.336884559342
20
-9.312877736633
30
0
41
1
10
143.339248630181
20
-9.2757165045534
30
0
41
1
10
143.345783707923
20
-9.24601589746419
30
0
41
1
10
143.366847948653
20
-9.19072395447202
30
0
41
1
10
143.381710601399
20
-9.16446905673692
30
0
41
1
10
143.41825563599
20
-9.11706841556963
30
0
41
1
10
143.440740835858
20
-9.09573482507534
30
0
41
1
10
143.49082305564
20
-9.060317911315
30
0
41
1
10
143.519234648859
20
-9.04634862184847
30
0
41
1
10
143.548183452725
20
-9.03712345963905
30
0
0
SPLINE
5
DB
100
AcDbEntity
8
1
62
256
6
ByLayer
370
-1
48
1
60
0
100
AcDbSpline
70
4
71
3
72
16
73
12
40
0
40
0
40
0
40
0
40
0.0545731603590765
40
0.0545731603590765
40
0.277550284642568
40
0.277550284642568
40
0.502845012857581
40
0.502845012857581
40
0.742205832860327
40
0.742205832860327
40
1
40
1
40
1
40
1
41
1
10
146.689448463571
20
-9.27891728254994
30
0
41
1
10
146.689555394657
20
-9.2862119492267
30
0
41
1
10
146.689387361377
20
-9.29350910495242
30
0
41
1
10
146.687154982017
20
-9.33021924817589
30
0
41
1
10
146.680702627284
20
-9.3595569082448
30
0
41
1
10
146.659779885945
20
-9.41366568192407
30
0
41
1
10
146.644982052732
20
-9.43908419494332
30
0
41
1
10
146.608549913149
20
-9.48439693595262
30
0
41
1
10
146.586115121226
20
-9.50443472916123
30
0
41
1
10
146.535833785542
20
-9.53709039823005
30
0
41
1
10
146.507113265604
20
-9.54944668928388
30
0
41
1
10
146.477847068385
20
-9.55687784283472
30
0
0
SPLINE
5
DC
100
AcDbEntity
8
1
62
256
6
ByLayer
370
-1
48
1
60
0
100
AcDbSpline
70
4
71
3
72
14
73
10
40
0
40
0
40
0
40
0
40
0.278846195975396
40
0.278846195975396
40
0.565812091007113
40
0.565812091007113
40
0.825495144803784
40
0.825495144803784
40
1
40
1
40
1
40
1
41
1
10
145.470851582962
20
-7.88389093819052
30
0
41
1
10
145.493741423674
20
-7.86126876183531
30
0
41
1
10
145.521433736264
20
-7.84182858188478
30
0
41
1
10
145.58371968589
20
-7.81301770808622
30
0
41
1
10
145.619492615757
20
-7.80356687980705
30
0
41
1
10
145.689278088455
20
-7.79874413637395
30
0
41
1
10
145.724194723759
20
-7.80210608006988
30
0
41
1
10
145.779582310875
20
-7.81745122250246
30
0
41
1
10
145.801492371837
20
-7.82634379586082
30
0
41
1
10
145.821862529031
20
-7.83754050564224
30
0
0
SPLINE
5
DD
100
AcDbEntity
8
1
62
256
6
ByLayer
370
-1
48
1
60
0
100
AcDbSpline
70
4
71
3
72
18
73
14
40
0
40
0
40
0
40
0
40
0.212309742818678
40
0.212309742818678
40
0.386466904642835
40
0.386466904642835
40
0.562307681727813
40
0.562307681727813
40
0.715275050939674
40
0.715275050939674
40
0.918102419068319
40
0.918102419068319
40
1
40
1
40
1
40
1
41
1
10
145.470851582962
20
-7.88389093819055
30
0
41
1
10
145.421550855343
20
-7.93261516343284
30
0
41
1
10
145.362560498215
20
-7.97543590509596
30
0
41
1
10
145.241809323108
20
-8.03568541329722
30
0
41
1
10
145.181013635435
20
-8.05684380136634
30
0
41
1
10
145.053958361324
20
-8.0820831853317
30
0
41
1
10
144.985729532954
20
-8.0862039046385
30
0
41
1
10
144.862974995508
20
-8.07667370510964
30
0
41
1
10
144.806350202127
20
-8.06522893951592
30
0
41
1
10
144.684831459409
20
-8.02573711424751
30
0
41
1
10
144.62106950795
20
-7.99302164173068
30
0
41
1
10
144.543436559712
20
-7.93765906814534
30
0
41
1
10
144.522165682465
20
-7.92040632201966
30
0
41
1
10
144.502239587723
20
-7.90214763420485
30
0
0
SPLINE
5
DE
100
AcDbEntity
8
1
62
256
6
ByLayer
370
-1
48
1
60
0
100
AcDbSpline
70
4
71
3
72
12
73
8
40
0
40
0
40
0
40
0
40
0.321744953705901
40
0.321744953705901
40
0.7906798183686
40
0.7906798183686
40
1
40
1
40
1
40
1
41
1
10
146.001713744475
20
-8.59725600729217
30
0
41
1
10
145.980520580965
20
-8.5501358988036
30
0
41
1
10
145.964935093442
20
-8.50101602386408
30
0
41
1
10
145.941142426231
20
-8.38245597642646
30
0
41
1
10
145.938999606414
20
-8.31200615162115
30
0
41
1
10
145.950620011869
20
-8.21600057008104
30
0
41
1
10
145.956268893053
20
-8.18680171036985
30
0
41
1
10
145.96379297063
20
-8.15842459694173
30
0
0
SPLINE
5
DF
100
AcDbEntity
8
1
62
256
6
ByLayer
370
-1
48
1
60
0
100
AcDbSpline
70
4
71
3
72
18
73
14
40
0
40
0
40
0
40
0
40
0.207624331699097
40
0.207624331699097
40
0.382611245130191
40
0.382611245130191
40
0.559336748640881
40
0.559336748640881
40
0.712477422539008
40
0.712477422539008
40
0.914479900737278
40
0.914479900737278
40
1
40
1
40
1
40
1
41
1
10
146.006963342962
20
-10.4020427916954
30
0
41
1
10
145.988000579751
20
-10.3333021841499
30
0
41
1
10
145.978687179476
20
-10.2596071310241
30
0
41
1
10
145.983416798548
20
-10.1221294025989
30
0
41
1
10
145.994237679686
20
-10.0570599760231
30
0
41
1
10
146.034443292189
20
-9.93201344564827
30
0
41
1
10
146.064800466559
20
-9.87030313971766
30
0
41
1
10
146.135082263321
20
-9.76940882827469
30
0
41
1
10
146.173958304129
20
-9.72705587297705
30
0
41
1
10
146.270779824159
20
-9.64499589079824
30
0
41
1
10
146.332363745012
20
-9.60882164795342
30
0
41
1
10
146.422544070518
20
-9.57283317744611
30
0
41
1
10
146.450079221797
20
-9.56392854129828
30
0
41
1
10
146.477847068385
20
-9.55687784283472
30
0
0
SPLINE
5
E0
100
AcDbEntity
8
1
62
256
6
ByLayer
370
-1
48
1
60
0
100
AcDbSpline
70
4
71
3
72
16
73
12
40
0
40
0
40
0
40
0
40
0.0505110837128105
40
0.0505110837128105
40
0.273571659353772
40
0.273571659353772
40
0.498716631651697
40
0.498716631651697
40
0.737738642831719
40
0.737738642831719
40
1
40
1
40
1
40
1
41
1
10
144.149712734608
20
-7.86905769790781
30
0
41
1
10
144.155513520538
20
-7.8655783377001
30
0
41
1
10
144.161439846637
20
-7.8622913378058
30
0
41
1
10
144.193862308679
20
-7.8457158369649
30
0
41
1
10
144.222647293702
20
-7.83608611995029
30
0
41
1
10
144.28051302123
20
-7.82570381726484
30
0
41
1
10
144.310327786314
20
-7.82488032921856
30
0
41
1
10
144.368813296665
20
-7.831588416708
30
0
41
1
10
144.398037136497
20
-7.83969123400317
30
0
41
1
10
144.453521445259
20
-7.86424484911879
30
0
41
1
10
144.479931748778
20
-7.88170650550475
30
0
41
1
10
144.502239587723
20
-7.90214763420477
30
0
0
LINE
5
49
100
AcDbEntity
8
80
62
256
6
ByLayer
370
-1
48
1
60
0
100
AcDbLine
10
0
20
0
30
0
11
-10
21
0
31
0
39
0
210
0
220
0
230
1
0
LINE
5
4A
100
AcDbEntity
8
81
62
256
6
ByLayer
370
-1
48
1
60
0
100
AcDbLine
10
149.895
20
-16.9
30
0
11
159.895
21
-16.9
31
0
39
0
210
0
220
0
230
1
0
LINE
5
4B
100
AcDbEntity
8
1
62
256
6
ByLayer
370
-1
48
1
60
0
100
AcDbLine
10
128.64882
20
12.54125
30
0
11
108.645
21
12.54125
31
0
39
0
210
0
220
0
230
1
0
LINE
5
4C
100
AcDbEntity
8
1
62
256
6
ByLayer
370
-1
48
1
60
0
100
AcDbLine
10
108.645
20
-12.54125
30
0
11
130.366941
21
-12.54125
31
0
39
0
210
0
220
0
230
1
0
LINE
5
4D
100
AcDbEntity
8
1
62
256
6
ByLayer
370
-1
48
1
60
0
100
AcDbLine
10
0
20
-12.49125
30
0
11
108.645
21
-12.49125
31
0
39
0
210
0
220
0
230
1
0
LINE
5
4E
100
AcDbEntity
8
1
62
256
6
ByLayer
370
-1
48
1
60
0
100
AcDbLine
10
108.645
20
12.49125
30
0
11
0
21
12.49125
31
0
39
0
210
0
220
0
230
1
0
LINE
5
4F
100
AcDbEntity
8
SK1
62
256
6
ByLayer
370
-1
48
1
60
0
100
AcDbLine
10
-120.855
20
-12.49125
30
0
11
0
21
-12.49125
31
0
39
0
210
0
220
0
230
1
0
LINE
5
51
100
AcDbEntity
8
SK1
62
256
6
ByLayer
370
-1
48
1
60
0
100
AcDbLine
10
0
20
12.49125
30
0
11
-120.855
21
12.49125
31
0
39
0
210
0
220
0
230
1
0
LINE
5
52
100
AcDbEntity
8
SK1
62
256
6
ByLayer
370
-1
48
1
60
0
100
AcDbLine
10
-120.855
20
12.49125
30
0
11
-121.355
21
11.99125
31
0
39
0
210
0
220
0
230
1
0
LINE
5
53
100
AcDbEntity
8
SK1
62
256
6
ByLayer
370
-1
48
1
60
0
100
AcDbLine
10
-121.355
20
-11.99125
30
0
11
-120.855
21
-12.49125
31
0
39
0
210
0
220
0
230
1
0
LINE
5
54
100
AcDbEntity
8
1
62
256
6
ByLayer
370
-1
48
1
60
0
100
AcDbLine
10
145.94116
20
-8.261439
30
0
11
145.942445
21
-8.335055
31
0
39
0
210
0
220
0
230
1
0
LINE
5
55
100
AcDbEntity
8
1
62
256
6
ByLayer
370
-1
48
1
60
0
100
AcDbLine
10
144.04492
20
-8.362074
30
0
11
144.043632
21
-8.288315
31
0
39
0
210
0
220
0
230
1
0
LINE
5
56
100
AcDbEntity
8
1
62
256
6
ByLayer
370
-1
48
1
60
0
100
AcDbLine
10
145.979654
20
-10.148495
30
0
11
145.980942
21
-10.222252
31
0
39
0
210
0
220
0
230
1
0
LINE
5
57
100
AcDbEntity
8
1
62
256
6
ByLayer
370
-1
48
1
60
0
100
AcDbLine
10
142.387069
20
-9.265711
30
0
11
142.388242
21
-9.33287
31
0
39
0
210
0
220
0
230
1
0
LINE
5
58
100
AcDbEntity
8
1
62
256
6
ByLayer
370
-1
48
1
60
0
100
AcDbLine
10
147.637442
20
-9.241245
30
0
11
147.63627
21
-9.174085
31
0
39
0
210
0
220
0
230
1
0
LINE
5
59
100
AcDbEntity
8
1
62
256
6
ByLayer
370
-1
48
1
60
0
100
AcDbLine
10
144.083412
20
-10.248986
30
0
11
144.082127
21
-10.17537
31
0
39
0
210
0
220
0
230
1
0
LINE
5
5A
100
AcDbEntity
8
SK4
62
256
6
ByLayer
370
-1
48
0.05
60
0
100
AcDbLine
10
-126.355
20
0
30
0
11
154.091117
21
0
31
0
39
0
210
0
220
0
230
1
0
LINE
5
5C
100
AcDbEntity
8
4
62
256
6
ByLayer
370
-1
48
0.05
60
0
100
AcDbLine
10
0
20
0
30
0
11
154.091117
21
0
31
0
39
0
210
0
220
0
230
1
0
LINE
5
5E
100
AcDbEntity
8
1
62
256
6
ByLayer
370
-1
48
1
60
0
100
AcDbLine
10
149.091117
20
-1.358925
30
0
11
148.652571
21
-1.621968
31
0
39
0
210
0
220
0
230
1
0
LINE
5
5F
100
AcDbEntity
8
1
62
256
6
ByLayer
370
-1
48
1
60
0
100
AcDbLine
10
136.107632
20
-11.067824
30
0
11
136.234671
21
-10.910152
31
0
39
0
210
0
220
0
230
1
0
LINE
5
60
100
AcDbEntity
8
1
62
256
6
ByLayer
370
-1
48
1
60
0
100
AcDbLine
10
138.140326
20
7.112782
30
0
11
149.091117
21
0.849706
31
0
39
0
210
0
220
0
230
1
0
LINE
5
61
100
AcDbEntity
8
1
62
256
6
ByLayer
370
-1
48
1
60
0
100
AcDbLine
10
148.854093
20
-1.594122
30
0
11
149.091117
21
-1.451954
31
0
39
0
210
0
220
0
230
1
0
LINE
5
62
100
AcDbEntity
8
1
62
256
6
ByLayer
370
-1
48
1
60
0
100
AcDbLine
10
136.232378
20
-10.778766
30
0
11
136.234671
21
-10.910152
31
0
39
0
210
0
220
0
230
1
0
LINE
5
63
100
AcDbEntity
8
1
62
256
6
ByLayer
370
-1
48
1
60
0
100
AcDbLine
10
108.645
20
-0.23467
30
0
11
0
21
-0.23467
31
0
39
0
210
0
220
0
230
1
0
LINE
5
64
100
AcDbEntity
8
1
62
256
6
ByLayer
370
-1
48
1
60
0
100
AcDbLine
10
136.232378
20
-10.778766
30
0
11
136.361131
21
-10.992672
31
0
39
0
210
0
220
0
230
1
0
LINE
5
65
100
AcDbEntity
8
1
62
256
6
ByLayer
370
-1
48
1
60
0
100
AcDbLine
10
138.882763
20
-11.359731
30
0
11
138.421715
21
-11.636271
31
0
39
0
210
0
220
0
230
1
0
LINE
5
66
100
AcDbEntity
8
1
62
256
6
ByLayer
370
-1
48
1
60
0
100
AcDbLine
10
138.767639
20
-11.296022
30
0
11
138.419422
21
-11.504886
31
0
39
0
210
0
220
0
230
1
0
LINE
5
67
100
AcDbEntity
8
1
62
256
6
ByLayer
370
-1
48
1
60
0
100
AcDbLine
10
0
20
0.23467
30
0
11
108.645
21
0.23467
31
0
39
0
210
0
220
0
230
1
0
LINE
5
68
100
AcDbEntity
8
1
62
256
6
ByLayer
370
-1
48
1
60
0
100
AcDbLine
10
108.645
20
0.325215
30
0
11
108.645
21
0.23467
31
0
39
0
210
0
220
0
230
1
0
LINE
5
69
100
AcDbEntity
8
1
62
256
6
ByLayer
370
-1
48
1
60
0
100
AcDbLine
10
145.543567
20
-15.045143
30
0
11
145.563878
21
-16.208744
31
0
39
0
210
0
220
0
230
1
0
LINE
5
6A
100
AcDbEntity
8
1
62
256
6
ByLayer
370
-1
48
1
60
0
100
AcDbLine
10
108.645
20
-0.23467
30
0
11
108.645
21
-0.325215
31
0
39
0
210
0
220
0
230
1
0
LINE
5
6B
100
AcDbEntity
8
1
62
256
6
ByLayer
370
-1
48
1
60
0
100
AcDbLine
10
136.361131
20
-10.992672
30
0
11
136.363424
21
-11.124057
31
0
39
0
210
0
220
0
230
1
0
LINE
5
6C
100
AcDbEntity
8
1
62
256
6
ByLayer
370
-1
48
1
60
0
100
AcDbLine
10
149.091117
20
0.849706
30
0
11
149.091117
21
-1.358925
31
0
39
0
210
0
220
0
230
1
0
LINE
5
6D
100
AcDbEntity
8
1
62
256
6
ByLayer
370
-1
48
1
60
0
100
AcDbLine
10
138.500295
20
-11.845112
30
0
11
139.104749
21
-11.482556
31
0
39
0
210
0
220
0
230
1
0
LINE
5
6E
100
AcDbEntity
8
1
62
256
6
ByLayer
370
-1
48
1
60
0
100
AcDbLine
10
129.532352
20
12.035932
30
0
11
138.140326
21
7.112782
31
0
39
0
210
0
220
0
230
1
0
LINE
5
6F
100
AcDbEntity
8
1
62
256
6
ByLayer
370
-1
48
1
60
0
100
AcDbLine
10
128.64882
20
12.54125
30
0
11
129.532352
21
12.035932
31
0
39
0
210
0
220
0
230
1
0
LINE
5
70
100
AcDbEntity
8
1
62
256
6
ByLayer
370
-1
48
1
60
0
100
AcDbLine
10
145.712435
20
-16.1335
30
0
11
145.6949
21
-15.128885
31
0
39
0
210
0
220
0
230
1
0
LINE
5
71
100
AcDbEntity
8
1
62
256
6
ByLayer
370
-1
48
1
60
0
100
AcDbLine
10
0
20
-0.23467
30
0
11
0
21
0.23467
31
0
39
0
210
0
220
0
230
1
0
LINE
5
72
100
AcDbEntity
8
1
62
256
6
ByLayer
370
-1
48
1
60
0
100
AcDbLine
10
136.236385
20
-11.281729
30
0
11
136.107632
21
-11.067824
31
0
39
0
210
0
220
0
230
1
0
LINE
5
73
100
AcDbEntity
8
1
62
256
6
ByLayer
370
-1
48
1
60
0
100
AcDbLine
10
136.179618
20
-10.810261
30
0
11
136.177325
21
-10.678875
31
0
39
0
210
0
220
0
230
1
0
LINE
5
74
100
AcDbEntity
8
1
62
256
6
ByLayer
370
-1
48
1
60
0
100
AcDbLine
10
108.645
20
-0.325215
30
0
11
115.938356
21
-0.325215
31
0
39
0
210
0
220
0
230
1
0
LINE
5
75
100
AcDbEntity
8
1
62
256
6
ByLayer
370
-1
48
1
60
0
100
AcDbLine
10
116.133364
20
0.325215
30
0
11
108.645
21
0.325215
31
0
39
0
210
0
220
0
230
1
0
LINE
5
76
100
AcDbEntity
8
1
62
256
6
ByLayer
370
-1
48
1
60
0
100
AcDbLine
10
108.645
20
0.325215
30
0
11
108.645
21
12.54125
31
0
39
0
210
0
220
0
230
1
0
LINE
5
77
100
AcDbEntity
8
1
62
256
6
ByLayer
370
-1
48
1
60
0
100
AcDbLine
10
108.645
20
-12.54125
30
0
11
108.645
21
-0.325215
31
0
39
0
210
0
220
0
230
1
0
LINE
5
78
100
AcDbEntity
8
1
62
256
6
ByLayer
370
-1
48
1
60
0
100
AcDbLine
10
0
20
-12.49125
30
0
11
0
21
-0.23467
31
0
39
0
210
0
220
0
230
1
0
LINE
5
79
100
AcDbEntity
8
1
62
256
6
ByLayer
370
-1
48
1
60
0
100
AcDbLine
10
0
20
0.23467
30
0
11
0
21
12.49125
31
0
39
0
210
0
220
0
230
1
0
LINE
5
7A
100
AcDbEntity
8
1
62
256
6
ByLayer
370
-1
48
1
60
0
100
AcDbLine
10
138.419422
20
-11.504886
30
0
11
138.421715
21
-11.636271
31
0
39
0
210
0
220
0
230
1
0
LINE
5
7B
100
AcDbEntity
8
1
62
256
6
ByLayer
370
-1
48
1
60
0
100
AcDbLine
10
149.091117
20
-1.358925
30
0
11
149.091117
21
-1.451954
31
0
39
0
210
0
220
0
230
1
0
LINE
5
7C
100
AcDbEntity
8
1
62
256
6
ByLayer
370
-1
48
1
60
0
100
AcDbLine
10
132.434456
20
-14.144176
30
0
11
138.140326
21
7.112782
31
0
39
0
210
0
220
0
230
1
0
LINE
5
7D
100
AcDbEntity
8
1
62
256
6
ByLayer
370
-1
48
1
60
0
100
AcDbLine
10
136.234671
20
-10.910152
30
0
11
136.363424
21
-11.124057
31
0
39
0
210
0
220
0
230
1
0
LINE
5
7E
100
AcDbEntity
8
1
62
256
6
ByLayer
370
-1
48
1
60
0
100
AcDbLine
10
136.236385
20
-11.281729
30
0
11
136.363424
21
-11.124057
31
0
39
0
210
0
220
0
230
1
0
LINE
5
7F
100
AcDbEntity
8
1
62
256
6
ByLayer
370
-1
48
1
60
0
100
AcDbLine
10
138.500295
20
-11.845112
30
0
11
138.421715
21
-11.636271
31
0
39
0
210
0
220
0
230
1
0
LINE
5
80
100
AcDbEntity
8
SK1
62
256
6
ByLayer
370
-1
48
1
60
0
100
AcDbLine
10
-120.855
20
12.49125
30
0
11
-120.855
21
-12.49125
31
0
39
0
210
0
220
0
230
1
0
LINE
5
81
100
AcDbEntity
8
SK1
62
256
6
ByLayer
370
-1
48
1
60
0
100
AcDbLine
10
-50.105
20
0.23467
30
0
11
-50.105
21
-0.23467
31
0
39
0
210
0
220
0
230
1
0
LINE
5
82
100
AcDbEntity
8
SK1
62
256
6
ByLayer
370
-1
48
1
60
0
100
AcDbLine
10
0
20
-0.23467
30
0
11
0
21
0.23467
31
0
39
0
210
0
220
0
230
1
0
LINE
5
83
100
AcDbEntity
8
SK1
62
256
6
ByLayer
370
-1
48
1
60
0
100
AcDbLine
10
0
20
-0.23467
30
0
11
-50.105
21
-0.23467
31
0
39
0
210
0
220
0
230
1
0
LINE
5
84
100
AcDbEntity
8
SK1
62
256
6
ByLayer
370
-1
48
1
60
0
100
AcDbLine
10
-121.355
20
11.99125
30
0
11
-121.355
21
-11.99125
31
0
39
0
210
0
220
0
230
1
0
LINE
5
85
100
AcDbEntity
8
SK1
62
256
6
ByLayer
370
-1
48
1
60
0
100
AcDbLine
10
-50.105
20
0.23467
30
0
11
0
21
0.23467
31
0
39
0
210
0
220
0
230
1
0
LINE
5
86
100
AcDbEntity
8
SK1
62
256
6
ByLayer
370
-1
48
1
60
0
100
AcDbLine
10
0
20
-12.49125
30
0
11
0
21
-0.23467
31
0
39
0
210
0
220
0
230
1
0
LINE
5
87
100
AcDbEntity
8
SK1
62
256
6
ByLayer
370
-1
48
1
60
0
100
AcDbLine
10
0
20
0.23467
30
0
11
0
21
12.49125
31
0
39
0
210
0
220
0
230
1
0
LINE
5
88
100
AcDbEntity
8
1
62
256
6
ByLayer
370
-1
48
1
60
0
100
AcDbLine
10
149.655377
20
-2.372729
30
0
11
149.894872
21
-16.093382
31
0
39
0
210
0
220
0
230
1
0
LINE
5
89
100
AcDbEntity
8
1
62
256
6
ByLayer
370
-1
48
1
60
0
100
AcDbLine
10
136.66864
20
-8.775329
30
0
11
148.452579
21
-1.707223
31
0
39
0
210
0
220
0
230
1
0
LINE
5
8A
100
AcDbEntity
8
1
62
256
6
ByLayer
370
-1
48
1
60
0
100
AcDbLine
10
148.716033
20
-16.800459
30
0
11
136.692598
21
-10.147913
31
0
39
0
210
0
220
0
230
1
0
LINE
5
8B
100
AcDbEntity
8
1
62
256
6
ByLayer
370
-1
48
1
60
0
100
AcDbLine
10
143.938258
20
-9.834934
30
0
11
143.937055
21
-9.766038
31
0
39
0
210
0
220
0
230
1
0
LINE
5
8C
100
AcDbEntity
8
1
62
256
6
ByLayer
370
-1
48
1
60
0
100
AcDbLine
10
143.558305
20
-9.521943
30
0
11
143.559675
21
-9.600435
31
0
39
0
210
0
220
0
230
1
0
LINE
5
8D
100
AcDbEntity
8
1
62
256
6
ByLayer
370
-1
48
1
60
0
100
AcDbLine
10
146.476475
20
-9.478282
30
0
11
146.477847
21
-9.556878
31
0
39
0
210
0
220
0
230
1
0
LINE
5
8E
100
AcDbEntity
8
1
62
256
6
ByLayer
370
-1
48
1
60
0
100
AcDbLine
10
145.962423
20
-8.079933
30
0
11
145.963793
21
-8.158425
31
0
39
0
210
0
220
0
230
1
0
LINE
5
8F
100
AcDbEntity
8
1
62
256
6
ByLayer
370
-1
48
1
60
0
100
AcDbLine
10
144.553807
20
-10.631515
30
0
11
144.555179
21
-10.71011
31
0
39
0
210
0
220
0
230
1
0
LINE
5
90
100
AcDbEntity
8
1
62
256
6
ByLayer
370
-1
48
1
60
0
100
AcDbLine
10
144.017695
20
-8.113363
30
0
11
144.019067
21
-8.191959
31
0
39
0
210
0
220
0
230
1
0
LINE
5
91
100
AcDbEntity
8
1
62
256
6
ByLayer
370
-1
48
1
60
0
100
AcDbLine
10
145.522419
20
-10.613258
30
0
11
145.523791
21
-10.691854
31
0
39
0
210
0
220
0
230
1
0
LINE
5
92
100
AcDbEntity
8
1
62
256
6
ByLayer
370
-1
48
1
60
0
100
AcDbLine
10
144.022776
20
-9.90845
30
0
11
144.023978
21
-9.977347
31
0
39
0
210
0
220
0
230
1
0
LINE
5
93
100
AcDbEntity
8
2
62
256
6
ByLayer
370
-1
48
1
60
1
100
AcDbLine
10
149.895
20
0
30
0
11
149.896
21
0.001
31
0
39
0
210
0
220
0
230
1
0
MTEXT
5
E1
100
AcDbEntity
8
SK6
62
256
6
ByLayer
370
-1
48
1
60
0
100
AcDbMText
10
17.645
20
19.230496
30
0
210
0
220
0
230
1
1
\W00.756;\fsimplex.shx,bigfont.shx;E25T-STFCL 16-R 
40
3.5
41
0
44
1.084337
50
0
71
7
72
5
7
DEFAULT
0
DIMENSION
5
114
100
AcDbEntity
8
2
62
256
6
ByLayer
370
-3
48
1
60
0
100
AcDbDimension
2
DimnDraft3D1
10
162.145
20
0
30
0
11
162.145
21
-13.050658
31
0
70
32
71
5
72
1
41
1
210
0
220
0
230
1
3
Standard
100
AcDbAlignedDimension
13
151.895
23
-16.9
33
0
14
151.895
24
0
34
0
50
90
100
AcDbRotatedDimension
1001
ACAD
1000
DSTYLE
1002
{
1070
    74
1070
     0
1070
   279
1070
     0
1070
   172
1070
     1
1070
   173
1070
     1
1070
   340
1005
E2
1070
    77
1070
     1
1070
    73
1070
     0
1070
   171
1070
     4
1070
   274
1070
     4
1070
   177
1070
     2
1070
   176
1070
     2
1070
   178
1070
     7
1070
    78
1070
     8
1070
    41
1041
3.175
1070
   147
1041
2.25
1070
    42
1041
2.0
1070
    44
1041
2.0
1070
   140
1041
4.5
1070
   343
1005
115
1070
   344
1005
115
1002
}
0
DIMENSION
5
12A
100
AcDbEntity
8
SK2
62
256
6
ByLayer
370
-3
48
1
60
0
100
AcDbDimension
2
DimnDraft3D2
10
-131.105
20
12.49125
30
0
11
-131.105
21
-4.784211
31
0
70
32
71
5
72
1
41
1
210
0
220
0
230
1
3
Standard
100
AcDbAlignedDimension
13
-123.355
23
-12.49125
33
0
14
-123.355
24
12.49125
34
0
50
90
100
AcDbRotatedDimension
1001
ACAD
1000
DSTYLE
1002
{
1070
    74
1070
     0
1070
   279
1070
     0
1070
   172
1070
     1
1070
   173
1070
     1
1070
   340
1005
E2
1070
    77
1070
     1
1070
    73
1070
     0
1070
   171
1070
     4
1070
   274
1070
     4
1070
   177
1070
     2
1070
   176
1070
     2
1070
   178
1070
     7
1070
    78
1070
     8
1070
    41
1041
3.175
1070
   147
1041
2.25
1070
    42
1041
2.0
1070
    44
1041
2.0
1070
   140
1041
4.5
1070
   343
1005
115
1070
   344
1005
115
1002
}
0
DIMENSION
5
138
100
AcDbEntity
8
SK2
62
256
6
ByLayer
370
-3
48
1
60
0
100
AcDbDimension
2
DimnDraft3D3
10
149.895
20
-34.15
30
0
11
7.454868
21
-34.15
31
0
70
32
71
5
72
1
41
1
210
0
220
0
230
1
3
Standard
100
AcDbAlignedDimension
13
-121.355
23
-14.49125
33
0
14
149.895
24
-18.9
34
0
50
0
100
AcDbRotatedDimension
1001
ACAD
1000
DSTYLE
1002
{
1070
   279
1070
     0
1070
   172
1070
     1
1070
   173
1070
     1
1070
   340
1005
E2
1070
    77
1070
     1
1070
    73
1070
     0
1070
   171
1070
     4
1070
   274
1070
     4
1070
   177
1070
     2
1070
   176
1070
     2
1070
   178
1070
     7
1070
    78
1070
     8
1070
    41
1041
3.175
1070
   147
1041
2.25
1070
    42
1041
2.0
1070
    44
1041
2.0
1070
   140
1041
4.5
1070
   343
1005
115
1070
   344
1005
115
1002
}
0
DIMENSION
5
146
100
AcDbEntity
8
2
62
256
6
ByLayer
370
-3
48
1
60
0
100
AcDbDimension
2
DimnDraft3D4
10
189.526416
20
0
30
0
11
173.617072
21
32.727109
31
0
70
34
71
5
72
1
41
1
210
0
220
0
230
1
3
Standard
100
AcDb2LineAngularDimension
13
149.580857
23
1.097259
33
0
14
148.903198
24
39.920326
34
0
15
151.895
25
0
35
0
16
179.337071
26
30.260654
36
0
40
0
0
ENDSEC
0
SECTION
2
OBJECTS
0
DICTIONARY
5
177
330
0
100
AcDbDictionary
280
0
281
1
3
ACAD_GROUP
350
178
3
ACAD_MLINESTYLE
350
179
0
DICTIONARY
5
178
330
0
100
AcDbDictionary
280
0
281
1
0
DICTIONARY
5
179
330
0
100
AcDbDictionary
280
0
281
1
3
Standard
350
18
0
MLINESTYLE
5
18
330
179
100
AcDbMlineStyle
2
Standard
70
0
3

62
256
51
90
52
90
71
2
49
-0.5
62
256
6
ByLayer
49
0.5
62
256
6
ByLayer
0
RASTERVARIABLES
5
165
330

100
AcDbRasterVariables
90
0
70
1
71
1
72
1
0
ENDSEC
0
EOF
