0
SECTION
2
HEADER
9
$ACADVER
1
AC1015
9
$DWGCODEPAGE
3
ANSI_1252
9
$HANDSEED
5
179
9
$ANGBASE
50
0
9
$ANGDIR
70
0
9
$ATTMODE
70
1
9
$AUNITS
70
0
9
$AUPREC
70
0
9
$CECOLOR
62
256
9
$CELTSCALE
40
1
9
$CELTYPE
6
ByLayer
9
$CELWEIGHT
370
-1
9
$CLAYER
8
0
9
$CMLJUST
70
0
9
$CMLSCALE
40
1
9
$CMLSTYLE
2
Standard
9
$DIMSTYLE
2
Standard
9
$TEXTSIZE
40
0.2
9
$TEXTSTYLE
7
Standard
9
$LUNITS
70
2
9
$LUPREC
70
4
9
$EXTNAMES
290
1
9
$INSUNITS
70
4
9
$LTSCALE
40
1
9
$LWDISPLAY
290
0
9
$PDMODE
70
0
9
$PDSIZE
40
0
9
$PLINEGEN
70
0
0
ENDSEC
0
SECTION
2
CLASSES
0
CLASS
1
RASTERVARIABLES
2
AcDbRasterVariables
3
ISM
90
0
280
0
281
0
0
ENDSEC
0
SECTION
2
TABLES
0
TABLE
2
VPORT
5
16f
100
AcDbSymbolTable
0
VPORT
5
1
100
AcDbSymbolTableRecord
100
AcDbViewportTableRecord
2
*Active
70
0
10
0
20
0
11
1
21
1
12
-1
22
1
13
0
23
0
14
0.5
24
0.5
15
10
25
10
16
0
26
0
36
1
17
0
27
0
37
0
0
ENDTAB
0
TABLE
2
LTYPE
5
170
100
AcDbSymbolTable
0
LTYPE
5
14
100
AcDbSymbolTableRecord
100
AcDbLinetypeTableRecord
70
0
2
ByBlock
3

72
65
73
0
40
0
0
LTYPE
5
15
100
AcDbSymbolTableRecord
100
AcDbLinetypeTableRecord
70
0
2
ByLayer
3

72
65
73
0
40
0
0
LTYPE
5
16
100
AcDbSymbolTableRecord
100
AcDbLinetypeTableRecord
70
0
2
CONTINUOUS
3
Solid line
72
65
73
0
40
0
0
LTYPE
5
3B
100
AcDbSymbolTableRecord
100
AcDbLinetypeTableRecord
70
0
2
DASHED
3
__ __ __ __ __ __ __ __ __
72
65
73
2
40
25.72
49
12.86
74
0
49
-12.86
74
0
0
LTYPE
5
3C
100
AcDbSymbolTableRecord
100
AcDbLinetypeTableRecord
70
0
2
HIDDEN
3
_ _ _ _ _ _ _ _ _ _ _ _ _ _ _
72
65
73
2
40
0.5
49
0.25
74
0
49
-0.25
74
0
0
LTYPE
5
3D
100
AcDbSymbolTableRecord
100
AcDbLinetypeTableRecord
70
0
2
PHANTOM
3
____ _ _ ____ _ _ _____ _ _ ____
72
65
73
6
40
50.5
49
18
74
0
49
-6.5
74
0
49
6.5
74
0
49
-6.5
74
0
49
6.5
74
0
49
-6.5
74
0
0
LTYPE
5
3E
100
AcDbSymbolTableRecord
100
AcDbLinetypeTableRecord
70
0
2
CENTER
3
____ _ ____ _ ____ _ ____
72
65
73
4
40
47.5
49
22
74
0
49
-8.5
74
0
49
8.5
74
0
49
-8.5
74
0
0
LTYPE
5
3F
100
AcDbSymbolTableRecord
100
AcDbLinetypeTableRecord
70
0
2
DOT
3
.........................
72
65
73
2
40
10
49
0
74
0
49
-10
74
0
0
LTYPE
5
40
100
AcDbSymbolTableRecord
100
AcDbLinetypeTableRecord
70
0
2
DASHDOT
3
_._._._._._._._._._._._._._._._.
72
65
73
4
40
70
49
31
74
0
49
-13
74
0
49
13
74
0
49
-13
74
0
0
ENDTAB
0
TABLE
2
LAYER
5
171
100
AcDbSymbolTable
0
LAYER
5
10
100
AcDbSymbolTableRecord
100
AcDbLayerTableRecord
2
0
70
0
62
7
6
CONTINUOUS
290
1
370
-3
390
0
0
LAYER
5
42
100
AcDbSymbolTableRecord
100
AcDbLayerTableRecord
2
80
70
0
62
-6
6
CONTINUOUS
290
1
370
-3
390
0
0
LAYER
5
44
100
AcDbSymbolTableRecord
100
AcDbLayerTableRecord
2
81
70
0
62
-3
6
CONTINUOUS
290
1
370
-3
390
0
0
LAYER
5
46
100
AcDbSymbolTableRecord
100
AcDbLayerTableRecord
2
1
70
0
62
4
6
CONTINUOUS
290
1
370
-3
390
0
0
LAYER
5
48
100
AcDbSymbolTableRecord
100
AcDbLayerTableRecord
2
2
70
0
62
7
6
CONTINUOUS
290
1
370
-3
390
0
0
LAYER
5
5E
100
AcDbSymbolTableRecord
100
AcDbLayerTableRecord
2
4
70
0
62
-2
6
CENTER
290
1
370
-3
390
0
0
LAYER
5
15b
100
AcDbSymbolTableRecord
100
AcDbLayerTableRecord
2
SK1
70
0
62
4
6
CONTINUOUS
290
1
370
-3
390
0
0
LAYER
5
15c
100
AcDbSymbolTableRecord
100
AcDbLayerTableRecord
2
SK4
70
0
62
2
6
CENTER
290
1
370
-3
390
0
0
LAYER
5
15d
100
AcDbSymbolTableRecord
100
AcDbLayerTableRecord
2
SK6
70
0
62
5
6
CONTINUOUS
290
1
370
-3
390
0
0
LAYER
5
15e
100
AcDbSymbolTableRecord
100
AcDbLayerTableRecord
2
SK2
70
0
62
7
6
CONTINUOUS
290
1
370
-3
390
0
0
ENDTAB
0
TABLE
2
STYLE
5
172
100
AcDbSymbolTable
0
STYLE
5
11
100
AcDbSymbolTableRecord
100
AcDbTextStyleTableRecord
2
Standard
3
txt
70
0
71
0
40
0
41
1
42
0
50
0
0
STYLE
5
D7
100
AcDbSymbolTableRecord
100
AcDbTextStyleTableRecord
2
DEFAULT
3
simplex.shx
70
0
71
0
40
0
41
1
42
0
50
0
0
STYLE
5
FA
100
AcDbSymbolTableRecord
100
AcDbTextStyleTableRecord
2
DWGDirectTextStyle
3
SIMPLEX
70
0
71
0
40
0
41
1
42
0
50
0
0
ENDTAB
0
TABLE
2
DIMSTYLE
5
173
100
AcDbSymbolTable
100
AcDbDimStyleTable
0
DIMSTYLE
105
27
100
AcDbSymbolTableRecord
100
AcDbDimStyleTableRecord
2
Standard
70
0
3
<>
41
0.18
42
0.0625
44
0.18
140
0.18
147
0.09
73
0
74
0
77
1
271
2
275
0
278
52
280
0
340
11
0
ENDTAB
0
TABLE
2
VIEW
5
174
100
AcDbSymbolTable
0
ENDTAB
0
TABLE
2
UCS
5
175
100
AcDbSymbolTable
0
ENDTAB
0
TABLE
2
APPID
5
176
100
AcDbSymbolTable
0
APPID
5
12
100
AcDbSymbolTableRecord
100
AcDbRegAppTableRecord
2
ACAD
70
0
0
ENDTAB
0
TABLE
2
BLOCK_RECORD
5
177
100
AcDbSymbolTable
0
BLOCK_RECORD
5
1F
100
AcDbSymbolTableRecord
100
AcDbBlockTableRecord
2
*Model_Space
340
0
70
0
0
BLOCK_RECORD
5
1B
100
AcDbSymbolTableRecord
100
AcDbBlockTableRecord
2
*Paper_Space
340
0
70
0
0
BLOCK_RECORD
5
23
100
AcDbSymbolTableRecord
100
AcDbBlockTableRecord
2
*Paper_Space0
340
0
70
0
0
BLOCK_RECORD
5
FC
100
AcDbSymbolTableRecord
100
AcDbBlockTableRecord
2
DimnDraft3D1
340
0
70
0
0
BLOCK_RECORD
5
10A
100
AcDbSymbolTableRecord
100
AcDbBlockTableRecord
2
_CLOSED
340
0
70
0
0
BLOCK_RECORD
5
111
100
AcDbSymbolTableRecord
100
AcDbBlockTableRecord
2
DimnDraft3D2
340
0
70
0
0
BLOCK_RECORD
5
120
100
AcDbSymbolTableRecord
100
AcDbBlockTableRecord
2
DimnDraft3D3
340
0
70
0
0
BLOCK_RECORD
5
12E
100
AcDbSymbolTableRecord
100
AcDbBlockTableRecord
2
DimnDraft3D4
340
0
70
0
0
ENDTAB
0
ENDSEC
0
SECTION
2
BLOCKS
0
BLOCK
5
20
100
AcDbEntity
8
0
100
AcDbBlockBegin
2
*Model_Space
70
0
10
0
20
0
30
0
3
*Model_Space
0
ENDBLK
5
21
100
AcDbEntity
8
0
100
AcDbBlockEnd
0
BLOCK
5
1C
100
AcDbEntity
8
0
100
AcDbBlockBegin
2
*Paper_Space
70
0
10
0
20
0
30
0
3
*Paper_Space
0
ENDBLK
5
1D
100
AcDbEntity
8
0
100
AcDbBlockEnd
0
BLOCK
5
24
100
AcDbEntity
8
0
100
AcDbBlockBegin
2
*Paper_Space0
70
0
10
0
20
0
30
0
3
*Paper_Space0
0
ENDBLK
5
25
100
AcDbEntity
8
0
100
AcDbBlockEnd
0
BLOCK
5
107
100
AcDbEntity
8
0
100
AcDbBlockBegin
2
DimnDraft3D1
70
0
10
0
20
0
30
0
3
DimnDraft3D1
0
MTEXT
5
FD
100
AcDbEntity
8
2
62
256
6
ByLayer
370
-1
48
1
60
0
100
AcDbMText
10
131.02
20
-31.231316
30
0
210
0
220
0
230
1
1
\W01.000;\fsimplex.shx,bigfont.shx;13.0 
40
4.5
41
0
44
1.084337
50
90
71
7
72
5
7
DEFAULT
0
LINE
5
FE
100
AcDbEntity
8
2
62
256
6
ByLayer
370
-1
48
1
60
0
100
AcDbLine
10
121.895
20
-12.9
30
0
11
134.145
21
-12.9
31
0
39
0
210
0
220
0
230
1
0
LINE
5
FF
100
AcDbEntity
8
2
62
256
6
ByLayer
370
-1
48
1
60
0
100
AcDbLine
10
121.895
20
0
30
0
11
134.145
21
0
31
0
39
0
210
0
220
0
230
1
0
LINE
5
100
100
AcDbEntity
8
2
62
256
6
ByLayer
370
-1
48
1
60
0
100
AcDbLine
10
132.145
20
0
30
0
11
132.145
21
-32.356316
31
0
39
0
210
0
220
0
230
1
0
LINE
5
101
100
AcDbEntity
8
2
62
256
6
ByLayer
370
-1
48
1
60
0
100
AcDbLine
10
132.145
20
-12.9
30
0
11
131.727003
21
-9.725002
31
0
39
0
210
0
220
0
230
1
0
LINE
5
102
100
AcDbEntity
8
2
62
256
6
ByLayer
370
-1
48
1
60
0
100
AcDbLine
10
132.145
20
-12.9
30
0
11
132.562997
21
-9.724998
31
0
39
0
210
0
220
0
230
1
0
LINE
5
103
100
AcDbEntity
8
2
62
256
6
ByLayer
370
-1
48
1
60
0
100
AcDbLine
10
131.727003
20
-9.725002
30
0
11
132.562997
21
-9.724998
31
0
39
0
210
0
220
0
230
1
0
LINE
5
104
100
AcDbEntity
8
2
62
256
6
ByLayer
370
-1
48
1
60
0
100
AcDbLine
10
132.145
20
0
30
0
11
132.562997
21
-3.174998
31
0
39
0
210
0
220
0
230
1
0
LINE
5
105
100
AcDbEntity
8
2
62
256
6
ByLayer
370
-1
48
1
60
0
100
AcDbLine
10
132.145
20
0
30
0
11
131.727003
21
-3.175002
31
0
39
0
210
0
220
0
230
1
0
LINE
5
106
100
AcDbEntity
8
2
62
256
6
ByLayer
370
-1
48
1
60
0
100
AcDbLine
10
132.562997
20
-3.174998
30
0
11
131.727003
21
-3.175002
31
0
39
0
210
0
220
0
230
1
0
ENDBLK
5
108
100
AcDbEntity
8
0
100
AcDbBlockEnd
0
BLOCK
5
10B
100
AcDbEntity
8
0
100
AcDbBlockBegin
2
_CLOSED
70
0
10
0
20
0
30
0
3
_CLOSED
0
LINE
5
10D
100
AcDbEntity
8
0
62
256
6
ByLayer
370
-2
48
1
60
0
100
AcDbLine
10
-1
20
0.166667
30
0
11
0
21
0
31
0
39
0
210
0
220
0
230
1
0
LINE
5
10E
100
AcDbEntity
8
0
62
256
6
ByLayer
370
-2
48
1
60
0
100
AcDbLine
10
0
20
0
30
0
11
-1
21
-0.166667
31
0
39
0
210
0
220
0
230
1
0
LINE
5
10F
100
AcDbEntity
8
0
62
256
6
ByLayer
370
-2
48
1
60
0
100
AcDbLine
10
-1
20
0.166667
30
0
11
-1
21
-0.166667
31
0
39
0
210
0
220
0
230
1
0
LINE
5
110
100
AcDbEntity
8
0
62
256
6
ByLayer
370
-2
48
1
60
0
100
AcDbLine
10
0
20
0
30
0
11
-1
21
0
31
0
39
0
210
0
220
0
230
1
0
ENDBLK
5
10C
100
AcDbEntity
8
0
100
AcDbBlockEnd
0
BLOCK
5
11D
100
AcDbEntity
8
0
100
AcDbBlockBegin
2
DimnDraft3D2
70
0
10
0
20
0
30
0
3
DimnDraft3D2
0
MTEXT
5
112
100
AcDbEntity
8
SK2
62
256
6
ByLayer
370
-1
48
1
60
0
100
AcDbMText
10
-112.23
20
-3.659211
30
0
210
0
220
0
230
1
1
\W01.000;\fsimplex.shx,bigfont.shx;%%c20 
40
4.5
41
0
44
1.084337
50
90
71
7
72
5
7
DEFAULT
0
LINE
5
114
100
AcDbEntity
8
SK2
62
256
6
ByLayer
370
-1
48
1
60
0
100
AcDbLine
10
-103.355
20
-9.99125
30
0
11
-113.105
21
-9.99125
31
0
39
0
210
0
220
0
230
1
0
LINE
5
115
100
AcDbEntity
8
SK2
62
256
6
ByLayer
370
-1
48
1
60
0
100
AcDbLine
10
-103.355
20
9.99125
30
0
11
-113.105
21
9.99125
31
0
39
0
210
0
220
0
230
1
0
LINE
5
116
100
AcDbEntity
8
SK2
62
256
6
ByLayer
370
-1
48
1
60
0
100
AcDbLine
10
-111.105
20
-9.99125
30
0
11
-111.105
21
9.99125
31
0
39
0
210
0
220
0
230
1
0
LINE
5
117
100
AcDbEntity
8
SK2
62
256
6
ByLayer
370
-1
48
1
60
0
100
AcDbLine
10
-111.105
20
-9.99125
30
0
11
-111.522997
21
-6.816252
31
0
39
0
210
0
220
0
230
1
0
LINE
5
118
100
AcDbEntity
8
SK2
62
256
6
ByLayer
370
-1
48
1
60
0
100
AcDbLine
10
-111.105
20
-9.99125
30
0
11
-110.687003
21
-6.816248
31
0
39
0
210
0
220
0
230
1
0
LINE
5
119
100
AcDbEntity
8
SK2
62
256
6
ByLayer
370
-1
48
1
60
0
100
AcDbLine
10
-111.522997
20
-6.816252
30
0
11
-110.687003
21
-6.816248
31
0
39
0
210
0
220
0
230
1
0
LINE
5
11A
100
AcDbEntity
8
SK2
62
256
6
ByLayer
370
-1
48
1
60
0
100
AcDbLine
10
-111.105
20
9.99125
30
0
11
-110.687003
21
6.816252
31
0
39
0
210
0
220
0
230
1
0
LINE
5
11B
100
AcDbEntity
8
SK2
62
256
6
ByLayer
370
-1
48
1
60
0
100
AcDbLine
10
-111.105
20
9.99125
30
0
11
-111.522997
21
6.816248
31
0
39
0
210
0
220
0
230
1
0
LINE
5
11C
100
AcDbEntity
8
SK2
62
256
6
ByLayer
370
-1
48
1
60
0
100
AcDbLine
10
-110.687003
20
6.816252
30
0
11
-111.522997
21
6.816248
31
0
39
0
210
0
220
0
230
1
0
ENDBLK
5
11E
100
AcDbEntity
8
0
100
AcDbBlockEnd
0
BLOCK
5
12B
100
AcDbEntity
8
0
100
AcDbBlockBegin
2
DimnDraft3D3
70
0
10
0
20
0
30
0
3
DimnDraft3D3
0
MTEXT
5
121
100
AcDbEntity
8
SK2
62
256
6
ByLayer
370
-1
48
1
60
0
100
AcDbMText
10
3.579868
20
-29.025
30
0
210
0
220
0
230
1
1
\W01.000;\fsimplex.shx,bigfont.shx;220.0 
40
4.5
41
0
44
1.084337
50
0
71
7
72
5
7
DEFAULT
0
LINE
5
122
100
AcDbEntity
8
SK2
62
256
6
ByLayer
370
-1
48
1
60
0
100
AcDbLine
10
-101.355
20
-11.99125
30
0
11
-101.355
21
-32.15
31
0
39
0
210
0
220
0
230
1
0
LINE
5
123
100
AcDbEntity
8
SK2
62
256
6
ByLayer
370
-1
48
1
60
0
100
AcDbLine
10
119.895
20
-14.9
30
0
11
119.895
21
-32.15
31
0
39
0
210
0
220
0
230
1
0
LINE
5
124
100
AcDbEntity
8
SK2
62
256
6
ByLayer
370
-1
48
1
60
0
100
AcDbLine
10
-101.355
20
-30.15
30
0
11
119.895
21
-30.15
31
0
39
0
210
0
220
0
230
1
0
LINE
5
125
100
AcDbEntity
8
SK2
62
256
6
ByLayer
370
-1
48
1
60
0
100
AcDbLine
10
-101.355
20
-30.15
30
0
11
-98.180002
21
-29.732003
31
0
39
0
210
0
220
0
230
1
0
LINE
5
126
100
AcDbEntity
8
SK2
62
256
6
ByLayer
370
-1
48
1
60
0
100
AcDbLine
10
-101.355
20
-30.15
30
0
11
-98.179998
21
-30.567997
31
0
39
0
210
0
220
0
230
1
0
LINE
5
127
100
AcDbEntity
8
SK2
62
256
6
ByLayer
370
-1
48
1
60
0
100
AcDbLine
10
-98.180002
20
-29.732003
30
0
11
-98.179998
21
-30.567997
31
0
39
0
210
0
220
0
230
1
0
LINE
5
128
100
AcDbEntity
8
SK2
62
256
6
ByLayer
370
-1
48
1
60
0
100
AcDbLine
10
119.895
20
-30.15
30
0
11
116.720002
21
-30.567997
31
0
39
0
210
0
220
0
230
1
0
LINE
5
129
100
AcDbEntity
8
SK2
62
256
6
ByLayer
370
-1
48
1
60
0
100
AcDbLine
10
119.895
20
-30.15
30
0
11
116.719998
21
-29.732003
31
0
39
0
210
0
220
0
230
1
0
LINE
5
12A
100
AcDbEntity
8
SK2
62
256
6
ByLayer
370
-1
48
1
60
0
100
AcDbLine
10
116.720002
20
-30.567997
30
0
11
116.719998
21
-29.732003
31
0
39
0
210
0
220
0
230
1
0
ENDBLK
5
12C
100
AcDbEntity
8
0
100
AcDbBlockEnd
0
BLOCK
5
139
100
AcDbEntity
8
0
100
AcDbBlockBegin
2
DimnDraft3D4
70
0
10
0
20
0
30
0
3
DimnDraft3D4
0
MTEXT
5
12F
100
AcDbEntity
8
2
62
256
6
ByLayer
370
-1
48
1
60
0
100
AcDbMText
10
142.294802
20
31.938034
30
0
210
0
220
0
230
1
1
\W01.000;\fsimplex.shx,bigfont.shx;93%%d0' 
40
4.5
41
0
44
1.084337
50
316.5
71
7
72
5
7
DEFAULT
0
LINE
5
130
100
AcDbEntity
8
2
62
256
6
ByLayer
370
-1
48
1
60
0
100
AcDbLine
10
119.214633
20
0.082184
30
0
11
117.129353
21
39.871689
31
0
39
0
210
0
220
0
230
1
0
LINE
5
131
100
AcDbEntity
8
2
62
256
6
ByLayer
370
-1
48
1
60
0
100
AcDbLine
10
121.895
20
0
30
0
11
159.145346
21
0
31
0
39
0
210
0
220
0
230
1
0
ARC
5
132
100
AcDbEntity
8
2
62
256
6
ByLayer
370
-1
48
1
60
0
100
AcDbCircle
39
0
10
119.21894
20
0
30
0
40
37.9264068640929
210
0
220
0
230
1
100
AcDbArc
50
0
51
93
0
LINE
5
133
100
AcDbEntity
8
2
62
256
6
ByLayer
370
-1
48
1
60
0
100
AcDbLine
10
117.234025
20
37.87443
30
0
11
120.394313
21
38.392036
31
0
39
0
210
0
220
0
230
1
0
LINE
5
134
100
AcDbEntity
8
2
62
256
6
ByLayer
370
-1
48
1
60
0
100
AcDbLine
10
117.234025
20
37.87443
30
0
11
120.420598
21
37.556456
31
0
39
0
210
0
220
0
230
1
0
LINE
5
135
100
AcDbEntity
8
2
62
256
6
ByLayer
370
-1
48
1
60
0
100
AcDbLine
10
120.394313
20
38.392036
30
0
11
120.420598
21
37.556456
31
0
39
0
210
0
220
0
230
1
0
LINE
5
136
100
AcDbEntity
8
2
62
256
6
ByLayer
370
-1
48
1
60
0
100
AcDbLine
10
157.145347
20
0
30
0
11
156.661036
21
3.165562
31
0
39
0
210
0
220
0
230
1
0
LINE
5
137
100
AcDbEntity
8
2
62
256
6
ByLayer
370
-1
48
1
60
0
100
AcDbLine
10
157.145347
20
0
30
0
11
157.496847
21
3.183049
31
0
39
0
210
0
220
0
230
1
0
LINE
5
138
100
AcDbEntity
8
2
62
256
6
ByLayer
370
-1
48
1
60
0
100
AcDbLine
10
156.661036
20
3.165562
30
0
11
157.496847
21
3.183049
31
0
39
0
210
0
220
0
230
1
0
ENDBLK
5
13A
100
AcDbEntity
8
0
100
AcDbBlockEnd
0
ENDSEC
0
SECTION
2
ENTITIES
0
ELLIPSE
5
88
100
AcDbEntity
8
1
62
256
6
ByLayer
370
-1
48
1
60
0
100
AcDbEllipse
10
110.048629
20
-10.199161
30
0
11
-3.19561451121465
21
-0.16747505997745
31
0
210
0
220
0
230
1
40
0.994969
41
-1.63613019964276
42
-0.837758040957279
0
ELLIPSE
5
89
100
AcDbEntity
8
1
62
256
6
ByLayer
370
-1
48
1
60
0
100
AcDbEllipse
10
110.071547
20
3.185205
30
0
11
-1.49794430213186
21
-0.0785039343644293
31
0
210
0
220
0
230
1
40
0.994969
41
2.84374308134316
42
0.770801017561704
0
ELLIPSE
5
8A
100
AcDbEntity
8
1
62
256
6
ByLayer
370
-1
48
1
60
0
100
AcDbEllipse
10
110.052934
20
3.540374
30
0
11
1.49794430213186
21
0.0785039343644126
31
0
210
0
220
0
230
1
40
0.994969
41
-2.267920269073
42
-1.92082517731631
0
ELLIPSE
5
8B
100
AcDbEntity
8
1
62
256
6
ByLayer
370
-1
48
1
60
0
100
AcDbEllipse
10
110.052934
20
3.540374
30
0
11
1.49794430213186
21
0.0785039343644126
31
0
210
0
220
0
230
1
40
0.994969
41
-0.485911676673878
42
-0.400720939201702
0
ELLIPSE
5
8C
100
AcDbEntity
8
1
62
256
6
ByLayer
370
-1
48
1
60
0
100
AcDbEllipse
10
110.049526
20
3.605404
30
0
11
1.49794430213186
21
0.0785039343644126
31
0
210
0
220
0
230
1
40
0.994969
41
-3.00012520838638
42
-1.92079207883178
0
ELLIPSE
5
8D
100
AcDbEntity
8
1
62
256
6
ByLayer
370
-1
48
1
60
0
100
AcDbEllipse
10
110.049526
20
3.605404
30
0
11
1.49794430213186
21
0.0785039343644126
31
0
210
0
220
0
230
1
40
0.994969
41
-0.521801694501416
42
-0.141374506955946
0
ELLIPSE
5
8E
100
AcDbEntity
8
1
62
256
6
ByLayer
370
-1
48
1
60
0
100
AcDbEllipse
10
110.616951
20
1.650226
30
0
11
-1.62277299397618
21
-0.0850459288947983
31
0
210
0
220
0
230
1
40
0.994969
41
0.0682292204782706
42
0.924407849877604
0
ELLIPSE
5
8F
100
AcDbEntity
8
1
62
256
6
ByLayer
370
-1
48
1
60
0
100
AcDbEllipse
10
110.635565
20
1.295057
30
0
11
1.77241514177123
21
0.0928883415478628
31
0
210
0
220
0
230
1
40
0.994969
41
2.62171087556608
42
-2.18166156499292
0
ELLIPSE
5
90
100
AcDbEntity
8
1
62
256
6
ByLayer
370
-1
48
1
60
0
100
AcDbEllipse
10
121.844325
20
-3.2837
30
0
11
-3.19561451121467
21
-0.167475059977451
31
0
210
0
220
0
230
1
40
0.994969
41
-0.616987723654019
42
-0.529363769472437
0
ELLIPSE
5
91
100
AcDbEntity
8
1
62
256
6
ByLayer
370
-1
48
1
60
0
100
AcDbEllipse
10
110.628486
20
1.430128
30
0
11
-1.62277299397618
21
-0.0850459288947983
31
0
210
0
220
0
230
1
40
0.994969
41
-0.498363537933474
42
0.924408013919823
0
ELLIPSE
5
92
100
AcDbEntity
8
1
62
256
6
ByLayer
370
-1
48
1
60
0
100
AcDbEllipse
10
114.740953
20
-4.742793
30
0
11
3.0671162035353
21
0.160740749030311
31
0
210
0
220
0
230
1
40
0.994969
41
0
42
6.28318530717959
0
ELLIPSE
5
93
100
AcDbEntity
8
1
62
256
6
ByLayer
370
-1
48
1
60
0
100
AcDbEllipse
10
110.885467
20
-7.003149
30
0
11
0.792911850595154
21
0.0415547492568969
31
0
210
0
220
0
230
1
40
0.994969
41
3.14159265358977
42
-2.181661564993
0
ELLIPSE
5
94
100
AcDbEntity
8
1
62
256
6
ByLayer
370
-1
48
1
60
0
100
AcDbEllipse
10
114.735605
20
-4.640748
30
0
11
2.99588860426372
21
0.157007868728825
31
0
210
0
220
0
230
1
40
0.994969
41
3.08896863328303
42
-2.9755647988367E-16
0
ELLIPSE
5
95
100
AcDbEntity
8
1
62
256
6
ByLayer
370
-1
48
1
60
0
100
AcDbEllipse
10
114.735605
20
-4.640748
30
0
11
2.99588860426372
21
0.157007868728825
31
0
210
0
220
0
230
1
40
0.994969
41
0
42
0.755452274968182
0
ELLIPSE
5
96
100
AcDbEntity
8
1
62
256
6
ByLayer
370
-1
48
1
60
0
100
AcDbEllipse
10
114.735605
20
-4.640748
30
0
11
2.99588860426372
21
0.157007868728825
31
0
210
0
220
0
230
1
40
0.994969
41
0.767625945888786
42
2.37386321179441
0
ELLIPSE
5
97
100
AcDbEntity
8
1
62
256
6
ByLayer
370
-1
48
1
60
0
100
AcDbEllipse
10
114.735605
20
-4.640748
30
0
11
2.99588860426372
21
0.157007868728825
31
0
210
0
220
0
230
1
40
0.994969
41
2.38613517810508
42
3.08896829826896
0
ELLIPSE
5
98
100
AcDbEntity
8
1
62
256
6
ByLayer
370
-1
48
1
60
0
100
AcDbEllipse
10
118.596439
20
-2.482438
30
0
11
0.792911850595154
21
0.0415547492568969
31
0
210
0
220
0
230
1
40
0.994969
41
0
42
0.95993108859729
0
ELLIPSE
5
99
100
AcDbEntity
8
1
62
256
6
ByLayer
370
-1
48
1
60
0
100
AcDbEllipse
10
114.734801
20
-4.625399
30
0
11
2.94083001014413
21
0.154122370080571
31
0
210
0
220
0
230
1
40
0.994969
41
0
42
6.28318530717959
0
ELLIPSE
5
9A
100
AcDbEntity
8
1
62
256
6
ByLayer
370
-1
48
1
60
0
100
AcDbEllipse
10
119.100986
20
-12.109768
30
0
11
0.792911850595151
21
0.0415547492568967
31
0
210
0
220
0
230
1
40
0.994969
41
-2.18166156499287
42
8.99415052545069E-14
0
ELLIPSE
5
9B
100
AcDbEntity
8
1
62
256
6
ByLayer
370
-1
48
1
60
0
100
AcDbEllipse
10
110.38092
20
2.624181
30
0
11
0.792911850595151
21
0.0415547492568967
31
0
210
0
220
0
230
1
40
0.994969
41
0.959931088597352
42
-3.14159265358933
0
ELLIPSE
5
9C
100
AcDbEntity
8
1
62
256
6
ByLayer
370
-1
48
1
60
0
100
AcDbEllipse
10
114.73259
20
-4.583204
30
0
11
1.20484653368139
21
0.0631433312071091
31
0
210
0
220
0
230
1
40
0.994969
41
-1.61303428425409
42
-0.568627280738805
0
ELLIPSE
5
9D
100
AcDbEntity
8
1
62
256
6
ByLayer
370
-1
48
1
60
0
100
AcDbEllipse
10
114.740061
20
-4.725768
30
0
11
1.67420241501605
21
0.0877412306412919
31
0
210
0
220
0
230
1
40
0.994969
41
-2.13523778601169
42
-1.09083078249646
0
ELLIPSE
5
9E
100
AcDbEntity
8
1
62
256
6
ByLayer
370
-1
48
1
60
0
100
AcDbEllipse
10
114.73259
20
-4.583204
30
0
11
-1.20484653368139
21
-0.0631433312071225
31
0
210
0
220
0
230
1
40
0.994969
41
2.57296537285096
42
-2.8684559890477
0
ELLIPSE
5
9F
100
AcDbEntity
8
1
62
256
6
ByLayer
370
-1
48
1
60
0
100
AcDbEllipse
10
114.73259
20
-4.583204
30
0
11
-1.20484653368139
21
-0.0631433312071225
31
0
210
0
220
0
230
1
40
0.994969
41
-2.54104534506994
42
-1.85610346474774
0
ELLIPSE
5
A0
100
AcDbEntity
8
1
62
256
6
ByLayer
370
-1
48
1
60
0
100
AcDbEllipse
10
116.378168
20
-5.512293
30
0
11
-0.685059860841638
21
-0.0359024659826657
31
0
210
0
220
0
230
1
40
0.994969
41
-1.35261792435968
42
-0.568627280738891
0
ELLIPSE
5
A1
100
AcDbEntity
8
1
62
256
6
ByLayer
370
-1
48
1
60
0
100
AcDbEllipse
10
114.73259
20
-4.583204
30
0
11
-1.20484653368139
21
-0.0631433312071225
31
0
210
0
220
0
230
1
40
0.994969
41
0.54899817771
42
1.52855836933568
0
ELLIPSE
5
A2
100
AcDbEntity
8
1
62
256
6
ByLayer
370
-1
48
1
60
0
100
AcDbEllipse
10
114.740061
20
-4.725768
30
0
11
1.79753316255824
21
0.0942047212372957
31
0
210
0
220
0
230
1
40
0.994969
41
0
42
6.28318530717959
0
ELLIPSE
5
A3
100
AcDbEntity
8
1
62
256
6
ByLayer
370
-1
48
1
60
0
100
AcDbEllipse
10
116.35661
20
-3.63109
30
0
11
-0.685059860841638
21
-0.0359024659826657
31
0
210
0
220
0
230
1
40
0.994969
41
-0.311295790622822
42
6.31314188738589E-06
0
ELLIPSE
5
A4
100
AcDbEntity
8
1
62
256
6
ByLayer
370
-1
48
1
60
0
100
AcDbEllipse
10
114.738638
20
-4.69862
30
0
11
1.20484653368139
21
0.0631433312071092
31
0
210
0
220
0
230
1
40
0.994969
41
-2.73065974270293
42
-2.59259447587975
0
ELLIPSE
5
A5
100
AcDbEntity
8
1
62
256
6
ByLayer
370
-1
48
1
60
0
100
AcDbEllipse
10
113.348131
20
-4.591746
30
0
11
-0.291599824148335
21
-0.0152820992229422
31
0
210
0
220
0
230
1
40
0.994969
41
0.235998002051778
42
1.27122687921963
0
ELLIPSE
5
A6
100
AcDbEntity
8
1
62
256
6
ByLayer
370
-1
48
1
60
0
100
AcDbEllipse
10
116.378168
20
-5.512293
30
0
11
-0.685059860841638
21
-0.0359024659826657
31
0
210
0
220
0
230
1
40
0.994969
41
-0.568627280738891
42
-7.83105899264522E-07
0
ELLIPSE
5
A7
100
AcDbEntity
8
1
62
256
6
ByLayer
370
-1
48
1
60
0
100
AcDbEllipse
10
113.108569
20
-5.535319
30
0
11
-0.685059860841638
21
-0.0359024659826657
31
0
210
0
220
0
230
1
40
0.994969
41
-2.54001306807506
42
-1.87036577437023
0
ELLIPSE
5
A8
100
AcDbEntity
8
1
62
256
6
ByLayer
370
-1
48
1
60
0
100
AcDbEllipse
10
114.73259
20
-4.583204
30
0
11
-1.20484653368139
21
-0.0631433312071225
31
0
210
0
220
0
230
1
40
0.994969
41
-0.344094109427031
42
0.410932910886879
0
ELLIPSE
5
A9
100
AcDbEntity
8
1
62
256
6
ByLayer
370
-1
48
1
60
0
100
AcDbEllipse
10
114.732721
20
-4.585705
30
0
11
2.62140252873077
21
0.137381885137723
31
0
210
0
220
0
230
1
40
0.994969
41
3.08896844184643
42
-3.14149702583306
0
ELLIPSE
5
AA
100
AcDbEntity
8
1
62
256
6
ByLayer
370
-1
48
1
60
0
100
AcDbEllipse
10
114.732721
20
-4.585705
30
0
11
2.62140252873077
21
0.137381885137723
31
0
210
0
220
0
230
1
40
0.994969
41
0
42
3.08896862562914
0
ELLIPSE
5
AB
100
AcDbEntity
8
1
62
256
6
ByLayer
370
-1
48
1
60
0
100
AcDbEllipse
10
114.053886
20
-5.784233
30
0
11
-0.291599824148335
21
-0.0152820992229422
31
0
210
0
220
0
230
1
40
0.994969
41
0.22109991997606
42
2.31254901295652
0
ELLIPSE
5
AC
100
AcDbEntity
8
1
62
256
6
ByLayer
370
-1
48
1
60
0
100
AcDbEllipse
10
113.108569
20
-5.535319
30
0
11
-0.685059860841638
21
-0.0359024659826657
31
0
210
0
220
0
230
1
40
0.994969
41
-3.14158663131312
42
-2.78324115050767
0
ELLIPSE
5
AD
100
AcDbEntity
8
1
62
256
6
ByLayer
370
-1
48
1
60
0
100
AcDbEllipse
10
114.751247
20
-6.466108
30
0
11
-0.685059860841638
21
-0.0359024659826657
31
0
210
0
220
0
230
1
40
0.994969
41
-1.61303428425413
42
-0.829043640633353
0
ELLIPSE
5
AE
100
AcDbEntity
8
1
62
256
6
ByLayer
370
-1
48
1
60
0
100
AcDbEllipse
10
115.434953
20
-5.76996
30
0
11
-0.291599824148335
21
-0.0152820992229422
31
0
210
0
220
0
230
1
40
0.994969
41
0.744567725714955
42
2.87121446419215
0
ELLIPSE
5
AF
100
AcDbEntity
8
1
62
256
6
ByLayer
370
-1
48
1
60
0
100
AcDbEllipse
10
114.740061
20
-4.725768
30
0
11
1.67420241501605
21
0.0877412306412919
31
0
210
0
220
0
230
1
40
0.994969
41
3.09516887460859
42
-2.13523778601169
0
ELLIPSE
5
B0
100
AcDbEntity
8
1
62
256
6
ByLayer
370
-1
48
1
60
0
100
AcDbEllipse
10
114.73259
20
-4.583204
30
0
11
1.20484653368139
21
0.0631433312071091
31
0
210
0
220
0
230
1
40
0.994969
41
-2.7306597427029
42
-2.59259447587977
0
ELLIPSE
5
B1
100
AcDbEntity
8
1
62
256
6
ByLayer
370
-1
48
1
60
0
100
AcDbEllipse
10
116.117048
20
-4.574663
30
0
11
-0.291599824148335
21
-0.0152820992229422
31
0
210
0
220
0
230
1
40
0.994969
41
1.7889747292303
42
2.90701816597931
0
ELLIPSE
5
B2
100
AcDbEntity
8
1
62
256
6
ByLayer
370
-1
48
1
60
0
100
AcDbEllipse
10
114.740061
20
-4.725768
30
0
11
1.67420241501605
21
0.0877412306412919
31
0
210
0
220
0
230
1
40
0.994969
41
1.0063548675781
42
2.05076187109334
0
ELLIPSE
5
B3
100
AcDbEntity
8
1
62
256
6
ByLayer
370
-1
48
1
60
0
100
AcDbEllipse
10
114.73259
20
-4.583204
30
0
11
-1.20484653368139
21
-0.0631433312071225
31
0
210
0
220
0
230
1
40
0.994969
41
-1.35868864990966
42
-0.675825841976369
0
ELLIPSE
5
B4
100
AcDbEntity
8
1
62
256
6
ByLayer
370
-1
48
1
60
0
100
AcDbEllipse
10
114.738638
20
-4.69862
30
0
11
1.20484653368139
21
0.0631433312071092
31
0
210
0
220
0
230
1
40
0.994969
41
0.410932910886321
42
0.548998177710611
0
ELLIPSE
5
B5
100
AcDbEntity
8
1
62
256
6
ByLayer
370
-1
48
1
60
0
100
AcDbEllipse
10
114.740061
20
-4.725768
30
0
11
1.67420241501605
21
0.0877412306412919
31
0
210
0
220
0
230
1
40
0.994969
41
-0.0464237789812519
42
1.0063548675781
0
ELLIPSE
5
B6
100
AcDbEntity
8
1
62
256
6
ByLayer
370
-1
48
1
60
0
100
AcDbEllipse
10
114.740061
20
-4.725768
30
0
11
1.67420241501605
21
0.0877412306412919
31
0
210
0
220
0
230
1
40
0.994969
41
2.05076187109334
42
3.09516887460859
0
ELLIPSE
5
B7
100
AcDbEntity
8
1
62
256
6
ByLayer
370
-1
48
1
60
0
100
AcDbEllipse
10
114.740061
20
-4.725768
30
0
11
1.67420241501605
21
0.0877412306412919
31
0
210
0
220
0
230
1
40
0.994969
41
-1.09083078249646
42
-0.0464237789812519
0
ELLIPSE
5
B8
100
AcDbEntity
8
1
62
256
6
ByLayer
370
-1
48
1
60
0
100
AcDbEllipse
10
114.751247
20
-6.466108
30
0
11
-0.685059860841638
21
-0.0359024659826657
31
0
210
0
220
0
230
1
40
0.994969
41
-2.39702492787495
42
-1.61303428425413
0
ELLIPSE
5
B9
100
AcDbEntity
8
1
62
256
6
ByLayer
370
-1
48
1
60
0
100
AcDbEllipse
10
114.738617
20
-4.698212
30
0
11
2.62140252873077
21
0.137381885137722
31
0
210
0
220
0
230
1
40
0.994969
41
0
42
6.28318530717959
0
POINT
5
41
100
AcDbEntity
8
80
62
256
6
ByLayer
370
-1
48
1
60
0
100
AcDbPoint
10
0
20
0
30
0
39
0
210
0
220
0
230
1
50
360
0
POINT
5
43
100
AcDbEntity
8
81
62
256
6
ByLayer
370
-1
48
1
60
0
100
AcDbPoint
10
119.895
20
-12.9
30
0
39
0
210
0
220
0
230
1
50
360
0
POINT
5
45
100
AcDbEntity
8
1
62
256
6
ByLayer
370
-1
48
1
60
0
100
AcDbPoint
10
-101.355
20
0
30
0
39
0
210
0
220
0
230
1
50
360
0
POINT
5
47
100
AcDbEntity
8
2
62
256
6
ByLayer
370
-1
48
1
60
0
100
AcDbPoint
10
119.895
20
12.9
30
0
39
0
210
0
220
0
230
1
50
360
0
POINT
5
49
100
AcDbEntity
8
2
62
256
6
ByLayer
370
-1
48
1
60
0
100
AcDbPoint
10
119.672612
20
11.715065
30
0
39
0
210
0
220
0
230
1
50
360
0
SPLINE
5
BA
100
AcDbEntity
8
1
62
256
6
ByLayer
370
-1
48
1
60
0
100
AcDbSpline
70
4
71
3
72
12
73
8
40
0
40
0
40
0
40
0
40
0.277533070039007
40
0.277533070039007
40
0.555066140078017
40
0.555066140078017
40
1
40
1
40
1
40
1
41
1
10
104.532681365649
20
-10.0411069104589
30
0
41
1
10
104.639125114942
20
-10.0411039175227
30
0
41
1
10
104.745568864234
20
-10.0411008776594
30
0
41
1
10
104.958456362815
20
-10.0410947040828
30
0
41
1
10
105.064900112104
20
-10.0410915703696
30
0
41
1
10
105.341991734917
20
-10.0410832906202
30
0
41
1
10
105.51263960844
20
-10.0410780709075
30
0
41
1
10
105.683287481958
20
-10.0410727306047
30
0
0
SPLINE
5
BB
100
AcDbEntity
8
1
62
256
6
ByLayer
370
-1
48
1
60
0
100
AcDbSpline
70
4
71
3
72
14
73
10
40
0
40
0
40
0
40
0
40
0.25
40
0.25
40
0.5
40
0.5
40
0.75
40
0.75
40
1
40
1
40
1
40
1
41
1
10
104.532681365647
20
-10.041106910459
30
0
41
1
10
102.565944753325
20
-10.0411622102503
30
0
41
1
10
100.628517724242
20
-10.0613422684698
30
0
41
1
10
96.9790717352498
20
-9.92016826335512
30
0
41
1
10
95.2766433879065
20
-9.76331279448158
30
0
41
1
10
92.7220658711692
20
-8.53182189006438
30
0
41
1
10
91.9970580791311
20
-7.35810729112958
30
0
41
1
10
91.7529414690361
20
-4.14721069754629
30
0
41
1
10
92.1233364382351
20
-2.19432120655321
30
0
41
1
10
92.6841738090555
20
-0.323659047675875
30
0
0
SPLINE
5
BC
100
AcDbEntity
8
1
62
256
6
ByLayer
370
-1
48
1
60
0
100
AcDbSpline
70
4
71
3
72
8
73
4
40
0
40
0
40
0
40
0
40
1
40
1
40
1
40
1
41
1
10
109.162651028918
20
2.12719127040612
30
0
41
1
10
109.124291606221
20
2.11262460168425
30
0
41
1
10
109.08715084365
20
2.10037918646944
30
0
41
1
10
109.051412149048
20
2.0905078870212
30
0
0
SPLINE
5
BD
100
AcDbEntity
8
1
62
256
6
ByLayer
370
-1
48
1
60
0
100
AcDbSpline
70
4
71
3
72
14
73
10
40
0
40
0
40
0
40
0
40
0.25
40
0.25
40
0.5
40
0.5
40
0.75
40
0.75
40
1
40
1
40
1
40
1
41
1
10
92.8879597898828
20
0.323659047675903
30
0
41
1
10
93.4961514717994
20
2.16662473113655
30
0
41
1
10
94.3135032205096
20
3.92046184800964
30
0
41
1
10
96.3824230938752
20
6.69257983694976
30
0
41
1
10
97.6564766998924
20
7.72137225805835
30
0
41
1
10
100.670736825741
20
9.08064817283054
30
0
41
1
10
102.375253311445
20
9.42007726683897
30
0
41
1
10
106.010270542694
20
9.80207079430528
30
0
41
1
10
107.939277625078
20
9.85423895279104
30
0
41
1
10
109.890202698954
20
9.85620201073769
30
0
0
SPLINE
5
BE
100
AcDbEntity
8
1
62
256
6
ByLayer
370
-1
48
1
60
0
100
AcDbSpline
70
4
71
3
72
16
73
12
40
0
40
0
40
0
40
0
40
0.107171271554079
40
0.107171271554079
40
0.354478822530779
40
0.354478822530779
40
0.609552105021808
40
0.609552105021808
40
0.890640032567482
40
0.890640032567482
40
1
40
1
40
1
40
1
41
1
10
92.8879597898827
20
0.323659047675903
30
0
41
1
10
92.8875513244088
20
0.302021925337215
30
0
41
1
10
92.8862306430754
20
0.27944360674698
30
0
41
1
10
92.8789248944216
20
0.203061388191316
30
0
41
1
10
92.8688957647909
20
0.145762214358541
30
0
41
1
10
92.8405646964205
20
0.0303476200686816
30
0
41
1
10
92.8217011848291
20
-0.0291528359804545
30
0
41
1
10
92.7762791937497
20
-0.147814002339544
30
0
41
1
10
92.7486093369773
20
-0.207805655887881
30
0
41
1
10
92.707872777901
20
-0.283449359137705
30
0
41
1
10
92.6961199253047
20
-0.30398316248818
30
0
41
1
10
92.6841738090556
20
-0.323659047675903
30
0
0
SPLINE
5
BF
100
AcDbEntity
8
1
62
256
6
ByLayer
370
-1
48
1
60
0
100
AcDbSpline
70
4
71
3
72
28
73
24
40
-0.125
40
-0.125
40
0
40
0
40
0.125000000000001
40
0.125000000000001
40
0.187500000000001
40
0.187500000000001
40
0.250000000000001
40
0.250000000000001
40
0.375000000000001
40
0.375000000000001
40
0.500000000000001
40
0.500000000000001
40
0.625000000000001
40
0.625000000000001
40
0.687500000000001
40
0.687500000000001
40
0.75
40
0.75
40
0.8125
40
0.8125
40
0.875
40
0.875
40
1
40
1
40
1.125
40
1.125
41
1
10
98.7348645165325
20
-3.39885047576019
30
0
41
1
10
97.7672344121346
20
-3.02849374887501
30
0
41
1
10
97.2698221827351
20
-2.92649527437368
30
0
41
1
10
96.5205921864393
20
-3.0898309119591
30
0
41
1
10
96.2710072480624
20
-3.20291108389111
30
0
41
1
10
95.857750098089
20
-3.60843123792401
30
0
41
1
10
95.710420431353
20
-3.90909363694175
30
0
41
1
10
95.6175739982444
20
-4.80555152735059
30
0
41
1
10
95.9393188022906
20
-5.26868545605643
30
0
41
1
10
96.7183652684488
20
-5.87418938191689
30
0
41
1
10
97.1982298203161
20
-6.05058280673924
30
0
41
1
10
98.2210686568944
20
-6.26048793362432
30
0
41
1
10
98.771111010573
20
-6.29796673838371
30
0
41
1
10
99.6227640420245
20
-6.20944410025029
30
0
41
1
10
99.9112687974028
20
-6.15979109247672
30
0
41
1
10
100.45737340011
20
-5.91450360776443
30
0
41
1
10
100.698069305923
20
-5.63362300233399
30
0
41
1
10
100.603910753879
20
-5.04160704847152
30
0
41
1
10
100.419873247706
20
-4.79928468918899
30
0
41
1
10
100.048094762883
20
-4.36965994196652
30
0
41
1
10
99.8427669876826
20
-4.18333516196145
30
0
41
1
10
99.2002597543638
20
-3.67337023846423
30
0
41
1
10
98.7348645165325
20
-3.39885047576019
30
0
41
1
10
97.7672344121346
20
-3.02849374887501
30
0
0
SPLINE
5
C0
100
AcDbEntity
8
1
62
256
6
ByLayer
370
-1
48
1
60
0
100
AcDbSpline
70
4
71
2
72
6
73
3
40
0
40
0
40
0
40
1
40
1
40
1
41
0.49997518155979
10
109.890202698953
20
9.85620201073768
30
0
41
0.50002481844021
10
110.332392915604
20
9.8566469509511
30
0
41
0.49997518155979
10
110.774602017009
20
9.85709083122505
30
0
0
SPLINE
5
C1
100
AcDbEntity
8
SK1
62
256
6
ByLayer
370
-1
48
1
60
0
100
AcDbSpline
70
4
71
3
72
34
73
30
40
0
40
0
40
0
40
0
40
0.217457722715838
40
0.217457722715838
40
0.435205736045796
40
0.435205736045796
40
0.489804543994012
40
0.489804543994012
40
0.496549308751678
40
0.496549308751678
40
0.499955506608601
40
0.499955506608601
40
0.501333585705787
40
0.501333585705787
40
0.502727669321948
40
0.502727669321948
40
0.503969738092748
40
0.503969738092748
40
0.506084034865229
40
0.506084034865229
40
0.511582108691801
40
0.511582108691801
40
0.532968432684595
40
0.532968432684595
40
0.61784309085383
40
0.61784309085383
40
0.991279786412509
40
0.991279786412509
40
1
40
1
40
1
40
1
41
1
10
-40.105
20
0.233436164322683
30
0
41
1
10
-40.5050057987322
20
0.233436164322683
30
0
41
1
10
-40.9051208961381
20
0.226764338557643
30
0
41
1
10
-41.704788890028
20
0.194439129841101
30
0
41
1
10
-42.1063188507156
20
0.175922319090404
30
0
41
1
10
-42.6010317074295
20
0.0991142584228157
30
0
41
1
10
-42.703290331148
20
0.0860601938297805
30
0
41
1
10
-42.8060652211984
20
0.0393601932101433
30
0
41
1
10
-42.8174106913997
20
0.0334791827027914
30
0
41
1
10
-42.8321573166669
20
0.0216662685330675
30
0
41
1
10
-42.8368552013267
20
0.0170508851722104
30
0
41
1
10
-42.8412097532359
20
0.0092514148736598
30
0
41
1
10
-42.8422008706597
20
0.006780393331411
30
0
41
1
10
-42.8432484512515
20
0.0016667993909607
30
0
41
1
10
-42.8432910029574
20
-0.001044232027283
30
0
41
1
10
-42.8424328101156
20
-0.0059371585597319
30
0
41
1
10
-42.8416364740706
20
-0.0081988054901672
30
0
41
1
10
-42.8388120270864
20
-0.0138593692917084
30
0
41
1
10
-42.8362989095358
20
-0.0170658976254856
30
0
41
1
10
-42.8263933262466
20
-0.0272986023843771
30
0
41
1
10
-42.8174578935855
20
-0.0328764670137502
30
0
41
1
10
-42.7734762058079
20
-0.0566035527721453
30
0
41
1
10
-42.7343830440448
20
-0.0670885454561017
30
0
41
1
10
-42.5431904081056
20
-0.115383286102798
30
0
41
1
10
-42.3856046797153
20
-0.132665140943601
30
0
41
1
10
-41.5403310476909
20
-0.220917708457108
30
0
41
1
10
-40.8459209829822
20
-0.232394670085597
30
0
41
1
10
-40.1373607472351
20
-0.233424410073695
30
0
41
1
10
-40.1211803714794
20
-0.233436164322683
30
0
41
1
10
-40.105
20
-0.233436164322683
30
0
0
SPLINE
5
C2
100
AcDbEntity
8
1
62
256
6
ByLayer
370
-1
48
1
60
0
100
AcDbSpline
70
4
71
3
72
16
73
12
40
0
40
0
40
0
40
0
40
0.0559896302622676
40
0.0559896302622676
40
0.278865236505844
40
0.278865236505844
40
0.504139857462892
40
0.504139857462892
40
0.743542544183459
40
0.743542544183459
40
1
40
1
40
1
40
1
41
1
10
113.063611063579
20
-4.73611076145409
30
0
41
1
10
113.063568518009
20
-4.72864893915803
30
0
41
1
10
113.063814748219
20
-4.72116475522665
30
0
41
1
10
113.066454250055
20
-4.68419880339366
30
0
41
1
10
113.073206474793
20
-4.65450581589019
30
0
41
1
10
113.094655159898
20
-4.59912194115361
30
0
41
1
10
113.109687870987
20
-4.57276417514007
30
0
41
1
10
113.146513364406
20
-4.52504914051641
30
0
41
1
10
113.169107452125
20
-4.50349243341529
30
0
41
1
10
113.21943775282
20
-4.46744134075365
30
0
41
1
10
113.248006647451
20
-4.45308174421379
30
0
41
1
10
113.277069153117
20
-4.44346317793921
30
0
0
SPLINE
5
C3
100
AcDbEntity
8
1
62
256
6
ByLayer
370
-1
48
1
60
0
100
AcDbSpline
70
4
71
3
72
12
73
8
40
0
40
0
40
0
40
0
40
0.314796651253317
40
0.314796651253317
40
0.781971087515414
40
0.781971087515414
40
1
40
1
40
1
40
1
41
1
10
113.743631187647
20
-5.37805022277206
30
0
41
1
10
113.763970025153
20
-5.42503434347594
30
0
41
1
10
113.778963214196
20
-5.47469041325459
30
0
41
1
10
113.802242237524
20
-5.59734117218989
30
0
41
1
10
113.804311490425
20
-5.67200667464641
30
0
41
1
10
113.792555544326
20
-5.77637201046505
30
0
41
1
10
113.78656197995
20
-5.80930779242127
30
0
41
1
10
113.778535544984
20
-5.84140540310113
30
0
0
SPLINE
5
C4
100
AcDbEntity
8
1
62
256
6
ByLayer
370
-1
48
1
60
0
100
AcDbSpline
70
4
71
3
72
16
73
12
40
0
40
0
40
0
40
0
40
0.0414949540903658
40
0.0414949540903658
40
0.264700717331858
40
0.264700717331858
40
0.489470788841643
40
0.489470788841643
40
0.727692848895881
40
0.727692848895881
40
1
40
1
40
1
40
1
41
1
10
113.88956451618
20
-3.28871782686048
30
0
41
1
10
113.894361013747
20
-3.28590578456726
30
0
41
1
10
113.899240344676
20
-3.2832213124461
30
0
41
1
10
113.930562019666
20
-3.26708389735236
30
0
41
1
10
113.959347108856
20
-3.25725082186685
30
0
41
1
10
114.017175789634
20
-3.24631278301402
30
0
41
1
10
114.046953936892
20
-3.24510831669431
30
0
41
1
10
114.10533366674
20
-3.25088032503666
30
0
41
1
10
114.134493851081
20
-3.25839277641509
30
0
41
1
10
114.191049965632
20
-3.28207317923636
30
0
41
1
10
114.218388391846
20
-3.29960863190189
30
0
41
1
10
114.241259382793
20
-3.32026520387481
30
0
0
SPLINE
5
C5
100
AcDbEntity
8
1
62
256
6
ByLayer
370
-1
48
1
60
0
100
AcDbSpline
70
4
71
3
72
14
73
10
40
0
40
0
40
0
40
0
40
0.253826519598076
40
0.253826519598076
40
0.543931427297486
40
0.543931427297486
40
0.806192118844104
40
0.806192118844104
40
1
40
1
40
1
40
1
41
1
10
113.755512187567
20
-3.60504417806902
30
0
41
1
10
113.747670794882
20
-3.57783533525588
30
0
41
1
10
113.744155948001
20
-3.54855600083718
30
0
41
1
10
113.747416928704
20
-3.48537327601216
30
0
41
1
10
113.755876754328
20
-3.45038420860396
30
0
41
1
10
113.784807555518
20
-3.38832073941887
30
0
41
1
10
113.804545988867
20
-3.35989005271503
30
0
41
1
10
113.846613694594
20
-3.31777844833809
30
0
41
1
10
113.867317293707
20
-3.30176070442496
30
0
41
1
10
113.88956451618
20
-3.28871782686048
30
0
0
SPLINE
5
C6
100
AcDbEntity
8
1
62
256
6
ByLayer
370
-1
48
1
60
0
100
AcDbSpline
70
4
71
3
72
16
73
12
40
0
40
0
40
0
40
0
40
0.0694210632324183
40
0.0694210632324183
40
0.292087864368624
40
0.292087864368624
40
0.517918296334318
40
0.517918296334318
40
0.758497576948348
40
0.758497576948348
40
1
40
1
40
1
40
1
41
1
10
115.590557566226
20
-6.16281832696833
30
0
41
1
10
115.58255554482
20
-6.16750967149881
30
0
41
1
10
115.574315866607
20
-6.17180540279716
30
0
41
1
10
115.539101173726
20
-6.18799513906339
30
0
41
1
10
115.510071509813
20
-6.19603798369775
30
0
41
1
10
115.451899687682
20
-6.20272959446888
30
0
41
1
10
115.422025159391
20
-6.20135269473414
30
0
41
1
10
115.363601644479
20
-6.18972567069059
30
0
41
1
10
115.334529839703
20
-6.17878857555036
30
0
41
1
10
115.282097039153
20
-6.14945882410552
30
0
41
1
10
115.258176426494
20
-6.13076520891701
30
0
41
1
10
115.237720287275
20
-6.10947242398009
30
0
0
SPLINE
5
C7
100
AcDbEntity
8
1
62
256
6
ByLayer
370
-1
48
1
60
0
100
AcDbSpline
70
4
71
3
72
16
73
12
40
0
40
0
40
0
40
0
40
0.0608533059029359
40
0.0608533059029359
40
0.281623182917158
40
0.281623182917158
40
0.505077149700779
40
0.505077149700779
40
0.742780487870777
40
0.742780487870777
40
1
40
1
40
1
40
1
41
1
10
113.918215036494
20
-6.18010120332121
30
0
41
1
10
113.91104995323
20
-6.17609519027934
30
0
41
1
10
113.904046823692
20
-6.17176628224877
30
0
41
1
10
113.872763975416
20
-6.15048652011262
30
0
41
1
10
113.850633245091
20
-6.12962340193718
30
0
41
1
10
113.814133026461
20
-6.08283816445277
30
0
41
1
10
113.799378025912
20
-6.05627727133279
30
0
41
1
10
113.777902251079
20
-5.99962214890863
30
0
41
1
10
113.771455120635
20
-5.96871330866594
30
0
41
1
10
113.767542725626
20
-5.90546666673126
30
0
41
1
10
113.770773031063
20
-5.87244759690157
30
0
41
1
10
113.778535544984
20
-5.84140540310116
30
0
0
SPLINE
5
C8
100
AcDbEntity
8
1
62
256
6
ByLayer
370
-1
48
1
60
0
100
AcDbSpline
70
4
71
3
72
18
73
14
40
0
40
0
40
0
40
0
40
0.211826658493618
40
0.211826658493618
40
0.386063242106286
40
0.386063242106286
40
0.56198901067522
40
0.56198901067522
40
0.714969206089734
40
0.714969206089734
40
0.917706490638763
40
0.917706490638763
40
1
40
1
40
1
40
1
41
1
10
115.209983022178
20
-3.31025389902445
30
0
41
1
10
115.160185942447
20
-3.3568071851841
30
0
41
1
10
115.100808798007
20
-3.39750219776127
30
0
41
1
10
114.979471340433
20
-3.45449550199791
30
0
41
1
10
114.918395361045
20
-3.47436240465635
30
0
41
1
10
114.79098309445
20
-3.49765658973701
30
0
41
1
10
114.722675182576
20
-3.50111293354283
30
0
41
1
10
114.600016280166
20
-3.49108744811298
30
0
41
1
10
114.543535458871
20
-3.47970738100861
30
0
41
1
10
114.422548693475
20
-3.44091055231217
30
0
41
1
10
114.35922553352
20
-3.40900605146857
30
0
41
1
10
114.282192720556
20
-3.35501487823348
30
0
41
1
10
114.261042029704
20
-3.33813245198257
30
0
41
1
10
114.241259382793
20
-3.32026520387481
30
0
0
SPLINE
5
C9
100
AcDbEntity
8
1
62
256
6
ByLayer
370
-1
48
1
60
0
100
AcDbSpline
70
4
71
3
72
14
73
10
40
0
40
0
40
0
40
0
40
0.280886135263068
40
0.280886135263068
40
0.565779229752123
40
0.565779229752123
40
0.823531433577517
40
0.823531433577517
40
1
40
1
40
1
40
1
41
1
10
113.28349636721
20
-5.00495733626548
30
0
41
1
10
113.25116732551
20
-4.99856790007112
30
0
41
1
10
113.219269527344
20
-4.98616581968983
30
0
41
1
10
113.161647495388
20
-4.94987802403071
30
0
41
1
10
113.135158350282
20
-4.92521327434125
30
0
41
1
10
113.095681729325
20
-4.86956553831425
30
0
41
1
10
113.081101843901
20
-4.83853009288873
30
0
41
1
10
113.066829251174
20
-4.7833873583798
30
0
41
1
10
113.063745708837
20
-4.75972541755831
30
0
41
1
10
113.063611063579
20
-4.73611076145409
30
0
0
SPLINE
5
CA
100
AcDbEntity
8
1
62
256
6
ByLayer
370
-1
48
1
60
0
100
AcDbSpline
70
4
71
3
72
18
73
14
40
0
40
0
40
0
40
0
40
0.204484327331654
40
0.204484327331654
40
0.380032436580348
40
0.380032436580348
40
0.557355801854054
40
0.557355801854054
40
0.710621155738151
40
0.710621155738151
40
0.912077806931063
40
0.912077806931063
40
1
40
1
40
1
40
1
41
1
10
115.723467482501
20
-5.82469344978597
30
0
41
1
10
115.705232451311
20
-5.75562199391632
30
0
41
1
10
115.696408289255
20
-5.68193890946716
30
0
41
1
10
115.701430606895
20
-5.5438994206298
30
0
41
1
10
115.712471804822
20
-5.47814089618657
30
0
41
1
10
115.753273626306
20
-5.35238400161313
30
0
41
1
10
115.784029560844
20
-5.29065434822581
30
0
41
1
10
115.855097381843
20
-5.19061167306754
30
0
41
1
10
115.894326752709
20
-5.14900020016023
30
0
41
1
10
115.991750577961
20
-5.06927336026675
30
0
41
1
10
116.05354777771
20
-5.03477857500641
30
0
41
1
10
116.144774562387
20
-5.00096705276852
30
0
41
1
10
116.173228215832
20
-4.99263425167746
30
0
41
1
10
116.201910516952
20
-4.98627444991573
30
0
0
SPLINE
5
CB
100
AcDbEntity
8
1
62
256
6
ByLayer
370
-1
48
1
60
0
100
AcDbSpline
70
4
71
3
72
14
73
10
40
0
40
0
40
0
40
0
40
0.281732662281588
40
0.281732662281588
40
0.568336047605821
40
0.568336047605821
40
0.827726871356231
40
0.827726871356231
40
1
40
1
40
1
40
1
41
1
10
114.26899664789
20
-6.11948372883151
30
0
41
1
10
114.245765884242
20
-6.1448217764393
30
0
41
1
10
114.217651062473
20
-6.16675199268687
30
0
41
1
10
114.154859593959
20
-6.19947984564575
30
0
41
1
10
114.119074362352
20
-6.21052785271465
30
0
41
1
10
114.049400263111
20
-6.2175280289153
30
0
41
1
10
114.014596939267
20
-6.2148579280684
30
0
41
1
10
113.959746547047
20
-6.20004144664969
30
0
41
1
10
113.938225382008
20
-6.19128902935935
30
0
41
1
10
113.918215036494
20
-6.18010120332121
30
0
0
SPLINE
5
CC
100
AcDbEntity
8
1
62
256
6
ByLayer
370
-1
48
1
60
0
100
AcDbSpline
70
4
71
3
72
18
73
14
40
0
40
0
40
0
40
0
40
0.0447160259824553
40
0.0447160259824553
40
0.26584156919346
40
0.26584156919346
40
0.488725170245032
40
0.488725170245032
40
0.725109012423001
40
0.725109012423001
40
0.984244822558708
40
0.984244822558708
40
1
40
1
40
1
40
1
41
1
10
115.561907045913
20
-3.27143495050763
30
0
41
1
10
115.567180017913
20
-3.27438308018395
30
0
41
1
10
115.572363337178
20
-3.27748730340042
30
0
41
1
10
115.602322687521
20
-3.29666623824229
30
0
41
1
10
115.624930886508
20
-3.31644002100634
30
0
41
1
10
115.662341213462
20
-3.36039288279952
30
0
41
1
10
115.677574623895
20
-3.38515248997973
30
0
41
1
10
115.700011695737
20
-3.43758915638452
30
0
41
1
10
115.706983382593
20
-3.46599782644498
30
0
41
1
10
115.712021338705
20
-3.52416735260238
30
0
41
1
10
115.709264973172
20
-3.55452366045665
30
0
41
1
10
115.701390515178
20
-3.58452858753833
30
0
41
1
10
115.700916901031
20
-3.5862597865511
30
0
41
1
10
115.700425887725
20
-3.58798423520352
30
0
0
SPLINE
5
CD
100
AcDbEntity
8
1
62
256
6
ByLayer
370
-1
48
1
60
0
100
AcDbSpline
70
4
71
3
72
14
73
10
40
0
40
0
40
0
40
0
40
0.28418230538821
40
0.28418230538821
40
0.578057080079453
40
0.578057080079453
40
0.836555462934364
40
0.836555462934364
40
1
40
1
40
1
40
1
41
1
10
115.723467482501
20
-5.82469344978591
30
0
41
1
10
115.732403691687
20
-5.85854241730038
30
0
41
1
10
115.735924633123
20
-5.89487253558272
30
0
41
1
10
115.730096599714
20
-5.96804505614111
30
0
41
1
10
115.720090386045
20
-6.00605434328912
30
0
41
1
10
115.6883495111
20
-6.07100134646629
30
0
41
1
10
115.667636875013
20
-6.09967103500057
30
0
41
1
10
115.627030452781
20
-6.13843920160457
30
0
41
1
10
115.609358670394
20
-6.15179580494214
30
0
41
1
10
115.590557566226
20
-6.16281832696833
30
0
0
SPLINE
5
CE
100
AcDbEntity
8
1
62
256
6
ByLayer
370
-1
48
1
60
0
100
AcDbSpline
70
4
71
3
72
18
73
14
40
0
40
0
40
0
40
0
40
0.0445242400515032
40
0.0445242400515032
40
0.267732157852891
40
0.267732157852891
40
0.49267934018663
40
0.49267934018663
40
0.73122445603758
40
0.73122445603758
40
0.99271325285016
40
0.99271325285016
40
1
40
1
40
1
40
1
41
1
10
116.416511018828
20
-4.71542539237478
30
0
41
1
10
116.416544878269
20
-4.7213638047474
30
0
41
1
10
116.416395061661
20
-4.72729802422083
30
0
41
1
10
116.414408597441
20
-4.76257795307421
30
0
41
1
10
116.408071856282
20
-4.79178897196661
30
0
41
1
10
116.387332261255
20
-4.84546805670243
30
0
41
1
10
116.372623722308
20
-4.87059071510103
30
0
41
1
10
116.336361641471
20
-4.91517905279147
30
0
41
1
10
116.314018614359
20
-4.93478956434092
30
0
41
1
10
116.26342868568
20
-4.96682697151698
30
0
41
1
10
116.234205282395
20
-4.97881400691506
30
0
41
1
10
116.203590600404
20
-4.98589787516815
30
0
41
1
10
116.202750898259
20
-4.9860881099672
30
0
41
1
10
116.201910516952
20
-4.98627444991581
30
0
0
SPLINE
5
CF
100
AcDbEntity
8
1
62
256
6
ByLayer
370
-1
48
1
60
0
100
AcDbSpline
70
4
71
3
72
14
73
10
40
0
40
0
40
0
40
0
40
0.25892766311162
40
0.25892766311162
40
0.548393416998375
40
0.548393416998375
40
0.810122265230965
40
0.810122265230965
40
1
40
1
40
1
40
1
41
1
10
115.209983022178
20
-3.31025389902439
30
0
41
1
10
115.231505428294
20
-3.29013346754115
30
0
41
1
10
115.257104908886
20
-3.27276718715265
30
0
41
1
10
115.316920195694
20
-3.24520523436544
30
0
41
1
10
115.352797148308
20
-3.23572658694184
30
0
41
1
10
115.422981696742
20
-3.23071367389787
30
0
41
1
10
115.458182203628
20
-3.23391550113465
30
0
41
1
10
115.515937854117
20
-3.2494203839436
30
0
41
1
10
115.539860337128
20
-3.25910858950473
30
0
41
1
10
115.561907045913
20
-3.27143495050763
30
0
0
SPLINE
5
D0
100
AcDbEntity
8
1
62
256
6
ByLayer
370
-1
48
1
60
0
100
AcDbSpline
70
4
71
3
72
12
73
8
40
0
40
0
40
0
40
0
40
0.483263508942904
40
0.483263508942904
40
0.890318766415902
40
0.890318766415902
40
1
40
1
40
1
40
1
41
1
10
113.28349636721
20
-5.00495733626556
30
0
41
1
10
113.350763285314
20
-5.0182518126436
30
0
41
1
10
113.417575231405
20
-5.04263968576947
30
0
41
1
10
113.53177264395
20
-5.10888712131444
30
0
41
1
10
113.581775628108
20
-5.1482989887248
30
0
41
1
10
113.637006267936
20
-5.2081335589173
30
0
41
1
10
113.648361528959
20
-5.22149701292756
30
0
41
1
10
113.659193612086
20
-5.23537939990112
30
0
0
SPLINE
5
D1
100
AcDbEntity
8
1
62
256
6
ByLayer
370
-1
48
1
60
0
100
AcDbSpline
70
4
71
3
72
18
73
14
40
0
40
0
40
0
40
0
40
0.20504256940788
40
0.20504256940788
40
0.380490253800742
40
0.380490253800742
40
0.557706679217308
40
0.557706679217308
40
0.710949103235803
40
0.710949103235803
40
0.912502109150511
40
0.912502109150511
40
1
40
1
40
1
40
1
41
1
10
114.26899664789
20
-6.11948372883143
30
0
41
1
10
114.316823647372
20
-6.06731829818872
30
0
41
1
10
114.373606114656
20
-6.02104710936831
30
0
41
1
10
114.491750557684
20
-5.95367207484082
30
0
41
1
10
114.552701285587
20
-5.92929382758746
30
0
41
1
10
114.680373736772
20
-5.90023974791842
30
0
41
1
10
114.749108767764
20
-5.89555650655132
30
0
41
1
10
114.872594186212
20
-5.90693443507936
30
0
41
1
10
114.929459883511
20
-5.92031299408123
30
0
41
1
10
115.050963969216
20
-5.96579003554982
30
0
41
1
10
115.114575080293
20
-6.00298070259578
30
0
41
1
10
115.193775954096
20
-6.06653682831126
30
0
41
1
10
115.21652108243
20
-6.08740618240984
30
0
41
1
10
115.237720287275
20
-6.10947242398009
30
0
0
SPLINE
5
D2
100
AcDbEntity
8
1
62
256
6
ByLayer
370
-1
48
1
60
0
100
AcDbSpline
70
4
71
3
72
18
73
14
40
0
40
0
40
0
40
0
40
0.0932927671353472
40
0.0932927671353472
40
0.291452469912717
40
0.291452469912717
40
0.452571747977732
40
0.452571747977732
40
0.614437057926319
40
0.614437057926319
40
0.76689732591307
40
0.76689732591307
40
1
40
1
40
1
40
1
41
1
10
113.755512187567
20
-3.60504417806902
30
0
41
1
10
113.763695600042
20
-3.63343979510495
30
0
41
1
10
113.769901829211
20
-3.66277164492837
30
0
41
1
10
113.782481946869
20
-3.75630823893471
30
0
41
1
10
113.781283957762
20
-3.82418658459565
30
0
41
1
10
113.758271378659
20
-3.94788238117178
30
0
41
1
10
113.739938069625
20
-4.00494573075233
30
0
41
1
10
113.688363533141
20
-4.11348092837494
30
0
41
1
10
113.654327101528
20
-4.16630496361782
30
0
41
1
10
113.578606212148
20
-4.25690387620287
30
0
41
1
10
113.536677470427
20
-4.29649355446301
30
0
41
1
10
113.42563763635
20
-4.38061877741933
30
0
41
1
10
113.351676136111
20
-4.41877114970396
30
0
41
1
10
113.277069153117
20
-4.44346317793921
30
0
0
SPLINE
5
D3
100
AcDbEntity
8
1
62
256
6
ByLayer
370
-1
48
1
60
0
100
AcDbSpline
70
4
71
3
72
12
73
8
40
0
40
0
40
0
40
0
40
0.32106285335883
40
0.32106285335883
40
0.789577101064222
40
0.789577101064222
40
1
40
1
40
1
40
1
41
1
10
115.733645401961
20
-4.01919069404269
30
0
41
1
10
115.712934929335
20
-3.97234816504013
30
0
41
1
10
115.697857734101
20
-3.92378277393274
30
0
41
1
10
115.67527674465
20
-3.80696326648038
30
0
41
1
10
115.673878906945
20
-3.73793500868402
30
0
41
1
10
115.686553051248
20
-3.6441702453682
30
0
41
1
10
115.692548922984
20
-3.61564829449375
30
0
41
1
10
115.700425887725
20
-3.58798423520352
30
0
0
SPLINE
5
D4
100
AcDbEntity
8
1
62
256
6
ByLayer
370
-1
48
1
60
0
100
AcDbSpline
70
4
71
3
72
12
73
8
40
0
40
0
40
0
40
0
40
0.494547693254399
40
0.494547693254399
40
0.899638041788681
40
0.899638041788681
40
1
40
1
40
1
40
1
41
1
10
116.195465065498
20
-4.42443230203909
30
0
41
1
10
116.126245132373
20
-4.40340408507618
30
0
41
1
10
116.057492700926
20
-4.37114189013766
30
0
41
1
10
115.941948729278
20
-4.29287263595856
30
0
41
1
10
115.892217359053
20
-4.24940799946663
30
0
41
1
10
115.838396294501
20
-4.18766094825662
30
0
41
1
10
115.828018246727
20
-4.17492786560544
30
0
41
1
10
115.818082977523
20
-4.16186151691477
30
0
0
SPLINE
5
D5
100
AcDbEntity
8
1
62
256
6
ByLayer
370
-1
48
1
60
0
100
AcDbSpline
70
4
71
3
72
14
73
10
40
0
40
0
40
0
40
0
40
0.264951685633444
40
0.264951685633444
40
0.551839051428896
40
0.551839051428896
40
0.811228646787231
40
0.811228646787231
40
1
40
1
40
1
40
1
41
1
10
116.195465065498
20
-4.42443230203912
30
0
41
1
10
116.226137737849
20
-4.43375030597119
30
0
41
1
10
116.256393276065
20
-4.44825286923776
30
0
41
1
10
116.31353428756
20
-4.488164325074
30
0
41
1
10
116.340800002142
20
-4.5150763987605
30
0
41
1
10
116.38174793895
20
-4.57415041025303
30
0
41
1
10
116.397051630346
20
-4.60649429730211
30
0
41
1
10
116.412823406288
20
-4.6645247613167
30
0
41
1
10
116.416367021881
20
-4.69017059754268
30
0
41
1
10
116.416511018828
20
-4.71542539237478
30
0
0
LINE
5
4A
100
AcDbEntity
8
80
62
256
6
ByLayer
370
-1
48
1
60
0
100
AcDbLine
10
0
20
0
30
0
11
-10
21
0
31
0
39
0
210
0
220
0
230
1
0
LINE
5
4B
100
AcDbEntity
8
81
62
256
6
ByLayer
370
-1
48
1
60
0
100
AcDbLine
10
119.895
20
-12.9
30
0
11
129.895
21
-12.9
31
0
39
0
210
0
220
0
230
1
0
LINE
5
4C
100
AcDbEntity
8
SK1
62
256
6
ByLayer
370
-1
48
1
60
0
100
AcDbLine
10
-100.855
20
-9.99125
30
0
11
0
21
-9.99125
31
0
39
0
210
0
220
0
230
1
0
LINE
5
4E
100
AcDbEntity
8
SK1
62
256
6
ByLayer
370
-1
48
1
60
0
100
AcDbLine
10
0
20
9.99125
30
0
11
-100.855
21
9.99125
31
0
39
0
210
0
220
0
230
1
0
LINE
5
4F
100
AcDbEntity
8
SK1
62
256
6
ByLayer
370
-1
48
1
60
0
100
AcDbLine
10
-100.855
20
9.99125
30
0
11
-101.355
21
9.49125
31
0
39
0
210
0
220
0
230
1
0
LINE
5
50
100
AcDbEntity
8
SK1
62
256
6
ByLayer
370
-1
48
1
60
0
100
AcDbLine
10
-101.355
20
-9.49125
30
0
11
-100.855
21
-9.99125
31
0
39
0
210
0
220
0
230
1
0
LINE
5
51
100
AcDbEntity
8
1
62
256
6
ByLayer
370
-1
48
1
60
0
100
AcDbLine
10
113.778619
20
-3.743151
30
0
11
113.772071
21
-3.618213
31
0
39
0
210
0
220
0
230
1
0
LINE
5
52
100
AcDbEntity
8
1
62
256
6
ByLayer
370
-1
48
1
60
0
100
AcDbLine
10
115.67155
20
-3.666992
30
0
11
115.677952
21
-3.789139
31
0
39
0
210
0
220
0
230
1
0
LINE
5
53
100
AcDbEntity
8
1
62
256
6
ByLayer
370
-1
48
1
60
0
100
AcDbLine
10
112.111318
20
-4.723087
30
0
11
112.117214
21
-4.835594
31
0
39
0
210
0
220
0
230
1
0
LINE
5
54
100
AcDbEntity
8
1
62
256
6
ByLayer
370
-1
48
1
60
0
100
AcDbLine
10
117.360019
20
-4.56083
30
0
11
117.354123
21
-4.448323
31
0
39
0
210
0
220
0
230
1
0
LINE
5
55
100
AcDbEntity
8
1
62
256
6
ByLayer
370
-1
48
1
60
0
100
AcDbLine
10
115.693108
20
-5.548196
30
0
11
115.699654
21
-5.673102
31
0
39
0
210
0
220
0
230
1
0
LINE
5
56
100
AcDbEntity
8
1
62
256
6
ByLayer
370
-1
48
1
60
0
100
AcDbLine
10
113.80003
20
-5.621567
30
0
11
113.793629
21
-5.499416
31
0
39
0
210
0
220
0
230
1
0
LINE
5
57
100
AcDbEntity
8
1
62
256
6
ByLayer
370
-1
48
1
60
0
100
AcDbLine
10
110.515569
20
10.04125
30
0
11
83.645
21
10.04125
31
0
39
0
210
0
220
0
230
1
0
LINE
5
58
100
AcDbEntity
8
1
62
256
6
ByLayer
370
-1
48
1
60
0
100
AcDbLine
10
83.645
20
-10.04125
30
0
11
103.579989
21
-10.04125
31
0
39
0
210
0
220
0
230
1
0
LINE
5
59
100
AcDbEntity
8
1
62
256
6
ByLayer
370
-1
48
1
60
0
100
AcDbLine
10
0
20
-9.99125
30
0
11
83.645
21
-9.99125
31
0
39
0
210
0
220
0
230
1
0
LINE
5
5A
100
AcDbEntity
8
1
62
256
6
ByLayer
370
-1
48
1
60
0
100
AcDbLine
10
83.645
20
9.99125
30
0
11
0
21
9.99125
31
0
39
0
210
0
220
0
230
1
0
LINE
5
5B
100
AcDbEntity
8
SK4
62
256
6
ByLayer
370
-1
48
0.05
60
0
100
AcDbLine
10
-106.355
20
0
30
0
11
124.672612
21
0
31
0
39
0
210
0
220
0
230
1
0
LINE
5
5D
100
AcDbEntity
8
4
62
256
6
ByLayer
370
-1
48
0.05
60
0
100
AcDbLine
10
0
20
0
30
0
11
124.672612
21
0
31
0
39
0
210
0
220
0
230
1
0
LINE
5
5F
100
AcDbEntity
8
1
62
256
6
ByLayer
370
-1
48
1
60
0
100
AcDbLine
10
83.645
20
-0.233436
30
0
11
83.645
21
-0.323659
31
0
39
0
210
0
220
0
230
1
0
LINE
5
60
100
AcDbEntity
8
1
62
256
6
ByLayer
370
-1
48
1
60
0
100
AcDbLine
10
0
20
-0.233436
30
0
11
0
21
0.233436
31
0
39
0
210
0
220
0
230
1
0
LINE
5
61
100
AcDbEntity
8
1
62
256
6
ByLayer
370
-1
48
1
60
0
100
AcDbLine
10
109.694656
20
-0.202795
30
0
11
109.735309
21
-0.228064
31
0
39
0
210
0
220
0
230
1
0
LINE
5
62
100
AcDbEntity
8
1
62
256
6
ByLayer
370
-1
48
1
60
0
100
AcDbLine
10
107.786514
20
-7.948367
30
0
11
105.683287
21
-10.041073
31
0
39
0
210
0
220
0
230
1
0
LINE
5
63
100
AcDbEntity
8
1
62
256
6
ByLayer
370
-1
48
1
60
0
100
AcDbLine
10
119.141492
20
-1.580677
30
0
11
118.842674
21
4.121098
31
0
39
0
210
0
220
0
230
1
0
LINE
5
64
100
AcDbEntity
8
1
62
256
6
ByLayer
370
-1
48
1
60
0
100
AcDbLine
10
104.532681
20
-10.041107
30
0
11
109.890203
21
9.856202
31
0
39
0
210
0
220
0
230
1
0
LINE
5
65
100
AcDbEntity
8
1
62
256
6
ByLayer
370
-1
48
1
60
0
100
AcDbLine
10
111.46268
20
3.031277
30
0
11
111.470685
21
2.878529
31
0
39
0
210
0
220
0
230
1
0
LINE
5
66
100
AcDbEntity
8
1
62
256
6
ByLayer
370
-1
48
1
60
0
100
AcDbLine
10
0
20
0.233436
30
0
11
83.645
21
0.233436
31
0
39
0
210
0
220
0
230
1
0
LINE
5
67
100
AcDbEntity
8
1
62
256
6
ByLayer
370
-1
48
1
60
0
100
AcDbLine
10
0
20
-9.99125
30
0
11
0
21
-0.233436
31
0
39
0
210
0
220
0
230
1
0
LINE
5
68
100
AcDbEntity
8
1
62
256
6
ByLayer
370
-1
48
1
60
0
100
AcDbLine
10
0
20
0.233436
30
0
11
0
21
9.99125
31
0
39
0
210
0
220
0
230
1
0
LINE
5
69
100
AcDbEntity
8
1
62
256
6
ByLayer
370
-1
48
1
60
0
100
AcDbLine
10
110.515569
20
10.04125
30
0
11
110.774602
21
9.857091
31
0
39
0
210
0
220
0
230
1
0
LINE
5
6A
100
AcDbEntity
8
1
62
256
6
ByLayer
370
-1
48
1
60
0
100
AcDbLine
10
83.645
20
-0.233436
30
0
11
0
21
-0.233436
31
0
39
0
210
0
220
0
230
1
0
LINE
5
6B
100
AcDbEntity
8
1
62
256
6
ByLayer
370
-1
48
1
60
0
100
AcDbLine
10
109.694656
20
-0.202795
30
0
11
109.727724
21
-0.083279
31
0
39
0
210
0
220
0
230
1
0
LINE
5
6C
100
AcDbEntity
8
1
62
256
6
ByLayer
370
-1
48
1
60
0
100
AcDbLine
10
83.645
20
-0.323659
30
0
11
92.684174
21
-0.323659
31
0
39
0
210
0
220
0
230
1
0
LINE
5
6D
100
AcDbEntity
8
1
62
256
6
ByLayer
370
-1
48
1
60
0
100
AcDbLine
10
92.88796
20
0.323659
30
0
11
83.645
21
0.323659
31
0
39
0
210
0
220
0
230
1
0
LINE
5
6E
100
AcDbEntity
8
1
62
256
6
ByLayer
370
-1
48
1
60
0
100
AcDbLine
10
83.645
20
0.323659
30
0
11
83.645
21
0.233436
31
0
39
0
210
0
220
0
230
1
0
LINE
5
6F
100
AcDbEntity
8
1
62
256
6
ByLayer
370
-1
48
1
60
0
100
AcDbLine
10
83.645
20
0.323659
30
0
11
83.645
21
10.04125
31
0
39
0
210
0
220
0
230
1
0
LINE
5
70
100
AcDbEntity
8
1
62
256
6
ByLayer
370
-1
48
1
60
0
100
AcDbLine
10
83.645
20
-10.04125
30
0
11
83.645
21
-0.323659
31
0
39
0
210
0
220
0
230
1
0
LINE
5
71
100
AcDbEntity
8
1
62
256
6
ByLayer
370
-1
48
1
60
0
100
AcDbLine
10
110.774602
20
9.857091
30
0
11
118.842674
21
4.121098
31
0
39
0
210
0
220
0
230
1
0
LINE
5
72
100
AcDbEntity
8
1
62
256
6
ByLayer
370
-1
48
1
60
0
100
AcDbLine
10
109.162651
20
2.127191
30
0
11
109.151116
21
2.34729
31
0
39
0
210
0
220
0
230
1
0
LINE
5
73
100
AcDbEntity
8
SK1
62
256
6
ByLayer
370
-1
48
1
60
0
100
AcDbLine
10
0
20
-0.233436
30
0
11
-40.105
21
-0.233436
31
0
39
0
210
0
220
0
230
1
0
LINE
5
74
100
AcDbEntity
8
SK1
62
256
6
ByLayer
370
-1
48
1
60
0
100
AcDbLine
10
-40.105
20
0.233436
30
0
11
-40.105
21
-0.233436
31
0
39
0
210
0
220
0
230
1
0
LINE
5
75
100
AcDbEntity
8
SK1
62
256
6
ByLayer
370
-1
48
1
60
0
100
AcDbLine
10
-100.855
20
9.99125
30
0
11
-100.855
21
-9.99125
31
0
39
0
210
0
220
0
230
1
0
LINE
5
76
100
AcDbEntity
8
SK1
62
256
6
ByLayer
370
-1
48
1
60
0
100
AcDbLine
10
0
20
-0.233436
30
0
11
0
21
0.233436
31
0
39
0
210
0
220
0
230
1
0
LINE
5
77
100
AcDbEntity
8
SK1
62
256
6
ByLayer
370
-1
48
1
60
0
100
AcDbLine
10
-101.355
20
9.49125
30
0
11
-101.355
21
-9.49125
31
0
39
0
210
0
220
0
230
1
0
LINE
5
78
100
AcDbEntity
8
SK1
62
256
6
ByLayer
370
-1
48
1
60
0
100
AcDbLine
10
-40.105
20
0.233436
30
0
11
0
21
0.233436
31
0
39
0
210
0
220
0
230
1
0
LINE
5
79
100
AcDbEntity
8
SK1
62
256
6
ByLayer
370
-1
48
1
60
0
100
AcDbLine
10
0
20
-9.99125
30
0
11
0
21
-0.233436
31
0
39
0
210
0
220
0
230
1
0
LINE
5
7A
100
AcDbEntity
8
SK1
62
256
6
ByLayer
370
-1
48
1
60
0
100
AcDbLine
10
0
20
0.233436
30
0
11
0
21
9.99125
31
0
39
0
210
0
220
0
230
1
0
LINE
5
7B
100
AcDbEntity
8
1
62
256
6
ByLayer
370
-1
48
1
60
0
100
AcDbLine
10
110.801848
20
3.294264
30
0
11
119.017366
21
-1.812355
31
0
39
0
210
0
220
0
230
1
0
LINE
5
7C
100
AcDbEntity
8
1
62
256
6
ByLayer
370
-1
48
1
60
0
100
AcDbLine
10
110.092556
20
-7.044704
30
0
11
109.588009
21
2.582627
31
0
39
0
210
0
220
0
230
1
0
LINE
5
7D
100
AcDbEntity
8
1
62
256
6
ByLayer
370
-1
48
1
60
0
100
AcDbLine
10
118.680059
20
-12.779851
30
0
11
110.46454
21
-7.673231
31
0
39
0
210
0
220
0
230
1
0
LINE
5
7E
100
AcDbEntity
8
1
62
256
6
ByLayer
370
-1
48
1
60
0
100
AcDbLine
10
119.389351
20
-2.440883
30
0
11
119.893898
21
-12.068213
31
0
39
0
210
0
220
0
230
1
0
LINE
5
7F
100
AcDbEntity
8
1
62
256
6
ByLayer
370
-1
48
1
60
0
100
AcDbLine
10
113.276605
20
-4.873467
30
0
11
113.283496
21
-5.004957
31
0
39
0
210
0
220
0
230
1
0
LINE
5
80
100
AcDbEntity
8
1
62
256
6
ByLayer
370
-1
48
1
60
0
100
AcDbLine
10
115.693535
20
-3.456494
30
0
11
115.700426
21
-3.587984
31
0
39
0
210
0
220
0
230
1
0
LINE
5
81
100
AcDbEntity
8
1
62
256
6
ByLayer
370
-1
48
1
60
0
100
AcDbLine
10
113.659194
20
-5.235379
30
0
11
113.653145
21
-5.119963
31
0
39
0
210
0
220
0
230
1
0
LINE
5
82
100
AcDbEntity
8
1
62
256
6
ByLayer
370
-1
48
1
60
0
100
AcDbLine
10
115.23082
20
-5.977808
30
0
11
115.23772
21
-6.109472
31
0
39
0
210
0
220
0
230
1
0
LINE
5
83
100
AcDbEntity
8
1
62
256
6
ByLayer
370
-1
48
1
60
0
100
AcDbLine
10
114.262096
20
-5.987819
30
0
11
114.268997
21
-6.119484
31
0
39
0
210
0
220
0
230
1
0
LINE
5
84
100
AcDbEntity
8
1
62
256
6
ByLayer
370
-1
48
1
60
0
100
AcDbLine
10
116.19501
20
-4.85461
30
0
11
116.201911
21
-4.986274
31
0
39
0
210
0
220
0
230
1
0
LINE
5
85
100
AcDbEntity
8
1
62
256
6
ByLayer
370
-1
48
1
60
0
100
AcDbLine
10
113.737582
20
-5.262634
30
0
11
113.743631
21
-5.37805
31
0
39
0
210
0
220
0
230
1
0
LINE
5
86
100
AcDbEntity
8
1
62
256
6
ByLayer
370
-1
48
1
60
0
100
AcDbLine
10
113.750084
20
-3.501467
30
0
11
113.755512
21
-3.605044
31
0
39
0
210
0
220
0
230
1
0
LINE
5
87
100
AcDbEntity
8
2
62
256
6
ByLayer
370
-1
48
1
60
1
100
AcDbLine
10
119.895
20
0
30
0
11
119.896
21
0.001
31
0
39
0
210
0
220
0
230
1
0
MTEXT
5
D6
100
AcDbEntity
8
SK6
62
256
6
ByLayer
370
-1
48
1
60
0
100
AcDbMText
10
12.645
20
17.686875
30
0
210
0
220
0
230
1
1
\W00.715;\fsimplex.shx,bigfont.shx;E20S-SDUCL 11-R 
40
3.5
41
0
44
1.084337
50
0
71
7
72
5
7
DEFAULT
0
DIMENSION
5
109
100
AcDbEntity
8
2
62
256
6
ByLayer
370
-3
48
1
60
0
100
AcDbDimension
2
DimnDraft3D1
10
132.145
20
0
30
0
11
132.145
21
-32.356316
31
0
70
32
71
5
72
1
41
1
210
0
220
0
230
1
3
Standard
100
AcDbAlignedDimension
13
121.895
23
-12.9
33
0
14
121.895
24
0
34
0
50
90
100
AcDbRotatedDimension
1001
ACAD
1000
DSTYLE
1002
{
1070
    74
1070
     0
1070
   279
1070
     0
1070
   172
1070
     1
1070
   173
1070
     1
1070
   340
1005
D7
1070
    77
1070
     1
1070
    73
1070
     0
1070
   171
1070
     4
1070
   274
1070
     4
1070
   177
1070
     2
1070
   176
1070
     2
1070
   178
1070
     7
1070
    78
1070
     8
1070
    41
1041
3.175
1070
   147
1041
2.25
1070
    42
1041
2.0
1070
    44
1041
2.0
1070
   140
1041
4.5
1070
   343
1005
10A
1070
   344
1005
10A
1002
}
0
DIMENSION
5
11F
100
AcDbEntity
8
SK2
62
256
6
ByLayer
370
-3
48
1
60
0
100
AcDbDimension
2
DimnDraft3D2
10
-111.105
20
9.99125
30
0
11
-111.105
21
-4.784211
31
0
70
32
71
5
72
1
41
1
210
0
220
0
230
1
3
Standard
100
AcDbAlignedDimension
13
-103.355
23
-9.99125
33
0
14
-103.355
24
9.99125
34
0
50
90
100
AcDbRotatedDimension
1001
ACAD
1000
DSTYLE
1002
{
1070
    74
1070
     0
1070
   279
1070
     0
1070
   172
1070
     1
1070
   173
1070
     1
1070
   340
1005
D7
1070
    77
1070
     1
1070
    73
1070
     0
1070
   171
1070
     4
1070
   274
1070
     4
1070
   177
1070
     2
1070
   176
1070
     2
1070
   178
1070
     7
1070
    78
1070
     8
1070
    41
1041
3.175
1070
   147
1041
2.25
1070
    42
1041
2.0
1070
    44
1041
2.0
1070
   140
1041
4.5
1070
   343
1005
10A
1070
   344
1005
10A
1002
}
0
DIMENSION
5
12D
100
AcDbEntity
8
SK2
62
256
6
ByLayer
370
-3
48
1
60
0
100
AcDbDimension
2
DimnDraft3D3
10
119.895
20
-30.15
30
0
11
2.454868
21
-30.15
31
0
70
32
71
5
72
1
41
1
210
0
220
0
230
1
3
Standard
100
AcDbAlignedDimension
13
-101.355
23
-11.99125
33
0
14
119.895
24
-14.9
34
0
50
0
100
AcDbRotatedDimension
1001
ACAD
1000
DSTYLE
1002
{
1070
   279
1070
     0
1070
   172
1070
     1
1070
   173
1070
     1
1070
   340
1005
D7
1070
    77
1070
     1
1070
    73
1070
     0
1070
   171
1070
     4
1070
   274
1070
     4
1070
   177
1070
     2
1070
   176
1070
     2
1070
   178
1070
     7
1070
    78
1070
     8
1070
    41
1041
3.175
1070
   147
1041
2.25
1070
    42
1041
2.0
1070
    44
1041
2.0
1070
   140
1041
4.5
1070
   343
1005
10A
1070
   344
1005
10A
1002
}
0
DIMENSION
5
13B
100
AcDbEntity
8
2
62
256
6
ByLayer
370
-3
48
1
60
0
100
AcDbDimension
2
DimnDraft3D4
10
159.145346
20
0
30
0
11
142.253155
21
33.528479
31
0
70
34
71
5
72
1
41
1
210
0
220
0
230
1
3
Standard
100
AcDb2LineAngularDimension
13
119.214633
23
0.082184
33
0
14
117.129353
24
39.871689
34
0
15
121.895
25
0
35
0
16
148.423351
26
30.775028
36
0
40
0
0
ENDSEC
0
SECTION
2
OBJECTS
0
DICTIONARY
5
16c
330
0
100
AcDbDictionary
280
0
281
1
3
ACAD_GROUP
350
16d
3
ACAD_MLINESTYLE
350
16e
0
DICTIONARY
5
16d
330
0
100
AcDbDictionary
280
0
281
1
0
DICTIONARY
5
16e
330
0
100
AcDbDictionary
280
0
281
1
3
Standard
350
18
0
MLINESTYLE
5
18
330
16e
100
AcDbMlineStyle
2
Standard
70
0
3

62
256
51
90
52
90
71
2
49
-0.5
62
256
6
ByLayer
49
0.5
62
256
6
ByLayer
0
RASTERVARIABLES
5
15a
330

100
AcDbRasterVariables
90
0
70
1
71
1
72
1
0
ENDSEC
0
EOF
