0
SECTION
2
HEADER
9
$ACADVER
1
AC1015
9
$DWGCODEPAGE
3
ANSI_1252
9
$HANDSEED
5
18a
9
$ANGBASE
50
0
9
$ANGDIR
70
0
9
$ATTMODE
70
1
9
$AUNITS
70
0
9
$AUPREC
70
0
9
$CECOLOR
62
256
9
$CELTSCALE
40
1
9
$CELTYPE
6
ByLayer
9
$CELWEIGHT
370
-1
9
$CLAYER
8
0
9
$CMLJUST
70
0
9
$CMLSCALE
40
1
9
$CMLSTYLE
2
Standard
9
$DIMSTYLE
2
Standard
9
$TEXTSIZE
40
0.2
9
$TEXTSTYLE
7
Standard
9
$LUNITS
70
2
9
$LUPREC
70
4
9
$EXTNAMES
290
1
9
$INSUNITS
70
4
9
$LTSCALE
40
1
9
$LWDISPLAY
290
0
9
$PDMODE
70
0
9
$PDSIZE
40
0
9
$PLINEGEN
70
0
0
ENDSEC
0
SECTION
2
CLASSES
0
CLASS
1
RASTERVARIABLES
2
AcDbRasterVariables
3
ISM
90
0
280
0
281
0
0
ENDSEC
0
SECTION
2
TABLES
0
TABLE
2
VPORT
5
180
100
AcDbSymbolTable
0
VPORT
5
1
100
AcDbSymbolTableRecord
100
AcDbViewportTableRecord
2
*Active
70
0
10
0
20
0
11
1
21
1
12
-1
22
1
13
0
23
0
14
0.5
24
0.5
15
10
25
10
16
0
26
0
36
1
17
0
27
0
37
0
0
ENDTAB
0
TABLE
2
LTYPE
5
181
100
AcDbSymbolTable
0
LTYPE
5
14
100
AcDbSymbolTableRecord
100
AcDbLinetypeTableRecord
70
0
2
ByBlock
3

72
65
73
0
40
0
0
LTYPE
5
15
100
AcDbSymbolTableRecord
100
AcDbLinetypeTableRecord
70
0
2
ByLayer
3

72
65
73
0
40
0
0
LTYPE
5
16
100
AcDbSymbolTableRecord
100
AcDbLinetypeTableRecord
70
0
2
CONTINUOUS
3
Solid line
72
65
73
0
40
0
0
LTYPE
5
3B
100
AcDbSymbolTableRecord
100
AcDbLinetypeTableRecord
70
0
2
DASHED
3
__ __ __ __ __ __ __ __ __
72
65
73
2
40
25.72
49
12.86
74
0
49
-12.86
74
0
0
LTYPE
5
3C
100
AcDbSymbolTableRecord
100
AcDbLinetypeTableRecord
70
0
2
HIDDEN
3
_ _ _ _ _ _ _ _ _ _ _ _ _ _ _
72
65
73
2
40
0.5
49
0.25
74
0
49
-0.25
74
0
0
LTYPE
5
3D
100
AcDbSymbolTableRecord
100
AcDbLinetypeTableRecord
70
0
2
PHANTOM
3
____ _ _ ____ _ _ _____ _ _ ____
72
65
73
6
40
50.5
49
18
74
0
49
-6.5
74
0
49
6.5
74
0
49
-6.5
74
0
49
6.5
74
0
49
-6.5
74
0
0
LTYPE
5
3E
100
AcDbSymbolTableRecord
100
AcDbLinetypeTableRecord
70
0
2
CENTER
3
____ _ ____ _ ____ _ ____
72
65
73
4
40
47.5
49
22
74
0
49
-8.5
74
0
49
8.5
74
0
49
-8.5
74
0
0
LTYPE
5
3F
100
AcDbSymbolTableRecord
100
AcDbLinetypeTableRecord
70
0
2
DOT
3
.........................
72
65
73
2
40
10
49
0
74
0
49
-10
74
0
0
LTYPE
5
40
100
AcDbSymbolTableRecord
100
AcDbLinetypeTableRecord
70
0
2
DASHDOT
3
_._._._._._._._._._._._._._._._.
72
65
73
4
40
70
49
31
74
0
49
-13
74
0
49
13
74
0
49
-13
74
0
0
ENDTAB
0
TABLE
2
LAYER
5
182
100
AcDbSymbolTable
0
LAYER
5
10
100
AcDbSymbolTableRecord
100
AcDbLayerTableRecord
2
0
70
0
62
7
6
CONTINUOUS
290
1
370
-3
390
0
0
LAYER
5
42
100
AcDbSymbolTableRecord
100
AcDbLayerTableRecord
2
80
70
0
62
-6
6
CONTINUOUS
290
1
370
-3
390
0
0
LAYER
5
44
100
AcDbSymbolTableRecord
100
AcDbLayerTableRecord
2
81
70
0
62
-3
6
CONTINUOUS
290
1
370
-3
390
0
0
LAYER
5
46
100
AcDbSymbolTableRecord
100
AcDbLayerTableRecord
2
1
70
0
62
4
6
CONTINUOUS
290
1
370
-3
390
0
0
LAYER
5
48
100
AcDbSymbolTableRecord
100
AcDbLayerTableRecord
2
2
70
0
62
7
6
CONTINUOUS
290
1
370
-3
390
0
0
LAYER
5
5B
100
AcDbSymbolTableRecord
100
AcDbLayerTableRecord
2
4
70
0
62
-2
6
CENTER
290
1
370
-3
390
0
0
LAYER
5
16c
100
AcDbSymbolTableRecord
100
AcDbLayerTableRecord
2
SK1
70
0
62
4
6
CONTINUOUS
290
1
370
-3
390
0
0
LAYER
5
16d
100
AcDbSymbolTableRecord
100
AcDbLayerTableRecord
2
SK4
70
0
62
2
6
CENTER
290
1
370
-3
390
0
0
LAYER
5
16e
100
AcDbSymbolTableRecord
100
AcDbLayerTableRecord
2
SK6
70
0
62
5
6
CONTINUOUS
290
1
370
-3
390
0
0
LAYER
5
16f
100
AcDbSymbolTableRecord
100
AcDbLayerTableRecord
2
SK2
70
0
62
7
6
CONTINUOUS
290
1
370
-3
390
0
0
ENDTAB
0
TABLE
2
STYLE
5
183
100
AcDbSymbolTable
0
STYLE
5
11
100
AcDbSymbolTableRecord
100
AcDbTextStyleTableRecord
2
Standard
3
txt
70
0
71
0
40
0
41
1
42
0
50
0
0
STYLE
5
E8
100
AcDbSymbolTableRecord
100
AcDbTextStyleTableRecord
2
DEFAULT
3
simplex.shx
70
0
71
0
40
0
41
1
42
0
50
0
0
STYLE
5
10B
100
AcDbSymbolTableRecord
100
AcDbTextStyleTableRecord
2
DWGDirectTextStyle
3
SIMPLEX
70
0
71
0
40
0
41
1
42
0
50
0
0
ENDTAB
0
TABLE
2
DIMSTYLE
5
184
100
AcDbSymbolTable
100
AcDbDimStyleTable
0
DIMSTYLE
105
27
100
AcDbSymbolTableRecord
100
AcDbDimStyleTableRecord
2
Standard
70
0
3
<>
41
0.18
42
0.0625
44
0.18
140
0.18
147
0.09
73
0
74
0
77
1
271
2
275
0
278
52
280
0
340
11
0
ENDTAB
0
TABLE
2
VIEW
5
185
100
AcDbSymbolTable
0
ENDTAB
0
TABLE
2
UCS
5
186
100
AcDbSymbolTable
0
ENDTAB
0
TABLE
2
APPID
5
187
100
AcDbSymbolTable
0
APPID
5
12
100
AcDbSymbolTableRecord
100
AcDbRegAppTableRecord
2
ACAD
70
0
0
ENDTAB
0
TABLE
2
BLOCK_RECORD
5
188
100
AcDbSymbolTable
0
BLOCK_RECORD
5
1F
100
AcDbSymbolTableRecord
100
AcDbBlockTableRecord
2
*Model_Space
340
0
70
0
0
BLOCK_RECORD
5
1B
100
AcDbSymbolTableRecord
100
AcDbBlockTableRecord
2
*Paper_Space
340
0
70
0
0
BLOCK_RECORD
5
23
100
AcDbSymbolTableRecord
100
AcDbBlockTableRecord
2
*Paper_Space0
340
0
70
0
0
BLOCK_RECORD
5
10D
100
AcDbSymbolTableRecord
100
AcDbBlockTableRecord
2
DimnDraft3D1
340
0
70
0
0
BLOCK_RECORD
5
11B
100
AcDbSymbolTableRecord
100
AcDbBlockTableRecord
2
_CLOSED
340
0
70
0
0
BLOCK_RECORD
5
122
100
AcDbSymbolTableRecord
100
AcDbBlockTableRecord
2
DimnDraft3D2
340
0
70
0
0
BLOCK_RECORD
5
131
100
AcDbSymbolTableRecord
100
AcDbBlockTableRecord
2
DimnDraft3D3
340
0
70
0
0
BLOCK_RECORD
5
13F
100
AcDbSymbolTableRecord
100
AcDbBlockTableRecord
2
DimnDraft3D4
340
0
70
0
0
ENDTAB
0
ENDSEC
0
SECTION
2
BLOCKS
0
BLOCK
5
20
100
AcDbEntity
8
0
100
AcDbBlockBegin
2
*Model_Space
70
0
10
0
20
0
30
0
3
*Model_Space
0
ENDBLK
5
21
100
AcDbEntity
8
0
100
AcDbBlockEnd
0
BLOCK
5
1C
100
AcDbEntity
8
0
100
AcDbBlockBegin
2
*Paper_Space
70
0
10
0
20
0
30
0
3
*Paper_Space
0
ENDBLK
5
1D
100
AcDbEntity
8
0
100
AcDbBlockEnd
0
BLOCK
5
24
100
AcDbEntity
8
0
100
AcDbBlockBegin
2
*Paper_Space0
70
0
10
0
20
0
30
0
3
*Paper_Space0
0
ENDBLK
5
25
100
AcDbEntity
8
0
100
AcDbBlockEnd
0
BLOCK
5
118
100
AcDbEntity
8
0
100
AcDbBlockBegin
2
DimnDraft3D1
70
0
10
0
20
0
30
0
3
DimnDraft3D1
0
MTEXT
5
10E
100
AcDbEntity
8
2
62
256
6
ByLayer
370
-1
48
1
60
0
100
AcDbMText
10
107.035
20
22.28
30
0
210
0
220
0
230
1
1
\W01.000;\fsimplex.shx,bigfont.shx;11.0 
40
4.5
41
0
44
1.084337
50
90
71
7
72
5
7
DEFAULT
0
LINE
5
10F
100
AcDbEntity
8
2
62
256
6
ByLayer
370
-1
48
1
60
0
100
AcDbLine
10
97.91
20
10.9
30
0
11
110.16
21
10.9
31
0
39
0
210
0
220
0
230
1
0
LINE
5
110
100
AcDbEntity
8
2
62
256
6
ByLayer
370
-1
48
1
60
0
100
AcDbLine
10
97.91
20
0
30
0
11
110.16
21
0
31
0
39
0
210
0
220
0
230
1
0
LINE
5
111
100
AcDbEntity
8
2
62
256
6
ByLayer
370
-1
48
1
60
0
100
AcDbLine
10
108.16
20
0
30
0
11
108.16
21
29.231316
31
0
39
0
210
0
220
0
230
1
0
LINE
5
112
100
AcDbEntity
8
2
62
256
6
ByLayer
370
-1
48
1
60
0
100
AcDbLine
10
108.16
20
10.9
30
0
11
108.577997
21
7.725002
31
0
39
0
210
0
220
0
230
1
0
LINE
5
113
100
AcDbEntity
8
2
62
256
6
ByLayer
370
-1
48
1
60
0
100
AcDbLine
10
108.16
20
10.9
30
0
11
107.742003
21
7.724998
31
0
39
0
210
0
220
0
230
1
0
LINE
5
114
100
AcDbEntity
8
2
62
256
6
ByLayer
370
-1
48
1
60
0
100
AcDbLine
10
108.577997
20
7.725002
30
0
11
107.742003
21
7.724998
31
0
39
0
210
0
220
0
230
1
0
LINE
5
115
100
AcDbEntity
8
2
62
256
6
ByLayer
370
-1
48
1
60
0
100
AcDbLine
10
108.16
20
0
30
0
11
107.742003
21
3.174998
31
0
39
0
210
0
220
0
230
1
0
LINE
5
116
100
AcDbEntity
8
2
62
256
6
ByLayer
370
-1
48
1
60
0
100
AcDbLine
10
108.16
20
0
30
0
11
108.577997
21
3.175002
31
0
39
0
210
0
220
0
230
1
0
LINE
5
117
100
AcDbEntity
8
2
62
256
6
ByLayer
370
-1
48
1
60
0
100
AcDbLine
10
107.742003
20
3.174998
30
0
11
108.577997
21
3.175002
31
0
39
0
210
0
220
0
230
1
0
ENDBLK
5
119
100
AcDbEntity
8
0
100
AcDbBlockEnd
0
BLOCK
5
11C
100
AcDbEntity
8
0
100
AcDbBlockBegin
2
_CLOSED
70
0
10
0
20
0
30
0
3
_CLOSED
0
LINE
5
11E
100
AcDbEntity
8
0
62
256
6
ByLayer
370
-2
48
1
60
0
100
AcDbLine
10
-1
20
0.166667
30
0
11
0
21
0
31
0
39
0
210
0
220
0
230
1
0
LINE
5
11F
100
AcDbEntity
8
0
62
256
6
ByLayer
370
-2
48
1
60
0
100
AcDbLine
10
0
20
0
30
0
11
-1
21
-0.166667
31
0
39
0
210
0
220
0
230
1
0
LINE
5
120
100
AcDbEntity
8
0
62
256
6
ByLayer
370
-2
48
1
60
0
100
AcDbLine
10
-1
20
0.166667
30
0
11
-1
21
-0.166667
31
0
39
0
210
0
220
0
230
1
0
LINE
5
121
100
AcDbEntity
8
0
62
256
6
ByLayer
370
-2
48
1
60
0
100
AcDbLine
10
0
20
0
30
0
11
-1
21
0
31
0
39
0
210
0
220
0
230
1
0
ENDBLK
5
11D
100
AcDbEntity
8
0
100
AcDbBlockEnd
0
BLOCK
5
12E
100
AcDbEntity
8
0
100
AcDbBlockBegin
2
DimnDraft3D2
70
0
10
0
20
0
30
0
3
DimnDraft3D2
0
MTEXT
5
123
100
AcDbEntity
8
SK2
62
256
6
ByLayer
370
-1
48
1
60
0
100
AcDbMText
10
-116.215
20
-3.096711
30
0
210
0
220
0
230
1
1
\W01.000;\fsimplex.shx,bigfont.shx;%%c16 
40
4.5
41
0
44
1.084337
50
90
71
7
72
5
7
DEFAULT
0
LINE
5
125
100
AcDbEntity
8
SK2
62
256
6
ByLayer
370
-1
48
1
60
0
100
AcDbLine
10
-107.34
20
-7.9925
30
0
11
-117.09
21
-7.9925
31
0
39
0
210
0
220
0
230
1
0
LINE
5
126
100
AcDbEntity
8
SK2
62
256
6
ByLayer
370
-1
48
1
60
0
100
AcDbLine
10
-107.34
20
7.9925
30
0
11
-117.09
21
7.9925
31
0
39
0
210
0
220
0
230
1
0
LINE
5
127
100
AcDbEntity
8
SK2
62
256
6
ByLayer
370
-1
48
1
60
0
100
AcDbLine
10
-115.09
20
-19.2425
30
0
11
-115.09
21
19.2425
31
0
39
0
210
0
220
0
230
1
0
LINE
5
128
100
AcDbEntity
8
SK2
62
256
6
ByLayer
370
-1
48
1
60
0
100
AcDbLine
10
-115.09
20
-7.9925
30
0
11
-114.672003
21
-11.167498
31
0
39
0
210
0
220
0
230
1
0
LINE
5
129
100
AcDbEntity
8
SK2
62
256
6
ByLayer
370
-1
48
1
60
0
100
AcDbLine
10
-115.09
20
-7.9925
30
0
11
-115.507997
21
-11.167502
31
0
39
0
210
0
220
0
230
1
0
LINE
5
12A
100
AcDbEntity
8
SK2
62
256
6
ByLayer
370
-1
48
1
60
0
100
AcDbLine
10
-114.672003
20
-11.167498
30
0
11
-115.507997
21
-11.167502
31
0
39
0
210
0
220
0
230
1
0
LINE
5
12B
100
AcDbEntity
8
SK2
62
256
6
ByLayer
370
-1
48
1
60
0
100
AcDbLine
10
-115.09
20
7.9925
30
0
11
-115.507997
21
11.167498
31
0
39
0
210
0
220
0
230
1
0
LINE
5
12C
100
AcDbEntity
8
SK2
62
256
6
ByLayer
370
-1
48
1
60
0
100
AcDbLine
10
-115.09
20
7.9925
30
0
11
-114.672003
21
11.167502
31
0
39
0
210
0
220
0
230
1
0
LINE
5
12D
100
AcDbEntity
8
SK2
62
256
6
ByLayer
370
-1
48
1
60
0
100
AcDbLine
10
-115.507997
20
11.167498
30
0
11
-114.672003
21
11.167502
31
0
39
0
210
0
220
0
230
1
0
ENDBLK
5
12F
100
AcDbEntity
8
0
100
AcDbBlockEnd
0
BLOCK
5
13C
100
AcDbEntity
8
0
100
AcDbBlockBegin
2
DimnDraft3D3
70
0
10
0
20
0
30
0
3
DimnDraft3D3
0
MTEXT
5
132
100
AcDbEntity
8
SK2
62
256
6
ByLayer
370
-1
48
1
60
0
100
AcDbMText
10
-10.405132
20
24.775
30
0
210
0
220
0
230
1
1
\W01.000;\fsimplex.shx,bigfont.shx;200.0 
40
4.5
41
0
44
1.084337
50
0
71
7
72
5
7
DEFAULT
0
LINE
5
133
100
AcDbEntity
8
SK2
62
256
6
ByLayer
370
-1
48
1
60
0
100
AcDbLine
10
95.91
20
12.9
30
0
11
95.91
21
25.65
31
0
39
0
210
0
220
0
230
1
0
LINE
5
134
100
AcDbEntity
8
SK2
62
256
6
ByLayer
370
-1
48
1
60
0
100
AcDbLine
10
-105.34
20
9.9925
30
0
11
-105.34
21
25.65
31
0
39
0
210
0
220
0
230
1
0
LINE
5
135
100
AcDbEntity
8
SK2
62
256
6
ByLayer
370
-1
48
1
60
0
100
AcDbLine
10
95.91
20
23.65
30
0
11
-105.34
21
23.65
31
0
39
0
210
0
220
0
230
1
0
LINE
5
136
100
AcDbEntity
8
SK2
62
256
6
ByLayer
370
-1
48
1
60
0
100
AcDbLine
10
95.91
20
23.65
30
0
11
92.735002
21
23.232003
31
0
39
0
210
0
220
0
230
1
0
LINE
5
137
100
AcDbEntity
8
SK2
62
256
6
ByLayer
370
-1
48
1
60
0
100
AcDbLine
10
95.91
20
23.65
30
0
11
92.734998
21
24.067997
31
0
39
0
210
0
220
0
230
1
0
LINE
5
138
100
AcDbEntity
8
SK2
62
256
6
ByLayer
370
-1
48
1
60
0
100
AcDbLine
10
92.735002
20
23.232003
30
0
11
92.734998
21
24.067997
31
0
39
0
210
0
220
0
230
1
0
LINE
5
139
100
AcDbEntity
8
SK2
62
256
6
ByLayer
370
-1
48
1
60
0
100
AcDbLine
10
-105.34
20
23.65
30
0
11
-102.165002
21
24.067997
31
0
39
0
210
0
220
0
230
1
0
LINE
5
13A
100
AcDbEntity
8
SK2
62
256
6
ByLayer
370
-1
48
1
60
0
100
AcDbLine
10
-105.34
20
23.65
30
0
11
-102.164998
21
23.232003
31
0
39
0
210
0
220
0
230
1
0
LINE
5
13B
100
AcDbEntity
8
SK2
62
256
6
ByLayer
370
-1
48
1
60
0
100
AcDbLine
10
-102.165002
20
24.067997
30
0
11
-102.164998
21
23.232003
31
0
39
0
210
0
220
0
230
1
0
ENDBLK
5
13D
100
AcDbEntity
8
0
100
AcDbBlockEnd
0
BLOCK
5
14A
100
AcDbEntity
8
0
100
AcDbBlockBegin
2
DimnDraft3D4
70
0
10
0
20
0
30
0
3
DimnDraft3D4
0
MTEXT
5
140
100
AcDbEntity
8
2
62
256
6
ByLayer
370
-1
48
1
60
0
100
AcDbMText
10
124.481824
20
-35.950619
30
0
210
0
220
0
230
1
1
\W01.000;\fsimplex.shx,bigfont.shx;91%%d0' 
40
4.5
41
0
44
1.084337
50
44.5
71
7
72
5
7
DEFAULT
0
LINE
5
141
100
AcDbEntity
8
2
62
256
6
ByLayer
370
-1
48
1
60
0
100
AcDbLine
10
95.683119
20
-2.09802
30
0
11
94.865856
21
-48.918955
31
0
39
0
210
0
220
0
230
1
0
LINE
5
142
100
AcDbEntity
8
2
62
256
6
ByLayer
370
-1
48
1
60
0
100
AcDbLine
10
97.91
20
0
30
0
11
144.646147
21
0
31
0
39
0
210
0
220
0
230
1
0
ARC
5
143
100
AcDbEntity
8
2
62
256
6
ByLayer
370
-1
48
1
60
0
100
AcDbCircle
39
0
10
95.71974
20
0
30
0
40
46.9264068782928
210
0
220
0
230
1
100
AcDbArc
50
269
51
0
0
LINE
5
144
100
AcDbEntity
8
2
62
256
6
ByLayer
370
-1
48
1
60
0
100
AcDbLine
10
94.900761
20
-46.91926
30
0
11
98.075987
21
-46.502993
31
0
39
0
210
0
220
0
230
1
0
LINE
5
145
100
AcDbEntity
8
2
62
256
6
ByLayer
370
-1
48
1
60
0
100
AcDbLine
10
94.900761
20
-46.91926
30
0
11
98.075534
21
-47.338987
31
0
39
0
210
0
220
0
230
1
0
LINE
5
146
100
AcDbEntity
8
2
62
256
6
ByLayer
370
-1
48
1
60
0
100
AcDbLine
10
98.075987
20
-46.502993
30
0
11
98.075534
21
-47.338987
31
0
39
0
210
0
220
0
230
1
0
LINE
5
147
100
AcDbEntity
8
2
62
256
6
ByLayer
370
-1
48
1
60
0
100
AcDbLine
10
142.646147
20
0
30
0
11
143.010402
21
-3.181612
31
0
39
0
210
0
220
0
230
1
0
LINE
5
148
100
AcDbEntity
8
2
62
256
6
ByLayer
370
-1
48
1
60
0
100
AcDbLine
10
142.646147
20
0
30
0
11
142.174528
21
-3.16748
31
0
39
0
210
0
220
0
230
1
0
LINE
5
149
100
AcDbEntity
8
2
62
256
6
ByLayer
370
-1
48
1
60
0
100
AcDbLine
10
143.010402
20
-3.181612
30
0
11
142.174528
21
-3.16748
31
0
39
0
210
0
220
0
230
1
0
ENDBLK
5
14B
100
AcDbEntity
8
0
100
AcDbBlockEnd
0
ENDSEC
0
SECTION
2
ENTITIES
0
ELLIPSE
5
96
100
AcDbEntity
8
1
62
256
6
ByLayer
370
-1
48
1
60
0
100
AcDbEllipse
10
92.480012
20
0.005023
30
0
11
0.190374824445279
21
10.4208793866015
31
0
210
0
220
0
230
-1
40
0.105084
41
0.0498297884178531
42
0.338186178340752
0
ELLIPSE
5
97
100
AcDbEntity
8
1
62
256
6
ByLayer
370
-1
48
1
60
0
100
AcDbEllipse
10
88.541609
20
6.545059
30
0
11
0.0472858561545986
21
-1.24910529892709
31
0
210
0
220
0
230
1
40
0.994505
41
-2.14999096919075
42
-1.89804989681895
0
ELLIPSE
5
98
100
AcDbEntity
8
1
62
256
6
ByLayer
370
-1
48
1
60
0
100
AcDbEllipse
10
91.474332
20
0.005009
30
0
11
0.189884699681116
21
10.3940504937624
31
0
210
0
220
0
230
-1
40
0.105084
41
0.0179339484551744
42
0.0600717695300158
0
ELLIPSE
5
99
100
AcDbEntity
8
1
62
256
6
ByLayer
370
-1
48
1
60
0
100
AcDbEllipse
10
88.149042
20
6.530198
30
0
11
1.25670827758539
21
-0.0218683383173082
31
0
210
0
220
0
230
-1
40
0.994495
41
-2.86988148240126
42
-2.61794041014507
0
ELLIPSE
5
9A
100
AcDbEntity
8
1
62
256
6
ByLayer
370
-1
48
1
60
0
100
AcDbEllipse
10
88.278492
20
6.744475
30
0
11
1.25670827713912
21
-0.021868302322873
31
0
210
0
220
0
230
-1
40
0.994495
41
-2.61794038145091
42
-1.1196516903266
0
ELLIPSE
5
9B
100
AcDbEntity
8
1
62
256
6
ByLayer
370
-1
48
1
60
0
100
AcDbEllipse
10
87.028198
20
5.840006
30
0
11
1.05563495279697
21
-0.0183693739506876
31
0
210
0
220
0
230
-1
40
0.994495
41
1.51794535288425
42
-1.66767195154254
0
ELLIPSE
5
9C
100
AcDbEntity
8
1
62
256
6
ByLayer
370
-1
48
1
60
0
100
AcDbEllipse
10
87.464282
20
5.856514
30
0
11
-0.0397201191698773
21
1.04924845109887
31
0
210
0
220
0
230
1
40
0.994505
41
0
42
2.97793488673329
0
ELLIPSE
5
9D
100
AcDbEntity
8
1
62
256
6
ByLayer
370
-1
48
1
60
0
100
AcDbEllipse
10
91.148426
20
4.596015
30
0
11
0.0547272518424068
21
-1.44567754147388
31
0
210
0
220
0
230
1
40
0.994505
41
-0.820855479008475
42
-0.579194642395838
0
ELLIPSE
5
9E
100
AcDbEntity
8
1
62
256
6
ByLayer
370
-1
48
1
60
0
100
AcDbEllipse
10
92.853256
20
3.565069
30
0
11
0.0547272518424064
21
-1.44567754147387
31
0
210
0
220
0
230
1
40
0.994505
41
-0.579194642395858
42
-0.337534128230674
0
ELLIPSE
5
9F
100
AcDbEntity
8
1
62
256
6
ByLayer
370
-1
48
1
60
0
100
AcDbEllipse
10
87.124294
20
5.843643
30
0
11
-0.0397201191698753
21
1.04924845109881
31
0
210
0
220
0
230
1
40
0.994505
41
3.13890125724387
42
-2.52874704436394
0
ELLIPSE
5
A0
100
AcDbEntity
8
1
62
256
6
ByLayer
370
-1
48
1
60
0
100
AcDbEllipse
10
125.789506
20
-0.011424
30
0
11
107.516724515751
21
-0.0455067736522336
31
0
210
0
220
0
230
-1
40
0.101749
41
-1.89318103482626
42
-1.8834374206822
0
ELLIPSE
5
A1
100
AcDbEntity
8
1
62
256
6
ByLayer
370
-1
48
1
60
0
100
AcDbEllipse
10
155.927537
20
-0.01223
30
0
11
115.160262691179
21
-0.048739011515067
31
0
210
0
220
0
230
-1
40
0.101749
41
-2.1487027132977
42
-2.14322724933314
0
ELLIPSE
5
A2
100
AcDbEntity
8
1
62
256
6
ByLayer
370
-1
48
1
60
0
100
AcDbEllipse
10
88.669682
20
6.759283
30
0
11
0.0472858561545986
21
-1.24910529892709
31
0
210
0
220
0
230
1
40
0.994505
41
-2.98401043650686
42
-2.14999096919075
0
ELLIPSE
5
A3
100
AcDbEntity
8
1
62
256
6
ByLayer
370
-1
48
1
60
0
100
AcDbEllipse
10
88.361077
20
6.747601
30
0
11
0.0472858561545986
21
-1.24910529892709
31
0
210
0
220
0
230
1
40
0.994505
41
2.56239801119397
42
2.6349056468644
0
ELLIPSE
5
A4
100
AcDbEntity
8
1
62
256
6
ByLayer
370
-1
48
1
60
0
100
AcDbEllipse
10
87.432899
20
5.855326
30
0
11
0.0397201191698649
21
-1.04924845109881
31
0
210
0
220
0
230
1
40
0.994505
41
2.56325509470943
42
-3.10025939909882
0
ELLIPSE
5
A5
100
AcDbEntity
8
1
62
256
6
ByLayer
370
-1
48
1
60
0
100
AcDbEllipse
10
87.143956
20
5.841814
30
0
11
-0.0150132593290879
21
0.396590932409325
31
0
210
0
220
0
230
1
40
0.994505
41
0.46800290880069
42
2.56239801119392
0
ELLIPSE
5
A6
100
AcDbEntity
8
1
62
256
6
ByLayer
370
-1
48
1
60
0
100
AcDbEllipse
10
95.347349
20
0.881049
30
0
11
-0.0150132593290879
21
0.396590932409325
31
0
210
0
220
0
230
1
40
0.994505
41
2.56239801119404
42
-1.62639219359238
0
ELLIPSE
5
A7
100
AcDbEntity
8
1
62
256
6
ByLayer
370
-1
48
1
60
0
100
AcDbEllipse
10
92.335037
20
5.017482
30
0
11
0.00699830671088058
21
-0.184867584241209
31
0
210
0
220
0
230
1
40
0.994505
41
-1.8772641560167
42
-0.295645391377116
0
ELLIPSE
5
A8
100
AcDbEntity
8
1
62
256
6
ByLayer
370
-1
48
1
60
0
100
AcDbEllipse
10
91.752984
20
5.178707
30
0
11
0.0159637050377925
21
-0.421697948917785
31
0
210
0
220
0
230
1
40
0.994505
41
1.26432849757325
42
2.0392282254256
0
ELLIPSE
5
A9
100
AcDbEntity
8
1
62
256
6
ByLayer
370
-1
48
1
60
0
100
AcDbEllipse
10
91.925268
20
5.760385
30
0
11
0.00699830671088058
21
-0.184867584241209
31
0
210
0
220
0
230
1
40
0.994505
41
-2.9270771690828
42
-0.327464700311811
0
ELLIPSE
5
AA
100
AcDbEntity
8
1
62
256
6
ByLayer
370
-1
48
1
60
0
100
AcDbEllipse
10
91.77442
20
6.348186
30
0
11
0.0159637050377925
21
-0.421697948917785
31
0
210
0
220
0
230
1
40
0.994505
41
0.214515484507338
42
0.924688362084166
0
ELLIPSE
5
AB
100
AcDbEntity
8
1
62
256
6
ByLayer
370
-1
48
1
60
0
100
AcDbEllipse
10
92.361365
20
6.489829
30
0
11
0.00699830671088058
21
-0.184867584241209
31
0
210
0
220
0
230
1
40
0.994505
41
-2.887019255535
42
-1.37290476929868
0
ELLIPSE
5
AC
100
AcDbEntity
8
1
62
256
6
ByLayer
370
-1
48
1
60
0
100
AcDbEllipse
10
93.205937
20
6.474206
30
0
11
0.00699830671088058
21
-0.184867584241209
31
0
210
0
220
0
230
1
40
0.994505
41
-2.86260263512057
42
-2.42271778236464
0
ELLIPSE
5
AD
100
AcDbEntity
8
1
62
256
6
ByLayer
370
-1
48
1
60
0
100
AcDbEllipse
10
93.179608
20
5.001859
30
0
11
0.00699830671088058
21
-0.184867584241209
31
0
210
0
220
0
230
1
40
0.994505
41
-0.830924584479886
42
-0.275296277964657
0
ELLIPSE
5
AE
100
AcDbEntity
8
1
62
256
6
ByLayer
370
-1
48
1
60
0
100
AcDbEllipse
10
92.770487
20
5.745844
30
0
11
0.0282958563229118
21
-0.747464610877971
31
0
210
0
220
0
230
1
40
0.994505
41
-0.0560248566274487
42
0.693475796976385
0
ELLIPSE
5
AF
100
AcDbEntity
8
1
62
256
6
ByLayer
370
-1
48
1
60
0
100
AcDbEllipse
10
92.683209
20
5.74254
30
0
11
-0.028295856322919
21
0.747464610877969
31
0
210
0
220
0
230
1
40
0.994505
41
0.953870332482736
42
1.02933303631538
0
ELLIPSE
5
B0
100
AcDbEntity
8
1
62
256
6
ByLayer
370
-1
48
1
60
0
100
AcDbEllipse
10
92.665875
20
5.741884
30
0
11
-0.0391526888960177
21
1.03425918751163
31
0
210
0
220
0
230
1
40
0.994505
41
2.56239801119395
42
-2.67444772444894
0
ELLIPSE
5
B1
100
AcDbEntity
8
1
62
256
6
ByLayer
370
-1
48
1
60
0
100
AcDbEllipse
10
92.749569
20
4.576051
30
0
11
0.0159637050377925
21
-0.421697948917785
31
0
210
0
220
0
230
1
40
0.994505
41
3.08556779696234
42
-3.14158244628766
0
ELLIPSE
5
B2
100
AcDbEntity
8
1
62
256
6
ByLayer
370
-1
48
1
60
0
100
AcDbEllipse
10
92.665875
20
5.741884
30
0
11
-0.0391526888960177
21
1.03425918751163
31
0
210
0
220
0
230
1
40
0.994505
41
1.51605843965726
42
2.56239801119395
0
ELLIPSE
5
B3
100
AcDbEntity
8
1
62
256
6
ByLayer
370
-1
48
1
60
0
100
AcDbEllipse
10
92.770487
20
5.745844
30
0
11
0.0282958563229118
21
-0.747464610877971
31
0
210
0
220
0
230
1
40
0.994505
41
-1.10236442816425
42
-0.218633148730873
0
ELLIPSE
5
B4
100
AcDbEntity
8
1
62
256
6
ByLayer
370
-1
48
1
60
0
100
AcDbEllipse
10
92.683209
20
5.74254
30
0
11
-0.028295856322919
21
0.747464610877969
31
0
210
0
220
0
230
1
40
0.994505
41
-2.18772232110736
42
-2.11225961727412
0
ELLIPSE
5
B5
100
AcDbEntity
8
1
62
256
6
ByLayer
370
-1
48
1
60
0
100
AcDbEllipse
10
92.770487
20
5.745844
30
0
11
0.0282958563229118
21
-0.747464610877971
31
0
210
0
220
0
230
1
40
0.994505
41
2.33011120342397
42
3.08556779696223
0
ELLIPSE
5
B6
100
AcDbEntity
8
1
62
256
6
ByLayer
370
-1
48
1
60
0
100
AcDbEllipse
10
92.770487
20
5.745844
30
0
11
0.0282958563229118
21
-0.747464610877971
31
0
210
0
220
0
230
1
40
0.994505
41
1.19378755749918
42
1.81215943670162
0
ELLIPSE
5
B7
100
AcDbEntity
8
1
62
256
6
ByLayer
370
-1
48
1
60
0
100
AcDbEllipse
10
92.665875
20
5.741884
30
0
11
-0.0391526888960177
21
1.03425918751163
31
0
210
0
220
0
230
1
40
0.994505
41
-2.67444772444894
42
-1.62553421393254
0
ELLIPSE
5
B8
100
AcDbEntity
8
1
62
256
6
ByLayer
370
-1
48
1
60
0
100
AcDbEllipse
10
92.791405
20
6.915637
30
0
11
0.0159637050377925
21
-0.421697948917785
31
0
210
0
220
0
230
1
40
0.994505
41
1.11692645269781E-05
42
0.718874871224973
0
ELLIPSE
5
B9
100
AcDbEntity
8
1
62
256
6
ByLayer
370
-1
48
1
60
0
100
AcDbEllipse
10
92.665875
20
5.741884
30
0
11
-0.0391526888960177
21
1.03425918751163
31
0
210
0
220
0
230
1
40
0.994505
41
0.467144929140888
42
1.51605843965726
0
ELLIPSE
5
BA
100
AcDbEntity
8
1
62
256
6
ByLayer
370
-1
48
1
60
0
100
AcDbEllipse
10
92.770487
20
5.745844
30
0
11
-0.0282958563229188
21
0.747464610877965
31
0
210
0
220
0
230
1
40
0.994505
41
0.953870332482733
42
1.02933303631538
0
ELLIPSE
5
BB
100
AcDbEntity
8
1
62
256
6
ByLayer
370
-1
48
1
60
0
100
AcDbEllipse
10
91.752984
20
5.178707
30
0
11
0.0159637050377925
21
-0.421697948917785
31
0
210
0
220
0
230
1
40
0.994505
41
2.0392282254256
42
2.81412795327788
0
ELLIPSE
5
BC
100
AcDbEntity
8
1
62
256
6
ByLayer
370
-1
48
1
60
0
100
AcDbEllipse
10
92.665875
20
5.741884
30
0
11
-0.0391526888960177
21
1.03425918751163
31
0
210
0
220
0
230
1
40
0.994505
41
-1.62553421393254
42
-0.579194642395824
0
ELLIPSE
5
BD
100
AcDbEntity
8
1
62
256
6
ByLayer
370
-1
48
1
60
0
100
AcDbEllipse
10
91.77442
20
6.348186
30
0
11
0.0159637050377925
21
-0.421697948917785
31
0
210
0
220
0
230
1
40
0.994505
41
1.05851500671396
42
1.76868788429092
0
ELLIPSE
5
BE
100
AcDbEntity
8
1
62
256
6
ByLayer
370
-1
48
1
60
0
100
AcDbEllipse
10
92.770487
20
5.745844
30
0
11
0.0282958563229118
21
-0.747464610877971
31
0
210
0
220
0
230
1
40
0.994505
41
-2.11225961727441
42
-1.10236442816425
0
ELLIPSE
5
BF
100
AcDbEntity
8
1
62
256
6
ByLayer
370
-1
48
1
60
0
100
AcDbEllipse
10
92.665875
20
5.741884
30
0
11
-0.0391526888960177
21
1.03425918751163
31
0
210
0
220
0
230
1
40
0.994505
41
-0.579194642395824
42
0.467144929140889
0
ELLIPSE
5
C0
100
AcDbEntity
8
1
62
256
6
ByLayer
370
-1
48
1
60
0
100
AcDbEllipse
10
92.770487
20
5.745844
30
0
11
0.028295856322911
21
-0.747464610877949
31
0
210
0
220
0
230
1
40
0.994505
41
-3.05834671959943
42
-2.18772232110705
0
ELLIPSE
5
C1
100
AcDbEntity
8
1
62
256
6
ByLayer
370
-1
48
1
60
0
100
AcDbEllipse
10
92.665875
20
5.741884
30
0
11
-0.0491772904007946
21
1.29906951088416
31
0
210
0
220
0
230
1
40
0.994505
41
0
42
6.28318530717959
0
ELLIPSE
5
C2
100
AcDbEntity
8
1
62
256
6
ByLayer
370
-1
48
1
60
0
100
AcDbEllipse
10
92.68407
20
5.742573
30
0
11
-0.0652544814933622
21
1.72376531251937
31
0
210
0
220
0
230
1
40
0.994505
41
0
42
6.28318530717959
0
ELLIPSE
5
C3
100
AcDbEntity
8
1
62
256
6
ByLayer
370
-1
48
1
60
0
100
AcDbEllipse
10
92.760026
20
5.745448
30
0
11
-0.0652544814933626
21
1.72376531251938
31
0
210
0
220
0
230
1
40
0.994505
41
-3.14152335511652
42
-1.60842631307295
0
ELLIPSE
5
C4
100
AcDbEntity
8
1
62
256
6
ByLayer
370
-1
48
1
60
0
100
AcDbEllipse
10
92.760026
20
5.745448
30
0
11
-0.0652544814933626
21
1.72376531251938
31
0
210
0
220
0
230
1
40
0.994505
41
-1.60842631307295
42
0
0
ELLIPSE
5
C5
100
AcDbEntity
8
1
62
256
6
ByLayer
370
-1
48
1
60
0
100
AcDbEllipse
10
92.668869
20
5.741997
30
0
11
-0.0709287842319159
21
1.87365794839063
31
0
210
0
220
0
230
1
40
0.994505
41
0
42
6.28318530717959
0
ELLIPSE
5
C6
100
AcDbEntity
8
1
62
256
6
ByLayer
370
-1
48
1
60
0
100
AcDbEllipse
10
92.725649
20
5.744147
30
0
11
-0.0700323379540934
21
1.84997738327259
31
0
210
0
220
0
230
1
40
0.994505
41
-0.427776673516978
42
-9.6481902858721E-16
0
ELLIPSE
5
C7
100
AcDbEntity
8
1
62
256
6
ByLayer
370
-1
48
1
60
0
100
AcDbEllipse
10
92.725649
20
5.744147
30
0
11
-0.0700323379540934
21
1.84997738327259
31
0
210
0
220
0
230
1
40
0.994505
41
0
42
-2.71387427048187
0
ELLIPSE
5
C8
100
AcDbEntity
8
1
62
256
6
ByLayer
370
-1
48
1
60
0
100
AcDbEllipse
10
92.750971
20
5.745105
30
0
11
0.0672019766630475
21
-1.77521043234878
31
0
210
0
220
0
230
1
40
0.994505
41
-0.883012827593032
42
0
0
ELLIPSE
5
C9
100
AcDbEntity
8
1
62
256
6
ByLayer
370
-1
48
1
60
0
100
AcDbEllipse
10
92.750971
20
5.745105
30
0
11
0.0672019766630475
21
-1.77521043234878
31
0
210
0
220
0
230
1
40
0.994505
41
0
42
-2.25863805602229
0
ELLIPSE
5
CA
100
AcDbEntity
8
1
62
256
6
ByLayer
370
-1
48
1
60
0
100
AcDbEllipse
10
95.515303
20
10.503128
30
0
11
-0.0150132593290879
21
0.396590932409325
31
0
210
0
220
0
230
1
40
0.994505
41
-1.62639219359245
42
0.468002908800784
0
POINT
5
41
100
AcDbEntity
8
80
62
256
6
ByLayer
370
-1
48
1
60
0
100
AcDbPoint
10
0
20
0
30
0
39
0
210
0
220
0
230
1
50
360
0
POINT
5
43
100
AcDbEntity
8
81
62
256
6
ByLayer
370
-1
48
1
60
0
100
AcDbPoint
10
95.91
20
10.9
30
0
39
0
210
0
220
0
230
1
50
360
0
POINT
5
45
100
AcDbEntity
8
1
62
256
6
ByLayer
370
-1
48
1
60
0
100
AcDbPoint
10
-105.34
20
0
30
0
39
0
210
0
220
0
230
1
50
360
0
POINT
5
47
100
AcDbEntity
8
2
62
256
6
ByLayer
370
-1
48
1
60
0
100
AcDbPoint
10
95.91
20
10.9
30
0
39
0
210
0
220
0
230
1
50
360
0
SPLINE
5
CB
100
AcDbEntity
8
1
62
256
6
ByLayer
370
-1
48
1
60
0
100
AcDbSpline
70
4
71
3
72
8
73
4
40
0
40
0
40
0
40
0
40
1
40
1
40
1
40
1
41
1
10
91.6837735682826
20
10.3970305877465
30
0
41
1
10
89.7364569603066
20
10.3450601102464
30
0
41
1
10
87.7891403607488
20
10.2930893173265
30
0
41
1
10
85.84182377
20
10.2411181943555
30
0
0
SPLINE
5
CC
100
AcDbEntity
8
1
62
256
6
ByLayer
370
-1
48
1
60
0
100
AcDbSpline
70
4
71
3
72
28
73
24
40
-0.124999999999998
40
-0.124999999999998
40
0
40
0
40
0.124999999999997
40
0.124999999999997
40
0.187499999999998
40
0.187499999999998
40
0.249999999999999
40
0.249999999999999
40
0.375
40
0.375
40
0.500000000000001
40
0.500000000000001
40
0.625000000000002
40
0.625000000000002
40
0.687500000000005
40
0.687500000000005
40
0.718750000000005
40
0.718750000000005
40
0.750000000000004
40
0.750000000000004
40
0.875000000000002
40
0.875000000000002
40
1
40
1
40
1.125
40
1.125
41
1
10
78.8088072174396
20
3.33998842710409
30
0
41
1
10
77.8622973390201
20
3.00997169466427
30
0
41
1
10
77.378410830972
20
2.93785398949956
30
0
41
1
10
76.6928405764102
20
3.22829457424388
30
0
41
1
10
76.4759593071486
20
3.40234594679467
30
0
41
1
10
76.178493184821
20
3.91085903885587
30
0
41
1
10
76.113597417147
20
4.23702069163062
30
0
41
1
10
76.1929066088849
20
5.10131957658507
30
0
41
1
10
76.5371881274284
20
5.50901483084272
30
0
41
1
10
77.3513019099688
20
6.04852415985658
30
0
41
1
10
77.8346204599567
20
6.19827150052711
30
0
41
1
10
78.8717657780212
20
6.3568401913856
30
0
41
1
10
79.421063786897
20
6.37191305378292
30
0
41
1
10
80.2598121390124
20
6.22515196825475
30
0
41
1
10
80.554919534592
20
6.15708986798816
30
0
41
1
10
80.8979216567319
20
5.87170616962365
30
0
41
1
10
80.9813967169661
20
5.72685677049546
30
0
41
1
10
80.9881253173774
20
5.4225272570612
30
0
41
1
10
80.93227187466
20
5.27823582684471
30
0
41
1
10
80.5841183386445
20
4.62338107720635
30
0
41
1
10
80.1341432966381
20
4.25446452434221
30
0
41
1
10
79.2671254609826
20
3.60569885286176
30
0
41
1
10
78.8088072174396
20
3.33998842710409
30
0
41
1
10
77.8622973390201
20
3.00997169466427
30
0
0
SPLINE
5
CD
100
AcDbEntity
8
1
62
256
6
ByLayer
370
-1
48
1
60
0
100
AcDbSpline
70
4
71
3
72
10
73
6
40
0
40
0
40
0
40
0
40
0.5
40
0.5
40
1
40
1
40
1
40
1
41
1
10
74.2790580814336
20
-0.30644523860073
30
0
41
1
10
74.8600811666929
20
-2.37077634915022
30
0
41
1
10
75.7042058181967
20
-4.27418420403669
30
0
41
1
10
78.0189700821754
20
-6.84954768691466
30
0
41
1
10
79.5432426764131
20
-7.51872852662569
30
0
41
1
10
81.3313379306214
20
-7.80079635376603
30
0
0
SPLINE
5
CE
100
AcDbEntity
8
1
62
256
6
ByLayer
370
-1
48
1
60
0
100
AcDbSpline
70
4
71
3
72
8
73
4
40
0
40
0
40
0
40
0
40
1
40
1
40
1
40
1
41
1
10
84.4999910773474
20
9.25606681642492
30
0
41
1
10
84.9472609411968
20
9.58442776453018
30
0
41
1
10
85.3945392461894
20
9.91277721526237
30
0
41
1
10
85.84182377
20
10.2411181943555
30
0
0
SPLINE
5
CF
100
AcDbEntity
8
1
62
256
6
ByLayer
370
-1
48
1
60
0
100
AcDbSpline
70
4
71
3
72
16
73
12
40
0
40
0
40
0
40
0
40
0.0294144115802709
40
0.0294144115802709
40
0.305038204399506
40
0.305038204399506
40
0.581380969558053
40
0.581380969558053
40
0.876106660268477
40
0.876106660268477
40
1
40
1
40
1
40
1
41
1
10
74.2790580814336
20
-0.30644523860073
30
0
41
1
10
74.2789603718993
20
-0.300778038495025
30
0
41
1
10
74.2788105628723
20
-0.295055052513248
30
0
41
1
10
74.2767374229866
20
-0.235798700777565
30
0
41
1
10
74.2702062386581
20
-0.177100775419319
30
0
41
1
10
74.24892547909
20
-0.0589447545711153
30
0
41
1
10
74.2339084630152
20
0.0019984915946338
30
0
41
1
10
74.196732359868
20
0.122497260669604
30
0
41
1
10
74.173732006123
20
0.183209211925373
30
0
41
1
10
74.1383654604908
20
0.262096351170726
30
0
41
1
10
74.1274734591114
20
0.284751493328656
30
0
41
1
10
74.1163227089973
20
0.306445238600901
30
0
0
SPLINE
5
D0
100
AcDbEntity
8
1
62
256
6
ByLayer
370
-1
48
1
60
0
100
AcDbSpline
70
4
71
3
72
14
73
10
40
0
40
0
40
0
40
0
40
0.25
40
0.25
40
0.5
40
0.5
40
0.75
40
0.75
40
1
40
1
40
1
40
1
41
1
10
82.8418237715587
20
8.04174133259278
30
0
41
1
10
81.3799734885904
20
8.04456386597707
30
0
41
1
10
79.9714289298535
20
8.05275979497688
30
0
41
1
10
77.3372203155334
20
7.86071271876278
30
0
41
1
10
76.1309543589985
20
7.65909502327423
30
0
41
1
10
74.3299901058622
20
6.58095259648789
30
0
41
1
10
73.7953473079447
20
5.64838999820515
30
0
41
1
10
73.5405354102438
20
3.20269820170083
30
0
41
1
10
73.7595393921077
20
1.73603327683605
30
0
41
1
10
74.1163227089972
20
0.306445238600702
30
0
0
SPLINE
5
D1
100
AcDbEntity
8
1
62
256
6
ByLayer
370
-1
48
1
60
0
100
AcDbSpline
70
4
71
3
72
8
73
4
40
0
40
0
40
0
40
0
40
1
40
1
40
1
40
1
41
1
10
82.8418237715587
20
8.04174133259278
30
0
41
1
10
83.3943835865167
20
8.44599388176587
30
0
41
1
10
83.947395438194
20
8.85038147373351
30
0
41
1
10
84.4999910773474
20
9.25606681642492
30
0
0
SPLINE
5
D2
100
AcDbEntity
8
SK1
62
256
6
ByLayer
370
-1
48
1
60
0
100
AcDbSpline
70
4
71
3
72
24
73
20
40
0
40
0
40
0
40
0
40
0.249999999999995
40
0.249999999999995
40
0.374999999999993
40
0.374999999999993
40
0.437499999999996
40
0.437499999999996
40
0.499999999999999
40
0.499999999999999
40
0.531250000000004
40
0.531250000000004
40
0.562500000000009
40
0.562500000000009
40
0.62500000000001
40
0.62500000000001
40
0.750000000000004
40
0.750000000000004
40
1
40
1
40
1
40
1
41
1
10
-32.09
20
-0.208217351629059
30
0
41
1
10
-32.4988420209809
20
-0.208217351629059
30
0
41
1
10
-32.9075700421796
20
-0.200628106757222
30
0
41
1
10
-33.5201123303113
20
-0.171073275450823
30
0
41
1
10
-33.723960835833
20
-0.158342940298155
30
0
41
1
10
-34.0285633625019
20
-0.129106778533128
30
0
41
1
10
-34.1299152849477
20
-0.117782088577599
30
0
41
1
10
-34.3316559370228
20
-0.0867855292195827
30
0
41
1
10
-34.4476642593234
20
-0.0899171685781255
30
0
41
1
10
-34.5669313789905
20
0.0136458934178734
30
0
41
1
10
-34.4784711277951
20
0.0489364234134655
30
0
41
1
10
-34.3778903856424
20
0.0766629766364701
30
0
41
1
10
-34.3266456087825
20
0.0864424784147104
30
0
41
1
10
-34.1721535471284
20
0.112538835792264
30
0
41
1
10
-34.0685119130175
20
0.124684589520342
30
0
41
1
10
-33.7573848627505
20
0.156042093009745
30
0
41
1
10
-33.549279040374
20
0.169368026065086
30
0
41
1
10
-32.9242101016124
20
0.20037077189474
30
0
41
1
10
-32.5071903882065
20
0.208217351629059
30
0
41
1
10
-32.09
20
0.208217351629059
30
0
0
SPLINE
5
D3
100
AcDbEntity
8
1
62
256
6
ByLayer
370
-1
48
1
60
0
100
AcDbSpline
70
4
71
3
72
18
73
14
40
0
40
0
40
0
40
0
40
0.206993835691221
40
0.206993835691221
40
0.383697663996927
40
0.383697663996927
40
0.562114229412541
40
0.562114229412541
40
0.717237239231106
40
0.717237239231106
40
0.922322896993094
40
0.922322896993094
40
1
40
1
40
1
40
1
41
1
10
92.3949286580981
20
6.61591454724854
30
0
41
1
10
92.426552318533
20
6.58602477923068
30
0
41
1
10
92.4635206014275
20
6.55963050152195
30
0
41
1
10
92.5390459347041
20
6.52136968247046
30
0
41
1
10
92.5774778949815
20
6.50759504775894
30
0
41
1
10
92.6567177670216
20
6.4911424476453
30
0
41
1
10
92.6987266236183
20
6.48844328556171
30
0
41
1
10
92.7732682749599
20
6.49463766306144
30
0
41
1
10
92.8072260297054
20
6.50208503140502
30
0
41
1
10
92.8791892214486
20
6.5276886947606
30
0
41
1
10
92.9162911640394
20
6.54882280199857
30
0
41
1
10
92.9600259208887
20
6.58380004536434
30
0
41
1
10
92.9714301514342
20
6.59414617888206
30
0
41
1
10
92.9820936651741
20
6.60505308451118
30
0
0
SPLINE
5
D4
100
AcDbEntity
8
1
62
256
6
ByLayer
370
-1
48
1
60
0
100
AcDbSpline
70
4
71
3
72
16
73
12
40
0
40
0
40
0
40
0
40
0.0602829014677043
40
0.0602829014677043
40
0.28493976657496
40
0.28493976657496
40
0.512204878741017
40
0.512204878741017
40
0.753730781328279
40
0.753730781328279
40
1
40
1
40
1
40
1
41
1
10
93.6950526814148
20
5.72417806879429
30
0
41
1
10
93.6951369485683
20
5.72925393742369
30
0
41
1
10
93.6950233915213
20
5.73433902380089
30
0
41
1
10
93.6935651591056
20
5.7581378160709
30
0
41
1
10
93.6896258888247
20
5.776874063175
30
0
41
1
10
93.6769614296551
20
5.81159947846876
30
0
41
1
10
93.6680331332007
20
5.82800200237071
30
0
41
1
10
93.6461121514604
20
5.85741941360519
30
0
41
1
10
93.6326400678342
20
5.87053820647199
30
0
41
1
10
93.6033487941754
20
5.89156697128522
30
0
41
1
10
93.5871794282586
20
5.89962308115838
30
0
41
1
10
93.5707105215435
20
5.904894428029
30
0
0
SPLINE
5
D5
100
AcDbEntity
8
1
62
256
6
ByLayer
370
-1
48
1
60
0
100
AcDbSpline
70
4
71
3
72
14
73
10
40
0
40
0
40
0
40
0
40
0.0488972307600494
40
0.0488972307600494
40
0.385936801430971
40
0.385936801430971
40
0.8332206648406
40
0.8332206648406
40
1
40
1
40
1
40
1
41
1
10
92.0605115740216
20
6.15201803852364
30
0
41
1
10
92.0628356979623
20
6.15663265541676
30
0
41
1
10
92.0650644476661
20
6.16128750783218
30
0
41
1
10
92.0817544278533
20
6.19800606761672
30
0
41
1
10
92.0917507525412
20
6.23193374836282
30
0
41
1
10
92.1040834954036
20
6.30956812535465
30
0
41
1
10
92.1032283865527
20
6.35416298790503
30
0
41
1
10
92.0931861916374
20
6.41207639116558
30
0
41
1
10
92.0895192492241
20
6.42769223134417
30
0
41
1
10
92.085009154464
20
6.44296971417614
30
0
0
SPLINE
5
D6
100
AcDbEntity
8
1
62
256
6
ByLayer
370
-1
48
1
60
0
100
AcDbSpline
70
4
71
3
72
18
73
14
40
0
40
0
40
0
40
0
40
0.20871132121275
40
0.20871132121275
40
0.385133385203367
40
0.385133385203367
40
0.563248515744913
40
0.563248515744913
40
0.718325317602138
40
0.718325317602138
40
0.923729377266073
40
0.923729377266073
40
1
40
1
40
1
40
1
41
1
10
93.2858302521129
20
6.42137715705366
30
0
41
1
10
93.2769309108198
20
6.38058044530254
30
0
41
1
10
93.2737519423676
20
6.33670920508561
30
0
41
1
10
93.2803850681205
20
6.25434840449429
30
0
41
1
10
93.2884275777869
20
6.21514122847205
30
0
41
1
10
93.3147438620954
20
6.1393501783046
30
0
41
1
10
93.3335949571226
20
6.10170829064512
30
0
41
1
10
93.3759916930519
20
6.03944786060652
30
0
41
1
10
93.3990866454743
20
6.01300154360067
30
0
41
1
10
93.4561477042511
20
5.9610970281162
30
0
41
1
10
93.4921214274024
20
5.93773225442018
30
0
41
1
10
93.5426323056189
20
5.91478802102031
30
0
41
1
10
93.5566222969235
20
5.9094037691805
30
0
41
1
10
93.5707105215435
20
5.90489442802905
30
0
0
SPLINE
5
D7
100
AcDbEntity
8
1
62
256
6
ByLayer
370
-1
48
1
60
0
100
AcDbSpline
70
4
71
3
72
14
73
10
40
0
40
0
40
0
40
0
40
0.269404695309404
40
0.269404695309404
40
0.558510860754679
40
0.558510860754679
40
0.82029093198749
40
0.82029093198749
40
1
40
1
40
1
40
1
41
1
10
92.0601373507414
20
5.06292852076012
30
0
41
1
10
92.0537712084492
20
5.04356642986565
30
0
41
1
10
92.0504952746166
20
5.02275923022452
30
0
41
1
10
92.0513454203685
20
4.97970111339981
30
0
41
1
10
92.0560927041758
20
4.95677832845584
30
0
41
1
10
92.0734411378682
20
4.9164786090995
30
0
41
1
10
92.0855552918639
20
4.89818951607876
30
0
41
1
10
92.1109107125073
20
4.87220900881616
30
0
41
1
10
92.1228089963286
20
4.86276153137536
30
0
41
1
10
92.1356507069428
20
4.85499587781683
30
0
0
SPLINE
5
D8
100
AcDbEntity
8
1
62
256
6
ByLayer
370
-1
48
1
60
0
100
AcDbSpline
70
4
71
3
72
18
73
14
40
0
40
0
40
0
40
0
40
0.0108747927312767
40
0.0108747927312767
40
0.23681118310506
40
0.23681118310506
40
0.462515476302129
40
0.462515476302129
40
0.700169370105692
40
0.700169370105692
40
0.959511512642214
40
0.959511512642214
40
1
40
1
40
1
40
1
41
1
10
91.6366972503769
20
5.75958938798274
30
0
41
1
10
91.6366819676647
20
5.75866882717105
30
0
41
1
10
91.636673860458
20
5.7577481302651
30
0
41
1
10
91.6366538447378
20
5.73794576537159
30
0
41
1
10
91.6397517099563
20
5.71882137082991
30
0
41
1
10
91.651481963606
20
5.68321688935646
30
0
41
1
10
91.660246269919
20
5.66627365462205
30
0
41
1
10
91.6824454808129
20
5.63563159254568
30
0
41
1
10
91.6963656780691
20
5.62175639532515
30
0
41
1
10
91.728281345059
20
5.59816724892818
30
0
41
1
10
91.7469192267693
20
5.58863502848936
30
0
41
1
10
91.7691431004954
20
5.5812125399222
30
0
41
1
10
91.7721925430947
20
5.58027472931062
30
0
41
1
10
91.7752570813079
20
5.57941124978544
30
0
0
SPLINE
5
D9
100
AcDbEntity
8
1
62
256
6
ByLayer
370
-1
48
1
60
0
100
AcDbSpline
70
4
71
3
72
18
73
14
40
0
40
0
40
0
40
0
40
0.212839747271147
40
0.212839747271147
40
0.388537175188262
40
0.388537175188262
40
0.565879213867415
40
0.565879213867415
40
0.720813455080474
40
0.720813455080474
40
0.926948182223299
40
0.926948182223299
40
1
40
1
40
1
40
1
41
1
10
92.9510389447562
20
4.8683911305651
30
0
41
1
10
92.9231850799463
20
4.89930062593413
30
0
41
1
10
92.8893864666265
20
4.92651651363934
30
0
41
1
10
92.8188896134371
20
4.96490602597953
30
0
41
1
10
92.7828718498035
20
4.97839529563549
30
0
41
1
10
92.7066217280687
20
4.99426099260972
30
0
41
1
10
92.6651912205194
20
4.99665470594834
30
0
41
1
10
92.5895386131811
20
4.98996673414055
30
0
41
1
10
92.5541709061441
20
4.9822722808062
30
0
41
1
10
92.4773687243285
20
4.95603313316158
30
0
41
1
10
92.436428651144
20
4.93443086792036
30
0
41
1
10
92.3877953959677
20
4.89940593686703
30
0
41
1
10
92.375526779539
20
4.88957878829612
30
0
41
1
10
92.3638739376802
20
4.8792525933024
30
0
0
SPLINE
5
DA
100
AcDbEntity
8
1
62
256
6
ByLayer
370
-1
48
1
60
0
100
AcDbSpline
70
4
71
3
72
18
73
14
40
0
40
0
40
0
40
0
40
0.213048825175515
40
0.213048825175515
40
0.388712158384374
40
0.388712158384374
40
0.56601768961002
40
0.56601768961002
40
0.720946869296955
40
0.720946869296955
40
0.927120762302777
40
0.927120762302777
40
1
40
1
40
1
40
1
41
1
10
92.0601373507413
20
5.06292852076015
30
0
41
1
10
92.0738885698747
20
5.10475170700855
30
0
41
1
10
92.081406017487
20
5.14978765701227
30
0
41
1
10
92.0805938817543
20
5.23324703017173
30
0
41
1
10
92.0746929446719
20
5.27238149004785
30
0
41
1
10
92.0507473420867
20
5.34785649697201
30
0
41
1
10
92.0321133533248
20
5.38524007352507
30
0
41
1
10
91.9880851908481
20
5.44704757796194
30
0
41
1
10
91.9633712531598
20
5.47328023390452
30
0
41
1
10
91.9011325940605
20
5.52479238409913
30
0
41
1
10
91.8611121355962
20
5.54789799369269
30
0
41
1
10
91.8052709365862
20
5.57011834205704
30
0
41
1
10
91.7903288421059
20
5.57516455551954
30
0
41
1
10
91.7752570813079
20
5.57941124978541
30
0
0
SPLINE
5
DB
100
AcDbEntity
8
1
62
256
6
ByLayer
370
-1
48
1
60
0
100
AcDbSpline
70
4
71
3
72
14
73
10
40
0
40
0
40
0
40
0
40
0.0230936439826256
40
0.0230936439826256
40
0.361881629292704
40
0.361881629292704
40
0.802302350439061
40
0.802302350439061
40
1
40
1
40
1
40
1
41
1
10
93.3059065965203
20
5.33306181149351
30
0
41
1
10
93.3047754286243
20
5.33087621462448
30
0
41
1
10
93.3036616869161
20
5.32868161614178
30
0
41
1
10
93.2866653862795
20
5.29452063404469
30
0
41
1
10
93.2744515208327
20
5.26045314005438
30
0
41
1
10
93.2560320609612
20
5.18315953401708
30
0
41
1
10
93.2522898530978
20
5.13896165518742
30
0
41
1
10
93.2554912131915
20
5.07817726459663
30
0
41
1
10
93.2576977848686
20
5.05951806429829
30
0
41
1
10
93.2610277717556
20
5.04133858792753
30
0
0
SPLINE
5
DC
100
AcDbEntity
8
1
62
256
6
ByLayer
370
-1
48
1
60
0
100
AcDbSpline
70
4
71
3
72
16
73
12
40
0
40
0
40
0
40
0
40
0.105850073425378
40
0.105850073425378
40
0.419241241386857
40
0.419241241386857
40
0.698391460185724
40
0.698391460185724
40
0.945196475432953
40
0.945196475432953
40
1
40
1
40
1
40
1
41
1
10
92.3949286581007
20
6.61591454725044
30
0
41
1
10
92.3889829166689
20
6.62153428986232
30
0
41
1
10
92.3826417324555
20
6.6268428326633
30
0
41
1
10
92.3563367847318
20
6.64622910582943
30
0
41
1
10
92.33318535802
20
6.65763433222955
30
0
41
1
10
92.2867516769285
20
6.67007435604961
30
0
41
1
10
92.2630239917416
20
6.67225189707511
30
0
41
1
10
92.2194314779318
20
6.66810771108825
30
0
41
1
10
92.1988060349059
20
6.66265443078419
30
0
41
1
10
92.1758717926788
20
6.65212684023103
30
0
41
1
10
92.1717424691316
20
6.65003610020403
30
0
41
1
10
92.1677092614519
20
6.64779488438933
30
0
0
SPLINE
5
DD
100
AcDbEntity
8
1
62
256
6
ByLayer
370
-1
48
1
60
0
100
AcDbSpline
70
4
71
3
72
14
73
10
40
0
40
0
40
0
40
0
40
0.207798178904595
40
0.207798178904595
40
0.504006693969039
40
0.504006693969039
40
0.771730898650107
40
0.771730898650107
40
1
40
1
40
1
40
1
41
1
10
91.7818248738533
20
5.93584381335683
30
0
41
1
10
91.7660490566799
20
5.93194194197434
30
0
41
1
10
91.750501591784
20
5.92605145397684
30
0
41
1
10
91.7151614310191
20
5.90721238844836
30
0
41
1
10
91.6957888216505
20
5.89193156916221
30
0
41
1
10
91.6659428875031
20
5.85688361078624
30
0
41
1
10
91.6543698251942
20
5.83712514838871
30
0
41
1
10
91.6405542209989
20
5.79814140077264
30
0
41
1
10
91.6370154575343
20
5.77875673445126
30
0
41
1
10
91.6366972503769
20
5.75958938798274
30
0
0
SPLINE
5
DE
100
AcDbEntity
8
1
62
256
6
ByLayer
370
-1
48
1
60
0
100
AcDbSpline
70
4
71
3
72
18
73
14
40
0
40
0
40
0
40
0
40
0.0341462480722384
40
0.0341462480722384
40
0.258765201233654
40
0.258765201233654
40
0.484505948373222
40
0.484505948373222
40
0.723265833814342
40
0.723265833814342
40
0.984486234309201
40
0.984486234309201
40
1
40
1
40
1
40
1
41
1
10
93.1640406703397
20
4.8359725723877
30
0
41
1
10
93.1665567754058
20
4.83737074845828
30
0
41
1
10
93.1690444433682
20
4.83882888926519
30
0
41
1
10
93.1874838981571
20
4.85021246858904
30
0
41
1
10
93.2022515258478
20
4.8627258494972
30
0
41
1
10
93.2271535280311
20
4.89091739899976
30
0
41
1
10
93.2375927891836
20
4.90696228486442
30
0
41
1
10
93.2536763019775
20
4.94122052631269
30
0
41
1
10
93.2592284161856
20
4.95992736164484
30
0
41
1
10
93.2649962756208
20
4.99851314598712
30
0
41
1
10
93.264755282264
20
5.01881905138495
30
0
41
1
10
93.2614349139942
20
5.03905626217346
30
0
41
1
10
93.2612364670283
20
5.04019925287693
30
0
41
1
10
93.2610277717556
20
5.04133858792753
30
0
0
SPLINE
5
DF
100
AcDbEntity
8
1
62
256
6
ByLayer
370
-1
48
1
60
0
100
AcDbSpline
70
4
71
3
72
14
73
10
40
0
40
0
40
0
40
0
40
0.283416555423539
40
0.283416555423539
40
0.570768372681965
40
0.570768372681965
40
0.831141200035613
40
0.831141200035613
40
1
40
1
40
1
40
1
41
1
10
93.2858302521129
20
6.42137715705366
30
0
41
1
10
93.2902540602016
20
6.44165695277061
30
0
41
1
10
93.2913676205874
20
6.46356061119741
30
0
41
1
10
93.2858976591174
20
6.507454669705
30
0
41
1
10
93.2790833487478
20
6.53011816611456
30
0
41
1
10
93.2586752717529
20
6.56985153980671
30
0
41
1
10
93.2454381804548
20
6.58782909683569
30
0
41
1
10
93.2195653549633
20
6.61270166944752
30
0
41
1
10
93.2081686168685
20
6.62147296276322
30
0
41
1
10
93.1960992248489
20
6.62877157896023
30
0
0
SPLINE
5
E0
100
AcDbEntity
8
1
62
256
6
ByLayer
370
-1
48
1
60
0
100
AcDbSpline
70
4
71
3
72
12
73
8
40
0
40
0
40
0
40
0
40
0.418822729705922
40
0.418822729705922
40
0.808089069084448
40
0.808089069084448
40
1
40
1
40
1
40
1
41
1
10
93.5642120523669
20
5.54846448874849
30
0
41
1
10
93.5285594995024
20
5.5387593704726
30
0
41
1
10
93.4930730846726
20
5.52340781241901
30
0
41
1
10
93.428472538473
20
5.48281061707806
30
0
41
1
10
93.3983703966919
20
5.45776960337591
30
0
41
1
10
93.3586070234805
20
5.41375522128706
30
0
41
1
10
93.3461799717644
20
5.39800904672992
30
0
41
1
10
93.3348167336284
20
5.3814188018172
30
0
0
SPLINE
5
E1
100
AcDbEntity
8
1
62
256
6
ByLayer
370
-1
48
1
60
0
100
AcDbSpline
70
4
71
3
72
14
73
10
40
0
40
0
40
0
40
0
40
0.238662717898363
40
0.238662717898363
40
0.531612612203851
40
0.531612612203851
40
0.796565959003713
40
0.796565959003713
40
1
40
1
40
1
40
1
41
1
10
92.951038944756
20
4.86839113056493
30
0
41
1
10
92.9624787034721
20
4.85569640502237
30
0
41
1
10
92.9761034258469
20
4.84452198230946
30
0
41
1
10
93.0098962132948
20
4.82489421908204
30
0
41
1
10
93.0314407224514
20
4.81736683220987
30
0
41
1
10
93.0742788341305
20
4.81173442532847
30
0
41
1
10
93.0960573583837
20
4.81275240805945
30
0
41
1
10
93.1331642006799
20
4.82151755091715
30
0
41
1
10
93.1492068875833
20
4.82772957794125
30
0
41
1
10
93.1640406703397
20
4.8359725723877
30
0
0
SPLINE
5
E2
100
AcDbEntity
8
1
62
256
6
ByLayer
370
-1
48
1
60
0
100
AcDbSpline
70
4
71
3
72
16
73
12
40
0
40
0
40
0
40
0
40
0.173087790369489
40
0.173087790369489
40
0.396893053039296
40
0.396893053039296
40
0.62941010748698
40
0.62941010748698
40
0.881061968621741
40
0.881061968621741
40
1
40
1
40
1
40
1
41
1
10
92.1677092614519
20
6.64779488438933
30
0
41
1
10
92.155079860468
20
6.64077684429253
30
0
41
1
10
92.1432719027191
20
6.63218085298135
30
0
41
1
10
92.1193773800693
20
6.60988335434664
30
0
41
1
10
92.1079375946499
20
6.59511999999231
30
0
41
1
10
92.0902348103439
20
6.56309066018744
30
0
41
1
10
92.0839517756525
20
6.54535489241016
30
0
41
1
10
92.076936735319
20
6.50830775681655
30
0
41
1
10
92.0765948774288
20
6.48852782392672
30
0
41
1
10
92.0805064412531
20
6.46056232592716
30
0
41
1
10
92.0824468689431
20
6.45164919324299
30
0
41
1
10
92.085009154464
20
6.44296971417614
30
0
0
SPLINE
5
E3
100
AcDbEntity
8
1
62
256
6
ByLayer
370
-1
48
1
60
0
100
AcDbSpline
70
4
71
3
72
14
73
10
40
0
40
0
40
0
40
0
40
0.277213769147278
40
0.277213769147278
40
0.564781028189067
40
0.564781028189067
40
0.825238838846129
40
0.825238838846129
40
1
40
1
40
1
40
1
41
1
10
93.5642120523669
20
5.54846448874812
30
0
41
1
10
93.5830027560545
20
5.55357957833144
30
0
41
1
10
93.6015721127555
20
5.56228957645283
30
0
41
1
10
93.6356695070987
20
5.58672611849855
30
0
41
1
10
93.6515670266798
20
5.60312031579025
30
0
41
1
10
93.6753581184565
20
5.63952201559928
30
0
41
1
10
93.6841938628507
20
5.65961419145387
30
0
41
1
10
93.6928753581778
20
5.69470691755538
30
0
41
1
10
93.6948087841116
20
5.70948680870728
30
0
41
1
10
93.6950526814148
20
5.72417806879429
30
0
0
SPLINE
5
E4
100
AcDbEntity
8
1
62
256
6
ByLayer
370
-1
48
1
60
0
100
AcDbSpline
70
4
71
3
72
16
73
12
40
0
40
0
40
0
40
0
40
0.056155686693293
40
0.056155686693293
40
0.280895471984881
40
0.280895471984881
40
0.508010399186837
40
0.508010399186837
40
0.749197077690319
40
0.749197077690319
40
1
40
1
40
1
40
1
41
1
10
92.1356507069428
20
4.85499587781683
30
0
41
1
10
92.1396833584233
20
4.85255724831796
30
0
41
1
10
92.1438218091516
20
4.85027260210265
30
0
41
1
10
92.1648145212168
20
4.83973756083907
30
0
41
1
10
92.1832166409343
20
4.83387828257528
30
0
41
1
10
92.2204465400754
20
4.82795060103186
30
0
41
1
10
92.2397486516284
20
4.82785402826721
30
0
41
1
10
92.2778350724094
20
4.83311730323805
30
0
41
1
10
92.2969928557494
20
4.83886175458133
30
0
41
1
10
92.332627641711
20
4.85533230547844
30
0
41
1
10
92.3493852263732
20
4.86641338549578
30
0
41
1
10
92.3638739376802
20
4.87925259330243
30
0
0
SPLINE
5
E5
100
AcDbEntity
8
1
62
256
6
ByLayer
370
-1
48
1
60
0
100
AcDbSpline
70
4
71
3
72
12
73
8
40
0
40
0
40
0
40
0
40
0.459519690067314
40
0.459519690067314
40
0.841749585695352
40
0.841749585695352
40
1
40
1
40
1
40
1
41
1
10
91.7818248738537
20
5.93584381335583
30
0
41
1
10
91.8255646357203
20
5.94666207546118
30
0
41
1
10
91.8689008169944
20
5.96429936469409
30
0
41
1
10
91.9418881069471
20
6.00908613471688
30
0
41
1
10
91.9733760869009
20
6.03472855126611
30
0
41
1
10
92.0115090905451
20
6.07682150695965
30
0
41
1
10
92.0220083314521
20
6.08995483890766
30
0
41
1
10
92.0316014369137
20
6.10366104820031
30
0
0
SPLINE
5
E6
100
AcDbEntity
8
1
62
256
6
ByLayer
370
-1
48
1
60
0
100
AcDbSpline
70
4
71
3
72
16
73
12
40
0
40
0
40
0
40
0
40
0.0661965600748237
40
0.0661965600748237
40
0.290638196628088
40
0.290638196628088
40
0.5180211600332
40
0.5180211600332
40
0.75992921419616
40
0.75992921419616
40
1
40
1
40
1
40
1
41
1
10
93.1960992248489
20
6.62877157896023
30
0
41
1
10
93.1913475683065
20
6.63164500600169
30
0
41
1
10
93.1864730808671
20
6.63430595149708
30
0
41
1
10
93.1648007167224
20
6.6449188618403
30
0
41
1
10
93.1467976329606
20
6.65053755651471
30
0
41
1
10
93.1109226180232
20
6.6560285136195
30
0
41
1
10
93.0926004787407
20
6.65590918823671
30
0
41
1
10
93.0569897169739
20
6.6502370690354
30
0
41
1
10
93.0393922002677
20
6.64428650443662
30
0
41
1
10
93.0080958965082
20
6.62784697901327
30
0
41
1
10
92.9940218471339
20
6.6172535240791
30
0
41
1
10
92.9820936651739
20
6.60505308451133
30
0
0
LINE
5
49
100
AcDbEntity
8
1
62
256
6
ByLayer
370
-1
48
1
60
0
100
AcDbLine
10
92.694771
20
7.469213
30
0
11
92.618815
21
7.466338
31
0
39
0
210
0
220
0
230
1
0
LINE
5
4A
100
AcDbEntity
8
1
62
256
6
ByLayer
370
-1
48
1
60
0
100
AcDbLine
10
92.749324
20
4.018807
30
0
11
92.82528
21
4.021683
31
0
39
0
210
0
220
0
230
1
0
LINE
5
4B
100
AcDbEntity
8
1
62
256
6
ByLayer
370
-1
48
1
60
0
100
AcDbLine
10
92.719813
20
6.490624
30
0
11
92.807368
21
6.493939
31
0
39
0
210
0
220
0
230
1
0
LINE
5
4C
100
AcDbEntity
8
1
62
256
6
ByLayer
370
-1
48
1
60
0
100
AcDbLine
10
92.733605
20
4.997749
30
0
11
92.646027
21
4.994434
31
0
39
0
210
0
220
0
230
1
0
LINE
5
4D
100
AcDbEntity
8
SK1
62
256
6
ByLayer
370
-1
48
1
60
0
100
AcDbLine
10
-104.84
20
7.9925
30
0
11
-105.34
21
7.4925
31
0
39
0
210
0
220
0
230
1
0
LINE
5
4F
100
AcDbEntity
8
SK1
62
256
6
ByLayer
370
-1
48
1
60
0
100
AcDbLine
10
-105.34
20
-7.4925
30
0
11
-104.84
21
-7.9925
31
0
39
0
210
0
220
0
230
1
0
LINE
5
50
100
AcDbEntity
8
SK1
62
256
6
ByLayer
370
-1
48
1
60
0
100
AcDbLine
10
-104.84
20
-7.9925
30
0
11
0
21
-7.9925
31
0
39
0
210
0
220
0
230
1
0
LINE
5
51
100
AcDbEntity
8
SK1
62
256
6
ByLayer
370
-1
48
1
60
0
100
AcDbLine
10
0
20
7.9925
30
0
11
-104.84
21
7.9925
31
0
39
0
210
0
220
0
230
1
0
LINE
5
52
100
AcDbEntity
8
1
62
256
6
ByLayer
370
-1
48
1
60
0
100
AcDbLine
10
82.260464
20
8.0425
30
0
11
62.66
21
8.0425
31
0
39
0
210
0
220
0
230
1
0
LINE
5
53
100
AcDbEntity
8
1
62
256
6
ByLayer
370
-1
48
1
60
0
100
AcDbLine
10
62.66
20
-8.0425
30
0
11
80.841824
21
-8.0425
31
0
39
0
210
0
220
0
230
1
0
LINE
5
54
100
AcDbEntity
8
1
62
256
6
ByLayer
370
-1
48
1
60
0
100
AcDbLine
10
0
20
-7.9925
30
0
11
62.66
21
-7.9925
31
0
39
0
210
0
220
0
230
1
0
LINE
5
55
100
AcDbEntity
8
1
62
256
6
ByLayer
370
-1
48
1
60
0
100
AcDbLine
10
62.66
20
7.9925
30
0
11
0
21
7.9925
31
0
39
0
210
0
220
0
230
1
0
LINE
5
56
100
AcDbEntity
8
80
62
256
6
ByLayer
370
-1
48
1
60
0
100
AcDbLine
10
0
20
0
30
0
11
-10
21
0
31
0
39
0
210
0
220
0
230
1
0
LINE
5
57
100
AcDbEntity
8
81
62
256
6
ByLayer
370
-1
48
1
60
0
100
AcDbLine
10
95.91
20
10.9
30
0
11
105.91
21
10.9
31
0
39
0
210
0
220
0
230
1
0
LINE
5
58
100
AcDbEntity
8
SK4
62
256
6
ByLayer
370
-1
48
0.05
60
0
100
AcDbLine
10
-110.34
20
0
30
0
11
100.363025
21
0
31
0
39
0
210
0
220
0
230
1
0
LINE
5
5A
100
AcDbEntity
8
4
62
256
6
ByLayer
370
-1
48
0.05
60
0
100
AcDbLine
10
0
20
0
30
0
11
100.363025
21
0
31
0
39
0
210
0
220
0
230
1
0
LINE
5
5C
100
AcDbEntity
8
1
62
256
6
ByLayer
370
-1
48
1
60
0
100
AcDbLine
10
62.66
20
-0.306445
30
0
11
62.66
21
-8.0425
31
0
39
0
210
0
220
0
230
1
0
LINE
5
5D
100
AcDbEntity
8
1
62
256
6
ByLayer
370
-1
48
1
60
0
100
AcDbLine
10
62.66
20
8.0425
30
0
11
62.66
21
0.306445
31
0
39
0
210
0
220
0
230
1
0
LINE
5
5E
100
AcDbEntity
8
1
62
256
6
ByLayer
370
-1
48
1
60
0
100
AcDbLine
10
62.66
20
-0.306445
30
0
11
62.66
21
-0.208217
31
0
39
0
210
0
220
0
230
1
0
LINE
5
5F
100
AcDbEntity
8
1
62
256
6
ByLayer
370
-1
48
1
60
0
100
AcDbLine
10
95.187735
20
-0.063165
30
0
11
95.171961
21
-0.966818
31
0
39
0
210
0
220
0
230
1
0
LINE
5
60
100
AcDbEntity
8
1
62
256
6
ByLayer
370
-1
48
1
60
0
100
AcDbLine
10
80.841824
20
-8.0425
30
0
11
81.331338
21
-7.800796
31
0
39
0
210
0
220
0
230
1
0
LINE
5
61
100
AcDbEntity
8
1
62
256
6
ByLayer
370
-1
48
1
60
0
100
AcDbLine
10
62.66
20
0.306445
30
0
11
74.116323
21
0.306445
31
0
39
0
210
0
220
0
230
1
0
LINE
5
62
100
AcDbEntity
8
1
62
256
6
ByLayer
370
-1
48
1
60
0
100
AcDbLine
10
88.845983
20
7.859687
30
0
11
88.922572
21
7.862586
31
0
39
0
210
0
220
0
230
1
0
LINE
5
63
100
AcDbEntity
8
1
62
256
6
ByLayer
370
-1
48
1
60
0
100
AcDbLine
10
87.604163
20
7.403625
30
0
11
87.201059
21
7.388365
31
0
39
0
210
0
220
0
230
1
0
LINE
5
64
100
AcDbEntity
8
1
62
256
6
ByLayer
370
-1
48
1
60
0
100
AcDbLine
10
92.112113
20
2.325385
30
0
11
90.407283
21
3.356332
31
0
39
0
210
0
220
0
230
1
0
LINE
5
65
100
AcDbEntity
8
1
62
256
6
ByLayer
370
-1
48
1
60
0
100
AcDbLine
10
87.161206
20
4.794292
30
0
11
95.187798
21
-0.059557
31
0
39
0
210
0
220
0
230
1
0
LINE
5
66
100
AcDbEntity
8
1
62
256
6
ByLayer
370
-1
48
1
60
0
100
AcDbLine
10
89.422337
20
7.5642
30
0
11
89.001445
21
7.818722
31
0
39
0
210
0
220
0
230
1
0
LINE
5
67
100
AcDbEntity
8
1
62
256
6
ByLayer
370
-1
48
1
60
0
100
AcDbLine
10
88.922572
20
7.862586
30
0
11
91.712358
21
9.400028
31
0
39
0
210
0
220
0
230
1
0
LINE
5
68
100
AcDbEntity
8
1
62
256
6
ByLayer
370
-1
48
1
60
0
100
AcDbLine
10
91.66634
20
9.398286
30
0
11
91.712358
21
9.400028
31
0
39
0
210
0
220
0
230
1
0
LINE
5
69
100
AcDbEntity
8
1
62
256
6
ByLayer
370
-1
48
1
60
0
100
AcDbLine
10
62.66
20
0.208217
30
0
11
0
21
0.208217
31
0
39
0
210
0
220
0
230
1
0
LINE
5
6A
100
AcDbEntity
8
1
62
256
6
ByLayer
370
-1
48
1
60
0
100
AcDbLine
10
87.47609
20
7.189401
30
0
11
87.604163
21
7.403625
31
0
39
0
210
0
220
0
230
1
0
LINE
5
6B
100
AcDbEntity
8
1
62
256
6
ByLayer
370
-1
48
1
60
0
100
AcDbLine
10
84.499991
20
9.256067
30
0
11
88.166157
21
-4.42602
31
0
39
0
210
0
220
0
230
1
0
LINE
5
6C
100
AcDbEntity
8
1
62
256
6
ByLayer
370
-1
48
1
60
0
100
AcDbLine
10
95.197806
20
0.513828
30
0
11
95.187798
21
-0.059557
31
0
39
0
210
0
220
0
230
1
0
LINE
5
6D
100
AcDbEntity
8
1
62
256
6
ByLayer
370
-1
48
1
60
0
100
AcDbLine
10
62.66
20
0.208217
30
0
11
62.66
21
0.306445
31
0
39
0
210
0
220
0
230
1
0
LINE
5
6E
100
AcDbEntity
8
1
62
256
6
ByLayer
370
-1
48
1
60
0
100
AcDbLine
10
93.02292
20
9.829005
30
0
11
93.018338
21
9.566507
31
0
39
0
210
0
220
0
230
1
0
LINE
5
6F
100
AcDbEntity
8
1
62
256
6
ByLayer
370
-1
48
1
60
0
100
AcDbLine
10
87.350094
20
6.902046
30
0
11
86.944276
21
6.886683
31
0
39
0
210
0
220
0
230
1
0
LINE
5
70
100
AcDbEntity
8
1
62
256
6
ByLayer
370
-1
48
1
60
0
100
AcDbLine
10
0
20
-0.208217
30
0
11
62.66
21
-0.208217
31
0
39
0
210
0
220
0
230
1
0
LINE
5
71
100
AcDbEntity
8
1
62
256
6
ByLayer
370
-1
48
1
60
0
100
AcDbLine
10
87.161206
20
4.794292
30
0
11
87.065721
21
4.790678
31
0
39
0
210
0
220
0
230
1
0
LINE
5
72
100
AcDbEntity
8
1
62
256
6
ByLayer
370
-1
48
1
60
0
100
AcDbLine
10
91.66634
20
9.398286
30
0
11
88.845983
21
7.859687
31
0
39
0
210
0
220
0
230
1
0
LINE
5
73
100
AcDbEntity
8
1
62
256
6
ByLayer
370
-1
48
1
60
0
100
AcDbLine
10
81.331338
20
-7.800796
30
0
11
88.166157
21
-4.42602
31
0
39
0
210
0
220
0
230
1
0
LINE
5
74
100
AcDbEntity
8
1
62
256
6
ByLayer
370
-1
48
1
60
0
100
AcDbLine
10
74.279058
20
-0.306445
30
0
11
62.66
21
-0.306445
31
0
39
0
210
0
220
0
230
1
0
LINE
5
75
100
AcDbEntity
8
1
62
256
6
ByLayer
370
-1
48
1
60
0
100
AcDbLine
10
95.187798
20
-0.059557
30
0
11
95.187735
21
-0.063165
31
0
39
0
210
0
220
0
230
1
0
LINE
5
76
100
AcDbEntity
8
1
62
256
6
ByLayer
370
-1
48
1
60
0
100
AcDbLine
10
95.187735
20
-0.063165
30
0
11
87.065721
21
4.790678
31
0
39
0
210
0
220
0
230
1
0
LINE
5
77
100
AcDbEntity
8
1
62
256
6
ByLayer
370
-1
48
1
60
0
100
AcDbLine
10
87.07161
20
7.174089
30
0
11
87.201059
21
7.388365
31
0
39
0
210
0
220
0
230
1
0
LINE
5
78
100
AcDbEntity
8
1
62
256
6
ByLayer
370
-1
48
1
60
0
100
AcDbLine
10
91.729448
20
10.379114
30
0
11
91.712358
21
9.400028
31
0
39
0
210
0
220
0
230
1
0
LINE
5
79
100
AcDbEntity
8
1
62
256
6
ByLayer
370
-1
48
1
60
0
100
AcDbLine
10
90.407283
20
3.356332
30
0
11
90.441981
21
3.384402
31
0
39
0
210
0
220
0
230
1
0
LINE
5
7A
100
AcDbEntity
8
1
62
256
6
ByLayer
370
-1
48
1
60
0
100
AcDbLine
10
88.166157
20
-4.42602
30
0
11
95.171961
21
-0.966818
31
0
39
0
210
0
220
0
230
1
0
LINE
5
7B
100
AcDbEntity
8
1
62
256
6
ByLayer
370
-1
48
1
60
0
100
AcDbLine
10
0
20
-7.9925
30
0
11
0
21
-0.208217
31
0
39
0
210
0
220
0
230
1
0
LINE
5
7C
100
AcDbEntity
8
1
62
256
6
ByLayer
370
-1
48
1
60
0
100
AcDbLine
10
0
20
0.208217
30
0
11
0
21
7.9925
31
0
39
0
210
0
220
0
230
1
0
LINE
5
7D
100
AcDbEntity
8
1
62
256
6
ByLayer
370
-1
48
1
60
0
100
AcDbLine
10
87.47609
20
7.189401
30
0
11
87.07161
21
7.174089
31
0
39
0
210
0
220
0
230
1
0
LINE
5
7E
100
AcDbEntity
8
1
62
256
6
ByLayer
370
-1
48
1
60
0
100
AcDbLine
10
0
20
-0.208217
30
0
11
0
21
0.208217
31
0
39
0
210
0
220
0
230
1
0
LINE
5
7F
100
AcDbEntity
8
1
62
256
6
ByLayer
370
-1
48
1
60
0
100
AcDbLine
10
92.724695
20
10.411971
30
0
11
92.706911
21
9.393108
31
0
39
0
210
0
220
0
230
1
0
LINE
5
80
100
AcDbEntity
8
1
62
256
6
ByLayer
370
-1
48
1
60
0
100
AcDbLine
10
92.112113
20
2.325385
30
0
11
92.146811
21
2.353456
31
0
39
0
210
0
220
0
230
1
0
LINE
5
81
100
AcDbEntity
8
1
62
256
6
ByLayer
370
-1
48
1
60
0
100
AcDbLine
10
91.66634
20
9.398286
30
0
11
91.683774
21
10.397031
31
0
39
0
210
0
220
0
230
1
0
LINE
5
82
100
AcDbEntity
8
SK1
62
256
6
ByLayer
370
-1
48
1
60
0
100
AcDbLine
10
-32.09
20
-0.208217
30
0
11
0
21
-0.208217
31
0
39
0
210
0
220
0
230
1
0
LINE
5
83
100
AcDbEntity
8
SK1
62
256
6
ByLayer
370
-1
48
1
60
0
100
AcDbLine
10
0
20
-0.208217
30
0
11
0
21
0.208217
31
0
39
0
210
0
220
0
230
1
0
LINE
5
84
100
AcDbEntity
8
SK1
62
256
6
ByLayer
370
-1
48
1
60
0
100
AcDbLine
10
0
20
-7.9925
30
0
11
0
21
-0.208217
31
0
39
0
210
0
220
0
230
1
0
LINE
5
85
100
AcDbEntity
8
SK1
62
256
6
ByLayer
370
-1
48
1
60
0
100
AcDbLine
10
0
20
0.208217
30
0
11
0
21
7.9925
31
0
39
0
210
0
220
0
230
1
0
LINE
5
86
100
AcDbEntity
8
SK1
62
256
6
ByLayer
370
-1
48
1
60
0
100
AcDbLine
10
-32.09
20
-0.208217
30
0
11
-32.09
21
0.208217
31
0
39
0
210
0
220
0
230
1
0
LINE
5
87
100
AcDbEntity
8
SK1
62
256
6
ByLayer
370
-1
48
1
60
0
100
AcDbLine
10
0
20
0.208217
30
0
11
-32.09
21
0.208217
31
0
39
0
210
0
220
0
230
1
0
LINE
5
88
100
AcDbEntity
8
SK1
62
256
6
ByLayer
370
-1
48
1
60
0
100
AcDbLine
10
-105.34
20
-7.4925
30
0
11
-105.34
21
7.4925
31
0
39
0
210
0
220
0
230
1
0
LINE
5
89
100
AcDbEntity
8
SK1
62
256
6
ByLayer
370
-1
48
1
60
0
100
AcDbLine
10
-104.84
20
-7.9925
30
0
11
-104.84
21
7.9925
31
0
39
0
210
0
220
0
230
1
0
LINE
5
8A
100
AcDbEntity
8
1
62
256
6
ByLayer
370
-1
48
1
60
0
100
AcDbLine
10
86.94064
20
5.501733
30
0
11
95.144032
21
0.540969
31
0
39
0
210
0
220
0
230
1
0
LINE
5
8B
100
AcDbEntity
8
1
62
256
6
ByLayer
370
-1
48
1
60
0
100
AcDbLine
10
95.323983
20
10.850339
30
0
11
86.952637
21
6.189024
31
0
39
0
210
0
220
0
230
1
0
LINE
5
8C
100
AcDbEntity
8
1
62
256
6
ByLayer
370
-1
48
1
60
0
100
AcDbLine
10
95.741985
20
0.87392
30
0
11
95.909939
21
10.495998
31
0
39
0
210
0
220
0
230
1
0
LINE
5
8D
100
AcDbEntity
8
1
62
256
6
ByLayer
370
-1
48
1
60
0
100
AcDbLine
10
93.079597
20
6.608744
30
0
11
92.982094
21
6.605053
31
0
39
0
210
0
220
0
230
1
0
LINE
5
8E
100
AcDbEntity
8
1
62
256
6
ByLayer
370
-1
48
1
60
0
100
AcDbLine
10
92.182477
20
6.446659
30
0
11
92.085009
21
6.44297
31
0
39
0
210
0
220
0
230
1
0
LINE
5
8F
100
AcDbEntity
8
1
62
256
6
ByLayer
370
-1
48
1
60
0
100
AcDbLine
10
91.879293
20
5.939534
30
0
11
91.781825
21
5.935844
31
0
39
0
210
0
220
0
230
1
0
LINE
5
90
100
AcDbEntity
8
1
62
256
6
ByLayer
370
-1
48
1
60
0
100
AcDbLine
10
91.87276
20
5.583102
30
0
11
91.775257
21
5.579411
31
0
39
0
210
0
220
0
230
1
0
LINE
5
91
100
AcDbEntity
8
1
62
256
6
ByLayer
370
-1
48
1
60
0
100
AcDbLine
10
92.15764
20
5.06662
30
0
11
92.060137
21
5.062929
31
0
39
0
210
0
220
0
230
1
0
LINE
5
92
100
AcDbEntity
8
1
62
256
6
ByLayer
370
-1
48
1
60
0
100
AcDbLine
10
93.048542
20
4.872082
30
0
11
92.951039
21
4.868391
31
0
39
0
210
0
220
0
230
1
0
LINE
5
93
100
AcDbEntity
8
1
62
256
6
ByLayer
370
-1
48
1
60
0
100
AcDbLine
10
92.031601
20
6.103661
30
0
11
92.118879
21
6.106965
31
0
39
0
210
0
220
0
230
1
0
LINE
5
94
100
AcDbEntity
8
1
62
256
6
ByLayer
370
-1
48
1
60
0
100
AcDbLine
10
92.147789
20
6.155322
30
0
11
92.060512
21
6.152018
31
0
39
0
210
0
220
0
230
1
0
LINE
5
95
100
AcDbEntity
8
2
62
256
6
ByLayer
370
-1
48
1
60
1
100
AcDbLine
10
95.91
20
0
30
0
11
95.911
21
0.001
31
0
39
0
210
0
220
0
230
1
0
MTEXT
5
E7
100
AcDbEntity
8
SK6
62
256
6
ByLayer
370
-1
48
1
60
0
100
AcDbMText
10
-1.34
20
-20.563197
30
0
210
0
220
0
230
1
1
\W00.714;\fsimplex.shx,bigfont.shx;E16R-STFPR 11-R 
40
3.5
41
0
44
1.084337
50
0
71
7
72
5
7
DEFAULT
0
DIMENSION
5
11A
100
AcDbEntity
8
2
62
256
6
ByLayer
370
-3
48
1
60
0
100
AcDbDimension
2
DimnDraft3D1
10
108.16
20
0
30
0
11
108.16
21
21.155
31
0
70
32
71
5
72
1
41
1
210
0
220
0
230
1
3
Standard
100
AcDbAlignedDimension
13
97.91
23
10.9
33
0
14
97.91
24
0
34
0
50
90
100
AcDbRotatedDimension
1001
ACAD
1000
DSTYLE
1002
{
1070
    74
1070
     0
1070
   279
1070
     0
1070
   172
1070
     1
1070
   173
1070
     1
1070
   340
1005
E8
1070
    77
1070
     1
1070
    73
1070
     0
1070
   171
1070
     4
1070
   274
1070
     4
1070
   177
1070
     2
1070
   176
1070
     2
1070
   178
1070
     7
1070
    78
1070
     8
1070
    41
1041
3.175
1070
   147
1041
2.25
1070
    42
1041
2.0
1070
    44
1041
2.0
1070
   140
1041
4.5
1070
   343
1005
11B
1070
   344
1005
11B
1002
}
0
DIMENSION
5
130
100
AcDbEntity
8
SK2
62
256
6
ByLayer
370
-3
48
1
60
0
100
AcDbDimension
2
DimnDraft3D2
10
-115.09
20
7.9925
30
0
11
-115.09
21
-4.221711
31
0
70
32
71
5
72
1
41
1
210
0
220
0
230
1
3
Standard
100
AcDbAlignedDimension
13
-107.34
23
-7.9925
33
0
14
-107.34
24
7.9925
34
0
50
90
100
AcDbRotatedDimension
1001
ACAD
1000
DSTYLE
1002
{
1070
    74
1070
     0
1070
   279
1070
     0
1070
   172
1070
     1
1070
   173
1070
     1
1070
   340
1005
E8
1070
    77
1070
     1
1070
    73
1070
     0
1070
   171
1070
     4
1070
   274
1070
     4
1070
   177
1070
     2
1070
   176
1070
     2
1070
   178
1070
     7
1070
    78
1070
     8
1070
    41
1041
3.175
1070
   147
1041
2.25
1070
    42
1041
2.0
1070
    44
1041
2.0
1070
   140
1041
4.5
1070
   343
1005
11B
1070
   344
1005
11B
1002
}
0
DIMENSION
5
13E
100
AcDbEntity
8
SK2
62
256
6
ByLayer
370
-3
48
1
60
0
100
AcDbDimension
2
DimnDraft3D3
10
-105.34
20
23.65
30
0
11
-11.530132
21
23.65
31
0
70
32
71
5
72
1
41
1
210
0
220
0
230
1
3
Standard
100
AcDbAlignedDimension
13
95.91
23
12.9
33
0
14
-105.34
24
9.9925
34
0
50
0
100
AcDbRotatedDimension
1001
ACAD
1000
DSTYLE
1002
{
1070
   279
1070
     0
1070
   172
1070
     1
1070
   173
1070
     1
1070
   340
1005
E8
1070
    77
1070
     1
1070
    73
1070
     0
1070
   171
1070
     4
1070
   274
1070
     4
1070
   177
1070
     2
1070
   176
1070
     2
1070
   178
1070
     7
1070
    78
1070
     8
1070
    41
1041
3.175
1070
   147
1041
2.25
1070
    42
1041
2.0
1070
    44
1041
2.0
1070
   140
1041
4.5
1070
   343
1005
11B
1070
   344
1005
11B
1002
}
0
DIMENSION
5
14C
100
AcDbEntity
8
2
62
256
6
ByLayer
370
-3
48
1
60
0
100
AcDbDimension
2
DimnDraft3D4
10
144.646147
20
0
30
0
11
122.890894
21
-35.936736
31
0
70
34
71
5
72
1
41
1
210
0
220
0
230
1
3
Standard
100
AcDb2LineAngularDimension
13
95.683119
23
-2.09802
33
0
14
94.865856
24
-48.918955
34
0
15
97.91
25
0
35
0
16
125.456801
26
-30.260654
36
0
40
0
0
ENDSEC
0
SECTION
2
OBJECTS
0
DICTIONARY
5
17d
330
0
100
AcDbDictionary
280
0
281
1
3
ACAD_GROUP
350
17e
3
ACAD_MLINESTYLE
350
17f
0
DICTIONARY
5
17e
330
0
100
AcDbDictionary
280
0
281
1
0
DICTIONARY
5
17f
330
0
100
AcDbDictionary
280
0
281
1
3
Standard
350
18
0
MLINESTYLE
5
18
330
17f
100
AcDbMlineStyle
2
Standard
70
0
3

62
256
51
90
52
90
71
2
49
-0.5
62
256
6
ByLayer
49
0.5
62
256
6
ByLayer
0
RASTERVARIABLES
5
16b
330

100
AcDbRasterVariables
90
0
70
1
71
1
72
1
0
ENDSEC
0
EOF
