0
SECTION
2
HEADER
9
$ACADVER
1
AC1015
9
$DWGCODEPAGE
3
ANSI_1252
9
$HANDSEED
5
182
9
$ANGBASE
50
0
9
$ANGDIR
70
0
9
$ATTMODE
70
1
9
$AUNITS
70
0
9
$AUPREC
70
0
9
$CECOLOR
62
256
9
$CELTSCALE
40
1
9
$CELTYPE
6
ByLayer
9
$CELWEIGHT
370
-1
9
$CLAYER
8
0
9
$CMLJUST
70
0
9
$CMLSCALE
40
1
9
$CMLSTYLE
2
Standard
9
$DIMSTYLE
2
Standard
9
$TEXTSIZE
40
0.2
9
$TEXTSTYLE
7
Standard
9
$LUNITS
70
2
9
$LUPREC
70
4
9
$EXTNAMES
290
1
9
$INSUNITS
70
4
9
$LTSCALE
40
1
9
$LWDISPLAY
290
0
9
$PDMODE
70
0
9
$PDSIZE
40
0
9
$PLINEGEN
70
0
0
ENDSEC
0
SECTION
2
CLASSES
0
CLASS
1
RASTERVARIABLES
2
AcDbRasterVariables
3
ISM
90
0
280
0
281
0
0
ENDSEC
0
SECTION
2
TABLES
0
TABLE
2
VPORT
5
178
100
AcDbSymbolTable
0
VPORT
5
1
100
AcDbSymbolTableRecord
100
AcDbViewportTableRecord
2
*Active
70
0
10
0
20
0
11
1
21
1
12
-1
22
1
13
0
23
0
14
0.5
24
0.5
15
10
25
10
16
0
26
0
36
1
17
0
27
0
37
0
0
ENDTAB
0
TABLE
2
LTYPE
5
179
100
AcDbSymbolTable
0
LTYPE
5
14
100
AcDbSymbolTableRecord
100
AcDbLinetypeTableRecord
70
0
2
ByBlock
3

72
65
73
0
40
0
0
LTYPE
5
15
100
AcDbSymbolTableRecord
100
AcDbLinetypeTableRecord
70
0
2
ByLayer
3

72
65
73
0
40
0
0
LTYPE
5
16
100
AcDbSymbolTableRecord
100
AcDbLinetypeTableRecord
70
0
2
CONTINUOUS
3
Solid line
72
65
73
0
40
0
0
LTYPE
5
3B
100
AcDbSymbolTableRecord
100
AcDbLinetypeTableRecord
70
0
2
DASHED
3
__ __ __ __ __ __ __ __ __
72
65
73
2
40
25.72
49
12.86
74
0
49
-12.86
74
0
0
LTYPE
5
3C
100
AcDbSymbolTableRecord
100
AcDbLinetypeTableRecord
70
0
2
HIDDEN
3
_ _ _ _ _ _ _ _ _ _ _ _ _ _ _
72
65
73
2
40
0.5
49
0.25
74
0
49
-0.25
74
0
0
LTYPE
5
3D
100
AcDbSymbolTableRecord
100
AcDbLinetypeTableRecord
70
0
2
PHANTOM
3
____ _ _ ____ _ _ _____ _ _ ____
72
65
73
6
40
50.5
49
18
74
0
49
-6.5
74
0
49
6.5
74
0
49
-6.5
74
0
49
6.5
74
0
49
-6.5
74
0
0
LTYPE
5
3E
100
AcDbSymbolTableRecord
100
AcDbLinetypeTableRecord
70
0
2
CENTER
3
____ _ ____ _ ____ _ ____
72
65
73
4
40
47.5
49
22
74
0
49
-8.5
74
0
49
8.5
74
0
49
-8.5
74
0
0
LTYPE
5
3F
100
AcDbSymbolTableRecord
100
AcDbLinetypeTableRecord
70
0
2
DOT
3
.........................
72
65
73
2
40
10
49
0
74
0
49
-10
74
0
0
LTYPE
5
40
100
AcDbSymbolTableRecord
100
AcDbLinetypeTableRecord
70
0
2
DASHDOT
3
_._._._._._._._._._._._._._._._.
72
65
73
4
40
70
49
31
74
0
49
-13
74
0
49
13
74
0
49
-13
74
0
0
ENDTAB
0
TABLE
2
LAYER
5
17a
100
AcDbSymbolTable
0
LAYER
5
10
100
AcDbSymbolTableRecord
100
AcDbLayerTableRecord
2
0
70
0
62
7
6
CONTINUOUS
290
1
370
-3
390
0
0
LAYER
5
42
100
AcDbSymbolTableRecord
100
AcDbLayerTableRecord
2
80
70
0
62
-6
6
CONTINUOUS
290
1
370
-3
390
0
0
LAYER
5
44
100
AcDbSymbolTableRecord
100
AcDbLayerTableRecord
2
81
70
0
62
-3
6
CONTINUOUS
290
1
370
-3
390
0
0
LAYER
5
46
100
AcDbSymbolTableRecord
100
AcDbLayerTableRecord
2
1
70
0
62
4
6
CONTINUOUS
290
1
370
-3
390
0
0
LAYER
5
48
100
AcDbSymbolTableRecord
100
AcDbLayerTableRecord
2
2
70
0
62
7
6
CONTINUOUS
290
1
370
-3
390
0
0
LAYER
5
5E
100
AcDbSymbolTableRecord
100
AcDbLayerTableRecord
2
4
70
0
62
-2
6
CENTER
290
1
370
-3
390
0
0
LAYER
5
164
100
AcDbSymbolTableRecord
100
AcDbLayerTableRecord
2
SK1
70
0
62
4
6
CONTINUOUS
290
1
370
-3
390
0
0
LAYER
5
165
100
AcDbSymbolTableRecord
100
AcDbLayerTableRecord
2
SK4
70
0
62
2
6
CENTER
290
1
370
-3
390
0
0
LAYER
5
166
100
AcDbSymbolTableRecord
100
AcDbLayerTableRecord
2
SK6
70
0
62
5
6
CONTINUOUS
290
1
370
-3
390
0
0
LAYER
5
167
100
AcDbSymbolTableRecord
100
AcDbLayerTableRecord
2
SK2
70
0
62
7
6
CONTINUOUS
290
1
370
-3
390
0
0
ENDTAB
0
TABLE
2
STYLE
5
17b
100
AcDbSymbolTable
0
STYLE
5
11
100
AcDbSymbolTableRecord
100
AcDbTextStyleTableRecord
2
Standard
3
txt
70
0
71
0
40
0
41
1
42
0
50
0
0
STYLE
5
E0
100
AcDbSymbolTableRecord
100
AcDbTextStyleTableRecord
2
DEFAULT
3
simplex.shx
70
0
71
0
40
0
41
1
42
0
50
0
0
STYLE
5
103
100
AcDbSymbolTableRecord
100
AcDbTextStyleTableRecord
2
DWGDirectTextStyle
3
SIMPLEX
70
0
71
0
40
0
41
1
42
0
50
0
0
ENDTAB
0
TABLE
2
DIMSTYLE
5
17c
100
AcDbSymbolTable
100
AcDbDimStyleTable
0
DIMSTYLE
105
27
100
AcDbSymbolTableRecord
100
AcDbDimStyleTableRecord
2
Standard
70
0
3
<>
41
0.18
42
0.0625
44
0.18
140
0.18
147
0.09
73
0
74
0
77
1
271
2
275
0
278
52
280
0
340
11
0
ENDTAB
0
TABLE
2
VIEW
5
17d
100
AcDbSymbolTable
0
ENDTAB
0
TABLE
2
UCS
5
17e
100
AcDbSymbolTable
0
ENDTAB
0
TABLE
2
APPID
5
17f
100
AcDbSymbolTable
0
APPID
5
12
100
AcDbSymbolTableRecord
100
AcDbRegAppTableRecord
2
ACAD
70
0
0
ENDTAB
0
TABLE
2
BLOCK_RECORD
5
180
100
AcDbSymbolTable
0
BLOCK_RECORD
5
1F
100
AcDbSymbolTableRecord
100
AcDbBlockTableRecord
2
*Model_Space
340
0
70
0
0
BLOCK_RECORD
5
1B
100
AcDbSymbolTableRecord
100
AcDbBlockTableRecord
2
*Paper_Space
340
0
70
0
0
BLOCK_RECORD
5
23
100
AcDbSymbolTableRecord
100
AcDbBlockTableRecord
2
*Paper_Space0
340
0
70
0
0
BLOCK_RECORD
5
105
100
AcDbSymbolTableRecord
100
AcDbBlockTableRecord
2
DimnDraft3D1
340
0
70
0
0
BLOCK_RECORD
5
113
100
AcDbSymbolTableRecord
100
AcDbBlockTableRecord
2
_CLOSED
340
0
70
0
0
BLOCK_RECORD
5
11A
100
AcDbSymbolTableRecord
100
AcDbBlockTableRecord
2
DimnDraft3D2
340
0
70
0
0
BLOCK_RECORD
5
129
100
AcDbSymbolTableRecord
100
AcDbBlockTableRecord
2
DimnDraft3D3
340
0
70
0
0
BLOCK_RECORD
5
137
100
AcDbSymbolTableRecord
100
AcDbBlockTableRecord
2
DimnDraft3D4
340
0
70
0
0
ENDTAB
0
ENDSEC
0
SECTION
2
BLOCKS
0
BLOCK
5
20
100
AcDbEntity
8
0
100
AcDbBlockBegin
2
*Model_Space
70
0
10
0
20
0
30
0
3
*Model_Space
0
ENDBLK
5
21
100
AcDbEntity
8
0
100
AcDbBlockEnd
0
BLOCK
5
1C
100
AcDbEntity
8
0
100
AcDbBlockBegin
2
*Paper_Space
70
0
10
0
20
0
30
0
3
*Paper_Space
0
ENDBLK
5
1D
100
AcDbEntity
8
0
100
AcDbBlockEnd
0
BLOCK
5
24
100
AcDbEntity
8
0
100
AcDbBlockBegin
2
*Paper_Space0
70
0
10
0
20
0
30
0
3
*Paper_Space0
0
ENDBLK
5
25
100
AcDbEntity
8
0
100
AcDbBlockEnd
0
BLOCK
5
110
100
AcDbEntity
8
0
100
AcDbBlockBegin
2
DimnDraft3D1
70
0
10
0
20
0
30
0
3
DimnDraft3D1
0
MTEXT
5
106
100
AcDbEntity
8
2
62
256
6
ByLayer
370
-1
48
1
60
0
100
AcDbMText
10
83.035
20
-25.052368
30
0
210
0
220
0
230
1
1
\W01.000;\fsimplex.shx,bigfont.shx;9.0 
40
4.5
41
0
44
1.084337
50
90
71
7
72
5
7
DEFAULT
0
LINE
5
107
100
AcDbEntity
8
2
62
256
6
ByLayer
370
-1
48
1
60
0
100
AcDbLine
10
73.91
20
-8.9
30
0
11
86.16
21
-8.9
31
0
39
0
210
0
220
0
230
1
0
LINE
5
108
100
AcDbEntity
8
2
62
256
6
ByLayer
370
-1
48
1
60
0
100
AcDbLine
10
73.91
20
0
30
0
11
86.16
21
0
31
0
39
0
210
0
220
0
230
1
0
LINE
5
109
100
AcDbEntity
8
2
62
256
6
ByLayer
370
-1
48
1
60
0
100
AcDbLine
10
84.16
20
0
30
0
11
84.16
21
-26.177368
31
0
39
0
210
0
220
0
230
1
0
LINE
5
10A
100
AcDbEntity
8
2
62
256
6
ByLayer
370
-1
48
1
60
0
100
AcDbLine
10
84.16
20
-8.9
30
0
11
83.742003
21
-5.725002
31
0
39
0
210
0
220
0
230
1
0
LINE
5
10B
100
AcDbEntity
8
2
62
256
6
ByLayer
370
-1
48
1
60
0
100
AcDbLine
10
84.16
20
-8.9
30
0
11
84.577997
21
-5.724998
31
0
39
0
210
0
220
0
230
1
0
LINE
5
10C
100
AcDbEntity
8
2
62
256
6
ByLayer
370
-1
48
1
60
0
100
AcDbLine
10
83.742003
20
-5.725002
30
0
11
84.577997
21
-5.724998
31
0
39
0
210
0
220
0
230
1
0
LINE
5
10D
100
AcDbEntity
8
2
62
256
6
ByLayer
370
-1
48
1
60
0
100
AcDbLine
10
84.16
20
0
30
0
11
84.577997
21
-3.174998
31
0
39
0
210
0
220
0
230
1
0
LINE
5
10E
100
AcDbEntity
8
2
62
256
6
ByLayer
370
-1
48
1
60
0
100
AcDbLine
10
84.16
20
0
30
0
11
83.742003
21
-3.175002
31
0
39
0
210
0
220
0
230
1
0
LINE
5
10F
100
AcDbEntity
8
2
62
256
6
ByLayer
370
-1
48
1
60
0
100
AcDbLine
10
84.577997
20
-3.174998
30
0
11
83.742003
21
-3.175002
31
0
39
0
210
0
220
0
230
1
0
ENDBLK
5
111
100
AcDbEntity
8
0
100
AcDbBlockEnd
0
BLOCK
5
114
100
AcDbEntity
8
0
100
AcDbBlockBegin
2
_CLOSED
70
0
10
0
20
0
30
0
3
_CLOSED
0
LINE
5
116
100
AcDbEntity
8
0
62
256
6
ByLayer
370
-2
48
1
60
0
100
AcDbLine
10
-1
20
0.166667
30
0
11
0
21
0
31
0
39
0
210
0
220
0
230
1
0
LINE
5
117
100
AcDbEntity
8
0
62
256
6
ByLayer
370
-2
48
1
60
0
100
AcDbLine
10
0
20
0
30
0
11
-1
21
-0.166667
31
0
39
0
210
0
220
0
230
1
0
LINE
5
118
100
AcDbEntity
8
0
62
256
6
ByLayer
370
-2
48
1
60
0
100
AcDbLine
10
-1
20
0.166667
30
0
11
-1
21
-0.166667
31
0
39
0
210
0
220
0
230
1
0
LINE
5
119
100
AcDbEntity
8
0
62
256
6
ByLayer
370
-2
48
1
60
0
100
AcDbLine
10
0
20
0
30
0
11
-1
21
0
31
0
39
0
210
0
220
0
230
1
0
ENDBLK
5
115
100
AcDbEntity
8
0
100
AcDbBlockEnd
0
BLOCK
5
126
100
AcDbEntity
8
0
100
AcDbBlockBegin
2
DimnDraft3D2
70
0
10
0
20
0
30
0
3
DimnDraft3D2
0
MTEXT
5
11B
100
AcDbEntity
8
SK2
62
256
6
ByLayer
370
-1
48
1
60
0
100
AcDbMText
10
-120.215
20
17.3725
30
0
210
0
220
0
230
1
1
\W01.000;\fsimplex.shx,bigfont.shx;%%c12 
40
4.5
41
0
44
1.084337
50
90
71
7
72
5
7
DEFAULT
0
LINE
5
11D
100
AcDbEntity
8
SK2
62
256
6
ByLayer
370
-1
48
1
60
0
100
AcDbLine
10
-111.34
20
-5.9925
30
0
11
-121.09
21
-5.9925
31
0
39
0
210
0
220
0
230
1
0
LINE
5
11E
100
AcDbEntity
8
SK2
62
256
6
ByLayer
370
-1
48
1
60
0
100
AcDbLine
10
-111.34
20
5.9925
30
0
11
-121.09
21
5.9925
31
0
39
0
210
0
220
0
230
1
0
LINE
5
11F
100
AcDbEntity
8
SK2
62
256
6
ByLayer
370
-1
48
1
60
0
100
AcDbLine
10
-119.09
20
-5.9925
30
0
11
-119.09
21
24.690921
31
0
39
0
210
0
220
0
230
1
0
LINE
5
120
100
AcDbEntity
8
SK2
62
256
6
ByLayer
370
-1
48
1
60
0
100
AcDbLine
10
-119.09
20
-5.9925
30
0
11
-119.507997
21
-2.817502
31
0
39
0
210
0
220
0
230
1
0
LINE
5
121
100
AcDbEntity
8
SK2
62
256
6
ByLayer
370
-1
48
1
60
0
100
AcDbLine
10
-119.09
20
-5.9925
30
0
11
-118.672003
21
-2.817498
31
0
39
0
210
0
220
0
230
1
0
LINE
5
122
100
AcDbEntity
8
SK2
62
256
6
ByLayer
370
-1
48
1
60
0
100
AcDbLine
10
-119.507997
20
-2.817502
30
0
11
-118.672003
21
-2.817498
31
0
39
0
210
0
220
0
230
1
0
LINE
5
123
100
AcDbEntity
8
SK2
62
256
6
ByLayer
370
-1
48
1
60
0
100
AcDbLine
10
-119.09
20
5.9925
30
0
11
-118.672003
21
2.817502
31
0
39
0
210
0
220
0
230
1
0
LINE
5
124
100
AcDbEntity
8
SK2
62
256
6
ByLayer
370
-1
48
1
60
0
100
AcDbLine
10
-119.09
20
5.9925
30
0
11
-119.507997
21
2.817498
31
0
39
0
210
0
220
0
230
1
0
LINE
5
125
100
AcDbEntity
8
SK2
62
256
6
ByLayer
370
-1
48
1
60
0
100
AcDbLine
10
-118.672003
20
2.817502
30
0
11
-119.507997
21
2.817498
31
0
39
0
210
0
220
0
230
1
0
ENDBLK
5
127
100
AcDbEntity
8
0
100
AcDbBlockEnd
0
BLOCK
5
134
100
AcDbEntity
8
0
100
AcDbBlockBegin
2
DimnDraft3D3
70
0
10
0
20
0
30
0
3
DimnDraft3D3
0
MTEXT
5
12A
100
AcDbEntity
8
SK2
62
256
6
ByLayer
370
-1
48
1
60
0
100
AcDbMText
10
-23.842632
20
-25.025
30
0
210
0
220
0
230
1
1
\W01.000;\fsimplex.shx,bigfont.shx;180.0 
40
4.5
41
0
44
1.084337
50
0
71
7
72
5
7
DEFAULT
0
LINE
5
12B
100
AcDbEntity
8
SK2
62
256
6
ByLayer
370
-1
48
1
60
0
100
AcDbLine
10
-109.34
20
-7.9925
30
0
11
-109.34
21
-28.15
31
0
39
0
210
0
220
0
230
1
0
LINE
5
12C
100
AcDbEntity
8
SK2
62
256
6
ByLayer
370
-1
48
1
60
0
100
AcDbLine
10
71.91
20
-10.9
30
0
11
71.91
21
-28.15
31
0
39
0
210
0
220
0
230
1
0
LINE
5
12D
100
AcDbEntity
8
SK2
62
256
6
ByLayer
370
-1
48
1
60
0
100
AcDbLine
10
-109.34
20
-26.15
30
0
11
71.91
21
-26.15
31
0
39
0
210
0
220
0
230
1
0
LINE
5
12E
100
AcDbEntity
8
SK2
62
256
6
ByLayer
370
-1
48
1
60
0
100
AcDbLine
10
-109.34
20
-26.15
30
0
11
-106.165002
21
-25.732003
31
0
39
0
210
0
220
0
230
1
0
LINE
5
12F
100
AcDbEntity
8
SK2
62
256
6
ByLayer
370
-1
48
1
60
0
100
AcDbLine
10
-109.34
20
-26.15
30
0
11
-106.164998
21
-26.567997
31
0
39
0
210
0
220
0
230
1
0
LINE
5
130
100
AcDbEntity
8
SK2
62
256
6
ByLayer
370
-1
48
1
60
0
100
AcDbLine
10
-106.165002
20
-25.732003
30
0
11
-106.164998
21
-26.567997
31
0
39
0
210
0
220
0
230
1
0
LINE
5
131
100
AcDbEntity
8
SK2
62
256
6
ByLayer
370
-1
48
1
60
0
100
AcDbLine
10
71.91
20
-26.15
30
0
11
68.735002
21
-26.567997
31
0
39
0
210
0
220
0
230
1
0
LINE
5
132
100
AcDbEntity
8
SK2
62
256
6
ByLayer
370
-1
48
1
60
0
100
AcDbLine
10
71.91
20
-26.15
30
0
11
68.734998
21
-25.732003
31
0
39
0
210
0
220
0
230
1
0
LINE
5
133
100
AcDbEntity
8
SK2
62
256
6
ByLayer
370
-1
48
1
60
0
100
AcDbLine
10
68.735002
20
-26.567997
30
0
11
68.734998
21
-25.732003
31
0
39
0
210
0
220
0
230
1
0
ENDBLK
5
135
100
AcDbEntity
8
0
100
AcDbBlockEnd
0
BLOCK
5
142
100
AcDbEntity
8
0
100
AcDbBlockBegin
2
DimnDraft3D4
70
0
10
0
20
0
30
0
3
DimnDraft3D4
0
MTEXT
5
138
100
AcDbEntity
8
2
62
256
6
ByLayer
370
-1
48
1
60
0
100
AcDbMText
10
95.785597
20
31.136179
30
0
210
0
220
0
230
1
1
\W01.000;\fsimplex.shx,bigfont.shx;91%%d0' 
40
4.5
41
0
44
1.084337
50
315.5
71
7
72
5
7
DEFAULT
0
LINE
5
139
100
AcDbEntity
8
2
62
256
6
ByLayer
370
-1
48
1
60
0
100
AcDbLine
10
71.718024
20
2.098325
30
0
11
71.057838
21
39.920326
31
0
39
0
210
0
220
0
230
1
0
LINE
5
13A
100
AcDbEntity
8
2
62
256
6
ByLayer
370
-1
48
1
60
0
100
AcDbLine
10
73.91
20
0
30
0
11
111.681057
21
0
31
0
39
0
210
0
220
0
230
1
0
ARC
5
13B
100
AcDbEntity
8
2
62
256
6
ByLayer
370
-1
48
1
60
0
100
AcDbCircle
39
0
10
71.75465
20
0
30
0
40
37.9264068640928
210
0
220
0
230
1
100
AcDbArc
50
0
51
91
0
LINE
5
13C
100
AcDbEntity
8
2
62
256
6
ByLayer
370
-1
48
1
60
0
100
AcDbLine
10
71.092743
20
37.92063
30
0
11
74.26917
21
38.327629
31
0
39
0
210
0
220
0
230
1
0
LINE
5
13D
100
AcDbEntity
8
2
62
256
6
ByLayer
370
-1
48
1
60
0
100
AcDbLine
10
71.092743
20
37.92063
30
0
11
74.266278
21
37.491641
31
0
39
0
210
0
220
0
230
1
0
LINE
5
13E
100
AcDbEntity
8
2
62
256
6
ByLayer
370
-1
48
1
60
0
100
AcDbLine
10
74.26917
20
38.327629
30
0
11
74.266278
21
37.491641
31
0
39
0
210
0
220
0
230
1
0
LINE
5
13F
100
AcDbEntity
8
2
62
256
6
ByLayer
370
-1
48
1
60
0
100
AcDbLine
10
109.681057
20
0
30
0
11
109.196747
21
3.165562
31
0
39
0
210
0
220
0
230
1
0
LINE
5
140
100
AcDbEntity
8
2
62
256
6
ByLayer
370
-1
48
1
60
0
100
AcDbLine
10
109.681057
20
0
30
0
11
110.032557
21
3.183049
31
0
39
0
210
0
220
0
230
1
0
LINE
5
141
100
AcDbEntity
8
2
62
256
6
ByLayer
370
-1
48
1
60
0
100
AcDbLine
10
109.196747
20
3.165562
30
0
11
110.032557
21
3.183049
31
0
39
0
210
0
220
0
230
1
0
ENDBLK
5
143
100
AcDbEntity
8
0
100
AcDbBlockEnd
0
ENDSEC
0
SECTION
2
ENTITIES
0
ELLIPSE
5
8F
100
AcDbEntity
8
1
62
256
6
ByLayer
370
-1
48
1
60
0
100
AcDbEllipse
10
64.054741
20
-4.258615
30
0
11
-0.874866733261842
21
-0.0152708556326212
31
0
210
0
220
0
230
1
40
0.993199
41
1.53472160386994
42
1.97931988536357
0
ELLIPSE
5
90
100
AcDbEntity
8
1
62
256
6
ByLayer
370
-1
48
1
60
0
100
AcDbEllipse
10
64.053826
20
-4.206228
30
0
11
0.874866733261842
21
0.0152708556326219
31
0
210
0
220
0
230
1
40
0.993199
41
-2.96644853869986
42
-1.22895190133545
0
ELLIPSE
5
91
100
AcDbEntity
8
1
62
256
6
ByLayer
370
-1
48
1
60
0
100
AcDbEllipse
10
64.948454
20
-4.956659
30
0
11
1.09418586688477
21
0.0190990853500102
31
0
210
0
220
0
230
1
40
0.993199
41
-2.76970596283256
42
-1.04719755119657
0
ELLIPSE
5
92
100
AcDbEntity
8
1
62
256
6
ByLayer
370
-1
48
1
60
0
100
AcDbEllipse
10
64.944085
20
-4.706356
30
0
11
-0.999847695156391
21
-0.0174524064372819
31
0
210
0
220
0
230
1
40
0.993199
41
0.42033338534135
42
2.02547063349524
0
ELLIPSE
5
93
100
AcDbEntity
8
1
62
256
6
ByLayer
370
-1
48
1
60
0
100
AcDbEllipse
10
64.946727
20
-4.857695
30
0
11
-0.999847695156391
21
-0.0174524064372819
31
0
210
0
220
0
230
1
40
0.993199
41
0.420333385341349
42
2.09439510239315
0
ELLIPSE
5
94
100
AcDbEntity
8
1
62
256
6
ByLayer
370
-1
48
1
60
0
100
AcDbEllipse
10
64.05911
20
-4.508918
30
0
11
-0.874866733261842
21
-0.0152708556326212
31
0
210
0
220
0
230
1
40
0.993199
41
-2.32851568125979
42
1.41224493287844
0
ELLIPSE
5
95
100
AcDbEntity
8
1
62
256
6
ByLayer
370
-1
48
1
60
0
100
AcDbEllipse
10
68.705108
20
-0.003028
30
0
11
0.0372087200870004
21
-8.11119078589205
31
0
210
0
220
0
230
-1
40
0.110229
41
-0.111835315925236
42
-0.00679216894265184
0
ELLIPSE
5
96
100
AcDbEntity
8
1
62
256
6
ByLayer
370
-1
48
1
60
0
100
AcDbEllipse
10
71.512997
20
-8.505611
30
0
11
0.39693953497703
21
0.00692860535560002
31
0
210
0
220
0
230
1
40
0.993199
41
-2.09439510239327
42
-1.12627239784758E-13
0
ELLIPSE
5
97
100
AcDbEntity
8
1
62
256
6
ByLayer
370
-1
48
1
60
0
100
AcDbEllipse
10
71.369908
20
-0.30805
30
0
11
0.39693953497702
21
0.00692860535559985
31
0
210
0
220
0
230
1
40
0.993199
41
0
42
2.0943951023932
0
ELLIPSE
5
98
100
AcDbEntity
8
1
62
256
6
ByLayer
370
-1
48
1
60
0
100
AcDbEllipse
10
64.293541
20
-4.531598
30
0
11
0.396939534977047
21
0.00692860535560033
31
0
210
0
220
0
230
1
40
0.993199
41
2.09439510239312
42
-2.09439510239324
0
ELLIPSE
5
99
100
AcDbEntity
8
1
62
256
6
ByLayer
370
-1
48
1
60
0
100
AcDbEllipse
10
69.057699
20
-4.38444
30
0
11
1.65537097473
21
0.0288946078441967
31
0
210
0
220
0
230
1
40
0.993199
41
3.12401964052387
42
0
0
ELLIPSE
5
9A
100
AcDbEntity
8
1
62
256
6
ByLayer
370
-1
48
1
60
0
100
AcDbEllipse
10
69.057699
20
-4.38444
30
0
11
1.65537097473
21
0.0288946078441967
31
0
210
0
220
0
230
1
40
0.993199
41
0
42
0.639117973714412
0
ELLIPSE
5
9B
100
AcDbEntity
8
1
62
256
6
ByLayer
370
-1
48
1
60
0
100
AcDbEllipse
10
69.057699
20
-4.38444
30
0
11
1.65537097473
21
0.0288946078441967
31
0
210
0
220
0
230
1
40
0.993199
41
2.50237735631203
42
3.12402024866096
0
ELLIPSE
5
9C
100
AcDbEntity
8
1
62
256
6
ByLayer
370
-1
48
1
60
0
100
AcDbEllipse
10
69.058816
20
-4.44842
30
0
11
1.6937958789114
21
0.0295653170415436
31
0
210
0
220
0
230
1
40
0.993199
41
0
42
6.28318530717959
0
ELLIPSE
5
9D
100
AcDbEntity
8
1
62
256
6
ByLayer
370
-1
48
1
60
0
100
AcDbEllipse
10
69.057408
20
-4.36779
30
0
11
-1.60734660482143
21
-0.0280563393493055
31
0
210
0
220
0
230
1
40
0.993199
41
2.34873348441165
42
3.12401989211724
0
ELLIPSE
5
9E
100
AcDbEntity
8
1
62
256
6
ByLayer
370
-1
48
1
60
0
100
AcDbEllipse
10
69.057408
20
-4.36779
30
0
11
-1.60734660482143
21
-0.0280563393493055
31
0
210
0
220
0
230
1
40
0.993199
41
3.12401989211723
42
0
0
ELLIPSE
5
9F
100
AcDbEntity
8
1
62
256
6
ByLayer
370
-1
48
1
60
0
100
AcDbEllipse
10
69.057408
20
-4.36779
30
0
11
-1.60734660482143
21
-0.0280563393493055
31
0
210
0
220
0
230
1
40
0.993199
41
0
42
0.80837142898266
0
ELLIPSE
5
A0
100
AcDbEntity
8
1
62
256
6
ByLayer
370
-1
48
1
60
0
100
AcDbEllipse
10
70.080799
20
-4.917655
30
0
11
-0.421935727355997
21
-0.00736491551653276
31
0
210
0
220
0
230
1
40
0.993199
41
-1.29892749328062
42
-0.524027765428254
0
ELLIPSE
5
A1
100
AcDbEntity
8
1
62
256
6
ByLayer
370
-1
48
1
60
0
100
AcDbEllipse
10
69.059839
20
-4.470385
30
0
11
1.03484236448686
21
0.018063240662587
31
0
210
0
220
0
230
1
40
0.993199
41
-2.09353712273333
42
-1.04719755119668
0
ELLIPSE
5
A2
100
AcDbEntity
8
1
62
256
6
ByLayer
370
-1
48
1
60
0
100
AcDbEllipse
10
69.059839
20
-4.470385
30
0
11
1.03484236448686
21
0.018063240662587
31
0
210
0
220
0
230
1
40
0.993199
41
-0.000857979659904713
42
1.04805553085656
0
ELLIPSE
5
A3
100
AcDbEntity
8
1
62
256
6
ByLayer
370
-1
48
1
60
0
100
AcDbEllipse
10
69.059839
20
-4.470385
30
0
11
1.03484236448686
21
0.018063240662587
31
0
210
0
220
0
230
1
40
0.993199
41
3.14073467392993
42
-2.09353712273333
0
ELLIPSE
5
A4
100
AcDbEntity
8
1
62
256
6
ByLayer
370
-1
48
1
60
0
100
AcDbEllipse
10
68.207924
20
-4.368081
30
0
11
-0.184971823603932
21
-0.00322869519089706
31
0
210
0
220
0
230
1
40
0.993199
41
0.303817007784506
42
1.3006849754907
0
ELLIPSE
5
A5
100
AcDbEntity
8
1
62
256
6
ByLayer
370
-1
48
1
60
0
100
AcDbEllipse
10
70.059496
20
-3.756109
30
0
11
-0.421935727355997
21
-0.00736491551653276
31
0
210
0
220
0
230
1
40
0.993199
41
-0.253487424293612
42
1.05632730147997E-05
0
ELLIPSE
5
A6
100
AcDbEntity
8
1
62
256
6
ByLayer
370
-1
48
1
60
0
100
AcDbEllipse
10
69.90769
20
-4.33986
30
0
11
-0.184971823603932
21
-0.00322869519089706
31
0
210
0
220
0
230
1
40
0.993199
41
1.84266516030916
42
2.81004864550195
0
ELLIPSE
5
A7
100
AcDbEntity
8
1
62
256
6
ByLayer
370
-1
48
1
60
0
100
AcDbEllipse
10
69.059464
20
-4.448897
30
0
11
1.54976392749242
21
0.0270512299777876
31
0
210
0
220
0
230
1
40
0.993199
41
0
42
6.28318530717959
0
ELLIPSE
5
A8
100
AcDbEntity
8
1
62
256
6
ByLayer
370
-1
48
1
60
0
100
AcDbEllipse
10
68.056117
20
-4.951831
30
0
11
-0.421935727355997
21
-0.00736491551653276
31
0
210
0
220
0
230
1
40
0.993199
41
-2.55108055567699
42
-1.84090767809971
0
ELLIPSE
5
A9
100
AcDbEntity
8
1
62
256
6
ByLayer
370
-1
48
1
60
0
100
AcDbEllipse
10
69.495502
20
-5.077557
30
0
11
-0.184971823603932
21
-0.00322869519089706
31
0
210
0
220
0
230
1
40
0.993199
41
0.796325588772435
42
2.77665237367114
0
ELLIPSE
5
AA
100
AcDbEntity
8
1
62
256
6
ByLayer
370
-1
48
1
60
0
100
AcDbEllipse
10
68.034815
20
-3.790285
30
0
11
-0.421935727355997
21
-0.00736491551653276
31
0
210
0
220
0
230
1
40
0.993199
41
3.14158999498152
42
-2.96035236680394
0
ELLIPSE
5
AB
100
AcDbEntity
8
1
62
256
6
ByLayer
370
-1
48
1
60
0
100
AcDbEllipse
10
69.057807
20
-4.35397
30
0
11
-0.74788607597697
21
-0.0130544000150863
31
0
210
0
220
0
230
1
40
0.993199
41
-0.258536343289921
42
0.485867423682089
0
ELLIPSE
5
AC
100
AcDbEntity
8
1
62
256
6
ByLayer
370
-1
48
1
60
0
100
AcDbEllipse
10
69.057807
20
-4.35397
30
0
11
0.747886075976976
21
0.013054400015087
31
0
210
0
220
0
230
1
40
0.993199
41
-2.65572522990765
42
-2.58026252607539
0
ELLIPSE
5
AD
100
AcDbEntity
8
1
62
256
6
ByLayer
370
-1
48
1
60
0
100
AcDbEllipse
10
69.059839
20
-4.470385
30
0
11
1.03484236448686
21
0.018063240662587
31
0
210
0
220
0
230
1
40
0.993199
41
1.04805553085656
42
2.09439510239335
0
ELLIPSE
5
AE
100
AcDbEntity
8
1
62
256
6
ByLayer
370
-1
48
1
60
0
100
AcDbEllipse
10
69.059839
20
-4.470385
30
0
11
1.03484236448686
21
0.018063240662587
31
0
210
0
220
0
230
1
40
0.993199
41
2.09439510239335
42
3.14073467392993
0
ELLIPSE
5
AF
100
AcDbEntity
8
1
62
256
6
ByLayer
370
-1
48
1
60
0
100
AcDbEllipse
10
70.080799
20
-4.917655
30
0
11
-0.421935727355997
21
-0.00736491551653276
31
0
210
0
220
0
230
1
40
0.993199
41
-0.524027765428254
42
-8.26555753033577E-07
0
ELLIPSE
5
B0
100
AcDbEntity
8
1
62
256
6
ByLayer
370
-1
48
1
60
0
100
AcDbEllipse
10
69.059839
20
-4.470385
30
0
11
1.09983246467204
21
0.0191976470810105
31
0
210
0
220
0
230
1
40
0.993199
41
0
42
6.28318530717959
0
ELLIPSE
5
B1
100
AcDbEntity
8
1
62
256
6
ByLayer
370
-1
48
1
60
0
100
AcDbEllipse
10
69.059502
20
-4.451095
30
0
11
0.747886075976969
21
0.0130544000150869
31
0
210
0
220
0
230
1
40
0.993199
41
0.485867423681048
42
0.561330127515708
0
ELLIPSE
5
B2
100
AcDbEntity
8
1
62
256
6
ByLayer
370
-1
48
1
60
0
100
AcDbEllipse
10
69.057807
20
-4.35397
30
0
11
-0.74788607597697
21
-0.0130544000150863
31
0
210
0
220
0
230
1
40
0.993199
41
-2.4985719539008
42
-1.86038119469487
0
ELLIPSE
5
B3
100
AcDbEntity
8
1
62
256
6
ByLayer
370
-1
48
1
60
0
100
AcDbEllipse
10
69.059839
20
-4.470385
30
0
11
1.03484236448686
21
0.018063240662587
31
0
210
0
220
0
230
1
40
0.993199
41
-1.04719755119668
42
-0.000857979659904713
0
ELLIPSE
5
B4
100
AcDbEntity
8
1
62
256
6
ByLayer
370
-1
48
1
60
0
100
AcDbEllipse
10
69.078589
20
-5.515827
30
0
11
-0.421935727355997
21
-0.00736491551653276
31
0
210
0
220
0
230
1
40
0.993199
41
-1.57036733696494
42
-0.795467609112463
0
ELLIPSE
5
B5
100
AcDbEntity
8
1
62
256
6
ByLayer
370
-1
48
1
60
0
100
AcDbEllipse
10
69.057807
20
-4.35397
30
0
11
0.747886075976976
21
0.013054400015087
31
0
210
0
220
0
230
1
40
0.993199
41
-1.57036733696497
42
-0.52402776542821
0
ELLIPSE
5
B6
100
AcDbEntity
8
1
62
256
6
ByLayer
370
-1
48
1
60
0
100
AcDbEllipse
10
69.05801
20
-4.365612
30
0
11
1.54976392749241
21
0.0270512299777874
31
0
210
0
220
0
230
1
40
0.993199
41
3.12401971518385
42
-3.1415925348875
0
ELLIPSE
5
B7
100
AcDbEntity
8
1
62
256
6
ByLayer
370
-1
48
1
60
0
100
AcDbEllipse
10
69.05801
20
-4.365612
30
0
11
1.54976392749241
21
0.0270512299777874
31
0
210
0
220
0
230
1
40
0.993199
41
0
42
3.1240201273577
0
ELLIPSE
5
B8
100
AcDbEntity
8
1
62
256
6
ByLayer
370
-1
48
1
60
0
100
AcDbEllipse
10
69.078589
20
-5.515827
30
0
11
-0.421935727355997
21
-0.00736491551653276
31
0
210
0
220
0
230
1
40
0.993199
41
-2.34526706481752
42
-1.57036733696494
0
ELLIPSE
5
B9
100
AcDbEntity
8
1
62
256
6
ByLayer
370
-1
48
1
60
0
100
AcDbEllipse
10
69.059502
20
-4.451095
30
0
11
0.747886075976969
21
0.0130544000150869
31
0
210
0
220
0
230
1
40
0.993199
41
-2.65572522990767
42
-2.58026252607539
0
ELLIPSE
5
BA
100
AcDbEntity
8
1
62
256
6
ByLayer
370
-1
48
1
60
0
100
AcDbEllipse
10
69.057807
20
-4.35397
30
0
11
-0.74788607597697
21
-0.0130544000150863
31
0
210
0
220
0
230
1
40
0.993199
41
-1.27351747990478
42
-0.6271247405246
0
ELLIPSE
5
BB
100
AcDbEntity
8
1
62
256
6
ByLayer
370
-1
48
1
60
0
100
AcDbEllipse
10
68.056117
20
-4.951831
30
0
11
-0.421935727355997
21
-0.00736491551653276
31
0
210
0
220
0
230
1
40
0.993199
41
-3.14158274442951
42
-2.68490720030605
0
ELLIPSE
5
BC
100
AcDbEntity
8
1
62
256
6
ByLayer
370
-1
48
1
60
0
100
AcDbEllipse
10
68.646269
20
-5.092742
30
0
11
-0.184971823603932
21
-0.00322869519089706
31
0
210
0
220
0
230
1
40
0.993199
41
0.342798089042177
42
2.3461250444774
0
ELLIPSE
5
BD
100
AcDbEntity
8
1
62
256
6
ByLayer
370
-1
48
1
60
0
100
AcDbEllipse
10
69.057807
20
-4.35397
30
0
11
-0.74788607597697
21
-0.0130544000150863
31
0
210
0
220
0
230
1
40
0.993199
41
0.561330127514388
42
1.57122531662479
0
ELLIPSE
5
BE
100
AcDbEntity
8
1
62
256
6
ByLayer
370
-1
48
1
60
0
100
AcDbEllipse
10
69.057807
20
-4.35397
30
0
11
-0.74788607597697
21
-0.0130544000150863
31
0
210
0
220
0
230
1
40
0.993199
41
2.61756488816155
42
-2.86786572858702
0
POINT
5
41
100
AcDbEntity
8
80
62
256
6
ByLayer
370
-1
48
1
60
0
100
AcDbPoint
10
0
20
0
30
0
39
0
210
0
220
0
230
1
50
360
0
POINT
5
43
100
AcDbEntity
8
81
62
256
6
ByLayer
370
-1
48
1
60
0
100
AcDbPoint
10
71.91
20
-8.9
30
0
39
0
210
0
220
0
230
1
50
360
0
POINT
5
45
100
AcDbEntity
8
1
62
256
6
ByLayer
370
-1
48
1
60
0
100
AcDbPoint
10
-109.34
20
0
30
0
39
0
210
0
220
0
230
1
50
360
0
POINT
5
47
100
AcDbEntity
8
2
62
256
6
ByLayer
370
-1
48
1
60
0
100
AcDbPoint
10
71.91
20
8.9
30
0
39
0
210
0
220
0
230
1
50
360
0
SPLINE
5
BF
100
AcDbEntity
8
1
62
256
6
ByLayer
370
-1
48
1
60
0
100
AcDbSpline
70
4
71
3
72
8
73
4
40
0
40
0
40
0
40
0
40
1
40
1
40
1
40
1
41
1
10
69.5160361555035
20
-7.85721981754324
30
0
41
1
10
69.2897899478814
20
-7.83858507002586
30
0
41
1
10
69.0635438462755
20
-7.81994905646206
30
0
41
1
10
68.8372978528928
20
-7.8013117507443
30
0
0
SPLINE
5
C0
100
AcDbEntity
8
1
62
256
6
ByLayer
370
-1
48
1
60
0
100
AcDbSpline
70
4
71
3
72
8
73
4
40
0
40
0
40
0
40
0
40
1
40
1
40
1
40
1
41
1
10
64.0409858852876
20
-5.27885562620853
30
0
41
1
10
64.0065208018992
20
-5.31120915070937
30
0
41
1
10
63.9714661124396
20
-5.34145634360223
30
0
41
1
10
63.9359557660076
20
-5.36934659703581
30
0
0
SPLINE
5
C1
100
AcDbEntity
8
1
62
256
6
ByLayer
370
-1
48
1
60
0
100
AcDbSpline
70
4
71
3
72
10
73
6
40
0
40
0
40
0
40
0
40
0.5
40
0.5
40
1
40
1
40
1
40
1
41
1
10
55.6966645865991
20
0.303424428248917
30
0
41
1
10
56.099956555589
20
1.46825747976604
30
0
41
1
10
56.628447147907
20
2.53939726472271
30
0
41
1
10
58.0110965561121
20
4.21194777407575
30
0
41
1
10
58.8693931109063
20
4.79722639308514
30
0
41
1
10
59.8762616280283
20
5.16507800642967
30
0
0
SPLINE
5
C2
100
AcDbEntity
8
1
62
256
6
ByLayer
370
-1
48
1
60
0
100
AcDbSpline
70
4
71
3
72
49
73
45
40
-0.0977896949159824
40
-0.0977896949159824
40
0
40
0
40
0.0877464097270946
40
0.0877464097270946
40
0.133822351067734
40
0.133822351067734
40
0.171130014510521
40
0.171130014510521
40
0.199161139103526
40
0.199161139103526
40
0.227451743040258
40
0.227451743040258
40
0.252325229482573
40
0.252325229482573
40
0.277518285680498
40
0.277518285680498
40
0.31496712065203
40
0.31496712065203
40
0.368840598713657
40
0.368840598713657
40
0.451596653452735
40
0.451596653452735
40
0.574004137549945
40
0.574004137549945
40
0.574004137549945
40
0.629884803439733
40
0.629884803439733
40
0.686309881528131
40
0.686309881528131
40
0.708143305964837
40
0.708143305964837
40
0.721872535941183
40
0.721872535941183
40
0.735798147991319
40
0.735798147991319
40
0.74768983774414
40
0.74768983774414
40
0.767297675605896
40
0.767297675605896
40
0.806811106670842
40
0.806811106670842
40
0.902210305084018
40
0.902210305084018
40
1
40
1
40
1.0877464097271
40
1.0877464097271
41
1
10
58.2505355686305
20
-2.6441474580015
30
0
41
1
10
57.8142162384388
20
-2.47481521774353
30
0
41
1
10
57.5995684311056
20
-2.4248811231727
30
0
41
1
10
57.2733416310712
20
-2.43316785783338
30
0
41
1
10
57.1590735080923
20
-2.45192947561475
30
0
41
1
10
56.959251347664
20
-2.52610656998468
30
0
41
1
10
56.8705228218103
20
-2.57487578017117
30
0
41
1
10
56.7286097641863
20
-2.69109523172588
30
0
41
1
10
56.6707982698552
20
-2.75224447224781
30
0
41
1
10
56.5716961312919
20
-2.89182872116328
30
0
41
1
10
56.5292382578059
20
-2.97259803044628
30
0
41
1
10
56.4720085567277
20
-3.12959034555251
30
0
41
1
10
56.4537458204933
20
-3.20713602323511
30
0
41
1
10
56.4355127679311
20
-3.3586805197281
30
0
41
1
10
56.4354560193073
20
-3.43438462827064
30
0
41
1
10
56.454435656378
20
-3.61053098031095
30
0
41
1
10
56.4827808260136
20
-3.70832693576253
30
0
41
1
10
56.5788562082356
20
-3.91865054934703
30
0
41
1
10
56.6597178639182
20
-4.02349530500581
30
0
41
1
10
56.896583954465
20
-4.24290683358279
30
0
41
1
10
57.0739415040292
20
-4.33832147336511
30
0
41
1
10
57.5481890241586
20
-4.50662889653506
30
0
41
1
10
57.8713873956395
20
-4.5527113066882
30
0
41
1
10
58.2063716292121
20
-4.55271857347358
30
0
41
1
10
58.3608021871059
20
-4.55272192352297
30
0
41
1
10
58.519452462631
20
-4.54276287671823
30
0
41
1
10
58.839519351554
20
-4.49421778979792
30
0
41
1
10
59.0050329417343
20
-4.45705874074113
30
0
41
1
10
59.2193151780089
20
-4.35641673903666
30
0
41
1
10
59.2784905986412
20
-4.32187891479418
30
0
41
1
10
59.3629210028982
20
-4.24991276153588
30
0
41
1
10
59.3930436444522
20
-4.21757932980429
30
0
41
1
10
59.4409685227573
20
-4.14485833350906
30
0
41
1
10
59.4589568430543
20
-4.10321399961848
30
0
41
1
10
59.476712963862
20
-4.02447634318733
30
0
41
1
10
59.4791224032612
20
-3.98678252786985
30
0
41
1
10
59.4734650279014
20
-3.89027028475903
30
0
41
1
10
59.4581202304415
20
-3.83177473850364
30
0
41
1
10
59.395698649438
20
-3.66758063502132
30
0
41
1
10
59.332253843644
20
-3.56892345536264
30
0
41
1
10
59.0985851262891
20
-3.26140085200296
30
0
41
1
10
58.896232152862
20
-3.08179412816116
30
0
41
1
10
58.4759939971138
20
-2.77304612992018
30
0
41
1
10
58.2505355686305
20
-2.6441474580015
30
0
41
1
10
57.8142162384388
20
-2.47481521774353
30
0
0
SPLINE
5
C3
100
AcDbEntity
8
1
62
256
6
ByLayer
370
-1
48
1
60
0
100
AcDbSpline
70
4
71
3
72
16
73
12
40
0
40
0
40
0
40
0
40
0.0820543834779728
40
0.0820543834779728
40
0.348548968093436
40
0.348548968093436
40
0.623627777407863
40
0.623627777407863
40
0.927769734284203
40
0.927769734284203
40
1
40
1
40
1
40
1
41
1
10
55.6966645865991
20
0.303424428248917
30
0
41
1
10
55.6957982426746
20
0.287593148896661
30
0
41
1
10
55.6944726434157
20
0.271332180357604
30
0
41
1
10
55.686960820271
20
0.201328520664077
30
0
41
1
10
55.6762895403052
20
0.143861372474021
30
0
41
1
10
55.6466932149288
20
0.0281905018900943
30
0
41
1
10
55.6271903644336
20
-0.0313922294230622
30
0
41
1
10
55.5805203924347
20
-0.150367756505602
30
0
41
1
10
55.5522270468456
20
-0.2105676141571
30
0
41
1
10
55.5153993213061
20
-0.278196738066128
30
0
41
1
10
55.5081961279181
20
-0.290963169011405
30
0
41
1
10
55.5009181308009
20
-0.303424428249002
30
0
0
SPLINE
5
C4
100
AcDbEntity
8
1
62
256
6
ByLayer
370
-1
48
1
60
0
100
AcDbSpline
70
4
71
3
72
8
73
4
40
0
40
0
40
0
40
0
40
1
40
1
40
1
40
1
41
1
10
59.8762616280283
20
-6.02752502188014
30
0
41
1
10
60.5347090099583
20
-6.42587986561779
30
0
41
1
10
61.2148515297327
20
-6.81541167388525
30
0
41
1
10
61.9058822827812
20
-7.21428954716416
30
0
0
SPLINE
5
C5
100
AcDbEntity
8
1
62
256
6
ByLayer
370
-1
48
1
60
0
100
AcDbSpline
70
4
71
3
72
14
73
10
40
0
40
0
40
0
40
0
40
0.25
40
0.25
40
0.5
40
0.5
40
0.75
40
0.75
40
1
40
1
40
1
40
1
41
1
10
59.8762616280283
20
-6.02752502188014
30
0
41
1
10
58.9660421669872
20
-6.01069226964523
30
0
41
1
10
58.1037242236386
20
-5.97686375986791
30
0
41
1
10
56.5717322696446
20
-5.69634488493728
30
0
41
1
10
55.9252589297142
20
-5.44111306964206
30
0
41
1
10
55.1128581719457
20
-4.46627989558991
30
0
41
1
10
54.9713457895371
20
-3.76029015279067
30
0
41
1
10
55.0404609650521
20
-2.11496969605187
30
0
41
1
10
55.2329698397966
20
-1.19822952917192
30
0
41
1
10
55.5009181308009
20
-0.303424428248917
30
0
0
SPLINE
5
C6
100
AcDbEntity
8
1
62
256
6
ByLayer
370
-1
48
1
60
0
100
AcDbSpline
70
4
71
3
72
8
73
4
40
0
40
0
40
0
40
0
40
1
40
1
40
1
40
1
41
1
10
60.0376480779577
20
5.3135631502571
30
0
41
1
10
59.9834972861028
20
5.26447087750208
30
0
41
1
10
59.9296985524171
20
5.21498437280573
30
0
41
1
10
59.8762616280283
20
5.16507800642967
30
0
0
SPLINE
5
C7
100
AcDbEntity
8
1
62
256
6
ByLayer
370
-1
48
1
60
0
100
AcDbSpline
70
4
71
3
72
8
73
4
40
0
40
0
40
0
40
0
40
1
40
1
40
1
40
1
41
1
10
61.9058822827812
20
-7.21428954716413
30
0
41
1
10
62.1328921321967
20
-7.34532453446209
30
0
41
1
10
62.3599239979716
20
-7.47632191194899
30
0
41
1
10
62.5869745899999
20
-7.607287265688
30
0
0
SPLINE
5
C8
100
AcDbEntity
8
1
62
256
6
ByLayer
370
-1
48
1
60
0
100
AcDbSpline
70
4
71
3
72
8
73
4
40
0
40
0
40
0
40
0
40
1
40
1
40
1
40
1
41
1
10
68.7483889956546
20
-8.11400364847825
30
0
41
1
10
66.6945768287673
20
-7.94518630036333
30
0
41
1
10
64.6407715244302
20
-7.77628679968035
30
0
41
1
10
62.5869745899999
20
-7.607287265688
30
0
0
SPLINE
5
C9
100
AcDbEntity
8
1
62
256
6
ByLayer
370
-1
48
1
60
0
100
AcDbSpline
70
4
71
3
72
8
73
4
40
0
40
0
40
0
40
0
40
1
40
1
40
1
40
1
41
1
10
59.8762616280283
20
5.36799142263129
30
0
41
1
10
59.9281269088084
20
5.35049963425439
30
0
41
1
10
59.9820019512419
20
5.33233004514059
30
0
41
1
10
60.0376480779577
20
5.31356315025707
30
0
0
SPLINE
5
CA
100
AcDbEntity
8
1
62
256
6
ByLayer
370
-1
48
1
60
0
100
AcDbSpline
70
4
71
3
72
14
73
10
40
0
40
0
40
0
40
0
40
0.283465860143662
40
0.283465860143662
40
0.570251000089713
40
0.570251000089713
40
0.830083041238723
40
0.830083041238723
40
1
40
1
40
1
40
1
41
1
10
68.1635499640784
20
-4.6544598560985
30
0
41
1
10
68.143106754363
20
-4.65048418780219
30
0
41
1
10
68.1229454340665
20
-4.64270919938767
30
0
41
1
10
68.0866081690567
20
-4.6199255922584
30
0
41
1
10
68.0699420302277
20
-4.60444767301499
30
0
41
1
10
68.0451059036162
20
-4.56949513555534
30
0
41
1
10
68.0359413342927
20
-4.54998411915082
30
0
41
1
10
68.0271391061836
20
-4.5159348684831
30
0
41
1
10
68.0252168066886
20
-4.50175500130507
30
0
41
1
10
68.0249814031392
20
-4.48756633731301
30
0
0
SPLINE
5
CB
100
AcDbEntity
8
1
62
256
6
ByLayer
370
-1
48
1
60
0
100
AcDbSpline
70
4
71
3
72
18
73
14
40
0
40
0
40
0
40
0
40
0.203898191612941
40
0.203898191612941
40
0.381169449084598
40
0.381169449084598
40
0.560189891988919
40
0.560189891988919
40
0.715444437751402
40
0.715444437751402
40
0.920005051462105
40
0.920005051462105
40
1
40
1
40
1
40
1
41
1
10
69.6757811377244
20
-5.13732603584887
30
0
41
1
10
69.6647592565277
20
-5.09516855977679
30
0
41
1
10
69.6593552898653
20
-5.0502629385262
30
0
41
1
10
69.6621086670202
20
-4.96571194936968
30
0
41
1
10
69.6687230680128
20
-4.9251895081328
30
0
41
1
10
69.6933915854244
20
-4.84781355899327
30
0
41
1
10
69.7120415104437
20
-4.80990349984825
30
0
41
1
10
69.755269554411
20
-4.74844439868377
30
0
41
1
10
69.7792052130251
20
-4.7228827116021
30
0
41
1
10
69.8388019353673
20
-4.67390424242851
30
0
41
1
10
69.8767019563605
20
-4.65276487085751
30
0
41
1
10
69.9309415736133
20
-4.63279116228014
30
0
41
1
10
69.9465768529057
20
-4.62813525077431
30
0
41
1
10
69.9623433895539
20
-4.62446279495632
30
0
0
SPLINE
5
CC
100
AcDbEntity
8
1
62
256
6
ByLayer
370
-1
48
1
60
0
100
AcDbSpline
70
4
71
3
72
16
73
12
40
0
40
0
40
0
40
0
40
0.0417912919441806
40
0.0417912919441806
40
0.266826949636255
40
0.266826949636255
40
0.493420737309022
40
0.493420737309022
40
0.733421335425383
40
0.733421335425383
40
1
40
1
40
1
40
1
41
1
10
68.5268807672325
20
-3.58931217847322
30
0
41
1
10
68.5299034153255
20
-3.58750810328795
30
0
41
1
10
68.5329794477005
20
-3.5857834755916
30
0
41
1
10
68.5527500585827
20
-3.57539104297254
30
0
41
1
10
68.5709581774585
20
-3.56898232522687
30
0
41
1
10
68.6075992842678
20
-3.56165435002805
30
0
41
1
10
68.6264983551858
20
-3.56066640638673
30
0
41
1
10
68.663592758453
20
-3.56384502266687
30
0
41
1
10
68.6821478123258
20
-3.56834091689888
30
0
41
1
10
68.7176642960582
20
-3.58256930695526
30
0
41
1
10
68.7346913435844
20
-3.59298816114699
30
0
41
1
10
68.7490713612788
20
-3.60531277822
30
0
0
SPLINE
5
CD
100
AcDbEntity
8
1
62
256
6
ByLayer
370
-1
48
1
60
0
100
AcDbSpline
70
4
71
3
72
12
73
8
40
0
40
0
40
0
40
0
40
0.458784041777792
40
0.458784041777792
40
0.841137304922069
40
0.841137304922069
40
1
40
1
40
1
40
1
41
1
10
68.1635499640784
20
-4.65445985609847
30
0
41
1
10
68.2050826162123
20
-4.66253686800854
30
0
41
1
10
68.2463436632643
20
-4.67751649162943
30
0
41
1
10
68.3163878871145
20
-4.71824775135011
30
0
41
1
10
68.3468454904184
20
-4.74234941684955
30
0
41
1
10
68.3842583913234
20
-4.78309463799945
30
0
41
1
10
68.3946515644508
20
-4.79596034321131
30
0
41
1
10
68.4042233155792
20
-4.80950788250732
30
0
0
SPLINE
5
CE
100
AcDbEntity
8
1
62
256
6
ByLayer
370
-1
48
1
60
0
100
AcDbSpline
70
4
71
3
72
16
73
12
40
0
40
0
40
0
40
0
40
0.192332030285868
40
0.192332030285868
40
0.41702721902125
40
0.41702721902125
40
0.651426809164445
40
0.651426809164445
40
0.905776305680342
40
0.905776305680342
40
1
40
1
40
1
40
1
41
1
10
69.5927967912104
20
-5.3514576977725
30
0
41
1
10
69.5790167400552
20
-5.35968235627584
30
0
41
1
10
69.5639932442149
20
-5.36604361397715
30
0
41
1
10
69.5307225647663
20
-5.37505626496394
30
0
41
1
10
69.5119305386835
20
-5.37700284096633
30
0
41
1
10
69.4747303159778
20
-5.37513880953341
30
0
41
1
10
69.455905106983
20
-5.37107107445237
30
0
41
1
10
69.4196589635279
20
-5.35729187292472
30
0
41
1
10
69.4020329408767
20
-5.34697795528274
30
0
41
1
10
69.380940662521
20
-5.32986269079029
30
0
41
1
10
69.3754778295972
20
-5.32488303343723
30
0
41
1
10
69.3703300267676
20
-5.31963530660707
30
0
0
SPLINE
5
CF
100
AcDbEntity
8
1
62
256
6
ByLayer
370
-1
48
1
60
0
100
AcDbSpline
70
4
71
3
72
16
73
12
40
0
40
0
40
0
40
0
40
0.0596462575898103
40
0.0596462575898103
40
0.284216317631675
40
0.284216317631675
40
0.511359063794331
40
0.511359063794331
40
0.752728428794882
40
0.752728428794882
40
1
40
1
40
1
40
1
41
1
10
70.0946961553037
20
-4.45320353893271
30
0
41
1
10
70.0947789550434
20
-4.45819419301611
30
0
41
1
10
70.094656399942
20
-4.46318197710562
30
0
41
1
10
70.0931082678891
20
-4.48665972271158
30
0
41
1
10
70.0889298052215
20
-4.50501665405994
30
0
41
1
10
70.0754949698566
20
-4.53870566499165
30
0
41
1
10
70.0660235350642
20
-4.55443568917482
30
0
41
1
10
70.0427506937148
20
-4.58225949747484
30
0
41
1
10
70.0284393250757
20
-4.59442534411139
30
0
41
1
10
69.9972371624674
20
-4.61342204277847
30
0
41
1
10
69.9799637253637
20
-4.62035853882176
30
0
41
1
10
69.9623433895539
20
-4.62446279495637
30
0
0
SPLINE
5
D0
100
AcDbEntity
8
1
62
256
6
ByLayer
370
-1
48
1
60
0
100
AcDbSpline
70
4
71
3
72
16
73
12
40
0
40
0
40
0
40
0
40
0.133247737204059
40
0.133247737204059
40
0.444117321191136
40
0.444117321191136
40
0.720208586320926
40
0.720208586320926
40
0.964799566741331
40
0.964799566741331
40
1
40
1
40
1
40
1
41
1
10
69.6757811377291
20
-5.13732603584739
30
0
41
1
10
69.6784252805103
20
-5.14743958942597
30
0
41
1
10
69.6803214416225
20
-5.1578516020036
30
0
41
1
10
69.6838875459704
20
-5.19282804074587
30
0
41
1
10
69.6818902257334
20
-5.21862029665988
30
0
41
1
10
69.6688253053102
20
-5.26467897648683
30
0
41
1
10
69.6585479871287
20
-5.28594063540294
30
0
41
1
10
69.6326436053172
20
-5.3207181441604
30
0
41
1
10
69.6173660748133
20
-5.33532874682732
30
0
41
1
10
69.5978751051424
20
-5.34833898777347
30
0
41
1
10
69.5953541204028
20
-5.34993134935397
30
0
41
1
10
69.5927967912104
20
-5.3514576977725
30
0
0
SPLINE
5
D1
100
AcDbEntity
8
1
62
256
6
ByLayer
370
-1
48
1
60
0
100
AcDbSpline
70
4
71
3
72
16
73
12
40
0
40
0
40
0
40
0
40
0.0647854195861501
40
0.0647854195861501
40
0.289325095599378
40
0.289325095599378
40
0.516726591525012
40
0.516726591525012
40
0.758592668413919
40
0.758592668413919
40
1
40
1
40
1
40
1
41
1
10
68.0249814031392
20
-4.48756633731301
30
0
41
1
10
68.024891536674
20
-4.48214974489878
30
0
41
1
10
68.0250432024216
20
-4.47670933652378
30
0
41
1
10
68.0267826782642
20
-4.45260302555053
30
0
41
1
10
68.0310782440353
20
-4.43378833447417
30
0
41
1
10
68.0447154031588
20
-4.39862464833041
30
0
41
1
10
68.0542804277758
20
-4.38185733964656
30
0
41
1
10
68.0777180499392
20
-4.35145057309566
30
0
41
1
10
68.0921039204026
20
-4.33768491958199
30
0
41
1
10
68.1230294220395
20
-4.3154190773864
30
0
41
1
10
68.1398767152475
20
-4.30664871955304
30
0
41
1
10
68.1570579984926
20
-4.30048528987064
30
0
0
SPLINE
5
D2
100
AcDbEntity
8
1
62
256
6
ByLayer
370
-1
48
1
60
0
100
AcDbSpline
70
4
71
3
72
14
73
10
40
0
40
0
40
0
40
0
40
0.276366706031676
40
0.276366706031676
40
0.564039947271712
40
0.564039947271712
40
0.8245829377417
40
0.8245829377417
40
1
40
1
40
1
40
1
41
1
10
69.9558500774002
20
-4.27041108389764
30
0
41
1
10
69.9758260696367
20
-4.27676367774956
30
0
41
1
10
69.995524315967
20
-4.28660250961255
30
0
41
1
10
70.0317231305664
20
-4.31299487130403
30
0
41
1
10
70.0486012323607
20
-4.3302547143038
30
0
41
1
10
70.0738387249846
20
-4.36784369043221
30
0
41
1
10
70.0832010330569
20
-4.38831769996312
30
0
41
1
10
70.0924070498804
20
-4.42371898525661
30
0
41
1
10
70.0944531619666
20
-4.43855740967476
30
0
41
1
10
70.0946961553037
20
-4.45320353893271
30
0
0
SPLINE
5
D3
100
AcDbEntity
8
1
62
256
6
ByLayer
370
-1
48
1
60
0
100
AcDbSpline
70
4
71
3
72
18
73
14
40
0
40
0
40
0
40
0
40
0.078491377119542
40
0.078491377119542
40
0.281318094091078
40
0.281318094091078
40
0.445580136408295
40
0.445580136408295
40
0.610675820945634
40
0.610675820945634
40
0.765084939005304
40
0.765084939005304
40
1
40
1
40
1
40
1
41
1
10
68.4436202503216
20
-3.78762204897606
30
0
41
1
10
68.4478508271097
20
-3.8020092563504
30
0
41
1
10
68.4512375790839
20
-3.81679778974677
30
0
41
1
10
68.4600725151169
20
-3.87074438744767
30
0
41
1
10
68.4603949809369
20
-3.91243968306571
30
0
41
1
10
68.4479319145585
20
-3.9887176464778
30
0
41
1
10
68.4373891882359
20
-4.02399055674806
30
0
41
1
10
68.4068722743968
20
-4.09148751939799
30
0
41
1
10
68.3864087248372
20
-4.12456318511101
30
0
41
1
10
68.340587886347
20
-4.18142044685052
30
0
41
1
10
68.315147353051
20
-4.20636380075123
30
0
41
1
10
68.2476959348095
20
-4.2595965392166
30
0
41
1
10
68.2026384751205
20
-4.28413423747381
30
0
41
1
10
68.1570579984926
20
-4.30048528987066
30
0
0
SPLINE
5
D4
100
AcDbEntity
8
1
62
256
6
ByLayer
370
-1
48
1
60
0
100
AcDbSpline
70
4
71
3
72
18
73
14
40
0
40
0
40
0
40
0
40
0.209995181122985
40
0.209995181122985
40
0.386194216123013
40
0.386194216123013
40
0.564071332431885
40
0.564071332431885
40
0.719104859092281
40
0.719104859092281
40
0.924737553896532
40
0.924737553896532
40
1
40
1
40
1
40
1
41
1
10
68.7799245046464
20
-5.33019250718482
30
0
41
1
10
68.8098303973101
20
-5.29744387176027
30
0
41
1
10
68.8454131238679
20
-5.26841630940453
30
0
41
1
10
68.9187852431485
20
-5.22680933334107
30
0
41
1
10
68.9561789566914
20
-5.21196464402388
30
0
41
1
10
69.034295759529
20
-5.19442850622329
30
0
41
1
10
69.076224944119
20
-5.19172826410778
30
0
41
1
10
69.1517244766749
20
-5.19897865768024
30
0
41
1
10
69.1865815748899
20
-5.20737090752942
30
0
41
1
10
69.261397247291
20
-5.23587436423705
30
0
41
1
10
69.3006545246446
20
-5.25924482092663
30
0
41
1
10
69.3471447468614
20
-5.29724050163065
30
0
41
1
10
69.3590769252145
20
-5.30816377110025
30
0
41
1
10
69.3703300267676
20
-5.31963530660704
30
0
0
SPLINE
5
D5
100
AcDbEntity
8
1
62
256
6
ByLayer
370
-1
48
1
60
0
100
AcDbSpline
70
4
71
3
72
16
73
12
40
0
40
0
40
0
40
0
40
0.0660521325355568
40
0.0660521325355568
40
0.289957748830436
40
0.289957748830436
40
0.516798433661252
40
0.516798433661252
40
0.758130153747973
40
0.758130153747973
40
1
40
1
40
1
40
1
41
1
10
68.5587312287765
20
-5.36994810333957
30
0
41
1
10
68.5538528104223
20
-5.36726816759037
30
0
41
1
10
68.5490904723165
20
-5.36435123372661
30
0
41
1
10
68.5289485103874
20
-5.35067200629527
30
0
41
1
10
68.5149171881725
20
-5.33744040472817
30
0
41
1
10
68.4917697979208
20
-5.30772112412217
30
0
41
1
10
68.4824141419995
20
-5.29082430323393
30
0
41
1
10
68.4688108256501
20
-5.25475043258922
30
0
41
1
10
68.4647384461103
20
-5.23505245102919
30
0
41
1
10
68.4624007989239
20
-5.19626186273726
30
0
41
1
10
68.4640972170265
20
-5.17675847171864
30
0
41
1
10
68.4682974152416
20
-5.15826066545426
30
0
0
SPLINE
5
D6
100
AcDbEntity
8
1
62
256
6
ByLayer
370
-1
48
1
60
0
100
AcDbSpline
70
4
71
3
72
16
73
12
40
0
40
0
40
0
40
0
40
0.0588929313330628
40
0.0588929313330628
40
0.282811998114117
40
0.282811998114117
40
0.509263580639618
40
0.509263580639618
40
0.74987339969469
40
0.74987339969469
40
1
40
1
40
1
40
1
41
1
10
69.5609463296664
20
-3.57082177290613
30
0
41
1
10
69.5653010758125
20
-3.57321403183684
30
0
41
1
10
69.5695624816973
20
-3.57577252674403
30
0
41
1
10
69.5893455120478
20
-3.58870903060199
30
0
41
1
10
69.6035088767654
20
-3.60131723564052
30
0
41
1
10
69.6269103580901
20
-3.6292531986669
30
0
41
1
10
69.6364006270815
20
-3.6449573389439
30
0
41
1
10
69.6502762956263
20
-3.67814800853975
30
0
41
1
10
69.6544979235935
20
-3.69609363316101
30
0
41
1
10
69.6571810882313
20
-3.73171044733087
30
0
41
1
10
69.6554778226419
20
-3.749750521138
30
0
41
1
10
69.6511026262369
20
-3.76661027454185
30
0
0
SPLINE
5
D7
100
AcDbEntity
8
1
62
256
6
ByLayer
370
-1
48
1
60
0
100
AcDbSpline
70
4
71
3
72
14
73
10
40
0
40
0
40
0
40
0
40
0.283435469161465
40
0.283435469161465
40
0.570784919211685
40
0.570784919211685
40
0.83115586451881
40
0.83115586451881
40
1
40
1
40
1
40
1
41
1
10
68.7799245046464
20
-5.33019250718482
30
0
41
1
10
68.7651483838365
20
-5.34637319099954
30
0
41
1
10
68.7472736315613
20
-5.36038693520726
30
0
41
1
10
68.7074501916276
20
-5.38127567593446
30
0
41
1
10
68.684815183011
20
-5.38833608085713
30
0
41
1
10
68.6407546135471
20
-5.39290208065833
30
0
41
1
10
68.6187485839411
20
-5.39127326170603
30
0
41
1
10
68.5844030419481
20
-5.38208092697278
30
0
41
1
10
68.5711189932493
20
-5.37675326239989
30
0
41
1
10
68.5587312287765
20
-5.36994810333957
30
0
0
SPLINE
5
D8
100
AcDbEntity
8
1
62
256
6
ByLayer
370
-1
48
1
60
0
100
AcDbSpline
70
4
71
3
72
14
73
10
40
0
40
0
40
0
40
0
40
0.273499318971207
40
0.273499318971207
40
0.562092750115035
40
0.562092750115035
40
0.823458943422325
40
0.823458943422325
40
1
40
1
40
1
40
1
41
1
10
69.3394768834
20
-3.59475557764225
30
0
41
1
10
69.3537792131787
20
-3.58158089337184
30
0
41
1
10
69.3709519331189
20
-3.57031166551815
30
0
41
1
10
69.4099466163608
20
-3.55345728729969
30
0
41
1
10
69.4326056657825
20
-3.54799540909642
30
0
41
1
10
69.4768034667355
20
-3.54567756662425
30
0
41
1
10
69.4989166889143
20
-3.54805996959732
30
0
41
1
10
69.5340571386129
20
-3.5580089320423
30
0
41
1
10
69.5479961612508
20
-3.56370765993438
30
0
41
1
10
69.5609463296664
20
-3.57082177290613
30
0
0
SPLINE
5
D9
100
AcDbEntity
8
1
62
256
6
ByLayer
370
-1
48
1
60
0
100
AcDbSpline
70
4
71
3
72
12
73
8
40
0
40
0
40
0
40
0
40
0.463607900248198
40
0.463607900248198
40
0.845154826019459
40
0.845154826019459
40
1
40
1
40
1
40
1
41
1
10
69.9558500774002
20
-4.27041108389761
30
0
41
1
10
69.9137921050307
20
-4.2570361679719
30
0
41
1
10
69.8720083537368
20
-4.23690866463389
30
0
41
1
10
69.8016143541816
20
-4.1885308865663
30
0
41
1
10
69.7712404845264
20
-4.16173401695229
30
0
41
1
10
69.7342344323397
20
-4.11910678096197
30
0
41
1
10
69.7241159891605
20
-4.10611875194675
30
0
41
1
10
69.7147808315018
20
-4.09268228262127
30
0
0
SPLINE
5
DA
100
AcDbEntity
8
1
62
256
6
ByLayer
370
-1
48
1
60
0
100
AcDbSpline
70
4
71
3
72
18
73
14
40
0
40
0
40
0
40
0
40
0.21305805755008
40
0.21305805755008
40
0.388723613911373
40
0.388723613911373
40
0.566031334408083
40
0.566031334408083
40
0.720963127787814
40
0.720963127787814
40
0.92714169683872
40
0.92714169683872
40
1
40
1
40
1
40
1
41
1
10
69.3394768834
20
-3.59475557764225
30
0
41
1
10
69.309043284135
20
-3.6227896859123
30
0
41
1
10
69.2727590750349
20
-3.64730196109022
30
0
41
1
10
69.1985281296359
20
-3.68170904121689
30
0
41
1
10
69.1611070557872
20
-3.69372942690416
30
0
41
1
10
69.0830698679528
20
-3.7078940929708
30
0
41
1
10
69.0412586870167
20
-3.71006501446095
30
0
41
1
10
68.9659784440485
20
-3.70424868864527
30
0
41
1
10
68.9312203340353
20
-3.69748268780492
30
0
41
1
10
68.8565313446818
20
-3.67421618735273
30
0
41
1
10
68.8173432558992
20
-3.6549495659859
30
0
41
1
10
68.7714302742934
20
-3.6234597020844
30
0
41
1
10
68.7599325997389
20
-3.61462157100459
30
0
41
1
10
68.7490713612789
20
-3.60531277821991
30
0
0
SPLINE
5
DB
100
AcDbEntity
8
1
62
256
6
ByLayer
370
-1
48
1
60
0
100
AcDbSpline
70
4
71
3
72
14
73
10
40
0
40
0
40
0
40
0
40
0.0515024903519313
40
0.0515024903519313
40
0.38815021617662
40
0.38815021617662
40
0.835818836018516
40
0.835818836018516
40
1
40
1
40
1
40
1
41
1
10
69.685721638265
20
-4.04464235639364
30
0
41
1
10
69.683225940493
20
-4.03984852117082
30
0
41
1
10
69.6808269052747
20
-4.035020966096
30
0
41
1
10
69.6636272679012
20
-3.99871526075273
30
0
41
1
10
69.6528960718422
20
-3.96585527973048
30
0
41
1
10
69.6382300555221
20
-3.89133552372499
30
0
41
1
10
69.6372994266354
20
-3.8490563589441
30
0
41
1
10
69.6446395493483
20
-3.79492563868277
30
0
41
1
10
69.6474734346482
20
-3.78059530962975
30
0
41
1
10
69.6511026262368
20
-3.76661027454182
30
0
0
SPLINE
5
DC
100
AcDbEntity
8
1
62
256
6
ByLayer
370
-1
48
1
60
0
100
AcDbSpline
70
4
71
3
72
14
73
10
40
0
40
0
40
0
40
0
40
0.048420746549628
40
0.048420746549628
40
0.385473868011052
40
0.385473868011052
40
0.832612442977973
40
0.832612442977973
40
1
40
1
40
1
40
1
41
1
10
68.4332825088151
20
-4.85754780873344
30
0
41
1
10
68.4356291101878
20
-4.86212499736223
30
0
41
1
10
68.4378906534359
20
-4.86675144640779
30
0
41
1
10
68.4550633801027
20
-4.90363241056184
30
0
41
1
10
68.4659114348396
20
-4.93822147162896
30
0
41
1
10
68.4808321168471
20
-5.01814215832806
30
0
41
1
10
68.4819416214223
20
-5.06462667918487
30
0
41
1
10
68.4748253782013
20
-5.12553541958829
30
0
41
1
10
68.4719771378071
20
-5.14205505047204
30
0
41
1
10
68.4682974152416
20
-5.15826066545426
30
0
0
SPLINE
5
DD
100
AcDbEntity
8
1
62
256
6
ByLayer
370
-1
48
1
60
0
100
AcDbSpline
70
4
71
3
72
14
73
10
40
0
40
0
40
0
40
0
40
0.24929801940149
40
0.24929801940149
40
0.540920139284344
40
0.540920139284344
40
0.804762921708493
40
0.804762921708493
40
1
40
1
40
1
40
1
41
1
10
68.4436202503214
20
-3.78762204897612
30
0
41
1
10
68.4387237183909
20
-3.77097008310307
30
0
41
1
10
68.4364403356266
20
-3.75306002031789
30
0
41
1
10
68.4380836391596
20
-3.7138441654086
30
0
41
1
10
68.4432154428911
20
-3.69183875441351
30
0
41
1
10
68.4611312360614
20
-3.65268026957506
30
0
41
1
10
68.4734482230401
20
-3.63468509241835
30
0
41
1
10
68.4998303586304
20
-3.60791100318687
30
0
41
1
10
68.5128556571188
20
-3.59768310103783
30
0
41
1
10
68.5268807672325
20
-3.58931217847322
30
0
0
SPLINE
5
DE
100
AcDbEntity
8
SK1
62
256
6
ByLayer
370
-1
48
1
60
0
100
AcDbSpline
70
4
71
3
72
24
73
20
40
0
40
0
40
0
40
0
40
0.249999999999979
40
0.249999999999979
40
0.374999999999969
40
0.374999999999969
40
0.437499999999963
40
0.437499999999963
40
0.499999999999958
40
0.499999999999958
40
0.531249999999959
40
0.531249999999959
40
0.562499999999959
40
0.562499999999959
40
0.62499999999996
40
0.62499999999996
40
0.749999999999971
40
0.749999999999971
40
1
40
1
40
1
40
1
41
1
10
-24.09
20
0.205965906324167
30
0
41
1
10
-24.4986343160666
20
0.205965906324167
30
0
41
1
10
-24.9071555453884
20
0.19845246957027
30
0
41
1
10
-25.519402880508
20
0.169226931093533
30
0
41
1
10
-25.7231603208427
20
0.156639601260622
30
0
41
1
10
-26.0276543175764
20
0.127755978986897
30
0
41
1
10
-26.1289743184984
20
0.116569291727245
30
0
41
1
10
-26.3306761329202
20
0.0859785784372775
30
0
41
1
10
-26.4456960546667
20
0.0885727858061216
30
0
41
1
10
-26.5668423438154
20
-0.0124242265727048
30
0
41
1
10
-26.4788451746044
20
-0.0482532820602728
30
0
41
1
10
-26.3781780242622
20
-0.0757348561255355
30
0
41
1
10
-26.3269166657975
20
-0.0854113493585658
30
0
41
1
10
-26.1724015195388
20
-0.111238405854749
30
0
41
1
10
-26.0687091696726
20
-0.123262241086934
30
0
41
1
10
-25.7575189776917
20
-0.154299106265057
30
0
41
1
10
-25.5494067051413
20
-0.167490929837783
30
0
41
1
10
-24.9242976335068
20
-0.198188957833537
30
0
41
1
10
-24.5072192765567
20
-0.205965906324138
30
0
41
1
10
-24.09
20
-0.205965906324138
30
0
0
LINE
5
49
100
AcDbEntity
8
80
62
256
6
ByLayer
370
-1
48
1
60
0
100
AcDbLine
10
0
20
0
30
0
11
-10
21
0
31
0
39
0
210
0
220
0
230
1
0
LINE
5
4A
100
AcDbEntity
8
81
62
256
6
ByLayer
370
-1
48
1
60
0
100
AcDbLine
10
71.91
20
-8.9
30
0
11
81.91
21
-8.9
31
0
39
0
210
0
220
0
230
1
0
LINE
5
4B
100
AcDbEntity
8
SK1
62
256
6
ByLayer
370
-1
48
1
60
0
100
AcDbLine
10
-108.84
20
-5.9925
30
0
11
0
21
-5.9925
31
0
39
0
210
0
220
0
230
1
0
LINE
5
4D
100
AcDbEntity
8
SK1
62
256
6
ByLayer
370
-1
48
1
60
0
100
AcDbLine
10
0
20
5.9925
30
0
11
-108.84
21
5.9925
31
0
39
0
210
0
220
0
230
1
0
LINE
5
4E
100
AcDbEntity
8
SK1
62
256
6
ByLayer
370
-1
48
1
60
0
100
AcDbLine
10
-108.84
20
5.9925
30
0
11
-109.34
21
5.4925
31
0
39
0
210
0
220
0
230
1
0
LINE
5
4F
100
AcDbEntity
8
SK1
62
256
6
ByLayer
370
-1
48
1
60
0
100
AcDbLine
10
-109.34
20
-5.4925
30
0
11
-108.84
21
-5.9925
31
0
39
0
210
0
220
0
230
1
0
LINE
5
50
100
AcDbEntity
8
1
62
256
6
ByLayer
370
-1
48
1
60
0
100
AcDbLine
10
68.45855
20
-3.886011
30
0
11
68.45675
21
-3.78292
31
0
39
0
210
0
220
0
230
1
0
LINE
5
51
100
AcDbEntity
8
1
62
256
6
ByLayer
370
-1
48
1
60
0
100
AcDbLine
10
69.63756
20
-3.763474
30
0
11
69.639358
21
-3.86647
31
0
39
0
210
0
220
0
230
1
0
LINE
5
52
100
AcDbEntity
8
1
62
256
6
ByLayer
370
-1
48
1
60
0
100
AcDbLine
10
67.508246
20
-4.392663
30
0
11
67.5097
21
-4.475949
31
0
39
0
210
0
220
0
230
1
0
LINE
5
53
100
AcDbEntity
8
1
62
256
6
ByLayer
370
-1
48
1
60
0
100
AcDbLine
10
70.609228
20
-4.421846
30
0
11
70.607774
21
-4.338561
31
0
39
0
210
0
220
0
230
1
0
LINE
5
54
100
AcDbEntity
8
1
62
256
6
ByLayer
370
-1
48
1
60
0
100
AcDbLine
10
69.658863
20
-4.92502
30
0
11
69.66066
21
-5.027935
31
0
39
0
210
0
220
0
230
1
0
LINE
5
55
100
AcDbEntity
8
1
62
256
6
ByLayer
370
-1
48
1
60
0
100
AcDbLine
10
68.479851
20
-5.047461
30
0
11
68.478053
21
-4.944466
31
0
39
0
210
0
220
0
230
1
0
LINE
5
56
100
AcDbEntity
8
1
62
256
6
ByLayer
370
-1
48
1
60
0
100
AcDbLine
10
57.876262
20
6.0425
30
0
11
46.66
21
6.0425
31
0
39
0
210
0
220
0
230
1
0
LINE
5
57
100
AcDbEntity
8
1
62
256
6
ByLayer
370
-1
48
1
60
0
100
AcDbLine
10
46.66
20
-6.0425
30
0
11
59.876262
21
-6.0425
31
0
39
0
210
0
220
0
230
1
0
LINE
5
58
100
AcDbEntity
8
1
62
256
6
ByLayer
370
-1
48
1
60
0
100
AcDbLine
10
0
20
-5.9925
30
0
11
46.66
21
-5.9925
31
0
39
0
210
0
220
0
230
1
0
LINE
5
59
100
AcDbEntity
8
1
62
256
6
ByLayer
370
-1
48
1
60
0
100
AcDbLine
10
46.66
20
5.9925
30
0
11
0
21
5.9925
31
0
39
0
210
0
220
0
230
1
0
LINE
5
5A
100
AcDbEntity
8
1
62
256
6
ByLayer
370
-1
48
1
60
0
100
AcDbLine
10
59.876262
20
-6.0425
30
0
11
61.81185
21
-7.160012
31
0
39
0
210
0
220
0
230
1
0
LINE
5
5B
100
AcDbEntity
8
SK4
62
256
6
ByLayer
370
-1
48
0.05
60
0
100
AcDbLine
10
-114.34
20
0
30
0
11
76.331262
21
0
31
0
39
0
210
0
220
0
230
1
0
LINE
5
5D
100
AcDbEntity
8
4
62
256
6
ByLayer
370
-1
48
0.05
60
0
100
AcDbLine
10
0
20
0
30
0
11
76.331262
21
0
31
0
39
0
210
0
220
0
230
1
0
LINE
5
5F
100
AcDbEntity
8
1
62
256
6
ByLayer
370
-1
48
1
60
0
100
AcDbLine
10
64.847839
20
3.691306
30
0
11
71.331262
21
1.504743
31
0
39
0
210
0
220
0
230
1
0
LINE
5
60
100
AcDbEntity
8
1
62
256
6
ByLayer
370
-1
48
1
60
0
100
AcDbLine
10
71.265622
20
0.072372
30
0
11
71.331262
21
0.11155
31
0
39
0
210
0
220
0
230
1
0
LINE
5
61
100
AcDbEntity
8
1
62
256
6
ByLayer
370
-1
48
1
60
0
100
AcDbLine
10
61.905882
20
-7.21429
30
0
11
64.847839
21
3.691306
31
0
39
0
210
0
220
0
230
1
0
LINE
5
62
100
AcDbEntity
8
1
62
256
6
ByLayer
370
-1
48
1
60
0
100
AcDbLine
10
46.66
20
-0.303424
30
0
11
55.500918
21
-0.303424
31
0
39
0
210
0
220
0
230
1
0
LINE
5
63
100
AcDbEntity
8
1
62
256
6
ByLayer
370
-1
48
1
60
0
100
AcDbLine
10
46.66
20
0.303424
30
0
11
46.66
21
6.0425
31
0
39
0
210
0
220
0
230
1
0
LINE
5
64
100
AcDbEntity
8
1
62
256
6
ByLayer
370
-1
48
1
60
0
100
AcDbLine
10
46.66
20
-6.0425
30
0
11
46.66
21
-0.303424
31
0
39
0
210
0
220
0
230
1
0
LINE
5
65
100
AcDbEntity
8
1
62
256
6
ByLayer
370
-1
48
1
60
0
100
AcDbLine
10
0
20
-5.9925
30
0
11
0
21
-0.205966
31
0
39
0
210
0
220
0
230
1
0
LINE
5
66
100
AcDbEntity
8
1
62
256
6
ByLayer
370
-1
48
1
60
0
100
AcDbLine
10
0
20
0.205966
30
0
11
0
21
5.9925
31
0
39
0
210
0
220
0
230
1
0
LINE
5
67
100
AcDbEntity
8
1
62
256
6
ByLayer
370
-1
48
1
60
0
100
AcDbLine
10
71.331262
20
1.504743
30
0
11
71.331262
21
0.120874
31
0
39
0
210
0
220
0
230
1
0
LINE
5
68
100
AcDbEntity
8
1
62
256
6
ByLayer
370
-1
48
1
60
0
100
AcDbLine
10
0
20
-0.205966
30
0
11
0
21
0.205966
31
0
39
0
210
0
220
0
230
1
0
LINE
5
69
100
AcDbEntity
8
1
62
256
6
ByLayer
370
-1
48
1
60
0
100
AcDbLine
10
64.040986
20
-5.278856
30
0
11
64.038344
21
-5.127517
31
0
39
0
210
0
220
0
230
1
0
LINE
5
6A
100
AcDbEntity
8
1
62
256
6
ByLayer
370
-1
48
1
60
0
100
AcDbLine
10
59.876262
20
5.165078
30
0
11
59.876262
21
5.367991
31
0
39
0
210
0
220
0
230
1
0
LINE
5
6B
100
AcDbEntity
8
1
62
256
6
ByLayer
370
-1
48
1
60
0
100
AcDbLine
10
65.46019
20
-5.624646
30
0
11
65.461662
21
-5.708973
31
0
39
0
210
0
220
0
230
1
0
LINE
5
6C
100
AcDbEntity
8
1
62
256
6
ByLayer
370
-1
48
1
60
0
100
AcDbLine
10
0
20
0.205966
30
0
11
46.66
21
0.205966
31
0
39
0
210
0
220
0
230
1
0
LINE
5
6D
100
AcDbEntity
8
1
62
256
6
ByLayer
370
-1
48
1
60
0
100
AcDbLine
10
60.037648
20
5.313563
30
0
11
64.847839
21
3.691306
31
0
39
0
210
0
220
0
230
1
0
LINE
5
6E
100
AcDbEntity
8
1
62
256
6
ByLayer
370
-1
48
1
60
0
100
AcDbLine
10
65.534458
20
-5.665524
30
0
11
65.461662
21
-5.708973
31
0
39
0
210
0
220
0
230
1
0
LINE
5
6F
100
AcDbEntity
8
1
62
256
6
ByLayer
370
-1
48
1
60
0
100
AcDbLine
10
46.66
20
-0.205966
30
0
11
46.66
21
-0.303424
31
0
39
0
210
0
220
0
230
1
0
LINE
5
70
100
AcDbEntity
8
1
62
256
6
ByLayer
370
-1
48
1
60
0
100
AcDbLine
10
71.331262
20
0.120874
30
0
11
71.232078
21
0.061675
31
0
39
0
210
0
220
0
230
1
0
LINE
5
71
100
AcDbEntity
8
1
62
256
6
ByLayer
370
-1
48
1
60
0
100
AcDbLine
10
65.511975
20
-5.888257
30
0
11
65.461662
21
-5.708973
31
0
39
0
210
0
220
0
230
1
0
LINE
5
72
100
AcDbEntity
8
1
62
256
6
ByLayer
370
-1
48
1
60
0
100
AcDbLine
10
68.841867
20
-8.06309
30
0
11
68.831699
21
-7.480529
31
0
39
0
210
0
220
0
230
1
0
LINE
5
73
100
AcDbEntity
8
1
62
256
6
ByLayer
370
-1
48
1
60
0
100
AcDbLine
10
65.511975
20
-5.888257
30
0
11
65.716893
21
-5.765951
31
0
39
0
210
0
220
0
230
1
0
LINE
5
74
100
AcDbEntity
8
1
62
256
6
ByLayer
370
-1
48
1
60
0
100
AcDbLine
10
46.66
20
0.303424
30
0
11
46.66
21
0.205966
31
0
39
0
210
0
220
0
230
1
0
LINE
5
75
100
AcDbEntity
8
1
62
256
6
ByLayer
370
-1
48
1
60
0
100
AcDbLine
10
68.736416
20
-7.428076
30
0
11
68.748389
21
-8.114004
31
0
39
0
210
0
220
0
230
1
0
LINE
5
76
100
AcDbEntity
8
1
62
256
6
ByLayer
370
-1
48
1
60
0
100
AcDbLine
10
59.876262
20
-6.0425
30
0
11
59.876262
21
-6.027525
31
0
39
0
210
0
220
0
230
1
0
LINE
5
77
100
AcDbEntity
8
1
62
256
6
ByLayer
370
-1
48
1
60
0
100
AcDbLine
10
71.331262
20
0.120874
30
0
11
71.331262
21
0.11155
31
0
39
0
210
0
220
0
230
1
0
LINE
5
78
100
AcDbEntity
8
1
62
256
6
ByLayer
370
-1
48
1
60
0
100
AcDbLine
10
55.696665
20
0.303424
30
0
11
46.66
21
0.303424
31
0
39
0
210
0
220
0
230
1
0
LINE
5
79
100
AcDbEntity
8
1
62
256
6
ByLayer
370
-1
48
1
60
0
100
AcDbLine
10
46.66
20
-0.205966
30
0
11
0
21
-0.205966
31
0
39
0
210
0
220
0
230
1
0
LINE
5
7A
100
AcDbEntity
8
1
62
256
6
ByLayer
370
-1
48
1
60
0
100
AcDbLine
10
59.876262
20
5.367991
30
0
11
57.876262
21
6.0425
31
0
39
0
210
0
220
0
230
1
0
LINE
5
7B
100
AcDbEntity
8
SK1
62
256
6
ByLayer
370
-1
48
1
60
0
100
AcDbLine
10
-24.09
20
0.205966
30
0
11
-24.09
21
-0.205966
31
0
39
0
210
0
220
0
230
1
0
LINE
5
7C
100
AcDbEntity
8
SK1
62
256
6
ByLayer
370
-1
48
1
60
0
100
AcDbLine
10
0
20
-5.9925
30
0
11
0
21
-0.205966
31
0
39
0
210
0
220
0
230
1
0
LINE
5
7D
100
AcDbEntity
8
SK1
62
256
6
ByLayer
370
-1
48
1
60
0
100
AcDbLine
10
0
20
0.205966
30
0
11
0
21
5.9925
31
0
39
0
210
0
220
0
230
1
0
LINE
5
7E
100
AcDbEntity
8
SK1
62
256
6
ByLayer
370
-1
48
1
60
0
100
AcDbLine
10
0
20
-0.205966
30
0
11
0
21
0.205966
31
0
39
0
210
0
220
0
230
1
0
LINE
5
7F
100
AcDbEntity
8
SK1
62
256
6
ByLayer
370
-1
48
1
60
0
100
AcDbLine
10
-108.84
20
5.9925
30
0
11
-108.84
21
-5.9925
31
0
39
0
210
0
220
0
230
1
0
LINE
5
80
100
AcDbEntity
8
SK1
62
256
6
ByLayer
370
-1
48
1
60
0
100
AcDbLine
10
-109.34
20
5.4925
30
0
11
-109.34
21
-5.4925
31
0
39
0
210
0
220
0
230
1
0
LINE
5
81
100
AcDbEntity
8
1
62
256
6
ByLayer
370
-1
48
1
60
0
100
AcDbLine
10
71.320487
20
-8.850497
30
0
11
64.101031
21
-4.876484
31
0
39
0
210
0
220
0
230
1
0
LINE
5
82
100
AcDbEntity
8
1
62
256
6
ByLayer
370
-1
48
1
60
0
100
AcDbLine
10
64.089112
20
-4.19364
30
0
11
71.165479
21
0.029907
31
0
39
0
210
0
220
0
230
1
0
LINE
5
83
100
AcDbEntity
8
1
62
256
6
ByLayer
370
-1
48
1
60
0
100
AcDbLine
10
71.766848
20
-0.301122
30
0
11
71.909937
21
-8.498682
31
0
39
0
210
0
220
0
230
1
0
LINE
5
84
100
AcDbEntity
8
1
62
256
6
ByLayer
370
-1
48
1
60
0
100
AcDbLine
10
68.778031
20
-5.221689
30
0
11
68.779925
21
-5.330193
31
0
39
0
210
0
220
0
230
1
0
LINE
5
85
100
AcDbEntity
8
1
62
256
6
ByLayer
370
-1
48
1
60
0
100
AcDbLine
10
69.960449
20
-4.515959
30
0
11
69.962343
21
-4.624463
31
0
39
0
210
0
220
0
230
1
0
LINE
5
86
100
AcDbEntity
8
1
62
256
6
ByLayer
370
-1
48
1
60
0
100
AcDbLine
10
68.161657
20
-4.545995
30
0
11
68.16355
21
-4.65446
31
0
39
0
210
0
220
0
230
1
0
LINE
5
87
100
AcDbEntity
8
1
62
256
6
ByLayer
370
-1
48
1
60
0
100
AcDbLine
10
69.649738
20
-3.688417
30
0
11
69.651103
21
-3.76661
31
0
39
0
210
0
220
0
230
1
0
LINE
5
88
100
AcDbEntity
8
1
62
256
6
ByLayer
370
-1
48
1
60
0
100
AcDbLine
10
68.404223
20
-4.809508
30
0
11
68.402528
21
-4.712383
31
0
39
0
210
0
220
0
230
1
0
LINE
5
89
100
AcDbEntity
8
1
62
256
6
ByLayer
370
-1
48
1
60
0
100
AcDbLine
10
69.368436
20
-5.211132
30
0
11
69.37033
21
-5.319635
31
0
39
0
210
0
220
0
230
1
0
LINE
5
8A
100
AcDbEntity
8
1
62
256
6
ByLayer
370
-1
48
1
60
0
100
AcDbLine
10
68.431587
20
-4.760423
30
0
11
68.433283
21
-4.857548
31
0
39
0
210
0
220
0
230
1
0
LINE
5
8B
100
AcDbEntity
8
1
62
256
6
ByLayer
370
-1
48
1
60
0
100
AcDbLine
10
68.442331
20
-3.713765
30
0
11
68.44362
21
-3.787622
31
0
39
0
210
0
220
0
230
1
0
LINE
5
8C
100
AcDbEntity
8
SK1
62
256
6
ByLayer
370
-1
48
1
60
0
100
AcDbLine
10
0
20
-0.205966
30
0
11
-24.09
21
-0.205966
31
0
39
0
210
0
220
0
230
1
0
LINE
5
8D
100
AcDbEntity
8
SK1
62
256
6
ByLayer
370
-1
48
1
60
0
100
AcDbLine
10
-24.09
20
0.205966
30
0
11
0
21
0.205966
31
0
39
0
210
0
220
0
230
1
0
LINE
5
8E
100
AcDbEntity
8
2
62
256
6
ByLayer
370
-1
48
1
60
1
100
AcDbLine
10
71.91
20
0
30
0
11
71.911
21
0.001
31
0
39
0
210
0
220
0
230
1
0
MTEXT
5
DF
100
AcDbEntity
8
SK6
62
256
6
ByLayer
370
-1
48
1
60
0
100
AcDbMText
10
-15.34
20
13.859643
30
0
210
0
220
0
230
1
1
\W00.749;\fsimplex.shx,bigfont.shx;E12Q-STFCL 09-R 
40
3.5
41
0
44
1.084337
50
0
71
7
72
5
7
DEFAULT
0
DIMENSION
5
112
100
AcDbEntity
8
2
62
256
6
ByLayer
370
-3
48
1
60
0
100
AcDbDimension
2
DimnDraft3D1
10
84.16
20
0
30
0
11
84.16
21
-26.177368
31
0
70
32
71
5
72
1
41
1
210
0
220
0
230
1
3
Standard
100
AcDbAlignedDimension
13
73.91
23
-8.9
33
0
14
73.91
24
0
34
0
50
90
100
AcDbRotatedDimension
1001
ACAD
1000
DSTYLE
1002
{
1070
    74
1070
     0
1070
   279
1070
     0
1070
   172
1070
     1
1070
   173
1070
     1
1070
   340
1005
E0
1070
    77
1070
     1
1070
    73
1070
     0
1070
   171
1070
     4
1070
   274
1070
     4
1070
   177
1070
     2
1070
   176
1070
     2
1070
   178
1070
     7
1070
    78
1070
     8
1070
    41
1041
3.175
1070
   147
1041
2.25
1070
    42
1041
2.0
1070
    44
1041
2.0
1070
   140
1041
4.5
1070
   343
1005
113
1070
   344
1005
113
1002
}
0
DIMENSION
5
128
100
AcDbEntity
8
SK2
62
256
6
ByLayer
370
-3
48
1
60
0
100
AcDbDimension
2
DimnDraft3D2
10
-119.09
20
5.9925
30
0
11
-119.09
21
16.2475
31
0
70
32
71
5
72
1
41
1
210
0
220
0
230
1
3
Standard
100
AcDbAlignedDimension
13
-111.34
23
-5.9925
33
0
14
-111.34
24
5.9925
34
0
50
90
100
AcDbRotatedDimension
1001
ACAD
1000
DSTYLE
1002
{
1070
    74
1070
     0
1070
   279
1070
     0
1070
   172
1070
     1
1070
   173
1070
     1
1070
   340
1005
E0
1070
    77
1070
     1
1070
    73
1070
     0
1070
   171
1070
     4
1070
   274
1070
     4
1070
   177
1070
     2
1070
   176
1070
     2
1070
   178
1070
     7
1070
    78
1070
     8
1070
    41
1041
3.175
1070
   147
1041
2.25
1070
    42
1041
2.0
1070
    44
1041
2.0
1070
   140
1041
4.5
1070
   343
1005
113
1070
   344
1005
113
1002
}
0
DIMENSION
5
136
100
AcDbEntity
8
SK2
62
256
6
ByLayer
370
-3
48
1
60
0
100
AcDbDimension
2
DimnDraft3D3
10
71.91
20
-26.15
30
0
11
-24.967632
21
-26.15
31
0
70
32
71
5
72
1
41
1
210
0
220
0
230
1
3
Standard
100
AcDbAlignedDimension
13
-109.34
23
-7.9925
33
0
14
71.91
24
-10.9
34
0
50
0
100
AcDbRotatedDimension
1001
ACAD
1000
DSTYLE
1002
{
1070
   279
1070
     0
1070
   172
1070
     1
1070
   173
1070
     1
1070
   340
1005
E0
1070
    77
1070
     1
1070
    73
1070
     0
1070
   171
1070
     4
1070
   274
1070
     4
1070
   177
1070
     2
1070
   176
1070
     2
1070
   178
1070
     7
1070
    78
1070
     8
1070
    41
1041
3.175
1070
   147
1041
2.25
1070
    42
1041
2.0
1070
    44
1041
2.0
1070
   140
1041
4.5
1070
   343
1005
113
1070
   344
1005
113
1002
}
0
DIMENSION
5
144
100
AcDbEntity
8
2
62
256
6
ByLayer
370
-3
48
1
60
0
100
AcDbDimension
2
DimnDraft3D4
10
111.681057
20
0
30
0
11
95.771713
21
32.727109
31
0
70
34
71
5
72
1
41
1
210
0
220
0
230
1
3
Standard
100
AcDb2LineAngularDimension
13
71.718024
23
2.098325
33
0
14
71.057838
24
39.920326
34
0
15
73.91
25
0
35
0
16
101.491712
26
30.260654
36
0
40
0
0
ENDSEC
0
SECTION
2
OBJECTS
0
DICTIONARY
5
175
330
0
100
AcDbDictionary
280
0
281
1
3
ACAD_GROUP
350
176
3
ACAD_MLINESTYLE
350
177
0
DICTIONARY
5
176
330
0
100
AcDbDictionary
280
0
281
1
0
DICTIONARY
5
177
330
0
100
AcDbDictionary
280
0
281
1
3
Standard
350
18
0
MLINESTYLE
5
18
330
177
100
AcDbMlineStyle
2
Standard
70
0
3

62
256
51
90
52
90
71
2
49
-0.5
62
256
6
ByLayer
49
0.5
62
256
6
ByLayer
0
RASTERVARIABLES
5
163
330

100
AcDbRasterVariables
90
0
70
1
71
1
72
1
0
ENDSEC
0
EOF
