0
SECTION
2
HEADER
9
$ACADVER
1
AC1015
9
$DWGCODEPAGE
3
ANSI_1252
9
$HANDSEED
5
17a
9
$ANGBASE
50
0
9
$ANGDIR
70
0
9
$ATTMODE
70
1
9
$AUNITS
70
0
9
$AUPREC
70
0
9
$CECOLOR
62
256
9
$CELTSCALE
40
1
9
$CELTYPE
6
ByLayer
9
$CELWEIGHT
370
-1
9
$CLAYER
8
0
9
$CMLJUST
70
0
9
$CMLSCALE
40
1
9
$CMLSTYLE
2
Standard
9
$DIMSTYLE
2
Standard
9
$TEXTSIZE
40
0.2
9
$TEXTSTYLE
7
Standard
9
$LUNITS
70
2
9
$LUPREC
70
4
9
$EXTNAMES
290
1
9
$INSUNITS
70
4
9
$LTSCALE
40
1
9
$LWDISPLAY
290
0
9
$PDMODE
70
0
9
$PDSIZE
40
0
9
$PLINEGEN
70
0
0
ENDSEC
0
SECTION
2
CLASSES
0
CLASS
1
RASTERVARIABLES
2
AcDbRasterVariables
3
ISM
90
0
280
0
281
0
0
ENDSEC
0
SECTION
2
TABLES
0
TABLE
2
VPORT
5
170
100
AcDbSymbolTable
0
VPORT
5
1
100
AcDbSymbolTableRecord
100
AcDbViewportTableRecord
2
*Active
70
0
10
0
20
0
11
1
21
1
12
-1
22
1
13
0
23
0
14
0.5
24
0.5
15
10
25
10
16
0
26
0
36
1
17
0
27
0
37
0
0
ENDTAB
0
TABLE
2
LTYPE
5
171
100
AcDbSymbolTable
0
LTYPE
5
14
100
AcDbSymbolTableRecord
100
AcDbLinetypeTableRecord
70
0
2
ByBlock
3

72
65
73
0
40
0
0
LTYPE
5
15
100
AcDbSymbolTableRecord
100
AcDbLinetypeTableRecord
70
0
2
ByLayer
3

72
65
73
0
40
0
0
LTYPE
5
16
100
AcDbSymbolTableRecord
100
AcDbLinetypeTableRecord
70
0
2
CONTINUOUS
3
Solid line
72
65
73
0
40
0
0
LTYPE
5
3B
100
AcDbSymbolTableRecord
100
AcDbLinetypeTableRecord
70
0
2
DASHED
3
__ __ __ __ __ __ __ __ __
72
65
73
2
40
25.72
49
12.86
74
0
49
-12.86
74
0
0
LTYPE
5
3C
100
AcDbSymbolTableRecord
100
AcDbLinetypeTableRecord
70
0
2
HIDDEN
3
_ _ _ _ _ _ _ _ _ _ _ _ _ _ _
72
65
73
2
40
0.5
49
0.25
74
0
49
-0.25
74
0
0
LTYPE
5
3D
100
AcDbSymbolTableRecord
100
AcDbLinetypeTableRecord
70
0
2
PHANTOM
3
____ _ _ ____ _ _ _____ _ _ ____
72
65
73
6
40
50.5
49
18
74
0
49
-6.5
74
0
49
6.5
74
0
49
-6.5
74
0
49
6.5
74
0
49
-6.5
74
0
0
LTYPE
5
3E
100
AcDbSymbolTableRecord
100
AcDbLinetypeTableRecord
70
0
2
CENTER
3
____ _ ____ _ ____ _ ____
72
65
73
4
40
47.5
49
22
74
0
49
-8.5
74
0
49
8.5
74
0
49
-8.5
74
0
0
LTYPE
5
3F
100
AcDbSymbolTableRecord
100
AcDbLinetypeTableRecord
70
0
2
DOT
3
.........................
72
65
73
2
40
10
49
0
74
0
49
-10
74
0
0
LTYPE
5
40
100
AcDbSymbolTableRecord
100
AcDbLinetypeTableRecord
70
0
2
DASHDOT
3
_._._._._._._._._._._._._._._._.
72
65
73
4
40
70
49
31
74
0
49
-13
74
0
49
13
74
0
49
-13
74
0
0
ENDTAB
0
TABLE
2
LAYER
5
172
100
AcDbSymbolTable
0
LAYER
5
10
100
AcDbSymbolTableRecord
100
AcDbLayerTableRecord
2
0
70
0
62
7
6
CONTINUOUS
290
1
370
-3
390
0
0
LAYER
5
42
100
AcDbSymbolTableRecord
100
AcDbLayerTableRecord
2
1
70
0
62
4
6
CONTINUOUS
290
1
370
-3
390
0
0
LAYER
5
44
100
AcDbSymbolTableRecord
100
AcDbLayerTableRecord
2
2
70
0
62
7
6
CONTINUOUS
290
1
370
-3
390
0
0
LAYER
5
46
100
AcDbSymbolTableRecord
100
AcDbLayerTableRecord
2
80
70
0
62
-6
6
CONTINUOUS
290
1
370
-3
390
0
0
LAYER
5
48
100
AcDbSymbolTableRecord
100
AcDbLayerTableRecord
2
81
70
0
62
-3
6
CONTINUOUS
290
1
370
-3
390
0
0
LAYER
5
62
100
AcDbSymbolTableRecord
100
AcDbLayerTableRecord
2
4
70
0
62
-2
6
CENTER
290
1
370
-3
390
0
0
LAYER
5
15c
100
AcDbSymbolTableRecord
100
AcDbLayerTableRecord
2
SK1
70
0
62
4
6
CONTINUOUS
290
1
370
-3
390
0
0
LAYER
5
15d
100
AcDbSymbolTableRecord
100
AcDbLayerTableRecord
2
SK4
70
0
62
2
6
CENTER
290
1
370
-3
390
0
0
LAYER
5
15e
100
AcDbSymbolTableRecord
100
AcDbLayerTableRecord
2
SK6
70
0
62
5
6
CONTINUOUS
290
1
370
-3
390
0
0
LAYER
5
15f
100
AcDbSymbolTableRecord
100
AcDbLayerTableRecord
2
SK2
70
0
62
7
6
CONTINUOUS
290
1
370
-3
390
0
0
ENDTAB
0
TABLE
2
STYLE
5
173
100
AcDbSymbolTable
0
STYLE
5
11
100
AcDbSymbolTableRecord
100
AcDbTextStyleTableRecord
2
Standard
3
txt
70
0
71
0
40
0
41
1
42
0
50
0
0
STYLE
5
D8
100
AcDbSymbolTableRecord
100
AcDbTextStyleTableRecord
2
DEFAULT
3
simplex.shx
70
0
71
0
40
0
41
1
42
0
50
0
0
STYLE
5
FB
100
AcDbSymbolTableRecord
100
AcDbTextStyleTableRecord
2
DWGDirectTextStyle
3
SIMPLEX
70
0
71
0
40
0
41
1
42
0
50
0
0
ENDTAB
0
TABLE
2
DIMSTYLE
5
174
100
AcDbSymbolTable
100
AcDbDimStyleTable
0
DIMSTYLE
105
27
100
AcDbSymbolTableRecord
100
AcDbDimStyleTableRecord
2
Standard
70
0
3
<>
41
0.18
42
0.0625
44
0.18
140
0.18
147
0.09
73
0
74
0
77
1
271
2
275
0
278
52
280
0
340
11
0
ENDTAB
0
TABLE
2
VIEW
5
175
100
AcDbSymbolTable
0
ENDTAB
0
TABLE
2
UCS
5
176
100
AcDbSymbolTable
0
ENDTAB
0
TABLE
2
APPID
5
177
100
AcDbSymbolTable
0
APPID
5
12
100
AcDbSymbolTableRecord
100
AcDbRegAppTableRecord
2
ACAD
70
0
0
ENDTAB
0
TABLE
2
BLOCK_RECORD
5
178
100
AcDbSymbolTable
0
BLOCK_RECORD
5
1F
100
AcDbSymbolTableRecord
100
AcDbBlockTableRecord
2
*Model_Space
340
0
70
0
0
BLOCK_RECORD
5
1B
100
AcDbSymbolTableRecord
100
AcDbBlockTableRecord
2
*Paper_Space
340
0
70
0
0
BLOCK_RECORD
5
23
100
AcDbSymbolTableRecord
100
AcDbBlockTableRecord
2
*Paper_Space0
340
0
70
0
0
BLOCK_RECORD
5
FD
100
AcDbSymbolTableRecord
100
AcDbBlockTableRecord
2
DimnDraft3D1
340
0
70
0
0
BLOCK_RECORD
5
10B
100
AcDbSymbolTableRecord
100
AcDbBlockTableRecord
2
_CLOSED
340
0
70
0
0
BLOCK_RECORD
5
112
100
AcDbSymbolTableRecord
100
AcDbBlockTableRecord
2
DimnDraft3D2
340
0
70
0
0
BLOCK_RECORD
5
121
100
AcDbSymbolTableRecord
100
AcDbBlockTableRecord
2
DimnDraft3D3
340
0
70
0
0
BLOCK_RECORD
5
12F
100
AcDbSymbolTableRecord
100
AcDbBlockTableRecord
2
DimnDraft3D4
340
0
70
0
0
ENDTAB
0
ENDSEC
0
SECTION
2
BLOCKS
0
BLOCK
5
20
100
AcDbEntity
8
0
100
AcDbBlockBegin
2
*Model_Space
70
0
10
0
20
0
30
0
3
*Model_Space
0
ENDBLK
5
21
100
AcDbEntity
8
0
100
AcDbBlockEnd
0
BLOCK
5
1C
100
AcDbEntity
8
0
100
AcDbBlockBegin
2
*Paper_Space
70
0
10
0
20
0
30
0
3
*Paper_Space
0
ENDBLK
5
1D
100
AcDbEntity
8
0
100
AcDbBlockEnd
0
BLOCK
5
24
100
AcDbEntity
8
0
100
AcDbBlockBegin
2
*Paper_Space0
70
0
10
0
20
0
30
0
3
*Paper_Space0
0
ENDBLK
5
25
100
AcDbEntity
8
0
100
AcDbBlockEnd
0
BLOCK
5
108
100
AcDbEntity
8
0
100
AcDbBlockBegin
2
DimnDraft3D1
70
0
10
0
20
0
30
0
3
DimnDraft3D1
0
MTEXT
5
FE
100
AcDbEntity
8
2
62
256
6
ByLayer
370
-1
48
1
60
0
100
AcDbMText
10
83.035
20
-25.052368
30
0
210
0
220
0
230
1
1
\W01.000;\fsimplex.shx,bigfont.shx;9.0 
40
4.5
41
0
44
1.084337
50
90
71
7
72
5
7
DEFAULT
0
LINE
5
FF
100
AcDbEntity
8
2
62
256
6
ByLayer
370
-1
48
1
60
0
100
AcDbLine
10
73.91
20
-8.9
30
0
11
86.16
21
-8.9
31
0
39
0
210
0
220
0
230
1
0
LINE
5
100
100
AcDbEntity
8
2
62
256
6
ByLayer
370
-1
48
1
60
0
100
AcDbLine
10
73.91
20
0
30
0
11
86.16
21
0
31
0
39
0
210
0
220
0
230
1
0
LINE
5
101
100
AcDbEntity
8
2
62
256
6
ByLayer
370
-1
48
1
60
0
100
AcDbLine
10
84.16
20
0
30
0
11
84.16
21
-26.177368
31
0
39
0
210
0
220
0
230
1
0
LINE
5
102
100
AcDbEntity
8
2
62
256
6
ByLayer
370
-1
48
1
60
0
100
AcDbLine
10
84.16
20
-8.9
30
0
11
83.742003
21
-5.725002
31
0
39
0
210
0
220
0
230
1
0
LINE
5
103
100
AcDbEntity
8
2
62
256
6
ByLayer
370
-1
48
1
60
0
100
AcDbLine
10
84.16
20
-8.9
30
0
11
84.577997
21
-5.724998
31
0
39
0
210
0
220
0
230
1
0
LINE
5
104
100
AcDbEntity
8
2
62
256
6
ByLayer
370
-1
48
1
60
0
100
AcDbLine
10
83.742003
20
-5.725002
30
0
11
84.577997
21
-5.724998
31
0
39
0
210
0
220
0
230
1
0
LINE
5
105
100
AcDbEntity
8
2
62
256
6
ByLayer
370
-1
48
1
60
0
100
AcDbLine
10
84.16
20
0
30
0
11
84.577997
21
-3.174998
31
0
39
0
210
0
220
0
230
1
0
LINE
5
106
100
AcDbEntity
8
2
62
256
6
ByLayer
370
-1
48
1
60
0
100
AcDbLine
10
84.16
20
0
30
0
11
83.742003
21
-3.175002
31
0
39
0
210
0
220
0
230
1
0
LINE
5
107
100
AcDbEntity
8
2
62
256
6
ByLayer
370
-1
48
1
60
0
100
AcDbLine
10
84.577997
20
-3.174998
30
0
11
83.742003
21
-3.175002
31
0
39
0
210
0
220
0
230
1
0
ENDBLK
5
109
100
AcDbEntity
8
0
100
AcDbBlockEnd
0
BLOCK
5
10C
100
AcDbEntity
8
0
100
AcDbBlockBegin
2
_CLOSED
70
0
10
0
20
0
30
0
3
_CLOSED
0
LINE
5
10E
100
AcDbEntity
8
0
62
256
6
ByLayer
370
-2
48
1
60
0
100
AcDbLine
10
-1
20
0.166667
30
0
11
0
21
0
31
0
39
0
210
0
220
0
230
1
0
LINE
5
10F
100
AcDbEntity
8
0
62
256
6
ByLayer
370
-2
48
1
60
0
100
AcDbLine
10
0
20
0
30
0
11
-1
21
-0.166667
31
0
39
0
210
0
220
0
230
1
0
LINE
5
110
100
AcDbEntity
8
0
62
256
6
ByLayer
370
-2
48
1
60
0
100
AcDbLine
10
-1
20
0.166667
30
0
11
-1
21
-0.166667
31
0
39
0
210
0
220
0
230
1
0
LINE
5
111
100
AcDbEntity
8
0
62
256
6
ByLayer
370
-2
48
1
60
0
100
AcDbLine
10
0
20
0
30
0
11
-1
21
0
31
0
39
0
210
0
220
0
230
1
0
ENDBLK
5
10D
100
AcDbEntity
8
0
100
AcDbBlockEnd
0
BLOCK
5
11E
100
AcDbEntity
8
0
100
AcDbBlockBegin
2
DimnDraft3D2
70
0
10
0
20
0
30
0
3
DimnDraft3D2
0
MTEXT
5
113
100
AcDbEntity
8
SK2
62
256
6
ByLayer
370
-1
48
1
60
0
100
AcDbMText
10
-120.215
20
17.3725
30
0
210
0
220
0
230
1
1
\W01.000;\fsimplex.shx,bigfont.shx;%%c12 
40
4.5
41
0
44
1.084337
50
90
71
7
72
5
7
DEFAULT
0
LINE
5
115
100
AcDbEntity
8
SK2
62
256
6
ByLayer
370
-1
48
1
60
0
100
AcDbLine
10
-111.34
20
-5.9925
30
0
11
-121.09
21
-5.9925
31
0
39
0
210
0
220
0
230
1
0
LINE
5
116
100
AcDbEntity
8
SK2
62
256
6
ByLayer
370
-1
48
1
60
0
100
AcDbLine
10
-111.34
20
5.9925
30
0
11
-121.09
21
5.9925
31
0
39
0
210
0
220
0
230
1
0
LINE
5
117
100
AcDbEntity
8
SK2
62
256
6
ByLayer
370
-1
48
1
60
0
100
AcDbLine
10
-119.09
20
-5.9925
30
0
11
-119.09
21
24.690921
31
0
39
0
210
0
220
0
230
1
0
LINE
5
118
100
AcDbEntity
8
SK2
62
256
6
ByLayer
370
-1
48
1
60
0
100
AcDbLine
10
-119.09
20
-5.9925
30
0
11
-119.507997
21
-2.817502
31
0
39
0
210
0
220
0
230
1
0
LINE
5
119
100
AcDbEntity
8
SK2
62
256
6
ByLayer
370
-1
48
1
60
0
100
AcDbLine
10
-119.09
20
-5.9925
30
0
11
-118.672003
21
-2.817498
31
0
39
0
210
0
220
0
230
1
0
LINE
5
11A
100
AcDbEntity
8
SK2
62
256
6
ByLayer
370
-1
48
1
60
0
100
AcDbLine
10
-119.507997
20
-2.817502
30
0
11
-118.672003
21
-2.817498
31
0
39
0
210
0
220
0
230
1
0
LINE
5
11B
100
AcDbEntity
8
SK2
62
256
6
ByLayer
370
-1
48
1
60
0
100
AcDbLine
10
-119.09
20
5.9925
30
0
11
-118.672003
21
2.817502
31
0
39
0
210
0
220
0
230
1
0
LINE
5
11C
100
AcDbEntity
8
SK2
62
256
6
ByLayer
370
-1
48
1
60
0
100
AcDbLine
10
-119.09
20
5.9925
30
0
11
-119.507997
21
2.817498
31
0
39
0
210
0
220
0
230
1
0
LINE
5
11D
100
AcDbEntity
8
SK2
62
256
6
ByLayer
370
-1
48
1
60
0
100
AcDbLine
10
-118.672003
20
2.817502
30
0
11
-119.507997
21
2.817498
31
0
39
0
210
0
220
0
230
1
0
ENDBLK
5
11F
100
AcDbEntity
8
0
100
AcDbBlockEnd
0
BLOCK
5
12C
100
AcDbEntity
8
0
100
AcDbBlockBegin
2
DimnDraft3D3
70
0
10
0
20
0
30
0
3
DimnDraft3D3
0
MTEXT
5
122
100
AcDbEntity
8
SK2
62
256
6
ByLayer
370
-1
48
1
60
0
100
AcDbMText
10
-23.842632
20
-25.025
30
0
210
0
220
0
230
1
1
\W01.000;\fsimplex.shx,bigfont.shx;180.0 
40
4.5
41
0
44
1.084337
50
0
71
7
72
5
7
DEFAULT
0
LINE
5
123
100
AcDbEntity
8
SK2
62
256
6
ByLayer
370
-1
48
1
60
0
100
AcDbLine
10
-109.34
20
-7.9925
30
0
11
-109.34
21
-28.15
31
0
39
0
210
0
220
0
230
1
0
LINE
5
124
100
AcDbEntity
8
SK2
62
256
6
ByLayer
370
-1
48
1
60
0
100
AcDbLine
10
71.91
20
-10.9
30
0
11
71.91
21
-28.15
31
0
39
0
210
0
220
0
230
1
0
LINE
5
125
100
AcDbEntity
8
SK2
62
256
6
ByLayer
370
-1
48
1
60
0
100
AcDbLine
10
-109.34
20
-26.15
30
0
11
71.91
21
-26.15
31
0
39
0
210
0
220
0
230
1
0
LINE
5
126
100
AcDbEntity
8
SK2
62
256
6
ByLayer
370
-1
48
1
60
0
100
AcDbLine
10
-109.34
20
-26.15
30
0
11
-106.165002
21
-25.732003
31
0
39
0
210
0
220
0
230
1
0
LINE
5
127
100
AcDbEntity
8
SK2
62
256
6
ByLayer
370
-1
48
1
60
0
100
AcDbLine
10
-109.34
20
-26.15
30
0
11
-106.164998
21
-26.567997
31
0
39
0
210
0
220
0
230
1
0
LINE
5
128
100
AcDbEntity
8
SK2
62
256
6
ByLayer
370
-1
48
1
60
0
100
AcDbLine
10
-106.165002
20
-25.732003
30
0
11
-106.164998
21
-26.567997
31
0
39
0
210
0
220
0
230
1
0
LINE
5
129
100
AcDbEntity
8
SK2
62
256
6
ByLayer
370
-1
48
1
60
0
100
AcDbLine
10
71.91
20
-26.15
30
0
11
68.735002
21
-26.567997
31
0
39
0
210
0
220
0
230
1
0
LINE
5
12A
100
AcDbEntity
8
SK2
62
256
6
ByLayer
370
-1
48
1
60
0
100
AcDbLine
10
71.91
20
-26.15
30
0
11
68.734998
21
-25.732003
31
0
39
0
210
0
220
0
230
1
0
LINE
5
12B
100
AcDbEntity
8
SK2
62
256
6
ByLayer
370
-1
48
1
60
0
100
AcDbLine
10
68.735002
20
-26.567997
30
0
11
68.734998
21
-25.732003
31
0
39
0
210
0
220
0
230
1
0
ENDBLK
5
12D
100
AcDbEntity
8
0
100
AcDbBlockEnd
0
BLOCK
5
13A
100
AcDbEntity
8
0
100
AcDbBlockBegin
2
DimnDraft3D4
70
0
10
0
20
0
30
0
3
DimnDraft3D4
0
MTEXT
5
130
100
AcDbEntity
8
2
62
256
6
ByLayer
370
-1
48
1
60
0
100
AcDbMText
10
93.646303
20
32.335899
30
0
210
0
220
0
230
1
1
\W01.000;\fsimplex.shx,bigfont.shx;95%%d0' 
40
4.5
41
0
44
1.084337
50
317.5
71
7
72
5
7
DEFAULT
0
LINE
5
131
100
AcDbEntity
8
2
62
256
6
ByLayer
370
-1
48
1
60
0
100
AcDbLine
10
71.212754
20
-0.930442
30
0
11
67.651535
21
39.774475
31
0
39
0
210
0
220
0
230
1
0
LINE
5
132
100
AcDbEntity
8
2
62
256
6
ByLayer
370
-1
48
1
60
0
100
AcDbLine
10
73.91
20
0
30
0
11
111.057758
21
0
31
0
39
0
210
0
220
0
230
1
0
ARC
5
133
100
AcDbEntity
8
2
62
256
6
ByLayer
370
-1
48
1
60
0
100
AcDbCircle
39
0
10
71.131351
20
0
30
0
40
37.9264068640928
210
0
220
0
230
1
100
AcDbArc
50
0
51
95
0
LINE
5
134
100
AcDbEntity
8
2
62
256
6
ByLayer
370
-1
48
1
60
0
100
AcDbLine
10
67.825847
20
37.782085
30
0
11
70.966145
21
38.409669
31
0
39
0
210
0
220
0
230
1
0
LINE
5
135
100
AcDbEntity
8
2
62
256
6
ByLayer
370
-1
48
1
60
0
100
AcDbLine
10
67.825847
20
37.782085
30
0
11
71.021576
21
37.575515
31
0
39
0
210
0
220
0
230
1
0
LINE
5
136
100
AcDbEntity
8
2
62
256
6
ByLayer
370
-1
48
1
60
0
100
AcDbLine
10
70.966145
20
38.409669
30
0
11
71.021576
21
37.575515
31
0
39
0
210
0
220
0
230
1
0
LINE
5
137
100
AcDbEntity
8
2
62
256
6
ByLayer
370
-1
48
1
60
0
100
AcDbLine
10
109.057758
20
0
30
0
11
108.573448
21
3.165562
31
0
39
0
210
0
220
0
230
1
0
LINE
5
138
100
AcDbEntity
8
2
62
256
6
ByLayer
370
-1
48
1
60
0
100
AcDbLine
10
109.057758
20
0
30
0
11
109.409258
21
3.183049
31
0
39
0
210
0
220
0
230
1
0
LINE
5
139
100
AcDbEntity
8
2
62
256
6
ByLayer
370
-1
48
1
60
0
100
AcDbLine
10
108.573448
20
3.165562
30
0
11
109.409258
21
3.183049
31
0
39
0
210
0
220
0
230
1
0
ENDBLK
5
13B
100
AcDbEntity
8
0
100
AcDbBlockEnd
0
ENDSEC
0
SECTION
2
ENTITIES
0
ELLIPSE
5
91
100
AcDbEntity
8
1
62
256
6
ByLayer
370
-1
48
1
60
0
100
AcDbEllipse
10
65.659209
20
-3.611495
30
0
11
1.24524337261468
21
0.108944678434597
31
0
210
0
220
0
230
1
40
0.991842
41
2.9670597283903
42
-2.02469010453224
0
ELLIPSE
5
92
100
AcDbEntity
8
1
62
256
6
ByLayer
370
-1
48
1
60
0
100
AcDbEllipse
10
65.46039
20
-2.17406
30
0
11
1.04600443299633
21
0.0915135298850613
31
0
210
0
220
0
230
1
40
0.991842
41
-2.98177970781368
42
-2.04048048595608
0
ELLIPSE
5
93
100
AcDbEntity
8
1
62
256
6
ByLayer
370
-1
48
1
60
0
100
AcDbEllipse
10
65.465389
20
-2.231204
30
0
11
-1.04600443299633
21
-0.0915135298850392
31
0
210
0
220
0
230
1
40
0.991842
41
0.185678771189573
42
1.10109608919627
0
ELLIPSE
5
94
100
AcDbEntity
8
1
62
256
6
ByLayer
370
-1
48
1
60
0
100
AcDbEllipse
10
65.489276
20
-2.504236
30
0
11
-1.04600443299633
21
-0.0915135298850392
31
0
210
0
220
0
230
1
40
0.991842
41
-2.8763084666895
42
0.185678771189502
0
ELLIPSE
5
95
100
AcDbEntity
8
1
62
256
6
ByLayer
370
-1
48
1
60
0
100
AcDbEllipse
10
65.635322
20
-3.338463
30
0
11
-1.24524337261468
21
-0.108944678434571
31
0
210
0
220
0
230
1
40
0.991842
41
0.110764316361601
42
1.11689935820365
0
ELLIPSE
5
96
100
AcDbEntity
8
1
62
256
6
ByLayer
370
-1
48
1
60
0
100
AcDbEllipse
10
65.405771
20
-2.448062
30
0
11
0.395489295142305
21
0.0346008298708176
31
0
210
0
220
0
230
1
40
0.991842
41
1.3962634015956
42
-3.14159265358974
0
ELLIPSE
5
97
100
AcDbEntity
8
1
62
256
6
ByLayer
370
-1
48
1
60
0
100
AcDbEllipse
10
65.893467
20
-8.022456
30
0
11
0.395489295142271
21
0.0346008298708147
31
0
210
0
220
0
230
1
40
0.991842
41
-3.14159265358977
42
-1.74532925199421
0
ELLIPSE
5
98
100
AcDbEntity
8
1
62
256
6
ByLayer
370
-1
48
1
60
0
100
AcDbEllipse
10
71.025316
20
-2.931808
30
0
11
0.395489295142356
21
0.0346008298708221
31
0
210
0
220
0
230
1
40
0.991842
41
0
42
1.39626340159541
0
ELLIPSE
5
99
100
AcDbEntity
8
1
62
256
6
ByLayer
370
-1
48
1
60
0
100
AcDbEllipse
10
68.459391
20
-5.477132
30
0
11
1.91523434805457
21
0.167561293450276
31
0
210
0
220
0
230
1
40
0.991842
41
0
42
6.28318530717959
0
ELLIPSE
5
9A
100
AcDbEntity
8
1
62
256
6
ByLayer
370
-1
48
1
60
0
100
AcDbEllipse
10
71.513012
20
-8.506202
30
0
11
0.395489295142295
21
0.0346008298708168
31
0
210
0
220
0
230
1
40
0.991842
41
-1.74532925199434
42
1.98495144379371E-13
0
ELLIPSE
5
9B
100
AcDbEntity
8
1
62
256
6
ByLayer
370
-1
48
1
60
0
100
AcDbEllipse
10
68.451837
20
-5.390781
30
0
11
1.86786505892203
21
0.163417017651896
31
0
210
0
220
0
230
1
40
0.991842
41
3.05361202430764
42
-9.55182694770733E-16
0
ELLIPSE
5
9C
100
AcDbEntity
8
1
62
256
6
ByLayer
370
-1
48
1
60
0
100
AcDbEllipse
10
68.451837
20
-5.390781
30
0
11
1.86786505892203
21
0.163417017651896
31
0
210
0
220
0
230
1
40
0.991842
41
0
42
0.555653335195505
0
ELLIPSE
5
9D
100
AcDbEntity
8
1
62
256
6
ByLayer
370
-1
48
1
60
0
100
AcDbEllipse
10
68.451837
20
-5.390781
30
0
11
1.86786505892203
21
0.163417017651896
31
0
210
0
220
0
230
1
40
0.991842
41
2.58580924976235
42
3.05361202430765
0
ELLIPSE
5
9E
100
AcDbEntity
8
1
62
256
6
ByLayer
370
-1
48
1
60
0
100
AcDbEllipse
10
68.21142
20
-6.226232
30
0
11
0.234372293635332
21
-0.0617495197341322
31
0
210
0
220
0
230
-1
40
0.47828
41
-2.99251153247716
42
-0.142550765595225
0
ELLIPSE
5
9F
100
AcDbEntity
8
1
62
256
6
ByLayer
370
-1
48
1
60
0
100
AcDbEllipse
10
68.448371
20
-5.35117
30
0
11
-0.924240230422542
21
-0.0808605425365584
31
0
210
0
220
0
230
1
40
0.991842
41
1.48341909286278
42
1.48364063552749
0
ELLIPSE
5
A0
100
AcDbEntity
8
1
62
256
6
ByLayer
370
-1
48
1
60
0
100
AcDbEllipse
10
68.684072
20
-6.225898
30
0
11
0.234415449983434
21
0.0622531667921909
31
0
210
0
220
0
230
-1
40
0.477608
41
0.398066885434786
42
-2.99751017983637
0
ELLIPSE
5
A1
100
AcDbEntity
8
1
62
256
6
ByLayer
370
-1
48
1
60
0
100
AcDbEllipse
10
68.459481
20
-5.478156
30
0
11
1.03111132225985
21
0.0902105515309824
31
0
210
0
220
0
230
1
40
0.991842
41
-2.39967506778352
42
-0.349065706007146
0
ELLIPSE
5
A2
100
AcDbEntity
8
1
62
256
6
ByLayer
370
-1
48
1
60
0
100
AcDbEllipse
10
67.566223
20
-5.586222
30
0
11
0.062819956447267
21
-0.23233827204637
31
0
210
0
220
0
230
-1
40
0.485017
41
-3.01845877292626
42
-1.21786340232519
0
ELLIPSE
5
A3
100
AcDbEntity
8
1
62
256
6
ByLayer
370
-1
48
1
60
0
100
AcDbEllipse
10
68.458793
20
-5.470291
30
0
11
0.924240230422541
21
0.0808605425365781
31
0
210
0
220
0
230
1
40
0.991842
41
1.48341909286275
42
1.48364063552755
0
ELLIPSE
5
A4
100
AcDbEntity
8
1
62
256
6
ByLayer
370
-1
48
1
60
0
100
AcDbEllipse
10
68.459481
20
-5.478156
30
0
11
1.03111132225985
21
0.0902105515309824
31
0
210
0
220
0
230
1
40
0.991842
41
2.7925266587992
42
-2.43511803875312
0
ELLIPSE
5
A5
100
AcDbEntity
8
1
62
256
6
ByLayer
370
-1
48
1
60
0
100
AcDbEllipse
10
68.44726
20
-5.338472
30
0
11
0.788189245130159
21
0.0689576236619598
31
0
210
0
220
0
230
1
40
0.991842
41
-3.14151104394612
42
0
0
ELLIPSE
5
A6
100
AcDbEntity
8
1
62
256
6
ByLayer
370
-1
48
1
60
0
100
AcDbEllipse
10
68.448371
20
-5.35117
30
0
11
-0.924240230422542
21
-0.0808605425365584
31
0
210
0
220
0
230
1
40
0.991842
41
0.957994032893875
42
0.960041859929101
0
ELLIPSE
5
A7
100
AcDbEntity
8
1
62
256
6
ByLayer
370
-1
48
1
60
0
100
AcDbEllipse
10
68.449482
20
-5.363869
30
0
11
1.71843585420825
21
0.150343656239743
31
0
210
0
220
0
230
1
40
0.991842
41
3.05361232821684
42
-3.1415103643203
0
ELLIPSE
5
A8
100
AcDbEntity
8
1
62
256
6
ByLayer
370
-1
48
1
60
0
100
AcDbEllipse
10
68.449482
20
-5.363869
30
0
11
1.71843585420825
21
0.150343656239743
31
0
210
0
220
0
230
1
40
0.991842
41
0
42
3.05361198804967
0
ELLIPSE
5
A9
100
AcDbEntity
8
1
62
256
6
ByLayer
370
-1
48
1
60
0
100
AcDbEllipse
10
67.802259
20
-5.992095
30
0
11
0.165276170319386
21
-0.176693503321209
31
0
210
0
220
0
230
-1
40
0.501081
41
-0.2105692289048
42
2.31024447342483
0
ELLIPSE
5
AA
100
AcDbEntity
8
1
62
256
6
ByLayer
370
-1
48
1
60
0
100
AcDbEllipse
10
67.813369
20
-6.119081
30
0
11
0.165276167034131
21
-0.176693498535398
31
0
210
0
220
0
230
-1
40
0.501081
41
1.3685745006597
42
1.52055108614482
0
ELLIPSE
5
AB
100
AcDbEntity
8
1
62
256
6
ByLayer
370
-1
48
1
60
0
100
AcDbEllipse
10
68.459481
20
-5.478156
30
0
11
1.2950531075193
21
0.113302465571983
31
0
210
0
220
0
230
1
40
0.991842
41
0
42
6.28318530717959
0
ELLIPSE
5
AC
100
AcDbEntity
8
1
62
256
6
ByLayer
370
-1
48
1
60
0
100
AcDbEllipse
10
69.093568
20
-5.99118
30
0
11
0.172068702209283
21
0.169862112459784
31
0
210
0
220
0
230
-1
40
0.480592
41
-2.76277892860319
42
-0.12639836691103
0
ELLIPSE
5
AD
100
AcDbEntity
8
1
62
256
6
ByLayer
370
-1
48
1
60
0
100
AcDbEllipse
10
68.458793
20
-5.470291
30
0
11
0.924240230422541
21
0.0808605425365781
31
0
210
0
220
0
230
1
40
0.991842
41
-2.18359862069586
42
-2.1815507936606
0
ELLIPSE
5
AE
100
AcDbEntity
8
1
62
256
6
ByLayer
370
-1
48
1
60
0
100
AcDbEllipse
10
69.105593
20
-4.837231
30
0
11
0.179012618124777
21
-0.162993852812715
31
0
210
0
220
0
230
-1
40
0.500434
41
-1.509802605263
42
-1.35782604155695
0
ELLIPSE
5
AF
100
AcDbEntity
8
1
62
256
6
ByLayer
370
-1
48
1
60
0
100
AcDbEllipse
10
68.459481
20
-5.478156
30
0
11
1.03111132225985
21
0.0902105515309824
31
0
210
0
220
0
230
1
40
0.991842
41
-0.349065706007146
42
0.654345815781259
0
ELLIPSE
5
B0
100
AcDbEntity
8
1
62
256
6
ByLayer
370
-1
48
1
60
0
100
AcDbEllipse
10
67.566558
20
-5.117368
30
0
11
0.0633721558743601
21
0.232367883217567
31
0
210
0
220
0
230
-1
40
0.505624
41
3.02148870398231
42
-2.20121180830569
0
ELLIPSE
5
B1
100
AcDbEntity
8
1
62
256
6
ByLayer
370
-1
48
1
60
0
100
AcDbEllipse
10
69.330519
20
-5.116118
30
0
11
0.0628199564472861
21
-0.232338272046384
31
0
210
0
220
0
230
-1
40
0.485017
41
1.92373328696867
42
2.99755348926241
0
ELLIPSE
5
B2
100
AcDbEntity
8
1
62
256
6
ByLayer
370
-1
48
1
60
0
100
AcDbEllipse
10
68.458793
20
-5.470291
30
0
11
0.924240230422541
21
0.0808605425365781
31
0
210
0
220
0
230
1
40
0.991842
41
2.00701786846106
42
2.00723941112574
0
ELLIPSE
5
B3
100
AcDbEntity
8
1
62
256
6
ByLayer
370
-1
48
1
60
0
100
AcDbEllipse
10
68.459481
20
-5.478156
30
0
11
1.03111132225985
21
0.0902105515309824
31
0
210
0
220
0
230
1
40
0.991842
41
0.689788786766746
42
2.7925266587992
0
ELLIPSE
5
B4
100
AcDbEntity
8
1
62
256
6
ByLayer
370
-1
48
1
60
0
100
AcDbEllipse
10
68.458793
20
-5.470291
30
0
11
0.924240230422541
21
0.0808605425365781
31
0
210
0
220
0
230
1
40
0.991842
41
-1.65817356072692
42
-1.65795201806224
0
ELLIPSE
5
B5
100
AcDbEntity
8
1
62
256
6
ByLayer
370
-1
48
1
60
0
100
AcDbEllipse
10
68.457549
20
-5.45607
30
0
11
1.71843585420826
21
0.150343656239744
31
0
210
0
220
0
230
1
40
0.991842
41
0
42
6.28318530717959
0
ELLIPSE
5
B6
100
AcDbEntity
8
1
62
256
6
ByLayer
370
-1
48
1
60
0
100
AcDbEllipse
10
69.330184
20
-5.584973
30
0
11
0.0633722597825935
21
0.232367855466296
31
0
210
0
220
0
230
-1
40
0.505624
41
1.13626615280182
42
-3.02864194284153
0
ELLIPSE
5
B7
100
AcDbEntity
8
1
62
256
6
ByLayer
370
-1
48
1
60
0
100
AcDbEllipse
10
68.458793
20
-5.470291
30
0
11
0.924240230422541
21
0.0808605425365781
31
0
210
0
220
0
230
1
40
0.991842
41
-1.13457478512863
42
-1.13435324246392
0
ELLIPSE
5
B8
100
AcDbEntity
8
1
62
256
6
ByLayer
370
-1
48
1
60
0
100
AcDbEllipse
10
68.448371
20
-5.35117
30
0
11
-0.788189245130163
21
-0.0689576236619433
31
0
210
0
220
0
230
1
40
0.991842
41
-0.548911429310859
42
0
0
ELLIPSE
5
B9
100
AcDbEntity
8
1
62
256
6
ByLayer
370
-1
48
1
60
0
100
AcDbEllipse
10
68.448371
20
-5.35117
30
0
11
-0.788189245130163
21
-0.0689576236619433
31
0
210
0
220
0
230
1
40
0.991842
41
0
42
3.05361182494999
0
ELLIPSE
5
BA
100
AcDbEntity
8
1
62
256
6
ByLayer
370
-1
48
1
60
0
100
AcDbEllipse
10
68.448371
20
-5.35117
30
0
11
-0.788189245130163
21
-0.0689576236619433
31
0
210
0
220
0
230
1
40
0.991842
41
-1.67163830282051
42
-1.04616664103906
0
ELLIPSE
5
BB
100
AcDbEntity
8
1
62
256
6
ByLayer
370
-1
48
1
60
0
100
AcDbEllipse
10
68.448371
20
-5.35117
30
0
11
-0.788189245130163
21
-0.0689576236619433
31
0
210
0
220
0
230
1
40
0.991842
41
-2.95055994075923
42
-2.23673098179537
0
ELLIPSE
5
BC
100
AcDbEntity
8
1
62
256
6
ByLayer
370
-1
48
1
60
0
100
AcDbEllipse
10
68.448371
20
-5.35117
30
0
11
-0.788189245130163
21
-0.0689576236619433
31
0
210
0
220
0
230
1
40
0.991842
41
3.05361193405897
42
-3.1415110439461
0
ELLIPSE
5
BD
100
AcDbEntity
8
1
62
256
6
ByLayer
370
-1
48
1
60
0
100
AcDbEllipse
10
68.458793
20
-5.470291
30
0
11
0.924240230422541
21
0.0808605425365781
31
0
210
0
220
0
230
1
40
0.991842
41
0.436221541666203
42
0.438269368701509
0
POINT
5
41
100
AcDbEntity
8
1
62
256
6
ByLayer
370
-1
48
1
60
0
100
AcDbPoint
10
-109.34
20
0
30
0
39
0
210
0
220
0
230
1
50
360
0
POINT
5
43
100
AcDbEntity
8
2
62
256
6
ByLayer
370
-1
48
1
60
0
100
AcDbPoint
10
71.91
20
8.9
30
0
39
0
210
0
220
0
230
1
50
360
0
POINT
5
45
100
AcDbEntity
8
80
62
256
6
ByLayer
370
-1
48
1
60
0
100
AcDbPoint
10
0
20
0
30
0
39
0
210
0
220
0
230
1
50
360
0
POINT
5
47
100
AcDbEntity
8
81
62
256
6
ByLayer
370
-1
48
1
60
0
100
AcDbPoint
10
71.91
20
-8.9
30
0
39
0
210
0
220
0
230
1
50
360
0
SPLINE
5
BE
100
AcDbEntity
8
1
62
256
6
ByLayer
370
-1
48
1
60
0
100
AcDbSpline
70
4
71
3
72
8
73
4
40
0
40
0
40
0
40
0
40
1
40
1
40
1
40
1
41
1
10
65.4742376758916
20
-7.78591946299426
30
0
41
1
10
64.6172582365699
20
-7.70979815732252
30
0
41
1
10
63.7602852306605
20
-7.63360665060483
30
0
41
1
10
62.9033193
20
-7.55733816079146
30
0
0
SPLINE
5
BF
100
AcDbEntity
8
1
62
256
6
ByLayer
370
-1
48
1
60
0
100
AcDbSpline
70
4
71
3
72
8
73
4
40
0
40
0
40
0
40
0
40
1
40
1
40
1
40
1
41
1
10
62.5976437142717
20
-7.38066301578874
30
0
41
1
10
62.6995281661809
20
-7.43956732397999
30
0
41
1
10
62.801420205197
20
-7.49845874146044
30
0
41
1
10
62.9033193
20
-7.55733816079146
30
0
0
SPLINE
5
C0
100
AcDbEntity
8
1
62
256
6
ByLayer
370
-1
48
1
60
0
100
AcDbSpline
70
4
71
3
72
16
73
12
40
0
40
0
40
0
40
0
40
0.110748889191118
40
0.110748889191118
40
0.358720203991303
40
0.358720203991303
40
0.613689071802668
40
0.613689071802668
40
0.902909923481299
40
0.902909923481299
40
1
40
1
40
1
40
1
41
1
10
55.7046160459555
20
0.303424428248917
30
0
41
1
10
55.7048190712314
20
0.281844764183319
30
0
41
1
10
55.7039465058073
20
0.259399153906514
30
0
41
1
10
55.6976718961062
20
0.185318301641985
30
0
41
1
10
55.6877906070265
20
0.130797631377277
30
0
41
1
10
55.6587807635327
20
0.0221594011143509
30
0
41
1
10
55.6391122213017
20
-0.0331958827110839
30
0
41
1
10
55.5906726199395
20
-0.144771474440631
30
0
41
1
10
55.5605189077624
20
-0.201459272590739
30
0
41
1
10
55.5176114117226
20
-0.270285766154103
30
0
41
1
10
55.5065233714246
20
-0.287139679302157
30
0
41
1
10
55.495246868978
20
-0.303424428248974
30
0
0
SPLINE
5
C1
100
AcDbEntity
8
1
62
256
6
ByLayer
370
-1
48
1
60
0
100
AcDbSpline
70
4
71
3
72
10
73
6
40
0
40
0
40
0
40
0
40
0.5
40
0.5
40
1
40
1
40
1
40
1
41
1
10
55.7046160459556
20
0.303424428248888
30
0
41
1
10
56.1405551096997
20
1.46216138551591
30
0
41
1
10
56.7563420383236
20
2.52780849719008
30
0
41
1
10
58.2902731779592
20
4.14267094840861
30
0
41
1
10
59.2197219889334
20
4.70465394089481
30
0
41
1
10
60.2721013149957
20
5.06819043106043
30
0
0
SPLINE
5
C2
100
AcDbEntity
8
1
62
256
6
ByLayer
370
-1
48
1
60
0
100
AcDbSpline
70
4
71
3
72
14
73
10
40
0
40
0
40
0
40
0
40
0.25
40
0.25
40
0.5
40
0.5
40
0.75
40
0.75
40
1
40
1
40
1
40
1
41
1
10
60.2793500517953
20
-6.0126626185766
30
0
41
1
10
59.3701835015213
20
-5.98830150017662
30
0
41
1
10
58.5143631382387
20
-5.94374948413761
30
0
41
1
10
56.9411898578642
20
-5.65556580052521
30
0
41
1
10
56.2430082877854
20
-5.40232155411846
30
0
41
1
10
55.2991266804564
20
-4.46969111847642
30
0
41
1
10
55.0662612483005
20
-3.76771094540592
30
0
41
1
10
55.036237437328
20
-2.13074317031823
30
0
41
1
10
55.2142000776304
20
-1.1973284574251
30
0
41
1
10
55.4952468689779
20
-0.303424428248888
30
0
0
SPLINE
5
C3
100
AcDbEntity
8
1
62
256
6
ByLayer
370
-1
48
1
60
0
100
AcDbSpline
70
4
71
3
72
28
73
24
40
-0.124999999999989
40
-0.124999999999989
40
0
40
0
40
0.12500000000001
40
0.12500000000001
40
0.187500000000012
40
0.187500000000012
40
0.250000000000013
40
0.250000000000013
40
0.375000000000017
40
0.375000000000017
40
0.500000000000021
40
0.500000000000021
40
0.625000000000025
40
0.625000000000025
40
0.687500000000023
40
0.687500000000023
40
0.718750000000023
40
0.718750000000023
40
0.750000000000022
40
0.750000000000022
40
0.875000000000011
40
0.875000000000011
40
1
40
1
40
1.12500000000001
40
1.12500000000001
41
1
10
58.9535636514627
20
-2.92005461418128
30
0
41
1
10
58.263744631053
20
-2.65212772696404
30
0
41
1
10
57.9093109508473
20
-2.57172962408538
30
0
41
1
10
57.3735569885213
20
-2.6746632897557
30
0
41
1
10
57.1933444305207
20
-2.7507664533297
30
0
41
1
10
56.8980811687439
20
-3.03894843654757
30
0
41
1
10
56.7973566388142
20
-3.26146800551271
30
0
41
1
10
56.7697544263927
20
-3.88784016124873
30
0
41
1
10
57.0250241561713
20
-4.18390195435813
30
0
41
1
10
57.5973798410998
20
-4.56947421171125
30
0
41
1
10
57.9461783395499
20
-4.68285352101017
30
0
41
1
10
58.6822688969509
20
-4.8207213510963
30
0
41
1
10
59.0795149722142
20
-4.84902145864501
30
0
41
1
10
59.6924339148828
20
-4.80545190119898
30
0
41
1
10
59.9016517634201
20
-4.7800415923426
30
0
41
1
10
60.1996158161429
20
-4.6676315128413
30
0
41
1
10
60.3024856639831
20
-4.61460563629436
30
0
41
1
10
60.4276030984606
20
-4.43711025175705
30
0
41
1
10
60.4254490002627
20
-4.3161215138708
30
0
41
1
10
60.252558537681
20
-3.82225084247901
30
0
41
1
10
59.8996211993422
20
-3.56911235723706
30
0
41
1
10
59.2770221644803
20
-3.10740030291416
30
0
41
1
10
58.9535636514627
20
-2.92005461418128
30
0
41
1
10
58.263744631053
20
-2.65212772696404
30
0
0
SPLINE
5
C4
100
AcDbEntity
8
1
62
256
6
ByLayer
370
-1
48
1
60
0
100
AcDbSpline
70
4
71
3
72
8
73
4
40
0
40
0
40
0
40
0
40
1
40
1
40
1
40
1
41
1
10
60.2793500517953
20
-6.01266261857663
30
0
41
1
10
61.0256829997917
20
-6.4743346693206
30
0
41
1
10
61.8035416219209
20
-6.92155435390166
30
0
41
1
10
62.5976437142716
20
-7.38066301578871
30
0
0
SPLINE
5
C5
100
AcDbEntity
8
1
62
256
6
ByLayer
370
-1
48
1
60
0
100
AcDbSpline
70
4
71
3
72
12
73
8
40
0
40
0
40
0
40
0
40
0.0947906298404382
40
0.0947906298404382
40
0.808263164942972
40
0.808263164942972
40
1
40
1
40
1
40
1
41
1
10
65.396599839285
20
-2.04438201357704
30
0
41
1
10
65.3943779808885
20
-2.04419072718187
30
0
41
1
10
65.3921514441066
20
-2.04404864803206
30
0
41
1
10
65.3731514271979
20
-2.04325770139934
30
0
41
1
10
65.3560227431061
20
-2.04542246386311
30
0
41
1
10
65.3356377074281
20
-2.05157387025159
30
0
41
1
10
65.3313645102207
20
-2.05308030276882
30
0
41
1
10
65.3271607995266
20
-2.05477788768832
30
0
0
SPLINE
5
C6
100
AcDbEntity
8
1
62
256
6
ByLayer
370
-1
48
1
60
0
100
AcDbSpline
70
4
71
3
72
36
73
32
40
0
40
0
40
0
40
0
40
0.0492962859085792
40
0.0492962859085792
40
0.128955121069258
40
0.128955121069258
40
0.193390858837911
40
0.193390858837911
40
0.257664558541238
40
0.257664558541238
40
0.321869855657958
40
0.321869855657958
40
0.386043638176901
40
0.386043638176901
40
0.490448583644014
40
0.490448583644014
40
0.594841290176038
40
0.594841290176038
40
0.692807648616282
40
0.692807648616282
40
0.77646259868445
40
0.77646259868445
40
0.842223390184015
40
0.842223390184015
40
0.89252501864664
40
0.89252501864664
40
0.931489584822334
40
0.931489584822334
40
0.988987173441984
40
0.988987173441984
40
1
40
1
40
1
40
1
41
1
10
67.9954162682322
20
-4.67370209817602
30
0
41
1
10
67.9992180124775
20
-4.68028840689766
30
0
41
1
10
68.0015916019522
20
-4.68770964598869
30
0
41
1
10
68.0047219169073
20
-4.70759564125783
30
0
41
1
10
68.0037620789784
20
-4.72070893705481
30
0
41
1
10
67.9989587489924
20
-4.74414659491313
30
0
41
1
10
67.9956506800366
20
-4.75471671774045
30
0
41
1
10
67.9874633175167
20
-4.77556381189345
30
0
41
1
10
67.9825574427931
20
-4.78590928929526
30
0
41
1
10
67.9715511278325
20
-4.80626278483371
30
0
41
1
10
67.9654267036121
20
-4.81631391794065
30
0
41
1
10
67.95221644847
20
-4.83603705911685
30
0
41
1
10
67.9451086083868
20
-4.84574118782211
30
0
41
1
10
67.9254081679485
20
-4.87063816402775
30
0
41
1
10
67.912088513856
20
-4.88557205448723
30
0
41
1
10
67.8838559988602
20
-4.91396902982848
30
0
41
1
10
67.8688433075562
20
-4.92753254797165
30
0
41
1
10
67.8385248800565
20
-4.95197801310948
30
0
41
1
10
67.8231942650448
20
-4.96305636091043
30
0
41
1
10
67.7939553245054
20
-4.98150548631568
30
0
41
1
10
67.7800782938408
20
-4.989238653299
30
0
41
1
10
67.7548672661792
20
-5.00101112875495
30
0
41
1
10
67.7435554918884
20
-5.00551797165707
30
0
41
1
10
67.723486350932
20
-5.01172026388849
30
0
41
1
10
67.7147020918309
20
-5.01384122863988
30
0
41
1
10
67.6992275459505
20
-5.01618496965079
30
0
41
1
10
67.6924722553131
20
-5.01673122941901
30
0
41
1
10
67.6761788717324
20
-5.01652398638845
30
0
41
1
10
67.6666039291547
20
-5.01501445047086
30
0
41
1
10
67.6564114590901
20
-5.01096222950591
30
0
41
1
10
67.654788307757
20
-5.01023147218234
30
0
41
1
10
67.6532097821404
20
-5.00942823741789
30
0
0
SPLINE
5
C7
100
AcDbEntity
8
1
62
256
6
ByLayer
370
-1
48
1
60
0
100
AcDbSpline
70
4
71
3
72
42
73
38
40
0
40
0
40
0
40
0
40
0.0453868446055458
40
0.0453868446055458
40
0.0855289172227082
40
0.0855289172227082
40
0.136755260759507
40
0.136755260759507
40
0.176187381923118
40
0.176187381923118
40
0.232899104725628
40
0.232899104725628
40
0.289415721422113
40
0.289415721422113
40
0.345854377934461
40
0.345854377934461
40
0.459254087222505
40
0.459254087222505
40
0.5156533806066
40
0.5156533806066
40
0.572053913253964
40
0.572053913253964
40
0.659762760606897
40
0.659762760606897
40
0.726494882951058
40
0.726494882951058
40
0.778219441680643
40
0.778219441680643
40
0.861348933301303
40
0.861348933301303
40
0.909456127369087
40
0.909456127369087
40
0.950205311078327
40
0.950205311078327
40
0.99111720200066
40
0.99111720200066
40
1
40
1
40
1
40
1
41
1
10
68.4582384491199
20
-6.39055047038443
30
0
41
1
10
68.4580019926916
20
-6.39933910427874
30
0
41
1
10
68.459507073604
20
-6.40834979091201
30
0
41
1
10
68.4657785254134
20
-6.42393002518708
30
0
41
1
10
68.4702150787639
20
-6.43084701827121
30
0
41
1
10
68.4824712645969
20
-6.44455025063903
30
0
41
1
10
68.4910255980634
20
-6.45102491502314
30
0
41
1
10
68.5072810345615
20
-6.46029593561329
30
0
41
1
10
68.514845202217
20
-6.46367692087381
30
0
41
1
10
68.5337454863798
20
-6.47054447342538
30
0
41
1
10
68.5453872977067
20
-6.47347983546817
30
0
41
1
10
68.5688678617541
20
-6.47767170107187
30
0
41
1
10
68.5807858196167
20
-6.47894411620496
30
0
41
1
10
68.6046424524883
20
-6.48020115838969
30
0
41
1
10
68.6166239662172
20
-6.48018733326523
30
0
41
1
10
68.6525142450063
20
-6.4785452388023
30
0
41
1
10
68.6764509425036
20
-6.4753227721063
30
0
41
1
10
68.7116516505831
20
-6.46793341015857
30
0
41
1
10
68.7232817954235
20
-6.46503860551047
30
0
41
1
10
68.746285774584
20
-6.45841017956278
30
0
41
1
10
68.7576762690447
20
-6.45467181464005
30
0
41
1
10
68.7863340743746
20
-6.44404210786573
30
0
41
1
10
68.8034317850867
20
-6.43653447199739
30
0
41
1
10
68.8324244134403
20
-6.42131899281048
30
0
41
1
10
68.8446326995782
20
-6.41406231223581
30
0
41
1
10
68.8652989113745
20
-6.3998175722779
30
0
41
1
10
68.8740149261053
20
-6.39311278637902
30
0
41
1
10
68.8952842000175
20
-6.37431969120667
30
0
41
1
10
68.9073209384051
20
-6.36117700310626
30
0
41
1
10
68.9215669002141
20
-6.33795439298578
30
0
41
1
10
68.9258313653901
20
-6.32872809852486
30
0
41
1
10
68.9305071542831
20
-6.31122525452878
30
0
41
1
10
68.9314161816041
20
-6.30284239487884
30
0
41
1
10
68.930152881407
20
-6.28670162856923
30
0
41
1
10
68.9279418684979
20
-6.27874916297398
30
0
41
1
10
68.9237006755044
20
-6.27003173414579
30
0
41
1
10
68.9228736960841
20
-6.26848908293772
30
0
41
1
10
68.9219912808751
20
-6.26698158832622
30
0
0
SPLINE
5
C8
100
AcDbEntity
8
1
62
256
6
ByLayer
370
-1
48
1
60
0
100
AcDbSpline
70
4
71
3
72
36
73
32
40
0
40
0
40
0
40
0
40
0.0492962859145638
40
0.0492962859145638
40
0.128955121084972
40
0.128955121084972
40
0.193390858861465
40
0.193390858861465
40
0.257664558572604
40
0.257664558572604
40
0.321869855697121
40
0.321869855697121
40
0.386043638223855
40
0.386043638223855
40
0.490448583703698
40
0.490448583703698
40
0.594841290248452
40
0.594841290248452
40
0.692807648700624
40
0.692807648700624
40
0.776462598778992
40
0.776462598778992
40
0.842223390286657
40
0.842223390286657
40
0.892525018755468
40
0.892525018755468
40
0.931489584935913
40
0.931489584935913
40
0.98898717358581
40
0.98898717358581
40
1
40
1
40
1
40
1
41
1
10
69.2625958698634
20
-5.0096801053387
30
0
41
1
10
69.2555731610335
20
-5.01339643559149
30
0
41
1
10
69.2493645242953
20
-5.0185421967185
30
0
41
1
10
69.235612868565
20
-5.03395213282394
30
0
41
1
10
69.2292462205796
20
-5.04563187550383
30
0
41
1
10
69.2206416297661
20
-5.06806167304313
30
0
41
1
10
69.2177870111288
20
-5.07875202297495
30
0
41
1
10
69.213662067215
20
-5.10067622040972
30
0
41
1
10
69.2123778312338
20
-5.11198193341329
30
0
41
1
10
69.2110871353112
20
-5.1349114129074
30
0
41
1
10
69.2110785055879
20
-5.14658407815128
30
0
41
1
10
69.2121577422922
20
-5.17009591272799
30
0
41
1
10
69.2132477955907
20
-5.18197361799474
30
0
41
1
10
69.2173987776529
20
-5.21319452285999
30
0
41
1
10
69.2212788884639
20
-5.23268873194246
30
0
41
1
10
69.2313558478367
20
-5.27124302108297
30
0
41
1
10
69.2375883093817
20
-5.29043944564839
30
0
41
1
10
69.2518416413542
20
-5.32670259701149
30
0
41
1
10
69.2597744485019
20
-5.34394897198621
30
0
41
1
10
69.2763965032009
20
-5.37455760956075
30
0
41
1
10
69.2848551267683
20
-5.38821281678833
30
0
41
1
10
69.3014678462213
20
-5.41107437479388
30
0
41
1
10
69.3093458069671
20
-5.42066915387116
30
0
41
1
10
69.3242907643329
20
-5.43615502907832
30
0
41
1
10
69.331152595397
20
-5.44242437357548
30
0
41
1
10
69.343985810751
20
-5.45227358989112
30
0
41
1
10
69.3498432371299
20
-5.45616396561786
30
0
41
1
10
69.364783283418
20
-5.46423790507464
30
0
41
1
10
69.374302021043
20
-5.46779083750445
30
0
41
1
10
69.3857333079947
20
-5.46947190547567
30
0
41
1
10
69.3875991228134
20
-5.46966620715654
30
0
41
1
10
69.3894628053631
20
-5.46977563406
30
0
0
SPLINE
5
C9
100
AcDbEntity
8
1
62
256
6
ByLayer
370
-1
48
1
60
0
100
AcDbSpline
70
4
71
3
72
42
73
38
40
0
40
0
40
0
40
0
40
0.0453868446055418
40
0.0453868446055418
40
0.0855289172227028
40
0.0855289172227028
40
0.136755260759445
40
0.136755260759445
40
0.176187381922964
40
0.176187381922964
40
0.232899104725373
40
0.232899104725373
40
0.289415721421744
40
0.289415721421744
40
0.345854377933976
40
0.345854377933976
40
0.459254087221887
40
0.459254087221887
40
0.515653380605867
40
0.515653380605867
40
0.57205391325316
40
0.57205391325316
40
0.659762760606222
40
0.659762760606222
40
0.726494882950478
40
0.726494882950478
40
0.778219441680154
40
0.778219441680154
40
0.861348933300949
40
0.861348933300949
40
0.909456127368844
40
0.909456127368844
40
0.950205311078098
40
0.950205311078098
40
0.991117202000474
40
0.991117202000474
40
1
40
1
40
1
40
1
41
1
10
67.995594333536
20
-4.67360003370246
30
0
41
1
10
67.9912817467475
20
-4.6672614595202
30
0
41
1
10
67.9883734654975
20
-4.65989341391278
30
0
41
1
10
67.9865236869453
20
-4.64533439093552
30
0
41
1
10
67.987134147316
20
-4.63805210688366
30
0
41
1
10
67.9913512299504
20
-4.62192086976938
30
0
41
1
10
67.995741366708
20
-4.61294149698574
30
0
41
1
10
68.0055097837852
20
-4.59813809308378
30
0
41
1
10
68.0104941096481
20
-4.5919448498108
30
0
41
1
10
68.0236947064591
20
-4.57765990013004
30
0
41
1
10
68.0324373587152
20
-4.56983599329865
30
0
41
1
10
68.0508929277991
20
-4.55537925405415
30
0
41
1
10
68.0606671628131
20
-4.5486959516995
30
0
41
1
10
68.0808503886026
20
-4.53632035989824
30
0
41
1
10
68.0912959092824
20
-4.53060620519503
30
0
41
1
10
68.1233559398221
20
-4.51474941268947
30
0
41
1
10
68.1457628564023
20
-4.50584967068556
30
0
41
1
10
68.1799991095683
20
-4.49488105369292
30
0
41
1
10
68.1915303014594
20
-4.49161901794054
30
0
41
1
10
68.2147761148733
20
-4.48588807974437
30
0
41
1
10
68.2265075459081
20
-4.48341498802006
30
0
41
1
10
68.2566157434438
20
-4.47816793164023
30
0
41
1
10
68.2751433205268
20
-4.47596677132614
30
0
41
1
10
68.3077572619969
20
-4.47419059662226
30
0
41
1
10
68.3218996497981
20
-4.47411169391918
30
0
41
1
10
68.3467784813004
20
-4.47550069704857
30
0
41
1
10
68.3576048600639
20
-4.47662782843855
30
0
41
1
10
68.3851821534114
20
-4.48124485858526
30
0
41
1
10
68.4019838711964
20
-4.48578581365965
30
0
41
1
10
68.4254971361601
20
-4.49695573045642
30
0
41
1
10
68.4336116924671
20
-4.50201777432275
30
0
41
1
10
68.4459953400834
20
-4.51312009562537
30
0
41
1
10
68.4507532689355
20
-4.51902115949659
30
0
41
1
10
68.4572529640696
20
-4.53169017974835
30
0
41
1
10
68.4590522317257
20
-4.53862054252093
30
0
41
1
10
68.4594183054537
20
-4.54700145849549
30
0
41
1
10
68.4594155260187
20
-4.54851755261049
30
0
41
1
10
68.4593471652913
20
-4.55003115164422
30
0
0
SPLINE
5
CA
100
AcDbEntity
8
1
62
256
6
ByLayer
370
-1
48
1
60
0
100
AcDbSpline
70
4
71
3
72
22
73
18
40
0
40
0
40
0
40
0
40
0.098611353817975
40
0.098611353817975
40
0.183915555260724
40
0.183915555260724
40
0.29983767673607
40
0.29983767673607
40
0.483761977387132
40
0.483761977387132
40
0.582276243943303
40
0.582276243943303
40
0.774222172395555
40
0.774222172395555
40
0.965772862035557
40
0.965772862035557
40
1
40
1
40
1
40
1
41
1
10
67.5281601148042
20
-5.47123683625969
30
0
41
1
10
67.5192170476857
20
-5.47160913601712
30
0
41
1
10
67.5101469765242
20
-5.47000565058428
30
0
41
1
10
67.4948662096621
20
-5.46334066055149
30
0
41
1
10
67.4882507670382
20
-5.45871538458326
30
0
41
1
10
67.4747557424151
20
-5.44554949214282
30
0
41
1
10
67.4683718463683
20
-5.43604718198196
30
0
41
1
10
67.4553968609697
20
-5.40975144162866
30
0
41
1
10
67.4504668616533
20
-5.39149848375837
30
0
41
1
10
67.4460058343554
20
-5.36308697233207
30
0
41
1
10
67.4450237750153
20
-5.35295593965989
30
0
41
1
10
67.4435516979088
20
-5.32299181658112
30
0
41
1
10
67.4443801538171
20
-5.30290812595189
30
0
41
1
10
67.4487989264056
20
-5.2630796767653
30
0
41
1
10
67.4524062982624
20
-5.24320482233415
30
0
41
1
10
67.4581023676934
20
-5.22012464147852
30
0
41
1
10
67.4590069981309
20
-5.21662878741952
30
0
41
1
10
67.4599511300074
20
-5.21314209857502
30
0
0
SPLINE
5
CB
100
AcDbEntity
8
1
62
256
6
ByLayer
370
-1
48
1
60
0
100
AcDbSpline
70
4
71
3
72
22
73
18
40
0
40
0
40
0
40
0
40
0.167842784249955
40
0.167842784249955
40
0.335898034473327
40
0.335898034473327
40
0.454065247811078
40
0.454065247811078
40
0.642558083168836
40
0.642558083168836
40
0.755508761176174
40
0.755508761176174
40
0.870151412064567
40
0.870151412064567
40
0.967012982270263
40
0.967012982270263
40
1
40
1
40
1
40
1
41
1
10
67.7598305256844
20
-6.23569801596935
30
0
41
1
10
67.7716914704977
20
-6.24600292473468
30
0
41
1
10
67.7840998799779
20
-6.25569402727325
30
0
41
1
10
67.8099179053735
20
-6.27345836894392
30
0
41
1
10
67.8233849722044
20
-6.28157352487608
30
0
41
1
10
67.8471361351341
20
-6.29347068829327
30
0
41
1
10
67.8572203538844
20
-6.29784174205474
30
0
41
1
10
67.8837855934459
20
-6.30715045441511
30
0
41
1
10
67.9009155741246
20
-6.31106444817033
30
0
41
1
10
67.9279298963764
20
-6.31174957792916
30
0
41
1
10
67.9381629856879
20
-6.31070136328751
30
0
41
1
10
67.9572567129868
20
-6.30510411429941
30
0
41
1
10
67.9663466800395
20
-6.3003535113169
30
0
41
1
10
67.9800200150455
20
-6.28854442957575
30
0
41
1
10
67.985254629804
20
-6.28182654031727
30
0
41
1
10
67.9905281540252
20
-6.27197570351453
30
0
41
1
10
67.9917390982745
20
-6.26936537220408
30
0
41
1
10
67.992812362403
20
-6.26669599300845
30
0
0
SPLINE
5
CC
100
AcDbEntity
8
1
62
256
6
ByLayer
370
-1
48
1
60
0
100
AcDbSpline
70
4
71
3
72
22
73
18
40
0
40
0
40
0
40
0
40
0.167842784242531
40
0.167842784242531
40
0.335898034466566
40
0.335898034466566
40
0.454065247804881
40
0.454065247804881
40
0.642558083164197
40
0.642558083164197
40
0.755508761173574
40
0.755508761173574
40
0.870151412063932
40
0.870151412063932
40
0.967012982271915
40
0.967012982271915
40
1
40
1
40
1
40
1
41
1
10
69.2231544698824
20
-4.78412241280432
30
0
41
1
10
69.2335654281388
20
-4.7958656668645
30
0
41
1
10
69.2433873212999
20
-4.80812251979626
30
0
41
1
10
69.2614752093702
20
-4.8335549371472
30
0
41
1
10
69.2697836069828
20
-4.84678734576352
30
0
41
1
10
69.2820859548436
20
-4.8700414070868
30
0
41
1
10
69.2866472038505
20
-4.87989108925979
30
0
41
1
10
69.2965265345072
20
-4.90575174719419
30
0
41
1
10
69.3008727946153
20
-4.92234682702792
30
0
41
1
10
69.3024562711915
20
-4.94825863013955
30
0
41
1
10
69.3018004614251
20
-4.95801189271631
30
0
41
1
10
69.2970961125271
20
-4.97602165634231
30
0
41
1
10
69.2928631979534
20
-4.98448697182349
30
0
41
1
10
69.2820513485856
20
-4.99696649440443
30
0
41
1
10
69.2758183753349
20
-5.00162412527405
30
0
41
1
10
69.2666023775304
20
-5.00614648092645
30
0
41
1
10
69.2641543305468
20
-5.00716576452592
30
0
41
1
10
69.2616456347574
20
-5.00804958737362
30
0
0
SPLINE
5
CD
100
AcDbEntity
8
1
62
256
6
ByLayer
370
-1
48
1
60
0
100
AcDbSpline
70
4
71
3
72
34
73
30
40
0
40
0
40
0
40
0
40
0.0489352209447606
40
0.0489352209447606
40
0.117200042217474
40
0.117200042217474
40
0.171506955646189
40
0.171506955646189
40
0.225668649239193
40
0.225668649239193
40
0.279765320459263
40
0.279765320459263
40
0.373225321592476
40
0.373225321592476
40
0.466583477789642
40
0.466583477789642
40
0.559915867375182
40
0.559915867375182
40
0.653268378335581
40
0.653268378335581
40
0.744703146931353
40
0.744703146931353
40
0.818565955739585
40
0.818565955739585
40
0.87558457760977
40
0.87558457760977
40
0.965112275153935
40
0.965112275153935
40
1
40
1
40
1
40
1
41
1
10
68.9275131701543
20
-4.66540544221104
30
0
41
1
10
68.924236024021
20
-4.67234352263503
30
0
41
1
10
68.9192603883242
20
-4.67857517374699
30
0
41
1
10
68.9050988973129
20
-4.69113758686711
30
0
41
1
10
68.8948490314446
20
-4.69683183549034
30
0
41
1
10
68.8751768199064
20
-4.70467352589773
30
0
41
1
10
68.8658550813692
20
-4.70737013602545
30
0
41
1
10
68.8467185112339
20
-4.71150988783543
30
0
41
1
10
68.8368419091013
20
-4.71296801730625
30
0
41
1
10
68.8168116681372
20
-4.71489721126764
30
0
41
1
10
68.8066174354273
20
-4.71537202361316
30
0
41
1
10
68.7786494523931
20
-4.71554769683553
30
0
41
1
10
68.7606226290162
20
-4.71444416194981
30
0
41
1
10
68.7246845780211
20
-4.71030455570011
30
0
41
1
10
68.7066526021698
20
-4.70725265219113
30
0
41
1
10
68.6710568458587
20
-4.69946136199312
30
0
41
1
10
68.6533892374761
20
-4.69469877684122
30
0
41
1
10
68.6188997611154
20
-4.68358991560126
30
0
41
1
10
68.6019763353472
20
-4.67721172859572
30
0
41
1
10
68.5697829403042
20
-4.66300575777612
30
0
41
1
10
68.5543789138148
20
-4.65516709520736
30
0
41
1
10
68.5282574956785
20
-4.63947106501891
30
0
41
1
10
68.5171334719203
20
-4.63186196761171
30
0
41
1
10
68.499079244622
20
-4.61725381058804
30
0
41
1
10
68.4917251612791
20
-4.61047207129431
30
0
41
1
10
68.4750698995549
20
-4.59207810705544
30
0
41
1
10
68.4666403316974
20
-4.57951928877139
30
0
41
1
10
68.4607345882071
20
-4.56092511352028
30
0
41
1
10
68.4597141772572
20
-4.55547571533523
30
0
41
1
10
68.459552693343
20
-4.55003100607925
30
0
0
SPLINE
5
CE
100
AcDbEntity
8
1
62
256
6
ByLayer
370
-1
48
1
60
0
100
AcDbSpline
70
4
71
3
72
34
73
30
40
0
40
0
40
0
40
0
40
0.0495805136006325
40
0.0495805136006325
40
0.129698637862899
40
0.129698637862899
40
0.194505892890729
40
0.194505892890729
40
0.259150175590051
40
0.259150175590051
40
0.323725661313804
40
0.323725661313804
40
0.425534197335321
40
0.425534197335321
40
0.52728243505443
40
0.52728243505443
40
0.629041292371943
40
0.629041292371943
40
0.724169483475053
40
0.724169483475053
40
0.80289633050144
40
0.80289633050144
40
0.863925138213193
40
0.863925138213193
40
0.910648821183512
40
0.910648821183512
40
0.947136701919255
40
0.947136701919255
40
1
40
1
40
1
40
1
41
1
10
68.4580329210687
20
-6.39055061596503
30
0
41
1
10
68.4577040039782
20
-6.38180734295119
30
0
41
1
10
68.4557177861334
20
-6.37304860086732
30
0
41
1
10
68.4476658471549
20
-6.35143536351254
30
0
41
1
10
68.4398008975004
20
-6.33892262367408
30
0
41
1
10
68.4231469849582
20
-6.31838076853396
30
0
41
1
10
68.4146759705928
20
-6.30979032911327
30
0
41
1
10
68.3965786874224
20
-6.2938600343071
30
0
41
1
10
68.3868931708283
20
-6.28646745361991
30
0
41
1
10
68.3667132733827
20
-6.27277623547212
30
0
41
1
10
68.3561755539952
20
-6.26644888496853
30
0
41
1
10
68.3282978047557
20
-6.25146641374616
30
0
41
1
10
68.3104168760103
20
-6.24349941561135
30
0
41
1
10
68.2738707336071
20
-6.2299962596548
30
0
41
1
10
68.2550786956797
20
-6.22441463315175
30
0
41
1
10
68.217181670964
20
-6.21575172396214
30
0
41
1
10
68.1979506293663
20
-6.21264091409716
30
0
41
1
10
68.1608988447763
20
-6.20927576435002
30
0
41
1
10
68.1429469925657
20
-6.20883466307882
30
0
41
1
10
68.110704264087
20
-6.2106022755753
30
0
41
1
10
68.096221236102
20
-6.21237150281087
30
0
41
1
10
68.0712960479656
20
-6.21763795658993
30
0
41
1
10
68.0606117836882
20
-6.22067264997651
30
0
41
1
10
68.0425951033525
20
-6.22763144222478
30
0
41
1
10
68.0350194032177
20
-6.23120030056131
30
0
41
1
10
68.02236056843
20
-6.23871411539491
30
0
41
1
10
68.0170640366216
20
-6.24242687395792
30
0
41
1
10
68.0052182668888
20
-6.25258577134554
30
0
41
1
10
67.9990229782843
20
-6.25965696679046
30
0
41
1
10
67.9944560918622
20
-6.26763858436101
30
0
0
SPLINE
5
CF
100
AcDbEntity
8
1
62
256
6
ByLayer
370
-1
48
1
60
0
100
AcDbSpline
70
4
71
3
72
22
73
18
40
0
40
0
40
0
40
0
40
0.0991354884057905
40
0.0991354884057905
40
0.206229847798464
40
0.206229847798464
40
0.367627630829816
40
0.367627630829816
40
0.507529288577921
40
0.507529288577921
40
0.647011593775974
40
0.647011593775974
40
0.786332448949181
40
0.786332448949181
40
0.892876682572509
40
0.892876682572509
40
1
40
1
40
1
40
1
41
1
10
67.6467610534186
20
-5.93587500142075
30
0
41
1
10
67.640353448315
20
-5.94275816502164
30
0
41
1
10
67.6352321108468
20
-5.95131621400955
30
0
41
1
10
67.6280833202694
20
-5.9704953667345
30
0
41
1
10
67.6261698570298
20
-5.98148373880133
30
0
41
1
10
67.6249642641271
20
-6.00895648127454
30
0
41
1
10
67.6273306990429
20
-6.02592071229739
30
0
41
1
10
67.6349750348496
20
-6.05638452088473
30
0
41
1
10
67.6398984622525
20
-6.0703080171196
30
0
41
1
10
67.6515101571921
20
-6.09721382985586
30
0
41
1
10
67.6582356158001
20
-6.11028360868744
30
0
41
1
10
67.6730196630086
20
-6.13553059404737
30
0
41
1
10
67.6811065064136
20
-6.14775443368731
30
0
41
1
10
67.6963516046259
20
-6.16854969779541
30
0
41
1
10
67.7032955190132
20
-6.17732109475952
30
0
41
1
10
67.7178071556485
20
-6.19437501422243
30
0
41
1
10
67.7253881933415
20
-6.20266640938095
30
0
41
1
10
67.7332438339101
20
-6.21066710061302
30
0
0
SPLINE
5
D0
100
AcDbEntity
8
1
62
256
6
ByLayer
370
-1
48
1
60
0
100
AcDbSpline
70
4
71
3
72
22
73
18
40
0
40
0
40
0
40
0
40
0.0991354884082543
40
0.0991354884082543
40
0.206229847803636
40
0.206229847803636
40
0.367627630838845
40
0.367627630838845
40
0.507529288590325
40
0.507529288590325
40
0.647011593791691
40
0.647011593791691
40
0.78633244896817
40
0.78633244896817
40
0.892876682583459
40
0.892876682583459
40
1
40
1
40
1
40
1
41
1
10
68.9275131701544
20
-4.6654054422111
30
0
41
1
10
68.9338623150405
20
-4.65963427377946
30
0
41
1
10
68.9419173305527
20
-4.65512175653973
30
0
41
1
10
68.9602051279426
20
-4.64906853972144
30
0
41
1
10
68.9708011952301
20
-4.64764781440954
30
0
41
1
10
68.9974710358805
20
-4.6474689221001
30
0
41
1
10
69.0140930292411
20
-4.65029204586486
30
0
41
1
10
69.0440797258692
20
-4.65859286995772
30
0
41
1
10
69.0578437626416
20
-4.66374673392554
30
0
41
1
10
69.0845126198232
20
-4.67571627130727
30
0
41
1
10
69.0975043666062
20
-4.6825700710499
30
0
41
1
10
69.1226520958037
20
-4.6975365795584
30
0
41
1
10
69.1348546772952
20
-4.70567772444088
30
0
41
1
10
69.1556515069349
20
-4.72096582936544
30
0
41
1
10
69.1644366540071
20
-4.72791077603591
30
0
41
1
10
69.1815417472426
20
-4.74239206054096
30
0
41
1
10
69.1898707363275
20
-4.74994150925647
30
0
41
1
10
69.1979206692753
20
-4.75774946799024
30
0
0
SPLINE
5
D1
100
AcDbEntity
8
1
62
256
6
ByLayer
370
-1
48
1
60
0
100
AcDbSpline
70
4
71
3
72
34
73
30
40
0
40
0
40
0
40
0
40
0.0493619475591485
40
0.0493619475591485
40
0.12553990166444
40
0.12553990166444
40
0.186980193980792
40
0.186980193980792
40
0.248262181512309
40
0.248262181512309
40
0.340547871918592
40
0.340547871918592
40
0.43270944570446
40
0.43270944570446
40
0.524833165866577
40
0.524833165866577
40
0.616962251766826
40
0.616962251766826
40
0.709145696793706
40
0.709145696793706
40
0.791292482820499
40
0.791292482820499
40
0.854807499469118
40
0.854807499469118
40
0.903519774516141
40
0.903519774516141
40
0.980968575571161
40
0.980968575571161
40
1
40
1
40
1
40
1
41
1
10
69.2644138593902
20
-5.93158442414841
30
0
41
1
10
69.2573028697495
20
-5.92681444868506
30
0
41
1
10
69.2492625066006
20
-5.92347223481838
30
0
41
1
10
69.2283400603548
20
-5.9181768317039
30
0
41
1
10
69.2148317064278
20
-5.9177497037241
30
0
41
1
10
69.1908007804171
20
-5.92011279224585
30
0
41
1
10
69.1800104667877
20
-5.92232411005398
30
0
41
1
10
69.158792975716
20
-5.92836969942402
30
0
41
1
10
69.1482960791724
20
-5.93222289670499
30
0
41
1
10
69.1225160990427
20
-5.9434421514205
30
0
41
1
10
69.1073729688403
20
-5.95164571620791
30
0
41
1
10
69.0781847588299
20
-5.97014489169248
30
0
41
1
10
69.064041299713
20
-5.98050542232502
30
0
41
1
10
69.0370009227153
20
-6.00291900310395
30
0
41
1
10
69.0240279079939
20
-6.01503614795013
30
0
41
1
10
68.9995562386039
20
-6.0406803368918
30
0
41
1
10
68.9879902924677
20
-6.05427737892384
30
0
41
1
10
68.9666609895647
20
-6.08266111275779
30
0
41
1
10
68.9568318125706
20
-6.09753251376335
30
0
41
1
10
68.9404450512204
20
-6.12659097244131
30
0
41
1
10
68.9335955724411
20
-6.14076354679688
30
0
41
1
10
68.9236699747207
20
-6.16644108334975
30
0
41
1
10
68.9200650454895
20
-6.17789112151056
30
0
41
1
10
68.9155138957652
20
-6.1982932437958
30
0
41
1
10
68.9141345813499
20
-6.20725789864676
30
0
41
1
10
68.9126885817205
20
-6.2301991364042
30
0
41
1
10
68.9138385906654
20
-6.24451574558088
30
0
41
1
10
68.9193361586024
20
-6.26067708932621
30
0
41
1
10
68.9206447405267
20
-6.26383976256747
30
0
41
1
10
68.922169346179
20
-6.26687952385262
30
0
0
SPLINE
5
D2
100
AcDbEntity
8
1
62
256
6
ByLayer
370
-1
48
1
60
0
100
AcDbSpline
70
4
71
3
72
22
73
18
40
0
40
0
40
0
40
0
40
0.0986113538167343
40
0.0986113538167343
40
0.183915555259576
40
0.183915555259576
40
0.299837676728675
40
0.299837676728675
40
0.483761977366346
40
0.483761977366346
40
0.582276243914883
40
0.582276243914883
40
0.774222172354081
40
0.774222172354081
40
0.965772861980991
40
0.965772861980991
40
1
40
1
40
1
40
1
41
1
10
69.2644138593899
20
-5.93158442414898
30
0
41
1
10
69.2724119029641
20
-5.93644846335908
30
0
41
1
10
69.2815243282564
20
-5.93966585644782
30
0
41
1
10
69.2988824925201
20
-5.94165470129576
30
0
41
1
10
69.3072781142826
20
-5.94100943533709
30
0
41
1
10
69.3262994772409
20
-5.93646488677467
30
0
41
1
10
69.3369610997006
20
-5.9314819985903
30
0
41
1
10
69.3621940413842
20
-5.9153166479505
30
0
41
1
10
69.3759989623097
20
-5.90203103737727
30
0
41
1
10
69.3945874114256
20
-5.87973082788832
30
0
41
1
10
69.4006659070801
20
-5.87147181966677
30
0
41
1
10
69.4173554537838
20
-5.84632304097127
30
0
41
1
10
69.4269094340814
20
-5.82855282216062
30
0
41
1
10
69.4433757849265
20
-5.79191864893289
30
0
41
1
10
69.4503392856437
20
-5.77293363323216
30
0
41
1
10
69.4570826163165
20
-5.75013112157075
30
0
41
1
10
69.4580666625612
20
-5.746656323688
30
0
41
1
10
69.4590107934245
20
-5.74316963456889
30
0
0
SPLINE
5
D3
100
AcDbEntity
8
1
62
256
6
ByLayer
370
-1
48
1
60
0
100
AcDbSpline
70
4
71
3
72
24
73
20
40
0
40
0
40
0
40
0
40
0.157270274861348
40
0.157270274861348
40
0.348947819422665
40
0.348947819422665
40
0.444423884712512
40
0.444423884712512
40
0.53998060300658
40
0.53998060300658
40
0.635702979481823
40
0.635702979481823
40
0.713564009711153
40
0.713564009711153
40
0.838051309004041
40
0.838051309004041
40
0.92425290243414
40
0.92425290243414
40
1
40
1
40
1
40
1
41
1
10
67.4599511300074
20
-5.21314209857502
30
0
41
1
10
67.4642828667841
20
-5.19714494958268
30
0
41
1
10
67.4694505522477
20
-5.18130940721983
30
0
41
1
10
67.4827487157553
20
-5.14688388232202
30
0
41
1
10
67.4913114187321
20
-5.12834548688056
30
0
41
1
10
67.5061871250016
20
-5.10174487400204
30
0
41
1
10
67.5114932174051
20
-5.09306595723061
30
0
41
1
10
67.5228616160913
20
-5.0762436721252
30
0
41
1
10
67.5289402757595
20
-5.06807601910722
30
0
41
1
10
67.5419415641362
20
-5.05251917900577
30
0
41
1
10
67.5488959726479
20
-5.0450935746394
30
0
41
1
10
67.562333076515
20
-5.03273429000248
30
0
41
1
10
67.5686971397744
20
-5.02756470374362
30
0
41
1
10
67.5858763479173
20
-5.01577088704957
30
0
41
1
10
67.5974373638603
20
-5.00991031127731
30
0
41
1
10
67.6172342420298
20
-5.00459031138178
30
0
41
1
10
67.625589448289
20
-5.00370863470067
30
0
41
1
10
67.6404094921207
20
-5.00492957297544
30
0
41
1
10
67.6471233093402
20
-5.00669159948168
30
0
41
1
10
67.6532097821404
20
-5.00942823741789
30
0
0
SPLINE
5
D4
100
AcDbEntity
8
1
62
256
6
ByLayer
370
-1
48
1
60
0
100
AcDbSpline
70
4
71
3
72
34
73
30
40
0
40
0
40
0
40
0
40
0.0484619167057207
40
0.0484619167057207
40
0.123250895849104
40
0.123250895849104
40
0.183570929309606
40
0.183570929309606
40
0.243735544402745
40
0.243735544402745
40
0.303833391333582
40
0.303833391333582
40
0.401539481582282
40
0.401539481582282
40
0.499173133035506
40
0.499173133035506
40
0.596804264320122
40
0.596804264320122
40
0.692486849042132
40
0.692486849042132
40
0.77326782940838
40
0.77326782940838
40
0.836555694129305
40
0.836555694129305
40
0.88495469123266
40
0.88495469123266
40
0.961866476551733
40
0.961866476551733
40
1
40
1
40
1
40
1
41
1
10
67.5281601148042
20
-5.47123683625918
30
0
41
1
10
67.5363258020501
20
-5.47051729488527
30
0
41
1
10
67.544570805727
20
-5.47149295757254
30
0
41
1
10
67.5643896376965
20
-5.47699963290484
30
0
41
1
10
67.5757467839129
20
-5.48316530453579
30
0
41
1
10
67.5944614248068
20
-5.49686188545559
30
0
41
1
10
67.6023160497138
20
-5.50401669295078
30
0
41
1
10
67.616959928995
20
-5.51957050966928
30
0
41
1
10
67.6237977024213
20
-5.52801979408966
30
0
41
1
10
67.6365552469156
20
-5.54582111561135
30
0
41
1
10
67.6425013218147
20
-5.55521061950449
30
0
41
1
10
67.6570012816402
20
-5.58074141600514
30
0
41
1
10
67.6649320459377
20
-5.59754469524231
30
0
41
1
10
67.6787064352999
20
-5.63228779117779
30
0
41
1
10
67.6845958804678
20
-5.65034743973087
30
0
41
1
10
67.694252842213
20
-5.68714828220399
30
0
41
1
10
67.6980514639477
20
-5.70600712189184
30
0
41
1
10
67.703276590296
20
-5.74357804054969
30
0
41
1
10
67.7047693601559
20
-5.76241049165972
30
0
41
1
10
67.7051009519203
20
-5.79689969318412
30
0
41
1
10
67.704319159318
20
-5.8126978977277
30
0
41
1
10
67.7008329260586
20
-5.84029447847325
30
0
41
1
10
67.6985711517568
20
-5.8522924797947
30
0
41
1
10
67.6929517297758
20
-5.87273143357825
30
0
41
1
10
67.6899606076197
20
-5.88139641038586
30
0
41
1
10
67.6805339141368
20
-5.902550427215
30
0
41
1
10
67.6729064349541
20
-5.91475429988324
30
0
41
1
10
67.658238523704
20
-5.92883160469896
30
0
41
1
10
67.6527154370532
20
-5.9328775441642
30
0
41
1
10
67.6467610534186
20
-5.93587500142075
30
0
0
SPLINE
5
D5
100
AcDbEntity
8
1
62
256
6
ByLayer
370
-1
48
1
60
0
100
AcDbSpline
70
4
71
3
72
24
73
20
40
0
40
0
40
0
40
0
40
0.157270274759957
40
0.157270274759957
40
0.348947819266982
40
0.348947819266982
40
0.444423884529848
40
0.444423884529848
40
0.539980602796832
40
0.539980602796832
40
0.635702979244875
40
0.635702979244875
40
0.713564009483318
40
0.713564009483318
40
0.838051308771634
40
0.838051308771634
40
0.924252902185203
40
0.924252902185203
40
1
40
1
40
1
40
1
41
1
10
69.4590107934245
20
-5.74316963456889
30
0
41
1
10
69.463342525544
20
-5.7271724843489
30
0
41
1
10
69.4668462951555
20
-5.71089577396049
30
0
41
1
10
69.4726210099883
20
-5.67447549371852
30
0
41
1
10
69.4744800270257
20
-5.65415969352847
30
0
41
1
10
69.4748259480504
20
-5.62370667623694
30
0
41
1
10
69.4745328671872
20
-5.61354320346962
30
0
41
1
10
69.4729897493863
20
-5.59329757918445
30
0
41
1
10
69.4717375679835
20
-5.58318623849155
30
0
41
1
10
69.4680673770025
20
-5.56320914856619
30
0
41
1
10
69.4656396090129
20
-5.55329596867398
30
0
41
1
10
69.4599117219263
20
-5.53585530846553
30
0
41
1
10
69.4568421192887
20
-5.52818449486031
30
0
41
1
10
69.4474230552469
20
-5.50933845409392
30
0
41
1
10
69.4399959888168
20
-5.49844340801323
30
0
41
1
10
69.424786655855
20
-5.48384191633497
30
0
41
1
10
69.4176468469878
20
-5.47885191570478
30
0
41
1
10
69.4035052302413
20
-5.47239400482366
30
0
41
1
10
69.3964573290667
20
-5.47050727095592
30
0
41
1
10
69.3894628053632
20
-5.46977563405716
30
0
0
SPLINE
5
D6
100
AcDbEntity
8
SK1
62
256
6
ByLayer
370
-1
48
1
60
0
100
AcDbSpline
70
4
71
3
72
24
73
20
40
0
40
0
40
0
40
0
40
0.249999999999979
40
0.249999999999979
40
0.374999999999969
40
0.374999999999969
40
0.437499999999963
40
0.437499999999963
40
0.499999999999958
40
0.499999999999958
40
0.531249999999959
40
0.531249999999959
40
0.562499999999959
40
0.562499999999959
40
0.62499999999996
40
0.62499999999996
40
0.749999999999971
40
0.749999999999971
40
1
40
1
40
1
40
1
41
1
10
-24.09
20
0.205965906324167
30
0
41
1
10
-24.4986343160666
20
0.205965906324167
30
0
41
1
10
-24.9071555453884
20
0.19845246957027
30
0
41
1
10
-25.519402880508
20
0.169226931093533
30
0
41
1
10
-25.7231603208427
20
0.156639601260622
30
0
41
1
10
-26.0276543175764
20
0.127755978986897
30
0
41
1
10
-26.1289743184984
20
0.116569291727245
30
0
41
1
10
-26.3306761329202
20
0.0859785784372775
30
0
41
1
10
-26.4456960546667
20
0.0885727858061216
30
0
41
1
10
-26.5668423438154
20
-0.0124242265727048
30
0
41
1
10
-26.4788451746044
20
-0.0482532820602728
30
0
41
1
10
-26.3781780242622
20
-0.0757348561255355
30
0
41
1
10
-26.3269166657975
20
-0.0854113493585658
30
0
41
1
10
-26.1724015195388
20
-0.111238405854749
30
0
41
1
10
-26.0687091696726
20
-0.123262241086934
30
0
41
1
10
-25.7575189776917
20
-0.154299106265057
30
0
41
1
10
-25.5494067051413
20
-0.167490929837783
30
0
41
1
10
-24.9242976335068
20
-0.198188957833537
30
0
41
1
10
-24.5072192765567
20
-0.205965906324138
30
0
41
1
10
-24.09
20
-0.205965906324138
30
0
0
LINE
5
49
100
AcDbEntity
8
1
62
256
6
ByLayer
370
-1
48
1
60
0
100
AcDbLine
10
58.27935
20
6.0425
30
0
11
46.66
21
6.0425
31
0
39
0
210
0
220
0
230
1
0
LINE
5
4A
100
AcDbEntity
8
1
62
256
6
ByLayer
370
-1
48
1
60
0
100
AcDbLine
10
46.66
20
-6.0425
30
0
11
60.27935
21
-6.0425
31
0
39
0
210
0
220
0
230
1
0
LINE
5
4B
100
AcDbEntity
8
1
62
256
6
ByLayer
370
-1
48
1
60
0
100
AcDbLine
10
0
20
-5.9925
30
0
11
46.66
21
-5.9925
31
0
39
0
210
0
220
0
230
1
0
LINE
5
4C
100
AcDbEntity
8
1
62
256
6
ByLayer
370
-1
48
1
60
0
100
AcDbLine
10
46.66
20
5.9925
30
0
11
0
21
5.9925
31
0
39
0
210
0
220
0
230
1
0
LINE
5
4D
100
AcDbEntity
8
1
62
256
6
ByLayer
370
-1
48
1
60
0
100
AcDbLine
10
60.27935
20
-6.0425
30
0
11
62.903319
21
-7.557449
31
0
39
0
210
0
220
0
230
1
0
LINE
5
4E
100
AcDbEntity
8
1
62
256
6
ByLayer
370
-1
48
1
60
0
100
AcDbLine
10
62.903319
20
-7.557449
30
0
11
64.618632
21
-7.709897
31
0
39
0
210
0
220
0
230
1
0
LINE
5
4F
100
AcDbEntity
8
1
62
256
6
ByLayer
370
-1
48
1
60
0
100
AcDbLine
10
65.326902
20
-2.054872
30
0
11
65.256164
21
-2.083522
31
0
39
0
210
0
220
0
230
1
0
LINE
5
50
100
AcDbEntity
8
1
62
256
6
ByLayer
370
-1
48
1
60
0
100
AcDbLine
10
71.109347
20
-2.546827
30
0
11
71.051792
21
-2.534542
31
0
39
0
210
0
220
0
230
1
0
LINE
5
51
100
AcDbEntity
8
1
62
256
6
ByLayer
370
-1
48
1
60
0
100
AcDbLine
10
65.437662
20
-2.046599
30
0
11
65.39204
21
-2.044059
31
0
39
0
210
0
220
0
230
1
0
LINE
5
52
100
AcDbEntity
8
SK1
62
256
6
ByLayer
370
-1
48
1
60
0
100
AcDbLine
10
-108.84
20
5.9925
30
0
11
-109.34
21
5.4925
31
0
39
0
210
0
220
0
230
1
0
LINE
5
54
100
AcDbEntity
8
SK1
62
256
6
ByLayer
370
-1
48
1
60
0
100
AcDbLine
10
-109.34
20
-5.4925
30
0
11
-108.84
21
-5.9925
31
0
39
0
210
0
220
0
230
1
0
LINE
5
55
100
AcDbEntity
8
SK1
62
256
6
ByLayer
370
-1
48
1
60
0
100
AcDbLine
10
-108.84
20
-5.9925
30
0
11
0
21
-5.9925
31
0
39
0
210
0
220
0
230
1
0
LINE
5
56
100
AcDbEntity
8
SK1
62
256
6
ByLayer
370
-1
48
1
60
0
100
AcDbLine
10
0
20
5.9925
30
0
11
-108.84
21
5.9925
31
0
39
0
210
0
220
0
230
1
0
LINE
5
57
100
AcDbEntity
8
1
62
256
6
ByLayer
370
-1
48
1
60
0
100
AcDbLine
10
68.003468
20
-4.7009
30
0
11
67.996025
21
-4.615828
31
0
39
0
210
0
220
0
230
1
0
LINE
5
58
100
AcDbEntity
8
1
62
256
6
ByLayer
370
-1
48
1
60
0
100
AcDbLine
10
66.731046
20
-5.514213
30
0
11
66.739113
21
-5.606414
31
0
39
0
210
0
220
0
230
1
0
LINE
5
59
100
AcDbEntity
8
1
62
256
6
ByLayer
370
-1
48
1
60
0
100
AcDbLine
10
70.175984
20
-5.305726
30
0
11
70.167918
21
-5.213525
31
0
39
0
210
0
220
0
230
1
0
LINE
5
5A
100
AcDbEntity
8
1
62
256
6
ByLayer
370
-1
48
1
60
0
100
AcDbLine
10
69.203063
20
-5.064398
30
0
11
69.212719
21
-5.174766
31
0
39
0
210
0
220
0
230
1
0
LINE
5
5B
100
AcDbEntity
8
1
62
256
6
ByLayer
370
-1
48
1
60
0
100
AcDbLine
10
67.70334
20
-5.748363
30
0
11
67.69368
21
-5.637943
31
0
39
0
210
0
220
0
230
1
0
LINE
5
5C
100
AcDbEntity
8
1
62
256
6
ByLayer
370
-1
48
1
60
0
100
AcDbLine
10
68.903509
20
-6.118421
30
0
11
68.913745
21
-6.235425
31
0
39
0
210
0
220
0
230
1
0
LINE
5
5D
100
AcDbEntity
8
80
62
256
6
ByLayer
370
-1
48
1
60
0
100
AcDbLine
10
0
20
0
30
0
11
-10
21
0
31
0
39
0
210
0
220
0
230
1
0
LINE
5
5E
100
AcDbEntity
8
81
62
256
6
ByLayer
370
-1
48
1
60
0
100
AcDbLine
10
71.91
20
-8.9
30
0
11
81.91
21
-8.9
31
0
39
0
210
0
220
0
230
1
0
LINE
5
5F
100
AcDbEntity
8
SK4
62
256
6
ByLayer
370
-1
48
0.05
60
0
100
AcDbLine
10
-114.34
20
0
30
0
11
76.26343
21
0
31
0
39
0
210
0
220
0
230
1
0
LINE
5
61
100
AcDbEntity
8
4
62
256
6
ByLayer
370
-1
48
0.05
60
0
100
AcDbLine
10
0
20
0
30
0
11
76.26343
21
0
31
0
39
0
210
0
220
0
230
1
0
LINE
5
63
100
AcDbEntity
8
1
62
256
6
ByLayer
370
-1
48
1
60
0
100
AcDbLine
10
46.66
20
-0.303424
30
0
11
55.495247
21
-0.303424
31
0
39
0
210
0
220
0
230
1
0
LINE
5
64
100
AcDbEntity
8
1
62
256
6
ByLayer
370
-1
48
1
60
0
100
AcDbLine
10
0
20
0.205966
30
0
11
46.66
21
0.205966
31
0
39
0
210
0
220
0
230
1
0
LINE
5
65
100
AcDbEntity
8
1
62
256
6
ByLayer
370
-1
48
1
60
0
100
AcDbLine
10
62.903319
20
-7.557449
30
0
11
62.903319
21
-7.557338
31
0
39
0
210
0
220
0
230
1
0
LINE
5
66
100
AcDbEntity
8
1
62
256
6
ByLayer
370
-1
48
1
60
0
100
AcDbLine
10
46.66
20
-0.205966
30
0
11
46.66
21
-0.303424
31
0
39
0
210
0
220
0
230
1
0
LINE
5
67
100
AcDbEntity
8
1
62
256
6
ByLayer
370
-1
48
1
60
0
100
AcDbLine
10
64.454121
20
-2.512676
30
0
11
64.478008
21
-2.785708
31
0
39
0
210
0
220
0
230
1
0
LINE
5
68
100
AcDbEntity
8
1
62
256
6
ByLayer
370
-1
48
1
60
0
100
AcDbLine
10
60.27935
20
-6.0425
30
0
11
60.27935
21
-6.012663
31
0
39
0
210
0
220
0
230
1
0
LINE
5
69
100
AcDbEntity
8
1
62
256
6
ByLayer
370
-1
48
1
60
0
100
AcDbLine
10
65.295819
20
2.61196
30
0
11
70.838628
21
-0.098068
31
0
39
0
210
0
220
0
230
1
0
LINE
5
6A
100
AcDbEntity
8
1
62
256
6
ByLayer
370
-1
48
1
60
0
100
AcDbLine
10
46.66
20
0.303424
30
0
11
46.66
21
6.0425
31
0
39
0
210
0
220
0
230
1
0
LINE
5
6B
100
AcDbEntity
8
1
62
256
6
ByLayer
370
-1
48
1
60
0
100
AcDbLine
10
46.66
20
-6.0425
30
0
11
46.66
21
-0.303424
31
0
39
0
210
0
220
0
230
1
0
LINE
5
6C
100
AcDbEntity
8
1
62
256
6
ByLayer
370
-1
48
1
60
0
100
AcDbLine
10
64.41412
20
-3.504314
30
0
11
64.478008
21
-2.785708
31
0
39
0
210
0
220
0
230
1
0
LINE
5
6D
100
AcDbEntity
8
1
62
256
6
ByLayer
370
-1
48
1
60
0
100
AcDbLine
10
46.66
20
0.303424
30
0
11
46.66
21
0.205966
31
0
39
0
210
0
220
0
230
1
0
LINE
5
6E
100
AcDbEntity
8
1
62
256
6
ByLayer
370
-1
48
1
60
0
100
AcDbLine
10
0
20
-5.9925
30
0
11
0
21
-0.205966
31
0
39
0
210
0
220
0
230
1
0
LINE
5
6F
100
AcDbEntity
8
1
62
256
6
ByLayer
370
-1
48
1
60
0
100
AcDbLine
10
0
20
0.205966
30
0
11
0
21
5.9925
31
0
39
0
210
0
220
0
230
1
0
LINE
5
70
100
AcDbEntity
8
1
62
256
6
ByLayer
370
-1
48
1
60
0
100
AcDbLine
10
0
20
-0.205966
30
0
11
0
21
0.205966
31
0
39
0
210
0
220
0
230
1
0
LINE
5
71
100
AcDbEntity
8
1
62
256
6
ByLayer
370
-1
48
1
60
0
100
AcDbLine
10
60.272101
20
5.06819
30
0
11
65.295819
21
2.61196
31
0
39
0
210
0
220
0
230
1
0
LINE
5
72
100
AcDbEntity
8
1
62
256
6
ByLayer
370
-1
48
1
60
0
100
AcDbLine
10
55.704616
20
0.303424
30
0
11
46.66
21
0.303424
31
0
39
0
210
0
220
0
230
1
0
LINE
5
73
100
AcDbEntity
8
1
62
256
6
ByLayer
370
-1
48
1
60
0
100
AcDbLine
10
62.597644
20
-7.380663
30
0
11
65.295819
21
2.61196
31
0
39
0
210
0
220
0
230
1
0
LINE
5
74
100
AcDbEntity
8
1
62
256
6
ByLayer
370
-1
48
1
60
0
100
AcDbLine
10
46.66
20
-0.205966
30
0
11
0
21
-0.205966
31
0
39
0
210
0
220
0
230
1
0
LINE
5
75
100
AcDbEntity
8
1
62
256
6
ByLayer
370
-1
48
1
60
0
100
AcDbLine
10
58.27935
20
6.0425
30
0
11
60.272101
21
5.06819
31
0
39
0
210
0
220
0
230
1
0
LINE
5
76
100
AcDbEntity
8
1
62
256
6
ByLayer
370
-1
48
1
60
0
100
AcDbLine
10
71.060195
20
-2.539496
30
0
11
65.440649
21
-2.05575
31
0
39
0
210
0
220
0
230
1
0
LINE
5
77
100
AcDbEntity
8
1
62
256
6
ByLayer
370
-1
48
1
60
0
100
AcDbLine
10
71.908501
20
-8.471601
30
0
11
71.420805
21
-2.897207
31
0
39
0
210
0
220
0
230
1
0
LINE
5
78
100
AcDbEntity
8
1
62
256
6
ByLayer
370
-1
48
1
60
0
100
AcDbLine
10
65.010281
20
-2.482663
30
0
11
65.497977
21
-8.057056
31
0
39
0
210
0
220
0
230
1
0
LINE
5
79
100
AcDbEntity
8
1
62
256
6
ByLayer
370
-1
48
1
60
0
100
AcDbLine
10
65.858588
20
-8.414768
30
0
11
71.478133
21
-8.898514
31
0
39
0
210
0
220
0
230
1
0
LINE
5
7A
100
AcDbEntity
8
1
62
256
6
ByLayer
370
-1
48
1
60
0
100
AcDbLine
10
66.471823
20
-2.135553
30
0
11
65.442222
21
-2.046922
31
0
39
0
210
0
220
0
230
1
0
LINE
5
7B
100
AcDbEntity
8
1
62
256
6
ByLayer
370
-1
48
1
60
0
100
AcDbLine
10
71.052041
20
-2.537391
30
0
11
71.060195
21
-2.539496
31
0
39
0
210
0
220
0
230
1
0
LINE
5
7C
100
AcDbEntity
8
1
62
256
6
ByLayer
370
-1
48
1
60
0
100
AcDbLine
10
65.442222
20
-2.046922
30
0
11
65.437661
21
-2.046599
31
0
39
0
210
0
220
0
230
1
0
LINE
5
7D
100
AcDbEntity
8
1
62
256
6
ByLayer
370
-1
48
1
60
0
100
AcDbLine
10
65.3966
20
-2.044382
30
0
11
65.440649
21
-2.05575
31
0
39
0
210
0
220
0
230
1
0
LINE
5
7E
100
AcDbEntity
8
1
62
256
6
ByLayer
370
-1
48
1
60
0
100
AcDbLine
10
65.3966
20
-2.044382
30
0
11
65.442222
21
-2.046922
31
0
39
0
210
0
220
0
230
1
0
LINE
5
7F
100
AcDbEntity
8
1
62
256
6
ByLayer
370
-1
48
1
60
0
100
AcDbLine
10
68.447817
20
-6.27143
30
0
11
68.458238
21
-6.39055
31
0
39
0
210
0
220
0
230
1
0
LINE
5
80
100
AcDbEntity
8
1
62
256
6
ByLayer
370
-1
48
1
60
0
100
AcDbLine
10
69.253973
20
-5.812249
30
0
11
69.264414
21
-5.931584
31
0
39
0
210
0
220
0
230
1
0
LINE
5
81
100
AcDbEntity
8
1
62
256
6
ByLayer
370
-1
48
1
60
0
100
AcDbLine
10
69.251224
20
-4.888929
30
0
11
69.261646
21
-5.00805
31
0
39
0
210
0
220
0
230
1
0
LINE
5
82
100
AcDbEntity
8
1
62
256
6
ByLayer
370
-1
48
1
60
0
100
AcDbLine
10
68.447611
20
-6.27143
30
0
11
68.458033
21
-6.390551
31
0
39
0
210
0
220
0
230
1
0
LINE
5
83
100
AcDbEntity
8
1
62
256
6
ByLayer
370
-1
48
1
60
0
100
AcDbLine
10
68.921933
20
-6.266312
30
0
11
68.921991
21
-6.266982
31
0
39
0
210
0
220
0
230
1
0
LINE
5
84
100
AcDbEntity
8
1
62
256
6
ByLayer
370
-1
48
1
60
0
100
AcDbLine
10
67.984034
20
-6.148518
30
0
11
67.994456
21
-6.267639
31
0
39
0
210
0
220
0
230
1
0
LINE
5
85
100
AcDbEntity
8
1
62
256
6
ByLayer
370
-1
48
1
60
0
100
AcDbLine
10
67.991408
20
-4.625753
30
0
11
67.995594
21
-4.6736
31
0
39
0
210
0
220
0
230
1
0
LINE
5
86
100
AcDbEntity
8
1
62
256
6
ByLayer
370
-1
48
1
60
0
100
AcDbLine
10
67.982391
20
-6.147576
30
0
11
67.992812
21
-6.266696
31
0
39
0
210
0
220
0
230
1
0
LINE
5
87
100
AcDbEntity
8
1
62
256
6
ByLayer
370
-1
48
1
60
0
100
AcDbLine
10
67.51772
20
-5.351901
30
0
11
67.52816
21
-5.471237
31
0
39
0
210
0
220
0
230
1
0
LINE
5
88
100
AcDbEntity
8
SK1
62
256
6
ByLayer
370
-1
48
1
60
0
100
AcDbLine
10
-24.09
20
0.205966
30
0
11
-24.09
21
-0.205966
31
0
39
0
210
0
220
0
230
1
0
LINE
5
89
100
AcDbEntity
8
SK1
62
256
6
ByLayer
370
-1
48
1
60
0
100
AcDbLine
10
-24.09
20
0.205966
30
0
11
0
21
0.205966
31
0
39
0
210
0
220
0
230
1
0
LINE
5
8A
100
AcDbEntity
8
SK1
62
256
6
ByLayer
370
-1
48
1
60
0
100
AcDbLine
10
-108.84
20
5.9925
30
0
11
-108.84
21
-5.9925
31
0
39
0
210
0
220
0
230
1
0
LINE
5
8B
100
AcDbEntity
8
SK1
62
256
6
ByLayer
370
-1
48
1
60
0
100
AcDbLine
10
-109.34
20
5.4925
30
0
11
-109.34
21
-5.4925
31
0
39
0
210
0
220
0
230
1
0
LINE
5
8C
100
AcDbEntity
8
SK1
62
256
6
ByLayer
370
-1
48
1
60
0
100
AcDbLine
10
0
20
-5.9925
30
0
11
0
21
-0.205966
31
0
39
0
210
0
220
0
230
1
0
LINE
5
8D
100
AcDbEntity
8
SK1
62
256
6
ByLayer
370
-1
48
1
60
0
100
AcDbLine
10
0
20
0.205966
30
0
11
0
21
5.9925
31
0
39
0
210
0
220
0
230
1
0
LINE
5
8E
100
AcDbEntity
8
SK1
62
256
6
ByLayer
370
-1
48
1
60
0
100
AcDbLine
10
0
20
-0.205966
30
0
11
-24.09
21
-0.205966
31
0
39
0
210
0
220
0
230
1
0
LINE
5
8F
100
AcDbEntity
8
SK1
62
256
6
ByLayer
370
-1
48
1
60
0
100
AcDbLine
10
0
20
-0.205966
30
0
11
0
21
0.205966
31
0
39
0
210
0
220
0
230
1
0
LINE
5
90
100
AcDbEntity
8
2
62
256
6
ByLayer
370
-1
48
1
60
1
100
AcDbLine
10
71.91
20
0
30
0
11
71.911
21
0.001
31
0
39
0
210
0
220
0
230
1
0
MTEXT
5
D7
100
AcDbEntity
8
SK6
62
256
6
ByLayer
370
-1
48
1
60
0
100
AcDbMText
10
-15.34
20
13.644921
30
0
210
0
220
0
230
1
1
\W00.732;\fsimplex.shx,bigfont.shx;E12Q-SCLCL 06-R 
40
3.5
41
0
44
1.084337
50
0
71
7
72
5
7
DEFAULT
0
DIMENSION
5
10A
100
AcDbEntity
8
2
62
256
6
ByLayer
370
-3
48
1
60
0
100
AcDbDimension
2
DimnDraft3D1
10
84.16
20
0
30
0
11
84.16
21
-26.177368
31
0
70
32
71
5
72
1
41
1
210
0
220
0
230
1
3
Standard
100
AcDbAlignedDimension
13
73.91
23
-8.9
33
0
14
73.91
24
0
34
0
50
90
100
AcDbRotatedDimension
1001
ACAD
1000
DSTYLE
1002
{
1070
    74
1070
     0
1070
   279
1070
     0
1070
   172
1070
     1
1070
   173
1070
     1
1070
   340
1005
D8
1070
    77
1070
     1
1070
    73
1070
     0
1070
   171
1070
     4
1070
   274
1070
     4
1070
   177
1070
     2
1070
   176
1070
     2
1070
   178
1070
     7
1070
    78
1070
     8
1070
    41
1041
3.175
1070
   147
1041
2.25
1070
    42
1041
2.0
1070
    44
1041
2.0
1070
   140
1041
4.5
1070
   343
1005
10B
1070
   344
1005
10B
1002
}
0
DIMENSION
5
120
100
AcDbEntity
8
SK2
62
256
6
ByLayer
370
-3
48
1
60
0
100
AcDbDimension
2
DimnDraft3D2
10
-119.09
20
5.9925
30
0
11
-119.09
21
16.2475
31
0
70
32
71
5
72
1
41
1
210
0
220
0
230
1
3
Standard
100
AcDbAlignedDimension
13
-111.34
23
-5.9925
33
0
14
-111.34
24
5.9925
34
0
50
90
100
AcDbRotatedDimension
1001
ACAD
1000
DSTYLE
1002
{
1070
    74
1070
     0
1070
   279
1070
     0
1070
   172
1070
     1
1070
   173
1070
     1
1070
   340
1005
D8
1070
    77
1070
     1
1070
    73
1070
     0
1070
   171
1070
     4
1070
   274
1070
     4
1070
   177
1070
     2
1070
   176
1070
     2
1070
   178
1070
     7
1070
    78
1070
     8
1070
    41
1041
3.175
1070
   147
1041
2.25
1070
    42
1041
2.0
1070
    44
1041
2.0
1070
   140
1041
4.5
1070
   343
1005
10B
1070
   344
1005
10B
1002
}
0
DIMENSION
5
12E
100
AcDbEntity
8
SK2
62
256
6
ByLayer
370
-3
48
1
60
0
100
AcDbDimension
2
DimnDraft3D3
10
71.91
20
-26.15
30
0
11
-24.967632
21
-26.15
31
0
70
32
71
5
72
1
41
1
210
0
220
0
230
1
3
Standard
100
AcDbAlignedDimension
13
-109.34
23
-7.9925
33
0
14
71.91
24
-10.9
34
0
50
0
100
AcDbRotatedDimension
1001
ACAD
1000
DSTYLE
1002
{
1070
   279
1070
     0
1070
   172
1070
     1
1070
   173
1070
     1
1070
   340
1005
D8
1070
    77
1070
     1
1070
    73
1070
     0
1070
   171
1070
     4
1070
   274
1070
     4
1070
   177
1070
     2
1070
   176
1070
     2
1070
   178
1070
     7
1070
    78
1070
     8
1070
    41
1041
3.175
1070
   147
1041
2.25
1070
    42
1041
2.0
1070
    44
1041
2.0
1070
   140
1041
4.5
1070
   343
1005
10B
1070
   344
1005
10B
1002
}
0
DIMENSION
5
13C
100
AcDbEntity
8
2
62
256
6
ByLayer
370
-3
48
1
60
0
100
AcDbDimension
2
DimnDraft3D4
10
111.057758
20
0
30
0
11
93.576905
21
33.925375
31
0
70
34
71
5
72
1
41
1
210
0
220
0
230
1
3
Standard
100
AcDb2LineAngularDimension
13
71.212754
23
-0.930442
33
0
14
67.651535
24
39.774475
34
0
15
73.91
25
0
35
0
16
99.794216
26
31.280028
36
0
40
0
0
ENDSEC
0
SECTION
2
OBJECTS
0
DICTIONARY
5
16d
330
0
100
AcDbDictionary
280
0
281
1
3
ACAD_GROUP
350
16e
3
ACAD_MLINESTYLE
350
16f
0
DICTIONARY
5
16e
330
0
100
AcDbDictionary
280
0
281
1
0
DICTIONARY
5
16f
330
0
100
AcDbDictionary
280
0
281
1
3
Standard
350
18
0
MLINESTYLE
5
18
330
16f
100
AcDbMlineStyle
2
Standard
70
0
3

62
256
51
90
52
90
71
2
49
-0.5
62
256
6
ByLayer
49
0.5
62
256
6
ByLayer
0
RASTERVARIABLES
5
15b
330

100
AcDbRasterVariables
90
0
70
1
71
1
72
1
0
ENDSEC
0
EOF
