0
SECTION
2
HEADER
9
$ACADVER
1
AC1015
9
$DWGCODEPAGE
3
ANSI_1252
9
$HANDSEED
5
181
9
$ANGBASE
50
0
9
$ANGDIR
70
0
9
$ATTMODE
70
1
9
$AUNITS
70
0
9
$AUPREC
70
0
9
$CECOLOR
62
256
9
$CELTSCALE
40
1
9
$CELTYPE
6
ByLayer
9
$CELWEIGHT
370
-1
9
$CLAYER
8
0
9
$CMLJUST
70
0
9
$CMLSCALE
40
1
9
$CMLSTYLE
2
Standard
9
$DIMSTYLE
2
Standard
9
$TEXTSIZE
40
0.2
9
$TEXTSTYLE
7
Standard
9
$LUNITS
70
2
9
$LUPREC
70
4
9
$EXTNAMES
290
1
9
$INSUNITS
70
4
9
$LTSCALE
40
1
9
$LWDISPLAY
290
0
9
$PDMODE
70
0
9
$PDSIZE
40
0
9
$PLINEGEN
70
0
0
ENDSEC
0
SECTION
2
CLASSES
0
CLASS
1
RASTERVARIABLES
2
AcDbRasterVariables
3
ISM
90
0
280
0
281
0
0
ENDSEC
0
SECTION
2
TABLES
0
TABLE
2
VPORT
5
177
100
AcDbSymbolTable
0
VPORT
5
1
100
AcDbSymbolTableRecord
100
AcDbViewportTableRecord
2
*Active
70
0
10
0
20
0
11
1
21
1
12
-1
22
1
13
0
23
0
14
0.5
24
0.5
15
10
25
10
16
0
26
0
36
1
17
0
27
0
37
0
0
ENDTAB
0
TABLE
2
LTYPE
5
178
100
AcDbSymbolTable
0
LTYPE
5
14
100
AcDbSymbolTableRecord
100
AcDbLinetypeTableRecord
70
0
2
ByBlock
3

72
65
73
0
40
0
0
LTYPE
5
15
100
AcDbSymbolTableRecord
100
AcDbLinetypeTableRecord
70
0
2
ByLayer
3

72
65
73
0
40
0
0
LTYPE
5
16
100
AcDbSymbolTableRecord
100
AcDbLinetypeTableRecord
70
0
2
CONTINUOUS
3
Solid line
72
65
73
0
40
0
0
LTYPE
5
3B
100
AcDbSymbolTableRecord
100
AcDbLinetypeTableRecord
70
0
2
DASHED
3
__ __ __ __ __ __ __ __ __
72
65
73
2
40
25.72
49
12.86
74
0
49
-12.86
74
0
0
LTYPE
5
3C
100
AcDbSymbolTableRecord
100
AcDbLinetypeTableRecord
70
0
2
HIDDEN
3
_ _ _ _ _ _ _ _ _ _ _ _ _ _ _
72
65
73
2
40
0.5
49
0.25
74
0
49
-0.25
74
0
0
LTYPE
5
3D
100
AcDbSymbolTableRecord
100
AcDbLinetypeTableRecord
70
0
2
PHANTOM
3
____ _ _ ____ _ _ _____ _ _ ____
72
65
73
6
40
50.5
49
18
74
0
49
-6.5
74
0
49
6.5
74
0
49
-6.5
74
0
49
6.5
74
0
49
-6.5
74
0
0
LTYPE
5
3E
100
AcDbSymbolTableRecord
100
AcDbLinetypeTableRecord
70
0
2
CENTER
3
____ _ ____ _ ____ _ ____
72
65
73
4
40
47.5
49
22
74
0
49
-8.5
74
0
49
8.5
74
0
49
-8.5
74
0
0
LTYPE
5
3F
100
AcDbSymbolTableRecord
100
AcDbLinetypeTableRecord
70
0
2
DOT
3
.........................
72
65
73
2
40
10
49
0
74
0
49
-10
74
0
0
LTYPE
5
40
100
AcDbSymbolTableRecord
100
AcDbLinetypeTableRecord
70
0
2
DASHDOT
3
_._._._._._._._._._._._._._._._.
72
65
73
4
40
70
49
31
74
0
49
-13
74
0
49
13
74
0
49
-13
74
0
0
ENDTAB
0
TABLE
2
LAYER
5
179
100
AcDbSymbolTable
0
LAYER
5
10
100
AcDbSymbolTableRecord
100
AcDbLayerTableRecord
2
0
70
0
62
7
6
CONTINUOUS
290
1
370
-3
390
0
0
LAYER
5
42
100
AcDbSymbolTableRecord
100
AcDbLayerTableRecord
2
80
70
0
62
-6
6
CONTINUOUS
290
1
370
-3
390
0
0
LAYER
5
44
100
AcDbSymbolTableRecord
100
AcDbLayerTableRecord
2
81
70
0
62
-3
6
CONTINUOUS
290
1
370
-3
390
0
0
LAYER
5
46
100
AcDbSymbolTableRecord
100
AcDbLayerTableRecord
2
1
70
0
62
4
6
CONTINUOUS
290
1
370
-3
390
0
0
LAYER
5
48
100
AcDbSymbolTableRecord
100
AcDbLayerTableRecord
2
2
70
0
62
7
6
CONTINUOUS
290
1
370
-3
390
0
0
LAYER
5
4F
100
AcDbSymbolTableRecord
100
AcDbLayerTableRecord
2
4
70
0
62
-2
6
CENTER
290
1
370
-3
390
0
0
LAYER
5
163
100
AcDbSymbolTableRecord
100
AcDbLayerTableRecord
2
SK4
70
0
62
2
6
CENTER
290
1
370
-3
390
0
0
LAYER
5
164
100
AcDbSymbolTableRecord
100
AcDbLayerTableRecord
2
SK1
70
0
62
4
6
CONTINUOUS
290
1
370
-3
390
0
0
LAYER
5
165
100
AcDbSymbolTableRecord
100
AcDbLayerTableRecord
2
SK6
70
0
62
5
6
CONTINUOUS
290
1
370
-3
390
0
0
LAYER
5
166
100
AcDbSymbolTableRecord
100
AcDbLayerTableRecord
2
SK2
70
0
62
7
6
CONTINUOUS
290
1
370
-3
390
0
0
ENDTAB
0
TABLE
2
STYLE
5
17a
100
AcDbSymbolTable
0
STYLE
5
11
100
AcDbSymbolTableRecord
100
AcDbTextStyleTableRecord
2
Standard
3
txt
70
0
71
0
40
0
41
1
42
0
50
0
0
STYLE
5
DF
100
AcDbSymbolTableRecord
100
AcDbTextStyleTableRecord
2
DEFAULT
3
simplex.shx
70
0
71
0
40
0
41
1
42
0
50
0
0
STYLE
5
102
100
AcDbSymbolTableRecord
100
AcDbTextStyleTableRecord
2
DWGDirectTextStyle
3
SIMPLEX
70
0
71
0
40
0
41
1
42
0
50
0
0
ENDTAB
0
TABLE
2
DIMSTYLE
5
17b
100
AcDbSymbolTable
100
AcDbDimStyleTable
0
DIMSTYLE
105
27
100
AcDbSymbolTableRecord
100
AcDbDimStyleTableRecord
2
Standard
70
0
3
<>
41
0.18
42
0.0625
44
0.18
140
0.18
147
0.09
73
0
74
0
77
1
271
2
275
0
278
52
280
0
340
11
0
ENDTAB
0
TABLE
2
VIEW
5
17c
100
AcDbSymbolTable
0
ENDTAB
0
TABLE
2
UCS
5
17d
100
AcDbSymbolTable
0
ENDTAB
0
TABLE
2
APPID
5
17e
100
AcDbSymbolTable
0
APPID
5
12
100
AcDbSymbolTableRecord
100
AcDbRegAppTableRecord
2
ACAD
70
0
0
ENDTAB
0
TABLE
2
BLOCK_RECORD
5
17f
100
AcDbSymbolTable
0
BLOCK_RECORD
5
1F
100
AcDbSymbolTableRecord
100
AcDbBlockTableRecord
2
*Model_Space
340
0
70
0
0
BLOCK_RECORD
5
1B
100
AcDbSymbolTableRecord
100
AcDbBlockTableRecord
2
*Paper_Space
340
0
70
0
0
BLOCK_RECORD
5
23
100
AcDbSymbolTableRecord
100
AcDbBlockTableRecord
2
*Paper_Space0
340
0
70
0
0
BLOCK_RECORD
5
104
100
AcDbSymbolTableRecord
100
AcDbBlockTableRecord
2
DimnDraft3D1
340
0
70
0
0
BLOCK_RECORD
5
112
100
AcDbSymbolTableRecord
100
AcDbBlockTableRecord
2
_CLOSED
340
0
70
0
0
BLOCK_RECORD
5
119
100
AcDbSymbolTableRecord
100
AcDbBlockTableRecord
2
DimnDraft3D2
340
0
70
0
0
BLOCK_RECORD
5
128
100
AcDbSymbolTableRecord
100
AcDbBlockTableRecord
2
DimnDraft3D3
340
0
70
0
0
BLOCK_RECORD
5
136
100
AcDbSymbolTableRecord
100
AcDbBlockTableRecord
2
DimnDraft3D4
340
0
70
0
0
ENDTAB
0
ENDSEC
0
SECTION
2
BLOCKS
0
BLOCK
5
20
100
AcDbEntity
8
0
100
AcDbBlockBegin
2
*Model_Space
70
0
10
0
20
0
30
0
3
*Model_Space
0
ENDBLK
5
21
100
AcDbEntity
8
0
100
AcDbBlockEnd
0
BLOCK
5
1C
100
AcDbEntity
8
0
100
AcDbBlockBegin
2
*Paper_Space
70
0
10
0
20
0
30
0
3
*Paper_Space
0
ENDBLK
5
1D
100
AcDbEntity
8
0
100
AcDbBlockEnd
0
BLOCK
5
24
100
AcDbEntity
8
0
100
AcDbBlockBegin
2
*Paper_Space0
70
0
10
0
20
0
30
0
3
*Paper_Space0
0
ENDBLK
5
25
100
AcDbEntity
8
0
100
AcDbBlockEnd
0
BLOCK
5
10F
100
AcDbEntity
8
0
100
AcDbBlockBegin
2
DimnDraft3D1
70
0
10
0
20
0
30
0
3
DimnDraft3D1
0
MTEXT
5
105
100
AcDbEntity
8
2
62
256
6
ByLayer
370
-1
48
1
60
0
100
AcDbMText
10
71.05
20
20.28
30
0
210
0
220
0
230
1
1
\W01.000;\fsimplex.shx,bigfont.shx;9.0 
40
4.5
41
0
44
1.084337
50
90
71
7
72
5
7
DEFAULT
0
LINE
5
106
100
AcDbEntity
8
2
62
256
6
ByLayer
370
-1
48
1
60
0
100
AcDbLine
10
61.925
20
8.9
30
0
11
74.175
21
8.9
31
0
39
0
210
0
220
0
230
1
0
LINE
5
107
100
AcDbEntity
8
2
62
256
6
ByLayer
370
-1
48
1
60
0
100
AcDbLine
10
61.925
20
0
30
0
11
74.175
21
0
31
0
39
0
210
0
220
0
230
1
0
LINE
5
108
100
AcDbEntity
8
2
62
256
6
ByLayer
370
-1
48
1
60
0
100
AcDbLine
10
72.175
20
0
30
0
11
72.175
21
26.177368
31
0
39
0
210
0
220
0
230
1
0
LINE
5
109
100
AcDbEntity
8
2
62
256
6
ByLayer
370
-1
48
1
60
0
100
AcDbLine
10
72.175
20
8.9
30
0
11
72.592997
21
5.725002
31
0
39
0
210
0
220
0
230
1
0
LINE
5
10A
100
AcDbEntity
8
2
62
256
6
ByLayer
370
-1
48
1
60
0
100
AcDbLine
10
72.175
20
8.9
30
0
11
71.757003
21
5.724998
31
0
39
0
210
0
220
0
230
1
0
LINE
5
10B
100
AcDbEntity
8
2
62
256
6
ByLayer
370
-1
48
1
60
0
100
AcDbLine
10
72.592997
20
5.725002
30
0
11
71.757003
21
5.724998
31
0
39
0
210
0
220
0
230
1
0
LINE
5
10C
100
AcDbEntity
8
2
62
256
6
ByLayer
370
-1
48
1
60
0
100
AcDbLine
10
72.175
20
0
30
0
11
71.757003
21
3.174998
31
0
39
0
210
0
220
0
230
1
0
LINE
5
10D
100
AcDbEntity
8
2
62
256
6
ByLayer
370
-1
48
1
60
0
100
AcDbLine
10
72.175
20
0
30
0
11
72.592997
21
3.175002
31
0
39
0
210
0
220
0
230
1
0
LINE
5
10E
100
AcDbEntity
8
2
62
256
6
ByLayer
370
-1
48
1
60
0
100
AcDbLine
10
71.757003
20
3.174998
30
0
11
72.592997
21
3.175002
31
0
39
0
210
0
220
0
230
1
0
ENDBLK
5
110
100
AcDbEntity
8
0
100
AcDbBlockEnd
0
BLOCK
5
113
100
AcDbEntity
8
0
100
AcDbBlockBegin
2
_CLOSED
70
0
10
0
20
0
30
0
3
_CLOSED
0
LINE
5
115
100
AcDbEntity
8
0
62
256
6
ByLayer
370
-2
48
1
60
0
100
AcDbLine
10
-1
20
0.166667
30
0
11
0
21
0
31
0
39
0
210
0
220
0
230
1
0
LINE
5
116
100
AcDbEntity
8
0
62
256
6
ByLayer
370
-2
48
1
60
0
100
AcDbLine
10
0
20
0
30
0
11
-1
21
-0.166667
31
0
39
0
210
0
220
0
230
1
0
LINE
5
117
100
AcDbEntity
8
0
62
256
6
ByLayer
370
-2
48
1
60
0
100
AcDbLine
10
-1
20
0.166667
30
0
11
-1
21
-0.166667
31
0
39
0
210
0
220
0
230
1
0
LINE
5
118
100
AcDbEntity
8
0
62
256
6
ByLayer
370
-2
48
1
60
0
100
AcDbLine
10
0
20
0
30
0
11
-1
21
0
31
0
39
0
210
0
220
0
230
1
0
ENDBLK
5
114
100
AcDbEntity
8
0
100
AcDbBlockEnd
0
BLOCK
5
125
100
AcDbEntity
8
0
100
AcDbBlockBegin
2
DimnDraft3D2
70
0
10
0
20
0
30
0
3
DimnDraft3D2
0
MTEXT
5
11A
100
AcDbEntity
8
SK2
62
256
6
ByLayer
370
-1
48
1
60
0
100
AcDbMText
10
-102.2
20
16.37375
30
0
210
0
220
0
230
1
1
\W01.000;\fsimplex.shx,bigfont.shx;%%c10 
40
4.5
41
0
44
1.084337
50
90
71
7
72
5
7
DEFAULT
0
LINE
5
11C
100
AcDbEntity
8
SK2
62
256
6
ByLayer
370
-1
48
1
60
0
100
AcDbLine
10
-93.325
20
-4.99375
30
0
11
-103.075
21
-4.99375
31
0
39
0
210
0
220
0
230
1
0
LINE
5
11D
100
AcDbEntity
8
SK2
62
256
6
ByLayer
370
-1
48
1
60
0
100
AcDbLine
10
-93.325
20
4.99375
30
0
11
-103.075
21
4.99375
31
0
39
0
210
0
220
0
230
1
0
LINE
5
11E
100
AcDbEntity
8
SK2
62
256
6
ByLayer
370
-1
48
1
60
0
100
AcDbLine
10
-101.075
20
-4.99375
30
0
11
-101.075
21
23.692171
31
0
39
0
210
0
220
0
230
1
0
LINE
5
11F
100
AcDbEntity
8
SK2
62
256
6
ByLayer
370
-1
48
1
60
0
100
AcDbLine
10
-101.075
20
-4.99375
30
0
11
-101.492997
21
-1.818752
31
0
39
0
210
0
220
0
230
1
0
LINE
5
120
100
AcDbEntity
8
SK2
62
256
6
ByLayer
370
-1
48
1
60
0
100
AcDbLine
10
-101.075
20
-4.99375
30
0
11
-100.657003
21
-1.818748
31
0
39
0
210
0
220
0
230
1
0
LINE
5
121
100
AcDbEntity
8
SK2
62
256
6
ByLayer
370
-1
48
1
60
0
100
AcDbLine
10
-101.492997
20
-1.818752
30
0
11
-100.657003
21
-1.818748
31
0
39
0
210
0
220
0
230
1
0
LINE
5
122
100
AcDbEntity
8
SK2
62
256
6
ByLayer
370
-1
48
1
60
0
100
AcDbLine
10
-101.075
20
4.99375
30
0
11
-100.657003
21
1.818752
31
0
39
0
210
0
220
0
230
1
0
LINE
5
123
100
AcDbEntity
8
SK2
62
256
6
ByLayer
370
-1
48
1
60
0
100
AcDbLine
10
-101.075
20
4.99375
30
0
11
-101.492997
21
1.818748
31
0
39
0
210
0
220
0
230
1
0
LINE
5
124
100
AcDbEntity
8
SK2
62
256
6
ByLayer
370
-1
48
1
60
0
100
AcDbLine
10
-100.657003
20
1.818752
30
0
11
-101.492997
21
1.818748
31
0
39
0
210
0
220
0
230
1
0
ENDBLK
5
126
100
AcDbEntity
8
0
100
AcDbBlockEnd
0
BLOCK
5
133
100
AcDbEntity
8
0
100
AcDbBlockBegin
2
DimnDraft3D3
70
0
10
0
20
0
30
0
3
DimnDraft3D3
0
MTEXT
5
129
100
AcDbEntity
8
SK2
62
256
6
ByLayer
370
-1
48
1
60
0
100
AcDbMText
10
-20.827632
20
22.775
30
0
210
0
220
0
230
1
1
\W01.000;\fsimplex.shx,bigfont.shx;150.0 
40
4.5
41
0
44
1.084337
50
0
71
7
72
5
7
DEFAULT
0
LINE
5
12A
100
AcDbEntity
8
SK2
62
256
6
ByLayer
370
-1
48
1
60
0
100
AcDbLine
10
59.925
20
10.9
30
0
11
59.925
21
23.65
31
0
39
0
210
0
220
0
230
1
0
LINE
5
12B
100
AcDbEntity
8
SK2
62
256
6
ByLayer
370
-1
48
1
60
0
100
AcDbLine
10
-91.325
20
6.99375
30
0
11
-91.325
21
23.65
31
0
39
0
210
0
220
0
230
1
0
LINE
5
12C
100
AcDbEntity
8
SK2
62
256
6
ByLayer
370
-1
48
1
60
0
100
AcDbLine
10
59.925
20
21.65
30
0
11
-91.325
21
21.65
31
0
39
0
210
0
220
0
230
1
0
LINE
5
12D
100
AcDbEntity
8
SK2
62
256
6
ByLayer
370
-1
48
1
60
0
100
AcDbLine
10
59.925
20
21.65
30
0
11
56.750002
21
21.232003
31
0
39
0
210
0
220
0
230
1
0
LINE
5
12E
100
AcDbEntity
8
SK2
62
256
6
ByLayer
370
-1
48
1
60
0
100
AcDbLine
10
59.925
20
21.65
30
0
11
56.749998
21
22.067997
31
0
39
0
210
0
220
0
230
1
0
LINE
5
12F
100
AcDbEntity
8
SK2
62
256
6
ByLayer
370
-1
48
1
60
0
100
AcDbLine
10
56.750002
20
21.232003
30
0
11
56.749998
21
22.067997
31
0
39
0
210
0
220
0
230
1
0
LINE
5
130
100
AcDbEntity
8
SK2
62
256
6
ByLayer
370
-1
48
1
60
0
100
AcDbLine
10
-91.325
20
21.65
30
0
11
-88.150002
21
22.067997
31
0
39
0
210
0
220
0
230
1
0
LINE
5
131
100
AcDbEntity
8
SK2
62
256
6
ByLayer
370
-1
48
1
60
0
100
AcDbLine
10
-91.325
20
21.65
30
0
11
-88.149998
21
21.232003
31
0
39
0
210
0
220
0
230
1
0
LINE
5
132
100
AcDbEntity
8
SK2
62
256
6
ByLayer
370
-1
48
1
60
0
100
AcDbLine
10
-88.150002
20
22.067997
30
0
11
-88.149998
21
21.232003
31
0
39
0
210
0
220
0
230
1
0
ENDBLK
5
134
100
AcDbEntity
8
0
100
AcDbBlockEnd
0
BLOCK
5
141
100
AcDbEntity
8
0
100
AcDbBlockBegin
2
DimnDraft3D4
70
0
10
0
20
0
30
0
3
DimnDraft3D4
0
MTEXT
5
137
100
AcDbEntity
8
2
62
256
6
ByLayer
370
-1
48
1
60
0
100
AcDbMText
10
87.180827
20
-36.834311
30
0
210
0
220
0
230
1
1
\W01.000;\fsimplex.shx,bigfont.shx;93%%d0' 
40
4.5
41
0
44
1.084337
50
43.5
71
7
72
5
7
DEFAULT
0
LINE
5
138
100
AcDbEntity
8
2
62
256
6
ByLayer
370
-1
48
1
60
0
100
AcDbLine
10
59.453976
20
-0.087666
30
0
11
56.89796
21
-48.859355
31
0
39
0
210
0
220
0
230
1
0
LINE
5
139
100
AcDbEntity
8
2
62
256
6
ByLayer
370
-1
48
1
60
0
100
AcDbLine
10
61.925
20
0
30
0
11
108.384978
21
0
31
0
39
0
210
0
220
0
230
1
0
ARC
5
13A
100
AcDbEntity
8
2
62
256
6
ByLayer
370
-1
48
1
60
0
100
AcDbCircle
39
0
10
59.458571
20
0
30
0
40
46.9264068782928
210
0
220
0
230
1
100
AcDbArc
50
267
51
0
0
LINE
5
13B
100
AcDbEntity
8
2
62
256
6
ByLayer
370
-1
48
1
60
0
100
AcDbLine
10
57.002632
20
-46.862096
30
0
11
60.190451
21
-46.556897
31
0
39
0
210
0
220
0
230
1
0
LINE
5
13C
100
AcDbEntity
8
2
62
256
6
ByLayer
370
-1
48
1
60
0
100
AcDbLine
10
57.002632
20
-46.862096
30
0
11
60.160823
21
-47.392365
31
0
39
0
210
0
220
0
230
1
0
LINE
5
13D
100
AcDbEntity
8
2
62
256
6
ByLayer
370
-1
48
1
60
0
100
AcDbLine
10
60.190451
20
-46.556897
30
0
11
60.160823
21
-47.392365
31
0
39
0
210
0
220
0
230
1
0
LINE
5
13E
100
AcDbEntity
8
2
62
256
6
ByLayer
370
-1
48
1
60
0
100
AcDbLine
10
106.384978
20
0
30
0
11
106.749233
21
-3.181612
31
0
39
0
210
0
220
0
230
1
0
LINE
5
13F
100
AcDbEntity
8
2
62
256
6
ByLayer
370
-1
48
1
60
0
100
AcDbLine
10
106.384978
20
0
30
0
11
105.913359
21
-3.16748
31
0
39
0
210
0
220
0
230
1
0
LINE
5
140
100
AcDbEntity
8
2
62
256
6
ByLayer
370
-1
48
1
60
0
100
AcDbLine
10
106.749233
20
-3.181612
30
0
11
105.913359
21
-3.16748
31
0
39
0
210
0
220
0
230
1
0
ENDBLK
5
142
100
AcDbEntity
8
0
100
AcDbBlockEnd
0
ENDSEC
0
SECTION
2
ENTITIES
0
ELLIPSE
5
8D
100
AcDbEntity
8
1
62
256
6
ByLayer
370
-1
48
1
60
0
100
AcDbEllipse
10
53.397727
20
-2.09672
30
0
11
-1.0485610114923
21
0.0549527540550895
31
0
210
0
220
0
230
1
40
0.992029
41
-2.78398620744037
42
-2.66258142515865
0
ELLIPSE
5
8E
100
AcDbEntity
8
1
62
256
6
ByLayer
370
-1
48
1
60
0
100
AcDbEllipse
10
53.397727
20
-2.09672
30
0
11
-1.0485610114923
21
0.0549527540550895
31
0
210
0
220
0
230
1
40
0.992029
41
-1.19431338480952
42
-0.130643513891335
0
ELLIPSE
5
8F
100
AcDbEntity
8
1
62
256
6
ByLayer
370
-1
48
1
60
0
100
AcDbEllipse
10
53.39476
20
-2.153347
30
0
11
-1.0485610114923
21
0.0549527540550895
31
0
210
0
220
0
230
1
40
0.992029
41
-2.983520463061
42
-2.61781954052437
0
ELLIPSE
5
90
100
AcDbEntity
8
1
62
256
6
ByLayer
370
-1
48
1
60
0
100
AcDbEllipse
10
53.39476
20
-2.153347
30
0
11
-1.0485610114923
21
0.0549527540550895
31
0
210
0
220
0
230
1
40
0.992029
41
-1.19438345238158
42
-0.158050267130769
0
ELLIPSE
5
91
100
AcDbEntity
8
1
62
256
6
ByLayer
370
-1
48
1
60
0
100
AcDbEllipse
10
53.411927
20
-1.825783
30
0
11
1.0485610114923
21
-0.0549527540551008
31
0
210
0
220
0
230
1
40
0.992029
41
3.05268057580771
42
0.263164752213139
0
ELLIPSE
5
92
100
AcDbEntity
8
1
62
256
6
ByLayer
370
-1
48
1
60
0
100
AcDbEllipse
10
194.606318
20
-0.002872
30
0
11
779.638566264393
21
-0.647756221962966
31
0
210
0
220
0
230
-1
40
0.00654
41
1.7490758616297
42
1.75271524492807
0
ELLIPSE
5
93
100
AcDbEntity
8
1
62
256
6
ByLayer
370
-1
48
1
60
0
100
AcDbEllipse
10
53.219927
20
-1.052101
30
0
11
-1.24828691844322
21
0.0654199453036782
31
0
210
0
220
0
230
1
40
0.992029
41
-0.959931088596878
42
-0.109588909696304
0
ELLIPSE
5
94
100
AcDbEntity
8
1
62
256
6
ByLayer
370
-1
48
1
60
0
100
AcDbEllipse
10
52.703694
20
8.926235
30
0
11
-4.19424404596921
21
0.219811016220358
31
0
210
0
220
0
230
1
40
0.992029
41
1.25877712382007
42
1.78284003383986
0
ELLIPSE
5
95
100
AcDbEntity
8
1
62
256
6
ByLayer
370
-1
48
1
60
0
100
AcDbEllipse
10
53.234126
20
-0.781164
30
0
11
-1.24828691844322
21
0.0654199453036782
31
0
210
0
220
0
230
1
40
0.992029
41
-0.959931088596864
42
0.862027290779767
0
ELLIPSE
5
96
100
AcDbEntity
8
1
62
256
6
ByLayer
370
-1
48
1
60
0
100
AcDbEllipse
10
63.229976
20
2.772059
30
0
11
-4.19424404596918
21
0.219811016220357
31
0
210
0
220
0
230
1
40
0.992029
41
0.391928592698297
42
0.439975954790926
0
ELLIPSE
5
97
100
AcDbEntity
8
1
62
256
6
ByLayer
370
-1
48
1
60
0
100
AcDbEllipse
10
56.47162
20
3.267047
30
0
11
1.82225885974135
21
-0.0955005401179082
31
0
210
0
220
0
230
1
40
0.992029
41
-1.26575439385533
42
-2.45324085689517E-16
0
ELLIPSE
5
98
100
AcDbEntity
8
1
62
256
6
ByLayer
370
-1
48
1
60
0
100
AcDbEllipse
10
56.47162
20
3.267047
30
0
11
1.82225885974135
21
-0.0955005401179082
31
0
210
0
220
0
230
1
40
0.992029
41
0
42
0.0527795302679721
0
ELLIPSE
5
99
100
AcDbEntity
8
1
62
256
6
ByLayer
370
-1
48
1
60
0
100
AcDbEllipse
10
56.47162
20
3.267047
30
0
11
1.82225885974135
21
-0.0955005401179082
31
0
210
0
220
0
230
1
40
0.992029
41
0.0527798324824244
42
-1.87581233444089
0
ELLIPSE
5
9A
100
AcDbEntity
8
1
62
256
6
ByLayer
370
-1
48
1
60
0
100
AcDbEllipse
10
56.472585
20
3.285464
30
0
11
1.87243037766482
21
-0.0981299179555371
31
0
210
0
220
0
230
1
40
0.992029
41
-0.56527754960623
42
-2.38750660098345E-16
0
ELLIPSE
5
9B
100
AcDbEntity
8
1
62
256
6
ByLayer
370
-1
48
1
60
0
100
AcDbEllipse
10
56.472585
20
3.285464
30
0
11
1.87243037766482
21
-0.0981299179555371
31
0
210
0
220
0
230
1
40
0.992029
41
0
42
0.0527797738744657
0
ELLIPSE
5
9C
100
AcDbEntity
8
1
62
256
6
ByLayer
370
-1
48
1
60
0
100
AcDbEllipse
10
56.472585
20
3.285464
30
0
11
1.87243037766482
21
-0.0981299179555371
31
0
210
0
220
0
230
1
40
0.992029
41
0.0527799287174599
42
-2.57628954876177
0
ELLIPSE
5
9D
100
AcDbEntity
8
1
62
256
6
ByLayer
370
-1
48
1
60
0
100
AcDbEllipse
10
56.476739
20
3.364741
30
0
11
1.91642389486198
21
-0.100435520494691
31
0
210
0
220
0
230
1
40
0.992029
41
0
42
6.28318530717959
0
ELLIPSE
5
9E
100
AcDbEntity
8
1
62
256
6
ByLayer
370
-1
48
1
60
0
100
AcDbEllipse
10
53.777507
20
4.942843
30
0
11
0.396331096605751
21
-0.0207708326339236
31
0
210
0
220
0
230
1
40
0.992029
41
2.18166156499289
42
3.14159265358978
0
ELLIPSE
5
9F
100
AcDbEntity
8
1
62
256
6
ByLayer
370
-1
48
1
60
0
100
AcDbEllipse
10
59.175972
20
1.786638
30
0
11
0.396331096605751
21
-0.0207708326339236
31
0
210
0
220
0
230
1
40
0.992029
41
-0.959931088596733
42
2.07543880904372E-13
0
ELLIPSE
5
A0
100
AcDbEntity
8
1
62
256
6
ByLayer
370
-1
48
1
60
0
100
AcDbEllipse
10
56.469897
20
3.234171
30
0
11
-0.74697489199642
21
0.0391472952697209
31
0
210
0
220
0
230
1
40
0.992029
41
1.9232017705189
42
2.55261877997659
0
ELLIPSE
5
A1
100
AcDbEntity
8
1
62
256
6
ByLayer
370
-1
48
1
60
0
100
AcDbEllipse
10
56.475399
20
3.339156
30
0
11
0.746974891996414
21
-0.0391472952697287
31
0
210
0
220
0
230
1
40
0.992029
41
2.62389575737388
42
2.69935846120875
0
ELLIPSE
5
A2
100
AcDbEntity
8
1
62
256
6
ByLayer
370
-1
48
1
60
0
100
AcDbEllipse
10
56.476491
20
3.360007
30
0
11
1.03358156847098
21
-0.0541677147114564
31
0
210
0
220
0
230
1
40
0.992029
41
-2.05076187109324
42
-1.00442229955662
0
ELLIPSE
5
A3
100
AcDbEntity
8
1
62
256
6
ByLayer
370
-1
48
1
60
0
100
AcDbEllipse
10
57.476955
20
2.645395
30
0
11
-0.42142166366643
21
0.0220857735345217
31
0
210
0
220
0
230
1
40
0.992029
41
-8.36424661605423E-06
42
0.297120655593618
0
ELLIPSE
5
A4
100
AcDbEntity
8
1
62
256
6
ByLayer
370
-1
48
1
60
0
100
AcDbEllipse
10
56.476491
20
3.360007
30
0
11
1.03358156847098
21
-0.0541677147114564
31
0
210
0
220
0
230
1
40
0.992029
41
-3.09710144263003
42
-2.05076187109324
0
ELLIPSE
5
A5
100
AcDbEntity
8
1
62
256
6
ByLayer
370
-1
48
1
60
0
100
AcDbEllipse
10
56.469897
20
3.234171
30
0
11
-0.74697489199642
21
0.0391472952697209
31
0
210
0
220
0
230
1
40
0.992029
41
0.68094334390075
42
1.30783122874854
0
ELLIPSE
5
A6
100
AcDbEntity
8
1
62
256
6
ByLayer
370
-1
48
1
60
0
100
AcDbEllipse
10
56.475399
20
3.339156
30
0
11
0.746974891996414
21
-0.0391472952697287
31
0
210
0
220
0
230
1
40
0.992029
41
-0.517696896214648
42
-0.442234192382176
0
ELLIPSE
5
A7
100
AcDbEntity
8
1
62
256
6
ByLayer
370
-1
48
1
60
0
100
AcDbEllipse
10
56.469897
20
3.234171
30
0
11
0.746974891996416
21
-0.0391472952697288
31
0
210
0
220
0
230
1
40
0.992029
41
0.567660996728096
42
1.61400056826474
0
ELLIPSE
5
A8
100
AcDbEntity
8
1
62
256
6
ByLayer
370
-1
48
1
60
0
100
AcDbEllipse
10
56.469897
20
3.234171
30
0
11
-0.74697489199642
21
0.0391472952697209
31
0
210
0
220
0
230
1
40
0.992029
41
-1.52759208532506
42
-0.517696896215944
0
ELLIPSE
5
A9
100
AcDbEntity
8
1
62
256
6
ByLayer
370
-1
48
1
60
0
100
AcDbEllipse
10
56.476491
20
3.360007
30
0
11
1.03358156847098
21
-0.0541677147114564
31
0
210
0
220
0
230
1
40
0.992029
41
-1.00442229955662
42
0.0444912109597399
0
ELLIPSE
5
AA
100
AcDbEntity
8
1
62
256
6
ByLayer
370
-1
48
1
60
0
100
AcDbEllipse
10
56.480121
20
4.394818
30
0
11
-0.42142166366643
21
0.0220857735345217
31
0
210
0
220
0
230
1
40
0.992029
41
1.61400056826481
42
2.38890029611726
0
ELLIPSE
5
AB
100
AcDbEntity
8
1
62
256
6
ByLayer
370
-1
48
1
60
0
100
AcDbEllipse
10
56.476491
20
3.360007
30
0
11
1.03358156847098
21
-0.0541677147114564
31
0
210
0
220
0
230
1
40
0.992029
41
2.13717035403308
42
-3.09710144263003
0
ELLIPSE
5
AC
100
AcDbEntity
8
1
62
256
6
ByLayer
370
-1
48
1
60
0
100
AcDbEllipse
10
56.469897
20
3.234171
30
0
11
0.746974891996416
21
-0.0391472952697288
31
0
210
0
220
0
230
1
40
0.992029
41
2.62389575737385
42
2.69935846120881
0
ELLIPSE
5
AD
100
AcDbEntity
8
1
62
256
6
ByLayer
370
-1
48
1
60
0
100
AcDbEllipse
10
56.476491
20
3.360007
30
0
11
1.03358156847098
21
-0.0541677147114564
31
0
210
0
220
0
230
1
40
0.992029
41
0.0444912109597395
42
1.09083078249641
0
ELLIPSE
5
AE
100
AcDbEntity
8
1
62
256
6
ByLayer
370
-1
48
1
60
0
100
AcDbEllipse
10
55.462838
20
3.822946
30
0
11
-0.42142166366643
21
0.0220857735345217
31
0
210
0
220
0
230
1
40
0.992029
41
2.72854043160834
42
3.1415847830114
0
ELLIPSE
5
AF
100
AcDbEntity
8
1
62
256
6
ByLayer
370
-1
48
1
60
0
100
AcDbEllipse
10
56.469897
20
3.234171
30
0
11
-0.74697489199642
21
0.0391472952697209
31
0
210
0
220
0
230
1
40
0.992029
41
-0.442234192380962
42
0.282665230823708
0
ELLIPSE
5
B0
100
AcDbEntity
8
1
62
256
6
ByLayer
370
-1
48
1
60
0
100
AcDbEllipse
10
56.476491
20
3.360007
30
0
11
1.03358156847098
21
-0.0541677147114564
31
0
210
0
220
0
230
1
40
0.992029
41
1.09083078249641
42
2.13717035403308
0
ELLIPSE
5
B1
100
AcDbEntity
8
1
62
256
6
ByLayer
370
-1
48
1
60
0
100
AcDbEllipse
10
56.469897
20
3.234171
30
0
11
-0.74697489199642
21
0.0391472952697209
31
0
210
0
220
0
230
1
40
0.992029
41
2.91890006845587
42
-2.57393165686166
0
ELLIPSE
5
B2
100
AcDbEntity
8
1
62
256
6
ByLayer
370
-1
48
1
60
0
100
AcDbEllipse
10
57.487703
20
3.805736
30
0
11
-0.42142166366643
21
0.0220857735345217
31
0
210
0
220
0
230
1
40
0.992029
41
0.56766099672819
42
1.34256072458063
0
ELLIPSE
5
B3
100
AcDbEntity
8
1
62
256
6
ByLayer
370
-1
48
1
60
0
100
AcDbEllipse
10
55.619939
20
3.24116
30
0
11
-0.184746463929596
21
0.00968215190494435
31
0
210
0
220
0
230
1
40
0.992029
41
-1.25705174419046
42
-0.341093277873894
0
ELLIPSE
5
B4
100
AcDbEntity
8
1
62
256
6
ByLayer
370
-1
48
1
60
0
100
AcDbEllipse
10
55.462838
20
3.822946
30
0
11
-0.42142166366643
21
0.0220857735345217
31
0
210
0
220
0
230
1
40
0.992029
41
1.8845409093995
42
2.59471378697444
0
ELLIPSE
5
B5
100
AcDbEntity
8
1
62
256
6
ByLayer
370
-1
48
1
60
0
100
AcDbEllipse
10
56.051672
20
3.968623
30
0
11
-0.184746463929596
21
0.00968215190494435
31
0
210
0
220
0
230
1
40
0.992029
41
-2.30249181317748
42
-0.383938297291242
0
ELLIPSE
5
B6
100
AcDbEntity
8
1
62
256
6
ByLayer
370
-1
48
1
60
0
100
AcDbEllipse
10
56.480121
20
4.394818
30
0
11
-0.42142166366643
21
0.0220857735345217
31
0
210
0
220
0
230
1
40
0.992029
41
0.839100840412383
42
1.61400056826481
0
ELLIPSE
5
B7
100
AcDbEntity
8
1
62
256
6
ByLayer
370
-1
48
1
60
0
100
AcDbEllipse
10
56.90099
20
3.960554
30
0
11
-0.184746463929596
21
0.00968215190494435
31
0
210
0
220
0
230
1
40
0.992029
41
-2.72957061416749
42
-0.752692357472852
0
ELLIPSE
5
B8
100
AcDbEntity
8
1
62
256
6
ByLayer
370
-1
48
1
60
0
100
AcDbEllipse
10
57.487703
20
3.805736
30
0
11
-0.42142166366643
21
0.0220857735345217
31
0
210
0
220
0
230
1
40
0.992029
41
1.05484632177069E-05
42
0.56766099672819
0
ELLIPSE
5
B9
100
AcDbEntity
8
1
62
256
6
ByLayer
370
-1
48
1
60
0
100
AcDbEllipse
10
57.319854
20
3.227182
30
0
11
-0.184746463929596
21
0.00968215190494435
31
0
210
0
220
0
230
1
40
0.992029
41
-2.77607896027768
42
-1.79903192900923
0
ELLIPSE
5
BA
100
AcDbEntity
8
1
62
256
6
ByLayer
370
-1
48
1
60
0
100
AcDbEllipse
10
56.470556
20
3.246755
30
0
11
1.72263594745164
21
-0.0902795245190944
31
0
210
0
220
0
230
1
40
0.992029
41
3.14150730809149
42
-2.59511587063417E-16
0
ELLIPSE
5
BB
100
AcDbEntity
8
1
62
256
6
ByLayer
370
-1
48
1
60
0
100
AcDbEllipse
10
56.475344
20
3.338121
30
0
11
1.72263594745165
21
-0.0902795245190949
31
0
210
0
220
0
230
1
40
0.992029
41
0
42
6.28318530717959
0
ELLIPSE
5
BC
100
AcDbEntity
8
1
62
256
6
ByLayer
370
-1
48
1
60
0
100
AcDbEllipse
10
56.476491
20
3.360007
30
0
11
1.29821839518098
21
-0.068036743115841
31
0
210
0
220
0
230
1
40
0.992029
41
0
42
6.28318530717959
0
ELLIPSE
5
BD
100
AcDbEntity
8
1
62
256
6
ByLayer
370
-1
48
1
60
0
100
AcDbEllipse
10
59.528134
20
8.50628
30
0
11
0.396331096605769
21
-0.0207708326339246
31
0
210
0
220
0
230
1
40
0.992029
41
0
42
2.18166156499283
0
ELLIPSE
5
BE
100
AcDbEntity
8
1
62
256
6
ByLayer
370
-1
48
1
60
0
100
AcDbEllipse
10
53.425345
20
-1.776798
30
0
11
0.396331096605769
21
-0.0207708326339246
31
0
210
0
220
0
230
1
40
0.992029
41
-3.14159265358948
42
-0.959931088596567
0
POINT
5
41
100
AcDbEntity
8
80
62
256
6
ByLayer
370
-1
48
1
60
0
100
AcDbPoint
10
0
20
0
30
0
39
0
210
0
220
0
230
1
50
360
0
POINT
5
43
100
AcDbEntity
8
81
62
256
6
ByLayer
370
-1
48
1
60
0
100
AcDbPoint
10
59.925
20
8.9
30
0
39
0
210
0
220
0
230
1
50
360
0
POINT
5
45
100
AcDbEntity
8
1
62
256
6
ByLayer
370
-1
48
1
60
0
100
AcDbPoint
10
-91.325
20
0
30
0
39
0
210
0
220
0
230
1
50
360
0
POINT
5
47
100
AcDbEntity
8
2
62
256
6
ByLayer
370
-1
48
1
60
0
100
AcDbPoint
10
59.925
20
8.9
30
0
39
0
210
0
220
0
230
1
50
360
0
POINT
5
49
100
AcDbEntity
8
2
62
256
6
ByLayer
370
-1
48
1
60
0
100
AcDbPoint
10
59.689844
20
7.830152
30
0
39
0
210
0
220
0
230
1
50
360
0
SPLINE
5
BF
100
AcDbEntity
8
1
62
256
6
ByLayer
370
-1
48
1
60
0
100
AcDbSpline
70
4
71
2
72
6
73
3
40
0
40
0
40
0
40
1
40
1
40
1
41
0.500000206626307
10
51.2086108262319
20
5.03380279836931
30
0
41
0.499999793373693
10
50.5017638876213
20
5.03350487012456
30
0
41
0.500000206626307
10
49.795172640996
20
5.03319802798586
30
0
0
SPLINE
5
C0
100
AcDbEntity
8
1
62
256
6
ByLayer
370
-1
48
1
60
0
100
AcDbSpline
70
4
71
3
72
8
73
4
40
0
40
0
40
0
40
0
40
1
40
1
40
1
40
1
41
1
10
53.5521573248881
20
-4.90043482679766
30
0
41
1
10
53.4972857214178
20
-4.86691289122484
30
0
41
1
10
53.4424196566694
20
-4.83338202317921
30
0
41
1
10
53.3875594783612
20
-4.79984167269265
30
0
0
SPLINE
5
C1
100
AcDbEntity
8
1
62
256
6
ByLayer
370
-1
48
1
60
0
100
AcDbSpline
70
4
71
3
72
10
73
6
40
0
40
0
40
0
40
0
40
0.378959175964844
40
0.378959175964844
40
1
40
1
40
1
40
1
41
1
10
51.2086108262318
20
5.03380279836932
30
0
41
1
10
51.1895031320533
20
5.03620334706454
30
0
41
1
10
51.1716101289026
20
5.03820860653727
30
0
41
1
10
51.1278786866727
20
5.04231383207286
30
0
41
1
10
51.10399653842
20
5.04364177241453
30
0
41
1
10
51.0833446560994
20
5.04366589332258
30
0
0
SPLINE
5
C2
100
AcDbEntity
8
1
62
256
6
ByLayer
370
-1
48
1
60
0
100
AcDbSpline
70
4
71
3
72
14
73
10
40
0
40
0
40
0
40
0
40
0.25
40
0.25
40
0.5
40
0.5
40
0.75
40
0.75
40
1
40
1
40
1
40
1
41
1
10
49.7951726409963
20
5.03319802798586
30
0
41
1
10
48.9672247478578
20
5.03283848588362
30
0
41
1
10
48.1454382522229
20
5.03160343806192
30
0
41
1
10
46.734307925825
20
4.8806251963095
30
0
41
1
10
46.1411051451479
20
4.70378284308234
30
0
41
1
10
45.5705297079617
20
3.90107497101246
30
0
41
1
10
45.5737342092864
20
3.28292623553742
30
0
41
1
10
45.7953456159564
20
1.88323120607521
30
0
41
1
10
46.001310037494
20
1.08847675708515
30
0
41
1
10
46.2213501691502
20
0.301073592105212
30
0
0
SPLINE
5
C3
100
AcDbEntity
8
1
62
256
6
ByLayer
370
-1
48
1
60
0
100
AcDbSpline
70
4
71
2
72
6
73
3
40
0
40
0
40
0
40
1
40
1
40
1
41
0.500000869515769
10
52.4498638926902
20
-4.7979045336512
30
0
41
0.499999130484231
10
52.9186564278054
20
-4.79887497103062
30
0
41
0.500000869515769
10
53.3875594783611
20
-4.79984167269263
30
0
0
SPLINE
5
C4
100
AcDbEntity
8
1
62
256
6
ByLayer
370
-1
48
1
60
0
100
AcDbSpline
70
4
71
3
72
14
73
10
40
0
40
0
40
0
40
0
40
0.162031050512715
40
0.162031050512715
40
0.469747936847481
40
0.469747936847481
40
0.790744438314093
40
0.790744438314093
40
1
40
1
40
1
40
1
41
1
10
46.3954339470175
20
-0.301073592105212
30
0
41
1
10
46.3895010461529
20
-0.270940334262804
30
0
41
1
10
46.3827575677087
20
-0.239275369610397
30
0
41
1
10
46.3612290976975
20
-0.145421380025795
30
0
41
1
10
46.3443000738444
20
-0.0800150024848563
30
0
41
1
10
46.3066020984839
20
0.0513828110052259
30
0
41
1
10
46.28521327117
20
0.119026921339639
30
0
41
1
10
46.2496055947213
20
0.223562398767001
30
0
41
1
10
46.2352968136302
20
0.263565882508686
30
0
41
1
10
46.2213501691502
20
0.301073592105212
30
0
0
SPLINE
5
C5
100
AcDbEntity
8
1
62
256
6
ByLayer
370
-1
48
1
60
0
100
AcDbSpline
70
4
71
3
72
48
73
44
40
-0.0758933669443006
40
-0.0758933669443006
40
0
40
0
40
0.061903507866135
40
0.061903507866135
40
0.108593120616213
40
0.108593120616213
40
0.147410177743301
40
0.147410177743301
40
0.18653933818522
40
0.18653933818522
40
0.221157715961023
40
0.221157715961023
40
0.255156073709588
40
0.255156073709588
40
0.291375194272453
40
0.291375194272453
40
0.331620765774725
40
0.331620765774725
40
0.377713554468556
40
0.377713554468556
40
0.444516861368735
40
0.444516861368735
40
0.530474970322741
40
0.530474970322741
40
0.617867863490246
40
0.617867863490246
40
0.654651694012515
40
0.654651694012515
40
0.691873820749289
40
0.691873820749289
40
0.709919181803715
40
0.709919181803715
40
0.728233993836931
40
0.728233993836931
40
0.744272734839082
40
0.744272734839082
40
0.769078367173387
40
0.769078367173387
40
0.818011388838029
40
0.818011388838029
40
0.924106633055699
40
0.924106633055699
40
1
40
1
40
1.06190350786613
40
1.06190350786613
41
1
10
47.5166088665247
20
2.11940669490437
30
0
41
1
10
47.2672022561219
20
2.00159768558353
30
0
41
1
10
47.1512611724996
20
1.96710455097337
30
0
41
1
10
46.9491984678002
20
1.9583801381093
30
0
41
1
10
46.8609579738038
20
1.97176133608823
30
0
41
1
10
46.7057818752138
20
2.03619422596358
30
0
41
1
10
46.6361562048834
20
2.08147879061735
30
0
41
1
10
46.5077430373899
20
2.20229720806924
30
0
41
1
10
46.4471169323724
20
2.28002956613102
30
0
41
1
10
46.3496791271513
20
2.44472467969999
30
0
41
1
10
46.3095569917078
20
2.53173878376816
30
0
41
1
10
46.2463150836115
20
2.7077526284163
30
0
41
1
10
46.2220503568365
20
2.79888988051403
30
0
41
1
10
46.1888865933134
20
2.98131485116548
30
0
41
1
10
46.180655109883
20
3.07448278375969
30
0
41
1
10
46.1823015171775
20
3.25741770994674
30
0
41
1
10
46.1942945056362
20
3.34790769180563
30
0
41
1
10
46.2415835992588
20
3.52094204580686
30
0
41
1
10
46.280528371094
20
3.60255937763012
30
0
41
1
10
46.4021421468308
20
3.77121175915718
30
0
41
1
10
46.4985003468716
20
3.84756515768356
30
0
41
1
10
46.7530201950751
20
3.97381140703328
30
0
41
1
10
46.9250478254317
20
4.01301984744094
30
0
41
1
10
47.2982839843255
20
4.04104458095227
30
0
41
1
10
47.5051676802989
20
4.03057703622983
30
0
41
1
10
47.8046274774604
20
3.97224101503178
30
0
41
1
10
47.895307450189
20
3.94904814565567
30
0
41
1
10
48.0744568072104
20
3.88457141956684
30
0
41
1
10
48.1651920478154
20
3.84273995538845
30
0
41
1
10
48.2842615369951
20
3.7546420571187
30
0
41
1
10
48.3211748819452
20
3.72087526505547
30
0
41
1
10
48.3829585401977
20
3.64334967383238
30
0
41
1
10
48.408136257168
20
3.59819558451028
30
0
41
1
10
48.4377328331593
20
3.50961555480552
30
0
41
1
10
48.444802495563
20
3.46576550954012
30
0
41
1
10
48.4481966031994
20
3.35665453737047
30
0
41
1
10
48.4373153513948
20
3.29085957818066
30
0
41
1
10
48.3864159587174
20
3.10705554522573
30
0
41
1
10
48.3289572145317
20
2.99482176881699
30
0
41
1
10
48.128585451082
20
2.6692915293263
30
0
41
1
10
47.9569036373475
20
2.47850449003155
30
0
41
1
10
47.6513139264589
20
2.21296132768737
30
0
41
1
10
47.5166088665247
20
2.11940669490437
30
0
41
1
10
47.2672022561219
20
2.00159768558353
30
0
0
SPLINE
5
C6
100
AcDbEntity
8
1
62
256
6
ByLayer
370
-1
48
1
60
0
100
AcDbSpline
70
4
71
3
72
8
73
4
40
0
40
0
40
0
40
0
40
1
40
1
40
1
40
1
41
1
10
53.5521573248881
20
-4.90043482679772
30
0
41
1
10
53.5519436171227
20
-5.06061954018892
30
0
41
1
10
53.5517484513704
20
-5.14275000000001
30
0
41
1
10
53.5515766768611
20
-5.14275000000001
30
0
0
SPLINE
5
C7
100
AcDbEntity
8
1
62
256
6
ByLayer
370
-1
48
1
60
0
100
AcDbSpline
70
4
71
3
72
10
73
6
40
0
40
0
40
0
40
0
40
0.5
40
0.5
40
1
40
1
40
1
40
1
41
1
10
46.3954339470175
20
-0.301073592105212
30
0
41
1
10
46.837631619418
20
-1.77634067286226
30
0
41
1
10
47.3779474454211
20
-3.14793281386065
30
0
41
1
10
49.4008326042493
20
-4.62162333495135
30
0
41
1
10
50.8936910186285
20
-4.7946831335378
30
0
41
1
10
52.4498638926901
20
-4.79790453365126
30
0
0
SPLINE
5
C8
100
AcDbEntity
8
SK1
62
256
6
ByLayer
370
-1
48
1
60
0
100
AcDbSpline
70
4
71
3
72
22
73
18
40
0
40
0
40
0
40
0
40
0.249999999999995
40
0.249999999999995
40
0.374999999999993
40
0.374999999999993
40
0.49999999999999
40
0.49999999999999
40
0.531249999999994
40
0.531249999999994
40
0.562499999999998
40
0.562499999999998
40
0.624999999999999
40
0.624999999999999
40
0.749999999999999
40
0.749999999999999
40
1
40
1
40
1
40
1
41
1
10
-20.075
20
-0.204215349875994
30
0
41
1
10
-20.4834173658869
20
-0.204215349875994
30
0
41
1
10
-20.8917221047444
20
-0.196763039806484
30
0
41
1
10
-21.5036574500272
20
-0.167803329740906
30
0
41
1
10
-21.7073165528747
20
-0.155331213204107
30
0
41
1
10
-22.1131416072559
20
-0.117201738210753
30
0
41
1
10
-22.3465263011981
20
-0.153024065843311
30
0
41
1
10
-22.5516498502763
20
0.0110937548717231
30
0
41
1
10
-22.4644611138381
20
0.0476159018269016
30
0
41
1
10
-22.3637112251956
20
0.0749532783014502
30
0
41
1
10
-22.3124346483067
20
0.0845555179094504
30
0
41
1
10
-22.1579017469435
20
0.11019107296525
30
0
41
1
10
-22.0541364237619
20
0.122128403615619
30
0
41
1
10
-21.7428483449705
20
0.152930775098724
30
0
41
1
10
-21.5347013065999
20
0.166021659542338
30
0
41
1
10
-20.9095245193102
20
0.196489492264334
30
0
41
1
10
-20.4923002522218
20
0.204215349875938
30
0
41
1
10
-20.075
20
0.204215349875938
30
0
0
SPLINE
5
C9
100
AcDbEntity
8
1
62
256
6
ByLayer
370
-1
48
1
60
0
100
AcDbSpline
70
4
71
3
72
16
73
12
40
0
40
0
40
0
40
0
40
0.0064230077951006
40
0.0064230077951006
40
0.327133139454225
40
0.327133139454225
40
0.647843280426325
40
0.647843280426325
40
0.968553449605429
40
0.968553449605429
40
1
40
1
40
1
40
1
41
1
10
53.3660897593953
20
-2.17140857173465
30
0
41
1
10
53.3662480686163
20
-2.17145930440253
30
0
41
1
10
53.3664064527416
20
-2.17150977097779
30
0
41
1
10
53.3744769367806
20
-2.17406652795361
30
0
41
1
10
53.3826267985366
20
-2.17592556287332
30
0
41
1
10
53.3990667505793
20
-2.17827207196552
30
0
41
1
10
53.4074132262633
20
-2.17876759410475
30
0
41
1
10
53.4240156423133
20
-2.17838277816972
30
0
41
1
10
53.4323285252803
20
-2.17750112014193
30
0
41
1
10
53.4412814787908
20
-2.17579610333024
30
0
41
1
10
53.4420799561578
20
-2.17563729572612
30
0
41
1
10
53.4428772825273
20
-2.17547197681245
30
0
0
SPLINE
5
CA
100
AcDbEntity
8
1
62
256
6
ByLayer
370
-1
48
1
60
0
100
AcDbSpline
70
4
71
3
72
18
73
14
40
0
40
0
40
0
40
0
40
0.202531629551601
40
0.202531629551601
40
0.38004518898958
40
0.38004518898958
40
0.559323799141129
40
0.559323799141129
40
0.714631285625885
40
0.714631285625885
40
0.918954330526255
40
0.918954330526255
40
1
40
1
40
1
40
1
41
1
10
56.1884004033483
20
4.21580207784945
30
0
41
1
10
56.2174088399367
20
4.18429438260492
30
0
41
1
10
56.2516469278553
20
4.15631477681447
30
0
41
1
10
56.3234489403244
20
4.11493146442098
30
0
41
1
10
56.3609574554905
20
4.09978305986709
30
0
41
1
10
56.4394781614881
20
4.08182513829598
30
0
41
1
10
56.4817234187345
20
4.079013587877
30
0
41
1
10
56.5576615101207
20
4.08634117879879
30
0
41
1
10
56.5926537980201
20
4.09482383206179
30
0
41
1
10
56.6674176555289
20
4.12352390378874
30
0
41
1
10
56.7065493529754
20
4.1469280547027
30
0
41
1
10
56.7539683313615
20
4.18578179606837
30
0
41
1
10
56.7668133479036
20
4.19767278334268
30
0
41
1
10
56.7788649180301
20
4.21019274010717
30
0
0
SPLINE
5
CB
100
AcDbEntity
8
1
62
256
6
ByLayer
370
-1
48
1
60
0
100
AcDbSpline
70
4
71
3
72
16
73
12
40
0
40
0
40
0
40
0
40
0.0473248171413343
40
0.0473248171413343
40
0.272258556535754
40
0.272258556535754
40
0.499066168504276
40
0.499066168504276
40
0.739538715766682
40
0.739538715766682
40
1
40
1
40
1
40
1
41
1
10
57.5114401020234
20
3.35149640787753
30
0
41
1
10
57.5114698365527
20
3.35545478219325
30
0
41
1
10
57.5113698999525
20
3.35940903627963
30
0
41
1
10
57.5100613097481
20
3.38189071206324
30
0
41
1
10
57.5060092130286
20
3.40029482187458
30
0
41
1
10
57.4927866571293
20
3.43404308275569
30
0
41
1
10
57.4834185448341
20
3.44979663647047
30
0
41
1
10
57.4603403923268
20
3.4776547904695
30
0
41
1
10
57.4461291124071
20
3.48984422512319
30
0
41
1
10
57.4141646900127
20
3.50948708949329
30
0
41
1
10
57.3958348625877
20
3.51672409458459
30
0
41
1
10
57.3771576030776
20
3.52079686949301
30
0
0
SPLINE
5
CC
100
AcDbEntity
8
1
62
256
6
ByLayer
370
-1
48
1
60
0
100
AcDbSpline
70
4
71
3
72
14
73
10
40
0
40
0
40
0
40
0
40
0.0408659230246764
40
0.0408659230246764
40
0.378368312663351
40
0.378368312663351
40
0.823475716295938
40
0.823475716295938
40
1
40
1
40
1
40
1
41
1
10
55.8455251624338
20
3.73988987518607
30
0
41
1
10
55.8474731529054
20
3.74376988981163
30
0
41
1
10
55.8493604406213
20
3.7476849067229
30
0
41
1
10
55.8661157436336
20
3.7839107830147
30
0
41
1
10
55.8769007365132
20
3.81862334095186
30
0
41
1
10
55.8916095686911
20
3.89860399354205
30
0
41
1
10
55.8926503133575
20
3.94503679923938
30
0
41
1
10
55.8854064142533
20
4.00687931194989
30
0
41
1
10
55.8823395741896
20
4.02435105763692
30
0
41
1
10
55.878353120808
20
4.04146689693602
30
0
0
SPLINE
5
CD
100
AcDbEntity
8
1
62
256
6
ByLayer
370
-1
48
1
60
0
100
AcDbSpline
70
4
71
3
72
18
73
14
40
0
40
0
40
0
40
0
40
0.203186071284528
40
0.203186071284528
40
0.380583439891605
40
0.380583439891605
40
0.559738263508746
40
0.559738263508746
40
0.715020194891886
40
0.715020194891886
40
0.919456836633678
40
0.919456836633678
40
1
40
1
40
1
40
1
41
1
10
57.0859533889183
20
4.0306539017796
30
0
41
1
10
57.0752328368008
20
3.98839887576494
30
0
41
1
10
57.070122152049
20
3.9434790979879
30
0
41
1
10
57.073375775166
20
3.85889707593733
30
0
41
1
10
57.0802546211204
20
3.81833531025208
30
0
41
1
10
57.1054898193303
20
3.74104918486947
30
0
41
1
10
57.1244529275392
20
3.70327292087768
30
0
41
1
10
57.1682506395366
20
3.64224069095866
30
0
41
1
10
57.1924462818417
20
3.6169503242887
30
0
41
1
10
57.2525712718937
20
3.56870964162741
30
0
41
1
10
57.2907283145682
20
3.5480631059759
30
0
41
1
10
57.3453733841398
20
3.52875410765543
30
0
41
1
10
57.361202958235
20
3.52427594934159
30
0
41
1
10
57.3771576030776
20
3.52079686949304
30
0
0
SPLINE
5
CE
100
AcDbEntity
8
1
62
256
6
ByLayer
370
-1
48
1
60
0
100
AcDbSpline
70
4
71
3
72
14
73
10
40
0
40
0
40
0
40
0
40
0.246248535883152
40
0.246248535883152
40
0.538251668984011
40
0.538251668984011
40
0.802411547194859
40
0.802411547194859
40
1
40
1
40
1
40
1
41
1
10
55.8661330154005
20
2.67225751502607
30
0
41
1
10
55.8614989767926
20
2.65587772323977
30
0
41
1
10
55.8594228487923
20
2.63829215601959
30
0
41
1
10
55.861352606728
20
2.59951555534676
30
0
41
1
10
55.8666513148827
20
2.57762645507327
30
0
41
1
10
55.8848657082525
20
2.53869608598663
30
0
41
1
10
55.897320201388
20
2.52081525497451
30
0
41
1
10
55.9240330064861
20
2.49411317194071
30
0
41
1
10
55.9373027597546
20
2.48387084556441
30
0
41
1
10
55.9515721187705
20
2.47552828508347
30
0
0
SPLINE
5
CF
100
AcDbEntity
8
1
62
256
6
ByLayer
370
-1
48
1
60
0
100
AcDbSpline
70
4
71
3
72
16
73
12
40
0
40
0
40
0
40
0
40
0.0638783969849996
40
0.0638783969849996
40
0.288488572404476
40
0.288488572404476
40
0.515909392638688
40
0.515909392638688
40
0.757756222538066
40
0.757756222538066
40
1
40
1
40
1
40
1
41
1
10
55.4415425912417
20
3.36851722082059
30
0
41
1
10
55.4415025210756
20
3.36318292699579
30
0
41
1
10
55.4416967444099
20
3.35782650188986
30
0
41
1
10
55.4436133172158
20
3.33382809720561
30
0
41
1
10
55.4480447973622
20
3.31504416090121
30
0
41
1
10
55.4619212219897
20
3.27995544946225
30
0
41
1
10
55.4715911773442
20
3.26323270280096
30
0
41
1
10
55.4951996806104
20
3.2329225817798
30
0
41
1
10
55.5096503443704
20
3.21920954309633
30
0
41
1
10
55.5407256354843
20
3.19699264917875
30
0
41
1
10
55.5576723136536
20
3.18824089478596
30
0
41
1
10
55.5749288012412
20
3.18211454731264
30
0
0
SPLINE
5
D0
100
AcDbEntity
8
1
62
256
6
ByLayer
370
-1
48
1
60
0
100
AcDbSpline
70
4
71
3
72
18
73
14
40
0
40
0
40
0
40
0
40
0.212529039001877
40
0.212529039001877
40
0.388280617468762
40
0.388280617468762
40
0.565680458455874
40
0.565680458455874
40
0.720624903190778
40
0.720624903190778
40
0.926704197203072
40
0.926704197203072
40
1
40
1
40
1
40
1
41
1
10
56.7636860009689
20
2.48710933895802
30
0
41
1
10
56.7329500554231
20
2.51457504849529
30
0
41
1
10
56.6964337716354
20
2.53850313494343
30
0
41
1
10
56.6218481630253
20
2.5719680445828
30
0
41
1
10
56.5842535473302
20
2.58358426612864
30
0
41
1
10
56.5059972006517
20
2.5970123048987
30
0
41
1
10
56.4641388843841
20
2.59884180484985
30
0
41
1
10
56.3889238936481
20
2.59250665301886
30
0
41
1
10
56.3542593603648
20
2.58554428699003
30
0
41
1
10
56.2799132241561
20
2.56194284490417
30
0
41
1
10
56.2410066265545
20
2.54257382286931
30
0
41
1
10
56.1954577690698
20
2.51098608262117
30
0
41
1
10
56.184015062308
20
2.50208647984758
30
0
41
1
10
56.1732214862887
20
2.49271867669827
30
0
0
SPLINE
5
D1
100
AcDbEntity
8
1
62
256
6
ByLayer
370
-1
48
1
60
0
100
AcDbSpline
70
4
71
3
72
18
73
14
40
0
40
0
40
0
40
0
40
0.0808141096386269
40
0.0808141096386269
40
0.283077876294433
40
0.283077876294433
40
0.447079626597956
40
0.447079626597956
40
0.611894536160907
40
0.611894536160907
40
0.766319849166237
40
0.766319849166237
40
1
40
1
40
1
40
1
41
1
10
55.8661330154006
20
2.67225751502605
30
0
41
1
10
55.8703061703404
20
2.68700823568028
30
0
41
1
10
55.8735823942465
20
2.70217936063807
30
0
41
1
10
55.8816302836718
20
2.75628790250792
30
0
41
1
10
55.8813349574725
20
2.79769357613051
30
0
41
1
10
55.867842349366
20
2.87341976228976
30
0
41
1
10
55.8568481203094
20
2.90843825778234
30
0
41
1
10
55.8255514658494
20
2.97540086056233
30
0
41
1
10
55.8047543094875
20
3.00818826248104
30
0
41
1
10
55.7584082135518
20
3.06457241438585
30
0
41
1
10
55.7327488301266
20
3.08931086507042
30
0
41
1
10
55.6651351943984
20
3.14186556919714
30
0
41
1
10
55.6202527707787
20
3.1660237649418
30
0
41
1
10
55.5749288012412
20
3.18211454731269
30
0
0
SPLINE
5
D2
100
AcDbEntity
8
1
62
256
6
ByLayer
370
-1
48
1
60
0
100
AcDbSpline
70
4
71
3
72
14
73
10
40
0
40
0
40
0
40
0
40
0.0509497022844756
40
0.0509497022844756
40
0.387626223357173
40
0.387626223357173
40
0.835144276720656
40
0.835144276720656
40
1
40
1
40
1
40
1
41
1
10
57.1052720280839
20
2.93842187685257
30
0
41
1
10
57.1028480771734
20
2.93366738754361
30
0
41
1
10
57.1005195579835
20
2.92888163088369
30
0
41
1
10
57.083679451527
20
2.89256553162517
30
0
41
1
10
57.073273792138
20
2.85972312603559
30
0
41
1
10
57.0593895810055
20
2.78540266897747
30
0
41
1
10
57.0589277263807
20
2.74335083145269
30
0
41
1
10
57.0668958665267
20
2.68955502207425
30
0
41
1
10
57.0699125301392
20
2.67527987596378
30
0
41
1
10
57.0737289133321
20
2.66136113188853
30
0
0
SPLINE
5
D3
100
AcDbEntity
8
1
62
256
6
ByLayer
370
-1
48
1
60
0
100
AcDbSpline
70
4
71
3
72
14
73
10
40
0
40
0
40
0
40
0
40
0.281707882974696
40
0.281707882974696
40
0.569273570142075
40
0.569273570142075
40
0.829816619826926
40
0.829816619826926
40
1
40
1
40
1
40
1
41
1
10
56.1884004033484
20
4.21580207784947
30
0
41
1
10
56.1736295436664
20
4.23184553968605
30
0
41
1
10
56.1558167574984
20
4.24571934783771
30
0
41
1
10
56.1160647041129
20
4.26645419328398
30
0
41
1
10
56.0934131293578
20
4.27344737233312
30
0
41
1
10
56.0493632934909
20
4.27784611842853
30
0
41
1
10
56.0273809528982
20
4.27611894330877
30
0
41
1
10
55.993007311431
20
4.26672088594307
30
0
41
1
10
55.979664223471
20
4.2612649410365
30
0
41
1
10
55.9672416895619
20
4.25430981640176
30
0
0
SPLINE
5
D4
100
AcDbEntity
8
1
62
256
6
ByLayer
370
-1
48
1
60
0
100
AcDbSpline
70
4
71
3
72
14
73
10
40
0
40
0
40
0
40
0
40
0.282188954218734
40
0.282188954218734
40
0.56913380755728
40
0.56913380755728
40
0.829093230661984
40
0.829093230661984
40
1
40
1
40
1
40
1
41
1
10
55.5782022774781
20
3.53571865535028
30
0
41
1
10
55.5579491486412
20
3.53169905735911
30
0
41
1
10
55.5380080248905
20
3.52391719196658
30
0
41
1
10
55.5020188518739
20
3.50114123714045
30
0
41
1
10
55.4855074434708
20
3.48564102335155
30
0
41
1
10
55.4609931180809
20
3.45066146939462
30
0
41
1
10
55.4519977080866
20
3.43114422977172
30
0
41
1
10
55.4434591031763
20
3.39702743668872
30
0
41
1
10
55.4416496793739
20
3.38277320272954
30
0
41
1
10
55.4415425912417
20
3.36851722082059
30
0
0
SPLINE
5
D5
100
AcDbEntity
8
1
62
256
6
ByLayer
370
-1
48
1
60
0
100
AcDbSpline
70
4
71
3
72
18
73
14
40
0
40
0
40
0
40
0
40
0.0415871275910434
40
0.0415871275910434
40
0.266016169662677
40
0.266016169662677
40
0.491993915041226
40
0.491993915041226
40
0.73133796235289
40
0.73133796235289
40
0.99340128687187
40
0.99340128687187
40
1
40
1
40
1
40
1
41
1
10
56.9857410037032
20
2.4657038122964
30
0
41
1
10
56.9888039644928
20
2.46741870188325
30
0
41
1
10
56.9918186901394
20
2.46921527850313
30
0
41
1
10
57.010593607042
20
2.48110412812838
30
0
41
1
10
57.0249746980636
20
2.49352643044469
30
0
41
1
10
57.0487712188154
20
2.52110632678432
30
0
41
1
10
57.0584664964183
20
2.53662586530689
30
0
41
1
10
57.0727511045205
20
2.56944837497681
30
0
41
1
10
57.0772018663972
20
2.58720710458681
30
0
41
1
10
57.0804570066693
20
2.62351264892408
30
0
41
1
10
57.0787487359748
20
2.64242889014113
30
0
41
1
10
57.0739718391383
20
2.66046750814792
30
0
41
1
10
57.0738513265293
20
2.66091467830216
30
0
41
1
10
57.0737289133321
20
2.66136113188853
30
0
0
SPLINE
5
D6
100
AcDbEntity
8
1
62
256
6
ByLayer
370
-1
48
1
60
0
100
AcDbSpline
70
4
71
3
72
16
73
12
40
0
40
0
40
0
40
0
40
0.0773824673442128
40
0.0773824673442128
40
0.393169299578806
40
0.393169299578806
40
0.675480058491723
40
0.675480058491723
40
0.924660118277633
40
0.924660118277633
40
1
40
1
40
1
40
1
41
1
10
57.0859533889197
20
4.030653901779
30
0
41
1
10
57.0874578141654
20
4.03658358965311
30
0
41
1
10
57.088706632335
20
4.04260726351686
30
0
41
1
10
57.0936361468889
20
4.07326825809932
30
0
41
1
10
57.0931194201426
20
4.09945513924478
30
0
41
1
10
57.0825514520049
20
4.14692233053299
30
0
41
1
10
57.0733015134054
20
4.16915912714882
30
0
41
1
10
57.048840391115
20
4.20593806106746
30
0
41
1
10
57.0340733633597
20
4.22159876132363
30
0
41
1
10
57.0122110720513
20
4.23777184432254
30
0
41
1
10
57.0068903566619
20
4.24128159675382
30
0
41
1
10
57.0014105744947
20
4.24448534361463
30
0
0
SPLINE
5
D7
100
AcDbEntity
8
1
62
256
6
ByLayer
370
-1
48
1
60
0
100
AcDbSpline
70
4
71
3
72
12
73
8
40
0
40
0
40
0
40
0
40
0.462753666795549
40
0.462753666795549
40
0.844442931867939
40
0.844442931867939
40
1
40
1
40
1
40
1
41
1
10
57.3738797566614
20
3.16710937347415
30
0
41
1
10
57.3318971668023
20
3.15321065620759
30
0
41
1
10
57.2902575858051
20
3.13260764496943
30
0
41
1
10
57.2201734063864
20
3.08349010444445
30
0
41
1
10
57.1899583996652
20
3.0563714159307
30
0
41
1
10
57.1532127629367
20
3.01334975209193
30
0
41
1
10
57.1431530628487
20
3.00021713135465
30
0
41
1
10
57.1338929117795
20
2.98664750047928
30
0
0
SPLINE
5
D8
100
AcDbEntity
8
1
62
256
6
ByLayer
370
-1
48
1
60
0
100
AcDbSpline
70
4
71
3
72
14
73
10
40
0
40
0
40
0
40
0
40
0.249169627198976
40
0.249169627198976
40
0.540807793069206
40
0.540807793069206
40
0.804663904150145
40
0.804663904150145
40
1
40
1
40
1
40
1
41
1
10
56.7636860009688
20
2.48710933895796
30
0
41
1
10
56.7768823035348
20
2.47531709353294
30
0
41
1
10
56.7924195099133
20
2.46512912058228
30
0
41
1
10
56.8294775163756
20
2.44839071376919
30
0
41
1
10
56.8521983584362
20
2.44253265159875
30
0
41
1
10
56.8966855121484
20
2.4395180075087
30
0
41
1
10
56.9190158882176
20
2.4415781492203
30
0
41
1
10
56.9559916030467
20
2.45145673580726
30
0
41
1
10
56.971490652064
20
2.457725329608
30
0
41
1
10
56.9857410037032
20
2.4657038122964
30
0
0
SPLINE
5
D9
100
AcDbEntity
8
1
62
256
6
ByLayer
370
-1
48
1
60
0
100
AcDbSpline
70
4
71
3
72
16
73
12
40
0
40
0
40
0
40
0
40
0.0648108843862812
40
0.0648108843862812
40
0.288738915147909
40
0.288738915147909
40
0.515532304902535
40
0.515532304902535
40
0.756760256041607
40
0.756760256041607
40
1
40
1
40
1
40
1
41
1
10
55.9672416895619
20
4.25430981640176
30
0
41
1
10
55.9624786282932
20
4.25164307505827
30
0
41
1
10
55.9578288619758
20
4.24874829988892
30
0
41
1
10
55.9378671486859
20
4.23500079597068
30
0
41
1
10
55.9239199149463
20
4.22166922505554
30
0
41
1
10
55.9009562379651
20
4.19176531864264
30
0
41
1
10
55.891701018505
20
4.17478248095796
30
0
41
1
10
55.8783041515277
20
4.13855546640571
30
0
41
1
10
55.8743388143262
20
4.11878990227433
30
0
41
1
10
55.8721936726333
20
4.07976960935744
30
0
41
1
10
55.874013045834
20
4.0601010106931
30
0
41
1
10
55.878353120808
20
4.04146689693602
30
0
0
SPLINE
5
DA
100
AcDbEntity
8
1
62
256
6
ByLayer
370
-1
48
1
60
0
100
AcDbSpline
70
4
71
3
72
14
73
10
40
0
40
0
40
0
40
0
40
0.25917200086453
40
0.25917200086453
40
0.548996251316374
40
0.548996251316374
40
0.811288215848485
40
0.811288215848485
40
1
40
1
40
1
40
1
41
1
10
57.3738797566614
20
3.16710937347409
30
0
41
1
10
57.3926176721813
20
3.17331273040966
30
0
41
1
10
57.4110646984638
20
3.18255820675404
30
0
41
1
10
57.4465890722168
20
3.20789177731913
30
0
41
1
10
57.46378729995
20
3.22510943496792
30
0
41
1
10
57.4896052403468
20
3.26271446675727
30
0
41
1
10
57.4992437141203
20
3.28323660286617
30
0
41
1
10
57.5091082969764
20
3.31976762714393
30
0
41
1
10
57.5113219046347
20
3.33576151924328
30
0
41
1
10
57.5114401020234
20
3.35149640787753
30
0
0
SPLINE
5
DB
100
AcDbEntity
8
1
62
256
6
ByLayer
370
-1
48
1
60
0
100
AcDbSpline
70
4
71
3
72
16
73
12
40
0
40
0
40
0
40
0
40
0.0396185262706467
40
0.0396185262706467
40
0.264683044238488
40
0.264683044238488
40
0.491181391971471
40
0.491181391971471
40
0.730984162932306
40
0.730984162932306
40
1
40
1
40
1
40
1
41
1
10
55.9515721187705
20
2.47552828508347
30
0
41
1
10
55.954453938869
20
2.47384343305609
30
0
41
1
10
55.9573827988783
20
2.47222996783953
30
0
41
1
10
55.9770556488064
20
2.46203677445243
30
0
41
1
10
55.9952992528944
20
2.45571755809388
30
0
41
1
10
56.0319569231488
20
2.44854559075378
30
0
41
1
10
56.050837186806
20
2.44762299163972
30
0
41
1
10
56.0878434818208
20
2.45089996414191
30
0
41
1
10
56.1063266538455
20
2.45542584503494
30
0
41
1
10
56.1418339957541
20
2.46974479798675
30
0
41
1
10
56.1588863260077
20
2.48027711336599
30
0
41
1
10
56.1732214862887
20
2.49271867669827
30
0
0
SPLINE
5
DC
100
AcDbEntity
8
1
62
256
6
ByLayer
370
-1
48
1
60
0
100
AcDbSpline
70
4
71
3
72
12
73
8
40
0
40
0
40
0
40
0
40
0.447009754952861
40
0.447009754952861
40
0.831356966909369
40
0.831356966909369
40
1
40
1
40
1
40
1
41
1
10
55.578202277478
20
3.53571865535025
30
0
41
1
10
55.6184794461547
20
3.54371238449716
30
0
41
1
10
55.6584274400107
20
3.55825252222755
30
0
41
1
10
55.7273795639869
20
3.59806735783002
30
0
41
1
10
55.7578688640847
20
3.6221092766894
30
0
41
1
10
55.7959359295222
20
3.66356436180587
30
0
41
1
10
55.8068844041815
20
3.67723059542851
30
0
41
1
10
55.8169042787374
20
3.69166425155783
30
0
0
SPLINE
5
DD
100
AcDbEntity
8
1
62
256
6
ByLayer
370
-1
48
1
60
0
100
AcDbSpline
70
4
71
3
72
16
73
12
40
0
40
0
40
0
40
0
40
0.153999978184306
40
0.153999978184306
40
0.378226214487583
40
0.378226214487583
40
0.610165065453014
40
0.610165065453014
40
0.860479460079174
40
0.860479460079174
40
1
40
1
40
1
40
1
41
1
10
57.0014105744947
20
4.24448534361463
30
0
41
1
10
56.9903065453029
20
4.25097729850987
30
0
41
1
10
56.978433041896
20
4.25626163353058
30
0
41
1
10
56.9485540812952
20
4.26580534514687
30
0
41
1
10
56.9298240252396
20
4.26858565140719
30
0
41
1
10
56.8926329405662
20
4.26831772459027
30
0
41
1
10
56.8737342329932
20
4.265080078751
30
0
41
1
10
56.8371801499877
20
4.25295599510395
30
0
41
1
10
56.8192784105794
20
4.24351149216079
30
0
41
1
10
56.7946849974578
20
4.22532653127379
30
0
41
1
10
56.7864241953983
20
4.21804581027376
30
0
41
1
10
56.7788649180301
20
4.21019274010717
30
0
0
LINE
5
4A
100
AcDbEntity
8
80
62
256
6
ByLayer
370
-1
48
1
60
0
100
AcDbLine
10
0
20
0
30
0
11
-10
21
0
31
0
39
0
210
0
220
0
230
1
0
LINE
5
4B
100
AcDbEntity
8
81
62
256
6
ByLayer
370
-1
48
1
60
0
100
AcDbLine
10
59.925
20
8.9
30
0
11
69.925
21
8.9
31
0
39
0
210
0
220
0
230
1
0
LINE
5
4C
100
AcDbEntity
8
SK4
62
256
6
ByLayer
370
-1
48
0.05
60
0
100
AcDbLine
10
-96.325
20
0
30
0
11
64.689844
21
0
31
0
39
0
210
0
220
0
230
1
0
LINE
5
4E
100
AcDbEntity
8
4
62
256
6
ByLayer
370
-1
48
0.05
60
0
100
AcDbLine
10
0
20
0
30
0
11
64.689844
21
0
31
0
39
0
210
0
220
0
230
1
0
LINE
5
50
100
AcDbEntity
8
SK1
62
256
6
ByLayer
370
-1
48
1
60
0
100
AcDbLine
10
-90.825
20
4.99375
30
0
11
-91.325
21
4.49375
31
0
39
0
210
0
220
0
230
1
0
LINE
5
52
100
AcDbEntity
8
SK1
62
256
6
ByLayer
370
-1
48
1
60
0
100
AcDbLine
10
-91.325
20
-4.49375
30
0
11
-90.825
21
-4.99375
31
0
39
0
210
0
220
0
230
1
0
LINE
5
53
100
AcDbEntity
8
SK1
62
256
6
ByLayer
370
-1
48
1
60
0
100
AcDbLine
10
-90.825
20
-4.99375
30
0
11
0
21
-4.99375
31
0
39
0
210
0
220
0
230
1
0
LINE
5
54
100
AcDbEntity
8
SK1
62
256
6
ByLayer
370
-1
48
1
60
0
100
AcDbLine
10
0
20
4.99375
30
0
11
-90.825
21
4.99375
31
0
39
0
210
0
220
0
230
1
0
LINE
5
55
100
AcDbEntity
8
1
62
256
6
ByLayer
370
-1
48
1
60
0
100
AcDbLine
10
55.873512
20
2.64052
30
0
11
55.879399
21
2.752859
31
0
39
0
210
0
220
0
230
1
0
LINE
5
56
100
AcDbEntity
8
1
62
256
6
ByLayer
370
-1
48
1
60
0
100
AcDbLine
10
58.193192
20
3.156475
30
0
11
58.19798
21
3.247841
31
0
39
0
210
0
220
0
230
1
0
LINE
5
57
100
AcDbEntity
8
1
62
256
6
ByLayer
370
-1
48
1
60
0
100
AcDbLine
10
54.752708
20
3.4284
30
0
11
54.74792
21
3.337034
31
0
39
0
210
0
220
0
230
1
0
LINE
5
58
100
AcDbEntity
8
1
62
256
6
ByLayer
370
-1
48
1
60
0
100
AcDbLine
10
57.06132
20
2.777895
30
0
11
57.055534
21
2.667481
31
0
39
0
210
0
220
0
230
1
0
LINE
5
59
100
AcDbEntity
8
1
62
256
6
ByLayer
370
-1
48
1
60
0
100
AcDbLine
10
57.072166
20
3.940113
30
0
11
57.066281
21
3.827822
31
0
39
0
210
0
220
0
230
1
0
LINE
5
5A
100
AcDbEntity
8
1
62
256
6
ByLayer
370
-1
48
1
60
0
100
AcDbLine
10
55.884259
20
3.800861
30
0
11
55.890046
21
3.911281
31
0
39
0
210
0
220
0
230
1
0
LINE
5
5B
100
AcDbEntity
8
1
62
256
6
ByLayer
370
-1
48
1
60
0
100
AcDbLine
10
53.303923
20
-2.151537
30
0
11
53.366194
21
-2.171442
31
0
39
0
210
0
220
0
230
1
0
LINE
5
5C
100
AcDbEntity
8
1
62
256
6
ByLayer
370
-1
48
1
60
0
100
AcDbLine
10
53.442921
20
-2.175463
30
0
11
53.506931
21
-2.162177
31
0
39
0
210
0
220
0
230
1
0
LINE
5
5D
100
AcDbEntity
8
1
62
256
6
ByLayer
370
-1
48
1
60
0
100
AcDbLine
10
51.103206
20
5.04375
30
0
11
38.675
21
5.04375
31
0
39
0
210
0
220
0
230
1
0
LINE
5
5E
100
AcDbEntity
8
1
62
256
6
ByLayer
370
-1
48
1
60
0
100
AcDbLine
10
38.675
20
-5.04375
30
0
11
53.387559
21
-5.04375
31
0
39
0
210
0
220
0
230
1
0
LINE
5
5F
100
AcDbEntity
8
1
62
256
6
ByLayer
370
-1
48
1
60
0
100
AcDbLine
10
0
20
-4.99375
30
0
11
38.675
21
-4.99375
31
0
39
0
210
0
220
0
230
1
0
LINE
5
60
100
AcDbEntity
8
1
62
256
6
ByLayer
370
-1
48
1
60
0
100
AcDbLine
10
38.675
20
4.99375
30
0
11
0
21
4.99375
31
0
39
0
210
0
220
0
230
1
0
LINE
5
61
100
AcDbEntity
8
1
62
256
6
ByLayer
370
-1
48
1
60
0
100
AcDbLine
10
53.387559
20
-5.04375
30
0
11
53.551577
21
-5.14275
31
0
39
0
210
0
220
0
230
1
0
LINE
5
62
100
AcDbEntity
8
1
62
256
6
ByLayer
370
-1
48
1
60
0
100
AcDbLine
10
52.557101
20
-0.000192
30
0
11
52.5713
21
0.270745
31
0
39
0
210
0
220
0
230
1
0
LINE
5
63
100
AcDbEntity
8
1
62
256
6
ByLayer
370
-1
48
1
60
0
100
AcDbLine
10
52.362667
20
-1.863411
30
0
11
52.372348
21
-1.678683
31
0
39
0
210
0
220
0
230
1
0
LINE
5
64
100
AcDbEntity
8
1
62
256
6
ByLayer
370
-1
48
1
60
0
100
AcDbLine
10
56.064948
20
-5.14275
30
0
11
53.551577
21
-5.14275
31
0
39
0
210
0
220
0
230
1
0
LINE
5
65
100
AcDbEntity
8
1
62
256
6
ByLayer
370
-1
48
1
60
0
100
AcDbLine
10
49.795173
20
5.033198
30
0
11
52.449864
21
-4.797905
31
0
39
0
210
0
220
0
230
1
0
LINE
5
66
100
AcDbEntity
8
1
62
256
6
ByLayer
370
-1
48
1
60
0
100
AcDbLine
10
56.343664
20
-4.906078
30
0
11
59.147127
21
-2.525518
31
0
39
0
210
0
220
0
230
1
0
LINE
5
67
100
AcDbEntity
8
1
62
256
6
ByLayer
370
-1
48
1
60
0
100
AcDbLine
10
53.154157
20
0.631919
30
0
11
52.5713
21
0.270745
31
0
39
0
210
0
220
0
230
1
0
LINE
5
68
100
AcDbEntity
8
1
62
256
6
ByLayer
370
-1
48
1
60
0
100
AcDbLine
10
59.342309
20
1.198772
30
0
11
59.147127
21
-2.525518
31
0
39
0
210
0
220
0
230
1
0
LINE
5
69
100
AcDbEntity
8
1
62
256
6
ByLayer
370
-1
48
1
60
0
100
AcDbLine
10
54.406958
20
-1.632919
30
0
11
54.399036
21
-1.784091
31
0
39
0
210
0
220
0
230
1
0
LINE
5
6A
100
AcDbEntity
8
1
62
256
6
ByLayer
370
-1
48
1
60
0
100
AcDbLine
10
0
20
-0.204215
30
0
11
38.675
21
-0.204215
31
0
39
0
210
0
220
0
230
1
0
LINE
5
6B
100
AcDbEntity
8
1
62
256
6
ByLayer
370
-1
48
1
60
0
100
AcDbLine
10
38.675
20
-0.301074
30
0
11
38.675
21
-5.04375
31
0
39
0
210
0
220
0
230
1
0
LINE
5
6C
100
AcDbEntity
8
1
62
256
6
ByLayer
370
-1
48
1
60
0
100
AcDbLine
10
38.675
20
5.04375
30
0
11
38.675
21
0.301074
31
0
39
0
210
0
220
0
230
1
0
LINE
5
6D
100
AcDbEntity
8
1
62
256
6
ByLayer
370
-1
48
1
60
0
100
AcDbLine
10
38.675
20
0.301074
30
0
11
46.22135
21
0.301074
31
0
39
0
210
0
220
0
230
1
0
LINE
5
6E
100
AcDbEntity
8
1
62
256
6
ByLayer
370
-1
48
1
60
0
100
AcDbLine
10
0
20
-4.99375
30
0
11
0
21
-0.204215
31
0
39
0
210
0
220
0
230
1
0
LINE
5
6F
100
AcDbEntity
8
1
62
256
6
ByLayer
370
-1
48
1
60
0
100
AcDbLine
10
0
20
0.204215
30
0
11
0
21
4.99375
31
0
39
0
210
0
220
0
230
1
0
LINE
5
70
100
AcDbEntity
8
1
62
256
6
ByLayer
370
-1
48
1
60
0
100
AcDbLine
10
38.675
20
0.204215
30
0
11
0
21
0.204215
31
0
39
0
210
0
220
0
230
1
0
LINE
5
71
100
AcDbEntity
8
1
62
256
6
ByLayer
370
-1
48
1
60
0
100
AcDbLine
10
53.139954
20
0.360979
30
0
11
52.557101
21
-0.000192
31
0
39
0
210
0
220
0
230
1
0
LINE
5
72
100
AcDbEntity
8
1
62
256
6
ByLayer
370
-1
48
1
60
0
100
AcDbLine
10
0
20
-0.204215
30
0
11
0
21
0.204215
31
0
39
0
210
0
220
0
230
1
0
LINE
5
73
100
AcDbEntity
8
1
62
256
6
ByLayer
370
-1
48
1
60
0
100
AcDbLine
10
38.675
20
-0.301074
30
0
11
38.675
21
-0.204215
31
0
39
0
210
0
220
0
230
1
0
LINE
5
74
100
AcDbEntity
8
1
62
256
6
ByLayer
370
-1
48
1
60
0
100
AcDbLine
10
38.675
20
0.204215
30
0
11
38.675
21
0.301074
31
0
39
0
210
0
220
0
230
1
0
LINE
5
75
100
AcDbEntity
8
1
62
256
6
ByLayer
370
-1
48
1
60
0
100
AcDbLine
10
56.343664
20
-4.906078
30
0
11
56.064948
21
-5.14275
31
0
39
0
210
0
220
0
230
1
0
LINE
5
76
100
AcDbEntity
8
1
62
256
6
ByLayer
370
-1
48
1
60
0
100
AcDbLine
10
46.395434
20
-0.301074
30
0
11
38.675
21
-0.301074
31
0
39
0
210
0
220
0
230
1
0
LINE
5
77
100
AcDbEntity
8
1
62
256
6
ByLayer
370
-1
48
1
60
0
100
AcDbLine
10
53.387559
20
-5.04375
30
0
11
53.387559
21
-4.799842
31
0
39
0
210
0
220
0
230
1
0
LINE
5
78
100
AcDbEntity
8
SK1
62
256
6
ByLayer
370
-1
48
1
60
0
100
AcDbLine
10
-20.075
20
-0.204215
30
0
11
-20.075
21
0.204215
31
0
39
0
210
0
220
0
230
1
0
LINE
5
79
100
AcDbEntity
8
SK1
62
256
6
ByLayer
370
-1
48
1
60
0
100
AcDbLine
10
0
20
0.204215
30
0
11
-20.075
21
0.204215
31
0
39
0
210
0
220
0
230
1
0
LINE
5
7A
100
AcDbEntity
8
SK1
62
256
6
ByLayer
370
-1
48
1
60
0
100
AcDbLine
10
-20.075
20
-0.204215
30
0
11
0
21
-0.204215
31
0
39
0
210
0
220
0
230
1
0
LINE
5
7B
100
AcDbEntity
8
SK1
62
256
6
ByLayer
370
-1
48
1
60
0
100
AcDbLine
10
-91.325
20
-4.49375
30
0
11
-91.325
21
4.49375
31
0
39
0
210
0
220
0
230
1
0
LINE
5
7C
100
AcDbEntity
8
SK1
62
256
6
ByLayer
370
-1
48
1
60
0
100
AcDbLine
10
0
20
-4.99375
30
0
11
0
21
-0.204215
31
0
39
0
210
0
220
0
230
1
0
LINE
5
7D
100
AcDbEntity
8
SK1
62
256
6
ByLayer
370
-1
48
1
60
0
100
AcDbLine
10
0
20
0.204215
30
0
11
0
21
4.99375
31
0
39
0
210
0
220
0
230
1
0
LINE
5
7E
100
AcDbEntity
8
SK1
62
256
6
ByLayer
370
-1
48
1
60
0
100
AcDbLine
10
0
20
-0.204215
30
0
11
0
21
0.204215
31
0
39
0
210
0
220
0
230
1
0
LINE
5
7F
100
AcDbEntity
8
SK1
62
256
6
ByLayer
370
-1
48
1
60
0
100
AcDbLine
10
-90.825
20
-4.99375
30
0
11
-90.825
21
4.99375
31
0
39
0
210
0
220
0
230
1
0
LINE
5
80
100
AcDbEntity
8
1
62
256
6
ByLayer
370
-1
48
1
60
0
100
AcDbLine
10
53.381176
20
4.963614
30
0
11
53.029014
21
-1.756027
31
0
39
0
210
0
220
0
230
1
0
LINE
5
81
100
AcDbEntity
8
1
62
256
6
ByLayer
370
-1
48
1
60
0
100
AcDbLine
10
59.317686
20
8.840261
30
0
11
53.567059
21
5.276825
31
0
39
0
210
0
220
0
230
1
0
LINE
5
82
100
AcDbEntity
8
1
62
256
6
ByLayer
370
-1
48
1
60
0
100
AcDbLine
10
59.572303
20
1.765867
30
0
11
59.924465
21
8.485509
31
0
39
0
210
0
220
0
230
1
0
LINE
5
83
100
AcDbEntity
8
1
62
256
6
ByLayer
370
-1
48
1
60
0
100
AcDbLine
10
53.635793
20
-2.110779
30
0
11
59.386419
21
1.452657
31
0
39
0
210
0
220
0
230
1
0
LINE
5
84
100
AcDbEntity
8
1
62
256
6
ByLayer
370
-1
48
1
60
0
100
AcDbLine
10
55.816904
20
3.691664
30
0
11
55.811402
21
3.586679
31
0
39
0
210
0
220
0
230
1
0
LINE
5
85
100
AcDbEntity
8
1
62
256
6
ByLayer
370
-1
48
1
60
0
100
AcDbLine
10
55.840023
20
3.634905
30
0
11
55.845525
21
3.73989
31
0
39
0
210
0
220
0
230
1
0
LINE
5
86
100
AcDbEntity
8
1
62
256
6
ByLayer
370
-1
48
1
60
0
100
AcDbLine
10
57.0687
20
2.565398
30
0
11
57.073729
21
2.661361
31
0
39
0
210
0
220
0
230
1
0
LINE
5
87
100
AcDbEntity
8
1
62
256
6
ByLayer
370
-1
48
1
60
0
100
AcDbLine
10
57.371011
20
3.403512
30
0
11
57.377158
21
3.520797
31
0
39
0
210
0
220
0
230
1
0
LINE
5
88
100
AcDbEntity
8
1
62
256
6
ByLayer
370
-1
48
1
60
0
100
AcDbLine
10
56.772718
20
4.092908
30
0
11
56.778865
21
4.210193
31
0
39
0
210
0
220
0
230
1
0
LINE
5
89
100
AcDbEntity
8
1
62
256
6
ByLayer
370
-1
48
1
60
0
100
AcDbLine
10
56.182254
20
4.098517
30
0
11
56.1884
21
4.215802
31
0
39
0
210
0
220
0
230
1
0
LINE
5
8A
100
AcDbEntity
8
1
62
256
6
ByLayer
370
-1
48
1
60
0
100
AcDbLine
10
55.572058
20
3.418476
30
0
11
55.578202
21
3.535719
31
0
39
0
210
0
220
0
230
1
0
LINE
5
8B
100
AcDbEntity
8
1
62
256
6
ByLayer
370
-1
48
1
60
0
100
AcDbLine
10
55.862884
20
2.610263
30
0
11
55.866133
21
2.672258
31
0
39
0
210
0
220
0
230
1
0
LINE
5
8C
100
AcDbEntity
8
2
62
256
6
ByLayer
370
-1
48
1
60
1
100
AcDbLine
10
59.925
20
0
30
0
11
59.926
21
0.001
31
0
39
0
210
0
220
0
230
1
0
MTEXT
5
DE
100
AcDbEntity
8
SK6
62
256
6
ByLayer
370
-1
48
1
60
0
100
AcDbMText
10
-12.325
20
-18.123428
30
0
210
0
220
0
230
1
1
\W00.733;\fsimplex.shx,bigfont.shx;E10M-SDUCR 07-ER 
40
3.5
41
0
44
1.084337
50
0
71
7
72
5
7
DEFAULT
0
DIMENSION
5
111
100
AcDbEntity
8
2
62
256
6
ByLayer
370
-3
48
1
60
0
100
AcDbDimension
2
DimnDraft3D1
10
72.175
20
0
30
0
11
72.175
21
19.155
31
0
70
32
71
5
72
1
41
1
210
0
220
0
230
1
3
Standard
100
AcDbAlignedDimension
13
61.925
23
8.9
33
0
14
61.925
24
0
34
0
50
90
100
AcDbRotatedDimension
1001
ACAD
1000
DSTYLE
1002
{
1070
    74
1070
     0
1070
   279
1070
     0
1070
   172
1070
     1
1070
   173
1070
     1
1070
   340
1005
DF
1070
    77
1070
     1
1070
    73
1070
     0
1070
   171
1070
     4
1070
   274
1070
     4
1070
   177
1070
     2
1070
   176
1070
     2
1070
   178
1070
     7
1070
    78
1070
     8
1070
    41
1041
3.175
1070
   147
1041
2.25
1070
    42
1041
2.0
1070
    44
1041
2.0
1070
   140
1041
4.5
1070
   343
1005
112
1070
   344
1005
112
1002
}
0
DIMENSION
5
127
100
AcDbEntity
8
SK2
62
256
6
ByLayer
370
-3
48
1
60
0
100
AcDbDimension
2
DimnDraft3D2
10
-101.075
20
4.99375
30
0
11
-101.075
21
15.24875
31
0
70
32
71
5
72
1
41
1
210
0
220
0
230
1
3
Standard
100
AcDbAlignedDimension
13
-93.325
23
-4.99375
33
0
14
-93.325
24
4.99375
34
0
50
90
100
AcDbRotatedDimension
1001
ACAD
1000
DSTYLE
1002
{
1070
    74
1070
     0
1070
   279
1070
     0
1070
   172
1070
     1
1070
   173
1070
     1
1070
   340
1005
DF
1070
    77
1070
     1
1070
    73
1070
     0
1070
   171
1070
     4
1070
   274
1070
     4
1070
   177
1070
     2
1070
   176
1070
     2
1070
   178
1070
     7
1070
    78
1070
     8
1070
    41
1041
3.175
1070
   147
1041
2.25
1070
    42
1041
2.0
1070
    44
1041
2.0
1070
   140
1041
4.5
1070
   343
1005
112
1070
   344
1005
112
1002
}
0
DIMENSION
5
135
100
AcDbEntity
8
SK2
62
256
6
ByLayer
370
-3
48
1
60
0
100
AcDbDimension
2
DimnDraft3D3
10
-91.325
20
21.65
30
0
11
-21.952632
21
21.65
31
0
70
32
71
5
72
1
41
1
210
0
220
0
230
1
3
Standard
100
AcDbAlignedDimension
13
59.925
23
10.9
33
0
14
-91.325
24
6.99375
34
0
50
0
100
AcDbRotatedDimension
1001
ACAD
1000
DSTYLE
1002
{
1070
   279
1070
     0
1070
   172
1070
     1
1070
   173
1070
     1
1070
   340
1005
DF
1070
    77
1070
     1
1070
    73
1070
     0
1070
   171
1070
     4
1070
   274
1070
     4
1070
   177
1070
     2
1070
   176
1070
     2
1070
   178
1070
     7
1070
    78
1070
     8
1070
    41
1041
3.175
1070
   147
1041
2.25
1070
    42
1041
2.0
1070
    44
1041
2.0
1070
   140
1041
4.5
1070
   343
1005
112
1070
   344
1005
112
1002
}
0
DIMENSION
5
143
100
AcDbEntity
8
2
62
256
6
ByLayer
370
-3
48
1
60
0
100
AcDbDimension
2
DimnDraft3D4
10
108.384978
20
0
30
0
11
85.590382
21
-36.792664
31
0
70
34
71
5
72
1
41
1
210
0
220
0
230
1
3
Standard
100
AcDb2LineAngularDimension
13
59.453976
23
-0.087666
33
0
14
56.89796
24
-48.859355
34
0
15
61.925
25
0
35
0
16
88.662982
26
-30.775028
36
0
40
0
0
ENDSEC
0
SECTION
2
OBJECTS
0
DICTIONARY
5
174
330
0
100
AcDbDictionary
280
0
281
1
3
ACAD_GROUP
350
175
3
ACAD_MLINESTYLE
350
176
0
DICTIONARY
5
175
330
0
100
AcDbDictionary
280
0
281
1
0
DICTIONARY
5
176
330
0
100
AcDbDictionary
280
0
281
1
3
Standard
350
18
0
MLINESTYLE
5
18
330
176
100
AcDbMlineStyle
2
Standard
70
0
3

62
256
51
90
52
90
71
2
49
-0.5
62
256
6
ByLayer
49
0.5
62
256
6
ByLayer
0
RASTERVARIABLES
5
162
330

100
AcDbRasterVariables
90
0
70
1
71
1
72
1
0
ENDSEC
0
EOF
