0
SECTION
2
HEADER
9
$ACADVER
1
AC1015
9
$DWGCODEPAGE
3
ANSI_1252
9
$HANDSEED
5
18f
9
$ANGBASE
50
0
9
$ANGDIR
70
0
9
$ATTMODE
70
1
9
$AUNITS
70
0
9
$AUPREC
70
0
9
$CECOLOR
62
256
9
$CELTSCALE
40
1
9
$CELTYPE
6
ByLayer
9
$CELWEIGHT
370
-1
9
$CLAYER
8
0
9
$CMLJUST
70
0
9
$CMLSCALE
40
1
9
$CMLSTYLE
2
Standard
9
$DIMSTYLE
2
Standard
9
$TEXTSIZE
40
0.2
9
$TEXTSTYLE
7
Standard
9
$LUNITS
70
2
9
$LUPREC
70
4
9
$EXTNAMES
290
1
9
$INSUNITS
70
4
9
$LTSCALE
40
1
9
$LWDISPLAY
290
0
9
$PDMODE
70
0
9
$PDSIZE
40
0
9
$PLINEGEN
70
0
0
ENDSEC
0
SECTION
2
CLASSES
0
CLASS
1
RASTERVARIABLES
2
AcDbRasterVariables
3
ISM
90
0
280
0
281
0
0
ENDSEC
0
SECTION
2
TABLES
0
TABLE
2
VPORT
5
185
100
AcDbSymbolTable
0
VPORT
5
1
100
AcDbSymbolTableRecord
100
AcDbViewportTableRecord
2
*Active
70
0
10
0
20
0
11
1
21
1
12
-1
22
1
13
0
23
0
14
0.5
24
0.5
15
10
25
10
16
0
26
0
36
1
17
0
27
0
37
0
0
ENDTAB
0
TABLE
2
LTYPE
5
186
100
AcDbSymbolTable
0
LTYPE
5
14
100
AcDbSymbolTableRecord
100
AcDbLinetypeTableRecord
70
0
2
ByBlock
3

72
65
73
0
40
0
0
LTYPE
5
15
100
AcDbSymbolTableRecord
100
AcDbLinetypeTableRecord
70
0
2
ByLayer
3

72
65
73
0
40
0
0
LTYPE
5
16
100
AcDbSymbolTableRecord
100
AcDbLinetypeTableRecord
70
0
2
CONTINUOUS
3
Solid line
72
65
73
0
40
0
0
LTYPE
5
3B
100
AcDbSymbolTableRecord
100
AcDbLinetypeTableRecord
70
0
2
DASHED
3
__ __ __ __ __ __ __ __ __
72
65
73
2
40
25.72
49
12.86
74
0
49
-12.86
74
0
0
LTYPE
5
3C
100
AcDbSymbolTableRecord
100
AcDbLinetypeTableRecord
70
0
2
HIDDEN
3
_ _ _ _ _ _ _ _ _ _ _ _ _ _ _
72
65
73
2
40
0.5
49
0.25
74
0
49
-0.25
74
0
0
LTYPE
5
3D
100
AcDbSymbolTableRecord
100
AcDbLinetypeTableRecord
70
0
2
PHANTOM
3
____ _ _ ____ _ _ _____ _ _ ____
72
65
73
6
40
50.5
49
18
74
0
49
-6.5
74
0
49
6.5
74
0
49
-6.5
74
0
49
6.5
74
0
49
-6.5
74
0
0
LTYPE
5
3E
100
AcDbSymbolTableRecord
100
AcDbLinetypeTableRecord
70
0
2
CENTER
3
____ _ ____ _ ____ _ ____
72
65
73
4
40
47.5
49
22
74
0
49
-8.5
74
0
49
8.5
74
0
49
-8.5
74
0
0
LTYPE
5
3F
100
AcDbSymbolTableRecord
100
AcDbLinetypeTableRecord
70
0
2
DOT
3
.........................
72
65
73
2
40
10
49
0
74
0
49
-10
74
0
0
LTYPE
5
40
100
AcDbSymbolTableRecord
100
AcDbLinetypeTableRecord
70
0
2
DASHDOT
3
_._._._._._._._._._._._._._._._.
72
65
73
4
40
70
49
31
74
0
49
-13
74
0
49
13
74
0
49
-13
74
0
0
ENDTAB
0
TABLE
2
LAYER
5
187
100
AcDbSymbolTable
0
LAYER
5
10
100
AcDbSymbolTableRecord
100
AcDbLayerTableRecord
2
0
70
0
62
7
6
CONTINUOUS
290
1
370
-3
390
0
0
LAYER
5
42
100
AcDbSymbolTableRecord
100
AcDbLayerTableRecord
2
1
70
0
62
4
6
CONTINUOUS
290
1
370
-3
390
0
0
LAYER
5
44
100
AcDbSymbolTableRecord
100
AcDbLayerTableRecord
2
2
70
0
62
7
6
CONTINUOUS
290
1
370
-3
390
0
0
LAYER
5
46
100
AcDbSymbolTableRecord
100
AcDbLayerTableRecord
2
80
70
0
62
-6
6
CONTINUOUS
290
1
370
-3
390
0
0
LAYER
5
48
100
AcDbSymbolTableRecord
100
AcDbLayerTableRecord
2
81
70
0
62
-3
6
CONTINUOUS
290
1
370
-3
390
0
0
LAYER
5
4E
100
AcDbSymbolTableRecord
100
AcDbLayerTableRecord
2
4
70
0
62
-2
6
CENTER
290
1
370
-3
390
0
0
LAYER
5
171
100
AcDbSymbolTableRecord
100
AcDbLayerTableRecord
2
SK4
70
0
62
2
6
CENTER
290
1
370
-3
390
0
0
LAYER
5
172
100
AcDbSymbolTableRecord
100
AcDbLayerTableRecord
2
SK1
70
0
62
4
6
CONTINUOUS
290
1
370
-3
390
0
0
LAYER
5
173
100
AcDbSymbolTableRecord
100
AcDbLayerTableRecord
2
SK6
70
0
62
5
6
CONTINUOUS
290
1
370
-3
390
0
0
LAYER
5
174
100
AcDbSymbolTableRecord
100
AcDbLayerTableRecord
2
SK2
70
0
62
7
6
CONTINUOUS
290
1
370
-3
390
0
0
ENDTAB
0
TABLE
2
STYLE
5
188
100
AcDbSymbolTable
0
STYLE
5
11
100
AcDbSymbolTableRecord
100
AcDbTextStyleTableRecord
2
Standard
3
txt
70
0
71
0
40
0
41
1
42
0
50
0
0
STYLE
5
ED
100
AcDbSymbolTableRecord
100
AcDbTextStyleTableRecord
2
DEFAULT
3
simplex.shx
70
0
71
0
40
0
41
1
42
0
50
0
0
STYLE
5
110
100
AcDbSymbolTableRecord
100
AcDbTextStyleTableRecord
2
DWGDirectTextStyle
3
SIMPLEX
70
0
71
0
40
0
41
1
42
0
50
0
0
ENDTAB
0
TABLE
2
DIMSTYLE
5
189
100
AcDbSymbolTable
100
AcDbDimStyleTable
0
DIMSTYLE
105
27
100
AcDbSymbolTableRecord
100
AcDbDimStyleTableRecord
2
Standard
70
0
3
<>
41
0.18
42
0.0625
44
0.18
140
0.18
147
0.09
73
0
74
0
77
1
271
2
275
0
278
52
280
0
340
11
0
ENDTAB
0
TABLE
2
VIEW
5
18a
100
AcDbSymbolTable
0
ENDTAB
0
TABLE
2
UCS
5
18b
100
AcDbSymbolTable
0
ENDTAB
0
TABLE
2
APPID
5
18c
100
AcDbSymbolTable
0
APPID
5
12
100
AcDbSymbolTableRecord
100
AcDbRegAppTableRecord
2
ACAD
70
0
0
ENDTAB
0
TABLE
2
BLOCK_RECORD
5
18d
100
AcDbSymbolTable
0
BLOCK_RECORD
5
1F
100
AcDbSymbolTableRecord
100
AcDbBlockTableRecord
2
*Model_Space
340
0
70
0
0
BLOCK_RECORD
5
1B
100
AcDbSymbolTableRecord
100
AcDbBlockTableRecord
2
*Paper_Space
340
0
70
0
0
BLOCK_RECORD
5
23
100
AcDbSymbolTableRecord
100
AcDbBlockTableRecord
2
*Paper_Space0
340
0
70
0
0
BLOCK_RECORD
5
112
100
AcDbSymbolTableRecord
100
AcDbBlockTableRecord
2
DimnDraft3D1
340
0
70
0
0
BLOCK_RECORD
5
120
100
AcDbSymbolTableRecord
100
AcDbBlockTableRecord
2
_CLOSED
340
0
70
0
0
BLOCK_RECORD
5
127
100
AcDbSymbolTableRecord
100
AcDbBlockTableRecord
2
DimnDraft3D2
340
0
70
0
0
BLOCK_RECORD
5
136
100
AcDbSymbolTableRecord
100
AcDbBlockTableRecord
2
DimnDraft3D3
340
0
70
0
0
BLOCK_RECORD
5
144
100
AcDbSymbolTableRecord
100
AcDbBlockTableRecord
2
DimnDraft3D4
340
0
70
0
0
ENDTAB
0
ENDSEC
0
SECTION
2
BLOCKS
0
BLOCK
5
20
100
AcDbEntity
8
0
100
AcDbBlockBegin
2
*Model_Space
70
0
10
0
20
0
30
0
3
*Model_Space
0
ENDBLK
5
21
100
AcDbEntity
8
0
100
AcDbBlockEnd
0
BLOCK
5
1C
100
AcDbEntity
8
0
100
AcDbBlockBegin
2
*Paper_Space
70
0
10
0
20
0
30
0
3
*Paper_Space
0
ENDBLK
5
1D
100
AcDbEntity
8
0
100
AcDbBlockEnd
0
BLOCK
5
24
100
AcDbEntity
8
0
100
AcDbBlockBegin
2
*Paper_Space0
70
0
10
0
20
0
30
0
3
*Paper_Space0
0
ENDBLK
5
25
100
AcDbEntity
8
0
100
AcDbBlockEnd
0
BLOCK
5
11D
100
AcDbEntity
8
0
100
AcDbBlockBegin
2
DimnDraft3D1
70
0
10
0
20
0
30
0
3
DimnDraft3D1
0
MTEXT
5
113
100
AcDbEntity
8
2
62
256
6
ByLayer
370
-1
48
1
60
0
100
AcDbMText
10
59.05
20
16.28
30
0
210
0
220
0
230
1
1
\W01.000;\fsimplex.shx,bigfont.shx;5.0 
40
4.5
41
0
44
1.084337
50
90
71
7
72
5
7
DEFAULT
0
LINE
5
114
100
AcDbEntity
8
2
62
256
6
ByLayer
370
-1
48
1
60
0
100
AcDbLine
10
49.925
20
4.9
30
0
11
62.175
21
4.9
31
0
39
0
210
0
220
0
230
1
0
LINE
5
115
100
AcDbEntity
8
2
62
256
6
ByLayer
370
-1
48
1
60
0
100
AcDbLine
10
49.925
20
0
30
0
11
62.175
21
0
31
0
39
0
210
0
220
0
230
1
0
LINE
5
116
100
AcDbEntity
8
2
62
256
6
ByLayer
370
-1
48
1
60
0
100
AcDbLine
10
60.175
20
-11.25
30
0
11
60.175
21
22.177368
31
0
39
0
210
0
220
0
230
1
0
LINE
5
117
100
AcDbEntity
8
2
62
256
6
ByLayer
370
-1
48
1
60
0
100
AcDbLine
10
60.175
20
4.9
30
0
11
59.757003
21
8.074998
31
0
39
0
210
0
220
0
230
1
0
LINE
5
118
100
AcDbEntity
8
2
62
256
6
ByLayer
370
-1
48
1
60
0
100
AcDbLine
10
60.175
20
4.9
30
0
11
60.592997
21
8.075002
31
0
39
0
210
0
220
0
230
1
0
LINE
5
119
100
AcDbEntity
8
2
62
256
6
ByLayer
370
-1
48
1
60
0
100
AcDbLine
10
59.757003
20
8.074998
30
0
11
60.592997
21
8.075002
31
0
39
0
210
0
220
0
230
1
0
LINE
5
11A
100
AcDbEntity
8
2
62
256
6
ByLayer
370
-1
48
1
60
0
100
AcDbLine
10
60.175
20
0
30
0
11
60.592997
21
-3.174998
31
0
39
0
210
0
220
0
230
1
0
LINE
5
11B
100
AcDbEntity
8
2
62
256
6
ByLayer
370
-1
48
1
60
0
100
AcDbLine
10
60.175
20
0
30
0
11
59.757003
21
-3.175002
31
0
39
0
210
0
220
0
230
1
0
LINE
5
11C
100
AcDbEntity
8
2
62
256
6
ByLayer
370
-1
48
1
60
0
100
AcDbLine
10
60.592997
20
-3.174998
30
0
11
59.757003
21
-3.175002
31
0
39
0
210
0
220
0
230
1
0
ENDBLK
5
11E
100
AcDbEntity
8
0
100
AcDbBlockEnd
0
BLOCK
5
121
100
AcDbEntity
8
0
100
AcDbBlockBegin
2
_CLOSED
70
0
10
0
20
0
30
0
3
_CLOSED
0
LINE
5
123
100
AcDbEntity
8
0
62
256
6
ByLayer
370
-2
48
1
60
0
100
AcDbLine
10
-1
20
0.166667
30
0
11
0
21
0
31
0
39
0
210
0
220
0
230
1
0
LINE
5
124
100
AcDbEntity
8
0
62
256
6
ByLayer
370
-2
48
1
60
0
100
AcDbLine
10
0
20
0
30
0
11
-1
21
-0.166667
31
0
39
0
210
0
220
0
230
1
0
LINE
5
125
100
AcDbEntity
8
0
62
256
6
ByLayer
370
-2
48
1
60
0
100
AcDbLine
10
-1
20
0.166667
30
0
11
-1
21
-0.166667
31
0
39
0
210
0
220
0
230
1
0
LINE
5
126
100
AcDbEntity
8
0
62
256
6
ByLayer
370
-2
48
1
60
0
100
AcDbLine
10
0
20
0
30
0
11
-1
21
0
31
0
39
0
210
0
220
0
230
1
0
ENDBLK
5
122
100
AcDbEntity
8
0
100
AcDbBlockEnd
0
BLOCK
5
133
100
AcDbEntity
8
0
100
AcDbBlockBegin
2
DimnDraft3D2
70
0
10
0
20
0
30
0
3
DimnDraft3D2
0
MTEXT
5
128
100
AcDbEntity
8
SK2
62
256
6
ByLayer
370
-1
48
1
60
0
100
AcDbMText
10
-89.2
20
15.37375
30
0
210
0
220
0
230
1
1
\W01.000;\fsimplex.shx,bigfont.shx;%%c8 
40
4.5
41
0
44
1.084337
50
90
71
7
72
5
7
DEFAULT
0
LINE
5
12A
100
AcDbEntity
8
SK2
62
256
6
ByLayer
370
-1
48
1
60
0
100
AcDbLine
10
-80.325
20
-3.99375
30
0
11
-90.075
21
-3.99375
31
0
39
0
210
0
220
0
230
1
0
LINE
5
12B
100
AcDbEntity
8
SK2
62
256
6
ByLayer
370
-1
48
1
60
0
100
AcDbLine
10
-80.325
20
3.99375
30
0
11
-90.075
21
3.99375
31
0
39
0
210
0
220
0
230
1
0
LINE
5
12C
100
AcDbEntity
8
SK2
62
256
6
ByLayer
370
-1
48
1
60
0
100
AcDbLine
10
-88.075
20
20.513224
30
0
11
-88.075
21
-15.24375
31
0
39
0
210
0
220
0
230
1
0
LINE
5
12D
100
AcDbEntity
8
SK2
62
256
6
ByLayer
370
-1
48
1
60
0
100
AcDbLine
10
-88.075
20
-3.99375
30
0
11
-87.657003
21
-7.168748
31
0
39
0
210
0
220
0
230
1
0
LINE
5
12E
100
AcDbEntity
8
SK2
62
256
6
ByLayer
370
-1
48
1
60
0
100
AcDbLine
10
-88.075
20
-3.99375
30
0
11
-88.492997
21
-7.168752
31
0
39
0
210
0
220
0
230
1
0
LINE
5
12F
100
AcDbEntity
8
SK2
62
256
6
ByLayer
370
-1
48
1
60
0
100
AcDbLine
10
-87.657003
20
-7.168748
30
0
11
-88.492997
21
-7.168752
31
0
39
0
210
0
220
0
230
1
0
LINE
5
130
100
AcDbEntity
8
SK2
62
256
6
ByLayer
370
-1
48
1
60
0
100
AcDbLine
10
-88.075
20
3.99375
30
0
11
-88.492997
21
7.168748
31
0
39
0
210
0
220
0
230
1
0
LINE
5
131
100
AcDbEntity
8
SK2
62
256
6
ByLayer
370
-1
48
1
60
0
100
AcDbLine
10
-88.075
20
3.99375
30
0
11
-87.657003
21
7.168752
31
0
39
0
210
0
220
0
230
1
0
LINE
5
132
100
AcDbEntity
8
SK2
62
256
6
ByLayer
370
-1
48
1
60
0
100
AcDbLine
10
-88.492997
20
7.168748
30
0
11
-87.657003
21
7.168752
31
0
39
0
210
0
220
0
230
1
0
ENDBLK
5
134
100
AcDbEntity
8
0
100
AcDbBlockEnd
0
BLOCK
5
141
100
AcDbEntity
8
0
100
AcDbBlockBegin
2
DimnDraft3D3
70
0
10
0
20
0
30
0
3
DimnDraft3D3
0
MTEXT
5
137
100
AcDbEntity
8
SK2
62
256
6
ByLayer
370
-1
48
1
60
0
100
AcDbMText
10
-20.327632
20
18.775
30
0
210
0
220
0
230
1
1
\W01.000;\fsimplex.shx,bigfont.shx;125.0 
40
4.5
41
0
44
1.084337
50
0
71
7
72
5
7
DEFAULT
0
LINE
5
138
100
AcDbEntity
8
SK2
62
256
6
ByLayer
370
-1
48
1
60
0
100
AcDbLine
10
47.925
20
6.9
30
0
11
47.925
21
19.65
31
0
39
0
210
0
220
0
230
1
0
LINE
5
139
100
AcDbEntity
8
SK2
62
256
6
ByLayer
370
-1
48
1
60
0
100
AcDbLine
10
-78.325
20
5.99375
30
0
11
-78.325
21
19.65
31
0
39
0
210
0
220
0
230
1
0
LINE
5
13A
100
AcDbEntity
8
SK2
62
256
6
ByLayer
370
-1
48
1
60
0
100
AcDbLine
10
47.925
20
17.65
30
0
11
-78.325
21
17.65
31
0
39
0
210
0
220
0
230
1
0
LINE
5
13B
100
AcDbEntity
8
SK2
62
256
6
ByLayer
370
-1
48
1
60
0
100
AcDbLine
10
47.925
20
17.65
30
0
11
44.750002
21
17.232003
31
0
39
0
210
0
220
0
230
1
0
LINE
5
13C
100
AcDbEntity
8
SK2
62
256
6
ByLayer
370
-1
48
1
60
0
100
AcDbLine
10
47.925
20
17.65
30
0
11
44.749998
21
18.067997
31
0
39
0
210
0
220
0
230
1
0
LINE
5
13D
100
AcDbEntity
8
SK2
62
256
6
ByLayer
370
-1
48
1
60
0
100
AcDbLine
10
44.750002
20
17.232003
30
0
11
44.749998
21
18.067997
31
0
39
0
210
0
220
0
230
1
0
LINE
5
13E
100
AcDbEntity
8
SK2
62
256
6
ByLayer
370
-1
48
1
60
0
100
AcDbLine
10
-78.325
20
17.65
30
0
11
-75.150002
21
18.067997
31
0
39
0
210
0
220
0
230
1
0
LINE
5
13F
100
AcDbEntity
8
SK2
62
256
6
ByLayer
370
-1
48
1
60
0
100
AcDbLine
10
-78.325
20
17.65
30
0
11
-75.149998
21
17.232003
31
0
39
0
210
0
220
0
230
1
0
LINE
5
140
100
AcDbEntity
8
SK2
62
256
6
ByLayer
370
-1
48
1
60
0
100
AcDbLine
10
-75.150002
20
18.067997
30
0
11
-75.149998
21
17.232003
31
0
39
0
210
0
220
0
230
1
0
ENDBLK
5
142
100
AcDbEntity
8
0
100
AcDbBlockEnd
0
BLOCK
5
14F
100
AcDbEntity
8
0
100
AcDbBlockBegin
2
DimnDraft3D4
70
0
10
0
20
0
30
0
3
DimnDraft3D4
0
MTEXT
5
145
100
AcDbEntity
8
2
62
256
6
ByLayer
370
-1
48
1
60
0
100
AcDbMText
10
74.571492
20
-37.312521
30
0
210
0
220
0
230
1
1
\W01.000;\fsimplex.shx,bigfont.shx;95%%d0' 
40
4.5
41
0
44
1.084337
50
42.5000000000001
71
7
72
5
7
DEFAULT
0
LINE
5
146
100
AcDbEntity
8
2
62
256
6
ByLayer
370
-1
48
1
60
0
100
AcDbLine
10
47.576377
20
0.915221
30
0
11
43.232088
21
-48.740227
31
0
39
0
210
0
220
0
230
1
0
LINE
5
147
100
AcDbEntity
8
2
62
256
6
ByLayer
370
-1
48
1
60
0
100
AcDbLine
10
49.925
20
0
30
0
11
96.422712
21
0
31
0
39
0
210
0
220
0
230
1
0
ARC
5
148
100
AcDbEntity
8
2
62
256
6
ByLayer
370
-1
48
1
60
0
100
AcDbCircle
39
0
10
47.496306
20
0
30
0
40
46.9264068782929
210
0
220
0
230
1
100
AcDbArc
50
265
51
0
0
LINE
5
149
100
AcDbEntity
8
2
62
256
6
ByLayer
370
-1
48
1
60
0
100
AcDbLine
10
43.4064
20
-46.747838
30
0
11
46.602928
21
-46.554078
31
0
39
0
210
0
220
0
230
1
0
LINE
5
14A
100
AcDbEntity
8
2
62
256
6
ByLayer
370
-1
48
1
60
0
100
AcDbLine
10
43.4064
20
-46.747838
30
0
11
46.544161
21
-47.388003
31
0
39
0
210
0
220
0
230
1
0
LINE
5
14B
100
AcDbEntity
8
2
62
256
6
ByLayer
370
-1
48
1
60
0
100
AcDbLine
10
46.602928
20
-46.554078
30
0
11
46.544161
21
-47.388003
31
0
39
0
210
0
220
0
230
1
0
LINE
5
14C
100
AcDbEntity
8
2
62
256
6
ByLayer
370
-1
48
1
60
0
100
AcDbLine
10
94.422712
20
0
30
0
11
94.786968
21
-3.181612
31
0
39
0
210
0
220
0
230
1
0
LINE
5
14D
100
AcDbEntity
8
2
62
256
6
ByLayer
370
-1
48
1
60
0
100
AcDbLine
10
94.422712
20
0
30
0
11
93.951094
21
-3.16748
31
0
39
0
210
0
220
0
230
1
0
LINE
5
14E
100
AcDbEntity
8
2
62
256
6
ByLayer
370
-1
48
1
60
0
100
AcDbLine
10
94.786968
20
-3.181612
30
0
11
93.951094
21
-3.16748
31
0
39
0
210
0
220
0
230
1
0
ENDBLK
5
150
100
AcDbEntity
8
0
100
AcDbBlockEnd
0
ENDSEC
0
SECTION
2
ENTITIES
0
ELLIPSE
5
8F
100
AcDbEntity
8
1
62
256
6
ByLayer
370
-1
48
1
60
0
100
AcDbEllipse
10
44.883078
20
1.856332
30
0
11
1.04572888412855
21
0.106443232405715
31
0
210
0
220
0
230
-1
40
0.986284
41
2.28319090932501
42
2.6352610838337
0
ELLIPSE
5
90
100
AcDbEntity
8
1
62
256
6
ByLayer
370
-1
48
1
60
0
100
AcDbEllipse
10
40.884327
20
8.143363
30
0
11
27.7006961906877
21
-39.5569479634746
31
0
210
0
220
0
230
-1
40
0.028838
41
1.47607914028006
42
1.487161979094
0
ELLIPSE
5
91
100
AcDbEntity
8
1
62
256
6
ByLayer
370
-1
48
1
60
0
100
AcDbEllipse
10
86.309102
20
0.000509
30
0
11
207.168075507975
21
0.694370092919123
31
0
210
0
220
0
230
-1
40
0.019227
41
-1.7825577857411
42
-1.78008385351312
0
ELLIPSE
5
92
100
AcDbEntity
8
1
62
256
6
ByLayer
370
-1
48
1
60
0
100
AcDbEllipse
10
45.00096
20
1.874872
30
0
11
-0.963386918733553
21
-0.109552854976575
31
0
210
0
220
0
230
1
40
0.984973
41
-0.0127554844161218
42
1.42642261412173
0
ELLIPSE
5
93
100
AcDbEntity
8
1
62
256
6
ByLayer
370
-1
48
1
60
0
100
AcDbEllipse
10
45.393665
20
0
30
0
11
2.97466745784942
21
-4.0371779112025
31
0
210
0
220
0
230
-1
40
0.077472
41
-3.03715816435452
42
-2.87425059316457
0
ELLIPSE
5
94
100
AcDbEntity
8
1
62
256
6
ByLayer
370
-1
48
1
60
0
100
AcDbEllipse
10
44.992355
20
1.950545
30
0
11
-1.04327615112563
21
-0.118637567795745
31
0
210
0
220
0
230
1
40
0.984973
41
-0.0733936910768196
42
1.44250334285478
0
ELLIPSE
5
95
100
AcDbEntity
8
1
62
256
6
ByLayer
370
-1
48
1
60
0
100
AcDbEllipse
10
45.764566
20
2.759845
30
0
11
-1.3910348681675
21
-0.158183423727657
31
0
210
0
220
0
230
1
40
0.984973
41
0
42
6.28318530717959
0
ELLIPSE
5
96
100
AcDbEntity
8
1
62
256
6
ByLayer
370
-1
48
1
60
0
100
AcDbEllipse
10
45.776225
20
2.657311
30
0
11
-1.30825857451297
21
-0.148770404806711
31
0
210
0
220
0
230
1
40
0.984973
41
-0.114942136109686
42
-3.42422494012439E-16
0
ELLIPSE
5
97
100
AcDbEntity
8
1
62
256
6
ByLayer
370
-1
48
1
60
0
100
AcDbEllipse
10
45.776225
20
2.657311
30
0
11
-1.30825857451297
21
-0.148770404806711
31
0
210
0
220
0
230
1
40
0.984973
41
0
42
0.895508691330783
0
ELLIPSE
5
98
100
AcDbEntity
8
1
62
256
6
ByLayer
370
-1
48
1
60
0
100
AcDbEllipse
10
45.776225
20
2.657311
30
0
11
-1.30825857451297
21
-0.148770404806711
31
0
210
0
220
0
230
1
40
0.984973
41
2.24600090794147
42
-2.88991430225479
0
ELLIPSE
5
99
100
AcDbEntity
8
1
62
256
6
ByLayer
370
-1
48
1
60
0
100
AcDbEllipse
10
45.776225
20
2.657311
30
0
11
-1.30825857451297
21
-0.148770404806711
31
0
210
0
220
0
230
1
40
0.984973
41
-0.251565665181948
42
-0.114942907020802
0
ELLIPSE
5
9A
100
AcDbEntity
8
1
62
256
6
ByLayer
370
-1
48
1
60
0
100
AcDbEllipse
10
45.771748
20
2.696685
30
0
11
1.3750677973215
21
0.15636770652954
31
0
210
0
220
0
230
1
40
0.984973
41
-0.229181370984829
42
-0.114942091483527
0
ELLIPSE
5
9B
100
AcDbEntity
8
1
62
256
6
ByLayer
370
-1
48
1
60
0
100
AcDbEllipse
10
45.771748
20
2.696685
30
0
11
1.3750677973215
21
0.15636770652954
31
0
210
0
220
0
230
1
40
0.984973
41
-0.114942091483524
42
-3.2578551019121E-16
0
ELLIPSE
5
9C
100
AcDbEntity
8
1
62
256
6
ByLayer
370
-1
48
1
60
0
100
AcDbEllipse
10
45.771748
20
2.696685
30
0
11
1.3750677973215
21
0.15636770652954
31
0
210
0
220
0
230
1
40
0.984973
41
0
42
-2.91239603314433
0
ELLIPSE
5
9D
100
AcDbEntity
8
1
62
256
6
ByLayer
370
-1
48
1
60
0
100
AcDbEllipse
10
47.724667
20
4.702618
30
0
11
0.198719266881069
21
0.0225976319610946
31
0
210
0
220
0
230
1
40
0.984973
41
-0.197561894718435
42
1.54776735727604
0
ELLIPSE
5
9E
100
AcDbEntity
8
1
62
256
6
ByLayer
370
-1
48
1
60
0
100
AcDbEllipse
10
43.082777
20
3.455385
30
0
11
0.198719266881069
21
0.0225976319610946
31
0
210
0
220
0
230
1
40
0.984973
41
1.89683320767475
42
-2.64102284751055
0
ELLIPSE
5
9F
100
AcDbEntity
8
1
62
256
6
ByLayer
370
-1
48
1
60
0
100
AcDbEllipse
10
46.486252
20
0.121534
30
0
11
0.198719266881069
21
0.0225976319610946
31
0
210
0
220
0
230
1
40
0.984973
41
-2.2919569971117
42
-0.546627745117369
0
ELLIPSE
5
A0
100
AcDbEntity
8
1
62
256
6
ByLayer
370
-1
48
1
60
0
100
AcDbEllipse
10
45.783619
20
2.592291
30
0
11
0.673857033993715
21
0.0766285699800731
31
0
210
0
220
0
230
1
40
0.984973
41
-2.30837324619644
42
-1.73095530076775
0
ELLIPSE
5
A1
100
AcDbEntity
8
1
62
256
6
ByLayer
370
-1
48
1
60
0
100
AcDbEllipse
10
45.783619
20
2.592291
30
0
11
0.673857033993715
21
0.0766285699800731
31
0
210
0
220
0
230
1
40
0.984973
41
2.74778348739629
42
2.79121217994722
0
ELLIPSE
5
A2
100
AcDbEntity
8
1
62
256
6
ByLayer
370
-1
48
1
60
0
100
AcDbEllipse
10
45.783619
20
2.592291
30
0
11
0.673857033993715
21
0.0766285699800731
31
0
210
0
220
0
230
1
40
0.984973
41
-1.06608409374404
42
-0.469610075251176
0
ELLIPSE
5
A3
100
AcDbEntity
8
1
62
256
6
ByLayer
370
-1
48
1
60
0
100
AcDbEllipse
10
45.767313
20
2.735687
30
0
11
0.673857033993715
21
0.0766285699800732
31
0
210
0
220
0
230
1
40
0.984973
41
-1.44100671738855
42
-1.39757802487685
0
ELLIPSE
5
A4
100
AcDbEntity
8
1
62
256
6
ByLayer
370
-1
48
1
60
0
100
AcDbEllipse
10
45.767313
20
2.735687
30
0
11
0.673857033993715
21
0.0766285699800732
31
0
210
0
220
0
230
1
40
0.984973
41
-2.48820426858394
42
-2.44477557603616
0
ELLIPSE
5
A5
100
AcDbEntity
8
1
62
256
6
ByLayer
370
-1
48
1
60
0
100
AcDbEllipse
10
46.533942
20
2.793896
30
0
11
0.053973200519912
21
-0.196230678512952
31
0
210
0
220
0
230
-1
40
0.486763
41
3.02323144551124
42
-1.56727932688726
0
ELLIPSE
5
A6
100
AcDbEntity
8
1
62
256
6
ByLayer
370
-1
48
1
60
0
100
AcDbEllipse
10
46.332392
20
3.136213
30
0
11
0.14685374167916
21
-0.142562810359816
31
0
210
0
220
0
230
-1
40
0.482814
41
0.130187090115234
42
1.50874544728543
0
ELLIPSE
5
A7
100
AcDbEntity
8
1
62
256
6
ByLayer
370
-1
48
1
60
0
100
AcDbEllipse
10
45.983799
20
3.332786
30
0
11
0.199698117713477
21
-0.0511533359366249
31
0
210
0
220
0
230
-1
40
0.475931
41
3.00962727834237
42
-0.660810473952133
0
ELLIPSE
5
A8
100
AcDbEntity
8
1
62
256
6
ByLayer
370
-1
48
1
60
0
100
AcDbEllipse
10
45.581567
20
3.330944
30
0
11
0.199477891723443
21
0.0533173421300734
31
0
210
0
220
0
230
-1
40
0.474389
41
1.63938376723822
42
3.0179421245165
0
ELLIPSE
5
A9
100
AcDbEntity
8
1
62
256
6
ByLayer
370
-1
48
1
60
0
100
AcDbEllipse
10
45.783619
20
2.592291
30
0
11
-0.787133716215609
21
-0.0895099821088506
31
0
210
0
220
0
230
1
40
0.984973
41
-1.15748713558654
42
-1.15557301790663
0
ELLIPSE
5
AA
100
AcDbEntity
8
1
62
256
6
ByLayer
370
-1
48
1
60
0
100
AcDbEllipse
10
45.233476
20
3.131181
30
0
11
0.140923291958577
21
0.149958672789344
31
0
210
0
220
0
230
-1
40
0.476103
41
-2.12448276775528
42
0.191710276136345
0
ELLIPSE
5
AB
100
AcDbEntity
8
1
62
256
6
ByLayer
370
-1
48
1
60
0
100
AcDbEllipse
10
45.032794
20
2.787023
30
0
11
0.0538270759858452
21
0.196627944003623
31
0
210
0
220
0
230
-1
40
0.486651
41
1.63560904356061
42
3.0141674008269
0
ELLIPSE
5
AC
100
AcDbEntity
8
1
62
256
6
ByLayer
370
-1
48
1
60
0
100
AcDbEllipse
10
45.033296
20
2.390686
30
0
11
0.0539731189205294
21
-0.196230700560743
31
0
210
0
220
0
230
-1
40
0.486763
41
2.49573132650244
42
-3.01746705216595
0
ELLIPSE
5
AD
100
AcDbEntity
8
1
62
256
6
ByLayer
370
-1
48
1
60
0
100
AcDbEllipse
10
45.766028
20
2.746983
30
0
11
0.787133716215609
21
0.0895099821088539
31
0
210
0
220
0
230
1
40
0.984973
41
-0.635814173125994
42
-0.633900055446079
0
ELLIPSE
5
AE
100
AcDbEntity
8
1
62
256
6
ByLayer
370
-1
48
1
60
0
100
AcDbEllipse
10
45.766028
20
2.746983
30
0
11
0.787133716215609
21
0.0895099821088539
31
0
210
0
220
0
230
1
40
0.984973
41
1.98410551800321
42
1.98601963568312
0
ELLIPSE
5
AF
100
AcDbEntity
8
1
62
256
6
ByLayer
370
-1
48
1
60
0
100
AcDbEllipse
10
45.783619
20
2.592291
30
0
11
0.673857033993715
21
0.0766285699800731
31
0
210
0
220
0
230
1
40
0.984973
41
0.696817077544653
42
1.7005859362008
0
ELLIPSE
5
B0
100
AcDbEntity
8
1
62
256
6
ByLayer
370
-1
48
1
60
0
100
AcDbEllipse
10
45.767313
20
2.735687
30
0
11
0.673857033993715
21
0.0766285699800732
31
0
210
0
220
0
230
1
40
0.984973
41
2.74778348739627
42
2.79121217971435
0
ELLIPSE
5
B1
100
AcDbEntity
8
1
62
256
6
ByLayer
370
-1
48
1
60
0
100
AcDbEllipse
10
45.783619
20
2.592291
30
0
11
0.673857033993715
21
0.0766285699800731
31
0
210
0
220
0
230
1
40
0.984973
41
2.79121217994722
42
-2.88692012790649
0
ELLIPSE
5
B2
100
AcDbEntity
8
1
62
256
6
ByLayer
370
-1
48
1
60
0
100
AcDbEllipse
10
45.767313
20
2.735687
30
0
11
0.673857033993715
21
0.0766285699800732
31
0
210
0
220
0
230
1
40
0.984973
41
-0.393809166191452
42
-0.350380473645075
0
ELLIPSE
5
B3
100
AcDbEntity
8
1
62
256
6
ByLayer
370
-1
48
1
60
0
100
AcDbEllipse
10
45.783619
20
2.592291
30
0
11
0.673857033993715
21
0.0766285699800731
31
0
210
0
220
0
230
1
40
0.984973
41
-0.0427878446217476
42
0.653388385013025
0
ELLIPSE
5
B4
100
AcDbEntity
8
1
62
256
6
ByLayer
370
-1
48
1
60
0
100
AcDbEllipse
10
45.767313
20
2.735687
30
0
11
0.673857033993715
21
0.0766285699800732
31
0
210
0
220
0
230
1
40
0.984973
41
0.653388385013398
42
0.696817077420228
0
ELLIPSE
5
B5
100
AcDbEntity
8
1
62
256
6
ByLayer
370
-1
48
1
60
0
100
AcDbEllipse
10
45.032794
20
2.787023
30
0
11
0.0538270759848593
21
0.196627944000284
31
0
210
0
220
0
230
-1
40
0.486651
41
0.882904888982247
42
1.4929025308807
0
ELLIPSE
5
B6
100
AcDbEntity
8
1
62
256
6
ByLayer
370
-1
48
1
60
0
100
AcDbEllipse
10
46.332392
20
3.136213
30
0
11
0.146853741679896
21
-0.142562810360115
31
0
210
0
220
0
230
-1
40
0.482814
41
1.65145195990529
42
2.60960678677999
0
ELLIPSE
5
B7
100
AcDbEntity
8
1
62
256
6
ByLayer
370
-1
48
1
60
0
100
AcDbEllipse
10
45.581567
20
3.330944
30
0
11
0.199477891721758
21
0.0533173421305073
31
0
210
0
220
0
230
-1
40
0.474389
41
0.135510679396524
42
1.49667725457406
0
ELLIPSE
5
B8
100
AcDbEntity
8
1
62
256
6
ByLayer
370
-1
48
1
60
0
100
AcDbEllipse
10
45.564901
20
2.01482
30
0
11
0.19969811751067
21
-0.0511533358922477
31
0
210
0
220
0
230
-1
40
0.475931
41
1.46614487915645
42
1.68807001437975
0
ELLIPSE
5
B9
100
AcDbEntity
8
1
62
256
6
ByLayer
370
-1
48
1
60
0
100
AcDbEllipse
10
45.765081
20
2.755314
30
0
11
0.870688467839416
21
0.0990115244375376
31
0
210
0
220
0
230
1
40
0.984973
41
0.151503804849857
42
1.17259753336734
0
ELLIPSE
5
BA
100
AcDbEntity
8
1
62
256
6
ByLayer
370
-1
48
1
60
0
100
AcDbEllipse
10
46.315224
20
2.216425
30
0
11
0.152572785146262
21
0.138448878342949
31
0
210
0
220
0
230
-1
40
0.474986
41
1.32907136083971
42
1.50489317804073
0
ELLIPSE
5
BB
100
AcDbEntity
8
1
62
256
6
ByLayer
370
-1
48
1
60
0
100
AcDbEllipse
10
45.96526
20
3.495809
30
0
11
0.199698117056194
21
-0.0511533357738578
31
0
210
0
220
0
230
-1
40
0.475931
41
-1.67544777465007
42
-1.45352263892526
0
ELLIPSE
5
BC
100
AcDbEntity
8
1
62
256
6
ByLayer
370
-1
48
1
60
0
100
AcDbEllipse
10
45.214937
20
3.294204
30
0
11
0.140923287405315
21
0.149958665946641
31
0
210
0
220
0
230
-1
40
0.476103
41
-1.52299535418154
42
-1.34717352705791
0
ELLIPSE
5
BD
100
AcDbEntity
8
1
62
256
6
ByLayer
370
-1
48
1
60
0
100
AcDbEllipse
10
45.765081
20
2.755314
30
0
11
0.870688467839416
21
0.0990115244375376
31
0
210
0
220
0
230
1
40
0.984973
41
-0.845566832077628
42
0.151503804849857
0
ELLIPSE
5
BE
100
AcDbEntity
8
1
62
256
6
ByLayer
370
-1
48
1
60
0
100
AcDbEllipse
10
45.765081
20
2.755314
30
0
11
0.870688467839416
21
0.0990115244375376
31
0
210
0
220
0
230
1
40
0.984973
41
-2.99008854707911
42
-1.96899512022314
0
ELLIPSE
5
BF
100
AcDbEntity
8
1
62
256
6
ByLayer
370
-1
48
1
60
0
100
AcDbEllipse
10
45.765081
20
2.755314
30
0
11
0.870688467839416
21
0.0990115244375376
31
0
210
0
220
0
230
1
40
0.984973
41
2.23694067750495
42
-2.99008854707911
0
ELLIPSE
5
C0
100
AcDbEntity
8
1
62
256
6
ByLayer
370
-1
48
1
60
0
100
AcDbEllipse
10
45.765081
20
2.755314
30
0
11
0.870688467839416
21
0.0990115244375376
31
0
210
0
220
0
230
1
40
0.984973
41
1.22480548038631
42
2.19577229463687
0
ELLIPSE
5
C1
100
AcDbEntity
8
1
62
256
6
ByLayer
370
-1
48
1
60
0
100
AcDbEllipse
10
45.765081
20
2.755314
30
0
11
0.870688467839416
21
0.0990115244375376
31
0
210
0
220
0
230
1
40
0.984973
41
-1.91678717320277
42
-0.886735214949979
0
ELLIPSE
5
C2
100
AcDbEntity
8
1
62
256
6
ByLayer
370
-1
48
1
60
0
100
AcDbEllipse
10
45.767313
20
2.735687
30
0
11
0.673857033993715
21
0.0766285699800732
31
0
210
0
220
0
230
1
40
0.984973
41
1.70058593620078
42
1.74401462874208
0
ELLIPSE
5
C3
100
AcDbEntity
8
1
62
256
6
ByLayer
370
-1
48
1
60
0
100
AcDbEllipse
10
45.783619
20
2.592291
30
0
11
0.673857033993715
21
0.0766285699800731
31
0
210
0
220
0
230
1
40
0.984973
41
1.7005859362008
42
1.74401462874949
0
ELLIPSE
5
C4
100
AcDbEntity
8
1
62
256
6
ByLayer
370
-1
48
1
60
0
100
AcDbEllipse
10
45.783619
20
2.592291
30
0
11
0.673857033993715
21
0.0766285699800731
31
0
210
0
220
0
230
1
40
0.984973
41
0.653388385013025
42
0.696817077544653
0
ELLIPSE
5
C5
100
AcDbEntity
8
1
62
256
6
ByLayer
370
-1
48
1
60
0
100
AcDbEllipse
10
45.783619
20
2.592291
30
0
11
0.673857033993715
21
0.0766285699800731
31
0
210
0
220
0
230
1
40
0.984973
41
1.74401462874949
42
2.74778348739629
0
ELLIPSE
5
C6
100
AcDbEntity
8
1
62
256
6
ByLayer
370
-1
48
1
60
0
100
AcDbEllipse
10
45.776789
20
2.652352
30
0
11
1.29167523472697
21
0.146884607747118
31
0
210
0
220
0
230
1
40
0.984973
41
-1.12718619756805
42
-0.114942689529491
0
ELLIPSE
5
C7
100
AcDbEntity
8
1
62
256
6
ByLayer
370
-1
48
1
60
0
100
AcDbEllipse
10
45.776789
20
2.652352
30
0
11
1.29167523472697
21
0.146884607747118
31
0
210
0
220
0
230
1
40
0.984973
41
3.14155097662882
42
-2.01439131118693
0
ELLIPSE
5
C8
100
AcDbEntity
8
1
62
256
6
ByLayer
370
-1
48
1
60
0
100
AcDbEllipse
10
45.776789
20
2.652352
30
0
11
1.29167523472697
21
0.146884607747118
31
0
210
0
220
0
230
1
40
0.984973
41
-0.114942689529504
42
-3.46818729548981E-16
0
ELLIPSE
5
C9
100
AcDbEntity
8
1
62
256
6
ByLayer
370
-1
48
1
60
0
100
AcDbEllipse
10
45.765081
20
2.755314
30
0
11
0.943916517685096
21
0.107338751815202
31
0
210
0
220
0
230
1
40
0.984973
41
0
42
6.28318530717959
0
ELLIPSE
5
CA
100
AcDbEntity
8
1
62
256
6
ByLayer
370
-1
48
1
60
0
100
AcDbEllipse
10
45.76785
20
2.730962
30
0
11
1.29167523472696
21
0.146884607747116
31
0
210
0
220
0
230
1
40
0.984973
41
0
42
6.28318530717959
0
ELLIPSE
5
CB
100
AcDbEntity
8
1
62
256
6
ByLayer
370
-1
48
1
60
0
100
AcDbEllipse
10
45.764566
20
2.759845
30
0
11
-1.97166772608572
21
-0.224210879613991
31
0
210
0
220
0
230
1
40
0.984973
41
0.500569806079134
42
0.849635656477997
0
ELLIPSE
5
CC
100
AcDbEntity
8
1
62
256
6
ByLayer
370
-1
48
1
60
0
100
AcDbEllipse
10
45.764566
20
2.759845
30
0
11
-1.97166772608572
21
-0.224210879613991
31
0
210
0
220
0
230
1
40
0.984973
41
-1.59382529631405
42
-1.24475944591519
0
ELLIPSE
5
CD
100
AcDbEntity
8
1
62
256
6
ByLayer
370
-1
48
1
60
0
100
AcDbEllipse
10
45.764566
20
2.759845
30
0
11
-1.97166772608572
21
-0.224210879613991
31
0
210
0
220
0
230
1
40
0.984973
41
2.59496490847234
42
2.94403075887119
0
POINT
5
41
100
AcDbEntity
8
1
62
256
6
ByLayer
370
-1
48
1
60
0
100
AcDbPoint
10
-78.325
20
0
30
0
39
0
210
0
220
0
230
1
50
360
0
POINT
5
43
100
AcDbEntity
8
2
62
256
6
ByLayer
370
-1
48
1
60
0
100
AcDbPoint
10
47.925
20
4.9
30
0
39
0
210
0
220
0
230
1
50
360
0
POINT
5
45
100
AcDbEntity
8
80
62
256
6
ByLayer
370
-1
48
1
60
0
100
AcDbPoint
10
0
20
0
30
0
39
0
210
0
220
0
230
1
50
360
0
POINT
5
47
100
AcDbEntity
8
81
62
256
6
ByLayer
370
-1
48
1
60
0
100
AcDbPoint
10
47.925
20
4.9
30
0
39
0
210
0
220
0
230
1
50
360
0
SPLINE
5
CE
100
AcDbEntity
8
1
62
256
6
ByLayer
370
-1
48
1
60
0
100
AcDbSpline
70
4
71
3
72
16
73
12
40
0
40
0
40
0
40
0
40
0.0099374479114787
40
0.0099374479114787
40
0.217508673522623
40
0.217508673522623
40
0.496443392561101
40
0.496443392561101
40
0.875441760796394
40
0.875441760796394
40
1
40
1
40
1
40
1
41
1
10
37.1926659018572
20
-0.297642940789359
30
0
41
1
10
37.1922856026659
20
-0.295557662046576
30
0
41
1
10
37.1918924595483
20
-0.293466928082182
30
0
41
1
10
37.1831030380426
20
-0.248081642790709
30
0
41
1
10
37.1690351030733
20
-0.202142087219613
30
0
41
1
10
37.1266756010587
20
-0.096384564071883
30
0
41
1
10
37.0946292132382
20
-0.0355052936932907
30
0
41
1
10
37.0105909445866
20
0.0986750006911166
30
0
41
1
10
36.9542139867779
20
0.171272212013236
30
0
41
1
10
36.876774124853
20
0.257178572575867
30
0
41
1
10
36.857182565216
20
0.277816158118952
30
0
41
1
10
36.837422242145
20
0.297642940790041
30
0
0
SPLINE
5
CF
100
AcDbEntity
8
1
62
256
6
ByLayer
370
-1
48
1
60
0
100
AcDbSpline
70
4
71
3
72
14
73
10
40
0
40
0
40
0
40
0
40
0.25
40
0.25
40
0.5
40
0.5
40
0.75
40
0.75
40
1
40
1
40
1
40
1
41
1
10
36.837422242145
20
0.297642940789984
30
0
41
1
10
36.4344504040246
20
1.04025592586478
30
0
41
1
10
36.1249820317017
20
1.85815401026946
30
0
41
1
10
36.1938636111724
20
3.19881571377945
30
0
41
1
10
36.6516333164343
20
3.60757669517991
30
0
41
1
10
37.9532151363758
20
3.98645378708437
30
0
41
1
10
38.7477150386487
20
4.01829795196588
30
0
41
1
10
40.3702879226678
20
4.05049362142262
30
0
41
1
10
41.2099222748191
20
4.0430306687704
30
0
41
1
10
42.0615849160171
20
4.04284776991716
30
0
0
SPLINE
5
D0
100
AcDbEntity
8
1
62
256
6
ByLayer
370
-1
48
1
60
0
100
AcDbSpline
70
4
71
3
72
48
73
44
40
-0.103012412369588
40
-0.103012412369588
40
0
40
0
40
0.103050041285389
40
0.103050041285389
40
0.154367174835939
40
0.154367174835939
40
0.197567924214529
40
0.197567924214529
40
0.227027514226635
40
0.227027514226635
40
0.251604270145898
40
0.251604270145898
40
0.276328145443417
40
0.276328145443417
40
0.298963268333214
40
0.298963268333214
40
0.328988737307385
40
0.328988737307385
40
0.371988044074085
40
0.371988044074085
40
0.441800075028067
40
0.441800075028067
40
0.562105321622295
40
0.562105321622295
40
0.691437935804947
40
0.691437935804947
40
0.713935311419289
40
0.713935311419289
40
0.736661090749014
40
0.736661090749014
40
0.748095531838286
40
0.748095531838286
40
0.759718605616907
40
0.759718605616907
40
0.7698731441813
40
0.7698731441813
40
0.784174630355783
40
0.784174630355783
40
0.811442984660849
40
0.811442984660849
40
0.896987587630412
40
0.896987587630412
40
1
40
1
40
1.10305004128539
40
1.10305004128539
41
1
10
39.7505496458575
20
1.42935535637545
30
0
41
1
10
39.2507957862566
20
1.26100159173981
30
0
41
1
10
38.9887820191878
20
1.21343736521627
30
0
41
1
10
38.5959474978931
20
1.23538611345947
30
0
41
1
10
38.4627534955859
20
1.25880178150788
30
0
41
1
10
38.2242852867815
20
1.34129821002244
30
0
41
1
10
38.1156099018138
20
1.39515714346604
30
0
41
1
10
37.9480179376999
20
1.5168121992908
30
0
41
1
10
37.882889364612
20
1.57601872633802
30
0
41
1
10
37.7799236839268
20
1.69887350771407
30
0
41
1
10
37.7383973964477
20
1.76154248426477
30
0
41
1
10
37.6748329538113
20
1.89198334757691
30
0
41
1
10
37.6521501810628
20
1.96161391769638
30
0
41
1
10
37.6307810134061
20
2.09061333922577
30
0
41
1
10
37.6298918575526
20
2.15191963307066
30
0
41
1
10
37.6471610447311
20
2.28415122114876
30
0
41
1
10
37.6716370877486
20
2.35393412859031
30
0
41
1
10
37.7542272526939
20
2.50287991469858
30
0
41
1
10
37.8232504626494
20
2.57639921175368
30
0
41
1
10
38.0293372580893
20
2.73580554765448
30
0
41
1
10
38.1856084328422
20
2.80547353980808
30
0
41
1
10
38.6360840886916
20
2.94468782665857
30
0
41
1
10
38.958509086584
20
2.98299974117722
30
0
41
1
10
39.6415324012027
20
3.00036699386453
30
0
41
1
10
40.0173331429464
20
2.98327180494863
30
0
41
1
10
40.4445313320285
20
2.87282573197555
30
0
41
1
10
40.5084559545414
20
2.85320026443745
30
0
41
1
10
40.6329136966439
20
2.80343031072806
30
0
41
1
10
40.6946609312653
20
2.77298283944475
30
0
41
1
10
40.7760005657266
20
2.71175866851232
30
0
41
1
10
40.8015930273859
20
2.68814567746873
30
0
41
1
10
40.8440465537005
20
2.63440851946515
30
0
41
1
10
40.8610842403946
20
2.60329906881134
30
0
41
1
10
40.8796751725096
20
2.54248160770683
30
0
41
1
10
40.883170942187
20
2.51244342487331
30
0
41
1
10
40.8808277295383
20
2.44227501982581
30
0
41
1
10
40.870993625929
20
2.40184016916802
30
0
41
1
10
40.8301219547954
20
2.2921594829966
30
0
41
1
10
40.788143983657
20
2.22677095528411
30
0
41
1
10
40.5988378878153
20
1.98009357087477
30
0
41
1
10
40.4123122942121
20
1.83187498475331
30
0
41
1
10
39.9948449934457
20
1.55175290168867
30
0
41
1
10
39.7505496458575
20
1.42935535637545
30
0
41
1
10
39.2507957862566
20
1.26100159173981
30
0
0
SPLINE
5
D1
100
AcDbEntity
8
1
62
256
6
ByLayer
370
-1
48
1
60
0
100
AcDbSpline
70
4
71
3
72
12
73
8
40
0
40
0
40
0
40
0
40
0.249999999933773
40
0.249999999933773
40
0.624999999923467
40
0.624999999923467
40
1
40
1
40
1
40
1
41
1
10
42.4678085189881
20
4.03920556580431
30
0
41
1
10
42.4322264907783
20
4.03917239102401
30
0
41
1
10
42.3966444627363
20
4.03913903579476
30
0
41
1
10
42.3076893930456
20
4.03905519668766
30
0
41
1
10
42.2543163516075
20
4.03900448729286
30
0
41
1
10
42.1475702694994
20
4.038902256879
30
0
41
1
10
42.0941972288263
20
4.03885073585997
30
0
41
1
10
42.0408241885494
20
4.03879880914621
30
0
0
SPLINE
5
D2
100
AcDbEntity
8
1
62
256
6
ByLayer
370
-1
48
1
60
0
100
AcDbSpline
70
4
71
3
72
10
73
6
40
0
40
0
40
0
40
0
40
0.5
40
0.5
40
1
40
1
40
1
40
1
41
1
10
42.1732364682675
20
-3.55620992651939
30
0
41
1
10
41.1696138266922
20
-3.36809185148166
30
0
41
1
10
40.2181032974402
20
-3.04576209636619
30
0
41
1
10
38.5380152755776
20
-1.97587047179095
30
0
41
1
10
37.7891013177402
20
-1.21132337582114
30
0
41
1
10
37.1926659018572
20
-0.297642940789388
30
0
0
SPLINE
5
D3
100
AcDbEntity
8
SK1
62
256
6
ByLayer
370
-1
48
1
60
0
100
AcDbSpline
70
4
71
3
72
22
73
18
40
0
40
0
40
0
40
0
40
0.249999999999996
40
0.249999999999996
40
0.374999999999994
40
0.374999999999994
40
0.499999999999992
40
0.499999999999992
40
0.531249999999991
40
0.531249999999991
40
0.562499999999991
40
0.562499999999991
40
0.624999999999994
40
0.624999999999994
40
0.749999999999996
40
0.749999999999996
40
1
40
1
40
1
40
1
41
1
10
-16.075
20
-0.201663029782509
30
0
41
1
10
-16.4833211695661
20
-0.201663029782509
30
0
41
1
10
-16.8915314998436
20
-0.194293797841169
30
0
41
1
10
-17.5033391495783
20
-0.16568608767119
30
0
41
1
10
-17.7069634945735
20
-0.153367066927586
30
0
41
1
10
-18.1127575623609
20
-0.115726510554453
30
0
41
1
10
-18.3452355615381
20
-0.151201483729892
30
0
41
1
10
-18.5517569237073
20
0.0108256183681306
30
0
41
1
10
-18.4642070692733
20
0.0470816174086224
30
0
41
1
10
-18.363264268622
20
0.0740693840587028
30
0
41
1
10
-18.3119877817406
20
0.0835330767241373
30
0
41
1
10
-18.157535018669
20
0.108804286621648
30
0
41
1
10
-18.0537008756822
20
0.120597235208805
30
0
41
1
10
-17.7424034020036
20
0.151003009621746
30
0
41
1
10
-17.5343213741872
20
0.163929082009332
30
0
41
1
10
-16.9094236289823
20
0.194018422364621
30
0
41
1
10
-16.4921919052254
20
0.20166302978248
30
0
41
1
10
-16.075
20
0.20166302978248
30
0
0
SPLINE
5
D4
100
AcDbEntity
8
1
62
256
6
ByLayer
370
-1
48
1
60
0
100
AcDbSpline
70
4
71
3
72
24
73
20
40
0
40
0
40
0
40
0
40
0.0590430114902475
40
0.0590430114902475
40
0.212057017838259
40
0.212057017838259
40
0.365170560964191
40
0.365170560964191
40
0.494499459573107
40
0.494499459573107
40
0.591749877473304
40
0.591749877473304
40
0.748129763869503
40
0.748129763869503
40
0.841717795908693
40
0.841717795908693
40
0.936697737018239
40
0.936697737018239
40
1
40
1
40
1
40
1
41
1
10
44.9190847397107
20
2.52800269336993
30
0
41
1
10
44.9204552573168
20
2.52299241471806
30
0
41
1
10
44.9219199984683
20
2.5180014358601
30
0
41
1
10
44.9275134128613
20
2.50017233339608
30
0
41
1
10
44.9321790735946
20
2.48745121404741
30
0
41
1
10
44.9428002803786
20
2.46251928316784
30
0
41
1
10
44.9487723435669
20
2.4502665761319
30
0
41
1
10
44.9611203290216
20
2.42839552790753
30
0
41
1
10
44.9673102017757
20
2.41862575497831
30
0
41
1
10
44.9792092083471
20
2.40228837974445
30
0
41
1
10
44.9846767918164
20
2.39550207340022
30
0
41
1
10
44.9998786875113
20
2.37889190438639
30
0
41
1
10
45.0104069044094
20
2.36944746779307
30
0
41
1
10
45.0288749559109
20
2.35792166713037
30
0
41
1
10
45.0363096775063
20
2.35435936758807
30
0
41
1
10
45.0514205518247
20
2.3499201502338
30
0
41
1
10
45.0593217555731
20
2.34907091304683
30
0
41
1
10
45.0715183767288
20
2.35043672815661
30
0
41
1
10
45.0762492573642
20
2.35172781586235
30
0
41
1
10
45.0805798940755
20
2.35362232912445
30
0
0
SPLINE
5
D5
100
AcDbEntity
8
1
62
256
6
ByLayer
370
-1
48
1
60
0
100
AcDbSpline
70
4
71
3
72
20
73
16
40
0
40
0
40
0
40
0
40
0.203629751877928
40
0.203629751877928
40
0.404777253938673
40
0.404777253938673
40
0.57063524135496
40
0.57063524135496
40
0.699422803480818
40
0.699422803480818
40
0.797982561330009
40
0.797982561330009
40
0.955513850301806
40
0.955513850301806
40
1
40
1
40
1
40
1
41
1
10
45.2781319925294
20
2.27137314066738
30
0
41
1
10
45.2665629389236
20
2.28202776695616
30
0
41
1
10
45.2543648774951
20
2.29220638864663
30
0
41
1
10
45.2292196013114
20
2.3110284854647
30
0
41
1
10
45.216201799413
20
2.31975378064402
30
0
41
1
10
45.1918054639957
20
2.33393579430955
30
0
41
1
10
45.1804687638776
20
2.33973941516263
30
0
41
1
10
45.1600267463904
20
2.34842484327393
30
0
41
1
10
45.1509345091884
20
2.35169176606044
30
0
41
1
10
45.1348404083424
20
2.35608415092008
30
0
41
1
10
45.1278077739499
20
2.35754143593414
30
0
41
1
10
45.1098495223098
20
2.35969054217813
30
0
41
1
10
45.098720808967
20
2.35944891959048
30
0
41
1
10
45.0859635774862
20
2.3558703654881
30
0
41
1
10
45.083200551264
20
2.3548580611332
30
0
41
1
10
45.0805799024241
20
2.35362231539173
30
0
0
SPLINE
5
D6
100
AcDbEntity
8
1
62
256
6
ByLayer
370
-1
48
1
60
0
100
AcDbSpline
70
4
71
3
72
20
73
16
40
0
40
0
40
0
40
0
40
0.104372335877183
40
0.104372335877183
40
0.265306580871651
40
0.265306580871651
40
0.395097261562354
40
0.395097261562354
40
0.524553399154715
40
0.524553399154715
40
0.653865775617432
40
0.653865775617432
40
0.825329410189383
40
0.825329410189383
40
1
40
1
40
1
40
1
41
1
10
44.9739730201981
20
2.74335135114308
30
0
41
1
10
44.9810482335454
20
2.74258965095888
30
0
41
1
10
44.9881925557452
20
2.74326068548672
30
0
41
1
10
45.0053552312851
20
2.74754765633426
30
0
41
1
10
45.0151862226774
20
2.75254751495311
30
0
41
1
10
45.0313802595751
20
2.76378149795892
30
0
41
1
10
45.0381746876959
20
2.76968717926505
30
0
41
1
10
45.0508360110344
20
2.78257695986488
30
0
41
1
10
45.0567448766565
20
2.78960267015904
30
0
41
1
10
45.0677614355462
20
2.80444327301544
30
0
41
1
10
45.0728918456654
20
2.81228938633637
30
0
41
1
10
45.0839714853445
20
2.83124046132738
30
0
41
1
10
45.0896747104738
20
2.84262646276588
30
0
41
1
10
45.0999590539782
20
2.86638269872282
30
0
41
1
10
45.1045406908444
20
2.87882470714868
30
0
41
1
10
45.1084898992713
20
2.8915436995938
30
0
0
SPLINE
5
D7
100
AcDbEntity
8
1
62
256
6
ByLayer
370
-1
48
1
60
0
100
AcDbSpline
70
4
71
3
72
24
73
20
40
0
40
0
40
0
40
0
40
0.0590430114905426
40
0.0590430114905426
40
0.212057017838577
40
0.212057017838577
40
0.365170560964529
40
0.365170560964529
40
0.49449945957327
40
0.49449945957327
40
0.59174987747344
40
0.59174987747344
40
0.748129763869469
40
0.748129763869469
40
0.841717795908716
40
0.841717795908716
40
0.936697737018272
40
0.936697737018272
40
1
40
1
40
1
40
1
41
1
10
46.6110770458683
20
2.98262541168535
30
0
41
1
10
46.6124475619391
20
2.97761513262091
30
0
41
1
10
46.6137254705096
20
2.97257395357255
30
0
41
1
10
46.6179736586212
20
2.95438340122092
30
0
41
1
10
46.6204125763359
20
2.94106397657242
30
0
41
1
10
46.6238945005865
20
2.91421378636014
30
0
41
1
10
46.6249445735793
20
2.90063858598066
30
0
41
1
10
46.6253317263278
20
2.87555377238724
30
0
41
1
10
46.6249107760273
20
2.86400773231048
30
0
41
1
10
46.6228388189378
20
2.84391648807031
30
0
41
1
10
46.6215142936424
20
2.83530520478118
30
0
41
1
10
46.6166607669375
20
2.81330632884763
30
0
41
1
10
46.6122323603612
20
2.79984318555216
30
0
41
1
10
46.6018350018655
20
2.78056151560421
30
0
41
1
10
46.5970870722132
20
2.77372585009783
30
0
41
1
10
46.5859702776058
20
2.7622395001421
30
0
41
1
10
46.5793865386785
20
2.75749829253073
30
0
41
1
10
46.5678182479722
20
2.75247869513484
30
0
41
1
10
46.5629313654215
20
2.75118557862885
30
0
41
1
10
46.5580835625349
20
2.75061392987314
30
0
0
SPLINE
5
D8
100
AcDbEntity
8
1
62
256
6
ByLayer
370
-1
48
1
60
0
100
AcDbSpline
70
4
71
3
72
24
73
20
40
0
40
0
40
0
40
0
40
0.0839912160047514
40
0.0839912160047514
40
0.160732477847869
40
0.160732477847869
40
0.25267248648969
40
0.25267248648969
40
0.393602915265056
40
0.393602915265056
40
0.520047656828611
40
0.520047656828611
40
0.646089884360136
40
0.646089884360136
40
0.771982216541835
40
0.771982216541835
40
0.885621185954594
40
0.885621185954594
40
1
40
1
40
1
40
1
41
1
10
45.0908622230019
20
3.12468941847877
30
0
41
1
10
45.0843557928959
20
3.1279062969881
30
0
41
1
10
45.0782855653019
20
3.13245387726357
30
0
41
1
10
45.0688948611921
20
3.14323429399801
30
0
41
1
10
45.0652712359553
20
3.14942070238448
30
0
41
1
10
45.0596884974709
20
3.16391489517846
30
0
41
1
10
45.0580746923584
20
3.17259591226772
30
0
41
1
10
45.0568320261578
20
3.19448631611624
30
0
41
1
10
45.0585755122331
20
3.20806412713975
30
0
41
1
10
45.064461058079
20
3.23284276373528
30
0
41
1
10
45.0684003146144
20
3.24436522865517
30
0
41
1
10
45.0777236392609
20
3.2666377500415
30
0
41
1
10
45.0831383835966
20
3.27745911145766
30
0
41
1
10
45.0950418696696
20
3.29839656102951
30
0
41
1
10
45.1015523958626
20
3.30854855195787
30
0
41
1
10
45.114774852584
20
3.32721935013186
30
0
41
1
10
45.1214200861771
20
3.33581902947609
30
0
41
1
10
45.1353868779429
20
3.35250445027393
30
0
41
1
10
45.1427244040168
20
3.36060034139965
30
0
41
1
10
45.1503567811147
20
3.36838647154832
30
0
0
SPLINE
5
D9
100
AcDbEntity
8
1
62
256
6
ByLayer
370
-1
48
1
60
0
100
AcDbSpline
70
4
71
3
72
20
73
16
40
0
40
0
40
0
40
0
40
0.104372335947008
40
0.104372335947008
40
0.26530658104951
40
0.26530658104951
40
0.395097261827293
40
0.395097261827293
40
0.524553399506532
40
0.524553399506532
40
0.65386577605604
40
0.65386577605604
40
0.82532941041595
40
0.82532941041595
40
1
40
1
40
1
40
1
41
1
10
46.4524598943103
20
2.35989606942275
30
0
41
1
10
46.4464245794671
20
2.36253467083662
30
0
41
1
10
46.4410582637585
20
2.36645042147774
30
0
41
1
10
46.4295161675307
20
2.37818216342043
30
0
41
1
10
46.4241876581921
20
2.38711373812365
30
0
41
1
10
46.4169063541144
20
2.40443620500099
30
0
41
1
10
46.4144463880534
20
2.41274207422236
30
0
41
1
10
46.4107920046707
20
2.42986344052437
30
0
41
1
10
46.4095849771502
20
2.43873470444333
30
0
41
1
10
46.4081839999242
20
2.45679587685157
30
0
41
1
10
46.4079875072967
20
2.46602355738773
30
0
41
1
10
46.4085320290685
20
2.48770698438068
30
0
41
1
10
46.40959970683
20
2.5002952454507
30
0
41
1
10
46.4130674691993
20
2.52581940644396
30
0
41
1
10
46.4155015225874
20
2.53881840472201
30
0
41
1
10
46.4185500318667
20
2.55177099937853
30
0
0
SPLINE
5
DA
100
AcDbEntity
8
1
62
256
6
ByLayer
370
-1
48
1
60
0
100
AcDbSpline
70
4
71
3
72
20
73
16
40
0
40
0
40
0
40
0
40
0.0991893854482285
40
0.0991893854482285
40
0.186426707645892
40
0.186426707645892
40
0.299653810980514
40
0.299653810980514
40
0.478717130153466
40
0.478717130153466
40
0.641408974922945
40
0.641408974922945
40
0.819236078808238
40
0.819236078808238
40
1
40
1
40
1
40
1
41
1
10
45.3717621602452
20
2.07062593342681
30
0
41
1
10
45.3680573978136
20
2.06537751986269
30
0
41
1
10
45.3655700543102
20
2.0592723341534
30
0
41
1
10
45.3640019821734
20
2.04725631732785
30
0
41
1
10
45.364520450129
20
2.04127235738227
30
0
41
1
10
45.3681100890843
20
2.02789353506682
30
0
41
1
10
45.3718967454925
20
2.02039753670533
30
0
41
1
10
45.3841251257205
20
2.00246839436019
30
0
41
1
10
45.3941246837112
20
1.99244474972315
30
0
41
1
10
45.414939932548
20
1.9754034308977
30
0
41
1
10
45.4257995145964
20
1.96804781630786
30
0
41
1
10
45.4494615649995
20
1.95411770861222
30
0
41
1
10
45.4624420945505
20
1.9476317978347
30
0
41
1
10
45.489278372379
20
1.93600183897505
30
0
41
1
10
45.5032065870394
20
1.930858799509
30
0
41
1
10
45.5173573438174
20
1.92641525218227
30
0
0
SPLINE
5
DB
100
AcDbEntity
8
1
62
256
6
ByLayer
370
-1
48
1
60
0
100
AcDbSpline
70
4
71
3
72
24
73
20
40
0
40
0
40
0
40
0
40
0.0839912160052348
40
0.0839912160052348
40
0.160732477848893
40
0.160732477848893
40
0.25267248649091
40
0.25267248649091
40
0.393602915266373
40
0.393602915266373
40
0.520047656829842
40
0.520047656829842
40
0.646089884361316
40
0.646089884361316
40
0.771982216542913
40
0.771982216542913
40
0.885621185956004
40
0.885621185956004
40
1
40
1
40
1
40
1
41
1
10
46.154863795286
20
2.08245372031124
30
0
41
1
10
46.1573982268283
20
2.07681468262882
30
0
41
1
10
46.1612499530338
20
2.07164327872724
30
0
41
1
10
46.170808905641
20
2.06386168464033
30
0
41
1
10
46.1764452724909
20
2.06097752906433
30
0
41
1
10
46.1898908841936
20
2.05683262736929
30
0
41
1
10
46.1980861454128
20
2.05590523845331
30
0
41
1
10
46.2189649227803
20
2.05612672866258
30
0
41
1
10
46.2321035339754
20
2.05854252029209
30
0
41
1
10
46.2562454754725
20
2.06543822535497
30
0
41
1
10
46.2675461497649
20
2.06974986223147
30
0
41
1
10
46.2894753279001
20
2.07967440326306
30
0
41
1
10
46.3001744681832
20
2.08531946960295
30
0
41
1
10
46.3209338746719
20
2.09758216094321
30
0
41
1
10
46.3310299784708
20
2.10422192305833
30
0
41
1
10
46.3496414302207
20
2.11761396681828
30
0
41
1
10
46.3582331749468
20
2.12430695406493
30
0
41
1
10
46.3749374730232
20
2.13831086867401
30
0
41
1
10
46.3830604415338
20
2.14563738485913
30
0
41
1
10
46.3908907214433
20
2.15322966061842
30
0
0
SPLINE
5
DC
100
AcDbEntity
8
1
62
256
6
ByLayer
370
-1
48
1
60
0
100
AcDbSpline
70
4
71
3
72
20
73
16
40
0
40
0
40
0
40
0
40
0.0991893854482753
40
0.0991893854482753
40
0.186426707645815
40
0.186426707645815
40
0.299653810980016
40
0.299653810980016
40
0.478717130151979
40
0.478717130151979
40
0.641408974920584
40
0.641408974920584
40
0.819236078777663
40
0.819236078777663
40
1
40
1
40
1
40
1
41
1
10
45.7650626723241
20
3.52550371366726
30
0
41
1
10
45.764836516066
20
3.53312318781943
30
0
41
1
10
45.766108829108
20
3.54092553744539
30
0
41
1
10
45.7714189526081
20
3.55435300135054
30
0
41
1
10
45.7751593136043
20
3.56028730861081
30
0
41
1
10
45.785576551596
20
3.5721648025862
30
0
41
1
10
45.7929144202224
20
3.57780527262628
30
0
41
1
10
45.8131583652105
20
3.58952691055603
30
0
41
1
10
45.8271629117294
20
3.59431832117792
30
0
41
1
10
45.8542351459969
20
3.60042253304758
30
0
41
1
10
45.867523469427
20
3.60205119831915
30
0
41
1
10
45.8953481264942
20
3.60351919909476
30
0
41
1
10
45.9099894492842
20
3.60317681244231
30
0
41
1
10
45.9393098872196
20
3.60073613566649
30
0
41
1
10
45.9540507369087
20
3.59859915547096
30
0
41
1
10
45.9686121398342
20
3.59567465004935
30
0
0
SPLINE
5
DD
100
AcDbEntity
8
1
62
256
6
ByLayer
370
-1
48
1
60
0
100
AcDbSpline
70
4
71
3
72
18
73
14
40
0
40
0
40
0
40
0
40
0.218603592583987
40
0.218603592583987
40
0.434542404002004
40
0.434542404002004
40
0.61259669898361
40
0.61259669898361
40
0.750854608258467
40
0.750854608258467
40
0.856661922520191
40
0.856661922520191
40
1
40
1
40
1
40
1
41
1
10
45.1160754552205
20
2.91960381258877
30
0
41
1
10
45.1196072223236
20
2.93487001104759
30
0
41
1
10
45.1222749177885
20
2.95049042605459
30
0
41
1
10
45.1256329372303
20
2.98170774066145
30
0
41
1
10
45.1263612579418
20
2.99740552624894
30
0
41
1
10
45.125616126875
20
3.02581977880581
30
0
41
1
10
45.1245049940294
20
3.03865936627886
30
0
41
1
10
45.1208033030081
20
3.06097367358893
30
0
41
1
10
45.1185879772646
20
3.07061799590204
30
0
41
1
10
45.1133574594746
20
3.0870273158983
30
0
41
1
10
45.11063685141
20
3.09397766635496
30
0
41
1
10
45.1029862282234
20
3.10942687558313
30
0
41
1
10
45.0975207039547
20
3.11779171583092
30
0
41
1
10
45.090862223002
20
3.12468941847882
30
0
0
SPLINE
5
DE
100
AcDbEntity
8
1
62
256
6
ByLayer
370
-1
48
1
60
0
100
AcDbSpline
70
4
71
3
72
20
73
16
40
0
40
0
40
0
40
0
40
0.205427024256424
40
0.205427024256424
40
0.408349889917766
40
0.408349889917766
40
0.57567176940656
40
0.57567176940656
40
0.705596033443439
40
0.705596033443439
40
0.805025697231048
40
0.805025697231048
40
0.963947385355237
40
0.963947385355237
40
1
40
1
40
1
40
1
41
1
10
45.929369280852
20
2.08745673406315
30
0
41
1
10
45.9142584804159
20
2.08293292171013
30
0
41
1
10
45.8993665800119
20
2.07772102944099
30
0
41
1
10
45.8707799283296
20
2.06605882892251
30
0
41
1
10
45.8569767353759
20
2.05958820423592
30
0
41
1
10
45.8331939193722
20
2.04651333313004
30
0
41
1
10
45.8228982608072
20
2.04009373597145
30
0
41
1
10
45.8060152546065
20
2.02771955515627
30
0
41
1
10
45.7990694296596
20
2.02194816770711
30
0
41
1
10
45.7880732721284
20
2.01109706722789
30
0
41
1
10
45.7836998004254
20
2.00614434069939
30
0
41
1
10
45.7739899856007
20
1.99277149720211
30
0
41
1
10
45.7694318158133
20
1.9837578059209
30
0
41
1
10
45.7673466801718
20
1.97240765626745
30
0
41
1
10
45.7671058920045
20
1.97025777017299
30
0
41
1
10
45.7670339329286
20
1.96810960298475
30
0
0
SPLINE
5
DF
100
AcDbEntity
8
1
62
256
6
ByLayer
370
-1
48
1
60
0
100
AcDbSpline
70
4
71
3
72
18
73
14
40
0
40
0
40
0
40
0
40
0.151847511688126
40
0.151847511688126
40
0.271615557743002
40
0.271615557743002
40
0.391060866503459
40
0.391060866503459
40
0.580234264482176
40
0.580234264482176
40
0.78756991620265
40
0.78756991620265
40
1
40
1
40
1
40
1
41
1
10
46.154863795286
20
2.08245372031124
30
0
41
1
10
46.1484485174461
20
2.08834037395772
30
0
41
1
10
46.140338376372
20
2.09293535231322
30
0
41
1
10
46.1246995244518
20
2.09923038591145
30
0
41
1
10
46.1172853435785
20
2.10138782058601
30
0
41
1
10
46.1020104278672
20
2.10470453853975
30
0
41
1
10
46.0941006546864
20
2.10587607684118
30
0
41
1
10
46.0733390327349
20
2.10789178023563
30
0
41
1
10
46.0601961303965
20
2.10816305688687
30
0
41
1
10
46.0324295835746
20
2.10720204076128
30
0
41
1
10
46.017675217262
20
2.10581582571041
30
0
41
1
10
45.9878789722429
20
2.1015705698855
30
0
41
1
10
45.9727446953602
20
2.0986606089036
30
0
41
1
10
45.9578018423148
20
2.09509630094246
30
0
0
SPLINE
5
E0
100
AcDbEntity
8
1
62
256
6
ByLayer
370
-1
48
1
60
0
100
AcDbSpline
70
4
71
3
72
20
73
16
40
0
40
0
40
0
40
0
40
0.104357967980383
40
0.104357967980383
40
0.265270059349673
40
0.265270059349673
40
0.395042873528181
40
0.395042873528181
40
0.52448119066039
40
0.52448119066039
40
0.719471908092989
40
0.719471908092989
40
0.858908173746295
40
0.858908173746295
40
1
40
1
40
1
40
1
41
1
10
46.4514766809191
20
3.14034294980775
30
0
41
1
10
46.4455520346091
20
3.13608830730314
30
0
41
1
10
46.4388354371539
20
3.13303504063524
30
0
41
1
10
46.4213379595011
20
3.12800914818055
30
0
41
1
10
46.4100196236458
20
3.12732637774485
30
0
41
1
10
46.3898554538051
20
3.12879124613284
30
0
41
1
10
46.3807907402344
20
3.13043572242339
30
0
41
1
10
46.3629476356089
20
3.13512924474136
30
0
41
1
10
46.3541106383138
20
3.13819287775303
30
0
41
1
10
46.3323803798227
20
3.14723347449259
30
0
41
1
10
46.3195937221289
20
3.15393722726773
30
0
41
1
10
46.2983975937715
20
3.16703036349349
30
0
41
1
10
46.2897375252058
20
3.17299597573745
30
0
41
1
10
46.2728017753938
20
3.18583151619811
30
0
41
1
10
46.264506642203
20
3.19273091675191
30
0
41
1
10
46.2564934945539
20
3.20000167130223
30
0
0
SPLINE
5
E1
100
AcDbEntity
8
1
62
256
6
ByLayer
370
-1
48
1
60
0
100
AcDbSpline
70
4
71
3
72
20
73
16
40
0
40
0
40
0
40
0
40
0.105174178854084
40
0.105174178854084
40
0.272737254753463
40
0.272737254753463
40
0.408187101729761
40
0.408187101729761
40
0.543293608801927
40
0.543293608801927
40
0.67825440915556
40
0.67825440915556
40
0.813147592456067
40
0.813147592456067
40
1
40
1
40
1
40
1
41
1
10
45.7650626723243
20
3.52550371366726
30
0
41
1
10
45.7650126625111
20
3.51792161165633
30
0
41
1
10
45.7635365548009
20
3.51030045108266
30
0
41
1
10
45.757232622582
20
3.49163486782447
30
0
41
1
10
45.7509127779666
20
3.48085008325873
30
0
41
1
10
45.7373882858297
20
3.46312043502323
30
0
41
1
10
45.7304672463272
20
3.45569594355715
30
0
41
1
10
45.7156221303583
20
3.44191146852435
30
0
41
1
10
45.7076496160404
20
3.43550580202384
30
0
41
1
10
45.6909955772395
20
3.42362817123896
30
0
41
1
10
45.6822785130016
20
3.41813140662887
30
0
41
1
10
45.6643229590317
20
3.40800329041241
30
0
41
1
10
45.6550552334538
20
3.40335584750636
30
0
41
1
10
45.6325044321405
20
3.39327315992051
30
0
41
1
10
45.6189862694505
20
3.38819365971654
30
0
41
1
10
45.6052562062351
20
3.38391807790291
30
0
0
SPLINE
5
E2
100
AcDbEntity
8
1
62
256
6
ByLayer
370
-1
48
1
60
0
100
AcDbSpline
70
4
71
3
72
20
73
16
40
0
40
0
40
0
40
0
40
0.105174178854349
40
0.105174178854349
40
0.272737254753381
40
0.272737254753381
40
0.408187101729394
40
0.408187101729394
40
0.543293608801346
40
0.543293608801346
40
0.678254409154674
40
0.678254409154674
40
0.813147592454898
40
0.813147592454898
40
1
40
1
40
1
40
1
41
1
10
45.3717621602455
20
2.07062593342661
30
0
41
1
10
45.3752097938769
20
2.07598214086227
30
0
41
1
10
45.3774363749859
20
2.08205778343208
30
0
41
1
10
45.380555702599
20
2.0982502563574
30
0
41
1
10
45.3800340450243
20
2.1089138381983
30
0
41
1
10
45.3764664445668
20
2.12801623065363
30
0
41
1
10
45.3738853899387
20
2.13664599634276
30
0
41
1
10
45.3673758525786
20
2.15369608096816
30
0
41
1
10
45.3634264099117
20
2.16217236191906
30
0
41
1
10
45.3544993678073
20
2.17887805471597
30
0
41
1
10
45.3495024412204
20
2.18714263910374
30
0
41
1
10
45.3386775308638
20
2.20339184667179
30
0
41
1
10
45.3328317261617
20
2.21140260403482
30
0
41
1
10
45.318066051021
20
2.23011826971114
30
0
41
1
10
45.3087888598089
20
2.24072676120932
30
0
41
1
10
45.2989789980214
20
2.25095259441105
30
0
0
SPLINE
5
E3
100
AcDbEntity
8
1
62
256
6
ByLayer
370
-1
48
1
60
0
100
AcDbSpline
70
4
71
3
72
24
73
20
40
0
40
0
40
0
40
0
40
0.0913414529336633
40
0.0913414529336633
40
0.170816704287381
40
0.170816704287381
40
0.27793181952849
40
0.27793181952849
40
0.362280042351423
40
0.362280042351423
40
0.446368406878901
40
0.446368406878901
40
0.599960022787222
40
0.599960022787222
40
0.753100329769256
40
0.753100329769256
40
0.906084064118517
40
0.906084064118517
40
1
40
1
40
1
40
1
41
1
10
46.4514766811726
20
3.14034294939197
30
0
41
1
10
46.4574900421692
20
3.14442713041072
30
0
41
1
10
46.464376098159
20
3.14728269088647
30
0
41
1
10
46.4776196974615
20
3.14949187174648
30
0
41
1
10
46.4840807827246
20
3.14929105134937
30
0
41
1
10
46.4987027713578
20
3.14640677747718
30
0
41
1
10
46.5069144537363
20
3.14289860868169
30
0
41
1
10
46.5204725911462
20
3.13478890232579
30
0
41
1
10
46.5261682697726
20
3.13052155903733
30
0
41
1
10
46.5368768207855
20
3.12117538516654
30
0
41
1
10
46.5419259939772
20
3.11606902853092
30
0
41
1
10
46.5553626597371
20
3.10087208757594
30
0
41
1
10
46.5631477663548
20
3.09007850765892
30
0
41
1
10
46.5771468439391
20
3.06754680063659
30
0
41
1
10
46.5834034802949
20
3.055735569793
30
0
41
1
10
46.5945796277667
20
3.03148631987889
30
0
41
1
10
46.599518275715
20
3.01900343731435
30
0
41
1
10
46.6064808009319
20
2.99849430235796
30
0
41
1
10
46.6088968127493
20
2.99059582267429
30
0
41
1
10
46.6110770458683
20
2.98262541168535
30
0
0
SPLINE
5
E4
100
AcDbEntity
8
1
62
256
6
ByLayer
370
-1
48
1
60
0
100
AcDbSpline
70
4
71
3
72
24
73
20
40
0
40
0
40
0
40
0
40
0.180060726873598
40
0.180060726873598
40
0.36039213456411
40
0.36039213456411
40
0.47788611950433
40
0.47788611950433
40
0.568321289650271
40
0.568321289650271
40
0.653516782565306
40
0.653516782565306
40
0.783962798266221
40
0.783962798266221
40
0.875206187900332
40
0.875206187900332
40
0.966503983672457
40
0.966503983672457
40
1
40
1
40
1
40
1
41
1
10
45.1765709108514
20
3.39288244231074
30
0
41
1
10
45.1869559120101
20
3.40174955075676
30
0
41
1
10
45.1978142036542
20
3.41008395451084
30
0
41
1
10
45.2204206593165
20
3.42531656055596
30
0
41
1
10
45.232221284918
20
3.43225395620351
30
0
41
1
10
45.2524365521404
20
3.44198322357383
30
0
41
1
10
45.2606328689023
20
3.44539022029559
30
0
41
1
10
45.2754297036243
20
3.45031768388358
30
0
41
1
10
45.2819885025986
20
3.45209903771965
30
0
41
1
10
45.2948360748211
20
3.45458673548021
30
0
41
1
10
45.3011543926029
20
3.45535551318613
30
0
41
1
10
45.3169569147294
20
3.45577663903219
30
0
41
1
10
45.3266451208119
20
3.45460463179376
30
0
41
1
10
45.3415680543297
20
3.44921181427804
30
0
41
1
10
45.3473927591776
20
3.44592907500868
30
0
41
1
10
45.3572775536267
20
3.43758136026779
30
0
41
1
10
45.361453997773
20
3.43242004825049
30
0
41
1
10
45.3658270899153
20
3.42469036184528
30
0
41
1
10
45.366888479906
20
3.42252104798152
30
0
41
1
10
45.3678298535654
20
3.42029959240398
30
0
0
SPLINE
5
E5
100
AcDbEntity
8
1
62
256
6
ByLayer
370
-1
48
1
60
0
100
AcDbSpline
70
4
71
3
72
24
73
20
40
0
40
0
40
0
40
0
40
0.0913414526206756
40
0.0913414526206756
40
0.170816704001675
40
0.170816704001675
40
0.27793181927966
40
0.27793181927966
40
0.362280042131616
40
0.362280042131616
40
0.446368406688025
40
0.446368406688025
40
0.599960022649209
40
0.599960022649209
40
0.753100329683969
40
0.753100329683969
40
0.906084064085896
40
0.906084064085896
40
1
40
1
40
1
40
1
41
1
10
44.9739730202052
20
2.74335135065633
30
0
41
1
10
44.9669078262946
20
2.74392144466538
30
0
41
1
10
44.9597191142725
20
2.74299524486364
30
0
41
1
10
44.9475202891792
20
2.73836828108091
30
0
41
1
10
44.9422026545539
20
2.73500262734831
30
0
41
1
10
44.9313752508567
20
2.72528033661359
30
0
41
1
10
44.9262327237885
20
2.71818401497751
30
0
41
1
10
44.9188978292848
20
2.70446054375532
30
0
41
1
10
44.916245646518
20
2.6979502071477
30
0
41
1
10
44.9119211963891
20
2.68456480460043
30
0
41
1
10
44.9102321718899
20
2.6776479564279
30
0
41
1
10
44.9065442969837
20
2.65784980942769
30
0
41
1
10
44.9054055025528
20
2.64465845965214
30
0
41
1
10
44.9049314533316
20
2.61823795702068
30
0
41
1
10
44.9055968472719
20
2.60492441093814
30
0
41
1
10
44.9083771073686
20
2.57841926356681
30
0
41
1
10
44.9104983653405
20
2.56517937431553
30
0
41
1
10
44.9149607600062
20
2.5439984773522
30
0
41
1
10
44.9169045041494
20
2.5359731037027
30
0
41
1
10
44.9190847397107
20
2.52800269336993
30
0
0
SPLINE
5
E6
100
AcDbEntity
8
1
62
256
6
ByLayer
370
-1
48
1
60
0
100
AcDbSpline
70
4
71
3
72
24
73
20
40
0
40
0
40
0
40
0
40
0.180060726894644
40
0.180060726894644
40
0.360392134578823
40
0.360392134578823
40
0.477886119515438
40
0.477886119515438
40
0.568321289658954
40
0.568321289658954
40
0.653516782571621
40
0.653516782571621
40
0.783962798270142
40
0.783962798270142
40
0.875206187904598
40
0.875206187904598
40
0.966503983676983
40
0.966503983676983
40
1
40
1
40
1
40
1
41
1
10
46.4155963545575
20
2.17920326927685
30
0
41
1
10
46.4245687566344
20
2.18945407980348
30
0
41
1
10
46.433038604316
20
2.20012806803251
30
0
41
1
10
46.4486236324889
20
2.22223846690267
30
0
41
1
10
46.4557783378693
20
2.23372674295345
30
0
41
1
10
46.4659721996035
20
2.25327241174287
30
0
41
1
10
46.4695906808251
20
2.26116359696977
30
0
41
1
10
46.4749622748981
20
2.27532349265468
30
0
41
1
10
46.4769610299634
20
2.28157160732135
30
0
41
1
10
46.4799321799375
20
2.29373368912874
30
0
41
1
10
46.4809648374409
20
2.29968000037758
30
0
41
1
10
46.4821412418938
20
2.31442804298877
30
0
41
1
10
46.481522850876
20
2.32335179472642
30
0
41
1
10
46.4772370103797
20
2.33677480466477
30
0
41
1
10
46.4744702691602
20
2.34190775952911
30
0
41
1
10
46.4672041589557
20
2.35036009993007
30
0
41
1
10
46.4626212500183
20
2.35377895425302
30
0
41
1
10
46.4556718433148
20
2.35714014665558
30
0
41
1
10
46.4537139070228
20
2.35792839386917
30
0
41
1
10
46.4517022236202
20
2.35859958579246
30
0
0
SPLINE
5
E7
100
AcDbEntity
8
1
62
256
6
ByLayer
370
-1
48
1
60
0
100
AcDbSpline
70
4
71
3
72
22
73
18
40
0
40
0
40
0
40
0
40
0.185825981589408
40
0.185825981589408
40
0.371885832548128
40
0.371885832548128
40
0.495160530421008
40
0.495160530421008
40
0.589628856103025
40
0.589628856103025
40
0.743376174918013
40
0.743376174918013
40
0.840799327711599
40
0.840799327711599
40
0.939398787173007
40
0.939398787173007
40
1
40
1
40
1
40
1
41
1
10
46.012804373045
20
3.58421310410534
30
0
41
1
10
46.0273569568025
20
3.57956307997208
30
0
41
1
10
46.0416851224987
20
3.5740906443657
30
0
41
1
10
46.0695243620225
20
3.56141070014479
30
0
41
1
10
46.0831044843309
20
3.55417544953053
30
0
41
1
10
46.104545949995
20
3.54043511176803
30
0
41
1
10
46.112824635873
20
3.5344818682166
30
0
41
1
10
46.1266200467464
20
3.52301934311751
30
0
41
1
10
46.1323521780086
20
3.51771147053114
30
0
41
1
10
46.1462554303328
20
3.50289749148519
30
0
41
1
10
46.1539413003671
20
3.49261742307397
30
0
41
1
10
46.1627770496825
20
3.47433949441293
30
0
41
1
10
46.1653179998867
20
3.46672445928707
30
0
41
1
10
46.167579921751
20
3.45136223338815
30
0
41
1
10
46.1672543814917
20
3.44340074005504
30
0
41
1
10
46.1642569675268
20
3.43149494728104
30
0
41
1
10
46.1625241707601
20
3.42708789567286
30
0
41
1
10
46.1603344450039
20
3.42298738321202
30
0
0
SPLINE
5
E8
100
AcDbEntity
8
1
62
256
6
ByLayer
370
-1
48
1
60
0
100
AcDbSpline
70
4
71
3
72
22
73
18
40
0
40
0
40
0
40
0
40
0.185825981610991
40
0.185825981610991
40
0.371885832564582
40
0.371885832564582
40
0.495160530433497
40
0.495160530433497
40
0.589628856112716
40
0.589628856112716
40
0.743376174923453
40
0.743376174923453
40
0.840799327716
40
0.840799327716
40
0.939398787176246
40
0.939398787176246
40
1
40
1
40
1
40
1
41
1
10
45.5615495770214
20
1.91495370624045
30
0
41
1
10
45.5765241929057
20
1.91186484245586
30
0
41
1
10
45.5916988286595
20
1.90952362697558
30
0
41
1
10
45.6221643713635
20
1.90655877344272
30
0
41
1
10
45.637529232075
20
1.90592553876132
30
0
41
1
10
45.6628897658379
20
1.90668242366249
30
0
41
1
10
45.6729896069402
20
1.90746590734509
30
0
41
1
10
45.6905475359674
20
1.90992150310407
30
0
41
1
10
45.6981002619644
20
1.91134828441608
30
0
41
1
10
45.717329981816
20
1.9162377103134
30
0
41
1
10
45.7289424421547
20
1.92048269033478
30
0
41
1
10
45.7453059893427
20
1.93005121883212
30
0
41
1
10
45.7511119503949
20
1.93451395017126
30
0
41
1
10
45.7602770811226
20
1.94468773269264
30
0
41
1
10
45.7636944158184
20
1.950571697068
30
0
41
1
10
45.766567623419
20
1.96038221690952
30
0
41
1
10
45.767075791232
20
1.96426483051482
30
0
41
1
10
45.7670339329286
20
1.96810960298472
30
0
0
SPLINE
5
E9
100
AcDbEntity
8
1
62
256
6
ByLayer
370
-1
48
1
60
0
100
AcDbSpline
70
4
71
3
72
20
73
16
40
0
40
0
40
0
40
0
40
0.205427024238592
40
0.205427024238592
40
0.408349889858249
40
0.408349889858249
40
0.575671769342775
40
0.575671769342775
40
0.705596033383001
40
0.705596033383001
40
0.805025697172223
40
0.805025697172223
40
0.963947385291838
40
0.963947385291838
40
1
40
1
40
1
40
1
41
1
10
46.2356464891293
20
3.22042221749189
30
0
41
1
10
46.2248444187666
20
3.23183704610401
30
0
41
1
10
46.2146499079928
20
3.24400150499363
30
0
41
1
10
46.1960608308685
20
3.26932183729423
30
0
41
1
10
46.1875816843
20
3.28254566139552
30
0
41
1
10
46.1740887749655
20
3.30753470357965
30
0
41
1
10
46.1686879085607
20
3.3192216792371
30
0
41
1
10
46.1608843823564
20
3.34043386129576
30
0
41
1
10
46.1580618147712
20
3.34991502333432
30
0
41
1
10
46.1545606428717
20
3.36678900262027
30
0
41
1
10
46.1535275303994
20
3.37419276757328
30
0
41
1
10
46.1525686520661
20
3.39319095507349
30
0
41
1
10
46.1536547103768
20
3.40505611291701
30
0
41
1
10
46.1581990758606
20
3.41822948558098
30
0
41
1
10
46.159193868671
20
3.42065019945906
30
0
41
1
10
46.1603344450037
20
3.42298738321213
30
0
0
SPLINE
5
EA
100
AcDbEntity
8
1
62
256
6
ByLayer
370
-1
48
1
60
0
100
AcDbSpline
70
4
71
3
72
20
73
16
40
0
40
0
40
0
40
0
40
0.203629751425584
40
0.203629751425584
40
0.40477725303823
40
0.40477725303823
40
0.570635240086459
40
0.570635240086459
40
0.699422801926964
40
0.699422801926964
40
0.797982559557613
40
0.797982559557613
40
0.955513848179873
40
0.955513848179873
40
1
40
1
40
1
40
1
41
1
10
45.5768236447527
20
3.37627851101902
30
0
41
1
10
45.5614304500568
20
3.37278706393772
30
0
41
1
10
45.5458008657374
20
3.3702719660603
30
0
41
1
10
45.5148002982554
20
3.36743445922991
30
0
41
1
10
45.4993260255031
20
3.36707289905752
30
0
41
1
10
45.4715286955661
20
3.36867412219473
30
0
41
1
10
45.4590475324665
20
3.37024420225507
30
0
41
1
10
45.4375111816239
20
3.37488152660467
30
0
41
1
10
45.4282569376686
20
3.37754916203201
30
0
41
1
10
45.4126242110158
20
3.38364823946375
30
0
41
1
10
45.4060417855264
20
3.38677091496081
30
0
41
1
10
45.3900730003157
20
3.39627935691459
30
0
41
1
10
45.3810174944992
20
3.40370684095544
30
0
41
1
10
45.3723901306682
20
3.41540528925998
30
0
41
1
10
45.3706475715575
20
3.41816784674822
30
0
41
1
10
45.3691411456938
20
3.42105377981841
30
0
0
SPLINE
5
EB
100
AcDbEntity
8
1
62
256
6
ByLayer
370
-1
48
1
60
0
100
AcDbSpline
70
4
71
3
72
20
73
16
40
0
40
0
40
0
40
0
40
0.203629751426394
40
0.203629751426394
40
0.404777253040905
40
0.404777253040905
40
0.570635240089324
40
0.570635240089324
40
0.69942280192956
40
0.69942280192956
40
0.797982559560181
40
0.797982559560181
40
0.955513848182612
40
0.955513848182612
40
1
40
1
40
1
40
1
41
1
10
46.4261355878612
20
2.57983111251895
30
0
41
1
10
46.4307167324728
20
2.59482514802855
30
0
41
1
10
46.4361256625151
20
2.60973460584319
30
0
41
1
10
46.4484537968253
20
2.63862546224203
30
0
41
1
10
46.4553918526694
20
2.65271271223651
30
0
41
1
10
46.4695646616273
20
2.6772578990649
30
0
41
1
10
46.476574867034
20
2.68799116412021
30
0
41
1
10
46.4901650119448
20
2.70582072020613
30
0
41
1
10
46.4965277748298
20
2.71324025889137
30
0
41
1
10
46.5085267551128
20
2.7251809953967
30
0
41
1
10
46.5140146227567
20
2.73000242376398
30
0
41
1
10
46.5288570702579
20
2.74096477516986
30
0
41
1
10
46.5388843358088
20
2.74640756887555
30
0
41
1
10
46.5521132370566
20
2.74981124882578
30
0
41
1
10
46.5551030503633
20
2.75034467933756
30
0
41
1
10
46.5580835627657
20
2.75061391387993
30
0
0
LINE
5
49
100
AcDbEntity
8
80
62
256
6
ByLayer
370
-1
48
1
60
0
100
AcDbLine
10
0
20
0
30
0
11
-10
21
0
31
0
39
0
210
0
220
0
230
1
0
LINE
5
4A
100
AcDbEntity
8
81
62
256
6
ByLayer
370
-1
48
1
60
0
100
AcDbLine
10
47.925
20
4.9
30
0
11
57.925
21
4.9
31
0
39
0
210
0
220
0
230
1
0
LINE
5
4B
100
AcDbEntity
8
SK4
62
256
6
ByLayer
370
-1
48
0.05
60
0
100
AcDbLine
10
-83.325
20
0
30
0
11
52.443314
21
0
31
0
39
0
210
0
220
0
230
1
0
LINE
5
4D
100
AcDbEntity
8
4
62
256
6
ByLayer
370
-1
48
0.05
60
0
100
AcDbLine
10
0
20
0
30
0
11
52.443314
21
0
31
0
39
0
210
0
220
0
230
1
0
LINE
5
4F
100
AcDbEntity
8
1
62
256
6
ByLayer
370
-1
48
1
60
0
100
AcDbLine
10
47.068465
20
2.799237
30
0
11
47.059525
21
2.877847
31
0
39
0
210
0
220
0
230
1
0
LINE
5
50
100
AcDbEntity
8
1
62
256
6
ByLayer
370
-1
48
1
60
0
100
AcDbLine
10
44.476175
20
2.584077
30
0
11
44.485114
21
2.505468
31
0
39
0
210
0
220
0
230
1
0
LINE
5
51
100
AcDbEntity
8
1
62
256
6
ByLayer
370
-1
48
1
60
0
100
AcDbLine
10
45.392285
20
1.996949
30
0
11
45.379228
21
2.11177
31
0
39
0
210
0
220
0
230
1
0
LINE
5
52
100
AcDbEntity
8
1
62
256
6
ByLayer
370
-1
48
1
60
0
100
AcDbLine
10
46.409649
20
2.43974
30
0
11
46.42634
21
2.292959
31
0
39
0
210
0
220
0
230
1
0
LINE
5
53
100
AcDbEntity
8
1
62
256
6
ByLayer
370
-1
48
1
60
0
100
AcDbLine
10
45.140898
20
2.891623
30
0
11
45.124204
21
3.038432
31
0
39
0
210
0
220
0
230
1
0
LINE
5
54
100
AcDbEntity
8
1
62
256
6
ByLayer
370
-1
48
1
60
0
100
AcDbLine
10
46.153832
20
3.373373
30
0
11
46.170919
21
3.223108
31
0
39
0
210
0
220
0
230
1
0
LINE
5
55
100
AcDbEntity
8
1
62
256
6
ByLayer
370
-1
48
1
60
0
100
AcDbLine
10
30.675
20
-4.04375
30
0
11
41.420933
21
-4.04375
31
0
39
0
210
0
220
0
230
1
0
LINE
5
56
100
AcDbEntity
8
1
62
256
6
ByLayer
370
-1
48
1
60
0
100
AcDbLine
10
40.904741
20
4.04375
30
0
11
30.675
21
4.04375
31
0
39
0
210
0
220
0
230
1
0
LINE
5
57
100
AcDbEntity
8
1
62
256
6
ByLayer
370
-1
48
1
60
0
100
AcDbLine
10
0
20
-3.99375
30
0
11
30.675
21
-3.99375
31
0
39
0
210
0
220
0
230
1
0
LINE
5
58
100
AcDbEntity
8
1
62
256
6
ByLayer
370
-1
48
1
60
0
100
AcDbLine
10
30.675
20
3.99375
30
0
11
0
21
3.99375
31
0
39
0
210
0
220
0
230
1
0
LINE
5
59
100
AcDbEntity
8
SK1
62
256
6
ByLayer
370
-1
48
1
60
0
100
AcDbLine
10
-77.825
20
-3.99375
30
0
11
0
21
-3.99375
31
0
39
0
210
0
220
0
230
1
0
LINE
5
5B
100
AcDbEntity
8
SK1
62
256
6
ByLayer
370
-1
48
1
60
0
100
AcDbLine
10
0
20
3.99375
30
0
11
-77.825
21
3.99375
31
0
39
0
210
0
220
0
230
1
0
LINE
5
5C
100
AcDbEntity
8
SK1
62
256
6
ByLayer
370
-1
48
1
60
0
100
AcDbLine
10
-77.825
20
3.99375
30
0
11
-78.325
21
3.49375
31
0
39
0
210
0
220
0
230
1
0
LINE
5
5D
100
AcDbEntity
8
SK1
62
256
6
ByLayer
370
-1
48
1
60
0
100
AcDbLine
10
-78.325
20
-3.49375
30
0
11
-77.825
21
-3.99375
31
0
39
0
210
0
220
0
230
1
0
LINE
5
5E
100
AcDbEntity
8
1
62
256
6
ByLayer
370
-1
48
1
60
0
100
AcDbLine
10
46.14335
20
-0.280611
30
0
11
45.66702
21
-1.292018
31
0
39
0
210
0
220
0
230
1
0
LINE
5
5F
100
AcDbEntity
8
1
62
256
6
ByLayer
370
-1
48
1
60
0
100
AcDbLine
10
30.675
20
0.297643
30
0
11
30.675
21
4.04375
31
0
39
0
210
0
220
0
230
1
0
LINE
5
60
100
AcDbEntity
8
1
62
256
6
ByLayer
370
-1
48
1
60
0
100
AcDbLine
10
30.675
20
-4.04375
30
0
11
30.675
21
-0.297643
31
0
39
0
210
0
220
0
230
1
0
LINE
5
61
100
AcDbEntity
8
1
62
256
6
ByLayer
370
-1
48
1
60
0
100
AcDbLine
10
44.916744
20
-1.778244
30
0
11
45.66702
21
-1.292018
31
0
39
0
210
0
220
0
230
1
0
LINE
5
62
100
AcDbEntity
8
1
62
256
6
ByLayer
370
-1
48
1
60
0
100
AcDbLine
10
30.675
20
0.201663
30
0
11
0
21
0.201663
31
0
39
0
210
0
220
0
230
1
0
LINE
5
63
100
AcDbEntity
8
1
62
256
6
ByLayer
370
-1
48
1
60
0
100
AcDbLine
10
46.284595
20
0.019298
30
0
11
46.143352
21
-0.280607
31
0
39
0
210
0
220
0
230
1
0
LINE
5
64
100
AcDbEntity
8
1
62
256
6
ByLayer
370
-1
48
1
60
0
100
AcDbLine
10
42.368492
20
3.606977
30
0
11
44.019472
21
1.26305
31
0
39
0
210
0
220
0
230
1
0
LINE
5
65
100
AcDbEntity
8
1
62
256
6
ByLayer
370
-1
48
1
60
0
100
AcDbLine
10
0
20
-3.99375
30
0
11
0
21
-0.201663
31
0
39
0
210
0
220
0
230
1
0
LINE
5
66
100
AcDbEntity
8
1
62
256
6
ByLayer
370
-1
48
1
60
0
100
AcDbLine
10
0
20
0.201663
30
0
11
0
21
3.99375
31
0
39
0
210
0
220
0
230
1
0
LINE
5
67
100
AcDbEntity
8
1
62
256
6
ByLayer
370
-1
48
1
60
0
100
AcDbLine
10
0
20
-0.201663
30
0
11
30.675
21
-0.201663
31
0
39
0
210
0
220
0
230
1
0
LINE
5
68
100
AcDbEntity
8
1
62
256
6
ByLayer
370
-1
48
1
60
0
100
AcDbLine
10
36.837422
20
0.297643
30
0
11
30.675
21
0.297643
31
0
39
0
210
0
220
0
230
1
0
LINE
5
69
100
AcDbEntity
8
1
62
256
6
ByLayer
370
-1
48
1
60
0
100
AcDbLine
10
0
20
-0.201663
30
0
11
0
21
0.201663
31
0
39
0
210
0
220
0
230
1
0
LINE
5
6A
100
AcDbEntity
8
1
62
256
6
ByLayer
370
-1
48
1
60
0
100
AcDbLine
10
30.675
20
-0.297643
30
0
11
37.192666
21
-0.297643
31
0
39
0
210
0
220
0
230
1
0
LINE
5
6B
100
AcDbEntity
8
1
62
256
6
ByLayer
370
-1
48
1
60
0
100
AcDbLine
10
44.278991
20
1.006204
30
0
11
46.14335
21
-0.280611
31
0
39
0
210
0
220
0
230
1
0
LINE
5
6C
100
AcDbEntity
8
1
62
256
6
ByLayer
370
-1
48
1
60
0
100
AcDbLine
10
42.882843
20
3.452659
30
0
11
42.467809
21
4.039206
31
0
39
0
210
0
220
0
230
1
0
LINE
5
6D
100
AcDbEntity
8
1
62
256
6
ByLayer
370
-1
48
1
60
0
100
AcDbLine
10
30.675
20
0.297643
30
0
11
30.675
21
0.201663
31
0
39
0
210
0
220
0
230
1
0
LINE
5
6E
100
AcDbEntity
8
1
62
256
6
ByLayer
370
-1
48
1
60
0
100
AcDbLine
10
42.173236
20
-3.55621
30
0
11
44.916744
21
-1.778244
31
0
39
0
210
0
220
0
230
1
0
LINE
5
6F
100
AcDbEntity
8
1
62
256
6
ByLayer
370
-1
48
1
60
0
100
AcDbLine
10
42.901768
20
3.538473
30
0
11
42.607291
21
3.954642
31
0
39
0
210
0
220
0
230
1
0
LINE
5
70
100
AcDbEntity
8
1
62
256
6
ByLayer
370
-1
48
1
60
0
100
AcDbLine
10
42.173236
20
-3.55621
30
0
11
41.420933
21
-4.04375
31
0
39
0
210
0
220
0
230
1
0
LINE
5
71
100
AcDbEntity
8
1
62
256
6
ByLayer
370
-1
48
1
60
0
100
AcDbLine
10
30.675
20
-0.201663
30
0
11
30.675
21
-0.297643
31
0
39
0
210
0
220
0
230
1
0
LINE
5
72
100
AcDbEntity
8
1
62
256
6
ByLayer
370
-1
48
1
60
0
100
AcDbLine
10
42.368492
20
3.606977
30
0
11
44.916744
21
-1.778244
31
0
39
0
210
0
220
0
230
1
0
LINE
5
73
100
AcDbEntity
8
SK1
62
256
6
ByLayer
370
-1
48
1
60
0
100
AcDbLine
10
-16.075
20
-0.201663
30
0
11
0
21
-0.201663
31
0
39
0
210
0
220
0
230
1
0
LINE
5
74
100
AcDbEntity
8
SK1
62
256
6
ByLayer
370
-1
48
1
60
0
100
AcDbLine
10
0
20
-3.99375
30
0
11
0
21
-0.201663
31
0
39
0
210
0
220
0
230
1
0
LINE
5
75
100
AcDbEntity
8
SK1
62
256
6
ByLayer
370
-1
48
1
60
0
100
AcDbLine
10
0
20
0.201663
30
0
11
0
21
3.99375
31
0
39
0
210
0
220
0
230
1
0
LINE
5
76
100
AcDbEntity
8
SK1
62
256
6
ByLayer
370
-1
48
1
60
0
100
AcDbLine
10
0
20
0.201663
30
0
11
-16.075
21
0.201663
31
0
39
0
210
0
220
0
230
1
0
LINE
5
77
100
AcDbEntity
8
SK1
62
256
6
ByLayer
370
-1
48
1
60
0
100
AcDbLine
10
-77.825
20
-3.99375
30
0
11
-77.825
21
3.99375
31
0
39
0
210
0
220
0
230
1
0
LINE
5
78
100
AcDbEntity
8
SK1
62
256
6
ByLayer
370
-1
48
1
60
0
100
AcDbLine
10
0
20
-0.201663
30
0
11
0
21
0.201663
31
0
39
0
210
0
220
0
230
1
0
LINE
5
79
100
AcDbEntity
8
SK1
62
256
6
ByLayer
370
-1
48
1
60
0
100
AcDbLine
10
-78.325
20
-3.49375
30
0
11
-78.325
21
3.49375
31
0
39
0
210
0
220
0
230
1
0
LINE
5
7A
100
AcDbEntity
8
SK1
62
256
6
ByLayer
370
-1
48
1
60
0
100
AcDbLine
10
-16.075
20
-0.201663
30
0
11
-16.075
21
0.201663
31
0
39
0
210
0
220
0
230
1
0
LINE
5
7B
100
AcDbEntity
8
1
62
256
6
ByLayer
370
-1
48
1
60
0
100
AcDbLine
10
45.378486
20
2.011495
30
0
11
45.371762
21
2.070626
31
0
39
0
210
0
220
0
230
1
0
LINE
5
7C
100
AcDbEntity
8
1
62
256
6
ByLayer
370
-1
48
1
60
0
100
AcDbLine
10
44.991564
20
2.58866
30
0
11
44.973973
21
2.743351
31
0
39
0
210
0
220
0
230
1
0
LINE
5
7D
100
AcDbEntity
8
1
62
256
6
ByLayer
370
-1
48
1
60
0
100
AcDbLine
10
45.385421
20
3.265608
30
0
11
45.36783
21
3.4203
31
0
39
0
210
0
220
0
230
1
0
LINE
5
7E
100
AcDbEntity
8
1
62
256
6
ByLayer
370
-1
48
1
60
0
100
AcDbLine
10
45.386732
20
3.266362
30
0
11
45.369141
21
3.421054
31
0
39
0
210
0
220
0
230
1
0
LINE
5
7F
100
AcDbEntity
8
1
62
256
6
ByLayer
370
-1
48
1
60
0
100
AcDbLine
10
45.782634
20
3.370988
30
0
11
45.765063
21
3.525504
31
0
39
0
210
0
220
0
230
1
0
LINE
5
80
100
AcDbEntity
8
1
62
256
6
ByLayer
370
-1
48
1
60
0
100
AcDbLine
10
46.469068
20
2.985652
30
0
11
46.451477
21
3.140343
31
0
39
0
210
0
220
0
230
1
0
LINE
5
81
100
AcDbEntity
8
1
62
256
6
ByLayer
370
-1
48
1
60
0
100
AcDbLine
10
46.464033
20
2.250168
30
0
11
46.451702
21
2.3586
31
0
39
0
210
0
220
0
230
1
0
LINE
5
82
100
AcDbEntity
8
1
62
256
6
ByLayer
370
-1
48
1
60
0
100
AcDbLine
10
45.59313
20
3.232882
30
0
11
45.576824
21
3.376279
31
0
39
0
210
0
220
0
230
1
0
LINE
5
83
100
AcDbEntity
8
1
62
256
6
ByLayer
370
-1
48
1
60
0
100
AcDbLine
10
45.10849
20
2.891544
30
0
11
45.124796
21
2.748148
31
0
39
0
210
0
220
0
230
1
0
LINE
5
84
100
AcDbEntity
8
1
62
256
6
ByLayer
370
-1
48
1
60
0
100
AcDbLine
10
46.251953
20
3.077026
30
0
11
46.235646
21
3.220422
31
0
39
0
210
0
220
0
230
1
0
LINE
5
85
100
AcDbEntity
8
1
62
256
6
ByLayer
370
-1
48
1
60
0
100
AcDbLine
10
45.132382
20
2.776208
30
0
11
45.116075
21
2.919604
31
0
39
0
210
0
220
0
230
1
0
LINE
5
86
100
AcDbEntity
8
1
62
256
6
ByLayer
370
-1
48
1
60
0
100
AcDbLine
10
45.605256
20
3.383918
30
0
11
45.621563
21
3.240522
31
0
39
0
210
0
220
0
230
1
0
LINE
5
87
100
AcDbEntity
8
1
62
256
6
ByLayer
370
-1
48
1
60
0
100
AcDbLine
10
46.256493
20
3.200002
30
0
11
46.2728
21
3.056606
31
0
39
0
210
0
220
0
230
1
0
LINE
5
88
100
AcDbEntity
8
1
62
256
6
ByLayer
370
-1
48
1
60
0
100
AcDbLine
10
42.919121
20
3.341622
30
0
11
44.140791
21
1.631109
31
0
39
0
210
0
220
0
230
1
0
LINE
5
89
100
AcDbEntity
8
1
62
256
6
ByLayer
370
-1
48
1
60
0
100
AcDbLine
10
44.92385
20
4.527764
30
0
11
42.998044
21
3.633569
31
0
39
0
210
0
220
0
230
1
0
LINE
5
8A
100
AcDbEntity
8
1
62
256
6
ByLayer
370
-1
48
1
60
0
100
AcDbLine
10
47.706991
20
4.898819
30
0
11
45.589184
21
4.706533
31
0
39
0
210
0
220
0
230
1
0
LINE
5
8B
100
AcDbEntity
8
1
62
256
6
ByLayer
370
-1
48
1
60
0
100
AcDbLine
10
47.741227
20
2.598513
30
0
11
47.92389
21
4.686358
31
0
39
0
210
0
220
0
230
1
0
LINE
5
8C
100
AcDbEntity
8
1
62
256
6
ByLayer
370
-1
48
1
60
0
100
AcDbLine
10
46.667584
20
0.039095
30
0
11
47.563722
21
1.941895
31
0
39
0
210
0
220
0
230
1
0
LINE
5
8D
100
AcDbEntity
8
1
62
256
6
ByLayer
370
-1
48
1
60
0
100
AcDbLine
10
44.628619
20
1.15326
30
0
11
46.371763
21
-0.04039
31
0
39
0
210
0
220
0
230
1
0
LINE
5
8E
100
AcDbEntity
8
2
62
256
6
ByLayer
370
-1
48
1
60
1
100
AcDbLine
10
47.925
20
0
30
0
11
47.926
21
0.001
31
0
39
0
210
0
220
0
230
1
0
MTEXT
5
EC
100
AcDbEntity
8
SK6
62
256
6
ByLayer
370
-1
48
1
60
0
100
AcDbMText
10
-11.825
20
-15.346875
30
0
210
0
220
0
230
1
1
\W00.771;\fsimplex.shx,bigfont.shx;E08K-SWLPR 02-R 
40
3.5
41
0
44
1.084337
50
0
71
7
72
5
7
DEFAULT
0
DIMENSION
5
11F
100
AcDbEntity
8
2
62
256
6
ByLayer
370
-3
48
1
60
0
100
AcDbDimension
2
DimnDraft3D1
10
60.175
20
0
30
0
11
60.175
21
15.155
31
0
70
32
71
5
72
1
41
1
210
0
220
0
230
1
3
Standard
100
AcDbAlignedDimension
13
49.925
23
4.9
33
0
14
49.925
24
0
34
0
50
90
100
AcDbRotatedDimension
1001
ACAD
1000
DSTYLE
1002
{
1070
    74
1070
     0
1070
   279
1070
     0
1070
   172
1070
     1
1070
   173
1070
     1
1070
   340
1005
ED
1070
    77
1070
     1
1070
    73
1070
     0
1070
   171
1070
     4
1070
   274
1070
     4
1070
   177
1070
     2
1070
   176
1070
     2
1070
   178
1070
     7
1070
    78
1070
     8
1070
    41
1041
3.175
1070
   147
1041
2.25
1070
    42
1041
2.0
1070
    44
1041
2.0
1070
   140
1041
4.5
1070
   343
1005
120
1070
   344
1005
120
1002
}
0
DIMENSION
5
135
100
AcDbEntity
8
SK2
62
256
6
ByLayer
370
-3
48
1
60
0
100
AcDbDimension
2
DimnDraft3D2
10
-88.075
20
3.99375
30
0
11
-88.075
21
14.24875
31
0
70
32
71
5
72
1
41
1
210
0
220
0
230
1
3
Standard
100
AcDbAlignedDimension
13
-80.325
23
-3.99375
33
0
14
-80.325
24
3.99375
34
0
50
90
100
AcDbRotatedDimension
1001
ACAD
1000
DSTYLE
1002
{
1070
    74
1070
     0
1070
   279
1070
     0
1070
   172
1070
     1
1070
   173
1070
     1
1070
   340
1005
ED
1070
    77
1070
     1
1070
    73
1070
     0
1070
   171
1070
     4
1070
   274
1070
     4
1070
   177
1070
     2
1070
   176
1070
     2
1070
   178
1070
     7
1070
    78
1070
     8
1070
    41
1041
3.175
1070
   147
1041
2.25
1070
    42
1041
2.0
1070
    44
1041
2.0
1070
   140
1041
4.5
1070
   343
1005
120
1070
   344
1005
120
1002
}
0
DIMENSION
5
143
100
AcDbEntity
8
SK2
62
256
6
ByLayer
370
-3
48
1
60
0
100
AcDbDimension
2
DimnDraft3D3
10
-78.325
20
17.65
30
0
11
-21.452632
21
17.65
31
0
70
32
71
5
72
1
41
1
210
0
220
0
230
1
3
Standard
100
AcDbAlignedDimension
13
47.925
23
6.9
33
0
14
-78.325
24
5.99375
34
0
50
0
100
AcDbRotatedDimension
1001
ACAD
1000
DSTYLE
1002
{
1070
   279
1070
     0
1070
   172
1070
     1
1070
   173
1070
     1
1070
   340
1005
ED
1070
    77
1070
     1
1070
    73
1070
     0
1070
   171
1070
     4
1070
   274
1070
     4
1070
   177
1070
     2
1070
   176
1070
     2
1070
   178
1070
     7
1070
    78
1070
     8
1070
    41
1041
3.175
1070
   147
1041
2.25
1070
    42
1041
2.0
1070
    44
1041
2.0
1070
   140
1041
4.5
1070
   343
1005
120
1070
   344
1005
120
1002
}
0
DIMENSION
5
151
100
AcDbEntity
8
2
62
256
6
ByLayer
370
-3
48
1
60
0
100
AcDbDimension
2
DimnDraft3D4
10
96.422712
20
0
30
0
11
72.982016
21
-37.243123
31
0
70
34
71
5
72
1
41
1
210
0
220
0
230
1
3
Standard
100
AcDb2LineAngularDimension
13
47.576377
23
0.915221
33
0
14
43.232088
24
-48.740227
34
0
15
49.925
25
0
35
0
16
76.159171
26
-31.280028
36
0
40
0
0
ENDSEC
0
SECTION
2
OBJECTS
0
DICTIONARY
5
182
330
0
100
AcDbDictionary
280
0
281
1
3
ACAD_GROUP
350
183
3
ACAD_MLINESTYLE
350
184
0
DICTIONARY
5
183
330
0
100
AcDbDictionary
280
0
281
1
0
DICTIONARY
5
184
330
0
100
AcDbDictionary
280
0
281
1
3
Standard
350
18
0
MLINESTYLE
5
18
330
184
100
AcDbMlineStyle
2
Standard
70
0
3

62
256
51
90
52
90
71
2
49
-0.5
62
256
6
ByLayer
49
0.5
62
256
6
ByLayer
0
RASTERVARIABLES
5
170
330

100
AcDbRasterVariables
90
0
70
1
71
1
72
1
0
ENDSEC
0
EOF
