0
SECTION
2
HEADER
9
$ACADVER
1
AC1015
9
$DWGCODEPAGE
3
ANSI_1252
9
$HANDSEED
5
206
9
$ANGBASE
50
0
9
$ANGDIR
70
0
9
$ATTMODE
70
1
9
$AUNITS
70
0
9
$AUPREC
70
0
9
$CECOLOR
62
256
9
$CELTSCALE
40
1
9
$CELTYPE
6
ByLayer
9
$CELWEIGHT
370
18
9
$CLAYER
8
0
9
$CMLJUST
70
0
9
$CMLSCALE
40
1
9
$CMLSTYLE
2
Standard
9
$DIMSTYLE
2
Standard
9
$TEXTSIZE
40
0.2
9
$TEXTSTYLE
7
Standard
9
$LUNITS
70
2
9
$LUPREC
70
4
9
$EXTNAMES
290
1
9
$INSUNITS
70
4
9
$LTSCALE
40
1
9
$LWDISPLAY
290
1
9
$PDMODE
70
0
9
$PDSIZE
40
0
9
$PLINEGEN
70
0
0
ENDSEC
0
SECTION
2
CLASSES
0
CLASS
1
RASTERVARIABLES
2
AcDbRasterVariables
3
ISM
90
0
280
0
281
0
0
ENDSEC
0
SECTION
2
TABLES
0
TABLE
2
VPORT
5
1fc
100
AcDbSymbolTable
0
VPORT
5
1
100
AcDbSymbolTableRecord
100
AcDbViewportTableRecord
2
*Active
70
0
10
0
20
0
11
1
21
1
12
-1
22
1
13
0
23
0
14
0.5
24
0.5
15
10
25
10
16
0
26
0
36
1
17
0
27
0
37
0
0
ENDTAB
0
TABLE
2
LTYPE
5
1fd
100
AcDbSymbolTable
0
LTYPE
5
14
100
AcDbSymbolTableRecord
100
AcDbLinetypeTableRecord
70
0
2
ByBlock
3

72
65
73
0
40
0
0
LTYPE
5
15
100
AcDbSymbolTableRecord
100
AcDbLinetypeTableRecord
70
0
2
ByLayer
3

72
65
73
0
40
0
0
LTYPE
5
16
100
AcDbSymbolTableRecord
100
AcDbLinetypeTableRecord
70
0
2
CONTINUOUS
3
Solid line
72
65
73
0
40
0
0
LTYPE
5
6A
100
AcDbSymbolTableRecord
100
AcDbLinetypeTableRecord
70
0
2
CENTER
3
____ _ ____ _ ____ _ ____
72
65
73
4
40
47.5
49
22
74
0
49
-8.5
74
0
49
8.5
74
0
49
-8.5
74
0
0
LTYPE
5
6B
100
AcDbSymbolTableRecord
100
AcDbLinetypeTableRecord
70
0
2
DASHED
3
__ __ __ __ __ __ __ __ __
72
65
73
2
40
25.72
49
12.86
74
0
49
-12.86
74
0
0
ENDTAB
0
TABLE
2
LAYER
5
1fe
100
AcDbSymbolTable
0
LAYER
5
10
100
AcDbSymbolTableRecord
100
AcDbLayerTableRecord
2
0
70
0
62
7
6
CONTINUOUS
290
1
370
-3
390
0
0
LAYER
5
6D
100
AcDbSymbolTableRecord
100
AcDbLayerTableRecord
2
2
70
0
62
7
6
CONTINUOUS
290
1
370
-3
390
0
0
LAYER
5
6F
100
AcDbSymbolTableRecord
100
AcDbLayerTableRecord
2
80
70
0
62
-6
6
CONTINUOUS
290
1
370
-3
390
0
0
LAYER
5
71
100
AcDbSymbolTableRecord
100
AcDbLayerTableRecord
2
81
70
0
62
-3
6
CONTINUOUS
290
1
370
-3
390
0
0
LAYER
5
73
100
AcDbSymbolTableRecord
100
AcDbLayerTableRecord
2
1
70
0
62
4
6
CONTINUOUS
290
1
370
-3
390
0
0
LAYER
5
1e9
100
AcDbSymbolTableRecord
100
AcDbLayerTableRecord
2
SK1
70
0
62
4
6
CONTINUOUS
290
1
370
-3
390
0
0
LAYER
5
1ea
100
AcDbSymbolTableRecord
100
AcDbLayerTableRecord
2
SK6
70
0
62
5
6
CONTINUOUS
290
1
370
-3
390
0
0
LAYER
5
1eb
100
AcDbSymbolTableRecord
100
AcDbLayerTableRecord
2
SK2
70
0
62
7
6
CONTINUOUS
290
1
370
-3
390
0
0
ENDTAB
0
TABLE
2
STYLE
5
1ff
100
AcDbSymbolTable
0
STYLE
5
11
100
AcDbSymbolTableRecord
100
AcDbTextStyleTableRecord
2
Standard
3
txt
70
0
71
0
40
0
41
1
42
0
50
0
0
STYLE
5
13F
100
AcDbSymbolTableRecord
100
AcDbTextStyleTableRecord
2
iso_b_vert
3
simplex.shx
70
0
71
0
40
0
41
1
42
0
50
0
0
STYLE
5
140
100
AcDbSymbolTableRecord
100
AcDbTextStyleTableRecord
2
DWGDirectTextStyle
3
simplex
70
0
71
0
40
0
41
1
42
0
50
0
0
ENDTAB
0
TABLE
2
DIMSTYLE
5
200
100
AcDbSymbolTable
100
AcDbDimStyleTable
0
DIMSTYLE
105
27
100
AcDbSymbolTableRecord
100
AcDbDimStyleTableRecord
2
Standard
70
0
3
<>
41
0.18
42
0.0625
44
0.18
140
0.18
147
0.09
73
0
74
0
77
1
271
2
275
0
278
52
280
0
340
11
0
ENDTAB
0
TABLE
2
VIEW
5
201
100
AcDbSymbolTable
0
ENDTAB
0
TABLE
2
UCS
5
202
100
AcDbSymbolTable
0
ENDTAB
0
TABLE
2
APPID
5
203
100
AcDbSymbolTable
0
APPID
5
12
100
AcDbSymbolTableRecord
100
AcDbRegAppTableRecord
2
ACAD
70
0
0
ENDTAB
0
TABLE
2
BLOCK_RECORD
5
204
100
AcDbSymbolTable
0
BLOCK_RECORD
5
1F
100
AcDbSymbolTableRecord
100
AcDbBlockTableRecord
2
*Model_Space
340
0
70
0
0
BLOCK_RECORD
5
1B
100
AcDbSymbolTableRecord
100
AcDbBlockTableRecord
2
*Paper_Space
340
0
70
0
0
BLOCK_RECORD
5
23
100
AcDbSymbolTableRecord
100
AcDbBlockTableRecord
2
*Paper_Space0
340
0
70
0
0
BLOCK_RECORD
5
142
100
AcDbSymbolTableRecord
100
AcDbBlockTableRecord
2
DimnDraft3D11
340
0
70
0
0
BLOCK_RECORD
5
151
100
AcDbSymbolTableRecord
100
AcDbBlockTableRecord
2
DimnDraft3D2
340
0
70
0
0
BLOCK_RECORD
5
15F
100
AcDbSymbolTableRecord
100
AcDbBlockTableRecord
2
_CLOSED
340
0
70
0
0
BLOCK_RECORD
5
166
100
AcDbSymbolTableRecord
100
AcDbBlockTableRecord
2
DimnDraft3D3
340
0
70
0
0
BLOCK_RECORD
5
174
100
AcDbSymbolTableRecord
100
AcDbBlockTableRecord
2
DimnDraft3D4
340
0
70
0
0
BLOCK_RECORD
5
182
100
AcDbSymbolTableRecord
100
AcDbBlockTableRecord
2
DimnDraft3D5
340
0
70
0
0
ENDTAB
0
ENDSEC
0
SECTION
2
BLOCKS
0
BLOCK
5
20
100
AcDbEntity
8
0
100
AcDbBlockBegin
2
*Model_Space
70
0
10
0
20
0
30
0
3
*Model_Space
0
ENDBLK
5
21
100
AcDbEntity
8
0
100
AcDbBlockEnd
0
BLOCK
5
1C
100
AcDbEntity
8
0
100
AcDbBlockBegin
2
*Paper_Space
70
0
10
0
20
0
30
0
3
*Paper_Space
0
ENDBLK
5
1D
100
AcDbEntity
8
0
100
AcDbBlockEnd
0
BLOCK
5
24
100
AcDbEntity
8
0
100
AcDbBlockBegin
2
*Paper_Space0
70
0
10
0
20
0
30
0
3
*Paper_Space0
0
ENDBLK
5
25
100
AcDbEntity
8
0
100
AcDbBlockEnd
0
BLOCK
5
143
100
AcDbEntity
8
0
100
AcDbBlockBegin
2
DimnDraft3D11
70
0
10
0
20
0
30
0
3
DimnDraft3D11
0
LINE
5
145
100
AcDbEntity
8
SK2
62
256
6
ByLayer
370
25
48
1
60
0
100
AcDbLine
10
34.34235
20
-26.425
30
0
11
34.34235
21
-64.675
31
0
39
0
210
0
220
0
230
1
0
LINE
5
147
100
AcDbEntity
8
SK2
62
256
6
ByLayer
370
25
48
1
60
0
100
AcDbLine
10
-137.00765
20
-17.925
30
0
11
-137.00765
21
-64.675
31
0
39
0
210
0
220
0
230
1
0
LINE
5
148
100
AcDbEntity
8
SK2
62
256
6
ByLayer
370
25
48
1
60
0
100
AcDbLine
10
34.34235
20
-62.675
30
0
11
-137.00765
21
-62.675
31
0
39
0
210
0
220
0
230
1
0
LINE
5
149
100
AcDbEntity
8
SK2
62
256
6
ByLayer
370
25
48
1
60
0
100
AcDbLine
10
34.34235
20
-62.675
30
0
11
31.167352
21
-63.092997
31
0
39
0
210
0
220
0
230
1
0
LINE
5
14A
100
AcDbEntity
8
SK2
62
256
6
ByLayer
370
25
48
1
60
0
100
AcDbLine
10
34.34235
20
-62.675
30
0
11
31.167349
21
-62.257003
31
0
39
0
210
0
220
0
230
1
0
LINE
5
14B
100
AcDbEntity
8
SK2
62
256
6
ByLayer
370
25
48
1
60
0
100
AcDbLine
10
31.167352
20
-63.092997
30
0
11
31.167349
21
-62.257003
31
0
39
0
210
0
220
0
230
1
0
LINE
5
14C
100
AcDbEntity
8
SK2
62
256
6
ByLayer
370
25
48
1
60
0
100
AcDbLine
10
-137.00765
20
-62.675
30
0
11
-133.832651
21
-62.257003
31
0
39
0
210
0
220
0
230
1
0
LINE
5
14D
100
AcDbEntity
8
SK2
62
256
6
ByLayer
370
25
48
1
60
0
100
AcDbLine
10
-137.00765
20
-62.675
30
0
11
-133.832648
21
-63.092997
31
0
39
0
210
0
220
0
230
1
0
LINE
5
14E
100
AcDbEntity
8
SK2
62
256
6
ByLayer
370
25
48
1
60
0
100
AcDbLine
10
-133.832651
20
-62.257003
30
0
11
-133.832648
21
-63.092997
31
0
39
0
210
0
220
0
230
1
0
MTEXT
5
14F
100
AcDbEntity
8
SK2
62
256
6
ByLayer
370
18
48
1
60
0
100
AcDbMText
10
-56.608308
20
-61.55
30
0
210
0
220
0
230
1
1
\W0.6864;170.0
40
4.5
41
0
44
1.084337
50
0
71
7
72
5
7
iso_b_vert
0
ENDBLK
5
144
100
AcDbEntity
8
0
100
AcDbBlockEnd
0
BLOCK
5
15C
100
AcDbEntity
8
0
100
AcDbBlockBegin
2
DimnDraft3D2
70
0
10
0
20
0
30
0
3
DimnDraft3D2
0
MTEXT
5
152
100
AcDbEntity
8
2
62
256
6
ByLayer
370
18
48
1
60
0
100
AcDbMText
10
17.436417
20
-36.099116
30
0
210
0
220
0
230
1
1
\W0.7399;95%%d
40
4.5
41
0
44
1.084337
50
312.65427684
71
7
72
5
7
iso_b_vert
0
LINE
5
153
100
AcDbEntity
8
2
62
256
6
ByLayer
370
13
48
1
60
0
100
AcDbLine
10
34.34235
20
-26.425
30
0
11
34.34235
21
-47.915491
31
0
39
0
210
0
220
0
230
1
0
LINE
5
154
100
AcDbEntity
8
2
62
256
6
ByLayer
370
13
48
1
60
0
100
AcDbLine
10
30.493731
20
-24.176971
30
0
11
10.998142
21
-22.577072
31
0
39
0
210
0
220
0
230
1
0
ARC
5
155
100
AcDbEntity
8
2
62
256
6
ByLayer
370
13
48
1
60
0
100
AcDbCircle
39
0
10
34.34235
20
-24.492807
30
0
40
21.4226837817216
210
0
220
0
230
1
100
AcDbArc
50
175.308554
51
270
0
LINE
5
156
100
AcDbEntity
8
2
62
256
6
ByLayer
370
13
48
1
60
0
100
AcDbLine
10
34.34235
20
-45.915491
30
0
11
31.154067
21
-46.215804
31
0
39
0
210
0
220
0
230
1
0
LINE
5
157
100
AcDbEntity
8
2
62
256
6
ByLayer
370
13
48
1
60
0
100
AcDbLine
10
34.34235
20
-45.915491
30
0
11
31.184976
21
-45.380382
31
0
39
0
210
0
220
0
230
1
0
LINE
5
158
100
AcDbEntity
8
2
62
256
6
ByLayer
370
13
48
1
60
0
100
AcDbLine
10
31.154067
20
-46.215804
30
0
11
31.184976
21
-45.380382
31
0
39
0
210
0
220
0
230
1
0
LINE
5
159
100
AcDbEntity
8
2
62
256
6
ByLayer
370
13
48
1
60
0
100
AcDbLine
10
12.991441
20
-22.740652
30
0
11
13.266516
21
-25.931211
31
0
39
0
210
0
220
0
230
1
0
LINE
5
15A
100
AcDbEntity
8
2
62
256
6
ByLayer
370
13
48
1
60
0
100
AcDbLine
10
12.991441
20
-22.740652
30
0
11
12.431365
21
-25.893693
31
0
39
0
210
0
220
0
230
1
0
LINE
5
15B
100
AcDbEntity
8
2
62
256
6
ByLayer
370
13
48
1
60
0
100
AcDbLine
10
13.266516
20
-25.931211
30
0
11
12.431365
21
-25.893693
31
0
39
0
210
0
220
0
230
1
0
ENDBLK
5
15D
100
AcDbEntity
8
0
100
AcDbBlockEnd
0
BLOCK
5
160
100
AcDbEntity
8
0
100
AcDbBlockBegin
2
_CLOSED
70
0
10
0
20
0
30
0
3
_CLOSED
0
LINE
5
162
100
AcDbEntity
8
0
62
256
6
ByLayer
370
-2
48
1
60
0
100
AcDbLine
10
-1
20
0.166667
30
0
11
0
21
0
31
0
39
0
210
0
220
0
230
1
0
LINE
5
163
100
AcDbEntity
8
0
62
256
6
ByLayer
370
-2
48
1
60
0
100
AcDbLine
10
0
20
0
30
0
11
-1
21
-0.166667
31
0
39
0
210
0
220
0
230
1
0
LINE
5
164
100
AcDbEntity
8
0
62
256
6
ByLayer
370
-2
48
1
60
0
100
AcDbLine
10
-1
20
0.166667
30
0
11
-1
21
-0.166667
31
0
39
0
210
0
220
0
230
1
0
LINE
5
165
100
AcDbEntity
8
0
62
256
6
ByLayer
370
-2
48
1
60
0
100
AcDbLine
10
0
20
0
30
0
11
-1
21
0
31
0
39
0
210
0
220
0
230
1
0
ENDBLK
5
161
100
AcDbEntity
8
0
100
AcDbBlockEnd
0
BLOCK
5
171
100
AcDbEntity
8
0
100
AcDbBlockBegin
2
DimnDraft3D3
70
0
10
0
20
0
30
0
3
DimnDraft3D3
0
MTEXT
5
167
100
AcDbEntity
8
2
62
256
6
ByLayer
370
18
48
1
60
0
100
AcDbMText
10
12.777754
20
-51.55
30
0
210
0
220
0
230
1
1
\W0.7640;34.3
40
4.5
41
0
44
1.084337
50
0
71
7
72
5
7
iso_b_vert
0
LINE
5
168
100
AcDbEntity
8
2
62
256
6
ByLayer
370
13
48
1
60
0
100
AcDbLine
10
0
20
-17.925
30
0
11
0
21
-54.675
31
0
39
0
210
0
220
0
230
1
0
LINE
5
169
100
AcDbEntity
8
2
62
256
6
ByLayer
370
13
48
1
60
0
100
AcDbLine
10
34.34235
20
-26.425
30
0
11
34.34235
21
-54.675
31
0
39
0
210
0
220
0
230
1
0
LINE
5
16A
100
AcDbEntity
8
2
62
256
6
ByLayer
370
13
48
1
60
0
100
AcDbLine
10
0
20
-52.675
30
0
11
34.34235
21
-52.675
31
0
39
0
210
0
220
0
230
1
0
LINE
5
16B
100
AcDbEntity
8
2
62
256
6
ByLayer
370
13
48
1
60
0
100
AcDbLine
10
0
20
-52.675
30
0
11
3.174998
21
-52.257003
31
0
39
0
210
0
220
0
230
1
0
LINE
5
16C
100
AcDbEntity
8
2
62
256
6
ByLayer
370
13
48
1
60
0
100
AcDbLine
10
0
20
-52.675
30
0
11
3.175002
21
-53.092997
31
0
39
0
210
0
220
0
230
1
0
LINE
5
16D
100
AcDbEntity
8
2
62
256
6
ByLayer
370
13
48
1
60
0
100
AcDbLine
10
3.174998
20
-52.257003
30
0
11
3.175002
21
-53.092997
31
0
39
0
210
0
220
0
230
1
0
LINE
5
16E
100
AcDbEntity
8
2
62
256
6
ByLayer
370
13
48
1
60
0
100
AcDbLine
10
34.34235
20
-52.675
30
0
11
31.167352
21
-53.092997
31
0
39
0
210
0
220
0
230
1
0
LINE
5
16F
100
AcDbEntity
8
2
62
256
6
ByLayer
370
13
48
1
60
0
100
AcDbLine
10
34.34235
20
-52.675
30
0
11
31.167349
21
-52.257003
31
0
39
0
210
0
220
0
230
1
0
LINE
5
170
100
AcDbEntity
8
2
62
256
6
ByLayer
370
13
48
1
60
0
100
AcDbLine
10
31.167352
20
-53.092997
30
0
11
31.167349
21
-52.257003
31
0
39
0
210
0
220
0
230
1
0
ENDBLK
5
172
100
AcDbEntity
8
0
100
AcDbBlockEnd
0
BLOCK
5
17F
100
AcDbEntity
8
0
100
AcDbBlockBegin
2
DimnDraft3D4
70
0
10
0
20
0
30
0
3
DimnDraft3D4
0
MTEXT
5
175
100
AcDbEntity
8
2
62
256
6
ByLayer
370
18
48
1
60
0
100
AcDbMText
10
55.46735
20
-8.643421
30
0
210
0
220
0
230
1
1
\W0.7640;40.0
40
4.5
41
0
44
1.084337
50
90
71
7
72
5
7
iso_b_vert
0
LINE
5
176
100
AcDbEntity
8
2
62
256
6
ByLayer
370
13
48
1
60
0
100
AcDbLine
10
2
20
15.925
30
0
11
58.59235
21
15.925
31
0
39
0
210
0
220
0
230
1
0
LINE
5
177
100
AcDbEntity
8
2
62
256
6
ByLayer
370
13
48
1
60
0
100
AcDbLine
10
36.34235
20
-24.425
30
0
11
58.59235
21
-24.425
31
0
39
0
210
0
220
0
230
1
0
LINE
5
178
100
AcDbEntity
8
2
62
256
6
ByLayer
370
13
48
1
60
0
100
AcDbLine
10
56.59235
20
15.925
30
0
11
56.59235
21
-24.425
31
0
39
0
210
0
220
0
230
1
0
LINE
5
179
100
AcDbEntity
8
2
62
256
6
ByLayer
370
13
48
1
60
0
100
AcDbLine
10
56.59235
20
15.925
30
0
11
57.010347
21
12.750002
31
0
39
0
210
0
220
0
230
1
0
LINE
5
17A
100
AcDbEntity
8
2
62
256
6
ByLayer
370
13
48
1
60
0
100
AcDbLine
10
56.59235
20
15.925
30
0
11
56.174354
21
12.749998
31
0
39
0
210
0
220
0
230
1
0
LINE
5
17B
100
AcDbEntity
8
2
62
256
6
ByLayer
370
13
48
1
60
0
100
AcDbLine
10
57.010347
20
12.750002
30
0
11
56.174354
21
12.749998
31
0
39
0
210
0
220
0
230
1
0
LINE
5
17C
100
AcDbEntity
8
2
62
256
6
ByLayer
370
13
48
1
60
0
100
AcDbLine
10
56.59235
20
-24.425
30
0
11
56.174354
21
-21.250002
31
0
39
0
210
0
220
0
230
1
0
LINE
5
17D
100
AcDbEntity
8
2
62
256
6
ByLayer
370
13
48
1
60
0
100
AcDbLine
10
56.59235
20
-24.425
30
0
11
57.010347
21
-21.249998
31
0
39
0
210
0
220
0
230
1
0
LINE
5
17E
100
AcDbEntity
8
2
62
256
6
ByLayer
370
13
48
1
60
0
100
AcDbLine
10
56.174354
20
-21.250002
30
0
11
57.010347
21
-21.249998
31
0
39
0
210
0
220
0
230
1
0
ENDBLK
5
180
100
AcDbEntity
8
0
100
AcDbBlockEnd
0
BLOCK
5
18D
100
AcDbEntity
8
0
100
AcDbBlockBegin
2
DimnDraft3D5
70
0
10
0
20
0
30
0
3
DimnDraft3D5
0
MTEXT
5
183
100
AcDbEntity
8
SK2
62
256
6
ByLayer
370
18
48
1
60
0
100
AcDbMText
10
-145.88265
20
-4.156579
30
0
210
0
220
0
230
1
1
\W0.7346;32.0
40
4.5
41
0
44
1.084337
50
90
71
7
72
5
7
iso_b_vert
0
LINE
5
184
100
AcDbEntity
8
SK2
62
256
6
ByLayer
370
13
48
1
60
0
100
AcDbLine
10
-139.00765
20
15.925
30
0
11
-146.75765
21
15.925
31
0
39
0
210
0
220
0
230
1
0
LINE
5
185
100
AcDbEntity
8
SK2
62
256
6
ByLayer
370
13
48
1
60
0
100
AcDbLine
10
-139.00765
20
-15.925
30
0
11
-146.75765
21
-15.925
31
0
39
0
210
0
220
0
230
1
0
LINE
5
186
100
AcDbEntity
8
SK2
62
256
6
ByLayer
370
13
48
1
60
0
100
AcDbLine
10
-144.75765
20
15.925
30
0
11
-144.75765
21
-15.925
31
0
39
0
210
0
220
0
230
1
0
LINE
5
187
100
AcDbEntity
8
SK2
62
256
6
ByLayer
370
13
48
1
60
0
100
AcDbLine
10
-144.75765
20
15.925
30
0
11
-144.339653
21
12.750002
31
0
39
0
210
0
220
0
230
1
0
LINE
5
188
100
AcDbEntity
8
SK2
62
256
6
ByLayer
370
13
48
1
60
0
100
AcDbLine
10
-144.75765
20
15.925
30
0
11
-145.175646
21
12.749998
31
0
39
0
210
0
220
0
230
1
0
LINE
5
189
100
AcDbEntity
8
SK2
62
256
6
ByLayer
370
13
48
1
60
0
100
AcDbLine
10
-144.339653
20
12.750002
30
0
11
-145.175646
21
12.749998
31
0
39
0
210
0
220
0
230
1
0
LINE
5
18A
100
AcDbEntity
8
SK2
62
256
6
ByLayer
370
13
48
1
60
0
100
AcDbLine
10
-144.75765
20
-15.925
30
0
11
-145.175646
21
-12.750002
31
0
39
0
210
0
220
0
230
1
0
LINE
5
18B
100
AcDbEntity
8
SK2
62
256
6
ByLayer
370
13
48
1
60
0
100
AcDbLine
10
-144.75765
20
-15.925
30
0
11
-144.339653
21
-12.749998
31
0
39
0
210
0
220
0
230
1
0
LINE
5
18C
100
AcDbEntity
8
SK2
62
256
6
ByLayer
370
13
48
1
60
0
100
AcDbLine
10
-145.175646
20
-12.750002
30
0
11
-144.339653
21
-12.749998
31
0
39
0
210
0
220
0
230
1
0
ENDBLK
5
18E
100
AcDbEntity
8
0
100
AcDbBlockEnd
0
ENDSEC
0
SECTION
2
ENTITIES
0
ELLIPSE
5
CF
100
AcDbEntity
8
1
62
256
6
ByLayer
370
18
48
1
60
0
100
AcDbEllipse
10
27.507099
20
-17.589749
30
0
11
1.82433549546546
21
1.82433549545712
31
0
210
0
220
0
230
1
40
0.989133
41
-2.37338078649861
42
0
0
ELLIPSE
5
D0
100
AcDbEntity
8
1
62
256
6
ByLayer
370
18
48
1
60
0
100
AcDbEllipse
10
27.507099
20
-17.589749
30
0
11
1.82433549546546
21
1.82433549545712
31
0
210
0
220
0
230
1
40
0.989133
41
0
42
0.296776537311682
0
ELLIPSE
5
D1
100
AcDbEntity
8
1
62
256
6
ByLayer
370
18
48
1
60
0
100
AcDbEllipse
10
29.282702
20
-8.778574
30
0
11
0.561230652229045
21
0.56123065222648
31
0
210
0
220
0
230
1
40
0.989133
41
2.72776198480207E-05
42
1.39626340159547
0
ELLIPSE
5
D2
100
AcDbEntity
8
1
62
256
6
ByLayer
370
18
48
1
60
0
100
AcDbEllipse
10
27.012242
20
-17.094891
30
0
11
-1.82433549546547
21
-1.82433549545711
31
0
210
0
220
0
230
1
40
0.989133
41
3.00394611496499
42
-0.769008297293824
0
ELLIPSE
5
D3
100
AcDbEntity
8
1
62
256
6
ByLayer
370
18
48
1
60
0
100
AcDbEllipse
10
27.012242
20
-17.094891
30
0
11
-1.82433549546547
21
-1.82433549545711
31
0
210
0
220
0
230
1
40
0.989133
41
2.57217333095616
42
3.00394611496499
0
ELLIPSE
5
D4
100
AcDbEntity
8
1
62
256
6
ByLayer
370
18
48
1
60
0
100
AcDbEllipse
10
6.985234
20
-18.321844
30
0
11
2.00411319484463
21
2.23238220344314
31
0
210
0
220
0
230
1
40
0.98676
41
0.182399339923
42
0.470414656504743
0
ELLIPSE
5
D5
100
AcDbEntity
8
1
62
256
6
ByLayer
370
18
48
1
60
0
100
AcDbEllipse
10
14.674351
20
-14.560074
30
0
11
-2.77235658620172
21
-3.08812871476303
31
0
210
0
220
0
230
1
40
0.98676
41
0.470414656504745
42
-2.99500746775081
0
ELLIPSE
5
D6
100
AcDbEntity
8
1
62
256
6
ByLayer
370
18
48
1
60
0
100
AcDbEllipse
10
12.63528
20
-14.026911
30
0
11
-1.73689810219867
21
-1.93473124298407
31
0
210
0
220
0
230
1
40
0.98676
41
-1.19369680868727
42
-1.01590231945189
0
ELLIPSE
5
D7
100
AcDbEntity
8
1
62
256
6
ByLayer
370
18
48
1
60
0
100
AcDbEllipse
10
28.499862
20
-9.508212
30
0
11
-1.12253201513623
21
-1.12253201513109
31
0
210
0
220
0
230
1
40
0.989133
41
-2.71109624283412
42
-2.49947526775306
0
ELLIPSE
5
D8
100
AcDbEntity
8
1
62
256
6
ByLayer
370
18
48
1
60
0
100
AcDbEllipse
10
13.751865
20
-13.270855
30
0
11
-0.268700576851504
21
-0.268700576850272
31
0
210
0
220
0
230
1
40
0.989133
41
2.7713192601939
42
2.82332222516262
0
ELLIPSE
5
D9
100
AcDbEntity
8
1
62
256
6
ByLayer
370
18
48
1
60
0
100
AcDbEllipse
10
12.864446
20
-14.158274
30
0
11
-0.268700576851504
21
-0.268700576850272
31
0
210
0
220
0
230
1
40
0.989133
41
0.318270428427183
42
0.370273393395906
0
ELLIPSE
5
DA
100
AcDbEntity
8
1
62
256
6
ByLayer
370
18
48
1
60
0
100
AcDbEllipse
10
14.486255
20
-12.943957
30
0
11
0.30052038200497
21
0.300520382003596
31
0
210
0
220
0
230
1
40
0.989133
41
2.77131926019397
42
-3.14157958277293
0
ELLIPSE
5
DB
100
AcDbEntity
8
1
62
256
6
ByLayer
370
18
48
1
60
0
100
AcDbEllipse
10
12.537548
20
-14.892664
30
0
11
0.30052038200497
21
0.300520382003596
31
0
210
0
220
0
230
1
40
0.989133
41
-1.3070816838747E-05
42
0.370273393395844
0
ELLIPSE
5
DC
100
AcDbEntity
8
1
62
256
6
ByLayer
370
18
48
1
60
0
100
AcDbEllipse
10
14.95575
20
-13.587321
30
0
11
-0.268700576851504
21
-0.268700576850272
31
0
210
0
220
0
230
1
40
0.989133
41
1.72412170899731
42
2.82332533916034
0
ELLIPSE
5
DD
100
AcDbEntity
8
1
62
256
6
ByLayer
370
18
48
1
60
0
100
AcDbEllipse
10
13.180912
20
-15.362159
30
0
11
-0.268700576851504
21
-0.268700576850272
31
0
210
0
220
0
230
1
40
0.989133
41
0.318267314429476
42
1.41747094459251
0
ELLIPSE
5
DE
100
AcDbEntity
8
1
62
256
6
ByLayer
370
18
48
1
60
0
100
AcDbEllipse
10
15.599115
20
-14.056817
30
0
11
0.30052038200497
21
0.300520382003596
31
0
210
0
220
0
230
1
40
0.989133
41
1.72412170899725
42
3.14158020237114
0
ELLIPSE
5
DF
100
AcDbEntity
8
1
62
256
6
ByLayer
370
18
48
1
60
0
100
AcDbEllipse
10
13.650408
20
-16.005524
30
0
11
0.30052038200497
21
0.300520382003596
31
0
210
0
220
0
230
1
40
0.989133
41
1.24512185612348E-05
42
1.41747094459246
0
ELLIPSE
5
E0
100
AcDbEntity
8
1
62
256
6
ByLayer
370
18
48
1
60
0
100
AcDbEllipse
10
13.985162
20
-14.391571
30
0
11
2.82842712475265
21
2.82842712473973
31
0
210
0
220
0
230
1
40
0.989133
41
0.790861385157305
42
3.14158710851734
0
ELLIPSE
5
E1
100
AcDbEntity
8
1
62
256
6
ByLayer
370
18
48
1
60
0
100
AcDbEllipse
10
13.985162
20
-14.391571
30
0
11
2.82842712475265
21
2.82842712473973
31
0
210
0
220
0
230
1
40
0.989133
41
9.25359672416205E-05
42
0.790861385157304
0
ELLIPSE
5
E2
100
AcDbEntity
8
1
62
256
6
ByLayer
370
18
48
1
60
0
100
AcDbEllipse
10
15.272217
20
-14.791206
30
0
11
-0.268700576851504
21
-0.268700576850272
31
0
210
0
220
0
230
1
40
0.989133
41
0.676924157800748
42
2.82328407900603
0
ELLIPSE
5
E3
100
AcDbEntity
8
1
62
256
6
ByLayer
370
18
48
1
60
0
100
AcDbEllipse
10
14.384798
20
-15.678625
30
0
11
-0.268700576851504
21
-0.268700576850272
31
0
210
0
220
0
230
1
40
0.989133
41
0.318308574583816
42
2.46466849578911
0
ELLIPSE
5
E4
100
AcDbEntity
8
1
62
256
6
ByLayer
370
18
48
1
60
0
100
AcDbEllipse
10
14.068331
20
-14.47474
30
0
11
0.813172798366388
21
0.813172798362671
31
0
210
0
220
0
230
1
40
0.989133
41
0.790861625576225
42
1.27008171842898
0
ELLIPSE
5
E5
100
AcDbEntity
8
1
62
256
6
ByLayer
370
18
48
1
60
0
100
AcDbEllipse
10
14.068331
20
-14.47474
30
0
11
0.813172798366388
21
0.813172798362671
31
0
210
0
220
0
230
1
40
0.989133
41
1.8716961130252
42
2.54743295480476
0
ELLIPSE
5
E6
100
AcDbEntity
8
1
62
256
6
ByLayer
370
18
48
1
60
0
100
AcDbEllipse
10
14.068331
20
-14.47474
30
0
11
0.813172798366388
21
0.813172798362671
31
0
210
0
220
0
230
1
40
0.989133
41
2.95574223666726
42
0
0
ELLIPSE
5
E7
100
AcDbEntity
8
1
62
256
6
ByLayer
370
18
48
1
60
0
100
AcDbEllipse
10
14.068331
20
-14.47474
30
0
11
0.813172798366388
21
0.813172798362671
31
0
210
0
220
0
230
1
40
0.989133
41
0
42
0.185838920156516
0
ELLIPSE
5
E8
100
AcDbEntity
8
1
62
256
6
ByLayer
370
18
48
1
60
0
100
AcDbEllipse
10
14.068331
20
-14.47474
30
0
11
0.813172798366388
21
0.813172798362671
31
0
210
0
220
0
230
1
40
0.989133
41
0.594148092675997
42
0.790861625576225
0
ELLIPSE
5
E9
100
AcDbEntity
8
1
62
256
6
ByLayer
370
18
48
1
60
0
100
AcDbEllipse
10
14.016351
20
-14.422759
30
0
11
0.813172798366388
21
0.813172798362671
31
0
210
0
220
0
230
1
40
0.989133
41
-3.10929842613464
42
-0.0323048493154941
0
ELLIPSE
5
EA
100
AcDbEntity
8
1
62
256
6
ByLayer
370
18
48
1
60
0
100
AcDbEllipse
10
15.765454
20
-14.223155
30
0
11
0.30052038200497
21
0.300520382003596
31
0
210
0
220
0
230
1
40
0.989133
41
1.72412170899728
42
-2.77131926019378
0
ELLIPSE
5
EB
100
AcDbEntity
8
1
62
256
6
ByLayer
370
18
48
1
60
0
100
AcDbEllipse
10
14.158358
20
-14.564767
30
0
11
-2.82842712475267
21
-2.82842712473971
31
0
210
0
220
0
230
1
40
0.989133
41
0
42
6.28318530717959
0
ELLIPSE
5
EC
100
AcDbEntity
8
1
62
256
6
ByLayer
370
18
48
1
60
0
100
AcDbEllipse
10
12.703887
20
-15.059002
30
0
11
0.30052038200497
21
0.300520382003596
31
0
210
0
220
0
230
1
40
0.989133
41
-1.41747094459245
42
0.370273393395844
0
ELLIPSE
5
ED
100
AcDbEntity
8
1
62
256
6
ByLayer
370
18
48
1
60
0
100
AcDbEllipse
10
14.23467
20
-14.641079
30
0
11
-1.62634559673279
21
-1.62634559672533
31
0
210
0
220
0
230
1
40
0.989133
41
0
42
6.28318530717959
0
ELLIPSE
5
EE
100
AcDbEntity
8
1
62
256
6
ByLayer
370
18
48
1
60
0
100
AcDbEllipse
10
15.122089
20
-13.75366
30
0
11
-0.268700576851504
21
-0.268700576850272
31
0
210
0
220
0
230
1
40
0.989133
41
1.7241217089973
42
-1.7241217089973
0
ELLIPSE
5
EF
100
AcDbEntity
8
1
62
256
6
ByLayer
370
18
48
1
60
0
100
AcDbEllipse
10
13.12181
20
-13.528219
30
0
11
0.30052038200497
21
0.300520382003596
31
0
210
0
220
0
230
1
40
0.989133
41
-2.46466849578911
42
-0.676924157800679
0
ELLIPSE
5
F0
100
AcDbEntity
8
1
62
256
6
ByLayer
370
18
48
1
60
0
100
AcDbEllipse
10
15.34753
20
-15.753939
30
0
11
0.30052038200497
21
0.300520382003596
31
0
210
0
220
0
230
1
40
0.989133
41
0.676924157800732
42
2.46466849578906
0
ELLIPSE
5
F1
100
AcDbEntity
8
1
62
256
6
ByLayer
370
18
48
1
60
0
100
AcDbEllipse
10
13.918204
20
-13.437194
30
0
11
-0.268700576851504
21
-0.268700576850272
31
0
210
0
220
0
230
1
40
0.989133
41
2.77131926019387
42
-0.676924157800768
0
ELLIPSE
5
F2
100
AcDbEntity
8
1
62
256
6
ByLayer
370
18
48
1
60
0
100
AcDbEllipse
10
15.181191
20
-15.5876
30
0
11
0.30052038200497
21
0.300520382003596
31
0
210
0
220
0
230
1
40
0.989133
41
0.676924157800684
42
2.46466849578911
0
ELLIPSE
5
F3
100
AcDbEntity
8
1
62
256
6
ByLayer
370
18
48
1
60
0
100
AcDbEllipse
10
14.551136
20
-15.844964
30
0
11
-0.268700576851504
21
-0.268700576850272
31
0
210
0
220
0
230
1
40
0.989133
41
-0.370273393395921
42
2.46466849578902
0
ELLIPSE
5
F4
100
AcDbEntity
8
1
62
256
6
ByLayer
370
18
48
1
60
0
100
AcDbEllipse
10
13.030785
20
-14.324613
30
0
11
-0.268700576851504
21
-0.268700576850272
31
0
210
0
220
0
230
1
40
0.989133
41
-2.46466849578899
42
0.370273393395885
0
ELLIPSE
5
F5
100
AcDbEntity
8
1
62
256
6
ByLayer
370
18
48
1
60
0
100
AcDbEllipse
10
13.347251
20
-15.528498
30
0
11
-0.268700576851504
21
-0.268700576850272
31
0
210
0
220
0
230
1
40
0.989133
41
-1.41747094459253
42
1.41747094459249
0
ELLIPSE
5
F6
100
AcDbEntity
8
1
62
256
6
ByLayer
370
18
48
1
60
0
100
AcDbEllipse
10
15.438555
20
-14.957545
30
0
11
-0.268700576851504
21
-0.268700576850272
31
0
210
0
220
0
230
1
40
0.989133
41
0.676924157800748
42
-2.77131926019401
0
ELLIPSE
5
F7
100
AcDbEntity
8
1
62
256
6
ByLayer
370
18
48
1
60
0
100
AcDbEllipse
10
13.816747
20
-16.171862
30
0
11
0.30052038200497
21
0.300520382003596
31
0
210
0
220
0
230
1
40
0.989133
41
-0.370273393395889
42
1.41747094459252
0
ELLIPSE
5
F8
100
AcDbEntity
8
1
62
256
6
ByLayer
370
18
48
1
60
0
100
AcDbEllipse
10
14.652593
20
-13.110295
30
0
11
0.30052038200497
21
0.300520382003596
31
0
210
0
220
0
230
1
40
0.989133
41
2.77131926019389
42
-1.72412170899734
0
ELLIPSE
5
F9
100
AcDbEntity
8
1
62
256
6
ByLayer
370
18
48
1
60
0
100
AcDbEllipse
10
29.77756
20
-9.273431
30
0
11
-0.561230652229049
21
-0.561230652226477
31
0
210
0
220
0
230
1
40
0.989133
41
2.79252680319095
42
-1.74532925199435
0
ELLIPSE
5
FA
100
AcDbEntity
8
1
62
256
6
ByLayer
370
18
48
1
60
0
100
AcDbEllipse
10
27.507099
20
-17.589749
30
0
11
-4.49012806054486
21
-4.49012806052429
31
0
210
0
220
0
230
1
40
0.989133
41
0.349065850398874
42
0.698131700797732
0
ELLIPSE
5
FB
100
AcDbEntity
8
1
62
256
6
ByLayer
370
18
48
1
60
0
100
AcDbEllipse
10
33.552956
20
-23.635605
30
0
11
-0.561230652229049
21
-0.561230652226477
31
0
210
0
220
0
230
1
40
0.989133
41
0.698131700797763
42
2.44346095279203
0
ELLIPSE
5
FC
100
AcDbEntity
8
1
62
256
6
ByLayer
370
18
48
1
60
0
100
AcDbEllipse
10
27.507099
20
-17.589749
30
0
11
-4.49012806054486
21
-4.49012806052429
31
0
210
0
220
0
230
1
40
0.989133
41
2.44346095279206
42
2.79252680319096
0
ELLIPSE
5
FD
100
AcDbEntity
8
1
62
256
6
ByLayer
370
18
48
1
60
0
100
AcDbEllipse
10
10.404721
20
-15.897583
30
0
11
5.30581632071872
21
-1.44855554632706
31
0
210
0
220
0
230
1
40
0.073512
41
-2.4312655226928
42
-1.98949778340678
0
ELLIPSE
5
FE
100
AcDbEntity
8
1
62
256
6
ByLayer
370
18
48
1
60
0
100
AcDbEllipse
10
9.015247
20
-8.183464
30
0
11
-2.74962123691487
21
-1.22304369784448
31
0
210
0
220
0
230
1
40
0.990371
41
-1.73199564470325
42
-0.680306581638642
0
ELLIPSE
5
FF
100
AcDbEntity
8
1
62
256
6
ByLayer
370
18
48
1
60
0
100
AcDbEllipse
10
27.921069
20
-17.925937
30
0
11
-0.316650464250844
21
-2.33348351425964
31
0
210
0
220
0
230
1
40
0.808181
41
1.54298249806811
42
2.39819383154553
0
ELLIPSE
5
100
100
AcDbEntity
8
1
62
256
6
ByLayer
370
18
48
1
60
0
100
AcDbEllipse
10
5.364646
20
-4.582574
30
0
11
6.75285713546019
21
-1.8436161498708
31
0
210
0
220
0
230
1
40
0.073512
41
0.791246453599076
42
0.806027490339063
0
ELLIPSE
5
101
100
AcDbEntity
8
1
62
256
6
ByLayer
370
18
48
1
60
0
100
AcDbEllipse
10
9.828011
20
-18.009972
30
0
11
-5.35129697049395
21
1.28168497519534
31
0
210
0
220
0
230
1
40
0.164046
41
-0.595122831278302
42
-0.54213051957478
0
ELLIPSE
5
102
100
AcDbEntity
8
1
62
256
6
ByLayer
370
18
48
1
60
0
100
AcDbEllipse
10
6.808893
20
-16.264967
30
0
11
-2.74962123692348
21
-1.22304369782129
31
0
210
0
220
0
230
1
40
0.990371
41
-0.68030658163081
42
0.371382481433928
0
ELLIPSE
5
103
100
AcDbEntity
8
1
62
256
6
ByLayer
370
18
48
1
60
0
100
AcDbEllipse
10
11.595932
20
-9.753712
30
0
11
-2.23637238435032
21
3.84361102738729
31
0
210
0
220
0
230
1
40
0.542818
41
-0.496154533418219
42
-0.136538800051237
0
ELLIPSE
5
104
100
AcDbEntity
8
1
62
256
6
ByLayer
370
18
48
1
60
0
100
AcDbEllipse
10
9.349152
20
-8.721234
30
0
11
1.55136786733261
21
1.26224313830889
31
0
210
0
220
0
230
1
40
0.761518
41
0.701390428003604
42
2.11406592226321
0
ELLIPSE
5
105
100
AcDbEntity
8
1
62
256
6
ByLayer
370
18
48
1
60
0
100
AcDbEllipse
10
9.389579
20
-17.835215
30
0
11
-3.84252419148704
21
-0.804537860586868
31
0
210
0
220
0
230
1
40
0.467421
41
0.392364538034805
42
0.75198027140842
0
ELLIPSE
5
106
100
AcDbEntity
8
1
62
256
6
ByLayer
370
18
48
1
60
0
100
AcDbEllipse
10
12.912171
20
-7.055743
30
0
11
-3.31988062665344
21
1.12417423859777
31
0
210
0
220
0
230
1
40
0.445779
41
-0.106489571724499
42
0.616728534673403
0
ELLIPSE
5
107
100
AcDbEntity
8
1
62
256
6
ByLayer
370
18
48
1
60
0
100
AcDbEllipse
10
11.770559
20
-10.894748
30
0
11
5.30581632071872
21
-1.44855554632706
31
0
210
0
220
0
230
1
40
0.073512
41
-2.43126552269282
42
-1.98949778340679
0
ELLIPSE
5
108
100
AcDbEntity
8
1
62
256
6
ByLayer
370
18
48
1
60
0
100
AcDbEllipse
10
7.13937
20
-16.815297
30
0
11
-0.385804401243363
21
1.96243597704008
31
0
210
0
220
0
230
1
40
0.808605
41
1.23158526628226
42
2.64426076054186
0
ELLIPSE
5
109
100
AcDbEntity
8
1
62
256
6
ByLayer
370
18
48
1
60
0
100
AcDbEllipse
10
9.410028
20
-19.883508
30
0
11
-3.42469952284634
21
0.743338903015516
31
0
210
0
220
0
230
1
40
0.299282
41
-0.605773712307366
42
0.117444394090262
0
ELLIPSE
5
10A
100
AcDbEntity
8
1
62
256
6
ByLayer
370
18
48
1
60
0
100
AcDbEllipse
10
12.34727
20
-8.782359
30
0
11
-5.25645203237586
21
1.62821730579895
31
0
210
0
220
0
230
1
40
0.310906
41
0.54750416567221
42
0.600496460178412
0
ELLIPSE
5
10B
100
AcDbEntity
8
1
62
256
6
ByLayer
370
18
48
1
60
0
100
AcDbEllipse
10
27.921069
20
-17.925937
30
0
11
-1.71913634000659
21
-1.38067622288257
31
0
210
0
220
0
230
1
40
0.788164
41
1.32502979160706
42
2.18024112508605
0
POINT
5
6C
100
AcDbEntity
8
2
62
256
6
ByLayer
370
18
48
1
60
0
100
AcDbPoint
10
34.34235
20
56.275
30
0
39
0
210
0
220
0
230
1
50
360
0
POINT
5
6E
100
AcDbEntity
8
80
62
256
6
ByLayer
370
18
48
1
60
0
100
AcDbPoint
10
0
20
0
30
0
39
0
210
0
220
0
230
1
50
360
0
POINT
5
70
100
AcDbEntity
8
81
62
256
6
ByLayer
370
18
48
1
60
0
100
AcDbPoint
10
34.34235
20
-24.425
30
0
39
0
210
0
220
0
230
1
50
360
0
SPLINE
5
10C
100
AcDbEntity
8
1
62
256
6
ByLayer
370
18
48
1
60
0
100
AcDbSpline
70
4
71
2
72
6
73
3
40
0
40
0
40
0
40
1
40
1
40
1
41
1
10
10.4270571565067
20
-12.6467303269814
30
0
41
1
10
10.4986726976742
20
-12.5127938338524
30
0
41
1
10
10.5808100632557
20
-12.3894736266805
30
0
0
SPLINE
5
10D
100
AcDbEntity
8
1
62
256
6
ByLayer
370
18
48
1
60
0
100
AcDbSpline
70
4
71
3
72
10
73
6
40
0
40
0
40
0
40
0
40
0.13019423255459
40
0.13019423255459
40
1
40
1
40
1
40
1
41
1
10
5.34679620437657
20
-18.8870312744255
30
0
41
1
10
5.31765925773527
20
-18.8693749798443
30
0
41
1
10
5.28855519292006
20
-18.8512902629754
30
0
41
1
10
5.06384612467173
20
-18.707981861593
30
0
41
1
10
4.86883152074699
20
-18.5616435637993
30
0
41
1
10
4.68629676859155
20
-18.3928718551732
30
0
0
SPLINE
5
10E
100
AcDbEntity
8
1
62
256
6
ByLayer
370
18
48
1
60
0
100
AcDbSpline
70
4
71
3
72
8
73
4
40
0
40
0
40
0
40
0
40
1
40
1
40
1
40
1
41
1
10
24.1926558135578
20
-11.1812600291078
30
0
41
1
10
24.8359345404534
20
-11.6781155263718
30
0
41
1
10
25.5089125919278
20
-12.0706916752641
30
0
41
1
10
26.1212368561501
20
-12.2980195456804
30
0
0
SPLINE
5
10F
100
AcDbEntity
8
1
62
256
6
ByLayer
370
18
48
1
60
0
100
AcDbSpline
70
4
71
1
72
4
73
2
40
0
40
0
40
1
40
1
41
1
10
17.2363252426766
20
-8.91942821103757
30
0
41
1
10
17.2221882922012
20
-7.533175187252
30
0
0
SPLINE
5
110
100
AcDbEntity
8
1
62
256
6
ByLayer
370
18
48
1
60
0
100
AcDbSpline
70
4
71
3
72
12
73
8
40
0
40
0
40
0
40
0
40
0.471343086678516
40
0.471343086678516
40
0.892619726108223
40
0.892619726108223
40
1
40
1
40
1
40
1
41
1
10
10.2379877575585
20
-10.8060467144652
30
0
41
1
10
10.4136599081944
20
-10.8218191610848
30
0
41
1
10
10.5981415142298
20
-10.8226015063296
30
0
41
1
10
10.943427520676
20
-10.7856990214554
30
0
41
1
10
11.108247186952
20
-10.751335328749
30
0
41
1
10
11.3006027061058
20
-10.6877756596553
30
0
41
1
10
11.3394782624557
20
-10.6736382886145
30
0
41
1
10
11.3774828457657
20
-10.6585130096246
30
0
0
SPLINE
5
111
100
AcDbEntity
8
1
62
256
6
ByLayer
370
18
48
1
60
0
100
AcDbSpline
70
4
71
3
72
8
73
4
40
0
40
0
40
0
40
0
40
1
40
1
40
1
40
1
41
1
10
14.043655326356
20
-20.6136433149276
30
0
41
1
10
14.2489224027119
20
-20.3515731380045
30
0
41
1
10
14.529186535183
20
-19.7514468873833
30
0
41
1
10
14.8290878236036
20
-18.9318060582891
30
0
0
SPLINE
5
112
100
AcDbEntity
8
1
62
256
6
ByLayer
370
18
48
1
60
0
100
AcDbSpline
70
4
71
3
72
8
73
4
40
0
40
0
40
0
40
0
40
1
40
1
40
1
40
1
41
1
10
28.3532565714413
20
-19.6832330815173
30
0
41
1
10
28.2742975321314
20
-19.7192171868344
30
0
41
1
10
28.1954001175362
20
-19.7511992396096
30
0
41
1
10
28.1179964583619
20
-19.7787584306172
30
0
0
SPLINE
5
113
100
AcDbEntity
8
1
62
256
6
ByLayer
370
18
48
1
60
0
100
AcDbSpline
70
4
71
2
72
6
73
3
40
0
40
0
40
0
40
1
40
1
40
1
41
1
10
25.8392882789552
20
-20.9331641149834
30
0
41
1
10
24.9023168732562
20
-21.2860035166146
30
0
41
1
10
23.920280138727
20
-21.5497263445638
30
0
0
SPLINE
5
114
100
AcDbEntity
8
1
62
256
6
ByLayer
370
18
48
1
60
0
100
AcDbSpline
70
4
71
3
72
8
73
4
40
0
40
0
40
0
40
0
40
1
40
1
40
1
40
1
41
1
10
9.87130302696198
20
-16.8222374497539
30
0
41
1
10
9.83088708976248
20
-16.7645790384329
30
0
41
1
10
9.78749288523693
20
-16.7079559754623
30
0
41
1
10
9.74104799481279
20
-16.6524997519
30
0
0
SPLINE
5
115
100
AcDbEntity
8
1
62
256
6
ByLayer
370
18
48
1
60
0
100
AcDbSpline
70
4
71
3
72
8
73
4
40
0
40
0
40
0
40
0
40
1
40
1
40
1
40
1
41
1
10
8.83481321184706
20
-15.945640031636
30
0
41
1
10
8.60873067188879
20
-15.8268971144245
30
0
41
1
10
8.3796017536099
20
-15.7357451419255
30
0
41
1
10
8.15022391494938
20
-15.6649862262429
30
0
0
SPLINE
5
116
100
AcDbEntity
8
1
62
256
6
ByLayer
370
18
48
1
60
0
100
AcDbSpline
70
4
71
3
72
8
73
4
40
0
40
0
40
0
40
0
40
1
40
1
40
1
40
1
41
1
10
10.2379877575586
20
-10.8060467144652
30
0
41
1
10
9.98567166327473
20
-10.7833929124029
30
0
41
1
10
9.74543965213155
20
-10.7329097092026
30
0
41
1
10
9.51606181347108
20
-10.66215079352
30
0
0
SPLINE
5
117
100
AcDbEntity
8
1
62
256
6
ByLayer
370
18
48
1
60
0
100
AcDbSpline
70
4
71
3
72
8
73
4
40
0
40
0
40
0
40
0
40
1
40
1
40
1
40
1
41
1
10
11.3774828457657
20
-10.6585130096246
30
0
41
1
10
11.4461294469523
20
-10.6311926470724
30
0
41
1
10
11.51338299495
20
-10.6009562018778
30
0
41
1
10
11.578784079229
20
-10.5680203730201
30
0
0
SPLINE
5
118
100
AcDbEntity
8
1
62
256
6
ByLayer
370
18
48
1
60
0
100
AcDbSpline
70
4
71
2
72
6
73
3
40
0
40
0
40
0
40
1
40
1
40
1
41
1
10
26.414194852904
20
-12.4149349043456
30
0
41
1
10
27.1306533163673
20
-13.1253096802311
30
0
41
1
10
27.7620746733462
20
-13.890245724379
30
0
0
SPLINE
5
119
100
AcDbEntity
8
1
62
256
6
ByLayer
370
18
48
1
60
0
100
AcDbSpline
70
4
71
3
72
10
73
6
40
0
40
0
40
0
40
0
40
0.5
40
0.5
40
1
40
1
40
1
40
1
41
1
10
5.35251285068011
20
-16.4591227374597
30
0
41
1
10
5.19060124574941
20
-17.1684273420293
30
0
41
1
10
5.22431729741641
20
-17.82990987297
30
0
41
1
10
5.475663131087
20
-18.7331805537198
30
0
41
1
10
5.64674970320141
20
-19.0152754740506
30
0
41
1
10
5.98285231302333
20
-19.2653881312296
30
0
0
SPLINE
5
11A
100
AcDbEntity
8
1
62
256
6
ByLayer
370
18
48
1
60
0
100
AcDbSpline
70
4
71
3
72
10
73
6
40
0
40
0
40
0
40
0
40
0.5
40
0.5
40
1
40
1
40
1
40
1
41
1
10
13.4409850859404
20
-21.3830891478195
30
0
41
1
10
14.7353613373995
20
-21.7103202392856
30
0
41
1
10
16.0473478433762
20
-21.8271484442778
30
0
41
1
10
18.683845597537
20
-21.9111623882703
30
0
41
1
10
20.0194621128218
20
-21.8293833010955
30
0
41
1
10
21.3365111142939
20
-21.6428396337782
30
0
0
SPLINE
5
11B
100
AcDbEntity
8
1
62
256
6
ByLayer
370
18
48
1
60
0
100
AcDbSpline
70
4
71
3
72
8
73
4
40
0
40
0
40
0
40
0
40
1
40
1
40
1
40
1
41
1
10
5.36952805151452
20
-16.3911834655695
30
0
41
1
10
5.36335003500517
20
-16.4138125051724
30
0
41
1
10
5.35768623109703
20
-16.436459120775
30
0
41
1
10
5.35251285068006
20
-16.4591227374597
30
0
0
SPLINE
5
11C
100
AcDbEntity
8
1
62
256
6
ByLayer
370
18
48
1
60
0
100
AcDbSpline
70
4
71
3
72
8
73
4
40
0
40
0
40
0
40
0
40
1
40
1
40
1
40
1
41
1
10
7.57588157989562
20
-8.30968007424781
30
0
41
1
10
7.58205959640497
20
-8.28705103464486
30
0
41
1
10
7.58865679487417
20
-8.26478765236223
30
0
41
1
10
7.59565401206243
20
-8.24287240869859
30
0
0
SPLINE
5
11D
100
AcDbEntity
8
1
62
256
6
ByLayer
370
18
48
1
60
0
100
AcDbSpline
70
4
71
3
72
8
73
4
40
0
40
0
40
0
40
0
40
1
40
1
40
1
40
1
41
1
10
14.1911384431318
20
-10.2911198402823
30
0
41
1
10
13.2987874972751
20
-10.0565468506323
30
0
41
1
10
12.3721958285802
20
-10.168460122935
30
0
41
1
10
11.578784079229
20
-10.5680203730201
30
0
0
SPLINE
5
11E
100
AcDbEntity
8
1
62
256
6
ByLayer
370
18
48
1
60
0
100
AcDbSpline
70
4
71
3
72
8
73
4
40
0
40
0
40
0
40
0
40
1
40
1
40
1
40
1
41
1
10
9.87130302696198
20
-16.8222374497539
30
0
41
1
10
10.3656465902117
20
-17.5274806404051
30
0
41
1
10
11.1159682574438
20
-18.0411237513085
30
0
41
1
10
12.0110510281837
20
-18.2764148578978
30
0
0
SPLINE
5
11F
100
AcDbEntity
8
1
62
256
6
ByLayer
370
18
48
1
60
0
100
AcDbSpline
70
4
71
3
72
8
73
4
40
0
40
0
40
0
40
0
40
1
40
1
40
1
40
1
41
1
10
25.8393680904511
20
-20.9331148853961
30
0
41
1
10
26.2092249192642
20
-20.7636497180676
30
0
41
1
10
26.5806613513131
20
-20.5908150799779
30
0
41
1
10
26.9517385236422
20
-20.4154772492235
30
0
0
SPLINE
5
120
100
AcDbEntity
8
1
62
256
6
ByLayer
370
18
48
1
60
0
100
AcDbSpline
70
4
71
3
72
10
73
6
40
0
40
0
40
0
40
0
40
0.5
40
0.5
40
1
40
1
40
1
40
1
41
1
10
26.9517385236184
20
-20.4154772492295
30
0
41
1
10
26.2168069787146
20
-20.5999085746556
30
0
41
1
10
25.6482753264486
20
-20.4879179347067
30
0
41
1
10
24.8979481810148
20
-19.9979969238806
30
0
41
1
10
24.6741965400822
20
-19.6305956355994
30
0
41
1
10
24.5098332212273
20
-19.231517553249
30
0
0
SPLINE
5
121
100
AcDbEntity
8
1
62
256
6
ByLayer
370
18
48
1
60
0
100
AcDbSpline
70
4
71
3
72
8
73
4
40
0
40
0
40
0
40
0
40
1
40
1
40
1
40
1
41
1
10
29.1474982507091
20
-16.0078658156295
30
0
41
1
10
29.201818492898
20
-16.0648573143693
30
0
41
1
10
29.2549850126966
20
-16.1271232190874
30
0
41
1
10
29.3059423511557
20
-16.193704653462
30
0
0
SPLINE
5
122
100
AcDbEntity
8
1
62
256
6
ByLayer
370
18
48
1
60
0
100
AcDbSpline
70
4
71
3
72
11
73
7
40
0
40
0
40
0
40
0
40
0.423407924946026
40
0.740963868655545
40
0.899741840510305
40
1
40
1
40
1
40
1
41
1.02805999725224
10
14.043655326356
20
-20.6136433149276
30
0
41
1.02767136955277
10
14.8989687185295
20
-20.7340400986172
30
0
41
1.02349884684923
10
18.1326771350026
20
-20.3639447532122
30
0
41
1.01876555595691
10
22.2597435547024
20
-19.4749511686979
30
0
41
1.01635405201144
10
23.820475235428
20
-19.1300737084975
30
0
41
1.01722454828215
10
24.3090168260108
20
-19.196295947747
30
0
41
1.0177432798788
10
24.5098332211454
20
-19.2315175532346
30
0
0
SPLINE
5
123
100
AcDbEntity
8
1
62
256
6
ByLayer
370
18
48
1
60
0
100
AcDbSpline
70
4
71
3
72
11
73
7
40
0
40
0
40
0
40
0
40
0.423407924939445
40
0.740963868644029
40
0.899741840496321
40
1
40
1
40
1
40
1
41
1.02805999725224
10
17.2363252426766
20
-8.91942821103756
30
0
41
1.02767136955277
10
18.0348832114019
20
-9.2477106039118
30
0
41
1.02349884684923
10
20.6189884014508
20
-11.2570030629402
30
0
41
1.01876555595691
10
23.7352902763132
20
-14.0702706942475
30
0
41
1.01635405201137
10
24.9187234806024
20
-15.1073743525689
30
0
41
1.01722454828226
10
25.3831853056262
20
-15.2617967395629
30
0
41
1.01774327987904
10
25.5786500599242
20
-15.3166205091244
30
0
0
SPLINE
5
124
100
AcDbEntity
8
1
62
256
6
ByLayer
370
18
48
1
60
0
100
AcDbSpline
70
4
71
3
72
20
73
16
40
0
40
0
40
0
40
0
40
0.110576036200128
40
0.110576036200128
40
0.197179369122811
40
0.197179369122811
40
0.284291117387367
40
0.284291117387367
40
0.365904217918082
40
0.365904217918082
40
0.497270233392089
40
0.497270233392089
40
0.733496364826733
40
0.733496364826733
40
1
40
1
40
1
40
1
41
1
10
24.5098332212285
20
-19.2315175532492
30
0
41
1
10
24.4951995626602
20
-19.1959965019815
30
0
41
1
10
24.4885890160914
20
-19.1548356408703
30
0
41
1
10
24.4997130014351
20
-19.0720505449089
30
0
41
1
10
24.5128688343364
20
-19.0315927902289
30
0
41
1
10
24.5573740491125
20
-18.9474466422832
30
0
41
1
10
24.5894947263255
20
-18.9026747950474
30
0
41
1
10
24.664363112521
20
-18.8187830749687
30
0
41
1
10
24.7070066527798
20
-18.7785362552861
30
0
41
1
10
24.8249468140218
20
-18.6803537600296
30
0
41
1
10
24.9061271331524
20
-18.6246623757256
30
0
41
1
10
25.1341802928975
20
-18.4862025617549
30
0
41
1
10
25.2866778829059
20
-18.4130960876839
30
0
41
1
10
25.6035680171477
20
-18.2779492662952
30
0
41
1
10
25.7704575634171
20
-18.2174724964303
30
0
41
1
10
25.9343156492778
20
-18.1638648162715
30
0
0
SPLINE
5
125
100
AcDbEntity
8
1
62
256
6
ByLayer
370
18
48
1
60
0
100
AcDbSpline
70
4
71
3
72
10
73
6
40
0
40
0
40
0
40
0
40
0.5
40
0.5
40
1
40
1
40
1
40
1
41
1
10
24.1926558135576
20
-11.1812600291076
30
0
41
1
10
23.1519660062717
20
-10.3774522392991
30
0
41
1
10
22.0531490494793
20
-9.66013712338702
30
0
41
1
10
19.7169757448919
20
-8.43165225512269
30
0
41
1
10
18.5061032574048
20
-7.8836628213592
30
0
41
1
10
17.2221882922012
20
-7.533175187252
30
0
0
SPLINE
5
126
100
AcDbEntity
8
1
62
256
6
ByLayer
370
18
48
1
60
0
100
AcDbSpline
70
4
71
3
72
10
73
6
40
0
40
0
40
0
40
0
40
0.264715639145577
40
0.264715639145577
40
1
40
1
40
1
40
1
41
1
10
27.1584968680135
20
-17.7955975997643
30
0
41
1
10
27.0785680642198
20
-17.7270567462654
30
0
41
1
10
26.9988330773813
20
-17.6570616474012
30
0
41
1
10
26.6984209442802
20
-17.3880286151249
30
0
41
1
10
26.4789710806049
20
-17.18080558158
30
0
41
1
10
26.2611382637669
20
-16.966768324987
30
0
0
SPLINE
5
127
100
AcDbEntity
8
1
62
256
6
ByLayer
370
18
48
1
60
0
100
AcDbSpline
70
4
71
3
72
10
73
6
40
0
40
0
40
0
40
0
40
0.5
40
0.5
40
1
40
1
40
1
40
1
41
1
10
25.5786500599236
20
-15.3166205091242
30
0
41
1
10
25.952519720644
20
-14.947130422161
30
0
41
1
10
26.3529225687479
20
-14.636587026332
30
0
41
1
10
27.313803061082
20
-14.3711257925537
30
0
41
1
10
27.8851982996977
20
-14.4453305356941
30
0
41
1
10
28.4543825078253
20
-14.9115440423733
30
0
0
SPLINE
5
128
100
AcDbEntity
8
1
62
256
6
ByLayer
370
18
48
1
60
0
100
AcDbSpline
70
4
71
3
72
8
73
4
40
0
40
0
40
0
40
0
40
1
40
1
40
1
40
1
41
1
10
27.7621321350609
20
-13.890352271581
30
0
41
1
10
27.9929835234306
20
-14.2300407477746
30
0
41
1
10
28.2241389352972
20
-14.5710319881148
30
0
41
1
10
28.4543825078254
20
-14.9115440423733
30
0
0
SPLINE
5
129
100
AcDbEntity
8
1
62
256
6
ByLayer
370
18
48
1
60
0
100
AcDbSpline
70
4
71
3
72
12
73
8
40
0
40
0
40
0
40
0
40
0.108854002841679
40
0.502629245107336
40
0.699516866240164
40
0.896404487372993
40
1
40
1
40
1
40
1
41
1.0244126255267
10
18.7065919708805
20
-17.0480110112105
30
0
41
1.02394775696077
10
19.0429802952787
20
-17.1044440642713
30
0
41
1.02173322391444
10
20.6374309438226
20
-17.3628691834988
30
0
41
1.01876555595691
10
22.8951741961575
20
-17.6668563339009
30
0
41
1.01610930227499
10
24.4177217006798
20
-17.8323924475153
30
0
41
1.01814069306376
10
25.0982175285604
20
-17.9964350115627
30
0
41
1.0200519600697
10
25.7099752672572
20
-18.1209562541832
30
0
41
1.02076673234771
10
25.93431564926
20
-18.1638648162681
30
0
0
SPLINE
5
12A
100
AcDbEntity
8
1
62
256
6
ByLayer
370
18
48
1
60
0
100
AcDbSpline
70
4
71
3
72
10
73
6
40
0
40
0
40
0
40
0
40
0.5
40
0.5
40
1
40
1
40
1
40
1
41
1
10
9.6643613947208
20
-5.78063704931682
30
0
41
1
10
9.22372456198491
20
-5.90689362045507
30
0
41
1
10
8.907828270506
20
-6.15516822738888
30
0
41
1
10
8.19836834677051
20
-6.94490330254186
30
0
41
1
10
7.81412277967047
20
-7.5586294952316
30
0
41
1
10
7.59565401206248
20
-8.24287240869859
30
0
0
SPLINE
5
12B
100
AcDbEntity
8
1
62
256
6
ByLayer
370
18
48
1
60
0
100
AcDbSpline
70
4
71
3
72
20
73
16
40
0
40
0
40
0
40
0
40
0.332873226652387
40
0.332873226652387
40
0.5016572616982
40
0.5016572616982
40
0.631212321676498
40
0.631212321676498
40
0.72254232363766
40
0.72254232363766
40
0.81476534740418
40
0.81476534740418
40
0.896421359038789
40
0.896421359038789
40
1
40
1
40
1
40
1
41
1
10
26.2611382637669
20
-16.966768324987
30
0
41
1
10
26.1144071191542
20
-16.822658114064
30
0
41
1
10
25.9687337261144
20
-16.6654409965521
30
0
41
1
10
25.764991691663
20
-16.3950883023842
30
0
41
1
10
25.6984564613854
20
-16.2971005970226
30
0
41
1
10
25.5944956154287
20
-16.110603925204
30
0
41
1
10
25.5531854505365
20
-16.0235583431435
30
0
41
1
10
25.4997410031307
20
-15.8714098372508
30
0
41
1
10
25.4823232133674
20
-15.806074104252
30
0
41
1
10
25.4626765169573
20
-15.6802532046416
30
0
41
1
10
25.4605238003979
20
-15.6181818357348
30
0
41
1
10
25.4717511109911
20
-15.5150825749367
30
0
41
1
10
25.4833848486686
20
-15.4711975529858
30
0
41
1
10
25.5197488454388
20
-15.3861379563957
30
0
41
1
10
25.5473983046828
20
-15.3475014442325
30
0
41
1
10
25.5786500599236
20
-15.3166205091242
30
0
0
SPLINE
5
12C
100
AcDbEntity
8
1
62
256
6
ByLayer
370
18
48
1
60
0
100
AcDbSpline
70
4
71
3
72
8
73
4
40
0
40
0
40
0
40
0
40
1
40
1
40
1
40
1
41
1
10
7.72436451057376
20
-8.36243355921289
30
0
41
1
10
8.35682762962375
20
-8.92449614472403
30
0
41
1
10
9.27075194438112
20
-9.83152898365296
30
0
41
1
10
10.2379877575586
20
-10.8060467144652
30
0
0
SPLINE
5
12D
100
AcDbEntity
8
1
62
256
6
ByLayer
370
18
48
1
60
0
100
AcDbSpline
70
4
71
3
72
11
73
7
40
0
40
0
40
0
40
0
40
0.564783939443784
40
0.564783939443784
40
0.564783939443784
40
1
40
1
40
1
40
1
41
1
10
23.5992961983242
20
-21.5354657286073
30
0
41
1
10
23.2312402286229
20
-21.5104623400087
30
0
41
1
10
22.8113488484151
20
-21.4981900002975
30
0
41
1
10
22.3766100666226
20
-21.5283523622099
30
0
41
1
10
22.0388416456504
20
-21.5517868791719
30
0
41
1
10
21.6873491296175
20
-21.5931477772568
30
0
41
1
10
21.3365111142942
20
-21.6428396337781
30
0
0
SPLINE
5
12E
100
AcDbEntity
8
1
62
256
6
ByLayer
370
18
48
1
60
0
100
AcDbSpline
70
4
71
3
72
8
73
4
40
0
40
0
40
0
40
0
40
1
40
1
40
1
40
1
41
1
10
6.7213859894905
20
-18.6888326590458
30
0
41
1
10
7.42840080827204
20
-18.4231138412278
30
0
41
1
10
8.55511169183683
20
-17.6245962682456
30
0
41
1
10
9.74104799480642
20
-16.652499751894
30
0
0
SPLINE
5
12F
100
AcDbEntity
8
1
62
256
6
ByLayer
370
18
48
1
60
0
100
AcDbSpline
70
4
71
2
72
6
73
3
40
0
40
0
40
0
40
1
40
1
40
1
41
1.02805999725224
10
14.043655326356
20
-20.6136433149276
30
0
41
1.02805999725224
10
13.7423202061482
20
-20.9983662313735
30
0
41
1.02805999725224
10
13.4409850859404
20
-21.3830891478194
30
0
0
SPLINE
5
130
100
AcDbEntity
8
1
62
256
6
ByLayer
370
18
48
1
60
0
100
AcDbSpline
70
4
71
3
72
8
73
4
40
0
40
0
40
0
40
0
40
1
40
1
40
1
40
1
41
1
10
23.5992961983241
20
-21.5354657286073
30
0
41
1
10
23.7058820364396
20
-21.5427064945475
30
0
41
1
10
23.8129228073183
20
-21.5474537107104
30
0
41
1
10
23.9202746932114
20
-21.5499170507187
30
0
0
SPLINE
5
131
100
AcDbEntity
8
1
62
256
6
ByLayer
370
18
48
1
60
0
100
AcDbSpline
70
4
71
3
72
8
73
4
40
0
40
0
40
0
40
0
40
1
40
1
40
1
40
1
41
1
10
8.83481321184701
20
-15.945640031636
30
0
41
1
10
7.51844012941274
20
-16.2458361780859
30
0
41
1
10
6.30844250257974
20
-16.454392260774
30
0
41
1
10
5.51458209033063
20
-16.4564964070565
30
0
0
SPLINE
5
132
100
AcDbEntity
8
1
62
256
6
ByLayer
370
18
48
1
60
0
100
AcDbSpline
70
4
71
3
72
10
73
6
40
0
40
0
40
0
40
0
40
0.655488757716278
40
0.655488757716278
40
1
40
1
40
1
40
1
41
1
10
10.137912507993
20
-5.50085382916706
30
0
41
1
10
9.79294134797811
20
-5.38001085335165
30
0
41
1
10
9.39425464136139
20
-5.28407686398816
30
0
41
1
10
8.73758065801678
20
-5.25170764799134
30
0
41
1
10
8.49995333073434
20
-5.26145261786047
30
0
41
1
10
8.26100304461357
20
-5.29932156006339
30
0
0
SPLINE
5
133
100
AcDbEntity
8
1
62
256
6
ByLayer
370
18
48
1
60
0
100
AcDbSpline
70
4
71
3
72
10
73
6
40
0
40
0
40
0
40
0
40
0.967465556419477
40
0.967465556419477
40
1
40
1
40
1
40
1
41
1
10
25.9343156492778
20
-18.1638648162715
30
0
41
1
10
26.3334321213713
20
-18.0332131303741
30
0
41
1
10
26.7296545362979
20
-17.9122442388719
30
0
41
1
10
27.1322975458365
20
-17.8026800544788
30
0
41
1
10
27.1454011480586
20
-17.7991298710483
30
0
41
1
10
27.1584968680295
20
-17.7955975997601
30
0
0
SPLINE
5
134
100
AcDbEntity
8
1
62
256
6
ByLayer
370
18
48
1
60
0
100
AcDbSpline
70
4
71
3
72
8
73
4
40
0
40
0
40
0
40
0
40
1
40
1
40
1
40
1
41
1
10
16.9634869368139
20
-11.1138596293577
30
0
41
1
10
17.143783945273
20
-10.1746145342412
30
0
41
1
10
17.241140231492
20
-9.39158044899958
30
0
41
1
10
17.2363252426766
20
-8.91942821103757
30
0
0
SPLINE
5
135
100
AcDbEntity
8
1
62
256
6
ByLayer
370
18
48
1
60
0
100
AcDbSpline
70
4
71
3
72
8
73
4
40
0
40
0
40
0
40
0
40
1
40
1
40
1
40
1
41
1
10
14.8290878083893
20
-18.9318060572669
30
0
41
1
10
14.5400086170682
20
-18.9123832788061
30
0
41
1
10
14.2573211590851
20
-18.8668936405041
30
0
41
1
10
13.981471339446
20
-18.7943807831047
30
0
0
SPLINE
5
136
100
AcDbEntity
8
1
62
256
6
ByLayer
370
18
48
1
60
0
100
AcDbSpline
70
4
71
3
72
8
73
4
40
0
40
0
40
0
40
0
40
1
40
1
40
1
40
1
41
1
10
11.3774828457657
20
-10.6585130096246
30
0
41
1
10
10.8633945285517
20
-9.16665934273382
30
0
41
1
10
10.3352272173707
20
-7.77910944123983
30
0
41
1
10
9.9140559058111
20
-6.99461755515577
30
0
0
SPLINE
5
137
100
AcDbEntity
8
1
62
256
6
ByLayer
370
18
48
1
60
0
100
AcDbSpline
70
4
71
3
72
15
73
11
40
0
40
0
40
0
40
0
40
0.227604479949748
40
0.227604479949748
40
0.479423709218441
40
0.479423709218441
40
0.785574270382839
40
0.785574270382839
40
0.785574270382839
40
1
40
1
40
1
40
1
41
1
10
19.3403426653196
20
-14.7266889431853
30
0
41
1
10
19.3335726712868
20
-14.3870965503221
30
0
41
1
10
19.2758383044985
20
-14.0414568658122
30
0
41
1
10
19.0643556865477
20
-13.3499418658702
30
0
41
1
10
18.899437665859
20
-12.9996108047409
30
0
41
1
10
18.4466508378293
20
-12.2918835099203
30
0
41
1
10
18.133762629137
20
-11.9388078998881
30
0
41
1
10
17.7785686300207
20
-11.6456988031471
30
0
41
1
10
17.5282608831537
20
-11.439142730201
30
0
41
1
10
17.2533615313986
20
-11.259510648693
30
0
41
1
10
16.9634869320299
20
-11.1138596542794
30
0
0
SPLINE
5
138
100
AcDbEntity
8
1
62
256
6
ByLayer
370
18
48
1
60
0
100
AcDbSpline
70
4
71
3
72
15
73
11
40
0
40
0
40
0
40
0
40
0.322163720426456
40
0.322163720426456
40
0.64483345260023
40
0.64483345260023
40
0.912233455904554
40
0.912233455904554
40
0.912233455904554
40
1
40
1
40
1
40
1
41
1
10
14.8290878236036
20
-18.9318060582891
30
0
41
1
10
15.3125418406956
20
-18.9634216544631
30
0
41
1
10
15.8080544397886
20
-18.9117306115068
30
0
41
1
10
16.7420416841864
20
-18.6635224019905
30
0
41
1
10
17.193946355708
20
-18.4632695341327
30
0
41
1
10
17.9254436681946
20
-17.9719116096275
30
0
41
1
10
18.2295187858141
20
-17.6953040994794
30
0
41
1
10
18.4774523110318
20
-17.378045406898
30
0
41
1
10
18.5598465286883
20
-17.2726127843954
30
0
41
1
10
18.6365846850047
20
-17.1622244416528
30
0
41
1
10
18.7065921189067
20
-17.0480110360436
30
0
0
SPLINE
5
139
100
AcDbEntity
8
1
62
256
6
ByLayer
370
18
48
1
60
0
100
AcDbSpline
70
4
71
3
72
12
73
8
40
0
40
0
40
0
40
0
40
0.286978363858294
40
0.286978363858294
40
0.569998995185616
40
0.569998995185616
40
1
40
1
40
1
40
1
41
1
10
18.7065921189058
20
-17.0480110360437
30
0
41
1
10
18.8289543915914
20
-16.848360364669
30
0
41
1
10
18.9353645956086
20
-16.637942600489
30
0
41
1
10
19.1107577204156
20
-16.2075621650011
30
0
41
1
10
19.1808394429098
20
-15.9862939404474
30
0
41
1
10
19.3106070772957
20
-15.4228233353583
30
0
41
1
10
19.3472171251391
20
-15.0722848541914
30
0
41
1
10
19.3403426653196
20
-14.7266889431853
30
0
0
SPLINE
5
13A
100
AcDbEntity
8
1
62
256
6
ByLayer
370
18
48
1
60
0
100
AcDbSpline
70
4
71
3
72
12
73
8
40
0
40
0
40
0
40
0
40
0.466938972358621
40
0.466938972358621
40
0.928803236876559
40
0.928803236876559
40
1
40
1
40
1
40
1
41
1
10
9.74104799481279
20
-16.6524997519
30
0
41
1
10
9.63168113189602
20
-16.5219133053642
30
0
41
1
10
9.49821047237305
20
-16.3938974046107
30
0
41
1
10
9.2144239879035
20
-16.1696546006282
30
0
41
1
10
9.06075532583986
20
-16.0696863871872
30
0
41
1
10
8.88289536906211
20
-15.9712246968717
30
0
41
1
10
8.85886863596522
20
-15.9582744050603
30
0
41
1
10
8.83481321184701
20
-15.945640031636
30
0
0
SPLINE
5
13B
100
AcDbEntity
8
1
62
256
6
ByLayer
370
18
48
1
60
0
100
AcDbSpline
70
4
71
3
72
8
73
4
40
0
40
0
40
0
40
0
40
1
40
1
40
1
40
1
41
1
10
16.96348692444
20
-11.1138596504628
30
0
41
1
10
16.7097389199853
20
-10.9862617140339
30
0
41
1
10
16.4390513392393
20
-10.8820304578605
30
0
41
1
10
16.161558754394
20
-10.8090857654891
30
0
0
SPLINE
5
13C
100
AcDbEntity
8
1
62
256
6
ByLayer
370
18
48
1
60
0
100
AcDbSpline
70
4
71
3
72
8
73
4
40
0
40
0
40
0
40
0
40
1
40
1
40
1
40
1
41
1
10
26.4142870803845
20
-12.4147674449885
30
0
41
1
10
26.3174985765377
20
-12.3736122059954
30
0
41
1
10
26.2198085728562
20
-12.3346146959159
30
0
41
1
10
26.1212368561499
20
-12.2980195456803
30
0
0
SPLINE
5
13D
100
AcDbEntity
8
1
62
256
6
ByLayer
370
18
48
1
60
0
100
AcDbSpline
70
4
71
3
72
12
73
8
40
0
40
0
40
0
40
0
40
0.108853988607133
40
0.502629237162307
40
0.699516861439894
40
0.896404485717482
40
1
40
1
40
1
40
1
41
1.02441262532206
10
19.3403426653196
20
-14.7266889431853
30
0
41
1.02394775682001
10
19.6622334644503
20
-14.83622382263
30
0
41
1.02173322384668
10
21.1847649280959
20
-15.3580766774862
30
0
41
1.01876555595691
10
23.3209423881815
20
-16.1073387663521
30
0
41
1.01610930227499
10
24.7487470860818
20
-16.6199019103779
30
0
41
1.01814069306376
10
25.4341632973316
20
-16.7659219343549
30
0
41
1.02005196006971
10
26.0401309756493
20
-16.9116511982726
30
0
41
1.02076673234773
10
26.2611382637566
20
-16.9667683249844
30
0
0
INSERT
5
150
100
AcDbEntity
8
SK2
62
256
6
ByLayer
370
25
48
1
60
0
100
AcDbBlockReference
2
DimnDraft3D11
10
0
20
0
30
0
41
1
42
1
43
1
50
0
210
0
220
0
230
1
0
LINE
5
72
100
AcDbEntity
8
1
62
256
6
ByLayer
370
18
48
1
60
0
100
AcDbLine
10
30.33879
20
-8.712201
30
0
11
29.843933
21
-8.217343
31
0
39
0
210
0
220
0
230
1
0
LINE
5
74
100
AcDbEntity
8
1
62
256
6
ByLayer
370
18
48
1
60
0
100
AcDbLine
10
5.341499
20
-18.883813
30
0
11
6.118795
21
-19.356768
31
0
39
0
210
0
220
0
230
1
0
LINE
5
75
100
AcDbEntity
8
1
62
256
6
ByLayer
370
18
48
1
60
0
100
AcDbLine
10
14.117267
20
-15.871342
30
0
11
13.950928
21
-15.705003
31
0
39
0
210
0
220
0
230
1
0
LINE
5
76
100
AcDbEntity
8
1
62
256
6
ByLayer
370
18
48
1
60
0
100
AcDbLine
10
11.156735
20
-17.219998
30
0
11
11.329931
21
-17.393194
31
0
39
0
210
0
220
0
230
1
0
LINE
5
77
100
AcDbEntity
8
1
62
256
6
ByLayer
370
18
48
1
60
0
100
AcDbLine
10
13.004407
20
-14.758482
30
0
11
12.838068
21
-14.592143
31
0
39
0
210
0
220
0
230
1
0
LINE
5
78
100
AcDbEntity
8
1
62
256
6
ByLayer
370
18
48
1
60
0
100
AcDbLine
10
14.185734
20
-13.244477
30
0
11
14.352073
21
-13.410816
31
0
39
0
210
0
220
0
230
1
0
LINE
5
79
100
AcDbEntity
8
1
62
256
6
ByLayer
370
18
48
1
60
0
100
AcDbLine
10
15.298595
20
-14.357337
30
0
11
15.464933
21
-14.523676
31
0
39
0
210
0
220
0
230
1
0
LINE
5
7A
100
AcDbEntity
8
1
62
256
6
ByLayer
370
18
48
1
60
0
100
AcDbLine
10
16.986785
20
-11.736339
30
0
11
16.813589
21
-11.563144
31
0
39
0
210
0
220
0
230
1
0
LINE
5
7B
100
AcDbEntity
8
80
62
256
6
ByLayer
370
18
48
1
60
0
100
AcDbLine
10
0
20
0
30
0
11
-5
21
0
31
0
39
0
210
0
220
0
230
1
0
LINE
5
7C
100
AcDbEntity
8
81
62
256
6
ByLayer
370
18
48
1
60
0
100
AcDbLine
10
34.34235
20
-24.425
30
0
11
44.34235
21
-24.425
31
0
39
0
210
0
220
0
230
1
0
LINE
5
7D
100
AcDbEntity
8
1
62
256
6
ByLayer
370
13
48
0.05
60
0
100
AcDbLine
10
-137.00765
20
15.477786
30
0
11
-137.00765
21
19.547214
31
0
39
0
210
0
220
0
230
1
0
LINE
5
7E
100
AcDbEntity
8
1
62
256
6
ByLayer
370
18
48
1
60
0
100
AcDbLine
10
21.191323
20
-21.657694
30
0
11
24.806784
21
-23.328114
31
0
39
0
210
0
220
0
230
1
0
LINE
5
7F
100
AcDbEntity
8
1
62
256
6
ByLayer
370
18
48
1
60
0
100
AcDbLine
10
29.328318
20
-8.629277
30
0
11
24.948125
21
-11.708472
31
0
39
0
210
0
220
0
230
1
0
LINE
5
80
100
AcDbEntity
8
1
62
256
6
ByLayer
370
18
48
1
60
0
100
AcDbLine
10
28.833461
20
-8.134419
30
0
11
28.824492
21
-8.140724
31
0
39
0
210
0
220
0
230
1
0
LINE
5
81
100
AcDbEntity
8
1
62
256
6
ByLayer
370
18
48
1
60
0
100
AcDbLine
10
12.369138
20
-3.494346
30
0
11
11.673441
21
-6.042567
31
0
39
0
210
0
220
0
230
1
0
LINE
5
82
100
AcDbEntity
8
1
62
256
6
ByLayer
370
18
48
1
60
0
100
AcDbLine
10
7.883699
20
-19.923758
30
0
11
7.623897
21
-20.875369
31
0
39
0
210
0
220
0
230
1
0
LINE
5
83
100
AcDbEntity
8
1
62
256
6
ByLayer
370
18
48
1
60
0
100
AcDbLine
10
24.809344
20
-11.624502
30
0
11
29.055156
21
-8.639774
31
0
39
0
210
0
220
0
230
1
0
LINE
5
84
100
AcDbEntity
8
1
62
256
6
ByLayer
370
18
48
1
60
0
100
AcDbLine
10
24.459305
20
-23.366852
30
0
11
20.803504
21
-21.697272
31
0
39
0
210
0
220
0
230
1
0
LINE
5
85
100
AcDbEntity
8
1
62
256
6
ByLayer
370
18
48
1
60
0
100
AcDbLine
10
12.27223
20
8.902406
30
0
11
8.396852
21
-5.292456
31
0
39
0
210
0
220
0
230
1
0
LINE
5
86
100
AcDbEntity
8
1
62
256
6
ByLayer
370
18
48
1
60
0
100
AcDbLine
10
4.797155
20
-18.477542
30
0
11
4.41665
21
-19.871267
31
0
39
0
210
0
220
0
230
1
0
LINE
5
87
100
AcDbEntity
8
1
62
256
6
ByLayer
370
18
48
1
60
0
100
AcDbLine
10
11.516607
20
9.632091
30
0
11
7.322882
21
-5.728822
31
0
39
0
210
0
220
0
230
1
0
LINE
5
88
100
AcDbEntity
8
1
62
256
6
ByLayer
370
18
48
1
60
0
100
AcDbLine
10
4.092706
20
-17.560415
30
0
11
3.56571
21
-19.49071
31
0
39
0
210
0
220
0
230
1
0
LINE
5
89
100
AcDbEntity
8
1
62
256
6
ByLayer
370
18
48
1
60
0
100
AcDbLine
10
12.251284
20
8.922633
30
0
11
8.370034
21
-5.293734
31
0
39
0
210
0
220
0
230
1
0
LINE
5
8A
100
AcDbEntity
8
1
62
256
6
ByLayer
370
18
48
1
60
0
100
AcDbLine
10
4.77527
20
-18.460752
30
0
11
4.392266
21
-19.863632
31
0
39
0
210
0
220
0
230
1
0
LINE
5
8B
100
AcDbEntity
8
1
62
256
6
ByLayer
370
18
48
1
60
0
100
AcDbLine
10
24.887214
20
-11.671621
30
0
11
29.09068
21
-8.716662
31
0
39
0
210
0
220
0
230
1
0
LINE
5
8C
100
AcDbEntity
8
1
62
256
6
ByLayer
370
18
48
1
60
0
100
AcDbLine
10
24.459305
20
-23.366852
30
0
11
24.520504
21
-23.195848
31
0
39
0
210
0
220
0
230
1
0
LINE
5
8D
100
AcDbEntity
8
1
62
256
6
ByLayer
370
18
48
1
60
0
100
AcDbLine
10
14.760735
20
-15.635657
30
0
11
14.927074
21
-15.801996
31
0
39
0
210
0
220
0
230
1
0
LINE
5
8E
100
AcDbEntity
8
1
62
256
6
ByLayer
370
18
48
1
60
0
100
AcDbLine
10
13.402538
20
-15.665859
30
0
11
13.568876
21
-15.832198
31
0
39
0
210
0
220
0
230
1
0
LINE
5
8F
100
AcDbEntity
8
1
62
256
6
ByLayer
370
18
48
1
60
0
100
AcDbLine
10
12.710134
20
-14.504942
30
0
11
12.876473
21
-14.671281
31
0
39
0
210
0
220
0
230
1
0
LINE
5
90
100
AcDbEntity
8
1
62
256
6
ByLayer
370
18
48
1
60
0
100
AcDbLine
10
14.098534
20
-13.116543
30
0
11
14.264872
21
-13.282881
31
0
39
0
210
0
220
0
230
1
0
LINE
5
91
100
AcDbEntity
8
1
62
256
6
ByLayer
370
18
48
1
60
0
100
AcDbLine
10
15.229248
20
-15.167144
30
0
11
15.395587
21
-15.333483
31
0
39
0
210
0
220
0
230
1
0
LINE
5
92
100
AcDbEntity
8
1
62
256
6
ByLayer
370
18
48
1
60
0
100
AcDbLine
10
15.25945
20
-13.808946
30
0
11
15.425789
21
-13.975285
31
0
39
0
210
0
220
0
230
1
0
LINE
5
93
100
AcDbEntity
8
1
62
256
6
ByLayer
370
18
48
1
60
0
100
AcDbLine
10
24.250558
20
-23.950132
30
0
11
24.459305
21
-23.366852
31
0
39
0
210
0
220
0
230
1
0
LINE
5
94
100
AcDbEntity
8
1
62
256
6
ByLayer
370
18
48
1
60
0
100
AcDbLine
10
27.941171
20
-6.228663
30
0
11
18.62815
21
2.764667
31
0
39
0
210
0
220
0
230
1
0
LINE
5
95
100
AcDbEntity
8
1
62
256
6
ByLayer
370
18
48
1
60
0
100
AcDbLine
10
18.62815
20
2.764667
30
0
11
14.195378
21
7.045274
31
0
39
0
210
0
220
0
230
1
0
LINE
5
96
100
AcDbEntity
8
1
62
256
6
ByLayer
370
18
48
1
60
0
100
AcDbLine
10
0
20
15.925
30
0
11
3.718979
21
15.941227
31
0
39
0
210
0
220
0
230
1
0
LINE
5
97
100
AcDbEntity
8
1
62
256
6
ByLayer
370
18
48
1
60
0
100
AcDbLine
10
4.983797
20
15.940647
30
0
11
11.516607
21
9.632091
31
0
39
0
210
0
220
0
230
1
0
LINE
5
98
100
AcDbEntity
8
1
62
256
6
ByLayer
370
18
48
1
60
0
100
AcDbLine
10
29.055156
20
-8.639774
30
0
11
29.09068
21
-8.716662
31
0
39
0
210
0
220
0
230
1
0
LINE
5
99
100
AcDbEntity
8
1
62
256
6
ByLayer
370
18
48
1
60
0
100
AcDbLine
10
4.983797
20
15.940647
30
0
11
3.718979
21
15.941227
31
0
39
0
210
0
220
0
230
1
0
LINE
5
9A
100
AcDbEntity
8
1
62
256
6
ByLayer
370
18
48
1
60
0
100
AcDbLine
10
3.718979
20
15.941227
30
0
11
0.628484
21
-16.553484
31
0
39
0
210
0
220
0
230
1
0
LINE
5
9B
100
AcDbEntity
8
1
62
256
6
ByLayer
370
18
48
1
60
0
100
AcDbLine
10
12.27223
20
8.902406
30
0
11
14.195378
21
7.045274
31
0
39
0
210
0
220
0
230
1
0
LINE
5
9C
100
AcDbEntity
8
1
62
256
6
ByLayer
370
18
48
1
60
0
100
AcDbLine
10
12.369138
20
-3.494346
30
0
11
14.195378
21
7.045274
31
0
39
0
210
0
220
0
230
1
0
LINE
5
9D
100
AcDbEntity
8
1
62
256
6
ByLayer
370
18
48
1
60
0
100
AcDbLine
10
0
20
-15.925
30
0
11
0
21
15.925
31
0
39
0
210
0
220
0
230
1
0
LINE
5
9E
100
AcDbEntity
8
1
62
256
6
ByLayer
370
18
48
1
60
0
100
AcDbLine
10
24.250558
20
-23.950132
30
0
11
17.445123
21
-23.950132
31
0
39
0
210
0
220
0
230
1
0
LINE
5
9F
100
AcDbEntity
8
1
62
256
6
ByLayer
370
18
48
1
60
0
100
AcDbLine
10
0.628484
20
-16.553484
30
0
11
3.56571
21
-19.49071
31
0
39
0
210
0
220
0
230
1
0
LINE
5
A0
100
AcDbEntity
8
1
62
256
6
ByLayer
370
18
48
1
60
0
100
AcDbLine
10
3.731885
20
-19.656885
30
0
11
4.392266
21
-19.863632
31
0
39
0
210
0
220
0
230
1
0
LINE
5
A1
100
AcDbEntity
8
1
62
256
6
ByLayer
370
18
48
1
60
0
100
AcDbLine
10
0.628484
20
-16.553484
30
0
11
0
21
-15.925
31
0
39
0
210
0
220
0
230
1
0
LINE
5
A2
100
AcDbEntity
8
1
62
256
6
ByLayer
370
18
48
1
60
0
100
AcDbLine
10
12.251284
20
8.922633
30
0
11
12.27223
21
8.902406
31
0
39
0
210
0
220
0
230
1
0
LINE
5
A3
100
AcDbEntity
8
1
62
256
6
ByLayer
370
18
48
1
60
0
100
AcDbLine
10
3.56571
20
-19.49071
30
0
11
3.731885
21
-19.656885
31
0
39
0
210
0
220
0
230
1
0
LINE
5
A4
100
AcDbEntity
8
1
62
256
6
ByLayer
370
18
48
1
60
0
100
AcDbLine
10
11.516607
20
9.632091
30
0
11
12.251284
21
8.922633
31
0
39
0
210
0
220
0
230
1
0
LINE
5
A5
100
AcDbEntity
8
1
62
256
6
ByLayer
370
18
48
1
60
0
100
AcDbLine
10
17.445123
20
-23.950132
30
0
11
7.623897
21
-20.875369
31
0
39
0
210
0
220
0
230
1
0
LINE
5
A6
100
AcDbEntity
8
1
62
256
6
ByLayer
370
18
48
1
60
0
100
AcDbLine
10
18.62815
20
2.764667
30
0
11
12.369138
21
-3.494346
31
0
39
0
210
0
220
0
230
1
0
LINE
5
A7
100
AcDbEntity
8
1
62
256
6
ByLayer
370
18
48
1
60
0
100
AcDbLine
10
4.392266
20
-19.863632
30
0
11
4.41665
21
-19.871267
31
0
39
0
210
0
220
0
230
1
0
LINE
5
A8
100
AcDbEntity
8
1
62
256
6
ByLayer
370
18
48
1
60
0
100
AcDbLine
10
27.941171
20
-6.228663
30
0
11
29.055156
21
-8.639774
31
0
39
0
210
0
220
0
230
1
0
LINE
5
A9
100
AcDbEntity
8
1
62
256
6
ByLayer
370
18
48
1
60
0
100
AcDbLine
10
4.41665
20
-19.871267
30
0
11
7.623897
21
-20.875369
31
0
39
0
210
0
220
0
230
1
0
LINE
5
AA
100
AcDbEntity
8
SK1
62
256
6
ByLayer
370
18
48
1
60
0
100
AcDbLine
10
0
20
-15.925
30
0
11
-137.00765
21
-15.925
31
0
39
0
210
0
220
0
230
1
0
LINE
5
AC
100
AcDbEntity
8
SK1
62
256
6
ByLayer
370
18
48
1
60
0
100
AcDbLine
10
0
20
-15.925
30
0
11
0
21
15.925
31
0
39
0
210
0
220
0
230
1
0
LINE
5
AD
100
AcDbEntity
8
SK1
62
256
6
ByLayer
370
18
48
1
60
0
100
AcDbLine
10
-137.00765
20
15.925
30
0
11
0
21
15.925
31
0
39
0
210
0
220
0
230
1
0
LINE
5
AE
100
AcDbEntity
8
SK1
62
256
6
ByLayer
370
18
48
1
60
0
100
AcDbLine
10
-137.00765
20
-15.925
30
0
11
-137.00765
21
15.925
31
0
39
0
210
0
220
0
230
1
0
LINE
5
AF
100
AcDbEntity
8
1
62
256
6
ByLayer
370
18
48
1
60
0
100
AcDbLine
10
34.339715
20
-23.56251
30
0
11
33.801571
21
-17.004945
31
0
39
0
210
0
220
0
230
1
0
LINE
5
B0
100
AcDbEntity
8
1
62
256
6
ByLayer
370
18
48
1
60
0
100
AcDbLine
10
33.245465
20
-14.889434
30
0
11
30.49481
21
-8.935913
31
0
39
0
210
0
220
0
230
1
0
LINE
5
B1
100
AcDbEntity
8
1
62
256
6
ByLayer
370
18
48
1
60
0
100
AcDbLine
10
26.922296
20
-23.884221
30
0
11
33.47986
21
-24.422365
31
0
39
0
210
0
220
0
230
1
0
LINE
5
B2
100
AcDbEntity
8
1
62
256
6
ByLayer
370
18
48
1
60
0
100
AcDbLine
10
28.833461
20
-8.134419
30
0
11
29.328318
21
-8.629277
31
0
39
0
210
0
220
0
230
1
0
LINE
5
B3
100
AcDbEntity
8
1
62
256
6
ByLayer
370
18
48
1
60
0
100
AcDbLine
10
17.222188
20
-7.533175
30
0
11
12.007877
21
-6.162485
31
0
39
0
210
0
220
0
230
1
0
LINE
5
B4
100
AcDbEntity
8
1
62
256
6
ByLayer
370
18
48
1
60
0
100
AcDbLine
10
7.575882
20
-8.30968
30
0
11
6.115821
21
-7.421289
31
0
39
0
210
0
220
0
230
1
0
LINE
5
B5
100
AcDbEntity
8
1
62
256
6
ByLayer
370
18
48
1
60
0
100
AcDbLine
10
27.158497
20
-17.795598
30
0
11
29.797411
21
-18.246644
31
0
39
0
210
0
220
0
230
1
0
LINE
5
B6
100
AcDbEntity
8
1
62
256
6
ByLayer
370
18
48
1
60
0
100
AcDbLine
10
5.369528
20
-16.391183
30
0
11
7.575882
21
-8.30968
31
0
39
0
210
0
220
0
230
1
0
LINE
5
B7
100
AcDbEntity
8
1
62
256
6
ByLayer
370
18
48
1
60
0
100
AcDbLine
10
6.115821
20
-7.421289
30
0
11
3.909468
21
-15.502793
31
0
39
0
210
0
220
0
230
1
0
LINE
5
B8
100
AcDbEntity
8
1
62
256
6
ByLayer
370
18
48
1
60
0
100
AcDbLine
10
28.117996
20
-19.778758
30
0
11
27.917106
21
-19.911106
31
0
39
0
210
0
220
0
230
1
0
LINE
5
B9
100
AcDbEntity
8
1
62
256
6
ByLayer
370
18
48
1
60
0
100
AcDbLine
10
7.773218
20
-15.435592
30
0
11
6.312686
21
-15.053702
31
0
39
0
210
0
220
0
230
1
0
LINE
5
BA
100
AcDbEntity
8
1
62
256
6
ByLayer
370
18
48
1
60
0
100
AcDbLine
10
9.914056
20
-6.994618
30
0
11
17.236325
21
-8.919428
31
0
39
0
210
0
220
0
230
1
0
LINE
5
BB
100
AcDbEntity
8
1
62
256
6
ByLayer
370
18
48
1
60
0
100
AcDbLine
10
12.00363
20
-6.158745
30
0
11
12.007877
21
-6.162485
31
0
39
0
210
0
220
0
230
1
0
LINE
5
BC
100
AcDbEntity
8
1
62
256
6
ByLayer
370
18
48
1
60
0
100
AcDbLine
10
10.622439
20
-5.79567
30
0
11
12.00363
21
-6.158745
31
0
39
0
210
0
220
0
230
1
0
LINE
5
BD
100
AcDbEntity
8
1
62
256
6
ByLayer
370
18
48
1
60
0
100
AcDbLine
10
13.440985
20
-21.383089
30
0
11
8.226674
21
-20.012399
31
0
39
0
210
0
220
0
230
1
0
LINE
5
BE
100
AcDbEntity
8
1
62
256
6
ByLayer
370
18
48
1
60
0
100
AcDbLine
10
27.917106
20
-19.911106
30
0
11
26.951739
21
-20.415477
31
0
39
0
210
0
220
0
230
1
0
LINE
5
BF
100
AcDbEntity
8
1
62
256
6
ByLayer
370
18
48
1
60
0
100
AcDbLine
10
6.312686
20
-15.053702
30
0
11
7.678524
21
-10.050866
31
0
39
0
210
0
220
0
230
1
0
LINE
5
C0
100
AcDbEntity
8
1
62
256
6
ByLayer
370
18
48
1
60
0
100
AcDbLine
10
29.040938
20
-15.794698
30
0
11
28.454383
21
-14.911544
31
0
39
0
210
0
220
0
230
1
0
LINE
5
C1
100
AcDbEntity
8
1
62
256
6
ByLayer
370
18
48
1
60
0
100
AcDbLine
10
8.22131
20
-20.01275
30
0
11
8.226674
21
-20.012399
31
0
39
0
210
0
220
0
230
1
0
LINE
5
C2
100
AcDbEntity
8
1
62
256
6
ByLayer
370
18
48
1
60
0
100
AcDbLine
10
29.040938
20
-15.794698
30
0
11
29.147498
21
-16.007866
31
0
39
0
210
0
220
0
230
1
0
LINE
5
C3
100
AcDbEntity
8
1
62
256
6
ByLayer
370
18
48
1
60
0
100
AcDbLine
10
12.011051
20
-18.276415
30
0
11
13.981471
21
-18.794381
31
0
39
0
210
0
220
0
230
1
0
LINE
5
C4
100
AcDbEntity
8
1
62
256
6
ByLayer
370
18
48
1
60
0
100
AcDbLine
10
13.981471
20
-18.794381
30
0
11
13.584308
21
-18.552722
31
0
39
0
210
0
220
0
230
1
0
LINE
5
C5
100
AcDbEntity
8
1
62
256
6
ByLayer
370
18
48
1
60
0
100
AcDbLine
10
12.00363
20
-6.158745
30
0
11
10.208022
21
-5.525495
31
0
39
0
210
0
220
0
230
1
0
LINE
5
C6
100
AcDbEntity
8
1
62
256
6
ByLayer
370
18
48
1
60
0
100
AcDbLine
10
8.22131
20
-20.01275
30
0
11
6.840119
21
-19.649676
31
0
39
0
210
0
220
0
230
1
0
LINE
5
C7
100
AcDbEntity
8
1
62
256
6
ByLayer
370
18
48
1
60
0
100
AcDbLine
10
5.369528
20
-16.391183
30
0
11
3.909468
21
-15.502793
31
0
39
0
210
0
220
0
230
1
0
LINE
5
C8
100
AcDbEntity
8
1
62
256
6
ByLayer
370
18
48
1
60
0
100
AcDbLine
10
28.558304
20
-19.576103
30
0
11
28.353257
21
-19.683233
31
0
39
0
210
0
220
0
230
1
0
LINE
5
C9
100
AcDbEntity
8
1
62
256
6
ByLayer
370
18
48
1
60
0
100
AcDbLine
10
8.150224
20
-15.664986
30
0
11
7.773218
21
-15.435592
31
0
39
0
210
0
220
0
230
1
0
LINE
5
CA
100
AcDbEntity
8
1
62
256
6
ByLayer
370
18
48
1
60
0
100
AcDbLine
10
6.721386
20
-18.688833
30
0
11
14.043655
21
-20.613643
31
0
39
0
210
0
220
0
230
1
0
LINE
5
CB
100
AcDbEntity
8
1
62
256
6
ByLayer
370
18
48
1
60
0
100
AcDbLine
10
10.622439
20
-5.79567
30
0
11
10.137913
21
-5.500854
31
0
39
0
210
0
220
0
230
1
0
LINE
5
CC
100
AcDbEntity
8
1
62
256
6
ByLayer
370
18
48
1
60
0
100
AcDbLine
10
12.011051
20
-18.276415
30
0
11
11.621821
21
-18.039583
31
0
39
0
210
0
220
0
230
1
0
LINE
5
CD
100
AcDbEntity
8
1
62
256
6
ByLayer
370
18
48
1
60
0
100
AcDbLine
10
29.430529
20
-16.38129
30
0
11
29.305942
21
-16.193705
31
0
39
0
210
0
220
0
230
1
0
LINE
5
CE
100
AcDbEntity
8
1
62
256
6
ByLayer
370
18
48
1
60
0
100
AcDbLine
10
16.161559
20
-10.809086
30
0
11
14.191138
21
-10.29112
31
0
39
0
210
0
220
0
230
1
0
MTEXT
5
13E
100
AcDbEntity
8
SK6
62
256
6
ByLayer
370
18
48
1
60
0
100
AcDbMText
10
-65.45765
20
26.861104
30
0
210
0
220
0
230
1
1
\W0.7940;DWLNL 3232P 08
40
3.5
41
0
44
1.084337
50
0
71
7
72
5
7
iso_b_vert
0
DIMENSION
5
15E
100
AcDbEntity
8
2
62
256
6
ByLayer
370
13
48
1
60
0
100
AcDbDimension
2
DimnDraft3D2
10
32.48703
20
-24.340551
30
0
11
21.896469
21
-35.95916
31
0
70
34
71
5
72
1
41
1
210
0
220
0
230
1
3
Standard
100
AcDb2LineAngularDimension
13
34.34235
23
-24.425
33
0
14
34.34235
24
-22.8375
34
0
15
33.48368
25
-24.422341
35
0
16
18.586919
26
-39.008239
36
0
40
0
0
DIMENSION
5
173
100
AcDbEntity
8
2
62
256
6
ByLayer
370
13
48
1
60
0
100
AcDbDimension
2
DimnDraft3D3
10
34.34235
20
-52.675
30
0
11
11.652754
21
-52.675
31
0
70
32
71
5
72
1
41
1
210
0
220
0
230
1
3
Standard
100
AcDbAlignedDimension
13
0
23
-17.925
33
0
14
34.34235
24
-26.425
34
0
50
0
100
AcDbRotatedDimension
1001
ACAD
1000
DSTYLE
1002
{
1070
   279
1070
     0
1070
   172
1070
     1
1070
   173
1070
     1
1070
   340
1005
13F
1070
    77
1070
     1
1070
    73
1070
     0
1070
   171
1070
     3
1070
   274
1070
     4
1070
   177
1070
     2
1070
   176
1070
     2
1070
   178
1070
     7
1070
    78
1070
     8
1070
    41
1041
3.175
1070
   147
1041
2.25
1070
    42
1041
2.0
1070
    44
1041
2.0
1070
   140
1041
4.5
1070
   343
1005
15F
1070
   344
1005
15F
1002
}
0
DIMENSION
5
181
100
AcDbEntity
8
2
62
256
6
ByLayer
370
13
48
1
60
0
100
AcDbDimension
2
DimnDraft3D4
10
56.59235
20
-24.425
30
0
11
56.59235
21
-9.768421
31
0
70
32
71
5
72
1
41
1
210
0
220
0
230
1
3
Standard
100
AcDbAlignedDimension
13
2
23
15.925
33
0
14
36.34235
24
-24.425
34
0
50
90
100
AcDbRotatedDimension
1001
ACAD
1000
DSTYLE
1002
{
1070
    74
1070
     0
1070
   279
1070
     0
1070
   172
1070
     1
1070
   173
1070
     1
1070
   340
1005
13F
1070
    77
1070
     1
1070
    73
1070
     0
1070
   171
1070
     3
1070
   274
1070
     4
1070
   177
1070
     2
1070
   176
1070
     2
1070
   178
1070
     7
1070
    78
1070
     8
1070
    41
1041
3.175
1070
   147
1041
2.25
1070
    42
1041
2.0
1070
    44
1041
2.0
1070
   140
1041
4.5
1070
   343
1005
15F
1070
   344
1005
15F
1002
}
0
DIMENSION
5
18F
100
AcDbEntity
8
SK2
62
256
6
ByLayer
370
13
48
1
60
0
100
AcDbDimension
2
DimnDraft3D5
10
-144.75765
20
-15.925
30
0
11
-144.75765
21
-5.281579
31
0
70
32
71
5
72
1
41
1
210
0
220
0
230
1
3
Standard
100
AcDbAlignedDimension
13
-139.00765
23
15.925
33
0
14
-139.00765
24
-15.925
34
0
50
90
100
AcDbRotatedDimension
1001
ACAD
1000
DSTYLE
1002
{
1070
    74
1070
     0
1070
   279
1070
     0
1070
   172
1070
     1
1070
   173
1070
     1
1070
   340
1005
13F
1070
    77
1070
     1
1070
    73
1070
     0
1070
   171
1070
     3
1070
   274
1070
     4
1070
   177
1070
     2
1070
   176
1070
     2
1070
   178
1070
     7
1070
    78
1070
     8
1070
    41
1041
3.175
1070
   147
1041
2.25
1070
    42
1041
2.0
1070
    44
1041
2.0
1070
   140
1041
4.5
1070
   343
1005
15F
1070
   344
1005
15F
1002
}
0
ENDSEC
0
SECTION
2
OBJECTS
0
DICTIONARY
5
1f9
330
0
100
AcDbDictionary
280
0
281
1
3
ACAD_GROUP
350
1fa
3
ACAD_MLINESTYLE
350
1fb
0
DICTIONARY
5
1fa
330
0
100
AcDbDictionary
280
0
281
1
0
DICTIONARY
5
1fb
330
0
100
AcDbDictionary
280
0
281
1
3
Standard
350
18
0
MLINESTYLE
5
18
330
1fb
100
AcDbMlineStyle
2
Standard
70
0
3

62
256
51
90
52
90
71
2
49
-0.5
62
256
6
ByLayer
49
0.5
62
256
6
ByLayer
0
RASTERVARIABLES
5
1e8
330

100
AcDbRasterVariables
90
0
70
1
71
1
72
1
0
ENDSEC
0
EOF
