0
SECTION
2
HEADER
9
$ACADVER
1
AC1015
9
$DWGCODEPAGE
3
ANSI_1252
9
$HANDSEED
5
228
9
$ANGBASE
50
0
9
$ANGDIR
70
0
9
$ATTMODE
70
1
9
$AUNITS
70
0
9
$AUPREC
70
0
9
$CECOLOR
62
256
9
$CELTSCALE
40
1
9
$CELTYPE
6
ByLayer
9
$CELWEIGHT
370
18
9
$CLAYER
8
0
9
$CMLJUST
70
0
9
$CMLSCALE
40
1
9
$CMLSTYLE
2
Standard
9
$DIMSTYLE
2
Standard
9
$TEXTSIZE
40
0.2
9
$TEXTSTYLE
7
Standard
9
$LUNITS
70
2
9
$LUPREC
70
4
9
$EXTNAMES
290
1
9
$INSUNITS
70
4
9
$LTSCALE
40
1
9
$LWDISPLAY
290
1
9
$PDMODE
70
0
9
$PDSIZE
40
0
9
$PLINEGEN
70
0
0
ENDSEC
0
SECTION
2
CLASSES
0
CLASS
1
RASTERVARIABLES
2
AcDbRasterVariables
3
ISM
90
0
280
0
281
0
0
ENDSEC
0
SECTION
2
TABLES
0
TABLE
2
VPORT
5
21e
100
AcDbSymbolTable
0
VPORT
5
1
100
AcDbSymbolTableRecord
100
AcDbViewportTableRecord
2
*Active
70
0
10
0
20
0
11
1
21
1
12
-1
22
1
13
0
23
0
14
0.5
24
0.5
15
10
25
10
16
0
26
0
36
1
17
0
27
0
37
0
0
ENDTAB
0
TABLE
2
LTYPE
5
21f
100
AcDbSymbolTable
0
LTYPE
5
14
100
AcDbSymbolTableRecord
100
AcDbLinetypeTableRecord
70
0
2
ByBlock
3

72
65
73
0
40
0
0
LTYPE
5
15
100
AcDbSymbolTableRecord
100
AcDbLinetypeTableRecord
70
0
2
ByLayer
3

72
65
73
0
40
0
0
LTYPE
5
16
100
AcDbSymbolTableRecord
100
AcDbLinetypeTableRecord
70
0
2
CONTINUOUS
3
Solid line
72
65
73
0
40
0
0
LTYPE
5
6A
100
AcDbSymbolTableRecord
100
AcDbLinetypeTableRecord
70
0
2
CENTER
3
____ _ ____ _ ____ _ ____
72
65
73
4
40
47.5
49
22
74
0
49
-8.5
74
0
49
8.5
74
0
49
-8.5
74
0
0
LTYPE
5
6B
100
AcDbSymbolTableRecord
100
AcDbLinetypeTableRecord
70
0
2
DASHED
3
__ __ __ __ __ __ __ __ __
72
65
73
2
40
25.72
49
12.86
74
0
49
-12.86
74
0
0
ENDTAB
0
TABLE
2
LAYER
5
220
100
AcDbSymbolTable
0
LAYER
5
10
100
AcDbSymbolTableRecord
100
AcDbLayerTableRecord
2
0
70
0
62
7
6
CONTINUOUS
290
1
370
-3
390
0
0
LAYER
5
6D
100
AcDbSymbolTableRecord
100
AcDbLayerTableRecord
2
2
70
0
62
7
6
CONTINUOUS
290
1
370
-3
390
0
0
LAYER
5
6F
100
AcDbSymbolTableRecord
100
AcDbLayerTableRecord
2
80
70
0
62
-6
6
CONTINUOUS
290
1
370
-3
390
0
0
LAYER
5
71
100
AcDbSymbolTableRecord
100
AcDbLayerTableRecord
2
81
70
0
62
-3
6
CONTINUOUS
290
1
370
-3
390
0
0
LAYER
5
73
100
AcDbSymbolTableRecord
100
AcDbLayerTableRecord
2
1
70
0
62
4
6
CONTINUOUS
290
1
370
-3
390
0
0
LAYER
5
20b
100
AcDbSymbolTableRecord
100
AcDbLayerTableRecord
2
SK1
70
0
62
4
6
CONTINUOUS
290
1
370
-3
390
0
0
LAYER
5
20c
100
AcDbSymbolTableRecord
100
AcDbLayerTableRecord
2
SK6
70
0
62
5
6
CONTINUOUS
290
1
370
-3
390
0
0
LAYER
5
20d
100
AcDbSymbolTableRecord
100
AcDbLayerTableRecord
2
SK2
70
0
62
7
6
CONTINUOUS
290
1
370
-3
390
0
0
ENDTAB
0
TABLE
2
STYLE
5
221
100
AcDbSymbolTable
0
STYLE
5
11
100
AcDbSymbolTableRecord
100
AcDbTextStyleTableRecord
2
Standard
3
txt
70
0
71
0
40
0
41
1
42
0
50
0
0
STYLE
5
161
100
AcDbSymbolTableRecord
100
AcDbTextStyleTableRecord
2
iso_b_vert
3
simplex.shx
70
0
71
0
40
0
41
1
42
0
50
0
0
STYLE
5
162
100
AcDbSymbolTableRecord
100
AcDbTextStyleTableRecord
2
DWGDirectTextStyle
3
simplex
70
0
71
0
40
0
41
1
42
0
50
0
0
ENDTAB
0
TABLE
2
DIMSTYLE
5
222
100
AcDbSymbolTable
100
AcDbDimStyleTable
0
DIMSTYLE
105
27
100
AcDbSymbolTableRecord
100
AcDbDimStyleTableRecord
2
Standard
70
0
3
<>
41
0.18
42
0.0625
44
0.18
140
0.18
147
0.09
73
0
74
0
77
1
271
2
275
0
278
52
280
0
340
11
0
ENDTAB
0
TABLE
2
VIEW
5
223
100
AcDbSymbolTable
0
ENDTAB
0
TABLE
2
UCS
5
224
100
AcDbSymbolTable
0
ENDTAB
0
TABLE
2
APPID
5
225
100
AcDbSymbolTable
0
APPID
5
12
100
AcDbSymbolTableRecord
100
AcDbRegAppTableRecord
2
ACAD
70
0
0
ENDTAB
0
TABLE
2
BLOCK_RECORD
5
226
100
AcDbSymbolTable
0
BLOCK_RECORD
5
1F
100
AcDbSymbolTableRecord
100
AcDbBlockTableRecord
2
*Model_Space
340
0
70
0
0
BLOCK_RECORD
5
1B
100
AcDbSymbolTableRecord
100
AcDbBlockTableRecord
2
*Paper_Space
340
0
70
0
0
BLOCK_RECORD
5
23
100
AcDbSymbolTableRecord
100
AcDbBlockTableRecord
2
*Paper_Space0
340
0
70
0
0
BLOCK_RECORD
5
164
100
AcDbSymbolTableRecord
100
AcDbBlockTableRecord
2
DimnDraft3D1
340
0
70
0
0
BLOCK_RECORD
5
172
100
AcDbSymbolTableRecord
100
AcDbBlockTableRecord
2
_CLOSED
340
0
70
0
0
BLOCK_RECORD
5
179
100
AcDbSymbolTableRecord
100
AcDbBlockTableRecord
2
DimnDraft3D2
340
0
70
0
0
BLOCK_RECORD
5
188
100
AcDbSymbolTableRecord
100
AcDbBlockTableRecord
2
DimnDraft3D3
340
0
70
0
0
BLOCK_RECORD
5
196
100
AcDbSymbolTableRecord
100
AcDbBlockTableRecord
2
DimnDraft3D4
340
0
70
0
0
BLOCK_RECORD
5
1A4
100
AcDbSymbolTableRecord
100
AcDbBlockTableRecord
2
DimnDraft3D5
340
0
70
0
0
ENDTAB
0
ENDSEC
0
SECTION
2
BLOCKS
0
BLOCK
5
20
100
AcDbEntity
8
0
100
AcDbBlockBegin
2
*Model_Space
70
0
10
0
20
0
30
0
3
*Model_Space
0
ENDBLK
5
21
100
AcDbEntity
8
0
100
AcDbBlockEnd
0
BLOCK
5
1C
100
AcDbEntity
8
0
100
AcDbBlockBegin
2
*Paper_Space
70
0
10
0
20
0
30
0
3
*Paper_Space
0
ENDBLK
5
1D
100
AcDbEntity
8
0
100
AcDbBlockEnd
0
BLOCK
5
24
100
AcDbEntity
8
0
100
AcDbBlockBegin
2
*Paper_Space0
70
0
10
0
20
0
30
0
3
*Paper_Space0
0
ENDBLK
5
25
100
AcDbEntity
8
0
100
AcDbBlockEnd
0
BLOCK
5
16F
100
AcDbEntity
8
0
100
AcDbBlockBegin
2
DimnDraft3D1
70
0
10
0
20
0
30
0
3
DimnDraft3D1
0
MTEXT
5
165
100
AcDbEntity
8
2
62
256
6
ByLayer
370
18
48
1
60
0
100
AcDbMText
10
16.691106
20
25.169575
30
0
210
0
220
0
230
1
1
\W0.6809;117%%d30'
40
4.5
41
0
44
1.084337
50
58.7500000000001
71
7
72
5
7
iso_b_vert
0
LINE
5
166
100
AcDbEntity
8
2
62
256
6
ByLayer
370
13
48
1
60
0
100
AcDbLine
10
39.219028
20
21.9125
30
0
11
39.219028
21
43.021617
31
0
39
0
210
0
220
0
230
1
0
LINE
5
167
100
AcDbEntity
8
2
62
256
6
ByLayer
370
13
48
1
60
0
100
AcDbLine
10
35.397732
20
18.437569
30
0
11
19.177189
21
9.993688
31
0
39
0
210
0
220
0
230
1
0
ARC
5
168
100
AcDbEntity
8
2
62
256
6
ByLayer
370
13
48
1
60
0
100
AcDbCircle
39
0
10
39.219028
20
20.42681
30
0
40
20.5948076629831
210
0
220
0
230
1
100
AcDbArc
50
90
51
207.5
0
LINE
5
169
100
AcDbEntity
8
2
62
256
6
ByLayer
370
13
48
1
60
0
100
AcDbLine
10
39.219028
20
41.021617
30
0
11
36.062452
21
40.481833
31
0
39
0
210
0
220
0
230
1
0
LINE
5
16A
100
AcDbEntity
8
2
62
256
6
ByLayer
370
13
48
1
60
0
100
AcDbLine
10
39.219028
20
41.021617
30
0
11
36.0303
21
41.317208
31
0
39
0
210
0
220
0
230
1
0
LINE
5
16B
100
AcDbEntity
8
2
62
256
6
ByLayer
370
13
48
1
60
0
100
AcDbLine
10
36.062452
20
40.481833
30
0
11
36.0303
21
41.317208
31
0
39
0
210
0
220
0
230
1
0
LINE
5
16C
100
AcDbEntity
8
2
62
256
6
ByLayer
370
13
48
1
60
0
100
AcDbLine
10
20.95121
20
10.917186
30
0
11
19.216629
21
13.60913
31
0
39
0
210
0
220
0
230
1
0
LINE
5
16D
100
AcDbEntity
8
2
62
256
6
ByLayer
370
13
48
1
60
0
100
AcDbLine
10
20.95121
20
10.917186
30
0
11
19.972459
21
13.96635
31
0
39
0
210
0
220
0
230
1
0
LINE
5
16E
100
AcDbEntity
8
2
62
256
6
ByLayer
370
13
48
1
60
0
100
AcDbLine
10
19.216629
20
13.60913
30
0
11
19.972459
21
13.96635
31
0
39
0
210
0
220
0
230
1
0
ENDBLK
5
170
100
AcDbEntity
8
0
100
AcDbBlockEnd
0
BLOCK
5
173
100
AcDbEntity
8
0
100
AcDbBlockBegin
2
_CLOSED
70
0
10
0
20
0
30
0
3
_CLOSED
0
LINE
5
175
100
AcDbEntity
8
0
62
256
6
ByLayer
370
-2
48
1
60
0
100
AcDbLine
10
-1
20
0.166667
30
0
11
0
21
0
31
0
39
0
210
0
220
0
230
1
0
LINE
5
176
100
AcDbEntity
8
0
62
256
6
ByLayer
370
-2
48
1
60
0
100
AcDbLine
10
0
20
0
30
0
11
-1
21
-0.166667
31
0
39
0
210
0
220
0
230
1
0
LINE
5
177
100
AcDbEntity
8
0
62
256
6
ByLayer
370
-2
48
1
60
0
100
AcDbLine
10
-1
20
0.166667
30
0
11
-1
21
-0.166667
31
0
39
0
210
0
220
0
230
1
0
LINE
5
178
100
AcDbEntity
8
0
62
256
6
ByLayer
370
-2
48
1
60
0
100
AcDbLine
10
0
20
0
30
0
11
-1
21
0
31
0
39
0
210
0
220
0
230
1
0
ENDBLK
5
174
100
AcDbEntity
8
0
100
AcDbBlockEnd
0
BLOCK
5
185
100
AcDbEntity
8
0
100
AcDbBlockBegin
2
DimnDraft3D2
70
0
10
0
20
0
30
0
3
DimnDraft3D2
0
MTEXT
5
17A
100
AcDbEntity
8
SK2
62
256
6
ByLayer
370
18
48
1
60
0
100
AcDbMText
10
-141.005972
20
-4.156579
30
0
210
0
220
0
230
1
1
\W0.7346;25.0
40
4.5
41
0
44
1.084337
50
90
71
7
72
5
7
iso_b_vert
0
LINE
5
17C
100
AcDbEntity
8
SK2
62
256
6
ByLayer
370
13
48
1
60
0
100
AcDbLine
10
-134.130972
20
-12.4375
30
0
11
-141.880972
21
-12.4375
31
0
39
0
210
0
220
0
230
1
0
LINE
5
17D
100
AcDbEntity
8
SK2
62
256
6
ByLayer
370
13
48
1
60
0
100
AcDbLine
10
-134.130972
20
12.4375
30
0
11
-141.880972
21
12.4375
31
0
39
0
210
0
220
0
230
1
0
LINE
5
17E
100
AcDbEntity
8
SK2
62
256
6
ByLayer
370
13
48
1
60
0
100
AcDbLine
10
-139.880972
20
-12.4375
30
0
11
-139.880972
21
12.4375
31
0
39
0
210
0
220
0
230
1
0
LINE
5
17F
100
AcDbEntity
8
SK2
62
256
6
ByLayer
370
13
48
1
60
0
100
AcDbLine
10
-139.880972
20
-12.4375
30
0
11
-140.298969
21
-9.262502
31
0
39
0
210
0
220
0
230
1
0
LINE
5
180
100
AcDbEntity
8
SK2
62
256
6
ByLayer
370
13
48
1
60
0
100
AcDbLine
10
-139.880972
20
-12.4375
30
0
11
-139.462976
21
-9.262498
31
0
39
0
210
0
220
0
230
1
0
LINE
5
181
100
AcDbEntity
8
SK2
62
256
6
ByLayer
370
13
48
1
60
0
100
AcDbLine
10
-140.298969
20
-9.262502
30
0
11
-139.462976
21
-9.262498
31
0
39
0
210
0
220
0
230
1
0
LINE
5
182
100
AcDbEntity
8
SK2
62
256
6
ByLayer
370
13
48
1
60
0
100
AcDbLine
10
-139.880972
20
12.4375
30
0
11
-139.462976
21
9.262502
31
0
39
0
210
0
220
0
230
1
0
LINE
5
183
100
AcDbEntity
8
SK2
62
256
6
ByLayer
370
13
48
1
60
0
100
AcDbLine
10
-139.880972
20
12.4375
30
0
11
-140.298969
21
9.262498
31
0
39
0
210
0
220
0
230
1
0
LINE
5
184
100
AcDbEntity
8
SK2
62
256
6
ByLayer
370
13
48
1
60
0
100
AcDbLine
10
-139.462976
20
9.262502
30
0
11
-140.298969
21
9.262498
31
0
39
0
210
0
220
0
230
1
0
ENDBLK
5
186
100
AcDbEntity
8
0
100
AcDbBlockEnd
0
BLOCK
5
193
100
AcDbEntity
8
0
100
AcDbBlockBegin
2
DimnDraft3D3
70
0
10
0
20
0
30
0
3
DimnDraft3D3
0
MTEXT
5
189
100
AcDbEntity
8
2
62
256
6
ByLayer
370
18
48
1
60
0
100
AcDbMText
10
60.344028
20
-0.419079
30
0
210
0
220
0
230
1
1
\W0.7346;32.0
40
4.5
41
0
44
1.084337
50
90
71
7
72
5
7
iso_b_vert
0
LINE
5
18A
100
AcDbEntity
8
2
62
256
6
ByLayer
370
13
48
1
60
0
100
AcDbLine
10
2
20
-12.4375
30
0
11
63.469028
21
-12.4375
31
0
39
0
210
0
220
0
230
1
0
LINE
5
18B
100
AcDbEntity
8
2
62
256
6
ByLayer
370
13
48
1
60
0
100
AcDbLine
10
41.219028
20
19.9125
30
0
11
63.469028
21
19.9125
31
0
39
0
210
0
220
0
230
1
0
LINE
5
18C
100
AcDbEntity
8
2
62
256
6
ByLayer
370
13
48
1
60
0
100
AcDbLine
10
61.469028
20
-12.4375
30
0
11
61.469028
21
19.9125
31
0
39
0
210
0
220
0
230
1
0
LINE
5
18D
100
AcDbEntity
8
2
62
256
6
ByLayer
370
13
48
1
60
0
100
AcDbLine
10
61.469028
20
-12.4375
30
0
11
61.051031
21
-9.262502
31
0
39
0
210
0
220
0
230
1
0
LINE
5
18E
100
AcDbEntity
8
2
62
256
6
ByLayer
370
13
48
1
60
0
100
AcDbLine
10
61.469028
20
-12.4375
30
0
11
61.887024
21
-9.262498
31
0
39
0
210
0
220
0
230
1
0
LINE
5
18F
100
AcDbEntity
8
2
62
256
6
ByLayer
370
13
48
1
60
0
100
AcDbLine
10
61.051031
20
-9.262502
30
0
11
61.887024
21
-9.262498
31
0
39
0
210
0
220
0
230
1
0
LINE
5
190
100
AcDbEntity
8
2
62
256
6
ByLayer
370
13
48
1
60
0
100
AcDbLine
10
61.469028
20
19.9125
30
0
11
61.887024
21
16.737502
31
0
39
0
210
0
220
0
230
1
0
LINE
5
191
100
AcDbEntity
8
2
62
256
6
ByLayer
370
13
48
1
60
0
100
AcDbLine
10
61.469028
20
19.9125
30
0
11
61.051031
21
16.737498
31
0
39
0
210
0
220
0
230
1
0
LINE
5
192
100
AcDbEntity
8
2
62
256
6
ByLayer
370
13
48
1
60
0
100
AcDbLine
10
61.887024
20
16.737502
30
0
11
61.051031
21
16.737498
31
0
39
0
210
0
220
0
230
1
0
ENDBLK
5
194
100
AcDbEntity
8
0
100
AcDbBlockEnd
0
BLOCK
5
1A1
100
AcDbEntity
8
0
100
AcDbBlockBegin
2
DimnDraft3D4
70
0
10
0
20
0
30
0
3
DimnDraft3D4
0
MTEXT
5
197
100
AcDbEntity
8
2
62
256
6
ByLayer
370
18
48
1
60
0
100
AcDbMText
10
15.452935
20
50.7875
30
0
210
0
220
0
230
1
1
\W0.7346;39.2
40
4.5
41
0
44
1.084337
50
0
71
7
72
5
7
iso_b_vert
0
LINE
5
198
100
AcDbEntity
8
2
62
256
6
ByLayer
370
13
48
1
60
0
100
AcDbLine
10
0
20
14.4375
30
0
11
0
21
51.6625
31
0
39
0
210
0
220
0
230
1
0
LINE
5
199
100
AcDbEntity
8
2
62
256
6
ByLayer
370
13
48
1
60
0
100
AcDbLine
10
39.219028
20
21.9125
30
0
11
39.219028
21
51.6625
31
0
39
0
210
0
220
0
230
1
0
LINE
5
19A
100
AcDbEntity
8
2
62
256
6
ByLayer
370
13
48
1
60
0
100
AcDbLine
10
0
20
49.6625
30
0
11
39.219028
21
49.6625
31
0
39
0
210
0
220
0
230
1
0
LINE
5
19B
100
AcDbEntity
8
2
62
256
6
ByLayer
370
13
48
1
60
0
100
AcDbLine
10
0
20
49.6625
30
0
11
3.174998
21
50.080497
31
0
39
0
210
0
220
0
230
1
0
LINE
5
19C
100
AcDbEntity
8
2
62
256
6
ByLayer
370
13
48
1
60
0
100
AcDbLine
10
0
20
49.6625
30
0
11
3.175002
21
49.244503
31
0
39
0
210
0
220
0
230
1
0
LINE
5
19D
100
AcDbEntity
8
2
62
256
6
ByLayer
370
13
48
1
60
0
100
AcDbLine
10
3.174998
20
50.080497
30
0
11
3.175002
21
49.244503
31
0
39
0
210
0
220
0
230
1
0
LINE
5
19E
100
AcDbEntity
8
2
62
256
6
ByLayer
370
13
48
1
60
0
100
AcDbLine
10
39.219028
20
49.6625
30
0
11
36.044029
21
49.244503
31
0
39
0
210
0
220
0
230
1
0
LINE
5
19F
100
AcDbEntity
8
2
62
256
6
ByLayer
370
13
48
1
60
0
100
AcDbLine
10
39.219028
20
49.6625
30
0
11
36.044026
21
50.080497
31
0
39
0
210
0
220
0
230
1
0
LINE
5
1A0
100
AcDbEntity
8
2
62
256
6
ByLayer
370
13
48
1
60
0
100
AcDbLine
10
36.044029
20
49.244503
30
0
11
36.044026
21
50.080497
31
0
39
0
210
0
220
0
230
1
0
ENDBLK
5
1A2
100
AcDbEntity
8
0
100
AcDbBlockEnd
0
BLOCK
5
1AF
100
AcDbEntity
8
0
100
AcDbBlockBegin
2
DimnDraft3D5
70
0
10
0
20
0
30
0
3
DimnDraft3D5
0
MTEXT
5
1A5
100
AcDbEntity
8
SK2
62
256
6
ByLayer
370
18
48
1
60
0
100
AcDbMText
10
-51.73163
20
60.7875
30
0
210
0
220
0
230
1
1
\W0.6864;170.0
40
4.5
41
0
44
1.084337
50
0
71
7
72
5
7
iso_b_vert
0
LINE
5
1A6
100
AcDbEntity
8
SK2
62
256
6
ByLayer
370
13
48
1
60
0
100
AcDbLine
10
39.219028
20
21.9125
30
0
11
39.219028
21
61.6625
31
0
39
0
210
0
220
0
230
1
0
LINE
5
1A7
100
AcDbEntity
8
SK2
62
256
6
ByLayer
370
13
48
1
60
0
100
AcDbLine
10
-132.130972
20
14.4375
30
0
11
-132.130972
21
61.6625
31
0
39
0
210
0
220
0
230
1
0
LINE
5
1A8
100
AcDbEntity
8
SK2
62
256
6
ByLayer
370
13
48
1
60
0
100
AcDbLine
10
39.219028
20
59.6625
30
0
11
-132.130972
21
59.6625
31
0
39
0
210
0
220
0
230
1
0
LINE
5
1A9
100
AcDbEntity
8
SK2
62
256
6
ByLayer
370
13
48
1
60
0
100
AcDbLine
10
39.219028
20
59.6625
30
0
11
36.044029
21
59.244503
31
0
39
0
210
0
220
0
230
1
0
LINE
5
1AA
100
AcDbEntity
8
SK2
62
256
6
ByLayer
370
13
48
1
60
0
100
AcDbLine
10
39.219028
20
59.6625
30
0
11
36.044026
21
60.080497
31
0
39
0
210
0
220
0
230
1
0
LINE
5
1AB
100
AcDbEntity
8
SK2
62
256
6
ByLayer
370
13
48
1
60
0
100
AcDbLine
10
36.044029
20
59.244503
30
0
11
36.044026
21
60.080497
31
0
39
0
210
0
220
0
230
1
0
LINE
5
1AC
100
AcDbEntity
8
SK2
62
256
6
ByLayer
370
13
48
1
60
0
100
AcDbLine
10
-132.130972
20
59.6625
30
0
11
-128.955974
21
60.080497
31
0
39
0
210
0
220
0
230
1
0
LINE
5
1AD
100
AcDbEntity
8
SK2
62
256
6
ByLayer
370
13
48
1
60
0
100
AcDbLine
10
-132.130972
20
59.6625
30
0
11
-128.955971
21
59.244503
31
0
39
0
210
0
220
0
230
1
0
LINE
5
1AE
100
AcDbEntity
8
SK2
62
256
6
ByLayer
370
13
48
1
60
0
100
AcDbLine
10
-128.955974
20
60.080497
30
0
11
-128.955971
21
59.244503
31
0
39
0
210
0
220
0
230
1
0
ENDBLK
5
1B0
100
AcDbEntity
8
0
100
AcDbBlockEnd
0
ENDSEC
0
SECTION
2
ENTITIES
0
ELLIPSE
5
DC
100
AcDbEntity
8
1
62
256
6
ByLayer
370
18
48
1
60
0
100
AcDbEllipse
10
7.560394
20
0.298542
30
0
11
2.12290441978204
21
-2.11973508355876
31
0
210
0
220
0
230
1
40
0.965976
41
-0.123156309823624
42
-0.034682070194778
0
ELLIPSE
5
DD
100
AcDbEntity
8
1
62
256
6
ByLayer
370
18
48
1
60
0
100
AcDbEllipse
10
15.988092
20
-0.255952
30
0
11
-2.93668444736513
21
2.93230019892298
31
0
210
0
220
0
230
1
40
0.965976
41
-3.04311944675076
42
-0.123156309823624
0
ELLIPSE
5
DE
100
AcDbEntity
8
1
62
256
6
ByLayer
370
18
48
1
60
0
100
AcDbEllipse
10
14.360138
20
-1.51602
30
0
11
-1.83985049714442
21
1.83710373908428
31
0
210
0
220
0
230
1
40
0.965976
41
1.2422583628233
42
1.65832312639636
0
ELLIPSE
5
DF
100
AcDbEntity
8
1
62
256
6
ByLayer
370
18
48
1
60
0
100
AcDbEllipse
10
14.042565
20
-2.100886
30
0
11
1.39204673231644
21
-1.36554234465545
31
0
210
0
220
0
230
1
40
0.970308
41
-1.81100447655697
42
-1.72804701839771
0
ELLIPSE
5
E0
100
AcDbEntity
8
1
62
256
6
ByLayer
370
18
48
1
60
0
100
AcDbEllipse
10
30.559104
20
9.361782
30
0
11
-0.786254706154955
21
0.147660208076465
31
0
210
0
220
0
230
1
40
0.633191
41
3.05326527656183
42
3.13575885596271
0
ELLIPSE
5
E1
100
AcDbEntity
8
1
62
256
6
ByLayer
370
18
48
1
60
0
100
AcDbEllipse
10
31.622545
20
6.257601
30
0
11
-0.566634407064707
21
0.555845762087315
31
0
210
0
220
0
230
1
40
0.970308
41
2.83532104415521
42
3.14158399193958
0
ELLIPSE
5
E2
100
AcDbEntity
8
1
62
256
6
ByLayer
370
18
48
1
60
0
100
AcDbEllipse
10
25.685965
20
12.09064
30
0
11
-0.566634407064707
21
0.555845762087315
31
0
210
0
220
0
230
1
40
0.970308
41
-8.18707876124827E-06
42
0.304593628763497
0
ELLIPSE
5
E3
100
AcDbEntity
8
1
62
256
6
ByLayer
370
18
48
1
60
0
100
AcDbEllipse
10
14.479376
20
0.000704
30
0
11
-0.271270645271923
21
0.266105687676447
31
0
210
0
220
0
230
1
40
0.970308
41
-1.02561085322926
42
-0.83004330827206
0
ELLIPSE
5
E4
100
AcDbEntity
8
1
62
256
6
ByLayer
370
18
48
1
60
0
100
AcDbEllipse
10
15.455202
20
-0.660831
30
0
11
2.85548047654655
21
-2.80111250185734
31
0
210
0
220
0
230
1
40
0.970308
41
3.14151969505636
42
-0.810070524075155
0
ELLIPSE
5
E5
100
AcDbEntity
8
1
62
256
6
ByLayer
370
18
48
1
60
0
100
AcDbEllipse
10
15.455202
20
-0.660831
30
0
11
2.85548047654655
21
-2.80111250185734
31
0
210
0
220
0
230
1
40
0.970308
41
-0.810070524075142
42
-2.57444214147116E-16
0
ELLIPSE
5
E6
100
AcDbEntity
8
1
62
256
6
ByLayer
370
18
48
1
60
0
100
AcDbEllipse
10
16.617037
20
-1.728873
30
0
11
0.303394800633071
21
-0.297618203322343
31
0
210
0
220
0
230
1
40
0.970308
41
3.14158889476163
42
-2.44012946644357
0
ELLIPSE
5
E7
100
AcDbEntity
8
1
62
256
6
ByLayer
370
18
48
1
60
0
100
AcDbEllipse
10
14.649058
20
0.769806
30
0
11
0.303394800633071
21
-0.297618203322343
31
0
210
0
220
0
230
1
40
0.970308
41
-1.02561085322931
42
-3.12314612534866E-06
0
ELLIPSE
5
E8
100
AcDbEntity
8
1
62
256
6
ByLayer
370
18
48
1
60
0
100
AcDbEllipse
10
16.786719
20
-0.959771
30
0
11
-0.271270645271923
21
0.266105687676447
31
0
210
0
220
0
230
1
40
0.970308
41
-2.31155769860283
42
-1.33226161763409
0
ELLIPSE
5
E9
100
AcDbEntity
8
1
62
256
6
ByLayer
370
18
48
1
60
0
100
AcDbEllipse
10
15.442426
20
0.747034
30
0
11
-0.271270645271923
21
0.266105687676447
31
0
210
0
220
0
230
1
40
0.970308
41
-2.07280840442594
42
-0.825698985757078
0
ELLIPSE
5
EA
100
AcDbEntity
8
1
62
256
6
ByLayer
370
18
48
1
60
0
100
AcDbEllipse
10
15.633047
20
-0.479533
30
0
11
0.820950637007132
21
-0.805319844283986
31
0
210
0
220
0
230
1
40
0.970308
41
-0.532572756201171
42
-2.48738371156634E-16
0
ELLIPSE
5
EB
100
AcDbEntity
8
1
62
256
6
ByLayer
370
18
48
1
60
0
100
AcDbEllipse
10
15.633047
20
-0.479533
30
0
11
0.820950637007132
21
-0.805319844283986
31
0
210
0
220
0
230
1
40
0.970308
41
0
42
-2.88189474160376
0
ELLIPSE
5
EC
100
AcDbEntity
8
1
62
256
6
ByLayer
370
18
48
1
60
0
100
AcDbEllipse
10
15.489077
20
-0.626298
30
0
11
0.820950637007132
21
-0.805319844283986
31
0
210
0
220
0
230
1
40
0.970308
41
0.0922114309060551
42
3.04943220526947
0
ELLIPSE
5
ED
100
AcDbEntity
8
1
62
256
6
ByLayer
370
18
48
1
60
0
100
AcDbEllipse
10
30.674497
20
10.066785
30
0
11
-0.791510023912319
21
0.116240621326286
31
0
210
0
220
0
230
1
40
0.871401
41
3.0058763740594
42
-3.14150262725974
0
ELLIPSE
5
EE
100
AcDbEntity
8
1
62
256
6
ByLayer
370
18
48
1
60
0
100
AcDbEllipse
10
8.114965
20
-1.029133
30
0
11
0.486913215814112
21
-1.93982357967563
31
0
210
0
220
0
230
1
40
0.760068
41
-2.70308330237915
42
-1.42906848243265
0
ELLIPSE
5
EF
100
AcDbEntity
8
1
62
256
6
ByLayer
370
18
48
1
60
0
100
AcDbEllipse
10
11.334212
20
-0.676579
30
0
11
4.32077299985683
21
3.40307518043728
31
0
210
0
220
0
230
1
40
0.031772
41
1.86288922628205
42
2.40716127761668
0
ELLIPSE
5
F0
100
AcDbEntity
8
1
62
256
6
ByLayer
370
18
48
1
60
0
100
AcDbEllipse
10
14.55004
20
-4.759611
30
0
11
4.32077299985683
21
3.40307518043728
31
0
210
0
220
0
230
1
40
0.031772
41
1.86288922628205
42
2.40716127761662
0
ELLIPSE
5
F1
100
AcDbEntity
8
1
62
256
6
ByLayer
370
18
48
1
60
0
100
AcDbEllipse
10
15.916562
20
-5.395505
30
0
11
-1.55631588203112
21
-4.87993947613048
31
0
210
0
220
0
230
1
40
0.36839
41
0.171324173892982
42
0.491463916740704
0
ELLIPSE
5
F2
100
AcDbEntity
8
1
62
256
6
ByLayer
370
18
48
1
60
0
100
AcDbEllipse
10
7.31404
20
-1.975952
30
0
11
-2.22912711966749
21
2.00849719118181
31
0
210
0
220
0
230
1
40
0.977262
41
0.340275023259575
42
1.39663653409184
0
ELLIPSE
5
F3
100
AcDbEntity
8
1
62
256
6
ByLayer
370
18
48
1
60
0
100
AcDbEllipse
10
12.50884
20
-8.57162
30
0
11
-2.22912711962785
21
2.00849719122741
31
0
210
0
220
0
230
1
40
0.977262
41
1.39663653411268
42
2.4529980449445
0
ELLIPSE
5
F4
100
AcDbEntity
8
1
62
256
6
ByLayer
370
18
48
1
60
0
100
AcDbEllipse
10
17.146374
20
-7.811494
30
0
11
-2.55109942040204
21
-2.41470234437049
31
0
210
0
220
0
230
1
40
0.351752
41
-0.70027096966284
42
0.096992703330558
0
ELLIPSE
5
F5
100
AcDbEntity
8
1
62
256
6
ByLayer
370
18
48
1
60
0
100
AcDbEllipse
10
10.721762
20
1.200162
30
0
11
-4.81999647832675
21
-0.835239854343206
31
0
210
0
220
0
230
1
40
0.331453
41
-0.5584975386042
42
-0.238357795770263
0
ELLIPSE
5
F6
100
AcDbEntity
8
1
62
256
6
ByLayer
370
18
48
1
60
0
100
AcDbEllipse
10
8.951586
20
2.593161
30
0
11
-2.93707779960278
21
-1.92575261897299
31
0
210
0
220
0
230
1
40
0.288759
41
-0.103889717214996
42
0.693373955774908
0
ELLIPSE
5
F7
100
AcDbEntity
8
1
62
256
6
ByLayer
370
18
48
1
60
0
100
AcDbEllipse
10
13.367704
20
-7.698364
30
0
11
1.82824732396721
21
-0.810870965324783
31
0
210
0
220
0
230
1
40
0.741658
41
-1.79903922846756
42
-0.525024408520356
0
ELLIPSE
5
F8
100
AcDbEntity
8
1
62
256
6
ByLayer
370
18
48
1
60
0
100
AcDbEllipse
10
27.542301
20
5.119818
30
0
11
-2.71078438329181
21
-0.164700014960056
31
0
210
0
220
0
230
1
40
0.380077
41
2.44141797923998
42
2.81268899801261
0
ELLIPSE
5
F9
100
AcDbEntity
8
1
62
256
6
ByLayer
370
18
48
1
60
0
100
AcDbEllipse
10
12.526118
20
-12.025777
30
0
11
-0.700891971767251
21
-0.402987674899641
31
0
210
0
220
0
230
1
40
0.066362
41
1.33825005101322
42
2.90904637781743
0
ELLIPSE
5
FA
100
AcDbEntity
8
1
62
256
6
ByLayer
370
18
48
1
60
0
100
AcDbEllipse
10
2.193084
20
1.093738
30
0
11
-0.054998462414904
21
1.33296588373314
31
0
210
0
220
0
230
1
40
0.157974
41
0.0271004083327488
42
1.59789673512681
0
ELLIPSE
5
FB
100
AcDbEntity
8
1
62
256
6
ByLayer
370
18
48
1
60
0
100
AcDbEllipse
10
20.310034
20
21.448158
30
0
11
7.28147521519371
21
-7.14283687973623
31
0
210
0
220
0
230
1
40
0.970308
41
-0.898799662259952
42
-0.340214977436959
0
ELLIPSE
5
FC
100
AcDbEntity
8
1
62
256
6
ByLayer
370
18
48
1
60
0
100
AcDbEllipse
10
41.071939
20
1.048364
30
0
11
7.28147521519371
21
-7.14283687973623
31
0
210
0
220
0
230
1
40
0.970308
41
-2.80765339478967
42
-2.20006264120505
0
ELLIPSE
5
FD
100
AcDbEntity
8
SK1
62
256
6
ByLayer
370
18
48
1
60
0
100
AcDbEllipse
10
-0.651597
20
22.675035
30
0
11
7.36140864789548
21
7.50428933504407
31
0
210
0
220
0
230
-1
40
0.970308
41
2.46959598904932
42
2.53492438772163
0
ELLIPSE
5
FE
100
AcDbEntity
8
1
62
256
6
ByLayer
370
18
48
1
60
0
100
AcDbEllipse
10
26.492623
20
12.912954
30
0
11
-0.566634407064707
21
0.555845762087315
31
0
210
0
220
0
230
1
40
0.970308
41
-0.306271609434558
42
0.304593628763507
0
ELLIPSE
5
FF
100
AcDbEntity
8
1
62
256
6
ByLayer
370
18
48
1
60
0
100
AcDbEllipse
10
38.436746
20
19.130672
30
0
11
-0.566634407064707
21
0.555845762087315
31
0
210
0
220
0
230
1
40
0.970308
41
-2.83699902482629
42
-0.306271609434459
0
ELLIPSE
5
100
100
AcDbEntity
8
1
62
256
6
ByLayer
370
18
48
1
60
0
100
AcDbEllipse
10
32.429203
20
7.079915
30
0
11
-0.566634407064707
21
0.555845762087315
31
0
210
0
220
0
230
1
40
0.970308
41
2.83532104415525
42
-2.83699902482637
0
ELLIPSE
5
101
100
AcDbEntity
8
1
62
256
6
ByLayer
370
18
48
1
60
0
100
AcDbEllipse
10
15.867331
20
-0.240703
30
0
11
-2.85548047654656
21
2.80111250185733
31
0
210
0
220
0
230
1
40
0.970308
41
0
42
6.28318530717959
0
ELLIPSE
5
102
100
AcDbEntity
8
1
62
256
6
ByLayer
370
18
48
1
60
0
100
AcDbEllipse
10
17.167817
20
-0.571276
30
0
11
-0.271270645271923
21
0.266105687676447
31
0
210
0
220
0
230
1
40
0.970308
41
2.1159818003604
42
-1.33226161763401
0
ELLIPSE
5
103
100
AcDbEntity
8
1
62
256
6
ByLayer
370
18
48
1
60
0
100
AcDbEllipse
10
16.579544
20
1.353074
30
0
11
0.303394800633071
21
-0.297618203322343
31
0
210
0
220
0
230
1
40
0.970308
41
-1.00330051688332
42
-0.285064066437606
0
ELLIPSE
5
104
100
AcDbEntity
8
1
62
256
6
ByLayer
370
18
48
1
60
0
100
AcDbEllipse
10
15.448747
20
-1.535151
30
0
11
0.303394800633071
21
-0.297618203322343
31
0
210
0
220
0
230
1
40
0.970308
41
1.06878424916386
42
1.78702069960964
0
ELLIPSE
5
105
100
AcDbEntity
8
1
62
256
6
ByLayer
370
18
48
1
60
0
100
AcDbEllipse
10
16.977195
20
0.655291
30
0
11
-0.271270645271923
21
0.266105687676447
31
0
210
0
220
0
230
1
40
0.970308
41
-3.12000595562244
42
-0.285064066437554
0
ELLIPSE
5
106
100
AcDbEntity
8
1
62
256
6
ByLayer
370
18
48
1
60
0
100
AcDbEllipse
10
15.030156
20
1.158301
30
0
11
0.303394800633071
21
-0.297618203322343
31
0
210
0
220
0
230
1
40
0.970308
41
0.0438970343132904
42
0.762133484759051
0
ELLIPSE
5
107
100
AcDbEntity
8
1
62
256
6
ByLayer
370
18
48
1
60
0
100
AcDbEllipse
10
17.563534
20
0.103735
30
0
11
0.303394800633071
21
-0.297618203322343
31
0
210
0
220
0
230
1
40
0.970308
41
-3.12000595562256
42
-2.40176950517679
0
ELLIPSE
5
108
100
AcDbEntity
8
1
62
256
6
ByLayer
370
18
48
1
60
0
100
AcDbEllipse
10
16.998135
20
-1.340378
30
0
11
0.303394800633071
21
-0.297618203322343
31
0
210
0
220
0
230
1
40
0.970308
41
-3.0976956192766
42
-2.37945916883075
0
ELLIPSE
5
109
100
AcDbEntity
8
1
62
256
6
ByLayer
370
18
48
1
60
0
100
AcDbEllipse
10
16.014145
20
-0.091038
30
0
11
0.838797389985548
21
-0.822826797420595
31
0
210
0
220
0
230
1
40
0.970308
41
2.94661011765597
42
3.07309782105336
0
ELLIPSE
5
10A
100
AcDbEntity
8
1
62
256
6
ByLayer
370
18
48
1
60
0
100
AcDbEllipse
10
16.998135
20
-1.340378
30
0
11
0.303394800633071
21
-0.297618203322343
31
0
210
0
220
0
230
1
40
0.970308
41
2.11598180036036
42
2.83421825080616
0
ELLIPSE
5
10B
100
AcDbEntity
8
1
62
256
6
ByLayer
370
18
48
1
60
0
100
AcDbEllipse
10
16.579544
20
1.353074
30
0
11
0.303394800633071
21
-0.297618203322343
31
0
210
0
220
0
230
1
40
0.970308
41
-2.07280840442587
42
-1.35457195398012
0
ELLIPSE
5
10C
100
AcDbEntity
8
1
62
256
6
ByLayer
370
18
48
1
60
0
100
AcDbEllipse
10
17.182436
20
-0.28476
30
0
11
0.303394800633071
21
-0.297618203322343
31
0
210
0
220
0
230
1
40
0.970308
41
-3.12000595562249
42
-1.33226161763417
0
ELLIPSE
5
10D
100
AcDbEntity
8
1
62
256
6
ByLayer
370
18
48
1
60
0
100
AcDbEllipse
10
17.563534
20
0.103735
30
0
11
0.303394800633071
21
-0.297618203322343
31
0
210
0
220
0
230
1
40
0.970308
41
-2.05049806807996
42
-1.33226161763416
0
ELLIPSE
5
10E
100
AcDbEntity
8
1
62
256
6
ByLayer
370
18
48
1
60
0
100
AcDbEllipse
10
15.051095
20
-0.837368
30
0
11
-0.271270645271923
21
0.266105687676447
31
0
210
0
220
0
230
1
40
0.970308
41
0.0215866979673566
42
2.85652858715226
0
ELLIPSE
5
10F
100
AcDbEntity
8
1
62
256
6
ByLayer
370
18
48
1
60
0
100
AcDbEllipse
10
16.014145
20
-0.091038
30
0
11
0.838797389985548
21
-0.822826797420595
31
0
210
0
220
0
230
1
40
0.970308
41
0.8522150152628
42
0.978702718660162
0
ELLIPSE
5
110
100
AcDbEntity
8
1
62
256
6
ByLayer
370
18
48
1
60
0
100
AcDbEllipse
10
16.014145
20
-0.091038
30
0
11
0.838797389985548
21
-0.822826797420595
31
0
210
0
220
0
230
1
40
0.970308
41
1.89941256645937
42
2.02590026985675
0
ELLIPSE
5
111
100
AcDbEntity
8
1
62
256
6
ByLayer
370
18
48
1
60
0
100
AcDbEllipse
10
16.198446
20
0.964579
30
0
11
0.303394800633071
21
-0.297618203322343
31
0
210
0
220
0
230
1
40
0.970308
41
-2.07280840442592
42
-0.285064066437484
0
ELLIPSE
5
112
100
AcDbEntity
8
1
62
256
6
ByLayer
370
18
48
1
60
0
100
AcDbEllipse
10
16.014145
20
-0.091038
30
0
11
0.838797389985548
21
-0.822826797420595
31
0
210
0
220
0
230
1
40
0.970308
41
-1.24218008713042
42
-1.115692383733
0
ELLIPSE
5
113
100
AcDbEntity
8
1
62
256
6
ByLayer
370
18
48
1
60
0
100
AcDbEllipse
10
15.448747
20
-1.535151
30
0
11
0.303394800633071
21
-0.297618203322343
31
0
210
0
220
0
230
1
40
0.970308
41
2.13829213670656
42
2.85652858715232
0
ELLIPSE
5
114
100
AcDbEntity
8
1
62
256
6
ByLayer
370
18
48
1
60
0
100
AcDbEllipse
10
16.014145
20
-0.091038
30
0
11
0.838797389985548
21
-0.822826797420595
31
0
210
0
220
0
230
1
40
0.970308
41
-2.28937763832703
42
-2.16288993492964
0
ELLIPSE
5
115
100
AcDbEntity
8
1
62
256
6
ByLayer
370
18
48
1
60
0
100
AcDbEllipse
10
15.823524
20
1.135529
30
0
11
-0.271270645271923
21
0.266105687676447
31
0
210
0
220
0
230
1
40
0.970308
41
-2.07280840442592
42
0.762133484759014
0
ELLIPSE
5
116
100
AcDbEntity
8
1
62
256
6
ByLayer
370
18
48
1
60
0
100
AcDbEllipse
10
16.596097
20
0.266796
30
0
11
-0.271270645271923
21
0.266105687676447
31
0
210
0
220
0
230
1
40
0.970308
41
-3.12000595562244
42
-0.285064066437542
0
ELLIPSE
5
117
100
AcDbEntity
8
1
62
256
6
ByLayer
370
18
48
1
60
0
100
AcDbEllipse
10
16.014145
20
-0.091038
30
0
11
-1.64190127401427
21
1.61063968856797
31
0
210
0
220
0
230
1
40
0.970308
41
0
42
6.28318530717959
0
ELLIPSE
5
118
100
AcDbEntity
8
1
62
256
6
ByLayer
370
18
48
1
60
0
100
AcDbEllipse
10
16.204767
20
-1.317606
30
0
11
-0.271270645271923
21
0.266105687676447
31
0
210
0
220
0
230
1
40
0.970308
41
1.06878424916395
42
-2.3794591688307
0
ELLIPSE
5
119
100
AcDbEntity
8
1
62
256
6
ByLayer
370
18
48
1
60
0
100
AcDbEllipse
10
14.464757
20
-0.285812
30
0
11
0.303394800633071
21
-0.297618203322343
31
0
210
0
220
0
230
1
40
0.970308
41
0.0215866979671985
42
0.739823148413035
0
ELLIPSE
5
11A
100
AcDbEntity
8
1
62
256
6
ByLayer
370
18
48
1
60
0
100
AcDbEllipse
10
16.014145
20
-0.091038
30
0
11
0.838797389985548
21
-0.822826797420595
31
0
210
0
220
0
230
1
40
0.970308
41
-0.194982535933824
42
-0.0684948325363989
0
ELLIPSE
5
11B
100
AcDbEntity
8
1
62
256
6
ByLayer
370
18
48
1
60
0
100
AcDbEllipse
10
14.860474
20
0.389199
30
0
11
-0.271270645271923
21
0.266105687676447
31
0
210
0
220
0
230
1
40
0.970308
41
-1.02561085322938
42
1.80933103595565
0
ELLIPSE
5
11C
100
AcDbEntity
8
1
62
256
6
ByLayer
370
18
48
1
60
0
100
AcDbEllipse
10
14.464757
20
-0.285812
30
0
11
0.303394800633071
21
-0.297618203322343
31
0
210
0
220
0
230
1
40
0.970308
41
1.0910945855099
42
1.80933103595569
0
ELLIPSE
5
11D
100
AcDbEntity
8
1
62
256
6
ByLayer
370
18
48
1
60
0
100
AcDbEllipse
10
15.030156
20
1.158301
30
0
11
0.303394800633071
21
-0.297618203322343
31
0
210
0
220
0
230
1
40
0.970308
41
-1.02561085322929
42
-0.3073744027836
0
POINT
5
6C
100
AcDbEntity
8
2
62
256
6
ByLayer
370
18
48
1
60
0
100
AcDbPoint
10
39.219028
20
19.9125
30
0
39
0
210
0
220
0
230
1
50
360
0
POINT
5
6E
100
AcDbEntity
8
80
62
256
6
ByLayer
370
18
48
1
60
0
100
AcDbPoint
10
0
20
0
30
0
39
0
210
0
220
0
230
1
50
360
0
POINT
5
70
100
AcDbEntity
8
81
62
256
6
ByLayer
370
18
48
1
60
0
100
AcDbPoint
10
39.219028
20
19.9125
30
0
39
0
210
0
220
0
230
1
50
360
0
SPLINE
5
11E
100
AcDbEntity
8
1
62
256
6
ByLayer
370
18
48
1
60
0
100
AcDbSpline
70
4
71
3
72
13
73
9
40
0
40
0
40
0
40
0
40
0.1222047199636
40
0.318863038147609
40
0.511790184127772
40
0.703732464204546
40
0.899091860344905
40
1
40
1
40
1
40
1
41
1
10
31.4356204290019
20
10.3893132910918
30
0
41
1
10
31.4135221044377
20
10.4665830425469
30
0
41
1
10
31.346123260126
20
10.6640581283745
30
0
41
1
10
31.1903873713957
20
10.9642529416063
30
0
41
1
10
30.9720525315864
20
11.2799665322663
30
0
41
1
10
30.711482781388
20
11.5605378525488
30
0
41
1
10
30.4652248774483
20
11.7695541939096
30
0
41
1
10
30.2996128485143
20
11.8707217703556
30
0
41
1
10
30.2414971341484
20
11.9028054479773
30
0
0
SPLINE
5
11F
100
AcDbEntity
8
1
62
256
6
ByLayer
370
18
48
1
60
0
100
AcDbSpline
70
4
71
3
72
15
73
11
40
0
40
0
40
0
40
0
40
0.0648927211950022
40
0.260292194185916
40
0.427355350577036
40
0.559483907641952
40
0.658216705232928
40
0.74414003490153
40
0.901596184452155
40
1
40
1
40
1
40
1
41
1
10
30.2436166143158
20
11.9062104157131
30
0
41
1
10
30.2324986246821
20
11.9140701664935
30
0
41
1
10
30.1870612108311
20
11.9438378485196
30
0
41
1
10
30.1035415328223
20
11.977354415152
30
0
41
1
10
30.0051920959231
20
12.0055827553012
30
0
41
1
10
29.925605962596
20
12.0179739185757
30
0
41
1
10
29.8728502935483
20
12.0221960359352
30
0
41
1
10
29.8317805879963
20
12.0238622329276
30
0
41
1
10
29.8019975710904
20
12.0244171325162
30
0
41
1
10
29.7710385493576
20
12.0243692520284
30
0
41
1
10
29.7588372034808
20
12.0242592041124
30
0
0
SPLINE
5
120
100
AcDbEntity
8
1
62
256
6
ByLayer
370
18
48
1
60
0
100
AcDbSpline
70
4
71
3
72
12
73
8
40
0
40
0
40
0
40
0
40
0.0790917761219686
40
0.279893858319173
40
0.549646556557658
40
0.857675901026098
40
1
40
1
40
1
40
1
41
1
10
31.3445379827301
20
9.21134154571919
30
0
41
1
10
31.3495515896474
20
9.23739881181947
30
0
41
1
10
31.3665663097987
20
9.32712167578148
30
0
41
1
10
31.3932058083789
20
9.48074283009319
30
0
41
1
10
31.4245959928493
20
9.67463814355935
30
0
41
1
10
31.4483842005816
20
9.83085932240408
30
0
41
1
10
31.4614362138777
20
9.92028474171121
30
0
41
1
10
31.4653490638096
20
9.94759785385727
30
0
0
SPLINE
5
121
100
AcDbEntity
8
1
62
256
6
ByLayer
370
18
48
1
60
0
100
AcDbSpline
70
4
71
1
72
4
73
2
40
0
40
0
40
1
40
1
41
1
10
31.2639854024984
20
8.77131864367669
30
0
41
1
10
31.34556328817
20
9.21218825277688
30
0
0
SPLINE
5
122
100
AcDbEntity
8
1
62
256
6
ByLayer
370
18
48
1
60
0
100
AcDbSpline
70
4
71
3
72
12
73
8
40
0
40
0
40
0
40
0
40
0.204267351587807
40
0.468906315142726
40
0.722669642914384
40
0.994924083064991
40
1
40
1
40
1
40
1
41
1
10
31.4654077811684
20
9.95087734287608
30
0
41
1
10
31.4694759919319
20
9.97398287911898
30
0
41
1
10
31.4766152288901
20
10.0306094807421
30
0
41
1
10
31.4836082194387
20
10.1274432795944
30
0
41
1
10
31.4737628249494
20
10.2554371934228
30
0
41
1
10
31.4600297929312
20
10.3462624616793
30
0
41
1
10
31.4411842937811
20
10.3902394438287
30
0
41
1
10
31.4408370699885
20
10.3910439831832
30
0
0
SPLINE
5
123
100
AcDbEntity
8
1
62
256
6
ByLayer
370
18
48
1
60
0
100
AcDbSpline
70
4
71
3
72
8
73
4
40
0
40
0
40
0
40
0
40
1
40
1
40
1
40
1
41
1
10
13.2893735658516
20
-11.4153938447818
30
0
41
1
10
13.1893468147401
20
-11.449967301246
30
0
41
1
10
13.0869783622078
20
-11.4806861463852
30
0
41
1
10
12.9827531766771
20
-11.5067566969979
30
0
0
SPLINE
5
124
100
AcDbEntity
8
1
62
256
6
ByLayer
370
18
48
1
60
0
100
AcDbSpline
70
4
71
3
72
8
73
4
40
0
40
0
40
0
40
0
40
1
40
1
40
1
40
1
41
1
10
4.71514973472216
20
-0.525789184273975
30
0
41
1
10
4.65922415417236
20
-0.617432621191654
30
0
41
1
10
4.60642091078074
20
-0.712156713376515
30
0
41
1
10
4.55763744728751
20
-0.809663440439891
30
0
0
SPLINE
5
125
100
AcDbEntity
8
1
62
256
6
ByLayer
370
18
48
1
60
0
100
AcDbSpline
70
4
71
3
72
10
73
6
40
0
40
0
40
0
40
0
40
0.483686724960243
40
0.483686724960243
40
1
40
1
40
1
40
1
41
1
10
31.3217648529442
20
10.324321352906
30
0
41
1
10
31.3523007356239
20
10.3620991518526
30
0
41
1
10
31.3784176162773
20
10.3889885896277
30
0
41
1
10
31.4194013100096
20
10.4156637104937
30
0
41
1
10
31.433774320803
20
10.4135671709623
30
0
41
1
10
31.440456010294
20
10.3930602040681
30
0
0
SPLINE
5
126
100
AcDbEntity
8
1
62
256
6
ByLayer
370
18
48
1
60
0
100
AcDbSpline
70
4
71
3
72
10
73
6
40
0
40
0
40
0
40
0
40
0.443113497708445
40
0.443113497708445
40
1
40
1
40
1
40
1
41
1
10
30.25362872391
20
11.9030088249462
30
0
41
1
10
30.2605671765573
20
11.8984590198506
30
0
41
1
10
30.2545523310023
20
11.8919217697332
30
0
41
1
10
30.2150806378829
20
11.8724570223995
30
0
41
1
10
30.1747887039111
20
11.8580503806712
30
0
41
1
10
30.1209347691216
20
11.8412226132154
30
0
0
SPLINE
5
127
100
AcDbEntity
8
1
62
256
6
ByLayer
370
18
48
1
60
0
100
AcDbSpline
70
4
71
3
72
8
73
4
40
0
40
0
40
0
40
0
40
1
40
1
40
1
40
1
41
1
10
30.0613896978704
20
4.86806510853879
30
0
41
1
10
30.083593000578
20
4.89300829849461
30
0
41
1
10
30.1057961280174
20
4.91795139616846
30
0
41
1
10
30.1279990795004
20
4.9428944011978
30
0
0
SPLINE
5
128
100
AcDbEntity
8
1
62
256
6
ByLayer
370
18
48
1
60
0
100
AcDbSpline
70
4
71
3
72
13
73
9
40
0
40
0
40
0
40
0
40
0.47635151022559
40
0.47635151022559
40
0.47635151022559
40
0.687543277835216
40
0.687543277835216
40
1
40
1
40
1
40
1
41
1
10
11.1269921101435
20
0.198194643211764
30
0
41
1
10
11.1933718335385
20
0.587553990818265
30
0
41
1
10
11.3265056648605
20
0.963930792622136
30
0
41
1
10
11.5264034561651
20
1.30773756975179
30
0
41
1
10
11.615961477257
20
1.4617695597841
30
0
41
1
10
11.7195079704904
20
1.61065064041412
30
0
41
1
10
12.0070544476824
20
1.96018580950692
30
0
41
1
10
12.2085132031404
20
2.15447980529595
30
0
41
1
10
12.4308981079832
20
2.32682025146553
30
0
0
SPLINE
5
129
100
AcDbEntity
8
1
62
256
6
ByLayer
370
18
48
1
60
0
100
AcDbSpline
70
4
71
3
72
10
73
6
40
0
40
0
40
0
40
0
40
0.794724528922945
40
0.794724528922945
40
1
40
1
40
1
40
1
41
1
10
31.3340457143045
20
9.17078106034148
30
0
41
1
10
31.3789564427143
20
9.40916657542516
30
0
41
1
10
31.4051018762972
20
9.58406481801367
30
0
41
1
10
31.4340241473263
20
9.78096927810543
30
0
41
1
10
31.4396601043202
20
9.8202161128776
30
0
41
1
10
31.4450238484078
20
9.8582935513399
30
0
0
SPLINE
5
12A
100
AcDbEntity
8
1
62
256
6
ByLayer
370
18
48
1
60
0
100
AcDbSpline
70
4
71
3
72
8
73
4
40
0
40
0
40
0
40
0
40
1
40
1
40
1
40
1
41
1
10
11.1269921101435
20
0.198194643211764
30
0
41
1
10
11.1130920159796
20
0.116661739509851
30
0
41
1
10
11.0944244710611
20
0.0350152098718013
30
0
41
1
10
11.0711712993155
20
-0.0458741437871595
30
0
0
SPLINE
5
12B
100
AcDbEntity
8
1
62
256
6
ByLayer
370
18
48
1
60
0
100
AcDbSpline
70
4
71
3
72
10
73
6
40
0
40
0
40
0
40
0
40
0.58041458215305
40
0.58041458215305
40
1
40
1
40
1
40
1
41
1
10
10.5028992009446
20
-1.03220344863203
30
0
41
1
10
10.4109477667502
20
-1.13747977772823
30
0
41
1
10
10.3134080020143
20
-1.23708644689725
30
0
41
1
10
10.1388708248244
20
-1.39845583265509
30
0
41
1
10
10.0633165730228
20
-1.46333334286675
30
0
41
1
10
9.98647264966115
20
-1.52505477842698
30
0
0
SPLINE
5
12C
100
AcDbEntity
8
1
62
256
6
ByLayer
370
18
48
1
60
0
100
AcDbSpline
70
4
71
3
72
8
73
4
40
0
40
0
40
0
40
0
40
1
40
1
40
1
40
1
41
1
10
7.04810659807106
20
0.570019765061858
30
0
41
1
10
7.95123206703693
20
0.683827499754358
30
0
41
1
10
9.4825114774892
20
0.405454294369917
30
0
41
1
10
11.0711712993155
20
-0.0458741437872732
30
0
0
SPLINE
5
12D
100
AcDbEntity
8
1
62
256
6
ByLayer
370
18
48
1
60
0
100
AcDbSpline
70
4
71
3
72
28
73
24
40
0
40
0
40
0
40
0
40
4.58207680505E-05
40
4.58207680505E-05
40
0.0262692706625013
40
0.0262692706625013
40
0.213495002074607
40
0.213495002074607
40
0.356578191350417
40
0.356578191350417
40
0.396506692896376
40
0.396506692896376
40
0.500669174647805
40
0.500669174647805
40
0.650604339303017
40
0.650604339303017
40
0.802246387468526
40
0.802246387468526
40
0.967086003134488
40
0.967086003134488
40
0.999954179231933
40
0.999954179231933
40
1
40
1
40
1
40
1
41
1
10
30.6660884309491
20
10.4075637698641
30
0
41
1
10
30.6660918779061
20
10.4075787447855
30
0
41
1
10
30.6660953241722
20
10.4075937197804
30
0
41
1
10
30.6680707837224
20
10.4161792157318
30
0
41
1
10
30.6698528523657
20
10.4248579009994
30
0
41
1
10
30.6826116652352
20
10.495547084955
30
0
41
1
10
30.6839557876738
20
10.5636729523499
30
0
41
1
10
30.664363795879
20
10.6873320780672
30
0
41
1
10
30.6482796748065
20
10.7432814341043
30
0
41
1
10
30.6177872240252
20
10.8129226998075
30
0
41
1
10
30.6104450149996
20
10.8281911318562
30
0
41
1
10
30.581954739351
20
10.8823431963246
30
0
41
1
10
30.5570765861139
20
10.9206392280368
30
0
41
1
10
30.4889959943498
20
11.0067109406468
30
0
41
1
10
30.4412673074929
20
11.0528305081589
30
0
41
1
10
30.3401116383483
20
11.1283394736105
30
0
41
1
10
30.2852116812173
20
11.1587624562138
30
0
41
1
10
30.1717624418085
20
11.2044933807232
30
0
41
1
10
30.1118504002039
20
11.2189885607913
30
0
41
1
10
30.0430158780789
20
11.2262590389001
30
0
41
1
10
30.0315545100865
20
11.2271438550903
30
0
41
1
10
30.020168507085
20
11.2277058252712
30
0
41
1
10
30.0201526504516
20
11.2277066073129
30
0
41
1
10
30.0201367937312
20
11.2277073886614
30
0
0
SPLINE
5
12E
100
AcDbEntity
8
1
62
256
6
ByLayer
370
18
48
1
60
0
100
AcDbSpline
70
4
71
3
72
10
73
6
40
0
40
0
40
0
40
0
40
0.5
40
0.5
40
1
40
1
40
1
40
1
41
1
10
28.5155158726773
20
2.75889278367419
30
0
41
1
10
27.5390784941657
20
1.04761005366748
30
0
41
1
10
26.3510287106614
20
-0.54010808437323
30
0
41
1
10
23.7392039387692
20
-3.48964231612135
30
0
41
1
10
22.2170518650291
20
-4.75292335568304
30
0
41
1
10
20.6694205716245
20
-5.9727627999861
30
0
0
SPLINE
5
12F
100
AcDbEntity
8
1
62
256
6
ByLayer
370
18
48
1
60
0
100
AcDbSpline
70
4
71
3
72
12
73
8
40
0
40
0
40
0
40
0
40
0.107029684965502
40
0.443706054186005
40
0.612044238796257
40
0.780382423406509
40
1
40
1
40
1
40
1
41
1.03017844338059
10
18.9132207756966
20
3.94690751682506
30
0
41
1.0302273658714
10
19.3878767741978
20
4.31702154390832
30
0
41
1.03047050932998
10
21.488531105379
20
5.93237171789162
30
0
41
1.0311558410484
10
24.7641410562856
20
8.21198752353722
30
0
41
1.03077804826571
10
26.5631475426862
20
9.30026296257917
30
0
41
1.03322144497827
10
28.3007050816087
20
10.3547516508572
30
0
41
1.03463604371051
10
29.4035376512694
20
10.9333689443986
30
0
41
1.0353664121084
10
30.0201367937313
20
11.2277073886614
30
0
0
SPLINE
5
130
100
AcDbEntity
8
1
62
256
6
ByLayer
370
18
48
1
60
0
100
AcDbSpline
70
4
71
3
72
10
73
6
40
0
40
0
40
0
40
0
40
0.5
40
0.5
40
1
40
1
40
1
40
1
41
1
10
14.6895195374146
20
-10.3017472116823
30
0
41
1
10
14.2973461161976
20
-10.3531638731253
30
0
41
1
10
14.061653894155
20
-10.2042134865205
30
0
41
1
10
13.3791979194957
20
-9.75862774393315
30
0
41
1
10
12.8715890535111
20
-9.39421037224375
30
0
41
1
10
12.3682412580446
20
-8.83565992388819
30
0
0
SPLINE
5
131
100
AcDbEntity
8
1
62
256
6
ByLayer
370
18
48
1
60
0
100
AcDbSpline
70
4
71
3
72
10
73
6
40
0
40
0
40
0
40
0
40
0.999906028841236
40
0.999906028841236
40
1
40
1
40
1
40
1
41
1
10
29.0828264501048
20
12.0290803625886
30
0
41
1
10
28.9230436325219
20
12.0305426232614
30
0
41
1
10
28.761184926953
20
12.032735516788
30
0
41
1
10
28.5981990437051
20
12.0353009621123
30
0
41
1
10
28.5981837277127
20
12.0353012031978
30
0
41
1
10
28.5981684117302
20
12.0353014442781
30
0
0
SPLINE
5
132
100
AcDbEntity
8
1
62
256
6
ByLayer
370
18
48
1
60
0
100
AcDbSpline
70
4
71
1
72
4
73
2
40
0
40
0
40
1
40
1
41
1
10
12.947034655444
20
5.14148064748352
30
0
41
1
10
11.6807862639445
20
5.43981152263586
30
0
0
SPLINE
5
133
100
AcDbEntity
8
1
62
256
6
ByLayer
370
18
48
1
60
0
100
AcDbSpline
70
4
71
3
72
10
73
6
40
0
40
0
40
0
40
0
40
0.5
40
0.5
40
1
40
1
40
1
40
1
41
1
10
6.7241300710935
20
-1.6695169703151
30
0
41
1
10
6.30567309358696
20
-1.05800561183995
30
0
41
1
10
6.09217932198032
20
-0.509126533054655
30
0
41
1
10
5.86626676423123
20
0.201226836523631
30
0
41
1
10
5.80420301338552
20
0.426546209751365
30
0
41
1
10
5.97267684783139
20
0.765742203086063
30
0
0
SPLINE
5
134
100
AcDbEntity
8
1
62
256
6
ByLayer
370
18
48
1
60
0
100
AcDbSpline
70
4
71
3
72
14
73
10
40
0
40
0
40
0
40
0
40
7.77085242593E-05
40
7.77085242593E-05
40
0.352643155046209
40
0.352643155046209
40
0.7057321193738
40
0.7057321193738
40
1
40
1
40
1
40
1
41
1
10
29.6728835971359
20
12.0039500016932
30
0
41
1
10
29.672893541252
20
12.003951066848
30
0
41
1
10
29.672903485374
20
12.0039521319484
30
0
41
1
10
29.7176528852074
20
12.0087453495866
30
0
41
1
10
29.754206054188
20
12.0127940462551
30
0
41
1
10
29.7996852055181
20
12.0189548090943
30
0
41
1
10
29.80889427169
20
12.0211245445822
30
0
41
1
10
29.7925616601406
20
12.0234639769267
30
0
41
1
10
29.7721669808634
20
12.0239476787106
30
0
41
1
10
29.7392719557177
20
12.0240308129738
30
0
0
SPLINE
5
135
100
AcDbEntity
8
1
62
256
6
ByLayer
370
18
48
1
60
0
100
AcDbSpline
70
4
71
2
72
6
73
3
40
0
40
0
40
0
40
1
40
1
40
1
41
0.933477290296916
10
19.7149130173815
20
-2.42483351056847
30
0
41
0.923463989330482
10
20.485908699095
20
-3.77375648887755
30
0
41
1.02994816993494
10
20.5471995797056
20
-4.50819961464598
30
0
0
SPLINE
5
136
100
AcDbEntity
8
1
62
256
6
ByLayer
370
18
48
1
60
0
100
AcDbSpline
70
4
71
3
72
8
73
4
40
0
40
0
40
0
40
0
40
1
40
1
40
1
40
1
41
1
10
31.3829341091317
20
9.84133163324981
30
0
41
1
10
31.4211480941269
20
9.99765026206961
30
0
41
1
10
31.3992067777587
20
10.1709205178927
30
0
41
1
10
31.321775928677
20
10.3242968936401
30
0
0
SPLINE
5
137
100
AcDbEntity
8
1
62
256
6
ByLayer
370
18
48
1
60
0
100
AcDbSpline
70
4
71
3
72
10
73
6
40
0
40
0
40
0
40
0
40
0.5
40
0.5
40
1
40
1
40
1
40
1
41
1
10
11.6807862639445
20
5.43981152263586
30
0
41
1
10
13.252206372798
20
6.63707767560481
30
0
41
1
10
14.8494625778007
20
7.79103094611094
30
0
41
1
10
18.3505175194586
20
9.58503474552617
30
0
41
1
10
20.2022123506
20
10.3508965431056
30
0
41
1
10
22.1202176754439
20
10.8787932594224
30
0
0
SPLINE
5
138
100
AcDbEntity
8
1
62
256
6
ByLayer
370
18
48
1
60
0
100
AcDbSpline
70
4
71
3
72
14
73
10
40
0
40
0
40
0
40
0
40
0.332043805554358
40
0.332043805554358
40
0.667540490321303
40
0.667540490321303
40
0.999921783367902
40
0.999921783367902
40
1
40
1
40
1
40
1
41
1
10
31.4450238484078
20
9.85829355134001
30
0
41
1
10
31.4506226903981
20
9.89803995941992
30
0
41
1
10
31.4516266047752
20
9.92293001519039
30
0
41
1
10
31.4445662780236
20
9.94165104634902
30
0
41
1
10
31.4363531648901
20
9.93572765489495
30
0
41
1
10
31.4131846369918
20
9.90074631889917
30
0
41
1
10
31.3980978042795
20
9.87169689604491
30
0
41
1
10
31.3808464099315
20
9.83543338650281
30
0
41
1
10
31.3808421137394
20
9.83542435529387
30
0
41
1
10
31.3808378174514
20
9.83541532413057
30
0
0
SPLINE
5
139
100
AcDbEntity
8
1
62
256
6
ByLayer
370
18
48
1
60
0
100
AcDbSpline
70
4
71
3
72
8
73
4
40
0
40
0
40
0
40
0
40
1
40
1
40
1
40
1
41
1
10
19.7149130180563
20
-2.42483351174917
30
0
41
1
10
19.5396940646297
20
-2.62518076631409
30
0
41
1
10
19.3459615019083
20
-2.80925778784024
30
0
41
1
10
19.1400962860606
20
-2.96879605854744
30
0
0
SPLINE
5
13A
100
AcDbEntity
8
1
62
256
6
ByLayer
370
18
48
1
60
0
100
AcDbSpline
70
4
71
3
72
8
73
4
40
0
40
0
40
0
40
0
40
1
40
1
40
1
40
1
41
1
10
14.6763109644516
20
3.97251434450396
30
0
41
1
10
14.4392244554928
20
3.85071829710807
30
0
41
1
10
14.2130043510856
20
3.70788964228126
30
0
41
1
10
14.0071391352378
20
3.54835137157406
30
0
0
SPLINE
5
13B
100
AcDbEntity
8
1
62
256
6
ByLayer
370
18
48
1
60
0
100
AcDbSpline
70
4
71
3
72
8
73
4
40
0
40
0
40
0
40
0
40
1
40
1
40
1
40
1
41
1
10
12.3682412580446
20
-8.83565992388819
30
0
41
1
10
12.2932981894478
20
-8.75249777448988
30
0
41
1
10
12.2192723179657
20
-8.6659519408289
30
0
41
1
10
12.1479746213922
20
-8.57854141299558
30
0
0
SPLINE
5
13C
100
AcDbEntity
8
1
62
256
6
ByLayer
370
18
48
1
60
0
100
AcDbSpline
70
4
71
3
72
10
73
6
40
0
40
0
40
0
40
0
40
0.493880230204841
40
0.493880230204841
40
1
40
1
40
1
40
1
41
1
10
29.7392719557176
20
12.0240308129738
30
0
41
1
10
29.6542575451668
20
12.0242456664464
30
0
41
1
10
29.5624477034752
20
12.024690928954
30
0
41
1
10
29.3518878648226
20
12.0263522623471
30
0
41
1
10
29.2323007135382
20
12.0277124411792
30
0
41
1
10
29.0828264501048
20
12.0290803625886
30
0
0
SPLINE
5
13D
100
AcDbEntity
8
1
62
256
6
ByLayer
370
18
48
1
60
0
100
AcDbSpline
70
4
71
3
72
8
73
4
40
0
40
0
40
0
40
0
40
1
40
1
40
1
40
1
41
1.03311206816126
10
30.3135464145262
20
5.97160239961856
30
0
41
1.03398726653663
10
30.6989277533055
20
6.8556603579596
30
0
41
1.03477250303978
10
30.9971304436205
20
7.74658936232367
30
0
41
1.03548960596306
10
31.2424820851013
20
8.67790906038795
30
0
0
SPLINE
5
13E
100
AcDbEntity
8
1
62
256
6
ByLayer
370
18
48
1
60
0
100
AcDbSpline
70
4
71
3
72
28
73
24
40
0
40
0
40
0
40
0
40
0.0002961516838479
40
0.0002961516838479
40
0.0005569094114208
40
0.0005569094114208
40
0.0008621321653204
40
0.0008621321653204
40
0.0052375575516072
40
0.0052375575516072
40
0.0234742370160555
40
0.0234742370160555
40
0.0971618665000343
40
0.0971618665000343
40
0.250932327198443
40
0.250932327198443
40
0.469025233730497
40
0.469025233730497
40
0.708581875861871
40
0.708581875861871
40
0.99996020993254
40
0.99996020993254
40
1
40
1
40
1
40
1
41
1
10
30.0200233385424
20
11.2279264402124
30
0
41
1
10
30.020127844749
20
11.227954283636
30
0
41
1
10
30.0202292412083
20
11.2279901973787
30
0
41
1
10
30.0203960386345
20
11.2280900098374
30
0
41
1
10
30.0204647012405
20
11.2281522501286
30
0
41
1
10
30.0205709816585
20
11.2283220637544
30
0
41
1
10
30.0206025412109
20
11.2284368213409
30
0
41
1
10
30.0208159935376
20
11.2302245498458
30
0
41
1
10
30.0200485698656
20
11.2322272378362
30
0
41
1
10
30.017963555001
20
11.2418024593556
30
0
41
1
10
30.0161924302386
20
11.2495040744857
30
0
41
1
10
30.0073179611176
20
11.2881235350986
30
0
41
1
10
29.9999632168402
20
11.3185478094601
30
0
41
1
10
29.9768159769841
20
11.4103738256073
30
0
41
1
10
29.9604487648343
20
11.4698593840367
30
0
41
1
10
29.9203813438033
20
11.6049200246463
30
0
41
1
10
29.8962894402927
20
11.6776454573483
30
0
41
1
10
29.8458939587561
20
11.8105256594623
30
0
41
1
10
29.8193000503956
20
11.8697834283258
30
0
41
1
10
29.7583167905408
20
11.9680968530255
30
0
41
1
10
29.7222600887184
20
12.0018078753679
30
0
41
1
10
29.679296227634
20
12.0044020879573
30
0
41
1
10
29.6792862447522
20
12.0044026896799
30
0
41
1
10
29.6792762618108
20
12.0044032904147
30
0
0
SPLINE
5
13F
100
AcDbEntity
8
1
62
256
6
ByLayer
370
18
48
1
60
0
100
AcDbSpline
70
4
71
2
72
6
73
3
40
0
40
0
40
0
40
1
40
1
40
1
41
1.02994816993494
10
20.5471995797056
20
-4.50819961464598
30
0
41
1.02994816993494
10
20.608310075665
20
-5.24048120731604
30
0
41
1.02994816993494
10
20.6694205716245
20
-5.9727627999861
30
0
0
SPLINE
5
140
100
AcDbEntity
8
1
62
256
6
ByLayer
370
18
48
1
60
0
100
AcDbSpline
70
4
71
3
72
8
73
4
40
0
40
0
40
0
40
0
40
1
40
1
40
1
40
1
41
1
10
14.8924979186293
20
-4.89768728481727
30
0
41
1
10
14.9693275301604
20
-6.56413668074919
30
0
41
1
10
14.9162718522779
20
-8.15564536534745
30
0
41
1
10
14.6482715223326
20
-9.07966049706764
30
0
0
SPLINE
5
141
100
AcDbEntity
8
1
62
256
6
ByLayer
370
18
48
1
60
0
100
AcDbSpline
70
4
71
3
72
8
73
4
40
0
40
0
40
0
40
0
40
1
40
1
40
1
40
1
41
1
10
29.6728837212037
20
12.003950014981
30
0
41
1
10
29.8310781598904
20
12.0094094772503
30
0
41
1
10
29.9920456589949
20
11.9509477840577
30
0
41
1
10
30.1209347691217
20
11.8412226132155
30
0
0
SPLINE
5
142
100
AcDbEntity
8
1
62
256
6
ByLayer
370
18
48
1
60
0
100
AcDbSpline
70
4
71
3
72
10
73
6
40
0
40
0
40
0
40
0
40
0.580414582160083
40
0.580414582160083
40
1
40
1
40
1
40
1
41
1
10
13.7960229491772
20
-5.21337471933464
30
0
41
1
10
13.6729999882962
20
-5.27920054956388
30
0
41
1
10
13.5543969259937
20
-5.35206384029834
30
0
41
1
10
13.3588629668286
20
-5.48677430028752
30
0
41
1
10
13.2791451494419
20
-5.54636546776214
30
0
41
1
10
13.2023012260802
20
-5.60808690332237
30
0
0
SPLINE
5
143
100
AcDbEntity
8
1
62
256
6
ByLayer
370
18
48
1
60
0
100
AcDbSpline
70
4
71
3
72
24
73
20
40
0
40
0
40
0
40
0
40
0.193947210779323
40
0.193947210779323
40
0.435758612862297
40
0.435758612862297
40
0.688024122938545
40
0.688024122938545
40
0.877280955594812
40
0.877280955594812
40
0.97013549729579
40
0.97013549729579
40
0.993290262270212
40
0.993290262270212
40
0.998996474733169
40
0.998996474733169
40
0.999887794663895
40
0.999887794663895
40
1
40
1
40
1
40
1
41
1
10
30.1211034510552
20
11.8410946254119
30
0
41
1
10
30.0952058833659
20
11.8309958426484
30
0
41
1
10
30.0774656616319
20
11.8109644585948
30
0
41
1
10
30.0463921957597
20
11.7534329462801
30
0
41
1
10
30.0355284545705
20
11.7116990658528
30
0
41
1
10
30.0211574479932
20
11.6126497837176
30
0
41
1
10
30.017967433356
20
11.5540488833256
30
0
41
1
10
30.0163072388341
20
11.4417504204599
30
0
41
1
10
30.0168671548884
20
11.3901414140823
30
0
41
1
10
30.0186691408979
20
11.3094204252552
30
0
41
1
10
30.0194258969758
20
11.282170498118
30
0
41
1
10
30.0204828098269
20
11.2474345353487
30
0
41
1
10
30.0207194503361
20
11.2404568204117
30
0
41
1
10
30.0209452487844
20
11.2317441332369
30
0
41
1
10
30.0212211292861
20
11.2298920401738
30
0
41
1
10
30.0207838769483
20
11.2281251075896
30
0
41
1
10
30.0206716436783
20
11.2279116898411
30
0
41
1
10
30.0204953738356
20
11.2277309782139
30
0
41
1
10
30.020474705501
20
11.2277110497405
30
0
41
1
10
30.0204535427681
20
11.2276916962047
30
0
0
SPLINE
5
144
100
AcDbEntity
8
1
62
256
6
ByLayer
370
18
48
1
60
0
100
AcDbSpline
70
4
71
3
72
8
73
4
40
0
40
0
40
0
40
0
40
1
40
1
40
1
40
1
41
1
10
14.8924979186292
20
-4.89768728481928
30
0
41
1
10
14.9779792538384
20
-4.8958069903988
30
0
41
1
10
15.0631792492812
20
-4.89863453218041
30
0
41
1
10
15.1472102982005
20
-4.90614460275754
30
0
0
SPLINE
5
145
100
AcDbEntity
8
1
62
256
6
ByLayer
370
18
48
1
60
0
100
AcDbSpline
70
4
71
3
72
12
73
8
40
0
40
0
40
0
40
0
40
0.107029883295002
40
0.443706177278311
40
0.612044324269965
40
0.780382471261619
40
1
40
1
40
1
40
1
41
1.03017844307583
10
20.6818901716871
20
1.70127990361057
30
0
41
1.03022736562783
10
21.1592255288464
20
2.06799380589117
30
0
41
1.03047050908112
10
23.2524962036412
20
3.69272071790633
30
0
41
1.0311558410484
10
26.3121198421804
20
6.24656960361064
30
0
41
1.03077804826571
10
27.849358975429
20
7.66720246992999
30
0
41
1.03322144498364
10
29.3421521088321
20
9.03246050737185
30
0
41
1.03463604371943
10
30.2081298398543
20
9.91180463048203
30
0
41
1.0353664121206
10
30.666088438625
20
10.4075637781736
30
0
0
SPLINE
5
146
100
AcDbEntity
8
1
62
256
6
ByLayer
370
18
48
1
60
0
100
AcDbSpline
70
4
71
3
72
10
73
6
40
0
40
0
40
0
40
0
40
9.39711588055E-05
40
9.39711588055E-05
40
1
40
1
40
1
40
1
41
1
10
31.2424808999577
20
8.67790456175453
30
0
41
1
10
31.2424837611557
20
8.67792013410119
30
0
41
1
10
31.2424866223604
20
8.67793570645608
30
0
41
1
10
31.2729342827602
20
8.84364969785088
30
0
41
1
10
31.3034255615049
20
9.00824971971252
30
0
41
1
10
31.3340457143045
20
9.17078106034148
30
0
0
SPLINE
5
147
100
AcDbEntity
8
1
62
256
6
ByLayer
370
18
48
1
60
0
100
AcDbSpline
70
4
71
3
72
12
73
8
40
0
40
0
40
0
40
0
40
0.264973649149777
40
0.529947298299554
40
0.662434122874442
40
0.794920947449331
40
1
40
1
40
1
40
1
41
1.02994816993494
10
12.9470346554441
20
5.14148064748353
30
0
41
1.03004363841634
10
13.7933614140902
20
5.77363227798889
30
0
41
1.03021336426305
10
16.8973764893753
20
8.10049561142983
30
0
41
1.0311558410484
10
22.3355124949844
20
10.4032525895264
30
0
41
1.03077804826571
10
24.5756050679326
20
11.0397070786927
30
0
41
1.03340133735628
10
27.0373994435031
20
11.7127008922913
30
0
41
1.0349314968617
10
28.6743256919772
20
11.9332616596826
30
0
41
1.03576782913895
10
29.6760829438892
20
12.0041767061372
30
0
0
SPLINE
5
148
100
AcDbEntity
8
1
62
256
6
ByLayer
370
18
48
1
60
0
100
AcDbSpline
70
4
71
3
72
8
73
4
40
0
40
0
40
0
40
0
40
1
40
1
40
1
40
1
41
1.03548960590947
10
28.5981730265456
20
12.0353014956829
30
0
41
1.03477250223163
10
27.6278186284176
20
12.0244927271729
30
0
41
1.03398726483063
10
26.6841858869294
20
11.953043738641
30
0
41
1.03311206534555
10
25.7261810919028
20
11.7960253484729
30
0
0
SPLINE
5
149
100
AcDbEntity
8
1
62
256
6
ByLayer
370
18
48
1
60
0
100
AcDbSpline
70
4
71
3
72
8
73
4
40
0
40
0
40
0
40
0
40
1
40
1
40
1
40
1
41
1
10
6.93716703779523
20
-1.96290304152723
30
0
41
1
10
6.93188618679841
20
-1.95619811812898
30
0
41
1
10
6.92666037832373
20
-1.94944527420918
30
0
41
1
10
6.92149236937246
20
-1.94264822774545
30
0
0
SPLINE
5
14A
100
AcDbEntity
8
1
62
256
6
ByLayer
370
18
48
1
60
0
100
AcDbSpline
70
4
71
3
72
13
73
9
40
0
40
0
40
0
40
0
40
0.21907077297069
40
0.21907077297069
40
0.21907077297069
40
0.652376048528384
40
0.652376048528384
40
1
40
1
40
1
40
1
41
1
10
17.563855258806
20
-4.19032717865596
30
0
41
1
10
17.4072993612417
20
-4.31165246939801
30
0
41
1
10
17.2424793455956
20
-4.41981956730248
30
0
41
1
10
17.0729661106305
20
-4.51214208707719
30
0
41
1
10
16.7410174124325
20
-4.69293233782008
30
0
41
1
10
16.3846354548318
20
-4.81505171845433
30
0
41
1
10
15.7373459636022
20
-4.92302715409181
30
0
41
1
10
15.4417387086271
20
-4.93246736294819
30
0
41
1
10
15.1472102982005
20
-4.90614460275754
30
0
0
SPLINE
5
14B
100
AcDbEntity
8
1
62
256
6
ByLayer
370
18
48
1
60
0
100
AcDbSpline
70
4
71
3
72
12
73
8
40
0
40
0
40
0
40
0
40
0.40184334030564
40
0.40184334030564
40
0.816060128109928
40
0.816060128109928
40
1
40
1
40
1
40
1
41
1
10
11.0711712993155
20
-0.0458741437872447
30
0
41
1
10
11.0317758639955
20
-0.182916579761951
30
0
41
1
10
10.9732834842167
20
-0.325145700523052
30
0
41
1
10
10.8269949970401
20
-0.601723279978756
30
0
41
1
10
10.7369870683215
20
-0.73886102154853
30
0
41
1
10
10.5953402210967
20
-0.923156581753034
30
0
41
1
10
10.5497389732221
20
-0.97857601666999
30
0
41
1
10
10.5028992009445
20
-1.03220344863217
30
0
0
SPLINE
5
14C
100
AcDbEntity
8
1
62
256
6
ByLayer
370
18
48
1
60
0
100
AcDbSpline
70
4
71
3
72
28
73
24
40
0
40
0
40
0
40
0
40
4.20487346493E-05
40
4.20487346493E-05
40
0.291419858702298
40
0.291419858702298
40
0.53097606993035
40
0.53097606993035
40
0.749068584166963
40
0.749068584166963
40
0.902838768278963
40
0.902838768278963
40
0.976526265230641
40
0.976526265230641
40
0.994762911886502
40
0.994762911886502
40
0.999138329414503
40
0.999138329414503
40
0.999456644382011
40
0.999456644382011
40
0.999704151355287
40
0.999704151355287
40
1
40
1
40
1
40
1
41
1
10
31.3829338921653
20
9.84132723483194
30
0
41
1
10
31.3829343848984
20
9.84133722368648
30
0
41
1
10
31.3829348768099
20
9.8413472125815
30
0
41
1
10
31.3853384792654
20
9.89025176051413
30
0
41
1
10
31.3557710646511
20
9.93986152756543
30
0
41
1
10
31.2657659240033
20
10.0332531254082
30
0
41
1
10
31.2106580349522
20
10.0777294504381
30
0
41
1
10
31.0868737443886
20
10.1659995951449
30
0
41
1
10
31.0190328363609
20
10.2099982395894
30
0
41
1
10
30.8929524945528
20
10.2858899669401
30
0
41
1
10
30.8373912095683
20
10.3177296634212
30
0
41
1
10
30.7514798060146
20
10.3643718317378
30
0
41
1
10
30.7229941181961
20
10.3794529791124
30
0
41
1
10
30.6867885463507
20
10.3980701687368
30
0
41
1
10
30.6795723521832
20
10.4017794578424
30
0
41
1
10
30.6705739782467
20
10.406276451733
30
0
41
1
10
30.6687804969494
20
10.4075252608525
30
0
41
1
10
30.666935090358
20
10.4078038356299
30
0
41
1
10
30.6668069962864
20
10.4078041264547
30
0
41
1
10
30.6666116376739
20
10.4077459926577
30
0
41
1
10
30.6665359426411
20
10.4077002806043
30
0
41
1
10
30.6663951904131
20
10.4075744791626
30
0
41
1
10
30.6663323427797
20
10.4074896270483
30
0
41
1
10
30.6662767151061
20
10.4073997292105
30
0
0
SPLINE
5
14D
100
AcDbEntity
8
1
62
256
6
ByLayer
370
18
48
1
60
0
100
AcDbSpline
70
4
71
3
72
15
73
11
40
0
40
0
40
0
40
0
40
0.284308369869424
40
0.284308369869424
40
0.604552312734216
40
0.604552312734216
40
0.883194505470756
40
0.883194505470756
40
0.883194505470756
40
1
40
1
40
1
40
1
41
1
10
14.6763109644516
20
3.97251434450396
30
0
41
1
10
15.0463700560419
20
4.1631636362049
30
0
41
1
10
15.4490214658814
20
4.30804300707882
30
0
41
1
10
16.3163070439995
20
4.49951657964291
30
0
41
1
10
16.7953159342474
20
4.53471789146573
30
0
41
1
10
17.6697296545189
20
4.45377625913653
30
0
41
1
10
18.077892984955
20
4.3546409331768
30
0
41
1
10
18.4531241148528
20
4.19061555567839
30
0
41
1
10
18.6122203105329
20
4.12106958394065
30
0
41
1
10
18.7666901848968
20
4.03950494313656
30
0
41
1
10
18.9132178184419
20
3.9469052108993
30
0
0
SPLINE
5
14E
100
AcDbEntity
8
1
62
256
6
ByLayer
370
18
48
1
60
0
100
AcDbSpline
70
4
71
3
72
8
73
4
40
0
40
0
40
0
40
0
40
1
40
1
40
1
40
1
41
1
10
12.1479746213922
20
-8.57854141299558
30
0
41
1
10
12.6527636605849
20
-7.76800328647695
30
0
41
1
10
13.2365332179687
20
-6.52814087433711
30
0
41
1
10
13.7960229491637
20
-5.2133747193287
30
0
0
SPLINE
5
14F
100
AcDbEntity
8
1
62
256
6
ByLayer
370
18
48
1
60
0
100
AcDbSpline
70
4
71
3
72
8
73
4
40
0
40
0
40
0
40
0
40
1
40
1
40
1
40
1
41
1
10
10.5028992009518
20
-1.03220344863817
30
0
41
1
10
9.09756553092922
20
-1.27879970832586
30
0
41
1
10
7.78822894584732
20
-1.5858333447579
30
0
41
1
10
6.92149236937286
20
-1.94264822774528
30
0
0
SPLINE
5
150
100
AcDbEntity
8
1
62
256
6
ByLayer
370
18
48
1
60
0
100
AcDbSpline
70
4
71
3
72
8
73
4
40
0
40
0
40
0
40
0
40
1
40
1
40
1
40
1
41
1
10
14.6763109790012
20
3.97251433095053
30
0
41
1
10
13.9755978222083
20
4.62525149559343
30
0
41
1
10
13.3536459846887
20
5.04568213392585
30
0
41
1
10
12.947034655444
20
5.14148064748352
30
0
0
SPLINE
5
151
100
AcDbEntity
8
1
62
256
6
ByLayer
370
18
48
1
60
0
100
AcDbSpline
70
4
71
3
72
12
73
8
40
0
40
0
40
0
40
0
40
0.477932094760453
40
0.477932094760453
40
0.904102435462302
40
0.904102435462302
40
1
40
1
40
1
40
1
41
1
10
13.7960229491663
20
-5.21337471933381
30
0
41
1
10
13.9574889652532
20
-5.12697918400707
30
0
41
1
10
14.1311092707976
20
-5.05170237056981
30
0
41
1
10
14.4657015326395
20
-4.94841000846233
30
0
41
1
10
14.6295824415779
20
-4.9154510035809
30
0
41
1
10
14.8219557398688
20
-4.90025822736507
30
0
41
1
10
14.8574443073064
20
-4.89845834331558
30
0
41
1
10
14.8924979186293
20
-4.89768728481928
30
0
0
SPLINE
5
152
100
AcDbEntity
8
1
62
256
6
ByLayer
370
18
48
1
60
0
100
AcDbSpline
70
4
71
3
72
19
73
15
40
0
40
0
40
0
40
0
40
0.249053371166661
40
0.249053371166661
40
0.249053371166661
40
0.403599292981678
40
0.403599292981678
40
0.403599292981678
40
0.717848378774913
40
0.717848378774913
40
0.717848378774913
40
0.85741678070374
40
0.85741678070374
40
1
40
1
40
1
40
1
41
1
10
20.6818901714457
20
1.70127990342513
30
0
41
1
10
20.7978786069665
20
1.35725165121315
30
0
41
1
10
20.8582050468064
20
0.987393048650887
30
0
41
1
10
20.8650359145545
20
0.621855629247762
30
0
41
1
10
20.8693109754667
20
0.393086051026472
30
0
41
1
10
20.8532555077499
20
0.163134436338339
30
0
41
1
10
20.8190785162846
20
-0.0630525324366431
30
0
41
1
10
20.7501672306646
20
-0.519114758529327
30
0
41
1
10
20.6061944990633
20
-0.9681222567269
30
0
41
1
10
20.4042526682917
20
-1.38288094788891
30
0
41
1
10
20.3137639533668
20
-1.56873140207043
30
0
41
1
10
20.2109969570938
20
-1.74923914717743
30
0
41
1
10
19.9812371321047
20
-2.09803106825555
30
0
41
1
10
19.8530329087587
20
-2.26704402067844
30
0
41
1
10
19.7149130180563
20
-2.42483351174917
30
0
0
SPLINE
5
153
100
AcDbEntity
8
1
62
256
6
ByLayer
370
18
48
1
60
0
100
AcDbSpline
70
4
71
3
72
24
73
20
40
0
40
0
40
0
40
0
40
0.0001109191202289
40
0.0001109191202289
40
0.0009920216778354
40
0.0009920216778354
40
0.006632822614052
40
0.006632822614052
40
0.0295221595744589
40
0.0295221595744589
40
0.121312289856735
40
0.121312289856735
40
0.308399631043503
40
0.308399631043503
40
0.55777336771614
40
0.55777336771614
40
0.796812834066753
40
0.796812834066753
40
1
40
1
40
1
40
1
41
1
10
30.6661572024032
20
10.407862926395
30
0
41
1
10
30.6661821488813
20
10.4078774758406
30
0
41
1
10
30.6662075371164
20
10.407891411621
30
0
41
1
10
30.6664347862006
20
10.40800739659
30
0
41
1
10
30.6666775947198
20
10.4080550272338
30
0
41
1
10
30.6685567650237
20
10.4079912038477
30
0
41
1
10
30.67033097296
20
10.4072403668151
30
0
41
1
10
30.6789639402759
20
10.4047053695156
30
0
41
1
10
30.6858657533345
20
10.4026196239616
30
0
41
1
10
30.7202703502215
20
10.3923312702903
30
0
41
1
10
30.7473253937641
20
10.3842694671568
30
0
41
1
10
30.8277269642829
20
10.3606192949926
30
0
41
1
10
30.8794870839555
20
10.3457992671196
30
0
41
1
10
30.9933544510719
20
10.3156319612224
30
0
41
1
10
31.0537804868328
20
10.301562161855
30
0
41
1
10
31.1591132816486
20
10.2851202432946
30
0
41
1
10
31.2052156457696
20
10.2821127993478
30
0
41
1
10
31.2757672875965
20
10.2920436012281
30
0
41
1
10
31.3033711074604
20
10.3019844590738
30
0
41
1
10
31.321775928677
20
10.32429689364
30
0
0
SPLINE
5
154
100
AcDbEntity
8
1
62
256
6
ByLayer
370
18
48
1
60
0
100
AcDbSpline
70
4
71
3
72
8
73
4
40
0
40
0
40
0
40
0
40
1
40
1
40
1
40
1
41
1
10
28.5155158726774
20
2.75889278367427
30
0
41
1
10
29.1706613628614
20
3.90708639820269
30
0
41
1
10
29.7874704983493
20
4.96763021597599
30
0
41
1
10
30.3135355880618
20
5.97157756395757
30
0
0
SPLINE
5
155
100
AcDbEntity
8
1
62
256
6
ByLayer
370
18
48
1
60
0
100
AcDbSpline
70
4
71
3
72
12
73
8
40
0
40
0
40
0
40
0
40
0.264973649150345
40
0.52994729830069
40
0.662434122875862
40
0.794920947451035
40
1
40
1
40
1
40
1
41
1.02994816993494
10
20.5471995797056
20
-4.50819961464598
30
0
41
1.03004363841634
10
21.3688045659159
20
-3.84465956004056
30
0
41
1.03021336426305
10
24.3800825877408
20
-1.40005102980472
30
0
41
1.0311558410484
10
27.9635698101064
20
3.25749271072611
30
0
41
1.03077804826571
10
29.1509059291375
20
5.23059755889736
30
0
41
1.03340133735626
10
30.4213042813692
20
7.41626784787489
30
0
41
1.03493149686168
10
31.0537370638172
20
8.91220104069837
30
0
41
1.03576782913892
10
31.3818864017237
20
9.83837397390842
30
0
0
SPLINE
5
156
100
AcDbEntity
8
1
62
256
6
ByLayer
370
18
48
1
60
0
100
AcDbSpline
70
4
71
3
72
8
73
4
40
0
40
0
40
0
40
0
40
1
40
1
40
1
40
1
41
1
10
6.92149236937286
20
-1.94264822774531
30
0
41
1
10
6.85312958705185
20
-1.85273642375853
30
0
41
1
10
6.78668508759654
20
-1.76093163222225
30
0
41
1
10
6.72413007109327
20
-1.66951697031527
30
0
0
SPLINE
5
157
100
AcDbEntity
8
1
62
256
6
ByLayer
370
18
48
1
60
0
100
AcDbSpline
70
4
71
3
72
14
73
10
40
0
40
0
40
0
40
0
40
0.256006012600452
40
0.256006012600452
40
0.256006012600452
40
0.73752356543209
40
0.73752356543209
40
0.73752356543209
40
1
40
1
40
1
40
1
41
1
10
18.9132178184419
20
3.9469052108993
30
0
41
1
10
19.1238839249068
20
3.81376287136558
30
0
41
1
10
19.3238755985775
20
3.66124511041164
30
0
41
1
10
19.5084219171039
20
3.49315553709855
30
0
41
1
10
19.8520076260883
20
3.18020876210562
30
0
41
1
10
20.1484288388947
20
2.80553926559034
30
0
41
1
10
20.373144569023
20
2.40017939982147
30
0
41
1
10
20.4968683992207
20
2.1769966472269
30
0
41
1
10
20.6007033025095
20
1.9420602126707
30
0
41
1
10
20.6818901714457
20
1.70127990342513
30
0
0
SPLINE
5
158
100
AcDbEntity
8
1
62
256
6
ByLayer
370
18
48
1
60
0
100
AcDbSpline
70
4
71
3
72
8
73
4
40
0
40
0
40
0
40
0
40
1
40
1
40
1
40
1
41
1
10
25.7261572635966
20
11.7960214429615
30
0
41
1
10
24.5979403500853
20
11.5566065264331
30
0
41
1
10
23.4018612669807
20
11.2315427720003
30
0
41
1
10
22.1202176754438
20
10.8787932594224
30
0
0
SPLINE
5
159
100
AcDbEntity
8
1
62
256
6
ByLayer
370
18
48
1
60
0
100
AcDbSpline
70
4
71
3
72
8
73
4
40
0
40
0
40
0
40
0
40
1
40
1
40
1
40
1
41
1
10
12.1319670458569
20
-8.55857032020441
30
0
41
1
10
12.1372478968536
20
-8.56527524360266
30
0
41
1
10
12.1425847422564
20
-8.57193345505496
30
0
41
1
10
12.1479746213922
20
-8.57854141299555
30
0
0
SPLINE
5
15A
100
AcDbEntity
8
1
62
256
6
ByLayer
370
18
48
1
60
0
100
AcDbSpline
70
4
71
3
72
12
73
8
40
0
40
0
40
0
40
0
40
0.392678099449881
40
0.392678099449881
40
0.791279335966146
40
0.791279335966146
40
1
40
1
40
1
40
1
41
1
10
16.7963327104654
20
-0.967639710384105
30
0
41
1
10
16.7790903938327
20
-0.977232484207093
30
0
41
1
10
16.7617171094208
20
-0.988109729103314
30
0
41
1
10
16.7294363557871
20
-1.01131324025707
30
0
41
1
10
16.7141962483769
20
-1.02395177583813
30
0
41
1
10
16.6944112726856
20
-1.04291618709288
30
0
41
1
10
16.6880955742632
20
-1.04949581833165
30
0
41
1
10
16.682359771237
20
-1.05596471253193
30
0
0
SPLINE
5
15B
100
AcDbEntity
8
1
62
256
6
ByLayer
370
18
48
1
60
0
100
AcDbSpline
70
4
71
3
72
14
73
10
40
0
40
0
40
0
40
0
40
0.0829586012802623
40
0.0829586012802623
40
0.45919501507517
40
0.45919501507517
40
0.835474799669137
40
0.835474799669137
40
1
40
1
40
1
40
1
41
1
10
17.1447658935765
20
0.125088926208292
30
0
41
1
10
17.1444115514325
20
0.120938040055421
30
0
41
1
10
17.1441281373712
20
0.116757694177863
30
0
41
1
10
17.142990200439
20
0.0936557899582908
30
0
41
1
10
17.1436663697274
20
0.074020742806141
30
0
41
1
10
17.1487064587566
20
0.0363283232381377
30
0
41
1
10
17.1531363445523
20
0.0178530940530095
30
0
41
1
10
17.161477463567
20
-0.0062131891024819
30
0
41
1
10
17.164296503758
20
-0.0132974830675323
30
0
41
1
10
17.1673251407033
20
-0.0200701638136422
30
0
0
SPLINE
5
15C
100
AcDbEntity
8
1
62
256
6
ByLayer
370
18
48
1
60
0
100
AcDbSpline
70
4
71
3
72
14
73
10
40
0
40
0
40
0
40
0
40
0.164525200330924
40
0.164525200330924
40
0.540804984924862
40
0.540804984924862
40
0.917041398719702
40
0.917041398719702
40
1
40
1
40
1
40
1
41
1
10
16.3625785960352
20
1.00169014342794
30
0
41
1
10
16.3685998384924
20
0.996972488962371
30
0
41
1
10
16.3749599431571
20
0.992402323607052
30
0
41
1
10
16.3967843582613
20
0.978168416952968
30
0
41
1
10
16.4138870556581
20
0.969304431121628
30
0
41
1
10
16.4494835022746
20
0.955401973492826
30
0
41
1
10
16.4683701251761
20
0.950198784692617
30
0
41
1
10
16.490933495192
20
0.946097518876144
30
0
41
1
10
16.4950301087704
20
0.945436370327911
30
0
41
1
10
16.499110782393
20
0.944856055555931
30
0
0
SPLINE
5
15D
100
AcDbEntity
8
1
62
256
6
ByLayer
370
18
48
1
60
0
100
AcDbSpline
70
4
71
3
72
14
73
10
40
0
40
0
40
0
40
0
40
0.164525200330905
40
0.164525200330905
40
0.540804984924885
40
0.540804984924885
40
0.917041398719628
40
0.917041398719628
40
1
40
1
40
1
40
1
41
1
10
15.665712229814
20
-1.1837671297547
30
0
41
1
10
15.6586104270554
20
-1.18015100864153
30
0
41
1
10
15.6513091228536
20
-1.17654031096222
30
0
41
1
10
15.6269618402066
20
-1.16487823925181
30
0
41
1
10
15.6090011247389
20
-1.1568889251262
30
0
41
1
10
15.5738541217041
20
-1.14252830047559
30
0
41
1
10
15.5562741336942
20
-1.13599311575572
30
0
41
1
10
15.5363001533529
20
-1.12925220170754
30
0
41
1
10
15.5327142098672
20
-1.12807047125531
30
0
41
1
10
15.5291800434564
20
-1.12693304188238
30
0
0
SPLINE
5
15E
100
AcDbEntity
8
1
62
256
6
ByLayer
370
18
48
1
60
0
100
AcDbSpline
70
4
71
3
72
12
73
8
40
0
40
0
40
0
40
0
40
0.392678099452514
40
0.392678099452514
40
0.791279335968703
40
0.791279335968703
40
1
40
1
40
1
40
1
41
1
10
15.2319581153847
20
0.785562724058281
30
0
41
1
10
15.2466348819825
20
0.792540152002942
30
0
41
1
10
15.2622332771263
20
0.801608058056217
30
0
41
1
10
15.2932704185403
20
0.823543819195777
30
0
41
1
10
15.3090805865332
20
0.836763479906239
30
0
41
1
10
15.3313506539418
20
0.85826121707214
30
0
41
1
10
15.3388177724721
20
0.866014616817694
30
0
41
1
10
15.3459310546131
20
0.873887726206107
30
0
0
SPLINE
5
15F
100
AcDbEntity
8
1
62
256
6
ByLayer
370
18
48
1
60
0
100
AcDbSpline
70
4
71
3
72
14
73
10
40
0
40
0
40
0
40
0
40
0.0829586012803399
40
0.0829586012803399
40
0.459195015075169
40
0.459195015075169
40
0.83547479966906
40
0.83547479966906
40
1
40
1
40
1
40
1
41
1
10
14.883524932273
20
-0.307165912534771
30
0
41
1
10
14.8833327672052
20
-0.303572140982823
30
0
41
1
10
14.8831055111737
20
-0.299912377009264
30
0
41
1
10
14.8816540584311
20
-0.279450121021398
30
0
41
1
10
14.8796712542513
20
-0.261147069788905
30
0
41
1
10
14.8741817216403
20
-0.223912817242734
30
0
41
1
10
14.8706098539155
20
-0.204562916351875
30
0
41
1
10
14.8647916024437
20
-0.177924798252718
30
0
41
1
10
14.8629137617896
20
-0.169881036611656
30
0
41
1
10
14.8609656851459
20
-0.162006822513121
30
0
0
LINE
5
72
100
AcDbEntity
8
1
62
256
6
ByLayer
370
18
48
1
60
0
100
AcDbLine
10
6.29815
20
1.178203
30
0
11
5.600202
21
0.527691
31
0
39
0
210
0
220
0
230
1
0
LINE
5
74
100
AcDbEntity
8
1
62
256
6
ByLayer
370
18
48
1
60
0
100
AcDbLine
10
32.18918
20
5.701755
30
0
11
32.995837
21
6.524069
31
0
39
0
210
0
220
0
230
1
0
LINE
5
75
100
AcDbEntity
8
1
62
256
6
ByLayer
370
18
48
1
60
0
100
AcDbLine
10
25.925988
20
13.4688
30
0
11
25.119331
21
12.646486
31
0
39
0
210
0
220
0
230
1
0
LINE
5
76
100
AcDbEntity
8
1
62
256
6
ByLayer
370
18
48
1
60
0
100
AcDbLine
10
16.693706
20
-1.043814
30
0
11
16.313642
21
-1.431254
31
0
39
0
210
0
220
0
230
1
0
LINE
5
77
100
AcDbEntity
8
1
62
256
6
ByLayer
370
18
48
1
60
0
100
AcDbLine
10
14.952453
20
0.472188
30
0
11
15.332517
21
0.859628
31
0
39
0
210
0
220
0
230
1
0
LINE
5
78
100
AcDbEntity
8
1
62
256
6
ByLayer
370
18
48
1
60
0
100
AcDbLine
10
9.611002
20
-1.891043
30
0
11
10.224297
21
-1.319431
31
0
39
0
210
0
220
0
230
1
0
LINE
5
79
100
AcDbEntity
8
1
62
256
6
ByLayer
370
18
48
1
60
0
100
AcDbLine
10
18.310682
20
-3.461944
30
0
11
18.722811
21
-3.041815
31
0
39
0
210
0
220
0
230
1
0
LINE
5
7A
100
AcDbEntity
8
1
62
256
6
ByLayer
370
18
48
1
60
0
100
AcDbLine
10
13.011851
20
2.56041
30
0
11
12.599721
21
2.140281
31
0
39
0
210
0
220
0
230
1
0
LINE
5
7B
100
AcDbEntity
8
80
62
256
6
ByLayer
370
18
48
1
60
0
100
AcDbLine
10
0
20
0
30
0
11
-5
21
0
31
0
39
0
210
0
220
0
230
1
0
LINE
5
7C
100
AcDbEntity
8
81
62
256
6
ByLayer
370
18
48
1
60
0
100
AcDbLine
10
39.219028
20
19.9125
30
0
11
49.219028
21
19.9125
31
0
39
0
210
0
220
0
230
1
0
LINE
5
7D
100
AcDbEntity
8
1
62
256
6
ByLayer
370
18
48
1
60
0
100
AcDbLine
10
11.956524
20
1.868613
30
0
11
13.421613
21
3.002621
31
0
39
0
210
0
220
0
230
1
0
LINE
5
7E
100
AcDbEntity
8
1
62
256
6
ByLayer
370
18
48
1
60
0
100
AcDbLine
10
15.392822
20
-9.968434
30
0
11
14.784961
21
-10.534982
31
0
39
0
210
0
220
0
230
1
0
LINE
5
7F
100
AcDbEntity
8
1
62
256
6
ByLayer
370
18
48
1
60
0
100
AcDbLine
10
16.456592
20
-9.152435
30
0
11
15.087598
21
-10.287073
31
0
39
0
210
0
220
0
230
1
0
LINE
5
80
100
AcDbEntity
8
1
62
256
6
ByLayer
370
18
48
1
60
0
100
AcDbLine
10
8.749366
20
3.091329
30
0
11
8.711836
21
3.13898
31
0
39
0
210
0
220
0
230
1
0
LINE
5
81
100
AcDbEntity
8
1
62
256
6
ByLayer
370
18
48
1
60
0
100
AcDbLine
10
32.806854
20
6.384165
30
0
11
29.61404
21
4.722091
31
0
39
0
210
0
220
0
230
1
0
LINE
5
82
100
AcDbEntity
8
1
62
256
6
ByLayer
370
18
48
1
60
0
100
AcDbLine
10
24.960997
20
11.614754
30
0
11
25.79032
21
13.278323
31
0
39
0
210
0
220
0
230
1
0
LINE
5
83
100
AcDbEntity
8
1
62
256
6
ByLayer
370
18
48
1
60
0
100
AcDbLine
10
32.000196
20
5.561851
30
0
11
31.903897
21
5.51172
31
0
39
0
210
0
220
0
230
1
0
LINE
5
84
100
AcDbEntity
8
1
62
256
6
ByLayer
370
18
48
1
60
0
100
AcDbLine
10
24.919269
20
12.326839
30
0
11
24.983662
21
12.456008
31
0
39
0
210
0
220
0
230
1
0
LINE
5
85
100
AcDbEntity
8
1
62
256
6
ByLayer
370
18
48
1
60
0
100
AcDbLine
10
16.337022
20
-9.6615
30
0
11
16.141577
21
-9.41335
31
0
39
0
210
0
220
0
230
1
0
LINE
5
86
100
AcDbEntity
8
1
62
256
6
ByLayer
370
18
48
1
60
0
100
AcDbLine
10
7.223982
20
1.909028
30
0
11
2.74086
21
7.601101
31
0
39
0
210
0
220
0
230
1
0
LINE
5
87
100
AcDbEntity
8
1
62
256
6
ByLayer
370
18
48
1
60
0
100
AcDbLine
10
13.248182
20
-11.609823
30
0
11
13.126483
21
-11.455306
31
0
39
0
210
0
220
0
230
1
0
LINE
5
88
100
AcDbEntity
8
1
62
256
6
ByLayer
370
18
48
1
60
0
100
AcDbLine
10
4.639026
20
-0.67906
30
0
11
2.184651
21
2.43718
31
0
39
0
210
0
220
0
230
1
0
LINE
5
89
100
AcDbEntity
8
1
62
256
6
ByLayer
370
18
48
1
60
0
100
AcDbLine
10
29.455026
20
4.444964
30
0
11
31.809592
21
5.684087
31
0
39
0
210
0
220
0
230
1
0
LINE
5
8A
100
AcDbEntity
8
1
62
256
6
ByLayer
370
18
48
1
60
0
100
AcDbLine
10
24.755921
20
11.562869
30
0
11
25.092057
21
12.237137
31
0
39
0
210
0
220
0
230
1
0
LINE
5
8B
100
AcDbEntity
8
1
62
256
6
ByLayer
370
18
48
1
60
0
100
AcDbLine
10
12.390616
20
-12.163909
30
0
11
11.817932
21
-11.43679
31
0
39
0
210
0
220
0
230
1
0
LINE
5
8C
100
AcDbEntity
8
1
62
256
6
ByLayer
370
18
48
1
60
0
100
AcDbLine
10
4.344248
20
-1.947698
30
0
11
1.984077
21
1.048933
31
0
39
0
210
0
220
0
230
1
0
LINE
5
8D
100
AcDbEntity
8
1
62
256
6
ByLayer
370
18
48
1
60
0
100
AcDbLine
10
24.918554
20
11.604808
30
0
11
25.142656
21
12.054344
31
0
39
0
210
0
220
0
230
1
0
LINE
5
8E
100
AcDbEntity
8
1
62
256
6
ByLayer
370
18
48
1
60
0
100
AcDbLine
10
13.214307
20
-11.644356
30
0
11
13.0789
21
-11.472434
31
0
39
0
210
0
220
0
230
1
0
LINE
5
8F
100
AcDbEntity
8
1
62
256
6
ByLayer
370
18
48
1
60
0
100
AcDbLine
10
4.61215
20
-0.722479
30
0
11
2.1324
21
2.425979
31
0
39
0
210
0
220
0
230
1
0
LINE
5
90
100
AcDbEntity
8
1
62
256
6
ByLayer
370
18
48
1
60
0
100
AcDbLine
10
29.655654
20
4.581889
30
0
11
29.480865
21
4.489904
31
0
39
0
210
0
220
0
230
1
0
LINE
5
91
100
AcDbEntity
8
1
62
256
6
ByLayer
370
18
48
1
60
0
100
AcDbLine
10
16.222717
20
-1.691835
30
0
11
16.579276
21
-1.328355
31
0
39
0
210
0
220
0
230
1
0
LINE
5
92
100
AcDbEntity
8
1
62
256
6
ByLayer
370
18
48
1
60
0
100
AcDbLine
10
18.310682
20
-3.461944
30
0
11
18.310751
21
-3.461873
31
0
39
0
210
0
220
0
230
1
0
LINE
5
93
100
AcDbEntity
8
1
62
256
6
ByLayer
370
18
48
1
60
0
100
AcDbLine
10
14.648272
20
-9.07966
30
0
11
20.5472
21
-4.5082
31
0
39
0
210
0
220
0
230
1
0
LINE
5
94
100
AcDbEntity
8
1
62
256
6
ByLayer
370
18
48
1
60
0
100
AcDbLine
10
10.311896
20
-8.076387
30
0
11
10.068735
21
-8.080567
31
0
39
0
210
0
220
0
230
1
0
LINE
5
95
100
AcDbEntity
8
1
62
256
6
ByLayer
370
18
48
1
60
0
100
AcDbLine
10
15.392822
20
-9.968434
30
0
11
17.712223
21
-8.170981
31
0
39
0
210
0
220
0
230
1
0
LINE
5
96
100
AcDbEntity
8
1
62
256
6
ByLayer
370
18
48
1
60
0
100
AcDbLine
10
12.131967
20
-8.55857
30
0
11
10.18944
21
-10.369073
31
0
39
0
210
0
220
0
230
1
0
LINE
5
97
100
AcDbEntity
8
1
62
256
6
ByLayer
370
18
48
1
60
0
100
AcDbLine
10
9.493142
20
-8.617039
30
0
11
10.068735
21
-8.080567
31
0
39
0
210
0
220
0
230
1
0
LINE
5
98
100
AcDbEntity
8
1
62
256
6
ByLayer
370
18
48
1
60
0
100
AcDbLine
10
9.986473
20
-1.525055
30
0
11
9.41568
21
-2.057053
31
0
39
0
210
0
220
0
230
1
0
LINE
5
99
100
AcDbEntity
8
1
62
256
6
ByLayer
370
18
48
1
60
0
100
AcDbLine
10
17.712223
20
-8.170981
30
0
11
17.70047
21
-8.273594
31
0
39
0
210
0
220
0
230
1
0
LINE
5
9A
100
AcDbEntity
8
1
62
256
6
ByLayer
370
18
48
1
60
0
100
AcDbLine
10
19.140096
20
-2.968796
30
0
11
17.563855
21
-4.190327
31
0
39
0
210
0
220
0
230
1
0
LINE
5
9B
100
AcDbEntity
8
1
62
256
6
ByLayer
370
18
48
1
60
0
100
AcDbLine
10
14.007139
20
3.548351
30
0
11
13.421613
21
3.002621
31
0
39
0
210
0
220
0
230
1
0
LINE
5
9C
100
AcDbEntity
8
1
62
256
6
ByLayer
370
18
48
1
60
0
100
AcDbLine
10
6.462842
20
-4.769567
30
0
11
7.038435
21
-4.233094
31
0
39
0
210
0
220
0
230
1
0
LINE
5
9D
100
AcDbEntity
8
1
62
256
6
ByLayer
370
18
48
1
60
0
100
AcDbLine
10
9.657812
20
-8.686015
30
0
11
9.493142
21
-8.617039
31
0
39
0
210
0
220
0
230
1
0
LINE
5
9E
100
AcDbEntity
8
1
62
256
6
ByLayer
370
18
48
1
60
0
100
AcDbLine
10
17.712223
20
-8.170981
30
0
11
17.658839
21
-8.220736
31
0
39
0
210
0
220
0
230
1
0
LINE
5
9F
100
AcDbEntity
8
1
62
256
6
ByLayer
370
18
48
1
60
0
100
AcDbLine
10
6.937167
20
-1.962903
30
0
11
4.99464
21
-3.773406
31
0
39
0
210
0
220
0
230
1
0
LINE
5
A0
100
AcDbEntity
8
1
62
256
6
ByLayer
370
18
48
1
60
0
100
AcDbLine
10
8.806851
20
3.135877
30
0
11
6.487451
21
1.338424
31
0
39
0
210
0
220
0
230
1
0
LINE
5
A1
100
AcDbEntity
8
1
62
256
6
ByLayer
370
18
48
1
60
0
100
AcDbLine
10
8.054823
20
-3.110383
30
0
11
11.270652
21
-7.193415
31
0
39
0
210
0
220
0
230
1
0
LINE
5
A2
100
AcDbEntity
8
1
62
256
6
ByLayer
370
18
48
1
60
0
100
AcDbLine
10
20.669421
20
-5.972763
30
0
11
17.70047
21
-8.273594
31
0
39
0
210
0
220
0
230
1
0
LINE
5
A3
100
AcDbEntity
8
1
62
256
6
ByLayer
370
18
48
1
60
0
100
AcDbLine
10
7.096067
20
-3.993355
30
0
11
7.038435
21
-4.233094
31
0
39
0
210
0
220
0
230
1
0
LINE
5
A4
100
AcDbEntity
8
1
62
256
6
ByLayer
370
18
48
1
60
0
100
AcDbLine
10
12.430898
20
2.32682
30
0
11
11.854803
21
1.78988
31
0
39
0
210
0
220
0
230
1
0
LINE
5
A5
100
AcDbEntity
8
1
62
256
6
ByLayer
370
18
48
1
60
0
100
AcDbLine
10
6.937167
20
-1.962903
30
0
11
12.131967
21
-8.55857
31
0
39
0
210
0
220
0
230
1
0
LINE
5
A6
100
AcDbEntity
8
1
62
256
6
ByLayer
370
18
48
1
60
0
100
AcDbLine
10
8.711836
20
3.13898
30
0
11
8.806851
21
3.135877
31
0
39
0
210
0
220
0
230
1
0
LINE
5
A7
100
AcDbEntity
8
1
62
256
6
ByLayer
370
18
48
1
60
0
100
AcDbLine
10
7.096067
20
-3.993355
30
0
11
10.311896
21
-8.076387
31
0
39
0
210
0
220
0
230
1
0
LINE
5
A8
100
AcDbEntity
8
1
62
256
6
ByLayer
370
18
48
1
60
0
100
AcDbLine
10
6.441984
20
-4.602983
30
0
11
6.462842
21
-4.769567
31
0
39
0
210
0
220
0
230
1
0
LINE
5
A9
100
AcDbEntity
8
1
62
256
6
ByLayer
370
18
48
1
60
0
100
AcDbLine
10
7.048107
20
0.57002
30
0
11
12.947035
21
5.141481
31
0
39
0
210
0
220
0
230
1
0
LINE
5
AA
100
AcDbEntity
8
1
62
256
6
ByLayer
370
18
48
1
60
0
100
AcDbLine
10
11.680786
20
5.439812
30
0
11
8.711836
21
3.13898
31
0
39
0
210
0
220
0
230
1
0
LINE
5
AB
100
AcDbEntity
8
1
62
256
6
ByLayer
370
18
48
1
60
0
100
AcDbLine
10
6.462842
20
-4.769567
30
0
11
9.493142
21
-8.617039
31
0
39
0
210
0
220
0
230
1
0
LINE
5
AC
100
AcDbEntity
8
1
62
256
6
ByLayer
370
18
48
1
60
0
100
AcDbLine
10
16.456592
20
-9.152435
30
0
11
17.658839
21
-8.220736
31
0
39
0
210
0
220
0
230
1
0
LINE
5
AD
100
AcDbEntity
8
1
62
256
6
ByLayer
370
18
48
1
60
0
100
AcDbLine
10
9.657812
20
-8.686015
30
0
11
10.311896
21
-8.076387
31
0
39
0
210
0
220
0
230
1
0
LINE
5
AE
100
AcDbEntity
8
1
62
256
6
ByLayer
370
18
48
1
60
0
100
AcDbLine
10
12.430898
20
2.32682
30
0
11
14.007139
21
3.548351
31
0
39
0
210
0
220
0
230
1
0
LINE
5
AF
100
AcDbEntity
8
1
62
256
6
ByLayer
370
18
48
1
60
0
100
AcDbLine
10
10.18944
20
-10.369073
30
0
11
4.99464
21
-3.773406
31
0
39
0
210
0
220
0
230
1
0
LINE
5
B0
100
AcDbEntity
8
1
62
256
6
ByLayer
370
18
48
1
60
0
100
AcDbLine
10
9.41568
20
-2.057053
30
0
11
8.054823
21
-3.110383
31
0
39
0
210
0
220
0
230
1
0
LINE
5
B1
100
AcDbEntity
8
1
62
256
6
ByLayer
370
18
48
1
60
0
100
AcDbLine
10
7.038435
20
-4.233094
30
0
11
10.068735
21
-8.080567
31
0
39
0
210
0
220
0
230
1
0
LINE
5
B2
100
AcDbEntity
8
1
62
256
6
ByLayer
370
18
48
1
60
0
100
AcDbLine
10
17.658839
20
-8.220736
30
0
11
17.70047
21
-8.273594
31
0
39
0
210
0
220
0
230
1
0
LINE
5
B3
100
AcDbEntity
8
1
62
256
6
ByLayer
370
18
48
1
60
0
100
AcDbLine
10
6.441984
20
-4.602983
30
0
11
7.096067
21
-3.993355
31
0
39
0
210
0
220
0
230
1
0
LINE
5
B4
100
AcDbEntity
8
1
62
256
6
ByLayer
370
18
48
1
60
0
100
AcDbLine
10
11.844058
20
-12.466833
30
0
11
2.600048
21
-12.473879
31
0
39
0
210
0
220
0
230
1
0
LINE
5
B5
100
AcDbEntity
8
1
62
256
6
ByLayer
370
18
48
1
60
0
100
AcDbLine
10
30.512597
20
-1.804842
30
0
11
23.959805
21
-8.484821
31
0
39
0
210
0
220
0
230
1
0
LINE
5
B6
100
AcDbEntity
8
1
62
256
6
ByLayer
370
18
48
1
60
0
100
AcDbLine
10
0.5
20
12.239855
30
0
11
2.472684
21
13.488543
31
0
39
0
210
0
220
0
230
1
0
LINE
5
B7
100
AcDbEntity
8
1
62
256
6
ByLayer
370
18
48
1
60
0
100
AcDbLine
10
0
20
-12.4375
30
0
11
0
21
12.187735
31
0
39
0
210
0
220
0
230
1
0
LINE
5
B8
100
AcDbEntity
8
1
62
256
6
ByLayer
370
18
48
1
60
0
100
AcDbLine
10
2.184651
20
2.43718
30
0
11
2.74086
21
7.601101
31
0
39
0
210
0
220
0
230
1
0
LINE
5
B9
100
AcDbEntity
8
1
62
256
6
ByLayer
370
18
48
1
60
0
100
AcDbLine
10
0.5
20
12.239855
30
0
11
0.5
21
-12.439682
31
0
39
0
210
0
220
0
230
1
0
LINE
5
BA
100
AcDbEntity
8
1
62
256
6
ByLayer
370
18
48
1
60
0
100
AcDbLine
10
31.809592
20
5.684087
30
0
11
31.625462
21
5.730955
31
0
39
0
210
0
220
0
230
1
0
LINE
5
BB
100
AcDbEntity
8
1
62
256
6
ByLayer
370
18
48
1
60
0
100
AcDbLine
10
25.092057
20
12.237137
30
0
11
25.142656
21
12.054344
31
0
39
0
210
0
220
0
230
1
0
LINE
5
BC
100
AcDbEntity
8
1
62
256
6
ByLayer
370
18
48
1
60
0
100
AcDbLine
10
2.1324
20
2.425979
30
0
11
2.184651
21
2.43718
31
0
39
0
210
0
220
0
230
1
0
LINE
5
BD
100
AcDbEntity
8
1
62
256
6
ByLayer
370
18
48
1
60
0
100
AcDbLine
10
0.5
20
-12.439682
30
0
11
2.600048
21
-12.473879
31
0
39
0
210
0
220
0
230
1
0
LINE
5
BE
100
AcDbEntity
8
1
62
256
6
ByLayer
370
18
48
1
60
0
100
AcDbLine
10
30.512597
20
-1.804842
30
0
11
16.337022
21
-9.6615
31
0
39
0
210
0
220
0
230
1
0
LINE
5
BF
100
AcDbEntity
8
1
62
256
6
ByLayer
370
18
48
1
60
0
100
AcDbLine
10
2.600048
20
-12.473879
30
0
11
1.984077
21
1.048933
31
0
39
0
210
0
220
0
230
1
0
LINE
5
C0
100
AcDbEntity
8
1
62
256
6
ByLayer
370
18
48
1
60
0
100
AcDbLine
10
0.5
20
-12.439682
30
0
11
0
21
-12.4375
31
0
39
0
210
0
220
0
230
1
0
LINE
5
C1
100
AcDbEntity
8
1
62
256
6
ByLayer
370
18
48
1
60
0
100
AcDbLine
10
30.127999
20
4.942894
30
0
11
31.625462
21
5.730955
31
0
39
0
210
0
220
0
230
1
0
LINE
5
C2
100
AcDbEntity
8
1
62
256
6
ByLayer
370
18
48
1
60
0
100
AcDbLine
10
13.248182
20
-11.609823
30
0
11
16.337022
21
-9.6615
31
0
39
0
210
0
220
0
230
1
0
LINE
5
C3
100
AcDbEntity
8
1
62
256
6
ByLayer
370
18
48
1
60
0
100
AcDbLine
10
13.214307
20
-11.644356
30
0
11
13.248182
21
-11.609823
31
0
39
0
210
0
220
0
230
1
0
LINE
5
C4
100
AcDbEntity
8
1
62
256
6
ByLayer
370
18
48
1
60
0
100
AcDbLine
10
2.74086
20
7.601101
30
0
11
2.472684
21
13.488543
31
0
39
0
210
0
220
0
230
1
0
LINE
5
C5
100
AcDbEntity
8
1
62
256
6
ByLayer
370
18
48
1
60
0
100
AcDbLine
10
2.472684
20
13.488543
30
0
11
19.419243
21
11.472241
31
0
39
0
210
0
220
0
230
1
0
LINE
5
C6
100
AcDbEntity
8
1
62
256
6
ByLayer
370
18
48
1
60
0
100
AcDbLine
10
31.809592
20
5.684087
30
0
11
31.921029
21
5.480854
31
0
39
0
210
0
220
0
230
1
0
LINE
5
C7
100
AcDbEntity
8
1
62
256
6
ByLayer
370
18
48
1
60
0
100
AcDbLine
10
0.5
20
12.239855
30
0
11
0
21
12.187735
31
0
39
0
210
0
220
0
230
1
0
LINE
5
C8
100
AcDbEntity
8
1
62
256
6
ByLayer
370
18
48
1
60
0
100
AcDbLine
10
11.844058
20
-12.466833
30
0
11
12.390616
21
-12.163909
31
0
39
0
210
0
220
0
230
1
0
LINE
5
C9
100
AcDbEntity
8
1
62
256
6
ByLayer
370
18
48
1
60
0
100
AcDbLine
10
17.332022
20
-12.298527
30
0
11
23.959805
21
-8.484821
31
0
39
0
210
0
220
0
230
1
0
LINE
5
CA
100
AcDbEntity
8
1
62
256
6
ByLayer
370
18
48
1
60
0
100
AcDbLine
10
11.844058
20
-12.466833
30
0
11
17.332022
21
-12.298527
31
0
39
0
210
0
220
0
230
1
0
LINE
5
CB
100
AcDbEntity
8
1
62
256
6
ByLayer
370
18
48
1
60
0
100
AcDbLine
10
30.512597
20
-1.804842
30
0
11
31.183179
21
-0.459697
31
0
39
0
210
0
220
0
230
1
0
LINE
5
CC
100
AcDbEntity
8
1
62
256
6
ByLayer
370
18
48
1
60
0
100
AcDbLine
10
25.092057
20
12.237137
30
0
11
24.861434
21
12.357117
31
0
39
0
210
0
220
0
230
1
0
LINE
5
CD
100
AcDbEntity
8
SK1
62
256
6
ByLayer
370
18
48
1
60
0
100
AcDbLine
10
-132.130972
20
12.4375
30
0
11
-132.130972
21
-12.4375
31
0
39
0
210
0
220
0
230
1
0
LINE
5
CF
100
AcDbEntity
8
SK1
62
256
6
ByLayer
370
18
48
1
60
0
100
AcDbLine
10
-2.547965
20
12.4375
30
0
11
-132.130972
21
12.4375
31
0
39
0
210
0
220
0
230
1
0
LINE
5
D0
100
AcDbEntity
8
SK1
62
256
6
ByLayer
370
18
48
1
60
0
100
AcDbLine
10
0
20
12.187735
30
0
11
0
21
-12.4375
31
0
39
0
210
0
220
0
230
1
0
LINE
5
D1
100
AcDbEntity
8
SK1
62
256
6
ByLayer
370
18
48
1
60
0
100
AcDbLine
10
-1.879409
20
12.355555
30
0
11
0
21
12.187735
31
0
39
0
210
0
220
0
230
1
0
LINE
5
D2
100
AcDbEntity
8
SK1
62
256
6
ByLayer
370
18
48
1
60
0
100
AcDbLine
10
-132.130972
20
-12.4375
30
0
11
0
21
-12.4375
31
0
39
0
210
0
220
0
230
1
0
LINE
5
D3
100
AcDbEntity
8
1
62
256
6
ByLayer
370
18
48
1
60
0
100
AcDbLine
10
24.983662
20
12.456008
30
0
11
25.79032
21
13.278323
31
0
39
0
210
0
220
0
230
1
0
LINE
5
D4
100
AcDbEntity
8
1
62
256
6
ByLayer
370
18
48
1
60
0
100
AcDbLine
10
32.000196
20
5.561851
30
0
11
32.806854
21
6.384165
31
0
39
0
210
0
220
0
230
1
0
LINE
5
D5
100
AcDbEntity
8
1
62
256
6
ByLayer
370
18
48
1
60
0
100
AcDbLine
10
26.114972
20
13.608704
30
0
11
38.059095
21
19.826422
31
0
39
0
210
0
220
0
230
1
0
LINE
5
D6
100
AcDbEntity
8
1
62
256
6
ByLayer
370
18
48
1
60
0
100
AcDbLine
10
16.973517
20
-0.641132
30
0
11
17.354615
21
-0.252637
31
0
39
0
210
0
220
0
230
1
0
LINE
5
D7
100
AcDbEntity
8
1
62
256
6
ByLayer
370
18
48
1
60
0
100
AcDbLine
10
16.408386
20
0.596184
30
0
11
16.789484
21
0.984679
31
0
39
0
210
0
220
0
230
1
0
LINE
5
D8
100
AcDbEntity
8
1
62
256
6
ByLayer
370
18
48
1
60
0
100
AcDbLine
10
15.799305
20
0.849726
30
0
11
16.180403
21
1.238221
31
0
39
0
210
0
220
0
230
1
0
LINE
5
D9
100
AcDbEntity
8
1
62
256
6
ByLayer
370
18
48
1
60
0
100
AcDbLine
10
14.559474
20
0.363758
30
0
11
14.940572
21
0.752253
31
0
39
0
210
0
220
0
230
1
0
LINE
5
DA
100
AcDbEntity
8
1
62
256
6
ByLayer
370
18
48
1
60
0
100
AcDbLine
10
16.872878
20
0.006434
30
0
11
17.253976
21
0.394929
31
0
39
0
210
0
220
0
230
1
0
LINE
5
DB
100
AcDbEntity
8
1
62
256
6
ByLayer
370
18
48
1
60
0
100
AcDbLine
10
39.13905
20
18.765303
30
0
11
33.131506
21
6.714547
31
0
39
0
210
0
220
0
230
1
0
MTEXT
5
160
100
AcDbEntity
8
SK6
62
256
6
ByLayer
370
18
48
1
60
0
100
AcDbMText
10
-60.580972
20
-23.33069
30
0
210
0
220
0
230
1
1
\W0.7687;DVPNR 3225P 16
40
3.5
41
0
44
1.084337
50
0
71
7
72
5
7
iso_b_vert
0
DIMENSION
5
171
100
AcDbEntity
8
2
62
256
6
ByLayer
370
13
48
1
60
0
100
AcDbDimension
2
DimnDraft3D1
10
37.171754
20
19.361066
30
0
11
17.765179
21
33.445325
31
0
70
34
71
5
72
1
41
1
210
0
220
0
230
1
3
Standard
100
AcDb2LineAngularDimension
13
39.219028
23
19.9125
33
0
14
39.219028
24
18.325
34
0
15
38.058765
25
19.822815
35
0
16
21.612282
26
31.110845
36
0
40
0
0
DIMENSION
5
187
100
AcDbEntity
8
SK2
62
256
6
ByLayer
370
13
48
1
60
0
100
AcDbDimension
2
DimnDraft3D2
10
-139.880972
20
12.4375
30
0
11
-139.880972
21
-5.281579
31
0
70
32
71
5
72
1
41
1
210
0
220
0
230
1
3
Standard
100
AcDbAlignedDimension
13
-134.130972
23
-12.4375
33
0
14
-134.130972
24
12.4375
34
0
50
90
100
AcDbRotatedDimension
1001
ACAD
1000
DSTYLE
1002
{
1070
    74
1070
     0
1070
   279
1070
     0
1070
   172
1070
     1
1070
   173
1070
     1
1070
   340
1005
161
1070
    77
1070
     1
1070
    73
1070
     0
1070
   171
1070
     3
1070
   274
1070
     4
1070
   177
1070
     2
1070
   176
1070
     2
1070
   178
1070
     7
1070
    78
1070
     8
1070
    41
1041
3.175
1070
   147
1041
2.25
1070
    42
1041
2.0
1070
    44
1041
2.0
1070
   140
1041
4.5
1070
   343
1005
172
1070
   344
1005
172
1002
}
0
DIMENSION
5
195
100
AcDbEntity
8
2
62
256
6
ByLayer
370
13
48
1
60
0
100
AcDbDimension
2
DimnDraft3D3
10
61.469028
20
19.9125
30
0
11
61.469028
21
-1.544079
31
0
70
32
71
5
72
1
41
1
210
0
220
0
230
1
3
Standard
100
AcDbAlignedDimension
13
2
23
-12.4375
33
0
14
41.219028
24
19.9125
34
0
50
90
100
AcDbRotatedDimension
1001
ACAD
1000
DSTYLE
1002
{
1070
    74
1070
     0
1070
   279
1070
     0
1070
   172
1070
     1
1070
   173
1070
     1
1070
   340
1005
161
1070
    77
1070
     1
1070
    73
1070
     0
1070
   171
1070
     3
1070
   274
1070
     4
1070
   177
1070
     2
1070
   176
1070
     2
1070
   178
1070
     7
1070
    78
1070
     8
1070
    41
1041
3.175
1070
   147
1041
2.25
1070
    42
1041
2.0
1070
    44
1041
2.0
1070
   140
1041
4.5
1070
   343
1005
172
1070
   344
1005
172
1002
}
0
DIMENSION
5
1A3
100
AcDbEntity
8
2
62
256
6
ByLayer
370
13
48
1
60
0
100
AcDbDimension
2
DimnDraft3D4
10
39.219028
20
49.6625
30
0
11
14.327935
21
49.6625
31
0
70
32
71
5
72
1
41
1
210
0
220
0
230
1
3
Standard
100
AcDbAlignedDimension
13
0
23
14.4375
33
0
14
39.219028
24
21.9125
34
0
50
0
100
AcDbRotatedDimension
1001
ACAD
1000
DSTYLE
1002
{
1070
   279
1070
     0
1070
   172
1070
     1
1070
   173
1070
     1
1070
   340
1005
161
1070
    77
1070
     1
1070
    73
1070
     0
1070
   171
1070
     3
1070
   274
1070
     4
1070
   177
1070
     2
1070
   176
1070
     2
1070
   178
1070
     7
1070
    78
1070
     8
1070
    41
1041
3.175
1070
   147
1041
2.25
1070
    42
1041
2.0
1070
    44
1041
2.0
1070
   140
1041
4.5
1070
   343
1005
172
1070
   344
1005
172
1002
}
0
DIMENSION
5
1B1
100
AcDbEntity
8
SK2
62
256
6
ByLayer
370
13
48
1
60
0
100
AcDbDimension
2
DimnDraft3D5
10
-132.130972
20
59.6625
30
0
11
-52.85663
21
59.6625
31
0
70
32
71
5
72
1
41
1
210
0
220
0
230
1
3
Standard
100
AcDbAlignedDimension
13
39.219028
23
21.9125
33
0
14
-132.130972
24
14.4375
34
0
50
0
100
AcDbRotatedDimension
1001
ACAD
1000
DSTYLE
1002
{
1070
   279
1070
     0
1070
   172
1070
     1
1070
   173
1070
     1
1070
   340
1005
161
1070
    77
1070
     1
1070
    73
1070
     0
1070
   171
1070
     3
1070
   274
1070
     4
1070
   177
1070
     2
1070
   176
1070
     2
1070
   178
1070
     7
1070
    78
1070
     8
1070
    41
1041
3.175
1070
   147
1041
2.25
1070
    42
1041
2.0
1070
    44
1041
2.0
1070
   140
1041
4.5
1070
   343
1005
172
1070
   344
1005
172
1002
}
0
ENDSEC
0
SECTION
2
OBJECTS
0
DICTIONARY
5
21b
330
0
100
AcDbDictionary
280
0
281
1
3
ACAD_GROUP
350
21c
3
ACAD_MLINESTYLE
350
21d
0
DICTIONARY
5
21c
330
0
100
AcDbDictionary
280
0
281
1
0
DICTIONARY
5
21d
330
0
100
AcDbDictionary
280
0
281
1
3
Standard
350
18
0
MLINESTYLE
5
18
330
21d
100
AcDbMlineStyle
2
Standard
70
0
3

62
256
51
90
52
90
71
2
49
-0.5
62
256
6
ByLayer
49
0.5
62
256
6
ByLayer
0
RASTERVARIABLES
5
20a
330

100
AcDbRasterVariables
90
0
70
1
71
1
72
1
0
ENDSEC
0
EOF
