0
SECTION
2
HEADER
9
$ACADVER
1
AC1015
9
$DWGCODEPAGE
3
ANSI_1252
9
$HANDSEED
5
230
9
$ANGBASE
50
0
9
$ANGDIR
70
0
9
$ATTMODE
70
1
9
$AUNITS
70
0
9
$AUPREC
70
0
9
$CECOLOR
62
256
9
$CELTSCALE
40
1
9
$CELTYPE
6
ByLayer
9
$CELWEIGHT
370
18
9
$CLAYER
8
0
9
$CMLJUST
70
0
9
$CMLSCALE
40
1
9
$CMLSTYLE
2
Standard
9
$DIMSTYLE
2
Standard
9
$TEXTSIZE
40
0.2
9
$TEXTSTYLE
7
Standard
9
$LUNITS
70
2
9
$LUPREC
70
4
9
$EXTNAMES
290
1
9
$INSUNITS
70
4
9
$LTSCALE
40
1
9
$LWDISPLAY
290
1
9
$PDMODE
70
0
9
$PDSIZE
40
0
9
$PLINEGEN
70
0
0
ENDSEC
0
SECTION
2
CLASSES
0
CLASS
1
RASTERVARIABLES
2
AcDbRasterVariables
3
ISM
90
0
280
0
281
0
0
ENDSEC
0
SECTION
2
TABLES
0
TABLE
2
VPORT
5
226
100
AcDbSymbolTable
0
VPORT
5
1
100
AcDbSymbolTableRecord
100
AcDbViewportTableRecord
2
*Active
70
0
10
0
20
0
11
1
21
1
12
-1
22
1
13
0
23
0
14
0.5
24
0.5
15
10
25
10
16
0
26
0
36
1
17
0
27
0
37
0
0
ENDTAB
0
TABLE
2
LTYPE
5
227
100
AcDbSymbolTable
0
LTYPE
5
14
100
AcDbSymbolTableRecord
100
AcDbLinetypeTableRecord
70
0
2
ByBlock
3

72
65
73
0
40
0
0
LTYPE
5
15
100
AcDbSymbolTableRecord
100
AcDbLinetypeTableRecord
70
0
2
ByLayer
3

72
65
73
0
40
0
0
LTYPE
5
16
100
AcDbSymbolTableRecord
100
AcDbLinetypeTableRecord
70
0
2
CONTINUOUS
3
Solid line
72
65
73
0
40
0
0
LTYPE
5
6A
100
AcDbSymbolTableRecord
100
AcDbLinetypeTableRecord
70
0
2
CENTER
3
____ _ ____ _ ____ _ ____
72
65
73
4
40
47.5
49
22
74
0
49
-8.5
74
0
49
8.5
74
0
49
-8.5
74
0
0
LTYPE
5
6B
100
AcDbSymbolTableRecord
100
AcDbLinetypeTableRecord
70
0
2
DASHED
3
__ __ __ __ __ __ __ __ __
72
65
73
2
40
25.72
49
12.86
74
0
49
-12.86
74
0
0
ENDTAB
0
TABLE
2
LAYER
5
228
100
AcDbSymbolTable
0
LAYER
5
10
100
AcDbSymbolTableRecord
100
AcDbLayerTableRecord
2
0
70
0
62
7
6
CONTINUOUS
290
1
370
-3
390
0
0
LAYER
5
6D
100
AcDbSymbolTableRecord
100
AcDbLayerTableRecord
2
2
70
0
62
7
6
CONTINUOUS
290
1
370
-3
390
0
0
LAYER
5
6F
100
AcDbSymbolTableRecord
100
AcDbLayerTableRecord
2
80
70
0
62
-6
6
CONTINUOUS
290
1
370
-3
390
0
0
LAYER
5
71
100
AcDbSymbolTableRecord
100
AcDbLayerTableRecord
2
81
70
0
62
-3
6
CONTINUOUS
290
1
370
-3
390
0
0
LAYER
5
73
100
AcDbSymbolTableRecord
100
AcDbLayerTableRecord
2
1
70
0
62
4
6
CONTINUOUS
290
1
370
-3
390
0
0
LAYER
5
213
100
AcDbSymbolTableRecord
100
AcDbLayerTableRecord
2
SK1
70
0
62
4
6
CONTINUOUS
290
1
370
-3
390
0
0
LAYER
5
214
100
AcDbSymbolTableRecord
100
AcDbLayerTableRecord
2
SK6
70
0
62
5
6
CONTINUOUS
290
1
370
-3
390
0
0
LAYER
5
215
100
AcDbSymbolTableRecord
100
AcDbLayerTableRecord
2
SK2
70
0
62
7
6
CONTINUOUS
290
1
370
-3
390
0
0
ENDTAB
0
TABLE
2
STYLE
5
229
100
AcDbSymbolTable
0
STYLE
5
11
100
AcDbSymbolTableRecord
100
AcDbTextStyleTableRecord
2
Standard
3
txt
70
0
71
0
40
0
41
1
42
0
50
0
0
STYLE
5
169
100
AcDbSymbolTableRecord
100
AcDbTextStyleTableRecord
2
iso_b_vert
3
simplex.shx
70
0
71
0
40
0
41
1
42
0
50
0
0
STYLE
5
16A
100
AcDbSymbolTableRecord
100
AcDbTextStyleTableRecord
2
DWGDirectTextStyle
3
simplex
70
0
71
0
40
0
41
1
42
0
50
0
0
ENDTAB
0
TABLE
2
DIMSTYLE
5
22a
100
AcDbSymbolTable
100
AcDbDimStyleTable
0
DIMSTYLE
105
27
100
AcDbSymbolTableRecord
100
AcDbDimStyleTableRecord
2
Standard
70
0
3
<>
41
0.18
42
0.0625
44
0.18
140
0.18
147
0.09
73
0
74
0
77
1
271
2
275
0
278
52
280
0
340
11
0
ENDTAB
0
TABLE
2
VIEW
5
22b
100
AcDbSymbolTable
0
ENDTAB
0
TABLE
2
UCS
5
22c
100
AcDbSymbolTable
0
ENDTAB
0
TABLE
2
APPID
5
22d
100
AcDbSymbolTable
0
APPID
5
12
100
AcDbSymbolTableRecord
100
AcDbRegAppTableRecord
2
ACAD
70
0
0
ENDTAB
0
TABLE
2
BLOCK_RECORD
5
22e
100
AcDbSymbolTable
0
BLOCK_RECORD
5
1F
100
AcDbSymbolTableRecord
100
AcDbBlockTableRecord
2
*Model_Space
340
0
70
0
0
BLOCK_RECORD
5
1B
100
AcDbSymbolTableRecord
100
AcDbBlockTableRecord
2
*Paper_Space
340
0
70
0
0
BLOCK_RECORD
5
23
100
AcDbSymbolTableRecord
100
AcDbBlockTableRecord
2
*Paper_Space0
340
0
70
0
0
BLOCK_RECORD
5
16C
100
AcDbSymbolTableRecord
100
AcDbBlockTableRecord
2
DimnDraft3D1
340
0
70
0
0
BLOCK_RECORD
5
17A
100
AcDbSymbolTableRecord
100
AcDbBlockTableRecord
2
_CLOSED
340
0
70
0
0
BLOCK_RECORD
5
181
100
AcDbSymbolTableRecord
100
AcDbBlockTableRecord
2
DimnDraft3D2
340
0
70
0
0
BLOCK_RECORD
5
190
100
AcDbSymbolTableRecord
100
AcDbBlockTableRecord
2
DimnDraft3D3
340
0
70
0
0
BLOCK_RECORD
5
19E
100
AcDbSymbolTableRecord
100
AcDbBlockTableRecord
2
DimnDraft3D4
340
0
70
0
0
BLOCK_RECORD
5
1AC
100
AcDbSymbolTableRecord
100
AcDbBlockTableRecord
2
DimnDraft3D5
340
0
70
0
0
ENDTAB
0
ENDSEC
0
SECTION
2
BLOCKS
0
BLOCK
5
20
100
AcDbEntity
8
0
100
AcDbBlockBegin
2
*Model_Space
70
0
10
0
20
0
30
0
3
*Model_Space
0
ENDBLK
5
21
100
AcDbEntity
8
0
100
AcDbBlockEnd
0
BLOCK
5
1C
100
AcDbEntity
8
0
100
AcDbBlockBegin
2
*Paper_Space
70
0
10
0
20
0
30
0
3
*Paper_Space
0
ENDBLK
5
1D
100
AcDbEntity
8
0
100
AcDbBlockEnd
0
BLOCK
5
24
100
AcDbEntity
8
0
100
AcDbBlockBegin
2
*Paper_Space0
70
0
10
0
20
0
30
0
3
*Paper_Space0
0
ENDBLK
5
25
100
AcDbEntity
8
0
100
AcDbBlockEnd
0
BLOCK
5
177
100
AcDbEntity
8
0
100
AcDbBlockBegin
2
DimnDraft3D1
70
0
10
0
20
0
30
0
3
DimnDraft3D1
0
MTEXT
5
16D
100
AcDbEntity
8
2
62
256
6
ByLayer
370
18
48
1
60
0
100
AcDbMText
10
16.707896
20
25.075532
30
0
210
0
220
0
230
1
1
\W0.7399;60%%d
40
4.5
41
0
44
1.084337
50
30.0000000000002
71
7
72
5
7
iso_b_vert
0
LINE
5
16E
100
AcDbEntity
8
2
62
256
6
ByLayer
370
13
48
1
60
0
100
AcDbLine
10
30.276315
20
9.4125
30
0
11
30.276315
21
30.368344
31
0
39
0
210
0
220
0
230
1
0
LINE
5
16F
100
AcDbEntity
8
2
62
256
6
ByLayer
370
13
48
1
60
0
100
AcDbLine
10
25.468068
20
10.188543
30
0
11
10.395971
21
18.890422
31
0
39
0
210
0
220
0
230
1
0
ARC
5
170
100
AcDbEntity
8
2
62
256
6
ByLayer
370
13
48
1
60
0
100
AcDbCircle
39
0
10
30.276315
20
7.4125
30
0
40
20.9558441220058
210
0
220
0
230
1
100
AcDbArc
50
90
51
150
0
LINE
5
171
100
AcDbEntity
8
2
62
256
6
ByLayer
370
13
48
1
60
0
100
AcDbLine
10
30.276315
20
28.368344
30
0
11
27.119384
21
27.830644
31
0
39
0
210
0
220
0
230
1
0
LINE
5
172
100
AcDbEntity
8
2
62
256
6
ByLayer
370
13
48
1
60
0
100
AcDbLine
10
30.276315
20
28.368344
30
0
11
27.087783
21
28.66604
31
0
39
0
210
0
220
0
230
1
0
LINE
5
173
100
AcDbEntity
8
2
62
256
6
ByLayer
370
13
48
1
60
0
100
AcDbLine
10
27.119384
20
27.830644
30
0
11
27.087783
21
28.66604
31
0
39
0
210
0
220
0
230
1
0
LINE
5
174
100
AcDbEntity
8
2
62
256
6
ByLayer
370
13
48
1
60
0
100
AcDbLine
10
12.128022
20
17.890422
30
0
11
13.464474
21
20.800617
31
0
39
0
210
0
220
0
230
1
0
LINE
5
175
100
AcDbEntity
8
2
62
256
6
ByLayer
370
13
48
1
60
0
100
AcDbLine
10
12.128022
20
17.890422
30
0
11
14.172151
21
20.355557
31
0
39
0
210
0
220
0
230
1
0
LINE
5
176
100
AcDbEntity
8
2
62
256
6
ByLayer
370
13
48
1
60
0
100
AcDbLine
10
13.464474
20
20.800617
30
0
11
14.172151
21
20.355557
31
0
39
0
210
0
220
0
230
1
0
ENDBLK
5
178
100
AcDbEntity
8
0
100
AcDbBlockEnd
0
BLOCK
5
17B
100
AcDbEntity
8
0
100
AcDbBlockBegin
2
_CLOSED
70
0
10
0
20
0
30
0
3
_CLOSED
0
LINE
5
17D
100
AcDbEntity
8
0
62
256
6
ByLayer
370
-2
48
1
60
0
100
AcDbLine
10
-1
20
0.166667
30
0
11
0
21
0
31
0
39
0
210
0
220
0
230
1
0
LINE
5
17E
100
AcDbEntity
8
0
62
256
6
ByLayer
370
-2
48
1
60
0
100
AcDbLine
10
0
20
0
30
0
11
-1
21
-0.166667
31
0
39
0
210
0
220
0
230
1
0
LINE
5
17F
100
AcDbEntity
8
0
62
256
6
ByLayer
370
-2
48
1
60
0
100
AcDbLine
10
-1
20
0.166667
30
0
11
-1
21
-0.166667
31
0
39
0
210
0
220
0
230
1
0
LINE
5
180
100
AcDbEntity
8
0
62
256
6
ByLayer
370
-2
48
1
60
0
100
AcDbLine
10
0
20
0
30
0
11
-1
21
0
31
0
39
0
210
0
220
0
230
1
0
ENDBLK
5
17C
100
AcDbEntity
8
0
100
AcDbBlockEnd
0
BLOCK
5
18D
100
AcDbEntity
8
0
100
AcDbBlockBegin
2
DimnDraft3D2
70
0
10
0
20
0
30
0
3
DimnDraft3D2
0
MTEXT
5
182
100
AcDbEntity
8
SK2
62
256
6
ByLayer
370
18
48
1
60
0
100
AcDbMText
10
-104.948685
20
-4.156579
30
0
210
0
220
0
230
1
1
\W0.7346;20.0
40
4.5
41
0
44
1.084337
50
90
71
7
72
5
7
iso_b_vert
0
LINE
5
184
100
AcDbEntity
8
SK2
62
256
6
ByLayer
370
13
48
1
60
0
100
AcDbLine
10
-98.073685
20
-9.9375
30
0
11
-105.823685
21
-9.9375
31
0
39
0
210
0
220
0
230
1
0
LINE
5
185
100
AcDbEntity
8
SK2
62
256
6
ByLayer
370
13
48
1
60
0
100
AcDbLine
10
-98.073685
20
9.9375
30
0
11
-105.823685
21
9.9375
31
0
39
0
210
0
220
0
230
1
0
LINE
5
186
100
AcDbEntity
8
SK2
62
256
6
ByLayer
370
13
48
1
60
0
100
AcDbLine
10
-103.823685
20
-21.1875
30
0
11
-103.823685
21
21.1875
31
0
39
0
210
0
220
0
230
1
0
LINE
5
187
100
AcDbEntity
8
SK2
62
256
6
ByLayer
370
13
48
1
60
0
100
AcDbLine
10
-103.823685
20
-9.9375
30
0
11
-103.405688
21
-13.112498
31
0
39
0
210
0
220
0
230
1
0
LINE
5
188
100
AcDbEntity
8
SK2
62
256
6
ByLayer
370
13
48
1
60
0
100
AcDbLine
10
-103.823685
20
-9.9375
30
0
11
-104.241682
21
-13.112502
31
0
39
0
210
0
220
0
230
1
0
LINE
5
189
100
AcDbEntity
8
SK2
62
256
6
ByLayer
370
13
48
1
60
0
100
AcDbLine
10
-103.405688
20
-13.112498
30
0
11
-104.241682
21
-13.112502
31
0
39
0
210
0
220
0
230
1
0
LINE
5
18A
100
AcDbEntity
8
SK2
62
256
6
ByLayer
370
13
48
1
60
0
100
AcDbLine
10
-103.823685
20
9.9375
30
0
11
-104.241682
21
13.112498
31
0
39
0
210
0
220
0
230
1
0
LINE
5
18B
100
AcDbEntity
8
SK2
62
256
6
ByLayer
370
13
48
1
60
0
100
AcDbLine
10
-103.823685
20
9.9375
30
0
11
-103.405688
21
13.112502
31
0
39
0
210
0
220
0
230
1
0
LINE
5
18C
100
AcDbEntity
8
SK2
62
256
6
ByLayer
370
13
48
1
60
0
100
AcDbLine
10
-104.241682
20
13.112498
30
0
11
-103.405688
21
13.112502
31
0
39
0
210
0
220
0
230
1
0
ENDBLK
5
18E
100
AcDbEntity
8
0
100
AcDbBlockEnd
0
BLOCK
5
19B
100
AcDbEntity
8
0
100
AcDbBlockBegin
2
DimnDraft3D3
70
0
10
0
20
0
30
0
3
DimnDraft3D3
0
MTEXT
5
191
100
AcDbEntity
8
2
62
256
6
ByLayer
370
18
48
1
60
0
100
AcDbMText
10
51.401315
20
-4.856579
30
0
210
0
220
0
230
1
1
\W0.6563;17.0
40
4.5
41
0
44
1.084337
50
90
71
7
72
5
7
iso_b_vert
0
LINE
5
192
100
AcDbEntity
8
2
62
256
6
ByLayer
370
13
48
1
60
0
100
AcDbLine
10
2
20
-9.9375
30
0
11
54.526315
21
-9.9375
31
0
39
0
210
0
220
0
230
1
0
LINE
5
193
100
AcDbEntity
8
2
62
256
6
ByLayer
370
13
48
1
60
0
100
AcDbLine
10
32.276315
20
7.4125
30
0
11
54.526315
21
7.4125
31
0
39
0
210
0
220
0
230
1
0
LINE
5
194
100
AcDbEntity
8
2
62
256
6
ByLayer
370
13
48
1
60
0
100
AcDbLine
10
52.526315
20
-21.1875
30
0
11
52.526315
21
18.6625
31
0
39
0
210
0
220
0
230
1
0
LINE
5
195
100
AcDbEntity
8
2
62
256
6
ByLayer
370
13
48
1
60
0
100
AcDbLine
10
52.526315
20
-9.9375
30
0
11
52.944312
21
-13.112498
31
0
39
0
210
0
220
0
230
1
0
LINE
5
196
100
AcDbEntity
8
2
62
256
6
ByLayer
370
13
48
1
60
0
100
AcDbLine
10
52.526315
20
-9.9375
30
0
11
52.108318
21
-13.112502
31
0
39
0
210
0
220
0
230
1
0
LINE
5
197
100
AcDbEntity
8
2
62
256
6
ByLayer
370
13
48
1
60
0
100
AcDbLine
10
52.944312
20
-13.112498
30
0
11
52.108318
21
-13.112502
31
0
39
0
210
0
220
0
230
1
0
LINE
5
198
100
AcDbEntity
8
2
62
256
6
ByLayer
370
13
48
1
60
0
100
AcDbLine
10
52.526315
20
7.4125
30
0
11
52.108318
21
10.587498
31
0
39
0
210
0
220
0
230
1
0
LINE
5
199
100
AcDbEntity
8
2
62
256
6
ByLayer
370
13
48
1
60
0
100
AcDbLine
10
52.526315
20
7.4125
30
0
11
52.944312
21
10.587502
31
0
39
0
210
0
220
0
230
1
0
LINE
5
19A
100
AcDbEntity
8
2
62
256
6
ByLayer
370
13
48
1
60
0
100
AcDbLine
10
52.108318
20
10.587498
30
0
11
52.944312
21
10.587502
31
0
39
0
210
0
220
0
230
1
0
ENDBLK
5
19C
100
AcDbEntity
8
0
100
AcDbBlockEnd
0
BLOCK
5
1A9
100
AcDbEntity
8
0
100
AcDbBlockBegin
2
DimnDraft3D4
70
0
10
0
20
0
30
0
3
DimnDraft3D4
0
MTEXT
5
19F
100
AcDbEntity
8
2
62
256
6
ByLayer
370
18
48
1
60
0
100
AcDbMText
10
10.981579
20
38.2875
30
0
210
0
220
0
230
1
1
\W0.7346;30.3
40
4.5
41
0
44
1.084337
50
0
71
7
72
5
7
iso_b_vert
0
LINE
5
1A0
100
AcDbEntity
8
2
62
256
6
ByLayer
370
13
48
1
60
0
100
AcDbLine
10
0
20
11.9375
30
0
11
0
21
39.1625
31
0
39
0
210
0
220
0
230
1
0
LINE
5
1A1
100
AcDbEntity
8
2
62
256
6
ByLayer
370
13
48
1
60
0
100
AcDbLine
10
30.276315
20
9.4125
30
0
11
30.276315
21
39.1625
31
0
39
0
210
0
220
0
230
1
0
LINE
5
1A2
100
AcDbEntity
8
2
62
256
6
ByLayer
370
13
48
1
60
0
100
AcDbLine
10
0
20
37.1625
30
0
11
30.276315
21
37.1625
31
0
39
0
210
0
220
0
230
1
0
LINE
5
1A3
100
AcDbEntity
8
2
62
256
6
ByLayer
370
13
48
1
60
0
100
AcDbLine
10
0
20
37.1625
30
0
11
3.174998
21
37.580497
31
0
39
0
210
0
220
0
230
1
0
LINE
5
1A4
100
AcDbEntity
8
2
62
256
6
ByLayer
370
13
48
1
60
0
100
AcDbLine
10
0
20
37.1625
30
0
11
3.175002
21
36.744503
31
0
39
0
210
0
220
0
230
1
0
LINE
5
1A5
100
AcDbEntity
8
2
62
256
6
ByLayer
370
13
48
1
60
0
100
AcDbLine
10
3.174998
20
37.580497
30
0
11
3.175002
21
36.744503
31
0
39
0
210
0
220
0
230
1
0
LINE
5
1A6
100
AcDbEntity
8
2
62
256
6
ByLayer
370
13
48
1
60
0
100
AcDbLine
10
30.276315
20
37.1625
30
0
11
27.101316
21
36.744503
31
0
39
0
210
0
220
0
230
1
0
LINE
5
1A7
100
AcDbEntity
8
2
62
256
6
ByLayer
370
13
48
1
60
0
100
AcDbLine
10
30.276315
20
37.1625
30
0
11
27.101313
21
37.580497
31
0
39
0
210
0
220
0
230
1
0
LINE
5
1A8
100
AcDbEntity
8
2
62
256
6
ByLayer
370
13
48
1
60
0
100
AcDbLine
10
27.101316
20
36.744503
30
0
11
27.101313
21
37.580497
31
0
39
0
210
0
220
0
230
1
0
ENDBLK
5
1AA
100
AcDbEntity
8
0
100
AcDbBlockEnd
0
BLOCK
5
1B7
100
AcDbEntity
8
0
100
AcDbBlockBegin
2
DimnDraft3D5
70
0
10
0
20
0
30
0
3
DimnDraft3D5
0
MTEXT
5
1AD
100
AcDbEntity
8
SK2
62
256
6
ByLayer
370
18
48
1
60
0
100
AcDbMText
10
-38.174343
20
48.2875
30
0
210
0
220
0
230
1
1
\W0.6864;125.0
40
4.5
41
0
44
1.084337
50
0
71
7
72
5
7
iso_b_vert
0
LINE
5
1AE
100
AcDbEntity
8
SK2
62
256
6
ByLayer
370
13
48
1
60
0
100
AcDbLine
10
30.276315
20
9.4125
30
0
11
30.276315
21
49.1625
31
0
39
0
210
0
220
0
230
1
0
LINE
5
1AF
100
AcDbEntity
8
SK2
62
256
6
ByLayer
370
13
48
1
60
0
100
AcDbLine
10
-96.073685
20
11.9375
30
0
11
-96.073685
21
49.1625
31
0
39
0
210
0
220
0
230
1
0
LINE
5
1B0
100
AcDbEntity
8
SK2
62
256
6
ByLayer
370
13
48
1
60
0
100
AcDbLine
10
30.276315
20
47.1625
30
0
11
-96.073685
21
47.1625
31
0
39
0
210
0
220
0
230
1
0
LINE
5
1B1
100
AcDbEntity
8
SK2
62
256
6
ByLayer
370
13
48
1
60
0
100
AcDbLine
10
30.276315
20
47.1625
30
0
11
27.101316
21
46.744503
31
0
39
0
210
0
220
0
230
1
0
LINE
5
1B2
100
AcDbEntity
8
SK2
62
256
6
ByLayer
370
13
48
1
60
0
100
AcDbLine
10
30.276315
20
47.1625
30
0
11
27.101313
21
47.580497
31
0
39
0
210
0
220
0
230
1
0
LINE
5
1B3
100
AcDbEntity
8
SK2
62
256
6
ByLayer
370
13
48
1
60
0
100
AcDbLine
10
27.101316
20
46.744503
30
0
11
27.101313
21
47.580497
31
0
39
0
210
0
220
0
230
1
0
LINE
5
1B4
100
AcDbEntity
8
SK2
62
256
6
ByLayer
370
13
48
1
60
0
100
AcDbLine
10
-96.073685
20
47.1625
30
0
11
-92.898687
21
47.580497
31
0
39
0
210
0
220
0
230
1
0
LINE
5
1B5
100
AcDbEntity
8
SK2
62
256
6
ByLayer
370
13
48
1
60
0
100
AcDbLine
10
-96.073685
20
47.1625
30
0
11
-92.898684
21
46.744503
31
0
39
0
210
0
220
0
230
1
0
LINE
5
1B6
100
AcDbEntity
8
SK2
62
256
6
ByLayer
370
13
48
1
60
0
100
AcDbLine
10
-92.898687
20
47.580497
30
0
11
-92.898684
21
46.744503
31
0
39
0
210
0
220
0
230
1
0
ENDBLK
5
1B8
100
AcDbEntity
8
0
100
AcDbBlockEnd
0
ENDSEC
0
SECTION
2
ENTITIES
0
ELLIPSE
5
D8
100
AcDbEntity
8
1
62
256
6
ByLayer
370
18
48
1
60
0
100
AcDbEllipse
10
10.856268
20
2.812258
30
0
11
-0.0750575230797201
21
0.280118489623833
31
0
210
0
220
0
230
1
40
0.989133
41
-2.78834531482261
42
-2.691012842902
0
ELLIPSE
5
D9
100
AcDbEntity
8
1
62
256
6
ByLayer
370
18
48
1
60
0
100
AcDbEllipse
10
10.597329
20
4.326617
30
0
11
0.0815279992072972
21
-0.304266635281056
31
0
210
0
220
0
230
1
40
0.989133
41
-0.334933638525135
42
9.53575738526962E-07
0
ELLIPSE
5
DA
100
AcDbEntity
8
1
62
256
6
ByLayer
370
18
48
1
60
0
100
AcDbEllipse
10
11.248952
20
2.353647
30
0
11
0.0815279992072972
21
-0.304266635281056
31
0
210
0
220
0
230
1
40
0.989133
41
-3.14158319757524
42
-2.69101284290199
0
ELLIPSE
5
DB
100
AcDbEntity
8
1
62
256
6
ByLayer
370
18
48
1
60
0
100
AcDbEllipse
10
11.4366
20
3.513601
30
0
11
0.232937140592278
21
-0.869333243660159
31
0
210
0
220
0
230
1
40
0.989133
41
0.0289394952581523
42
3.11260921031528
0
ELLIPSE
5
DC
100
AcDbEntity
8
1
62
256
6
ByLayer
370
18
48
1
60
0
100
AcDbEllipse
10
11.486305
20
3.526919
30
0
11
0.232937140592278
21
-0.869333243660159
31
0
210
0
220
0
230
1
40
0.989133
41
2.76930898916642
42
-2.95593336389876
0
ELLIPSE
5
DD
100
AcDbEntity
8
1
62
256
6
ByLayer
370
18
48
1
60
0
100
AcDbEllipse
10
11.486305
20
3.526919
30
0
11
0.232937140592278
21
-0.869333243660159
31
0
210
0
220
0
230
1
40
0.989133
41
-0.103319352981302
42
0.487929836586105
0
ELLIPSE
5
DE
100
AcDbEntity
8
1
62
256
6
ByLayer
370
18
48
1
60
0
100
AcDbEllipse
10
11.486305
20
3.526919
30
0
11
0.232937140592278
21
-0.869333243660159
31
0
210
0
220
0
230
1
40
0.989133
41
-1.17333872682103
42
-0.559267714610498
0
ELLIPSE
5
DF
100
AcDbEntity
8
1
62
256
6
ByLayer
370
18
48
1
60
0
100
AcDbEllipse
10
11.486305
20
3.526919
30
0
11
0.232937140592278
21
-0.869333243660159
31
0
210
0
220
0
230
1
40
0.989133
41
-2.44015990225834
42
-1.83315817791559
0
ELLIPSE
5
E0
100
AcDbEntity
8
1
62
256
6
ByLayer
370
18
48
1
60
0
100
AcDbEllipse
10
11.185247
20
4.438455
30
0
11
-0.0750575230797201
21
0.280118489623833
31
0
210
0
220
0
230
1
40
0.989133
41
-1.38213118972168
42
-0.353238143606355
0
ELLIPSE
5
E1
100
AcDbEntity
8
1
62
256
6
ByLayer
370
18
48
1
60
0
100
AcDbEllipse
10
11.379794
20
3.49838
30
0
11
0.828220944328098
21
-3.09096264412501
31
0
210
0
220
0
230
1
40
0.989133
41
3.14157048022236
42
-0.264543986123698
0
ELLIPSE
5
E2
100
AcDbEntity
8
1
62
256
6
ByLayer
370
18
48
1
60
0
100
AcDbEllipse
10
11.379794
20
3.49838
30
0
11
0.828220944328098
21
-3.09096264412501
31
0
210
0
220
0
230
1
40
0.989133
41
-0.264543986123687
42
-2.80605091687659E-16
0
ELLIPSE
5
E3
100
AcDbEntity
8
1
62
256
6
ByLayer
370
18
48
1
60
0
100
AcDbEllipse
10
11.787362
20
2.615383
30
0
11
-0.0750575230797201
21
0.280118489623833
31
0
210
0
220
0
230
1
40
0.989133
41
-2.78835510516434
42
-1.64381529170536
0
ELLIPSE
5
E4
100
AcDbEntity
8
1
62
256
6
ByLayer
370
18
48
1
60
0
100
AcDbEllipse
10
11.723658
20
4.700191
30
0
11
0.0815279992072972
21
-0.304266635281056
31
0
210
0
220
0
230
1
40
0.989133
41
-0.195776035703247
42
1.01994182601507E-05
0
ELLIPSE
5
E5
100
AcDbEntity
8
1
62
256
6
ByLayer
370
18
48
1
60
0
100
AcDbEllipse
10
12.37528
20
2.727221
30
0
11
0.0815279992072972
21
-0.304266635281056
31
0
210
0
220
0
230
1
40
0.989133
41
3.14159241313838
42
-2.83017044572386
0
ELLIPSE
5
E6
100
AcDbEntity
8
1
62
256
6
ByLayer
370
18
48
1
60
0
100
AcDbEllipse
10
12.116342
20
4.24158
30
0
11
-0.0750575230797201
21
0.280118489623833
31
0
210
0
220
0
230
1
40
0.989133
41
-2.42932874091833
42
-0.35327628658692
0
ELLIPSE
5
E7
100
AcDbEntity
8
1
62
256
6
ByLayer
370
18
48
1
60
0
100
AcDbEllipse
10
12.417399
20
3.330044
30
0
11
-0.0750575230797201
21
0.280118489623833
31
0
210
0
220
0
230
1
40
0.989133
41
-2.78881233080571
42
-0.596617740508743
0
ELLIPSE
5
E8
100
AcDbEntity
8
1
62
256
6
ByLayer
370
18
48
1
60
0
100
AcDbEllipse
10
17.085535
20
-0.127872
30
0
11
0.205502321811409
21
-0.766945106073519
31
0
210
0
220
0
230
1
40
0.989133
41
-1.61285006103901
42
-2.75884040257738E-06
0
ELLIPSE
5
E9
100
AcDbEntity
8
1
62
256
6
ByLayer
370
18
48
1
60
0
100
AcDbEllipse
10
21.633825
20
6.932782
30
0
11
0.493050280920321
21
-1.84008869908067
31
0
210
0
220
0
230
1
40
0.989133
41
0.156337485318589
42
3.10197330233372
0
ELLIPSE
5
EA
100
AcDbEntity
8
1
62
256
6
ByLayer
370
18
48
1
60
0
100
AcDbEllipse
10
16.973844
20
13.609407
30
0
11
0.205502321811409
21
-0.766945106073519
31
0
210
0
220
0
230
1
40
0.989133
41
-3.14156164904431
42
-1.8271325060725
0
ELLIPSE
5
EB
100
AcDbEntity
8
1
62
256
6
ByLayer
370
18
48
1
60
0
100
AcDbEllipse
10
17.99473
20
0.605645
30
0
11
0.613136633647992
21
-2.28825706875596
31
0
210
0
220
0
230
1
40
0.989133
41
-1.33025623222486
42
-0.777753293310909
0
ELLIPSE
5
EC
100
AcDbEntity
8
1
62
256
6
ByLayer
370
18
48
1
60
0
100
AcDbEllipse
10
16.589414
20
0.083805
30
0
11
0.646595867919181
21
-2.41312863103838
31
0
210
0
220
0
230
1
40
0.989133
41
0.41889883588129
42
0.793043033483985
0
ELLIPSE
5
ED
100
AcDbEntity
8
1
62
256
6
ByLayer
370
18
48
1
60
0
100
AcDbEllipse
10
16.568112
20
0.078097
30
0
11
0.607773011153801
21
-2.26823975709502
31
0
210
0
220
0
230
1
40
0.989133
41
0.351084803212919
42
0.79304303348398
0
ELLIPSE
5
EE
100
AcDbEntity
8
1
62
256
6
ByLayer
370
18
48
1
60
0
100
AcDbEllipse
10
8.695674
20
-2.870874
30
0
11
-0.794237695741209
21
2.892954628518
31
0
210
0
220
0
230
1
40
0.986421
41
0.0200260445400335
42
0.0517566673072133
0
ELLIPSE
5
EF
100
AcDbEntity
8
1
62
256
6
ByLayer
370
18
48
1
60
0
100
AcDbEllipse
10
12.021954
20
3.711559
30
0
11
-0.88689876024435
21
3.2304660018451
31
0
210
0
220
0
230
1
40
0.986421
41
-3.08983598628257
42
-0.0672802099244355
0
ELLIPSE
5
F0
100
AcDbEntity
8
1
62
256
6
ByLayer
370
18
48
1
60
0
100
AcDbEllipse
10
16.620456
20
0.331373
30
0
11
0.308156425575189
21
-1.15005543692537
31
0
210
0
220
0
230
1
40
0.989133
41
-0.769594180743255
42
-0.142126567995814
0
ELLIPSE
5
F1
100
AcDbEntity
8
1
62
256
6
ByLayer
370
18
48
1
60
0
100
AcDbEllipse
10
16.519928
20
12.695703
30
0
11
-0.308156425575128
21
1.15005543692538
31
0
210
0
220
0
230
1
40
0.989133
41
3.08030927390802E-05
42
0.971273425869954
0
ELLIPSE
5
F2
100
AcDbEntity
8
1
62
256
6
ByLayer
370
18
48
1
60
0
100
AcDbEllipse
10
11.723658
20
4.700191
30
0
11
0.0815279992072972
21
-0.304266635281056
31
0
210
0
220
0
230
1
40
0.989133
41
-1.38213118972175
42
-0.735775343330755
0
ELLIPSE
5
F3
100
AcDbEntity
8
1
62
256
6
ByLayer
370
18
48
1
60
0
100
AcDbEllipse
10
11.671875
20
3.576643
30
0
11
0.232937140592278
21
-0.869333243660159
31
0
210
0
220
0
230
1
40
0.989133
41
0.487929836585959
42
0.674913886782947
0
ELLIPSE
5
F4
100
AcDbEntity
8
1
62
256
6
ByLayer
370
18
48
1
60
0
100
AcDbEllipse
10
11.671875
20
3.576643
30
0
11
0.232937140592278
21
-0.869333243660159
31
0
210
0
220
0
230
1
40
0.989133
41
-1.60646526580707
42
-1.41948121561998
0
ELLIPSE
5
F5
100
AcDbEntity
8
1
62
256
6
ByLayer
370
18
48
1
60
0
100
AcDbEllipse
10
12.308062
20
4.292952
30
0
11
-0.0750575230797201
21
0.280118489623833
31
0
210
0
220
0
230
1
40
0.989133
41
-2.42932874091832
42
0.450579810687821
0
ELLIPSE
5
F6
100
AcDbEntity
8
1
62
256
6
ByLayer
370
18
48
1
60
0
100
AcDbEllipse
10
11.678025
20
3.57829
30
0
11
0.239407616719841
21
-0.893481389317386
31
0
210
0
220
0
230
1
40
0.989133
41
1.48207438208808
42
1.77516444366443
0
ELLIPSE
5
F7
100
AcDbEntity
8
1
62
256
6
ByLayer
370
18
48
1
60
0
100
AcDbEllipse
10
11.376967
20
4.489826
30
0
11
-0.0750575230797201
21
0.280118489623833
31
0
210
0
220
0
230
1
40
0.989133
41
-1.38213118972172
42
1.49777736188445
0
ELLIPSE
5
F8
100
AcDbEntity
8
1
62
256
6
ByLayer
370
18
48
1
60
0
100
AcDbEllipse
10
12.804353
20
3.951864
30
0
11
0.0815279992072972
21
-0.304266635281056
31
0
210
0
220
0
230
1
40
0.989133
41
-2.42932874091827
42
-1.95612847315302
0
ELLIPSE
5
F9
100
AcDbEntity
8
1
62
256
6
ByLayer
370
18
48
1
60
0
100
AcDbEllipse
10
11.440672
20
2.405019
30
0
11
0.0815279992072972
21
-0.304266635281056
31
0
210
0
220
0
230
1
40
0.989133
41
1.75946146386805
42
2.23266173163325
0
ELLIPSE
5
FA
100
AcDbEntity
8
1
62
256
6
ByLayer
370
18
48
1
60
0
100
AcDbEllipse
10
12.612633
20
3.900493
30
0
11
0.0815279992072972
21
-0.304266635281056
31
0
210
0
220
0
230
1
40
0.989133
41
-1.24297358689982
42
-0.596617740508823
0
ELLIPSE
5
FB
100
AcDbEntity
8
1
62
256
6
ByLayer
370
18
48
1
60
0
100
AcDbEllipse
10
11.915377
20
4.751562
30
0
11
0.0815279992072972
21
-0.304266635281056
31
0
210
0
220
0
230
1
40
0.989133
41
-0.0226204570773501
42
0.45057981068777
0
ELLIPSE
5
FC
100
AcDbEntity
8
1
62
256
6
ByLayer
370
18
48
1
60
0
100
AcDbEllipse
10
11.440672
20
2.405019
30
0
11
0.0815279992072972
21
-0.304266635281056
31
0
210
0
220
0
230
1
40
0.989133
41
3.11897219651231
42
-2.69101284290199
0
ELLIPSE
5
FD
100
AcDbEntity
8
1
62
256
6
ByLayer
370
18
48
1
60
0
100
AcDbEllipse
10
10.789049
20
4.377988
30
0
11
0.0815279992072972
21
-0.304266635281056
31
0
210
0
220
0
230
1
40
0.989133
41
-0.334933638525096
42
0.138266629240173
0
ELLIPSE
5
FE
100
AcDbEntity
8
1
62
256
6
ByLayer
370
18
48
1
60
0
100
AcDbEllipse
10
11.678025
20
3.57829
30
0
11
-0.491756185694718
21
1.83525906994925
31
0
210
0
220
0
230
1
40
0.989133
41
0
42
6.28318530717959
0
ELLIPSE
5
FF
100
AcDbEntity
8
1
62
256
6
ByLayer
370
18
48
1
60
0
100
AcDbEllipse
10
12.567
20
2.778592
30
0
11
0.0815279992072972
21
-0.304266635281056
31
0
210
0
220
0
230
1
40
0.989133
41
2.80665901506474
42
-3.00332602434953
0
ELLIPSE
5
100
100
AcDbEntity
8
1
62
256
6
ByLayer
370
18
48
1
60
0
100
AcDbEllipse
10
11.671875
20
3.576643
30
0
11
0.232937140592278
21
-0.869333243660159
31
0
210
0
220
0
230
1
40
0.989133
41
-0.559267714610498
42
-0.372283664423362
0
ELLIPSE
5
101
100
AcDbEntity
8
1
62
256
6
ByLayer
370
18
48
1
60
0
100
AcDbEllipse
10
11.047988
20
2.863629
30
0
11
-0.0750575230797201
21
0.280118489623833
31
0
210
0
220
0
230
1
40
0.989133
41
0.712263912671542
42
-2.69101284290195
0
ELLIPSE
5
102
100
AcDbEntity
8
1
62
256
6
ByLayer
370
18
48
1
60
0
100
AcDbEllipse
10
11.671875
20
3.576643
30
0
11
0.232937140592278
21
-0.869333243660159
31
0
210
0
220
0
230
1
40
0.989133
41
-2.65366281700383
42
-2.46667876680686
0
ELLIPSE
5
103
100
AcDbEntity
8
1
62
256
6
ByLayer
370
18
48
1
60
0
100
AcDbEllipse
10
11.671875
20
3.576643
30
0
11
0.232937140592278
21
-0.869333243660159
31
0
210
0
220
0
230
1
40
0.989133
41
2.58232493897421
42
2.7693089891742
0
ELLIPSE
5
104
100
AcDbEntity
8
1
62
256
6
ByLayer
370
18
48
1
60
0
100
AcDbEllipse
10
12.804353
20
3.951864
30
0
11
0.0815279992072972
21
-0.304266635281056
31
0
210
0
220
0
230
1
40
0.989133
41
-1.06981800827402
42
-0.596617740508823
0
ELLIPSE
5
105
100
AcDbEntity
8
1
62
256
6
ByLayer
370
18
48
1
60
0
100
AcDbEllipse
10
11.486305
20
3.526919
30
0
11
0.232937140592278
21
-0.869333243660159
31
0
210
0
220
0
230
1
40
0.989133
41
1.7221114379698
42
2.58232493897931
0
ELLIPSE
5
106
100
AcDbEntity
8
1
62
256
6
ByLayer
370
18
48
1
60
0
100
AcDbEllipse
10
10.74693
20
3.775165
30
0
11
-0.0750575230797201
21
0.280118489623833
31
0
210
0
220
0
230
1
40
0.989133
41
-0.334933638525123
42
2.54497491308105
0
ELLIPSE
5
107
100
AcDbEntity
8
1
62
256
6
ByLayer
370
18
48
1
60
0
100
AcDbEllipse
10
10.789049
20
4.377988
30
0
11
0.0815279992072972
21
-0.304266635281056
31
0
210
0
220
0
230
1
40
0.989133
41
1.02457709411919
42
1.49777736188446
0
ELLIPSE
5
108
100
AcDbEntity
8
1
62
256
6
ByLayer
370
18
48
1
60
0
100
AcDbEllipse
10
11.915377
20
4.751562
30
0
11
0.0815279992072972
21
-0.304266635281056
31
0
210
0
220
0
230
1
40
0.989133
41
-1.3821311897217
42
-0.908930921956453
0
ELLIPSE
5
109
100
AcDbEntity
8
1
62
256
6
ByLayer
370
18
48
1
60
0
100
AcDbEllipse
10
11.678025
20
3.57829
30
0
11
0.239407616719841
21
-0.893481389317386
31
0
210
0
220
0
230
1
40
0.989133
41
-1.6595182715017
42
-1.36642820992535
0
ELLIPSE
5
10A
100
AcDbEntity
8
1
62
256
6
ByLayer
370
18
48
1
60
0
100
AcDbEllipse
10
11.486305
20
3.526919
30
0
11
0.232937140592278
21
-0.869333243660159
31
0
210
0
220
0
230
1
40
0.989133
41
0.674913886773227
42
1.53512738778271
0
ELLIPSE
5
10B
100
AcDbEntity
8
1
62
256
6
ByLayer
370
18
48
1
60
0
100
AcDbEllipse
10
11.671875
20
3.576643
30
0
11
0.232937140592278
21
-0.869333243660159
31
0
210
0
220
0
230
1
40
0.989133
41
1.53512738778271
42
1.7221114379698
0
ELLIPSE
5
10C
100
AcDbEntity
8
1
62
256
6
ByLayer
370
18
48
1
60
0
100
AcDbEllipse
10
11.678025
20
3.57829
30
0
11
0.239407616719841
21
-0.893481389317386
31
0
210
0
220
0
230
1
40
0.989133
41
-0.612320720305118
42
-0.319230658728755
0
ELLIPSE
5
10D
100
AcDbEntity
8
1
62
256
6
ByLayer
370
18
48
1
60
0
100
AcDbEllipse
10
12.612633
20
3.900493
30
0
11
0.0815279992072972
21
-0.304266635281056
31
0
210
0
220
0
230
1
40
0.989133
41
-2.42932874091828
42
-1.78297289452727
0
ELLIPSE
5
10E
100
AcDbEntity
8
1
62
256
6
ByLayer
370
18
48
1
60
0
100
AcDbEllipse
10
12.609119
20
3.381416
30
0
11
-0.0750575230797201
21
0.280118489623833
31
0
210
0
220
0
230
1
40
0.989133
41
2.80665901506476
42
-0.596617740508744
0
ELLIPSE
5
10F
100
AcDbEntity
8
1
62
256
6
ByLayer
370
18
48
1
60
0
100
AcDbEllipse
10
11.615683
20
3.561586
30
0
11
-0.828220944327946
21
3.09096264412505
31
0
210
0
220
0
230
1
40
0.989133
41
0
42
6.28318530717959
0
ELLIPSE
5
110
100
AcDbEntity
8
1
62
256
6
ByLayer
370
18
48
1
60
0
100
AcDbEllipse
10
12.567
20
2.778592
30
0
11
0.0815279992072972
21
-0.304266635281056
31
0
210
0
220
0
230
1
40
0.989133
41
-2.11701555947059
42
-1.64381529170535
0
ELLIPSE
5
111
100
AcDbEntity
8
1
62
256
6
ByLayer
370
18
48
1
60
0
100
AcDbEllipse
10
12.37528
20
2.727221
30
0
11
0.0815279992072972
21
-0.304266635281056
31
0
210
0
220
0
230
1
40
0.989133
41
-2.29017113809639
42
-1.64381529170535
0
ELLIPSE
5
112
100
AcDbEntity
8
1
62
256
6
ByLayer
370
18
48
1
60
0
100
AcDbEllipse
10
11.678025
20
3.57829
30
0
11
0.239407616719841
21
-0.893481389317386
31
0
210
0
220
0
230
1
40
0.989133
41
-2.70671582269831
42
-2.41362576112194
0
ELLIPSE
5
113
100
AcDbEntity
8
1
62
256
6
ByLayer
370
18
48
1
60
0
100
AcDbEllipse
10
10.551697
20
3.204717
30
0
11
0.0815279992072972
21
-0.304266635281056
31
0
210
0
220
0
230
1
40
0.989133
41
0.712263912671458
42
1.18546418043674
0
ELLIPSE
5
114
100
AcDbEntity
8
1
62
256
6
ByLayer
370
18
48
1
60
0
100
AcDbEllipse
10
11.678025
20
3.57829
30
0
11
0.239407616719841
21
-0.893481389317386
31
0
210
0
220
0
230
1
40
0.989133
41
2.52927193328467
42
2.82236199486104
0
ELLIPSE
5
115
100
AcDbEntity
8
1
62
256
6
ByLayer
370
18
48
1
60
0
100
AcDbEllipse
10
11.678025
20
3.57829
30
0
11
0.239407616719841
21
-0.893481389317386
31
0
210
0
220
0
230
1
40
0.989133
41
0.434876830891503
42
0.727966892467838
0
ELLIPSE
5
116
100
AcDbEntity
8
1
62
256
6
ByLayer
370
18
48
1
60
0
100
AcDbEllipse
10
11.979082
20
2.666754
30
0
11
-0.0750575230797201
21
0.280118489623833
31
0
210
0
220
0
230
1
40
0.989133
41
1.75946146386811
42
-1.64381529170535
0
ELLIPSE
5
117
100
AcDbEntity
8
1
62
256
6
ByLayer
370
18
48
1
60
0
100
AcDbEllipse
10
10.551697
20
3.204717
30
0
11
0.0815279992072972
21
-0.304266635281056
31
0
210
0
220
0
230
1
40
0.989133
41
2.07177464531574
42
2.544974913081
0
ELLIPSE
5
118
100
AcDbEntity
8
1
62
256
6
ByLayer
370
18
48
1
60
0
100
AcDbEllipse
10
9.533
20
0.590628
30
0
11
4.27297917600753
21
1.41125793581686
31
0
210
0
220
0
230
1
40
0.008497
41
-2.38176204128982
42
-1.94288547246091
0
ELLIPSE
5
119
100
AcDbEntity
8
1
62
256
6
ByLayer
370
18
48
1
60
0
100
AcDbEllipse
10
0.870116
20
5.869564
30
0
11
5.69730556801003
21
1.88167724775581
31
0
210
0
220
0
230
1
40
0.008497
41
0.810541504948393
42
0.812430626025523
0
ELLIPSE
5
11A
100
AcDbEntity
8
1
62
256
6
ByLayer
370
18
48
1
60
0
100
AcDbEllipse
10
7.295286
20
7.632423
30
0
11
-2.61011534404357
21
-0.704988899980872
31
0
210
0
220
0
230
1
40
0.337398
41
-0.116678527452712
42
0.624812356274583
0
ELLIPSE
5
11B
100
AcDbEntity
8
1
62
256
6
ByLayer
370
18
48
1
60
0
100
AcDbEllipse
10
21.956129
20
7.024228
30
0
11
-0.184741016357632
21
-1.67548453417149
31
0
210
0
220
0
230
1
40
0.826259
41
1.65906403034483
42
1.94014771524438
0
ELLIPSE
5
11C
100
AcDbEntity
8
1
62
256
6
ByLayer
370
18
48
1
60
0
100
AcDbEllipse
10
5.772068
20
4.902457
30
0
11
-0.31122681472168
21
-1.77288969476338
31
0
210
0
220
0
230
1
40
0.78494
41
-2.59707982171682
42
-1.16685001526801
0
ELLIPSE
5
11D
100
AcDbEntity
8
1
62
256
6
ByLayer
370
18
48
1
60
0
100
AcDbEllipse
10
10.552584
20
-2.229962
30
0
11
-2.51720434336665
21
-0.986482730992111
31
0
210
0
220
0
230
1
40
0.320461
41
-0.623656443257307
42
0.117834440468404
0
ELLIPSE
5
11E
100
AcDbEntity
8
1
62
256
6
ByLayer
370
18
48
1
60
0
100
AcDbEllipse
10
7.708268
20
-0.959932
30
0
11
1.28185852319118
21
-1.26366084315458
31
0
210
0
220
0
230
1
40
0.789807
41
-1.95033180541693
42
-0.520101998968111
0
ELLIPSE
5
11F
100
AcDbEntity
8
1
62
256
6
ByLayer
370
18
48
1
60
0
100
AcDbEllipse
10
9.866658
20
-0.257533
30
0
11
-2.28719129057686
21
-2.86875261895016
31
0
210
0
220
0
230
1
40
0.450788
41
0.313627366875542
42
0.605251230391692
0
ELLIPSE
5
120
100
AcDbEntity
8
1
62
256
6
ByLayer
370
18
48
1
60
0
100
AcDbEllipse
10
8.153153
20
4.768501
30
0
11
4.27297917600753
21
1.41125793581686
31
0
210
0
220
0
230
1
40
0.008497
41
-2.38176204128966
42
-1.94288547246086
0
ELLIPSE
5
121
100
AcDbEntity
8
1
62
256
6
ByLayer
370
18
48
1
60
0
100
AcDbEllipse
10
5.252747
20
4.733687
30
0
11
-0.350644238309233
21
2.47548331194132
31
0
210
0
220
0
230
1
40
0.996407
41
0.63591606501597
42
1.74971046112792
0
ELLIPSE
5
122
100
AcDbEntity
8
1
62
256
6
ByLayer
370
18
48
1
60
0
100
AcDbEllipse
10
9.936227
20
-0.630255
30
0
11
-4.22992724474974
21
-1.541371667264
31
0
210
0
220
0
230
1
40
0.189222
41
-0.611937008821385
42
-0.550288831821998
0
ELLIPSE
5
123
100
AcDbEntity
8
1
62
256
6
ByLayer
370
18
48
1
60
0
100
AcDbEllipse
10
7.749926
20
5.989384
30
0
11
-4.31617598439108
21
-1.28017959562692
31
0
210
0
220
0
230
1
40
0.206199
41
0.550849960233664
42
0.612498140179897
0
ELLIPSE
5
124
100
AcDbEntity
8
1
62
256
6
ByLayer
370
18
48
1
60
0
100
AcDbEllipse
10
21.956129
20
7.024228
30
0
11
-1.08293171939403
21
1.30656130718151
31
0
210
0
220
0
230
1
40
0.828245
41
-1.87623666953322
42
-1.59515298468444
0
ELLIPSE
5
125
100
AcDbEntity
8
1
62
256
6
ByLayer
370
18
48
1
60
0
100
AcDbEllipse
10
7.165716
20
-1.058364
30
0
11
-0.350644238204668
21
2.47548331195836
31
0
210
0
220
0
230
1
40
0.996407
41
1.74971046117044
42
2.86350485728164
0
ELLIPSE
5
126
100
AcDbEntity
8
1
62
256
6
ByLayer
370
18
48
1
60
0
100
AcDbEllipse
10
7.953688
20
5.534518
30
0
11
-3.5645249117481
21
1.08018251044642
31
0
210
0
220
0
230
1
40
0.460545
41
-0.578248645942018
42
-0.286624782394334
0
ELLIPSE
5
127
100
AcDbEntity
8
1
62
256
6
ByLayer
370
18
48
1
60
0
100
AcDbEllipse
10
17.999741
20
9.465402
30
0
11
-0.235099912051194
21
2.5201380341562
31
0
210
0
220
0
230
1
40
0.482826
41
1.05401673773735
42
1.39634722269672
0
ELLIPSE
5
128
100
AcDbEntity
8
1
62
256
6
ByLayer
370
18
48
1
60
0
100
AcDbEllipse
10
8.329299
20
-9.944121
30
0
11
-0.84250107432213
21
-5.01908942967509E-06
31
0
210
0
220
0
230
1
40
0.004143
41
-2.99290788571938
42
-1.42211155892445
0
ELLIPSE
5
129
100
AcDbEntity
8
1
62
256
6
ByLayer
370
18
48
1
60
0
100
AcDbEllipse
10
18.167199
20
0.506571
30
0
11
0.613136633647992
21
-2.28825706875596
31
0
210
0
220
0
230
1
40
0.989133
41
-0.777753293310926
42
0.793043033483981
0
ELLIPSE
5
12A
100
AcDbEntity
8
1
62
256
6
ByLayer
370
18
48
1
60
0
100
AcDbEllipse
10
29.490115
20
6.954549
30
0
11
-0.205502321811371
21
0.766945106073529
31
0
210
0
220
0
230
1
40
0.989133
41
-2.8743300572691
42
-0.779934954875932
0
ELLIPSE
5
12B
100
AcDbEntity
8
1
62
256
6
ByLayer
370
18
48
1
60
0
100
AcDbEllipse
10
17.761525
20
0.053259
30
0
11
-0.205502321811371
21
0.766945106073529
31
0
210
0
220
0
230
1
40
0.989133
41
1.31446014751728
42
-2.87433005726912
0
ELLIPSE
5
12C
100
AcDbEntity
8
1
62
256
6
ByLayer
370
18
48
1
60
0
100
AcDbEllipse
10
17.649835
20
13.790538
30
0
11
-0.205502321811371
21
0.766945106073529
31
0
210
0
220
0
230
1
40
0.989133
41
-0.779934954875917
42
1.31446014751729
0
POINT
5
6C
100
AcDbEntity
8
2
62
256
6
ByLayer
370
18
48
1
60
0
100
AcDbPoint
10
30.276315
20
7.4125
30
0
39
0
210
0
220
0
230
1
50
360
0
POINT
5
6E
100
AcDbEntity
8
80
62
256
6
ByLayer
370
18
48
1
60
0
100
AcDbPoint
10
0
20
0
30
0
39
0
210
0
220
0
230
1
50
360
0
POINT
5
70
100
AcDbEntity
8
81
62
256
6
ByLayer
370
18
48
1
60
0
100
AcDbPoint
10
30.276315
20
7.4125
30
0
39
0
210
0
220
0
230
1
50
360
0
SPLINE
5
12D
100
AcDbEntity
8
1
62
256
6
ByLayer
370
18
48
1
60
0
100
AcDbSpline
70
4
71
3
72
10
73
6
40
0
40
0
40
0
40
0
40
0.69092170339407
40
0.69092170339407
40
1
40
1
40
1
40
1
41
1
10
8.15777760532615
20
-3.37179069459978
30
0
41
1
10
7.89124987019846
20
-3.45121626021305
30
0
41
1
10
7.59211991949553
20
-3.51506367177794
30
0
41
1
10
7.12689486196837
20
-3.54503421125094
30
0
41
1
10
6.97750668262438
20
-3.54558564076939
30
0
41
1
10
6.82576809427815
20
-3.53465690016694
30
0
0
SPLINE
5
12E
100
AcDbEntity
8
1
62
256
6
ByLayer
370
18
48
1
60
0
100
AcDbSpline
70
4
71
3
72
8
73
4
40
0
40
0
40
0
40
0
40
1
40
1
40
1
40
1
41
1
10
12.5395212557193
20
3.77590016147909
30
0
41
1
10
12.5521646582237
20
3.75992859573094
30
0
41
1
10
12.5657890078998
20
3.74648517773943
30
0
41
1
10
12.5795332824496
20
3.73499737174961
30
0
0
SPLINE
5
12F
100
AcDbEntity
8
1
62
256
6
ByLayer
370
18
48
1
60
0
100
AcDbSpline
70
4
71
3
72
10
73
6
40
0
40
0
40
0
40
0
40
0.516155291935429
40
0.516155291935429
40
1
40
1
40
1
40
1
41
1
10
12.4447697738435
20
3.06884040689903
30
0
41
1
10
12.4357189907106
20
3.06518229288781
30
0
41
1
10
12.4265384057594
20
3.06107774681505
30
0
41
1
10
12.4085988078968
20
3.05209275695071
30
0
41
1
10
12.3998125426979
20
3.04725750664036
30
0
41
1
10
12.3910261413605
20
3.04186573555023
30
0
0
SPLINE
5
130
100
AcDbEntity
8
1
62
256
6
ByLayer
370
18
48
1
60
0
100
AcDbSpline
70
4
71
3
72
10
73
6
40
0
40
0
40
0
40
0
40
0.629893813379428
40
0.629893813379428
40
1
40
1
40
1
40
1
41
1
10
11.6279771984465
20
2.65563186054976
30
0
41
1
10
11.6181918090265
20
2.66161993527661
30
0
41
1
10
11.6077497379835
20
2.66752176921378
30
0
41
1
10
11.5900158491853
20
2.67657314642733
30
0
41
1
10
11.5831797355005
20
2.6798635313649
30
0
41
1
10
11.5760779570969
20
2.68305078980333
30
0
0
SPLINE
5
131
100
AcDbEntity
8
1
62
256
6
ByLayer
370
18
48
1
60
0
100
AcDbSpline
70
4
71
3
72
10
73
6
40
0
40
0
40
0
40
0
40
0.12373260626549
40
0.12373260626549
40
1
40
1
40
1
40
1
41
1
10
11.0630075511985
20
4.23651532988706
30
0
41
1
10
11.0642963798255
20
4.23878227826899
30
0
41
1
10
11.0655539872974
20
4.241039340215
30
0
41
1
10
11.075385393466
20
4.25903057256886
30
0
41
1
10
11.0825395231596
20
4.27427878404515
30
0
41
1
10
11.0885687756481
20
4.2888421330407
30
0
0
SPLINE
5
132
100
AcDbEntity
8
1
62
256
6
ByLayer
370
18
48
1
60
0
100
AcDbSpline
70
4
71
3
72
10
73
6
40
0
40
0
40
0
40
0
40
0.516155291935639
40
0.516155291935639
40
1
40
1
40
1
40
1
41
1
10
10.9112796283568
20
4.08774017561532
30
0
41
1
10
10.9179664091007
20
4.09076485709551
30
0
41
1
10
10.9248742542621
20
4.09426042437701
30
0
41
1
10
10.938696841259
20
4.10214226450464
30
0
41
1
10
10.9456128070352
20
4.10647636959504
30
0
41
1
10
10.9527244181301
20
4.11141938199222
30
0
0
SPLINE
5
133
100
AcDbEntity
8
1
62
256
6
ByLayer
370
18
48
1
60
0
100
AcDbSpline
70
4
71
3
72
8
73
4
40
0
40
0
40
0
40
0
40
1
40
1
40
1
40
1
41
1
10
12.4948172765135
20
3.99149883760703
30
0
41
1
10
12.4905392963224
20
3.97432478268328
30
0
41
1
10
12.4875274415563
20
3.95563589615068
30
0
41
1
10
12.4868234640153
20
3.93545750451165
30
0
0
SPLINE
5
134
100
AcDbEntity
8
1
62
256
6
ByLayer
370
18
48
1
60
0
100
AcDbSpline
70
4
71
3
72
10
73
6
40
0
40
0
40
0
40
0
40
0.315026012182608
40
0.315026012182608
40
1
40
1
40
1
40
1
41
1
10
11.9306535271736
20
4.43577293259102
30
0
41
1
10
11.937375915639
20
4.43631479799018
30
0
41
1
10
11.9439568739628
20
4.43704251395812
30
0
41
1
10
11.9642789989169
20
4.43982729250399
30
0
41
1
10
11.9775094085587
20
4.4424497130826
30
0
41
1
10
11.9900773569976
20
4.44554921353313
30
0
0
SPLINE
5
135
100
AcDbEntity
8
1
62
256
6
ByLayer
370
18
48
1
60
0
100
AcDbSpline
70
4
71
3
72
8
73
4
40
0
40
0
40
0
40
0
40
1
40
1
40
1
40
1
41
1
10
10.8042293037745
20
3.37738495606419
30
0
41
1
10
10.7950406302351
20
3.39428221364858
30
0
41
1
10
10.7856897584576
20
3.4088707065919
30
0
41
1
10
10.7765161197507
20
3.42158321076474
30
0
0
SPLINE
5
136
100
AcDbEntity
8
1
62
256
6
ByLayer
370
18
48
1
60
0
100
AcDbSpline
70
4
71
3
72
8
73
4
40
0
40
0
40
0
40
0
40
1
40
1
40
1
40
1
41
1
10
10.8612321256869
20
3.16508174490733
30
0
41
1
10
10.8609394700349
20
3.18103110164805
30
0
41
1
10
10.8596778469025
20
3.19857491322884
30
0
41
1
10
10.8569270954785
20
3.21782761303163
30
0
0
SPLINE
5
137
100
AcDbEntity
8
1
62
256
6
ByLayer
370
18
48
1
60
0
100
AcDbSpline
70
4
71
3
72
10
73
6
40
0
40
0
40
0
40
0
40
0.123732606265421
40
0.123732606265421
40
1
40
1
40
1
40
1
41
1
10
12.2807430082952
20
2.91676978765622
30
0
41
1
10
12.2798857757885
20
2.91461848510619
30
0
41
1
10
12.2790726722842
20
2.9124805276393
30
0
41
1
10
12.2728945369969
20
2.89546818626783
30
0
41
1
10
12.2695056636943
20
2.88122887220084
30
0
41
1
10
12.2674806265522
20
2.86773844947368
30
0
0
SPLINE
5
138
100
AcDbEntity
8
1
62
256
6
ByLayer
370
18
48
1
60
0
100
AcDbSpline
70
4
71
3
72
10
73
6
40
0
40
0
40
0
40
0
40
0.629893813379537
40
0.629893813379537
40
1
40
1
40
1
40
1
41
1
10
11.7280722037495
20
4.50094872196345
30
0
41
1
10
11.7349732717984
20
4.49418779565451
30
0
41
1
10
11.7426637744964
20
4.48754868120136
30
0
41
1
10
11.7564118041324
20
4.47742929624417
30
0
41
1
10
11.7618521557927
20
4.47376491799929
30
0
41
1
10
11.767672602394
20
4.47023432773921
30
0
0
SPLINE
5
139
100
AcDbEntity
8
1
62
256
6
ByLayer
370
18
48
1
60
0
100
AcDbSpline
70
4
71
3
72
10
73
6
40
0
40
0
40
0
40
0
40
0.315026012182536
40
0.315026012182536
40
1
40
1
40
1
40
1
41
1
10
11.4130970323183
20
2.71751218495174
30
0
41
1
10
11.4074684391333
20
2.71726340111468
30
0
41
1
10
11.4020646122896
20
2.71685109657622
30
0
41
1
10
11.3856610293378
20
2.71511628819539
30
0
41
1
10
11.3754080349435
20
2.71329166362784
30
0
41
1
10
11.3659720452028
20
2.71103136898125
30
0
0
SPLINE
5
13A
100
AcDbEntity
8
1
62
256
6
ByLayer
370
18
48
1
60
0
100
AcDbSpline
70
4
71
2
72
8
73
5
40
0
40
0
40
0
40
0.581603760044147
40
0.872405640066221
40
1
40
1
40
1
41
1.02990374504916
10
11.2517827368745
20
8.51376582170244
30
0
41
1.02669755169729
10
13.0205193824121
20
8.37848680632478
30
0
41
1.02039724512338
10
15.7135475646044
20
7.80652865464765
30
0
41
1.01761724169577
10
17.016962170297
20
7.39650060488696
30
0
41
1.01686274329252
10
17.3867983040894
20
7.32696431593156
30
0
0
SPLINE
5
13B
100
AcDbEntity
8
1
62
256
6
ByLayer
370
18
48
1
60
0
100
AcDbSpline
70
4
71
2
72
6
73
3
40
0
40
0
40
0
40
1
40
1
40
1
41
1.02990374504916
10
11.2517827368745
20
8.51376582170244
30
0
41
0.929591662588769
10
11.564577127581
20
8.16041674620942
30
0
41
0.932817050574084
10
12.0176007913125
20
7.14406574508233
30
0
0
SPLINE
5
13C
100
AcDbEntity
8
1
62
256
6
ByLayer
370
18
48
1
60
0
100
AcDbSpline
70
4
71
2
72
6
73
3
40
0
40
0
40
0
40
1
40
1
40
1
41
1.01212826498425
10
21.0811317611605
20
2.9263770732771
30
0
41
1.01163342726426
10
21.3320405916226
20
3.20459260219009
30
0
41
1.01103575694871
10
21.5687507466649
20
3.49270990598326
30
0
0
SPLINE
5
13D
100
AcDbEntity
8
1
62
256
6
ByLayer
370
18
48
1
60
0
100
AcDbSpline
70
4
71
2
72
6
73
3
40
0
40
0
40
0
40
1
40
1
40
1
41
1.01103575695168
10
19.5341444823816
20
9.65305095488667
30
0
41
1.01163342726563
10
19.17264815425
20
9.74275878755078
30
0
41
1.01212826498448
10
18.8056516495246
20
9.81603125051561
30
0
0
SPLINE
5
13E
100
AcDbEntity
8
1
62
256
6
ByLayer
370
18
48
1
60
0
100
AcDbSpline
70
4
71
3
72
8
73
4
40
0
40
0
40
0
40
0
40
1
40
1
40
1
40
1
41
1
10
19.5398549116059
20
9.65163276162343
30
0
41
1
10
18.4655116349716
20
9.16101722260555
30
0
41
1
10
18.3234102173437
20
7.94996566810892
30
0
41
1
10
17.3867983040896
20
7.32696431593152
30
0
0
SPLINE
5
13F
100
AcDbEntity
8
1
62
256
6
ByLayer
370
18
48
1
60
0
100
AcDbSpline
70
4
71
3
72
8
73
4
40
0
40
0
40
0
40
0
40
1
40
1
40
1
40
1
41
1
10
11.8461743851512
20
0.1124695836819
30
0
41
1
10
11.1992635265493
20
-0.102093856516092
30
0
41
1
10
10.5353298309899
20
-0.0938978597027926
30
0
41
1
10
9.94060468546661
20
0.116323978441159
30
0
0
SPLINE
5
140
100
AcDbEntity
8
1
62
256
6
ByLayer
370
18
48
1
60
0
100
AcDbSpline
70
4
71
3
72
8
73
4
40
0
40
0
40
0
40
0
40
1
40
1
40
1
40
1
41
1
10
8.21999395446028
20
5.32595549725315
30
0
41
1
10
8.56887511444222
20
5.8499230764354
30
0
41
1
10
9.10643436107182
20
6.26242101640921
30
0
41
1
10
9.74504397324927
20
6.47423114992344
30
0
0
SPLINE
5
141
100
AcDbEntity
8
1
62
256
6
ByLayer
370
18
48
1
60
0
100
AcDbSpline
70
4
71
3
72
14
73
10
40
0
40
0
40
0
40
0
40
0.262932482489334
40
0.262932482489334
40
0.526305718382452
40
0.526305718382452
40
0.786105451116565
40
0.786105451116565
40
1
40
1
40
1
40
1
41
1
10
22.58658597638
20
5.56232700205288
30
0
41
1
10
22.6850366342248
20
5.63942354099299
30
0
41
1
10
22.7824297068137
20
5.73796052868721
30
0
41
1
10
22.9584987989709
20
5.96531644128567
30
0
41
1
10
23.0393657075648
20
6.09711671833409
30
0
41
1
10
23.1734178688586
20
6.37174063171463
30
0
41
1
10
23.2286891668248
20
6.51752019178107
30
0
41
1
10
23.3057730560085
20
6.78163950128467
30
0
41
1
10
23.3324457624404
20
6.90205940135632
30
0
41
1
10
23.3514089697945
20
7.01987784699074
30
0
0
SPLINE
5
142
100
AcDbEntity
8
1
62
256
6
ByLayer
370
18
48
1
60
0
100
AcDbSpline
70
4
71
3
72
8
73
4
40
0
40
0
40
0
40
0
40
1
40
1
40
1
40
1
41
1
10
6.73829425224147
20
4.26325982043707
30
0
41
1
10
6.69547534104277
20
4.249254906462
30
0
41
1
10
6.65296716683588
20
4.23536162582849
30
0
41
1
10
6.61082866699684
20
4.22159913852158
30
0
0
SPLINE
5
143
100
AcDbEntity
8
1
62
256
6
ByLayer
370
18
48
1
60
0
100
AcDbSpline
70
4
71
3
72
8
73
4
40
0
40
0
40
0
40
0
40
1
40
1
40
1
40
1
41
1
10
9.38082568650594
20
0.242394672986251
30
0
41
1
10
9.04667269410527
20
-0.967127987038509
30
0
41
1
10
8.67346919407612
20
-2.03585310994578
30
0
41
1
10
8.32462571159044
20
-2.5596389734269
30
0
0
SPLINE
5
144
100
AcDbEntity
8
1
62
256
6
ByLayer
370
18
48
1
60
0
100
AcDbSpline
70
4
71
3
72
16
73
12
40
0
40
0
40
0
40
0
40
0.151798394921707
40
0.151798394921707
40
0.302355402833642
40
0.302355402833642
40
0.469907609657965
40
0.469907609657965
40
0.750934341340613
40
0.750934341340613
40
1
40
1
40
1
40
1
41
1
10
4.21036437856901
20
4.43273686543142
30
0
41
1
10
4.16439667428972
20
4.61111408418881
30
0
41
1
10
4.12873685347716
20
4.79872068864398
30
0
41
1
10
4.08854434649055
20
5.15836982549089
30
0
41
1
10
4.08277237317753
20
5.33544257010797
30
0
41
1
10
4.09564066303608
20
5.68143582753919
30
0
41
1
10
4.11684328739625
20
5.85102384206019
30
0
41
1
10
4.19501481197455
20
6.25099517072249
30
0
41
1
10
4.26391167975936
20
6.45227668723231
30
0
41
1
10
4.43199041615389
20
6.77601773871388
30
0
41
1
10
4.53053334022547
20
6.91106769706724
30
0
41
1
10
4.67522685291453
20
7.03474683671857
30
0
0
SPLINE
5
145
100
AcDbEntity
8
1
62
256
6
ByLayer
370
18
48
1
60
0
100
AcDbSpline
70
4
71
3
72
8
73
4
40
0
40
0
40
0
40
0
40
1
40
1
40
1
40
1
41
1
10
21.0816002811385
20
2.92689660518087
30
0
41
1
10
21.0271526908962
20
2.90191836960864
30
0
41
1
10
20.9724203010525
20
2.87763804386435
30
0
41
1
10
20.9174091780007
20
2.85409009819034
30
0
0
SPLINE
5
146
100
AcDbEntity
8
1
62
256
6
ByLayer
370
18
48
1
60
0
100
AcDbSpline
70
4
71
3
72
10
73
6
40
0
40
0
40
0
40
0
40
0.759976532001903
40
0.759976532001903
40
1
40
1
40
1
40
1
41
1
10
18.7036255006034
20
6.39208459778837
30
0
41
1
10
18.9905063602404
20
6.35190627769092
30
0
41
1
10
19.2732618454133
20
6.32309376306179
30
0
41
1
10
19.6372457284552
20
6.30056320263995
30
0
41
1
10
19.7240750545843
20
6.29631327359559
30
0
41
1
10
19.8102725678072
20
6.29322405693605
30
0
0
SPLINE
5
147
100
AcDbEntity
8
1
62
256
6
ByLayer
370
18
48
1
60
0
100
AcDbSpline
70
4
71
1
72
4
73
2
40
0
40
0
40
1
40
1
41
1
10
11.2517827368745
20
8.51376582170244
30
0
41
1
10
10.7055403911022
20
9.13083004538572
30
0
0
SPLINE
5
148
100
AcDbEntity
8
1
62
256
6
ByLayer
370
18
48
1
60
0
100
AcDbSpline
70
4
71
3
72
10
73
6
40
0
40
0
40
0
40
0
40
0.207845795367674
40
0.207845795367674
40
1
40
1
40
1
40
1
41
1
10
9.38082568650594
20
0.242394672986251
30
0
41
1
10
9.42137374861352
20
0.238028527424547
30
0
41
1
10
9.46171396080018
20
0.232718110019249
30
0
41
1
10
9.65300793017803
20
0.202893162495968
30
0
41
1
10
9.80094786296121
20
0.165689494860658
30
0
41
1
10
9.94060468546661
20
0.116323978441159
30
0
0
SPLINE
5
149
100
AcDbEntity
8
1
62
256
6
ByLayer
370
18
48
1
60
0
100
AcDbSpline
70
4
71
3
72
8
73
4
40
0
40
0
40
0
40
0
40
1
40
1
40
1
40
1
41
1
10
10.7055403911022
20
9.13083004538572
30
0
41
1
10
12.6634135217275
20
9.61755292096763
30
0
41
1
10
14.6613138727903
20
9.7842826218145
30
0
41
1
10
16.6751165683639
20
9.64142993091335
30
0
0
SPLINE
5
14A
100
AcDbEntity
8
1
62
256
6
ByLayer
370
18
48
1
60
0
100
AcDbSpline
70
4
71
2
72
6
73
3
40
0
40
0
40
0
40
1
40
1
40
1
41
1.02990374504916
10
14.2589804088517
20
-0.591368473297584
30
0
41
1.02990374504916
10
14.2175012405887
20
-0.984197492488679
30
0
41
1.02990374504916
10
14.1760220723257
20
-1.3770265116798
30
0
0
SPLINE
5
14B
100
AcDbEntity
8
1
62
256
6
ByLayer
370
18
48
1
60
0
100
AcDbSpline
70
4
71
3
72
8
73
4
40
0
40
0
40
0
40
0
40
1
40
1
40
1
40
1
41
1
10
6.14798959878544
20
-1.44329899581757
30
0
41
1
10
6.15724851951734
20
-1.47133297491914
30
0
41
1
10
6.16734875457172
20
-1.49872555458393
30
0
41
1
10
6.17822917910155
20
-1.52552568917849
30
0
0
SPLINE
5
14C
100
AcDbEntity
8
1
62
256
6
ByLayer
370
18
48
1
60
0
100
AcDbSpline
70
4
71
3
72
8
73
4
40
0
40
0
40
0
40
0
40
1
40
1
40
1
40
1
41
1
10
14.0690766166699
20
0.93264736481575
30
0
41
1
10
13.8585677384196
20
0.80923733549929
30
0
41
1
10
13.6316326352776
20
0.704659464842564
30
0
41
1
10
13.3984014754023
20
0.627302779050694
30
0
0
SPLINE
5
14D
100
AcDbEntity
8
1
62
256
6
ByLayer
370
18
48
1
60
0
100
AcDbSpline
70
4
71
3
72
15
73
11
40
0
40
0
40
0
40
0
40
0.225043240787981
40
0.225043240787981
40
0.52048282722711
40
0.52048282722711
40
0.820975208236874
40
0.820975208236874
40
0.820975208236874
40
1
40
1
40
1
40
1
41
1
10
15.7993174781296
20
4.09721531491223
30
0
41
1
10
15.8242805043763
20
3.81466531100995
30
0
41
1
10
15.8045344969144
20
3.52373879460782
30
0
41
1
10
15.6705014945211
20
2.88249670823163
30
0
41
1
10
15.5280591991833
20
2.53033270008905
30
0
41
1
10
15.1464650846402
20
1.88756790370866
30
0
41
1
10
14.8999324540607
20
1.58820704590499
30
0
41
1
10
14.6175293823792
20
1.33612574627384
30
0
41
1
10
14.4479021345983
20
1.18471146873483
30
0
41
1
10
14.2632069439338
20
1.04842046130867
30
0
41
1
10
14.0690766166699
20
0.93264736481575
30
0
0
SPLINE
5
14E
100
AcDbEntity
8
1
62
256
6
ByLayer
370
18
48
1
60
0
100
AcDbSpline
70
4
71
3
72
12
73
8
40
0
40
0
40
0
40
0
40
0.369659083875781
40
0.369659083875781
40
0.727704501586109
40
0.727704501586109
40
1
40
1
40
1
40
1
41
1
10
5.31742803961322
20
6.54549532157316
30
0
41
1
10
5.53449389892057
20
6.46158340964161
30
0
41
1
10
5.80606317089905
20
6.31695221529856
30
0
41
1
10
6.39664594367957
20
5.95249856582444
30
0
41
1
10
6.72096935937543
20
5.73099679541298
30
0
41
1
10
7.31255641445915
20
5.30038575824403
30
0
41
1
10
7.57877263753426
20
5.09818052617919
30
0
41
1
10
7.84649786220626
20
4.88800245028179
30
0
0
SPLINE
5
14F
100
AcDbEntity
8
1
62
256
6
ByLayer
370
18
48
1
60
0
100
AcDbSpline
70
4
71
3
72
11
73
7
40
0
40
0
40
0
40
0
40
0.559926195718578
40
0.559926195718578
40
0.559926195718578
40
1
40
1
40
1
40
1
41
1
10
18.6318370305152
20
9.77430074403225
30
0
41
1
10
18.3273628168683
20
9.69754809722809
30
0
41
1
10
17.9711968732894
20
9.64509324069172
30
0
41
1
10
17.5970616496454
20
9.62728969072836
30
0
41
1
10
17.3008883063909
20
9.61319602463863
30
0
41
1
10
16.9883797994548
20
9.61920804412171
30
0
41
1
10
16.6751165683639
20
9.64142993091335
30
0
0
SPLINE
5
150
100
AcDbEntity
8
1
62
256
6
ByLayer
370
18
48
1
60
0
100
AcDbSpline
70
4
71
3
72
14
73
10
40
0
40
0
40
0
40
0
40
0.304391776008974
40
0.304391776008974
40
0.577373879687161
40
0.577373879687161
40
0.851610378463914
40
0.851610378463914
40
1
40
1
40
1
40
1
41
1
10
23.0643349736222
20
7.88907487787057
30
0
41
1
10
22.9433540659975
20
8.00774313624731
30
0
41
1
10
22.8061992709909
20
8.12165063562438
30
0
41
1
10
22.5266563088732
20
8.31051130045319
30
0
41
1
10
22.3828801233549
20
8.3900415343831
30
0
41
1
10
22.093942458972
20
8.51255193769086
30
0
41
1
10
21.9448716912043
20
8.55684869170614
30
0
41
1
10
21.7288260223934
20
8.59279391714938
30
0
41
1
10
21.6541984932508
20
8.59956578878092
30
0
41
1
10
21.5831160573738
20
8.60061359647517
30
0
0
SPLINE
5
151
100
AcDbEntity
8
1
62
256
6
ByLayer
370
18
48
1
60
0
100
AcDbSpline
70
4
71
3
72
10
73
6
40
0
40
0
40
0
40
0
40
0.560518156563274
40
0.560518156563274
40
1
40
1
40
1
40
1
41
1
10
19.2708415091643
20
1.7821447235896
30
0
41
1
10
19.5724903896232
20
2.04192699730504
30
0
41
1
10
19.8897990862562
20
2.28147372076503
30
0
41
1
10
20.4446521523242
20
2.62898822260488
30
0
41
1
10
20.6893042178503
20
2.75644796853348
30
0
41
1
10
20.9174091780007
20
2.85409009819034
30
0
0
SPLINE
5
152
100
AcDbEntity
8
1
62
256
6
ByLayer
370
18
48
1
60
0
100
AcDbSpline
70
4
71
3
72
8
73
4
40
0
40
0
40
0
40
0
40
1
40
1
40
1
40
1
41
1
10
12.0176007725056
20
7.14406574303712
30
0
41
1
10
11.7707687418174
20
7.11737176706225
30
0
41
1
10
11.5304017683455
20
7.0663877127736
30
0
41
1
10
11.2972710635004
20
6.98906434529223
30
0
0
SPLINE
5
153
100
AcDbEntity
8
1
62
256
6
ByLayer
370
18
48
1
60
0
100
AcDbSpline
70
4
71
3
72
8
73
4
40
0
40
0
40
0
40
0
40
1
40
1
40
1
40
1
41
1
10
6.61082866699735
20
4.22159913852178
30
0
41
1
10
5.72399869393217
20
4.34682060147443
30
0
41
1
10
4.92539879530113
20
4.43185829278139
30
0
41
1
10
4.37012920260906
20
4.43025493523638
30
0
0
SPLINE
5
154
100
AcDbEntity
8
1
62
256
6
ByLayer
370
18
48
1
60
0
100
AcDbSpline
70
4
71
3
72
8
73
4
40
0
40
0
40
0
40
0
40
1
40
1
40
1
40
1
41
1
10
18.4820833392762
20
4.01068170803342
30
0
41
1
10
19.597344353022
20
4.09155267529832
30
0
41
1
10
20.420029570952
20
3.22784081889751
30
0
41
1
10
21.5724893120206
20
3.49726208414438
30
0
0
SPLINE
5
155
100
AcDbEntity
8
1
62
256
6
ByLayer
370
18
48
1
60
0
100
AcDbSpline
70
4
71
2
72
8
73
5
40
0
40
0
40
0
40
0.145991510275425
40
0.563470207592131
40
1
40
1
40
1
41
1.02393576174177
10
15.2927937541393
20
5.63085793788121
30
0
41
1.02323174907605
10
15.55047680627
20
5.69186285487279
30
0
41
1.02039724512338
10
16.540417647912
20
5.92044215817794
30
0
41
1.01644464721292
10
17.9971230830572
20
6.18956078819526
30
0
41
1.01495409538139
10
18.703625500623
20
6.39208459779397
30
0
0
SPLINE
5
156
100
AcDbEntity
8
1
62
256
6
ByLayer
370
18
48
1
60
0
100
AcDbSpline
70
4
71
3
72
10
73
6
40
0
40
0
40
0
40
0
40
0.67996669048432
40
0.67996669048432
40
1
40
1
40
1
40
1
41
1
10
8.21999395446028
20
5.32595549725312
30
0
41
1
10
8.149159582827
20
5.21957281316239
30
0
41
1
10
8.06810248439842
20
5.11687380714827
30
0
41
1
10
7.93654769910034
20
4.97498421492509
30
0
41
1
10
7.89237820157427
20
4.9307324590751
30
0
41
1
10
7.84649786220638
20
4.88800245028196
30
0
0
SPLINE
5
157
100
AcDbEntity
8
1
62
256
6
ByLayer
370
18
48
1
60
0
100
AcDbSpline
70
4
71
3
72
11
73
7
40
0
40
0
40
0
40
0
40
0.717036925638431
40
0.717036925638431
40
0.717036925638431
40
1
40
1
40
1
40
1
41
1
10
4.77675111761232
20
7.19880355668568
30
0
41
1
10
4.48590075898272
20
7.10533260139991
30
0
41
1
10
4.16968914497767
20
6.97338193956276
30
0
41
1
10
3.86402885438997
20
6.78007966265301
30
0
41
1
10
3.74221220619808
20
6.70304173464564
30
0
41
1
10
3.6214611379155
20
6.61578342035367
30
0
41
1
10
3.50570065556553
20
6.51777835529785
30
0
0
SPLINE
5
158
100
AcDbEntity
8
1
62
256
6
ByLayer
370
18
48
1
60
0
100
AcDbSpline
70
4
71
3
72
8
73
4
40
0
40
0
40
0
40
0
40
1
40
1
40
1
40
1
41
1
10
18.6318370305152
20
9.77430074403225
30
0
41
1
10
18.689799679137
20
9.78891211832308
30
0
41
1
10
18.7479747640206
20
9.80276871934129
30
0
41
1
10
18.8063369523093
20
9.81589441152363
30
0
0
SPLINE
5
159
100
AcDbEntity
8
1
62
256
6
ByLayer
370
18
48
1
60
0
100
AcDbSpline
70
4
71
2
72
8
73
5
40
0
40
0
40
0
40
0.14599151027804
40
0.563470207586083
40
1
40
1
40
1
41
1.02393576174182
10
15.7993174776761
20
4.09721531471457
30
0
41
1.02323174907608
10
16.0421869227958
20
4.20307258131768
30
0
41
1.02039724512338
10
16.9715639536925
20
4.6150258062719
30
0
41
1.01644464721285
10
18.2982692173849
20
5.27775641272552
30
0
41
1.01495409538129
10
18.9839383755714
20
5.54335875768049
30
0
0
SPLINE
5
15A
100
AcDbEntity
8
1
62
256
6
ByLayer
370
18
48
1
60
0
100
AcDbSpline
70
4
71
3
72
16
73
12
40
0
40
0
40
0
40
0
40
0.283825424659827
40
0.283825424659827
40
0.572792249827486
40
0.572792249827486
40
0.572792249827486
40
0.894188232602853
40
0.894188232602853
40
0.894188232602853
40
1
40
1
40
1
40
1
41
1
10
12.0176007913173
20
7.14406574507152
30
0
41
1
10
12.3713895339717
20
7.18031607831054
30
0
41
1
10
12.7382854763877
20
7.16078485486773
30
0
41
1
10
13.4468693727897
20
7.01898922165933
30
0
41
1
10
13.7972692183463
20
6.89377285297772
30
0
41
1
10
14.1168542671817
20
6.72063866875735
30
0
41
1
10
14.4702272649097
20
6.52919997063893
30
0
41
1
10
14.7981952238487
20
6.2704502727635
30
0
41
1
10
15.0562680685728
20
5.9602811371756
30
0
41
1
10
15.1428105546237
20
5.85626861265462
30
0
41
1
10
15.2222890288522
20
5.74581285510203
30
0
41
1
10
15.2927937546572
20
5.63085793800383
30
0
0
SPLINE
5
15B
100
AcDbEntity
8
1
62
256
6
ByLayer
370
18
48
1
60
0
100
AcDbSpline
70
4
71
3
72
25
73
21
40
0
40
0
40
0
40
0
40
0.442411593548784
40
0.442411593548784
40
0.442411593548784
40
0.583396916265388
40
0.583396916265388
40
0.651602530488669
40
0.651602530488669
40
0.706341521306461
40
0.706341521306461
40
0.74247528698775
40
0.74247528698775
40
0.778972968742943
40
0.778972968742943
40
0.81153946498019
40
0.81153946498019
40
0.868309796146661
40
0.868309796146661
40
1
40
1
40
1
40
1
41
1
10
18.9839383755051
20
5.54335875765483
30
0
41
1
10
18.7589610377113
20
5.3180878829078
30
0
41
1
10
18.5360611707846
20
5.05059766480525
30
0
41
1
10
18.3563148066048
20
4.74078845132652
30
0
41
1
10
18.2979640843685
20
4.64021567231958
30
0
41
1
10
18.2434332196226
20
4.5336949958442
30
0
41
1
10
18.1783637831469
20
4.37001530812091
30
0
41
1
10
18.1594413898116
20
4.31502873011843
30
0
41
1
10
18.1342519480681
20
4.21650011520643
30
0
41
1
10
18.1260485577467
20
4.17197540548605
30
0
41
1
10
18.1223622346851
20
4.10297268997582
30
0
41
1
10
18.1236029624052
20
4.07633294730243
30
0
41
1
10
18.1331472781998
20
4.02975421785774
30
0
41
1
10
18.1417473215532
20
4.0093870469162
30
0
41
1
10
18.1636052966481
20
3.98028879762833
30
0
41
1
10
18.1764286163531
20
3.97012379460995
30
0
41
1
10
18.214753524153
20
3.95117611355326
30
0
41
1
10
18.2430881089538
20
3.94818681593515
30
0
41
1
10
18.3388710617759
20
3.95365522519847
30
0
41
1
10
18.410942873748
20
3.98007069405938
30
0
41
1
10
18.4820833392762
20
4.01068170803342
30
0
0
SPLINE
5
15C
100
AcDbEntity
8
1
62
256
6
ByLayer
370
18
48
1
60
0
100
AcDbSpline
70
4
71
2
72
8
73
5
40
0
40
0
40
0
40
0.581603760070723
40
0.872405640106084
40
1
40
1
40
1
41
1.02990374504916
10
14.2589804088517
20
-0.591368473297584
30
0
41
1.02669755169729
10
15.6005173688654
20
0.56681936507501
30
0
41
1.02039724512338
10
17.4237518670741
20
2.62840551773615
30
0
41
1.01761724169608
10
18.2266948891063
20
3.73369553945246
30
0
41
1.01686274329306
10
18.4820833392761
20
4.0106817080333
30
0
0
SPLINE
5
15D
100
AcDbEntity
8
1
62
256
6
ByLayer
370
18
48
1
60
0
100
AcDbSpline
70
4
71
3
72
16
73
12
40
0
40
0
40
0
40
0
40
0.346164403850465
40
0.346164403850465
40
0.574058138681868
40
0.574058138681868
40
0.756733946461145
40
0.756733946461145
40
0.941193093213316
40
0.941193093213316
40
1
40
1
40
1
40
1
41
1
10
8.0900000938048
20
-3.30443679427969
30
0
41
1
10
7.82830120405742
20
-3.29149846523976
30
0
41
1
10
7.62467823661802
20
-3.21273982788247
30
0
41
1
10
7.27072600327222
20
-2.99508695942058
30
0
41
1
10
7.12181317796734
20
-2.88045369478175
30
0
41
1
10
6.84399827843902
20
-2.60901279128032
30
0
41
1
10
6.7153630997874
20
-2.46192106469832
30
0
41
1
10
6.47517548932069
20
-2.12511595213996
30
0
41
1
10
6.36065641096235
20
-1.92918220640613
30
0
41
1
10
6.23470820094735
20
-1.65995526341933
30
0
41
1
10
6.20551377983884
20
-1.59273179589903
30
0
41
1
10
6.17822917910155
20
-1.52552568917849
30
0
0
SPLINE
5
15E
100
AcDbEntity
8
1
62
256
6
ByLayer
370
18
48
1
60
0
100
AcDbSpline
70
4
71
3
72
8
73
4
40
0
40
0
40
0
40
0
40
1
40
1
40
1
40
1
41
1
10
4.23502011929264
20
4.34875257941732
30
0
41
1
10
4.2257611985608
20
4.37678655851886
30
0
41
1
10
4.21756894385294
20
4.4047796215828
30
0
41
1
10
4.21036437856901
20
4.43273686543142
30
0
0
SPLINE
5
15F
100
AcDbEntity
8
1
62
256
6
ByLayer
370
18
48
1
60
0
100
AcDbSpline
70
4
71
3
72
10
73
6
40
0
40
0
40
0
40
0
40
0.106616270583442
40
0.106616270583442
40
1
40
1
40
1
40
1
41
1
10
19.8102725678072
20
6.29322405693605
30
0
41
1
10
19.7804603781108
20
6.26887200307695
30
0
41
1
10
19.7506843479995
20
6.24426528297636
30
0
41
1
10
19.4720942636246
20
6.01137092115636
30
0
41
1
10
19.2256361984655
20
5.78523233503157
30
0
41
1
10
18.9839383755052
20
5.54335875765483
30
0
0
SPLINE
5
160
100
AcDbEntity
8
1
62
256
6
ByLayer
370
18
48
1
60
0
100
AcDbSpline
70
4
71
3
72
12
73
8
40
0
40
0
40
0
40
0
40
0.415356444741152
40
0.415356444741152
40
0.825259843212195
40
0.825259843212195
40
1
40
1
40
1
40
1
41
1
10
7.84649786220638
20
4.88800245028193
30
0
41
1
10
7.72072440220813
20
4.77086510723447
30
0
41
1
10
7.57250857915727
20
4.661501346867
30
0
41
1
10
7.26647840249251
20
4.47808516285664
30
0
41
1
10
7.10499054376766
20
4.40070825157892
30
0
41
1
10
6.87599247894821
20
4.31044516227348
30
0
41
1
10
6.80699364405302
20
4.28572954340584
30
0
41
1
10
6.73829425224147
20
4.26325982043707
30
0
0
SPLINE
5
161
100
AcDbEntity
8
1
62
256
6
ByLayer
370
18
48
1
60
0
100
AcDbSpline
70
4
71
3
72
8
73
4
40
0
40
0
40
0
40
0
40
1
40
1
40
1
40
1
41
1
10
19.2708415091643
20
1.7821447235896
30
0
41
1
10
17.7488820176974
20
0.471421817558593
30
0
41
1
10
16.0305323687598
20
-0.599852075861492
30
0
41
1
10
14.1760220723257
20
-1.37702651167982
30
0
0
SPLINE
5
162
100
AcDbEntity
8
1
62
256
6
ByLayer
370
18
48
1
60
0
100
AcDbSpline
70
4
71
3
72
12
73
8
40
0
40
0
40
0
40
0
40
0.307573270173407
40
0.307573270173407
40
0.648852820657659
40
0.648852820657659
40
1
40
1
40
1
40
1
41
1
10
15.2927937546572
20
5.63085793800383
30
0
41
1
10
15.3798561913651
20
5.48886643945858
30
0
41
1
10
15.4570968089309
20
5.3399600775555
30
0
41
1
10
15.5966935107383
20
5.0165989060639
30
0
41
1
10
15.6569723097524
20
4.84002146639787
30
0
41
1
10
15.7501548084324
20
4.47581515493516
30
0
41
1
10
15.7825520596967
20
4.28670405231182
30
0
41
1
10
15.7993174781296
20
4.09721531491223
30
0
0
SPLINE
5
163
100
AcDbEntity
8
1
62
256
6
ByLayer
370
18
48
1
60
0
100
AcDbSpline
70
4
71
3
72
12
73
8
40
0
40
0
40
0
40
0
40
0.391502209781615
40
0.391502209781615
40
0.886018843801029
40
0.886018843801029
40
1
40
1
40
1
40
1
41
1
10
6.30632932081096
20
-1.43213391352597
30
0
41
1
10
6.48168940966775
20
-1.30883874149714
30
0
41
1
10
6.68206492105571
20
-1.14949881427751
30
0
41
1
10
7.16758592455096
20
-0.734680203394277
30
0
41
1
10
7.46672180060528
20
-0.460187785319505
30
0
41
1
10
7.84575574956261
20
-0.0970272817783382
30
0
41
1
10
7.91798739858154
20
-0.0271707641427952
30
0
41
1
10
7.99067550466486
20
0.0437258711385482
30
0
0
SPLINE
5
164
100
AcDbEntity
8
1
62
256
6
ByLayer
370
18
48
1
60
0
100
AcDbSpline
70
4
71
2
72
6
73
3
40
0
40
0
40
0
40
1
40
1
40
1
41
0.932817050425109
10
14.0690766276
20
0.93264731536372
30
0
41
0.929591664905397
10
14.3064847846376
20
-0.141477645474318
30
0
41
1.02990374504916
10
14.2589804088517
20
-0.591368473297584
30
0
0
SPLINE
5
165
100
AcDbEntity
8
1
62
256
6
ByLayer
370
18
48
1
60
0
100
AcDbSpline
70
4
71
3
72
12
73
8
40
0
40
0
40
0
40
0
40
0.50163756713015
40
0.50163756713015
40
0.886957471304439
40
0.886957471304439
40
1
40
1
40
1
40
1
41
1
10
8.11814108990842
20
0.0853865530545477
30
0
41
1
10
8.31328315174369
20
0.149212271934601
30
0
41
1
10
8.52364625864487
20
0.200758787527207
30
0
41
1
10
8.90283726227619
20
0.251948623225928
30
0
41
1
10
9.07368357891244
20
0.260956398340994
30
0
41
1
10
9.28553601822318
20
0.251150544740028
30
0
41
1
10
9.33363711918173
20
0.247475856724179
30
0
41
1
10
9.38082568650594
20
0.242394672986251
30
0
0
SPLINE
5
166
100
AcDbEntity
8
1
62
256
6
ByLayer
370
18
48
1
60
0
100
AcDbSpline
70
4
71
3
72
24
73
20
40
0
40
0
40
0
40
0
40
0.142613444608221
40
0.142613444608221
40
0.190795218269488
40
0.190795218269488
40
0.226951176162319
40
0.226951176162319
40
0.263437466712849
40
0.263437466712849
40
0.296119365572346
40
0.296119365572346
40
0.352324850832269
40
0.352324850832269
40
0.455294648588083
40
0.455294648588083
40
0.66270515804359
40
0.66270515804359
40
1
40
1
40
1
40
1
41
1
10
17.3867983040896
20
7.32696431593152
30
0
41
1
10
17.3060713548498
20
7.30644096501891
30
0
41
1
10
17.2266518091448
20
7.28152708297665
30
0
41
1
10
17.15137081812
20
7.22238867340269
30
0
41
1
10
17.1350746970994
20
7.20463188794585
30
0
41
1
10
17.1177502923542
20
7.16740291924302
30
0
41
1
10
17.1139583200922
20
7.14906237135307
30
0
41
1
10
17.116782719929
20
7.10916413655497
30
0
41
1
10
17.1236464827191
20
7.0870425817198
30
0
41
1
10
17.1453294140815
20
7.04527317854246
30
0
41
1
10
17.1593642842816
20
7.02515776332564
30
0
41
1
10
17.2031728162589
20
6.97275247029384
30
0
41
1
10
17.2375297232998
20
6.94105716173166
30
0
41
1
10
17.3400443318737
20
6.85865735867429
30
0
41
1
10
17.4147253103481
20
6.81165851826768
30
0
41
1
10
17.6409922239892
20
6.68629358383564
30
0
41
1
10
17.8003858822088
20
6.62053273501854
30
0
41
1
10
18.2096999352159
20
6.48101593862478
30
0
41
1
10
18.4623786721573
20
6.42594448999643
30
0
41
1
10
18.7036255006034
20
6.39208459778837
30
0
0
SPLINE
5
167
100
AcDbEntity
8
1
62
256
6
ByLayer
370
18
48
1
60
0
100
AcDbSpline
70
4
71
3
72
8
73
4
40
0
40
0
40
0
40
0
40
1
40
1
40
1
40
1
41
1
10
7.9906755046643
20
0.0437258711392587
30
0
41
1
10
8.03281400450328
20
0.0574883584461645
30
0
41
1
10
8.07532217870971
20
0.0713816390795046
30
0
41
1
10
8.11814108990842
20
0.0853865530545477
30
0
0
LINE
5
72
100
AcDbEntity
8
1
62
256
6
ByLayer
370
18
48
1
60
0
100
AcDbLine
10
10.678857
20
4.022351
30
0
11
10.870577
21
4.073722
31
0
39
0
210
0
220
0
230
1
0
LINE
5
74
100
AcDbEntity
8
1
62
256
6
ByLayer
370
18
48
1
60
0
100
AcDbLine
10
11.805186
20
4.395924
30
0
11
11.997056
21
4.447336
31
0
39
0
210
0
220
0
230
1
0
LINE
5
75
100
AcDbEntity
8
1
62
256
6
ByLayer
370
18
48
1
60
0
100
AcDbLine
10
8.154429
20
-3.372787
30
0
11
8.646703
21
-3.226827
31
0
39
0
210
0
220
0
230
1
0
LINE
5
76
100
AcDbEntity
8
1
62
256
6
ByLayer
370
18
48
1
60
0
100
AcDbLine
10
16.223249
20
13.848834
30
0
11
16.211772
21
13.845759
31
0
39
0
210
0
220
0
230
1
0
LINE
5
77
100
AcDbEntity
8
1
62
256
6
ByLayer
370
18
48
1
60
0
100
AcDbLine
10
8.217668
20
0.116471
30
0
11
7.844448
21
0.005811
31
0
39
0
210
0
220
0
230
1
0
LINE
5
78
100
AcDbEntity
8
1
62
256
6
ByLayer
370
18
48
1
60
0
100
AcDbLine
10
17.291037
20
-0.894817
30
0
11
17.967027
21
-0.713686
31
0
39
0
210
0
220
0
230
1
0
LINE
5
79
100
AcDbEntity
8
1
62
256
6
ByLayer
370
18
48
1
60
0
100
AcDbLine
10
17.444332
20
14.557483
30
0
11
16.768342
21
14.376352
31
0
39
0
210
0
220
0
230
1
0
LINE
5
7A
100
AcDbEntity
8
1
62
256
6
ByLayer
370
18
48
1
60
0
100
AcDbLine
10
11.359144
20
2.709285
30
0
11
11.167424
21
2.657914
31
0
39
0
210
0
220
0
230
1
0
LINE
5
7B
100
AcDbEntity
8
1
62
256
6
ByLayer
370
18
48
1
60
0
100
AcDbLine
10
12.208015
20
0.407417
30
0
11
12.443904
21
0.470623
31
0
39
0
210
0
220
0
230
1
0
LINE
5
7C
100
AcDbEntity
8
1
62
256
6
ByLayer
370
18
48
1
60
0
100
AcDbLine
10
10.787462
20
6.652549
30
0
11
10.551573
21
6.589342
31
0
39
0
210
0
220
0
230
1
0
LINE
5
7D
100
AcDbEntity
8
1
62
256
6
ByLayer
370
18
48
1
60
0
100
AcDbLine
10
12.485472
20
3.082859
30
0
11
12.293752
21
3.031488
31
0
39
0
210
0
220
0
230
1
0
LINE
5
7E
100
AcDbEntity
8
80
62
256
6
ByLayer
370
18
48
1
60
0
100
AcDbLine
10
0
20
0
30
0
11
-5
21
0
31
0
39
0
210
0
220
0
230
1
0
LINE
5
7F
100
AcDbEntity
8
81
62
256
6
ByLayer
370
18
48
1
60
0
100
AcDbLine
10
30.276315
20
7.4125
30
0
11
40.276315
21
7.4125
31
0
39
0
210
0
220
0
230
1
0
LINE
5
80
100
AcDbEntity
8
1
62
256
6
ByLayer
370
18
48
1
60
0
100
AcDbLine
10
10.584968
20
4.015314
30
0
11
10.76712
21
4.064122
31
0
39
0
210
0
220
0
230
1
0
LINE
5
81
100
AcDbEntity
8
1
62
256
6
ByLayer
370
18
48
1
60
0
100
AcDbLine
10
12.208015
20
0.407417
30
0
11
12.208247
21
0.407479
31
0
39
0
210
0
220
0
230
1
0
LINE
5
82
100
AcDbEntity
8
1
62
256
6
ByLayer
370
18
48
1
60
0
100
AcDbLine
10
16.856878
20
0.01927
30
0
11
16.975599
21
0.051081
31
0
39
0
210
0
220
0
230
1
0
LINE
5
83
100
AcDbEntity
8
1
62
256
6
ByLayer
370
18
48
1
60
0
100
AcDbLine
10
16.863909
20
13.78836
30
0
11
16.897705
21
9.631545
31
0
39
0
210
0
220
0
230
1
0
LINE
5
84
100
AcDbEntity
8
1
62
256
6
ByLayer
370
18
48
1
60
0
100
AcDbLine
10
16.97528
20
0.090361
30
0
11
16.975599
21
0.051081
31
0
39
0
210
0
220
0
230
1
0
LINE
5
85
100
AcDbEntity
8
1
62
256
6
ByLayer
370
18
48
1
60
0
100
AcDbLine
10
16.187918
20
13.607229
30
0
11
16.192101
21
13.092725
31
0
39
0
210
0
220
0
230
1
0
LINE
5
86
100
AcDbEntity
8
1
62
256
6
ByLayer
370
18
48
1
60
0
100
AcDbLine
10
12.007865
20
-9.953067
30
0
11
9.674222
21
-2.887306
31
0
39
0
210
0
220
0
230
1
0
LINE
5
87
100
AcDbEntity
8
1
62
256
6
ByLayer
370
18
48
1
60
0
100
AcDbLine
10
6.192785
20
7.653719
30
0
11
4.396348
21
13.092936
31
0
39
0
210
0
220
0
230
1
0
LINE
5
88
100
AcDbEntity
8
1
62
256
6
ByLayer
370
18
48
1
60
0
100
AcDbLine
10
16.748699
20
9.638112
30
0
11
16.72061
21
13.092936
31
0
39
0
210
0
220
0
230
1
0
LINE
5
89
100
AcDbEntity
8
1
62
256
6
ByLayer
370
18
48
1
60
0
100
AcDbLine
10
9.193706
20
-9.944462
30
0
11
7.076798
21
-3.53493
31
0
39
0
210
0
220
0
230
1
0
LINE
5
8A
100
AcDbEntity
8
1
62
256
6
ByLayer
370
18
48
1
60
0
100
AcDbLine
10
3.707883
20
6.665406
30
0
11
1.974924
21
11.912424
31
0
39
0
210
0
220
0
230
1
0
LINE
5
8B
100
AcDbEntity
8
1
62
256
6
ByLayer
370
18
48
1
60
0
100
AcDbLine
10
16.761864
20
9.637571
30
0
11
16.760616
21
9.791022
31
0
39
0
210
0
220
0
230
1
0
LINE
5
8C
100
AcDbEntity
8
1
62
256
6
ByLayer
370
18
48
1
60
0
100
AcDbLine
10
18.743768
20
-1.153752
30
0
11
19.465759
21
0.135506
31
0
39
0
210
0
220
0
230
1
0
LINE
5
8D
100
AcDbEntity
8
1
62
256
6
ByLayer
370
18
48
1
60
0
100
AcDbLine
10
21.151527
20
1.127441
30
0
11
21.058493
21
0.848079
31
0
39
0
210
0
220
0
230
1
0
LINE
5
8E
100
AcDbEntity
8
1
62
256
6
ByLayer
370
18
48
1
60
0
100
AcDbLine
10
24.867471
20
3.111986
30
0
11
24.819391
21
3.285671
31
0
39
0
210
0
220
0
230
1
0
LINE
5
8F
100
AcDbEntity
8
1
62
256
6
ByLayer
370
18
48
1
60
0
100
AcDbLine
10
9.162505
20
-9.943599
30
0
11
7.045903
21
-3.534995
31
0
39
0
210
0
220
0
230
1
0
LINE
5
90
100
AcDbEntity
8
1
62
256
6
ByLayer
370
18
48
1
60
0
100
AcDbLine
10
3.682957
20
6.647269
30
0
11
1.951684
21
11.889184
31
0
39
0
210
0
220
0
230
1
0
LINE
5
91
100
AcDbEntity
8
1
62
256
6
ByLayer
370
18
48
1
60
0
100
AcDbLine
10
8.204493
20
-9.94067
30
0
11
6.000284
21
-3.266808
31
0
39
0
210
0
220
0
230
1
0
LINE
5
92
100
AcDbEntity
8
1
62
256
6
ByLayer
370
18
48
1
60
0
100
AcDbLine
10
3.002764
20
5.809023
30
0
11
1.23225
21
11.16975
31
0
39
0
210
0
220
0
230
1
0
LINE
5
93
100
AcDbEntity
8
1
62
256
6
ByLayer
370
18
48
1
60
0
100
AcDbLine
10
18.593114
20
-1.085155
30
0
11
19.183763
21
-0.030433
31
0
39
0
210
0
220
0
230
1
0
LINE
5
94
100
AcDbEntity
8
1
62
256
6
ByLayer
370
18
48
1
60
0
100
AcDbLine
10
11.699611
20
0.075089
30
0
11
13.07252
21
0.530679
31
0
39
0
210
0
220
0
230
1
0
LINE
5
95
100
AcDbEntity
8
1
62
256
6
ByLayer
370
18
48
1
60
0
100
AcDbLine
10
12.391026
20
3.041866
30
0
11
12.205456
21
2.992142
31
0
39
0
210
0
220
0
230
1
0
LINE
5
96
100
AcDbEntity
8
1
62
256
6
ByLayer
370
18
48
1
60
0
100
AcDbLine
10
12.069174
20
2.668991
30
0
11
12.260894
21
2.720363
31
0
39
0
210
0
220
0
230
1
0
LINE
5
97
100
AcDbEntity
8
1
62
256
6
ByLayer
370
18
48
1
60
0
100
AcDbLine
10
11.767673
20
4.470234
30
0
11
11.582102
21
4.420511
31
0
39
0
210
0
220
0
230
1
0
LINE
5
98
100
AcDbEntity
8
1
62
256
6
ByLayer
370
18
48
1
60
0
100
AcDbLine
10
11.745083
20
4.386049
30
0
11
11.930654
21
4.435773
31
0
39
0
210
0
220
0
230
1
0
LINE
5
99
100
AcDbEntity
8
1
62
256
6
ByLayer
370
18
48
1
60
0
100
AcDbLine
10
12.486823
20
3.935458
30
0
11
12.301253
21
3.885734
31
0
39
0
210
0
220
0
230
1
0
LINE
5
9A
100
AcDbEntity
8
1
62
256
6
ByLayer
370
18
48
1
60
0
100
AcDbLine
10
12.354233
20
4.078084
30
0
11
12.545953
21
4.129455
31
0
39
0
210
0
220
0
230
1
0
LINE
5
9B
100
AcDbEntity
8
1
62
256
6
ByLayer
370
18
48
1
60
0
100
AcDbLine
10
12.095172
20
2.867046
30
0
11
12.280743
21
2.91677
31
0
39
0
210
0
220
0
230
1
0
LINE
5
9C
100
AcDbEntity
8
1
62
256
6
ByLayer
370
18
48
1
60
0
100
AcDbLine
10
11.443328
20
4.563915
30
0
11
11.635048
21
4.615286
31
0
39
0
210
0
220
0
230
1
0
LINE
5
9D
100
AcDbEntity
8
1
62
256
6
ByLayer
370
18
48
1
60
0
100
AcDbLine
10
11.044496
20
2.592428
30
0
11
11.236216
21
2.643799
31
0
39
0
210
0
220
0
230
1
0
LINE
5
9E
100
AcDbEntity
8
1
62
256
6
ByLayer
370
18
48
1
60
0
100
AcDbLine
10
12.510982
20
3.603482
30
0
11
12.702702
21
3.654854
31
0
39
0
210
0
220
0
230
1
0
LINE
5
9F
100
AcDbEntity
8
1
62
256
6
ByLayer
370
18
48
1
60
0
100
AcDbLine
10
12.353951
20
3.726177
30
0
11
12.539521
21
3.7759
31
0
39
0
210
0
220
0
230
1
0
LINE
5
A0
100
AcDbEntity
8
1
62
256
6
ByLayer
370
18
48
1
60
0
100
AcDbLine
10
13.398401
20
0.627303
30
0
11
13.07252
21
0.530679
31
0
39
0
210
0
220
0
230
1
0
LINE
5
A1
100
AcDbEntity
8
1
62
256
6
ByLayer
370
18
48
1
60
0
100
AcDbLine
10
10.70554
20
9.13083
30
0
11
6.404302
21
7.704222
31
0
39
0
210
0
220
0
230
1
0
LINE
5
A2
100
AcDbEntity
8
1
62
256
6
ByLayer
370
18
48
1
60
0
100
AcDbLine
10
9.836092
20
-2.833644
30
0
11
9.874784
21
-2.803635
31
0
39
0
210
0
220
0
230
1
0
LINE
5
A3
100
AcDbEntity
8
1
62
256
6
ByLayer
370
18
48
1
60
0
100
AcDbLine
10
8.324626
20
-2.559639
30
0
11
14.25898
21
-0.591368
31
0
39
0
210
0
220
0
230
1
0
LINE
5
A4
100
AcDbEntity
8
1
62
256
6
ByLayer
370
18
48
1
60
0
100
AcDbLine
10
6.355114
20
7.705991
30
0
11
6.404302
21
7.704222
31
0
39
0
210
0
220
0
230
1
0
LINE
5
A5
100
AcDbEntity
8
1
62
256
6
ByLayer
370
18
48
1
60
0
100
AcDbLine
10
8.721555
20
-3.203306
30
0
11
9.836092
21
-2.833644
31
0
39
0
210
0
220
0
230
1
0
LINE
5
A6
100
AcDbEntity
8
1
62
256
6
ByLayer
370
18
48
1
60
0
100
AcDbLine
10
11.846174
20
0.11247
30
0
11
11.527702
21
0.018042
31
0
39
0
210
0
220
0
230
1
0
LINE
5
A7
100
AcDbEntity
8
1
62
256
6
ByLayer
370
18
48
1
60
0
100
AcDbLine
10
8.118141
20
0.085387
30
0
11
7.754869
21
-0.022324
31
0
39
0
210
0
220
0
230
1
0
LINE
5
A8
100
AcDbEntity
8
1
62
256
6
ByLayer
370
18
48
1
60
0
100
AcDbLine
10
5.063704
20
3.720398
30
0
11
6.443551
21
-0.457475
31
0
39
0
210
0
220
0
230
1
0
LINE
5
A9
100
AcDbEntity
8
1
62
256
6
ByLayer
370
18
48
1
60
0
100
AcDbLine
10
5.317428
20
6.545495
30
0
11
11.251783
21
8.513766
31
0
39
0
210
0
220
0
230
1
0
LINE
5
AA
100
AcDbEntity
8
1
62
256
6
ByLayer
370
18
48
1
60
0
100
AcDbLine
10
7.754869
20
-0.022324
30
0
11
6.443551
21
-0.457475
31
0
39
0
210
0
220
0
230
1
0
LINE
5
AB
100
AcDbEntity
8
1
62
256
6
ByLayer
370
18
48
1
60
0
100
AcDbLine
10
14.176022
20
-1.377027
30
0
11
9.874784
21
-2.803635
31
0
39
0
210
0
220
0
230
1
0
LINE
5
AC
100
AcDbEntity
8
1
62
256
6
ByLayer
370
18
48
1
60
0
100
AcDbLine
10
9.745044
20
6.474231
30
0
11
11.297271
21
6.989064
31
0
39
0
210
0
220
0
230
1
0
LINE
5
AD
100
AcDbEntity
8
1
62
256
6
ByLayer
370
18
48
1
60
0
100
AcDbLine
10
6.14799
20
-1.443299
30
0
11
4.800902
21
-1.842711
31
0
39
0
210
0
220
0
230
1
0
LINE
5
AE
100
AcDbEntity
8
1
62
256
6
ByLayer
370
18
48
1
60
0
100
AcDbLine
10
5.240577
20
7.336328
30
0
11
4.776751
21
7.198804
31
0
39
0
210
0
220
0
230
1
0
LINE
5
AF
100
AcDbEntity
8
1
62
256
6
ByLayer
370
18
48
1
60
0
100
AcDbLine
10
21.56714
20
3.486369
30
0
11
22.586586
21
5.562327
31
0
39
0
210
0
220
0
230
1
0
LINE
5
B0
100
AcDbEntity
8
1
62
256
6
ByLayer
370
18
48
1
60
0
100
AcDbLine
10
4.800902
20
-1.842711
30
0
11
2.887933
21
3.94934
31
0
39
0
210
0
220
0
230
1
0
LINE
5
B1
100
AcDbEntity
8
1
62
256
6
ByLayer
370
18
48
1
60
0
100
AcDbLine
10
19.810273
20
6.293224
30
0
11
23.313846
21
7.486746
31
0
39
0
210
0
220
0
230
1
0
LINE
5
B2
100
AcDbEntity
8
1
62
256
6
ByLayer
370
18
48
1
60
0
100
AcDbLine
10
13.398401
20
0.627303
30
0
11
11.846174
21
0.11247
31
0
39
0
210
0
220
0
230
1
0
LINE
5
B3
100
AcDbEntity
8
1
62
256
6
ByLayer
370
18
48
1
60
0
100
AcDbLine
10
6.355114
20
7.705991
30
0
11
5.240577
21
7.336328
31
0
39
0
210
0
220
0
230
1
0
LINE
5
B4
100
AcDbEntity
8
1
62
256
6
ByLayer
370
18
48
1
60
0
100
AcDbLine
10
4.23502
20
4.348753
30
0
11
6.14799
21
-1.443299
31
0
39
0
210
0
220
0
230
1
0
LINE
5
B5
100
AcDbEntity
8
1
62
256
6
ByLayer
370
18
48
1
60
0
100
AcDbLine
10
6.355114
20
7.705991
30
0
11
4.784578
21
7.201319
31
0
39
0
210
0
220
0
230
1
0
LINE
5
B6
100
AcDbEntity
8
1
62
256
6
ByLayer
370
18
48
1
60
0
100
AcDbLine
10
4.23502
20
4.348753
30
0
11
2.887933
21
3.94934
31
0
39
0
210
0
220
0
230
1
0
LINE
5
B7
100
AcDbEntity
8
1
62
256
6
ByLayer
370
18
48
1
60
0
100
AcDbLine
10
21.583116
20
8.600614
30
0
11
19.529077
21
9.657177
31
0
39
0
210
0
220
0
230
1
0
LINE
5
B8
100
AcDbEntity
8
1
62
256
6
ByLayer
370
18
48
1
60
0
100
AcDbLine
10
16.805849
20
13.052066
30
0
11
16.825689
21
10.61187
31
0
39
0
210
0
220
0
230
1
0
LINE
5
B9
100
AcDbEntity
8
1
62
256
6
ByLayer
370
18
48
1
60
0
100
AcDbLine
10
25.258731
20
1.698585
30
0
11
24.867471
21
3.111986
31
0
39
0
210
0
220
0
230
1
0
LINE
5
BA
100
AcDbEntity
8
1
62
256
6
ByLayer
370
18
48
1
60
0
100
AcDbLine
10
1.665404
20
-9.944767
30
0
11
0.964115
21
10.901615
31
0
39
0
210
0
220
0
230
1
0
LINE
5
BB
100
AcDbEntity
8
1
62
256
6
ByLayer
370
18
48
1
60
0
100
AcDbLine
10
20.210072
20
-0.666946
30
0
11
21.058493
21
0.848079
31
0
39
0
210
0
220
0
230
1
0
LINE
5
BC
100
AcDbEntity
8
1
62
256
6
ByLayer
370
18
48
1
60
0
100
AcDbLine
10
9.193706
20
-9.944462
30
0
11
9.162505
21
-9.943599
31
0
39
0
210
0
220
0
230
1
0
LINE
5
BD
100
AcDbEntity
8
1
62
256
6
ByLayer
370
18
48
1
60
0
100
AcDbLine
10
18.743768
20
-1.153752
30
0
11
20.210072
21
-0.666946
31
0
39
0
210
0
220
0
230
1
0
LINE
5
BE
100
AcDbEntity
8
1
62
256
6
ByLayer
370
18
48
1
60
0
100
AcDbLine
10
1.951684
20
11.889184
30
0
11
1.974924
21
11.912424
31
0
39
0
210
0
220
0
230
1
0
LINE
5
BF
100
AcDbEntity
8
1
62
256
6
ByLayer
370
18
48
1
60
0
100
AcDbLine
10
0.964115
20
10.901615
30
0
11
1.23225
21
11.16975
31
0
39
0
210
0
220
0
230
1
0
LINE
5
C0
100
AcDbEntity
8
1
62
256
6
ByLayer
370
18
48
1
60
0
100
AcDbLine
10
1.974924
20
11.912424
30
0
11
3.155436
21
13.092936
31
0
39
0
210
0
220
0
230
1
0
LINE
5
C1
100
AcDbEntity
8
1
62
256
6
ByLayer
370
18
48
1
60
0
100
AcDbLine
10
16.986736
20
-9.949947
30
0
11
25.258731
21
1.698585
31
0
39
0
210
0
220
0
230
1
0
LINE
5
C2
100
AcDbEntity
8
1
62
256
6
ByLayer
370
18
48
1
60
0
100
AcDbLine
10
0
20
-9.9375
30
0
11
1.665404
21
-9.944767
31
0
39
0
210
0
220
0
230
1
0
LINE
5
C3
100
AcDbEntity
8
1
62
256
6
ByLayer
370
18
48
1
60
0
100
AcDbLine
10
21.058493
20
0.848079
30
0
11
24.867471
21
3.111986
31
0
39
0
210
0
220
0
230
1
0
LINE
5
C4
100
AcDbEntity
8
1
62
256
6
ByLayer
370
18
48
1
60
0
100
AcDbLine
10
3.155436
20
13.092936
30
0
11
4.396348
21
13.092936
31
0
39
0
210
0
220
0
230
1
0
LINE
5
C5
100
AcDbEntity
8
1
62
256
6
ByLayer
370
18
48
1
60
0
100
AcDbLine
10
16.73506
20
13.092936
30
0
11
16.805849
21
13.052066
31
0
39
0
210
0
220
0
230
1
0
LINE
5
C6
100
AcDbEntity
8
1
62
256
6
ByLayer
370
18
48
1
60
0
100
AcDbLine
10
1.23225
20
11.16975
30
0
11
1.951684
21
11.889184
31
0
39
0
210
0
220
0
230
1
0
LINE
5
C7
100
AcDbEntity
8
1
62
256
6
ByLayer
370
18
48
1
60
0
100
AcDbLine
10
16.72061
20
13.092936
30
0
11
4.396348
21
13.092936
31
0
39
0
210
0
220
0
230
1
0
LINE
5
C8
100
AcDbEntity
8
1
62
256
6
ByLayer
370
18
48
1
60
0
100
AcDbLine
10
0.964115
20
10.901615
30
0
11
0
21
9.9375
31
0
39
0
210
0
220
0
230
1
0
LINE
5
C9
100
AcDbEntity
8
1
62
256
6
ByLayer
370
18
48
1
60
0
100
AcDbLine
10
0
20
-9.9375
30
0
11
0
21
9.9375
31
0
39
0
210
0
220
0
230
1
0
LINE
5
CA
100
AcDbEntity
8
1
62
256
6
ByLayer
370
18
48
1
60
0
100
AcDbLine
10
17.015877
20
-1.549344
30
0
11
16.843408
21
-1.45027
31
0
39
0
210
0
220
0
230
1
0
LINE
5
CB
100
AcDbEntity
8
1
62
256
6
ByLayer
370
18
48
1
60
0
100
AcDbLine
10
16.986736
20
-9.949947
30
0
11
12.007865
21
-9.953067
31
0
39
0
210
0
220
0
230
1
0
LINE
5
CC
100
AcDbEntity
8
1
62
256
6
ByLayer
370
18
48
1
60
0
100
AcDbLine
10
16.72061
20
13.092936
30
0
11
16.73506
21
13.092936
31
0
39
0
210
0
220
0
230
1
0
LINE
5
CD
100
AcDbEntity
8
1
62
256
6
ByLayer
370
18
48
1
60
0
100
AcDbLine
10
12.007865
20
-9.953067
30
0
11
9.193706
21
-9.944462
31
0
39
0
210
0
220
0
230
1
0
LINE
5
CE
100
AcDbEntity
8
1
62
256
6
ByLayer
370
18
48
1
60
0
100
AcDbLine
10
8.204493
20
-9.94067
30
0
11
1.665404
21
-9.944767
31
0
39
0
210
0
220
0
230
1
0
LINE
5
CF
100
AcDbEntity
8
1
62
256
6
ByLayer
370
18
48
1
60
0
100
AcDbLine
10
18.593114
20
-1.085155
30
0
11
18.743768
21
-1.153752
31
0
39
0
210
0
220
0
230
1
0
LINE
5
D0
100
AcDbEntity
8
SK1
62
256
6
ByLayer
370
18
48
1
60
0
100
AcDbLine
10
0
20
9.9375
30
0
11
0
21
-9.9375
31
0
39
0
210
0
220
0
230
1
0
LINE
5
D2
100
AcDbEntity
8
SK1
62
256
6
ByLayer
370
18
48
1
60
0
100
AcDbLine
10
-96.073685
20
9.9375
30
0
11
-96.073685
21
-9.9375
31
0
39
0
210
0
220
0
230
1
0
LINE
5
D3
100
AcDbEntity
8
SK1
62
256
6
ByLayer
370
18
48
1
60
0
100
AcDbLine
10
0
20
9.9375
30
0
11
-96.073685
21
9.9375
31
0
39
0
210
0
220
0
230
1
0
LINE
5
D4
100
AcDbEntity
8
SK1
62
256
6
ByLayer
370
18
48
1
60
0
100
AcDbLine
10
-96.073685
20
-9.9375
30
0
11
0
21
-9.9375
31
0
39
0
210
0
220
0
230
1
0
LINE
5
D5
100
AcDbEntity
8
1
62
256
6
ByLayer
370
18
48
1
60
0
100
AcDbLine
10
16.863909
20
13.78836
30
0
11
16.187918
21
13.607229
31
0
39
0
210
0
220
0
230
1
0
LINE
5
D6
100
AcDbEntity
8
1
62
256
6
ByLayer
370
18
48
1
60
0
100
AcDbLine
10
29.877491
20
7.642761
30
0
11
18.037211
21
14.47875
31
0
39
0
210
0
220
0
230
1
0
LINE
5
D7
100
AcDbEntity
8
1
62
256
6
ByLayer
370
18
48
1
60
0
100
AcDbLine
10
18.160075
20
-0.632776
30
0
11
29.888665
21
6.268514
31
0
39
0
210
0
220
0
230
1
0
MTEXT
5
168
100
AcDbEntity
8
SK6
62
256
6
ByLayer
370
18
48
1
60
0
100
AcDbMText
10
-47.023685
20
-18.497052
30
0
210
0
220
0
230
1
1
\W0.7799;DTTNR 2020K 16
40
3.5
41
0
44
1.084337
50
0
71
7
72
5
7
iso_b_vert
0
DIMENSION
5
179
100
AcDbEntity
8
2
62
256
6
ByLayer
370
13
48
1
60
0
100
AcDbDimension
2
DimnDraft3D1
10
27.200118
20
9.188543
30
0
11
17.548393
21
29.457908
31
0
70
34
71
5
72
1
41
1
210
0
220
0
230
1
3
Standard
100
AcDb2LineAngularDimension
13
30.276315
23
7.4125
33
0
14
30.276315
24
5.825
34
0
15
30.276315
25
7.4125
35
0
16
19.798393
26
25.560793
36
0
40
0
0
DIMENSION
5
18F
100
AcDbEntity
8
SK2
62
256
6
ByLayer
370
13
48
1
60
0
100
AcDbDimension
2
DimnDraft3D2
10
-103.823685
20
9.9375
30
0
11
-103.823685
21
-5.281579
31
0
70
32
71
5
72
1
41
1
210
0
220
0
230
1
3
Standard
100
AcDbAlignedDimension
13
-98.073685
23
-9.9375
33
0
14
-98.073685
24
9.9375
34
0
50
90
100
AcDbRotatedDimension
1001
ACAD
1000
DSTYLE
1002
{
1070
    74
1070
     0
1070
   279
1070
     0
1070
   172
1070
     1
1070
   173
1070
     1
1070
   340
1005
169
1070
    77
1070
     1
1070
    73
1070
     0
1070
   171
1070
     3
1070
   274
1070
     4
1070
   177
1070
     2
1070
   176
1070
     2
1070
   178
1070
     7
1070
    78
1070
     8
1070
    41
1041
3.175
1070
   147
1041
2.25
1070
    42
1041
2.0
1070
    44
1041
2.0
1070
   140
1041
4.5
1070
   343
1005
17A
1070
   344
1005
17A
1002
}
0
DIMENSION
5
19D
100
AcDbEntity
8
2
62
256
6
ByLayer
370
13
48
1
60
0
100
AcDbDimension
2
DimnDraft3D3
10
52.526315
20
7.4125
30
0
11
52.526315
21
-5.981579
31
0
70
32
71
5
72
1
41
1
210
0
220
0
230
1
3
Standard
100
AcDbAlignedDimension
13
2
23
-9.9375
33
0
14
32.276315
24
7.4125
34
0
50
90
100
AcDbRotatedDimension
1001
ACAD
1000
DSTYLE
1002
{
1070
    74
1070
     0
1070
   279
1070
     0
1070
   172
1070
     1
1070
   173
1070
     1
1070
   340
1005
169
1070
    77
1070
     1
1070
    73
1070
     0
1070
   171
1070
     3
1070
   274
1070
     4
1070
   177
1070
     2
1070
   176
1070
     2
1070
   178
1070
     7
1070
    78
1070
     8
1070
    41
1041
3.175
1070
   147
1041
2.25
1070
    42
1041
2.0
1070
    44
1041
2.0
1070
   140
1041
4.5
1070
   343
1005
17A
1070
   344
1005
17A
1002
}
0
DIMENSION
5
1AB
100
AcDbEntity
8
2
62
256
6
ByLayer
370
13
48
1
60
0
100
AcDbDimension
2
DimnDraft3D4
10
30.276315
20
37.1625
30
0
11
9.856579
21
37.1625
31
0
70
32
71
5
72
1
41
1
210
0
220
0
230
1
3
Standard
100
AcDbAlignedDimension
13
0
23
11.9375
33
0
14
30.276315
24
9.4125
34
0
50
0
100
AcDbRotatedDimension
1001
ACAD
1000
DSTYLE
1002
{
1070
   279
1070
     0
1070
   172
1070
     1
1070
   173
1070
     1
1070
   340
1005
169
1070
    77
1070
     1
1070
    73
1070
     0
1070
   171
1070
     3
1070
   274
1070
     4
1070
   177
1070
     2
1070
   176
1070
     2
1070
   178
1070
     7
1070
    78
1070
     8
1070
    41
1041
3.175
1070
   147
1041
2.25
1070
    42
1041
2.0
1070
    44
1041
2.0
1070
   140
1041
4.5
1070
   343
1005
17A
1070
   344
1005
17A
1002
}
0
DIMENSION
5
1B9
100
AcDbEntity
8
SK2
62
256
6
ByLayer
370
13
48
1
60
0
100
AcDbDimension
2
DimnDraft3D5
10
-96.073685
20
47.1625
30
0
11
-39.299343
21
47.1625
31
0
70
32
71
5
72
1
41
1
210
0
220
0
230
1
3
Standard
100
AcDbAlignedDimension
13
30.276315
23
9.4125
33
0
14
-96.073685
24
11.9375
34
0
50
0
100
AcDbRotatedDimension
1001
ACAD
1000
DSTYLE
1002
{
1070
   279
1070
     0
1070
   172
1070
     1
1070
   173
1070
     1
1070
   340
1005
169
1070
    77
1070
     1
1070
    73
1070
     0
1070
   171
1070
     3
1070
   274
1070
     4
1070
   177
1070
     2
1070
   176
1070
     2
1070
   178
1070
     7
1070
    78
1070
     8
1070
    41
1041
3.175
1070
   147
1041
2.25
1070
    42
1041
2.0
1070
    44
1041
2.0
1070
   140
1041
4.5
1070
   343
1005
17A
1070
   344
1005
17A
1002
}
0
ENDSEC
0
SECTION
2
OBJECTS
0
DICTIONARY
5
223
330
0
100
AcDbDictionary
280
0
281
1
3
ACAD_GROUP
350
224
3
ACAD_MLINESTYLE
350
225
0
DICTIONARY
5
224
330
0
100
AcDbDictionary
280
0
281
1
0
DICTIONARY
5
225
330
0
100
AcDbDictionary
280
0
281
1
3
Standard
350
18
0
MLINESTYLE
5
18
330
225
100
AcDbMlineStyle
2
Standard
70
0
3

62
256
51
90
52
90
71
2
49
-0.5
62
256
6
ByLayer
49
0.5
62
256
6
ByLayer
0
RASTERVARIABLES
5
212
330

100
AcDbRasterVariables
90
0
70
1
71
1
72
1
0
ENDSEC
0
EOF
