0
SECTION
2
HEADER
9
$ACADVER
1
AC1015
9
$DWGCODEPAGE
3
ANSI_1252
9
$HANDSEED
5
230
9
$ANGBASE
50
0
9
$ANGDIR
70
0
9
$ATTMODE
70
1
9
$AUNITS
70
0
9
$AUPREC
70
0
9
$CECOLOR
62
256
9
$CELTSCALE
40
1
9
$CELTYPE
6
ByLayer
9
$CELWEIGHT
370
18
9
$CLAYER
8
0
9
$CMLJUST
70
0
9
$CMLSCALE
40
1
9
$CMLSTYLE
2
Standard
9
$DIMSTYLE
2
Standard
9
$TEXTSIZE
40
0.2
9
$TEXTSTYLE
7
Standard
9
$LUNITS
70
2
9
$LUPREC
70
4
9
$EXTNAMES
290
1
9
$INSUNITS
70
4
9
$LTSCALE
40
1
9
$LWDISPLAY
290
1
9
$PDMODE
70
0
9
$PDSIZE
40
0
9
$PLINEGEN
70
0
0
ENDSEC
0
SECTION
2
CLASSES
0
CLASS
1
RASTERVARIABLES
2
AcDbRasterVariables
3
ISM
90
0
280
0
281
0
0
ENDSEC
0
SECTION
2
TABLES
0
TABLE
2
VPORT
5
226
100
AcDbSymbolTable
0
VPORT
5
1
100
AcDbSymbolTableRecord
100
AcDbViewportTableRecord
2
*Active
70
0
10
0
20
0
11
1
21
1
12
-1
22
1
13
0
23
0
14
0.5
24
0.5
15
10
25
10
16
0
26
0
36
1
17
0
27
0
37
0
0
ENDTAB
0
TABLE
2
LTYPE
5
227
100
AcDbSymbolTable
0
LTYPE
5
14
100
AcDbSymbolTableRecord
100
AcDbLinetypeTableRecord
70
0
2
ByBlock
3

72
65
73
0
40
0
0
LTYPE
5
15
100
AcDbSymbolTableRecord
100
AcDbLinetypeTableRecord
70
0
2
ByLayer
3

72
65
73
0
40
0
0
LTYPE
5
16
100
AcDbSymbolTableRecord
100
AcDbLinetypeTableRecord
70
0
2
CONTINUOUS
3
Solid line
72
65
73
0
40
0
0
LTYPE
5
6A
100
AcDbSymbolTableRecord
100
AcDbLinetypeTableRecord
70
0
2
CENTER
3
____ _ ____ _ ____ _ ____
72
65
73
4
40
47.5
49
22
74
0
49
-8.5
74
0
49
8.5
74
0
49
-8.5
74
0
0
LTYPE
5
6B
100
AcDbSymbolTableRecord
100
AcDbLinetypeTableRecord
70
0
2
DASHED
3
__ __ __ __ __ __ __ __ __
72
65
73
2
40
25.72
49
12.86
74
0
49
-12.86
74
0
0
ENDTAB
0
TABLE
2
LAYER
5
228
100
AcDbSymbolTable
0
LAYER
5
10
100
AcDbSymbolTableRecord
100
AcDbLayerTableRecord
2
0
70
0
62
7
6
CONTINUOUS
290
1
370
-3
390
0
0
LAYER
5
6D
100
AcDbSymbolTableRecord
100
AcDbLayerTableRecord
2
2
70
0
62
7
6
CONTINUOUS
290
1
370
-3
390
0
0
LAYER
5
6F
100
AcDbSymbolTableRecord
100
AcDbLayerTableRecord
2
80
70
0
62
-6
6
CONTINUOUS
290
1
370
-3
390
0
0
LAYER
5
71
100
AcDbSymbolTableRecord
100
AcDbLayerTableRecord
2
81
70
0
62
-3
6
CONTINUOUS
290
1
370
-3
390
0
0
LAYER
5
73
100
AcDbSymbolTableRecord
100
AcDbLayerTableRecord
2
1
70
0
62
4
6
CONTINUOUS
290
1
370
-3
390
0
0
LAYER
5
213
100
AcDbSymbolTableRecord
100
AcDbLayerTableRecord
2
SK1
70
0
62
4
6
CONTINUOUS
290
1
370
-3
390
0
0
LAYER
5
214
100
AcDbSymbolTableRecord
100
AcDbLayerTableRecord
2
SK6
70
0
62
5
6
CONTINUOUS
290
1
370
-3
390
0
0
LAYER
5
215
100
AcDbSymbolTableRecord
100
AcDbLayerTableRecord
2
SK2
70
0
62
7
6
CONTINUOUS
290
1
370
-3
390
0
0
ENDTAB
0
TABLE
2
STYLE
5
229
100
AcDbSymbolTable
0
STYLE
5
11
100
AcDbSymbolTableRecord
100
AcDbTextStyleTableRecord
2
Standard
3
txt
70
0
71
0
40
0
41
1
42
0
50
0
0
STYLE
5
169
100
AcDbSymbolTableRecord
100
AcDbTextStyleTableRecord
2
iso_b_vert
3
simplex.shx
70
0
71
0
40
0
41
1
42
0
50
0
0
STYLE
5
16A
100
AcDbSymbolTableRecord
100
AcDbTextStyleTableRecord
2
DWGDirectTextStyle
3
simplex
70
0
71
0
40
0
41
1
42
0
50
0
0
ENDTAB
0
TABLE
2
DIMSTYLE
5
22a
100
AcDbSymbolTable
100
AcDbDimStyleTable
0
DIMSTYLE
105
27
100
AcDbSymbolTableRecord
100
AcDbDimStyleTableRecord
2
Standard
70
0
3
<>
41
0.18
42
0.0625
44
0.18
140
0.18
147
0.09
73
0
74
0
77
1
271
2
275
0
278
52
280
0
340
11
0
ENDTAB
0
TABLE
2
VIEW
5
22b
100
AcDbSymbolTable
0
ENDTAB
0
TABLE
2
UCS
5
22c
100
AcDbSymbolTable
0
ENDTAB
0
TABLE
2
APPID
5
22d
100
AcDbSymbolTable
0
APPID
5
12
100
AcDbSymbolTableRecord
100
AcDbRegAppTableRecord
2
ACAD
70
0
0
ENDTAB
0
TABLE
2
BLOCK_RECORD
5
22e
100
AcDbSymbolTable
0
BLOCK_RECORD
5
1F
100
AcDbSymbolTableRecord
100
AcDbBlockTableRecord
2
*Model_Space
340
0
70
0
0
BLOCK_RECORD
5
1B
100
AcDbSymbolTableRecord
100
AcDbBlockTableRecord
2
*Paper_Space
340
0
70
0
0
BLOCK_RECORD
5
23
100
AcDbSymbolTableRecord
100
AcDbBlockTableRecord
2
*Paper_Space0
340
0
70
0
0
BLOCK_RECORD
5
16C
100
AcDbSymbolTableRecord
100
AcDbBlockTableRecord
2
DimnDraft3D1
340
0
70
0
0
BLOCK_RECORD
5
17A
100
AcDbSymbolTableRecord
100
AcDbBlockTableRecord
2
_CLOSED
340
0
70
0
0
BLOCK_RECORD
5
181
100
AcDbSymbolTableRecord
100
AcDbBlockTableRecord
2
DimnDraft3D2
340
0
70
0
0
BLOCK_RECORD
5
190
100
AcDbSymbolTableRecord
100
AcDbBlockTableRecord
2
DimnDraft3D3
340
0
70
0
0
BLOCK_RECORD
5
19E
100
AcDbSymbolTableRecord
100
AcDbBlockTableRecord
2
DimnDraft3D4
340
0
70
0
0
BLOCK_RECORD
5
1AC
100
AcDbSymbolTableRecord
100
AcDbBlockTableRecord
2
DimnDraft3D5
340
0
70
0
0
ENDTAB
0
ENDSEC
0
SECTION
2
BLOCKS
0
BLOCK
5
20
100
AcDbEntity
8
0
100
AcDbBlockBegin
2
*Model_Space
70
0
10
0
20
0
30
0
3
*Model_Space
0
ENDBLK
5
21
100
AcDbEntity
8
0
100
AcDbBlockEnd
0
BLOCK
5
1C
100
AcDbEntity
8
0
100
AcDbBlockBegin
2
*Paper_Space
70
0
10
0
20
0
30
0
3
*Paper_Space
0
ENDBLK
5
1D
100
AcDbEntity
8
0
100
AcDbBlockEnd
0
BLOCK
5
24
100
AcDbEntity
8
0
100
AcDbBlockBegin
2
*Paper_Space0
70
0
10
0
20
0
30
0
3
*Paper_Space0
0
ENDBLK
5
25
100
AcDbEntity
8
0
100
AcDbBlockEnd
0
BLOCK
5
177
100
AcDbEntity
8
0
100
AcDbBlockBegin
2
DimnDraft3D1
70
0
10
0
20
0
30
0
3
DimnDraft3D1
0
MTEXT
5
16D
100
AcDbEntity
8
2
62
256
6
ByLayer
370
18
48
1
60
0
100
AcDbMText
10
6.895077
20
28.516447
30
0
210
0
220
0
230
1
1
\W0.7399;93%%d
40
4.5
41
0
44
1.084337
50
46.5000000000003
71
7
72
5
7
iso_b_vert
0
LINE
5
16E
100
AcDbEntity
8
2
62
256
6
ByLayer
370
13
48
1
60
0
100
AcDbLine
10
24.899434
20
17.4125
30
0
11
24.899434
21
38.380865
31
0
39
0
210
0
220
0
230
1
0
LINE
5
16F
100
AcDbEntity
8
2
62
256
6
ByLayer
370
13
48
1
60
0
100
AcDbLine
10
21.068254
20
15.254404
30
0
11
2.005176
21
14.255351
31
0
39
0
210
0
220
0
230
1
0
ARC
5
170
100
AcDbEntity
8
2
62
256
6
ByLayer
370
13
48
1
60
0
100
AcDbCircle
39
0
10
24.899434
20
15.455188
30
0
40
20.9256770833571
210
0
220
0
230
1
100
AcDbArc
50
90
51
183
0
LINE
5
171
100
AcDbEntity
8
2
62
256
6
ByLayer
370
13
48
1
60
0
100
AcDbLine
10
24.899434
20
36.380865
30
0
11
21.742532
21
35.842993
31
0
39
0
210
0
220
0
230
1
0
LINE
5
172
100
AcDbEntity
8
2
62
256
6
ByLayer
370
13
48
1
60
0
100
AcDbLine
10
24.899434
20
36.380865
30
0
11
21.710886
21
36.678387
31
0
39
0
210
0
220
0
230
1
0
LINE
5
173
100
AcDbEntity
8
2
62
256
6
ByLayer
370
13
48
1
60
0
100
AcDbLine
10
21.742532
20
35.842993
30
0
11
21.710886
21
36.678387
31
0
39
0
210
0
220
0
230
1
0
LINE
5
174
100
AcDbEntity
8
2
62
256
6
ByLayer
370
13
48
1
60
0
100
AcDbLine
10
4.002435
20
14.360023
30
0
11
3.538445
21
17.528626
31
0
39
0
210
0
220
0
230
1
0
LINE
5
175
100
AcDbEntity
8
2
62
256
6
ByLayer
370
13
48
1
60
0
100
AcDbLine
10
4.002435
20
14.360023
30
0
11
4.37435
21
17.540751
31
0
39
0
210
0
220
0
230
1
0
LINE
5
176
100
AcDbEntity
8
2
62
256
6
ByLayer
370
13
48
1
60
0
100
AcDbLine
10
3.538445
20
17.528626
30
0
11
4.37435
21
17.540751
31
0
39
0
210
0
220
0
230
1
0
ENDBLK
5
178
100
AcDbEntity
8
0
100
AcDbBlockEnd
0
BLOCK
5
17B
100
AcDbEntity
8
0
100
AcDbBlockBegin
2
_CLOSED
70
0
10
0
20
0
30
0
3
_CLOSED
0
LINE
5
17D
100
AcDbEntity
8
0
62
256
6
ByLayer
370
-2
48
1
60
0
100
AcDbLine
10
-1
20
0.166667
30
0
11
0
21
0
31
0
39
0
210
0
220
0
230
1
0
LINE
5
17E
100
AcDbEntity
8
0
62
256
6
ByLayer
370
-2
48
1
60
0
100
AcDbLine
10
0
20
0
30
0
11
-1
21
-0.166667
31
0
39
0
210
0
220
0
230
1
0
LINE
5
17F
100
AcDbEntity
8
0
62
256
6
ByLayer
370
-2
48
1
60
0
100
AcDbLine
10
-1
20
0.166667
30
0
11
-1
21
-0.166667
31
0
39
0
210
0
220
0
230
1
0
LINE
5
180
100
AcDbEntity
8
0
62
256
6
ByLayer
370
-2
48
1
60
0
100
AcDbLine
10
0
20
0
30
0
11
-1
21
0
31
0
39
0
210
0
220
0
230
1
0
ENDBLK
5
17C
100
AcDbEntity
8
0
100
AcDbBlockEnd
0
BLOCK
5
18D
100
AcDbEntity
8
0
100
AcDbBlockBegin
2
DimnDraft3D2
70
0
10
0
20
0
30
0
3
DimnDraft3D2
0
MTEXT
5
182
100
AcDbEntity
8
SK2
62
256
6
ByLayer
370
18
48
1
60
0
100
AcDbMText
10
-110.325566
20
-4.156579
30
0
210
0
220
0
230
1
1
\W0.7346;20.0
40
4.5
41
0
44
1.084337
50
90
71
7
72
5
7
iso_b_vert
0
LINE
5
184
100
AcDbEntity
8
SK2
62
256
6
ByLayer
370
13
48
1
60
0
100
AcDbLine
10
-103.450566
20
-9.9375
30
0
11
-111.200566
21
-9.9375
31
0
39
0
210
0
220
0
230
1
0
LINE
5
185
100
AcDbEntity
8
SK2
62
256
6
ByLayer
370
13
48
1
60
0
100
AcDbLine
10
-103.450566
20
9.9375
30
0
11
-111.200566
21
9.9375
31
0
39
0
210
0
220
0
230
1
0
LINE
5
186
100
AcDbEntity
8
SK2
62
256
6
ByLayer
370
13
48
1
60
0
100
AcDbLine
10
-109.200566
20
-21.1875
30
0
11
-109.200566
21
21.1875
31
0
39
0
210
0
220
0
230
1
0
LINE
5
187
100
AcDbEntity
8
SK2
62
256
6
ByLayer
370
13
48
1
60
0
100
AcDbLine
10
-109.200566
20
-9.9375
30
0
11
-108.782569
21
-13.112498
31
0
39
0
210
0
220
0
230
1
0
LINE
5
188
100
AcDbEntity
8
SK2
62
256
6
ByLayer
370
13
48
1
60
0
100
AcDbLine
10
-109.200566
20
-9.9375
30
0
11
-109.618563
21
-13.112502
31
0
39
0
210
0
220
0
230
1
0
LINE
5
189
100
AcDbEntity
8
SK2
62
256
6
ByLayer
370
13
48
1
60
0
100
AcDbLine
10
-108.782569
20
-13.112498
30
0
11
-109.618563
21
-13.112502
31
0
39
0
210
0
220
0
230
1
0
LINE
5
18A
100
AcDbEntity
8
SK2
62
256
6
ByLayer
370
13
48
1
60
0
100
AcDbLine
10
-109.200566
20
9.9375
30
0
11
-109.618563
21
13.112498
31
0
39
0
210
0
220
0
230
1
0
LINE
5
18B
100
AcDbEntity
8
SK2
62
256
6
ByLayer
370
13
48
1
60
0
100
AcDbLine
10
-109.200566
20
9.9375
30
0
11
-108.782569
21
13.112502
31
0
39
0
210
0
220
0
230
1
0
LINE
5
18C
100
AcDbEntity
8
SK2
62
256
6
ByLayer
370
13
48
1
60
0
100
AcDbLine
10
-109.618563
20
13.112498
30
0
11
-108.782569
21
13.112502
31
0
39
0
210
0
220
0
230
1
0
ENDBLK
5
18E
100
AcDbEntity
8
0
100
AcDbBlockEnd
0
BLOCK
5
19B
100
AcDbEntity
8
0
100
AcDbBlockBegin
2
DimnDraft3D3
70
0
10
0
20
0
30
0
3
DimnDraft3D3
0
MTEXT
5
191
100
AcDbEntity
8
2
62
256
6
ByLayer
370
18
48
1
60
0
100
AcDbMText
10
46.024434
20
-1.419079
30
0
210
0
220
0
230
1
1
\W0.7346;25.0
40
4.5
41
0
44
1.084337
50
90
71
7
72
5
7
iso_b_vert
0
LINE
5
192
100
AcDbEntity
8
2
62
256
6
ByLayer
370
13
48
1
60
0
100
AcDbLine
10
2
20
-9.9375
30
0
11
49.149434
21
-9.9375
31
0
39
0
210
0
220
0
230
1
0
LINE
5
193
100
AcDbEntity
8
2
62
256
6
ByLayer
370
13
48
1
60
0
100
AcDbLine
10
26.899434
20
15.4125
30
0
11
49.149434
21
15.4125
31
0
39
0
210
0
220
0
230
1
0
LINE
5
194
100
AcDbEntity
8
2
62
256
6
ByLayer
370
13
48
1
60
0
100
AcDbLine
10
47.149434
20
-9.9375
30
0
11
47.149434
21
15.4125
31
0
39
0
210
0
220
0
230
1
0
LINE
5
195
100
AcDbEntity
8
2
62
256
6
ByLayer
370
13
48
1
60
0
100
AcDbLine
10
47.149434
20
-9.9375
30
0
11
46.731437
21
-6.762502
31
0
39
0
210
0
220
0
230
1
0
LINE
5
196
100
AcDbEntity
8
2
62
256
6
ByLayer
370
13
48
1
60
0
100
AcDbLine
10
47.149434
20
-9.9375
30
0
11
47.567431
21
-6.762498
31
0
39
0
210
0
220
0
230
1
0
LINE
5
197
100
AcDbEntity
8
2
62
256
6
ByLayer
370
13
48
1
60
0
100
AcDbLine
10
46.731437
20
-6.762502
30
0
11
47.567431
21
-6.762498
31
0
39
0
210
0
220
0
230
1
0
LINE
5
198
100
AcDbEntity
8
2
62
256
6
ByLayer
370
13
48
1
60
0
100
AcDbLine
10
47.149434
20
15.4125
30
0
11
47.567431
21
12.237502
31
0
39
0
210
0
220
0
230
1
0
LINE
5
199
100
AcDbEntity
8
2
62
256
6
ByLayer
370
13
48
1
60
0
100
AcDbLine
10
47.149434
20
15.4125
30
0
11
46.731437
21
12.237498
31
0
39
0
210
0
220
0
230
1
0
LINE
5
19A
100
AcDbEntity
8
2
62
256
6
ByLayer
370
13
48
1
60
0
100
AcDbLine
10
47.567431
20
12.237502
30
0
11
46.731437
21
12.237498
31
0
39
0
210
0
220
0
230
1
0
ENDBLK
5
19C
100
AcDbEntity
8
0
100
AcDbBlockEnd
0
BLOCK
5
1A9
100
AcDbEntity
8
0
100
AcDbBlockBegin
2
DimnDraft3D4
70
0
10
0
20
0
30
0
3
DimnDraft3D4
0
MTEXT
5
19F
100
AcDbEntity
8
2
62
256
6
ByLayer
370
18
48
1
60
0
100
AcDbMText
10
8.056296
20
46.2875
30
0
210
0
220
0
230
1
1
\W0.7756;24.9
40
4.5
41
0
44
1.084337
50
0
71
7
72
5
7
iso_b_vert
0
LINE
5
1A0
100
AcDbEntity
8
2
62
256
6
ByLayer
370
13
48
1
60
0
100
AcDbLine
10
0
20
11.9375
30
0
11
0
21
47.1625
31
0
39
0
210
0
220
0
230
1
0
LINE
5
1A1
100
AcDbEntity
8
2
62
256
6
ByLayer
370
13
48
1
60
0
100
AcDbLine
10
24.899434
20
17.4125
30
0
11
24.899434
21
47.1625
31
0
39
0
210
0
220
0
230
1
0
LINE
5
1A2
100
AcDbEntity
8
2
62
256
6
ByLayer
370
13
48
1
60
0
100
AcDbLine
10
0
20
45.1625
30
0
11
24.899434
21
45.1625
31
0
39
0
210
0
220
0
230
1
0
LINE
5
1A3
100
AcDbEntity
8
2
62
256
6
ByLayer
370
13
48
1
60
0
100
AcDbLine
10
0
20
45.1625
30
0
11
3.174998
21
45.580497
31
0
39
0
210
0
220
0
230
1
0
LINE
5
1A4
100
AcDbEntity
8
2
62
256
6
ByLayer
370
13
48
1
60
0
100
AcDbLine
10
0
20
45.1625
30
0
11
3.175002
21
44.744503
31
0
39
0
210
0
220
0
230
1
0
LINE
5
1A5
100
AcDbEntity
8
2
62
256
6
ByLayer
370
13
48
1
60
0
100
AcDbLine
10
3.174998
20
45.580497
30
0
11
3.175002
21
44.744503
31
0
39
0
210
0
220
0
230
1
0
LINE
5
1A6
100
AcDbEntity
8
2
62
256
6
ByLayer
370
13
48
1
60
0
100
AcDbLine
10
24.899434
20
45.1625
30
0
11
21.724436
21
44.744503
31
0
39
0
210
0
220
0
230
1
0
LINE
5
1A7
100
AcDbEntity
8
2
62
256
6
ByLayer
370
13
48
1
60
0
100
AcDbLine
10
24.899434
20
45.1625
30
0
11
21.724432
21
45.580497
31
0
39
0
210
0
220
0
230
1
0
LINE
5
1A8
100
AcDbEntity
8
2
62
256
6
ByLayer
370
13
48
1
60
0
100
AcDbLine
10
21.724436
20
44.744503
30
0
11
21.724432
21
45.580497
31
0
39
0
210
0
220
0
230
1
0
ENDBLK
5
1AA
100
AcDbEntity
8
0
100
AcDbBlockEnd
0
BLOCK
5
1B7
100
AcDbEntity
8
0
100
AcDbBlockBegin
2
DimnDraft3D5
70
0
10
0
20
0
30
0
3
DimnDraft3D5
0
MTEXT
5
1AD
100
AcDbEntity
8
SK2
62
256
6
ByLayer
370
18
48
1
60
0
100
AcDbMText
10
-43.551224
20
56.2875
30
0
210
0
220
0
230
1
1
\W0.6864;125.0
40
4.5
41
0
44
1.084337
50
0
71
7
72
5
7
iso_b_vert
0
LINE
5
1AE
100
AcDbEntity
8
SK2
62
256
6
ByLayer
370
13
48
1
60
0
100
AcDbLine
10
24.899434
20
17.4125
30
0
11
24.899434
21
57.1625
31
0
39
0
210
0
220
0
230
1
0
LINE
5
1AF
100
AcDbEntity
8
SK2
62
256
6
ByLayer
370
13
48
1
60
0
100
AcDbLine
10
-101.450566
20
11.9375
30
0
11
-101.450566
21
57.1625
31
0
39
0
210
0
220
0
230
1
0
LINE
5
1B0
100
AcDbEntity
8
SK2
62
256
6
ByLayer
370
13
48
1
60
0
100
AcDbLine
10
24.899434
20
55.1625
30
0
11
-101.450566
21
55.1625
31
0
39
0
210
0
220
0
230
1
0
LINE
5
1B1
100
AcDbEntity
8
SK2
62
256
6
ByLayer
370
13
48
1
60
0
100
AcDbLine
10
24.899434
20
55.1625
30
0
11
21.724436
21
54.744503
31
0
39
0
210
0
220
0
230
1
0
LINE
5
1B2
100
AcDbEntity
8
SK2
62
256
6
ByLayer
370
13
48
1
60
0
100
AcDbLine
10
24.899434
20
55.1625
30
0
11
21.724432
21
55.580497
31
0
39
0
210
0
220
0
230
1
0
LINE
5
1B3
100
AcDbEntity
8
SK2
62
256
6
ByLayer
370
13
48
1
60
0
100
AcDbLine
10
21.724436
20
54.744503
30
0
11
21.724432
21
55.580497
31
0
39
0
210
0
220
0
230
1
0
LINE
5
1B4
100
AcDbEntity
8
SK2
62
256
6
ByLayer
370
13
48
1
60
0
100
AcDbLine
10
-101.450566
20
55.1625
30
0
11
-98.275568
21
55.580497
31
0
39
0
210
0
220
0
230
1
0
LINE
5
1B5
100
AcDbEntity
8
SK2
62
256
6
ByLayer
370
13
48
1
60
0
100
AcDbLine
10
-101.450566
20
55.1625
30
0
11
-98.275564
21
54.744503
31
0
39
0
210
0
220
0
230
1
0
LINE
5
1B6
100
AcDbEntity
8
SK2
62
256
6
ByLayer
370
13
48
1
60
0
100
AcDbLine
10
-98.275568
20
55.580497
30
0
11
-98.275564
21
54.744503
31
0
39
0
210
0
220
0
230
1
0
ENDBLK
5
1B8
100
AcDbEntity
8
0
100
AcDbBlockEnd
0
ENDSEC
0
SECTION
2
ENTITIES
0
ELLIPSE
5
D8
100
AcDbEntity
8
1
62
256
6
ByLayer
370
18
48
1
60
0
100
AcDbEllipse
10
10.737514
20
1.000493
30
0
11
-0.21551199938844
21
0.194047875844074
31
0
210
0
220
0
230
1
40
0.989133
41
-2.78834531482256
42
-2.69101284290195
0
ELLIPSE
5
D9
100
AcDbEntity
8
1
62
256
6
ByLayer
370
18
48
1
60
0
100
AcDbEllipse
10
9.695571
20
2.129514
30
0
11
0.234090620025377
21
-0.210776141003043
31
0
210
0
220
0
230
1
40
0.989133
41
-0.334933638525171
42
9.5357570289457E-07
0
ELLIPSE
5
DA
100
AcDbEntity
8
1
62
256
6
ByLayer
370
18
48
1
60
0
100
AcDbEllipse
10
11.316624
20
0.829741
30
0
11
0.234090620025377
21
-0.210776141003043
31
0
210
0
220
0
230
1
40
0.989133
41
-3.14158319757523
42
-2.69101284290198
0
ELLIPSE
5
DB
100
AcDbEntity
8
1
62
256
6
ByLayer
370
18
48
1
60
0
100
AcDbEllipse
10
10.842243
20
1.90476
30
0
11
0.66883034292965
21
-0.602217545722978
31
0
210
0
220
0
230
1
40
0.989133
41
0.028935002026156
42
3.11260471708342
0
ELLIPSE
5
DC
100
AcDbEntity
8
1
62
256
6
ByLayer
370
18
48
1
60
0
100
AcDbEllipse
10
10.876675
20
1.943002
30
0
11
0.66883034292965
21
-0.602217545722978
31
0
210
0
220
0
230
1
40
0.989133
41
2.76930898916642
42
-2.95593336389876
0
ELLIPSE
5
DD
100
AcDbEntity
8
1
62
256
6
ByLayer
370
18
48
1
60
0
100
AcDbEllipse
10
10.876675
20
1.943002
30
0
11
0.66883034292965
21
-0.602217545722978
31
0
210
0
220
0
230
1
40
0.989133
41
-0.103319352981284
42
0.487929836586125
0
ELLIPSE
5
DE
100
AcDbEntity
8
1
62
256
6
ByLayer
370
18
48
1
60
0
100
AcDbEllipse
10
10.876675
20
1.943002
30
0
11
0.66883034292965
21
-0.602217545722978
31
0
210
0
220
0
230
1
40
0.989133
41
-1.17333872682102
42
-0.559267714610487
0
ELLIPSE
5
DF
100
AcDbEntity
8
1
62
256
6
ByLayer
370
18
48
1
60
0
100
AcDbEllipse
10
10.876675
20
1.943002
30
0
11
0.66883034292965
21
-0.602217545722978
31
0
210
0
220
0
230
1
40
0.989133
41
-2.44015990225835
42
-1.8331581779156
0
ELLIPSE
5
E0
100
AcDbEntity
8
1
62
256
6
ByLayer
370
18
48
1
60
0
100
AcDbEllipse
10
10.127729
20
2.543512
30
0
11
-0.21551199938844
21
0.194047875844074
31
0
210
0
220
0
230
1
40
0.989133
41
-1.38213118972175
42
-0.353238143606429
0
ELLIPSE
5
E1
100
AcDbEntity
8
1
62
256
6
ByLayer
370
18
48
1
60
0
100
AcDbEllipse
10
10.802891
20
1.861056
30
0
11
2.37806344152764
21
-2.14121794034837
31
0
210
0
220
0
230
1
40
0.989133
41
3.14156605715621
42
-0.843188182912962
0
ELLIPSE
5
E2
100
AcDbEntity
8
1
62
256
6
ByLayer
370
18
48
1
60
0
100
AcDbEllipse
10
10.802891
20
1.861056
30
0
11
2.37806344152764
21
-2.14121794034837
31
0
210
0
220
0
230
1
40
0.989133
41
-0.84318818291295
42
-2.80605091687659E-16
0
ELLIPSE
5
E3
100
AcDbEntity
8
1
62
256
6
ByLayer
370
18
48
1
60
0
100
AcDbEllipse
10
11.625621
20
1.342491
30
0
11
-0.21551199938844
21
0.194047875844074
31
0
210
0
220
0
230
1
40
0.989133
41
-2.78835510516427
42
-1.6438152917053
0
ELLIPSE
5
E4
100
AcDbEntity
8
1
62
256
6
ByLayer
370
18
48
1
60
0
100
AcDbEllipse
10
10.436726
20
3.056262
30
0
11
0.234090620025377
21
-0.210776141003043
31
0
210
0
220
0
230
1
40
0.989133
41
-0.195776035703188
42
1.01994183157372E-05
0
ELLIPSE
5
E5
100
AcDbEntity
8
1
62
256
6
ByLayer
370
18
48
1
60
0
100
AcDbEllipse
10
12.057779
20
1.756489
30
0
11
0.234090620025377
21
-0.210776141003043
31
0
210
0
220
0
230
1
40
0.989133
41
3.14159241313835
42
-2.83017044572389
0
ELLIPSE
5
E6
100
AcDbEntity
8
1
62
256
6
ByLayer
370
18
48
1
60
0
100
AcDbEllipse
10
11.015836
20
2.88551
30
0
11
-0.21551199938844
21
0.194047875844074
31
0
210
0
220
0
230
1
40
0.989133
41
-2.42932874091827
42
-0.353276286586874
0
ELLIPSE
5
E7
100
AcDbEntity
8
1
62
256
6
ByLayer
370
18
48
1
60
0
100
AcDbEllipse
10
11.764782
20
2.284999
30
0
11
-0.21551199938844
21
0.194047875844074
31
0
210
0
220
0
230
1
40
0.989133
41
-2.7888123308058
42
-0.59661774050884
0
ELLIPSE
5
E8
100
AcDbEntity
8
1
62
256
6
ByLayer
370
18
48
1
60
0
100
AcDbEllipse
10
17.532136
20
10.326134
30
0
11
1.41569089253442
21
-1.27469380511364
31
0
210
0
220
0
230
1
40
0.989133
41
0.156431394340489
42
3.10187087870461
0
ELLIPSE
5
E9
100
AcDbEntity
8
1
62
256
6
ByLayer
370
18
48
1
60
0
100
AcDbEllipse
10
17.563126
20
1.927395
30
0
11
0.590056991429046
21
-0.531289701448939
31
0
210
0
220
0
230
1
40
0.989133
41
-1.61285006103898
42
-2.75884036946317E-06
0
ELLIPSE
5
EA
100
AcDbEntity
8
1
62
256
6
ByLayer
370
18
48
1
60
0
100
AcDbEllipse
10
9.987597
20
13.387615
30
0
11
0.590056991429046
21
-0.531289701448939
31
0
210
0
220
0
230
1
40
0.989133
41
-3.1415616490443
42
-1.8271325060725
0
ELLIPSE
5
EB
100
AcDbEntity
8
1
62
256
6
ByLayer
370
18
48
1
60
0
100
AcDbEllipse
10
17.92614
20
3.037758
30
0
11
1.76049377056324
21
-1.58515571097632
31
0
210
0
220
0
230
1
40
0.989133
41
-1.33025623222486
42
-0.777753293310916
0
ELLIPSE
5
EC
100
AcDbEntity
8
1
62
256
6
ByLayer
370
18
48
1
60
0
100
AcDbEllipse
10
17.031757
20
1.834716
30
0
11
1.85656497275479
21
-1.67165860997015
31
0
210
0
220
0
230
1
40
0.989133
41
0.418898835881277
42
0.793043033483976
0
ELLIPSE
5
ED
100
AcDbEntity
8
1
62
256
6
ByLayer
370
18
48
1
60
0
100
AcDbEllipse
10
17.017
20
1.818327
30
0
11
1.74509324893318
21
-1.57128901901632
31
0
210
0
220
0
230
1
40
0.989133
41
0.35108480321292
42
0.793043033483983
0
ELLIPSE
5
EE
100
AcDbEntity
8
1
62
256
6
ByLayer
370
18
48
1
60
0
100
AcDbEllipse
10
16.922956
20
2.059251
30
0
11
0.884806807834043
21
-0.796683628196048
31
0
210
0
220
0
230
1
40
0.989133
41
-0.769594180743185
42
-0.142126567995782
0
ELLIPSE
5
EF
100
AcDbEntity
8
1
62
256
6
ByLayer
370
18
48
1
60
0
100
AcDbEllipse
10
10.104549
20
12.374099
30
0
11
-0.884806807834023
21
0.796683628196053
31
0
210
0
220
0
230
1
40
0.989133
41
3.08030928718125E-05
42
0.399602511653184
0
ELLIPSE
5
F0
100
AcDbEntity
8
1
62
256
6
ByLayer
370
18
48
1
60
0
100
AcDbEllipse
10
12.020743
20
-4.942525
30
0
11
-2.24171979658923
21
1.99366304915849
31
0
210
0
220
0
230
1
40
0.986421
41
0.0200260445400391
42
0.0517566673072186
0
ELLIPSE
5
F1
100
AcDbEntity
8
1
62
256
6
ByLayer
370
18
48
1
60
0
100
AcDbEllipse
10
11.225346
20
2.38959
30
0
11
-2.50325377285798
21
2.22625707156031
31
0
210
0
220
0
230
1
40
0.986421
41
-3.08983598628256
42
-0.0672802099244274
0
ELLIPSE
5
F2
100
AcDbEntity
8
1
62
256
6
ByLayer
370
18
48
1
60
0
100
AcDbEllipse
10
10.837714
20
-1.583426
30
0
11
2.81499571204061
21
3.51081174960905
31
0
210
0
220
0
230
1
40
0.008497
41
-2.38176204128968
42
-1.94288547246084
0
ELLIPSE
5
F3
100
AcDbEntity
8
1
62
256
6
ByLayer
370
18
48
1
60
0
100
AcDbEllipse
10
10.151861
20
-3.877655
30
0
11
1.76329603787241
21
-0.361644967922212
31
0
210
0
220
0
230
1
40
0.789807
41
-1.95033180541691
42
-0.52010199896812
0
ELLIPSE
5
F4
100
AcDbEntity
8
1
62
256
6
ByLayer
370
18
48
1
60
0
100
AcDbEllipse
10
6.401929
20
1.97322
30
0
11
-2.9226138712444
21
-3.42440670245734
31
0
210
0
220
0
230
1
40
0.206199
41
0.550849972631511
42
0.612498154210328
0
ELLIPSE
5
F5
100
AcDbEntity
8
1
62
256
6
ByLayer
370
18
48
1
60
0
100
AcDbEllipse
10
9.750449
20
-4.255702
30
0
11
-1.6423198445066
21
1.88514045575325
31
0
210
0
220
0
230
1
40
0.996407
41
1.74971046123275
42
2.86350485734346
0
ELLIPSE
5
F6
100
AcDbEntity
8
1
62
256
6
ByLayer
370
18
48
1
60
0
100
AcDbEllipse
10
17.752637
20
10.578367
30
0
11
-0.757597426772634
21
1.50579673471845
31
0
210
0
220
0
230
1
40
0.826259
41
-1.48252862325631
42
-1.20144493835537
0
ELLIPSE
5
F7
100
AcDbEntity
8
1
62
256
6
ByLayer
370
18
48
1
60
0
100
AcDbEllipse
10
11.840829
20
-2.387731
30
0
11
-2.7080241463384
21
-3.59648637232218
31
0
210
0
220
0
230
1
40
0.189222
41
-0.611937024811072
42
-0.550288845916623
0
ELLIPSE
5
F8
100
AcDbEntity
8
1
62
256
6
ByLayer
370
18
48
1
60
0
100
AcDbEllipse
10
6.820557
20
1.702715
30
0
11
-3.57777169282915
21
-1.03546212872315
31
0
210
0
220
0
230
1
40
0.460545
41
-0.578248645888709
42
-0.286624782362242
0
ELLIPSE
5
F9
100
AcDbEntity
8
1
62
256
6
ByLayer
370
18
48
1
60
0
100
AcDbEllipse
10
17.752637
20
10.578367
30
0
11
-1.61982724892079
21
0.505967627172779
31
0
210
0
220
0
230
1
40
0.828245
41
-1.87623666930929
42
-1.59515298435451
0
ELLIPSE
5
FA
100
AcDbEntity
8
1
62
256
6
ByLayer
370
18
48
1
60
0
100
AcDbEllipse
10
4.99152
20
-0.439957
30
0
11
-1.64231984478155
21
1.88514045551057
31
0
210
0
220
0
230
1
40
0.996407
41
0.635916064974094
42
1.74971046108545
0
ELLIPSE
5
FB
100
AcDbEntity
8
1
62
256
6
ByLayer
370
18
48
1
60
0
100
AcDbEllipse
10
11.579485
20
-2.11303
30
0
11
-0.35576536063979
21
-3.65163204529753
31
0
210
0
220
0
230
1
40
0.450788
41
0.313627366897915
42
0.605251230428375
0
ELLIPSE
5
FC
100
AcDbEntity
8
1
62
256
6
ByLayer
370
18
48
1
60
0
100
AcDbEllipse
10
0.697294
20
-1.874282
30
0
11
3.75332761605415
21
4.68108233281207
31
0
210
0
220
0
230
1
40
0.008497
41
0.810541504948105
42
0.812430626025393
0
ELLIPSE
5
FD
100
AcDbEntity
8
1
62
256
6
ByLayer
370
18
48
1
60
0
100
AcDbEllipse
10
5.125773
20
3.103574
30
0
11
-1.80506244380366
21
-2.01282414339068
31
0
210
0
220
0
230
1
40
0.337398
41
-0.116678527452824
42
0.624812356276114
0
ELLIPSE
5
FE
100
AcDbEntity
8
1
62
256
6
ByLayer
370
18
48
1
60
0
100
AcDbEllipse
10
5.335142
20
-0.015572
30
0
11
0.704568163081538
21
-1.65637667925261
31
0
210
0
220
0
230
1
40
0.78494
41
-2.59707982171683
42
-1.16685001526801
0
ELLIPSE
5
FF
100
AcDbEntity
8
1
62
256
6
ByLayer
370
18
48
1
60
0
100
AcDbEllipse
10
7.405045
20
1.168915
30
0
11
2.81499571204061
21
3.51081174960905
31
0
210
0
220
0
230
1
40
0.008497
41
-2.38176204128944
42
-1.94288547246084
0
ELLIPSE
5
100
100
AcDbEntity
8
1
62
256
6
ByLayer
370
18
48
1
60
0
100
AcDbEllipse
10
13.229013
20
-3.393665
30
0
11
-1.57382819361512
21
-2.19830177677149
31
0
210
0
220
0
230
1
40
0.320461
41
-0.623656443258157
42
0.117834440468455
0
ELLIPSE
5
101
100
AcDbEntity
8
1
62
256
6
ByLayer
370
18
48
1
60
0
100
AcDbEllipse
10
18.124744
20
3.0486
30
0
11
1.76049377056324
21
-1.58515571097632
31
0
210
0
220
0
230
1
40
0.989133
41
-0.777753293310929
42
0.79304303348397
0
ELLIPSE
5
102
100
AcDbEntity
8
1
62
256
6
ByLayer
370
18
48
1
60
0
100
AcDbEllipse
10
1.703664
20
0.040608
30
0
11
-0.552805684031679
21
1.17214527343904
31
0
210
0
220
0
230
1
40
0.483183
41
-0.63278352209093
42
0.938012804704203
0
ELLIPSE
5
103
100
AcDbEntity
8
1
62
256
6
ByLayer
370
18
48
1
60
0
100
AcDbEllipse
10
13.104973
20
10.470904
30
0
11
-1.5697369233739
21
1.98552100691401
31
0
210
0
220
0
230
1
40
0.482826
41
1.05401673779038
42
1.39634722280686
0
ELLIPSE
5
104
100
AcDbEntity
8
1
62
256
6
ByLayer
370
18
48
1
60
0
100
AcDbEllipse
10
18.031409
20
2.447475
30
0
11
-0.590056991429039
21
0.531289701448947
31
0
210
0
220
0
230
1
40
0.989133
41
1.31446014751731
42
-2.87433005726909
0
ELLIPSE
5
105
100
AcDbEntity
8
1
62
256
6
ByLayer
370
18
48
1
60
0
100
AcDbEllipse
10
10.455879
20
13.907695
30
0
11
-0.590056991429039
21
0.531289701448947
31
0
210
0
220
0
230
1
40
0.989133
41
-0.779934954875901
42
1.31446014751729
0
ELLIPSE
5
106
100
AcDbEntity
8
1
62
256
6
ByLayer
370
18
48
1
60
0
100
AcDbEllipse
10
24.10912
20
14.623231
30
0
11
-0.590056991429039
21
0.531289701448947
31
0
210
0
220
0
230
1
40
0.989133
41
-2.8743300572691
42
-0.779934954875892
0
ELLIPSE
5
107
100
AcDbEntity
8
1
62
256
6
ByLayer
370
18
48
1
60
0
100
AcDbEllipse
10
11.005226
20
2.085772
30
0
11
0.66883034292965
21
-0.602217545722978
31
0
210
0
220
0
230
1
40
0.989133
41
0.487929836585969
42
0.674913886782965
0
ELLIPSE
5
108
100
AcDbEntity
8
1
62
256
6
ByLayer
370
18
48
1
60
0
100
AcDbEllipse
10
11.897594
20
2.432501
30
0
11
-0.21551199938844
21
0.194047875844074
31
0
210
0
220
0
230
1
40
0.989133
41
2.80665901506478
42
-0.59661774050884
0
ELLIPSE
5
109
100
AcDbEntity
8
1
62
256
6
ByLayer
370
18
48
1
60
0
100
AcDbEllipse
10
11.005226
20
2.085772
30
0
11
0.66883034292965
21
-0.602217545722978
31
0
210
0
220
0
230
1
40
0.989133
41
-0.559267714610498
42
-0.3722836644234
0
ELLIPSE
5
10A
100
AcDbEntity
8
1
62
256
6
ByLayer
370
18
48
1
60
0
100
AcDbEllipse
10
11.449435
20
0.977243
30
0
11
0.234090620025377
21
-0.210776141003043
31
0
210
0
220
0
230
1
40
0.989133
41
1.75946146386809
42
2.23266173163329
0
ELLIPSE
5
10B
100
AcDbEntity
8
1
62
256
6
ByLayer
370
18
48
1
60
0
100
AcDbEllipse
10
12.057779
20
1.756489
30
0
11
0.234090620025377
21
-0.210776141003043
31
0
210
0
220
0
230
1
40
0.989133
41
-2.29017113809641
42
-1.64381529170534
0
ELLIPSE
5
10C
100
AcDbEntity
8
1
62
256
6
ByLayer
370
18
48
1
60
0
100
AcDbEllipse
10
11.005226
20
2.085772
30
0
11
0.66883034292965
21
-0.602217545722978
31
0
210
0
220
0
230
1
40
0.989133
41
-2.65366281700385
42
-2.46667876680686
0
ELLIPSE
5
10D
100
AcDbEntity
8
1
62
256
6
ByLayer
370
18
48
1
60
0
100
AcDbEllipse
10
11.449435
20
0.977243
30
0
11
0.234090620025377
21
-0.210776141003043
31
0
210
0
220
0
230
1
40
0.989133
41
3.11897219651231
42
-2.69101284290198
0
ELLIPSE
5
10E
100
AcDbEntity
8
1
62
256
6
ByLayer
370
18
48
1
60
0
100
AcDbEllipse
10
9.828382
20
2.277016
30
0
11
0.234090620025377
21
-0.210776141003043
31
0
210
0
220
0
230
1
40
0.989133
41
-0.334933638525085
42
0.138266629240087
0
ELLIPSE
5
10F
100
AcDbEntity
8
1
62
256
6
ByLayer
370
18
48
1
60
0
100
AcDbEllipse
10
11.758432
20
1.489992
30
0
11
-0.21551199938844
21
0.194047875844074
31
0
210
0
220
0
230
1
40
0.989133
41
1.75946146386809
42
-1.64381529170535
0
ELLIPSE
5
110
100
AcDbEntity
8
1
62
256
6
ByLayer
370
18
48
1
60
0
100
AcDbEllipse
10
11.750642
20
3.017251
30
0
11
0.234090620025377
21
-0.210776141003043
31
0
210
0
220
0
230
1
40
0.989133
41
-2.42932874091833
42
-1.95612847315307
0
ELLIPSE
5
111
100
AcDbEntity
8
1
62
256
6
ByLayer
370
18
48
1
60
0
100
AcDbEllipse
10
10.268331
20
1.163756
30
0
11
0.234090620025377
21
-0.210776141003043
31
0
210
0
220
0
230
1
40
0.989133
41
2.07177464531574
42
2.54497491308101
0
ELLIPSE
5
112
100
AcDbEntity
8
1
62
256
6
ByLayer
370
18
48
1
60
0
100
AcDbEllipse
10
11.009486
20
2.090503
30
0
11
0.687408963566584
21
-0.61894581088195
31
0
210
0
220
0
230
1
40
0.989133
41
1.48207438208809
42
1.77516444366446
0
ELLIPSE
5
113
100
AcDbEntity
8
1
62
256
6
ByLayer
370
18
48
1
60
0
100
AcDbEllipse
10
9.828382
20
2.277016
30
0
11
0.234090620025377
21
-0.210776141003043
31
0
210
0
220
0
230
1
40
0.989133
41
1.02457709411919
42
1.49777736188445
0
ELLIPSE
5
114
100
AcDbEntity
8
1
62
256
6
ByLayer
370
18
48
1
60
0
100
AcDbEllipse
10
10.9663
20
2.04254
30
0
11
-2.37806344152761
21
2.1412179403484
31
0
210
0
220
0
230
1
40
0.989133
41
0
42
6.28318530717959
0
ELLIPSE
5
115
100
AcDbEntity
8
1
62
256
6
ByLayer
370
18
48
1
60
0
100
AcDbEllipse
10
11.750642
20
3.017251
30
0
11
0.234090620025377
21
-0.210776141003043
31
0
210
0
220
0
230
1
40
0.989133
41
-1.06981800827406
42
-0.596617740508823
0
ELLIPSE
5
116
100
AcDbEntity
8
1
62
256
6
ByLayer
370
18
48
1
60
0
100
AcDbEllipse
10
10.268331
20
1.163756
30
0
11
0.234090620025377
21
-0.210776141003043
31
0
210
0
220
0
230
1
40
0.989133
41
0.712263912671492
42
1.18546418043675
0
ELLIPSE
5
117
100
AcDbEntity
8
1
62
256
6
ByLayer
370
18
48
1
60
0
100
AcDbEllipse
10
11.148647
20
3.033011
30
0
11
-0.21551199938844
21
0.194047875844074
31
0
210
0
220
0
230
1
40
0.989133
41
-2.42932874091831
42
0.450579810687843
0
ELLIPSE
5
118
100
AcDbEntity
8
1
62
256
6
ByLayer
370
18
48
1
60
0
100
AcDbEllipse
10
10.436726
20
3.056262
30
0
11
0.234090620025377
21
-0.210776141003043
31
0
210
0
220
0
230
1
40
0.989133
41
-1.38213118972164
42
-0.735775343330603
0
ELLIPSE
5
119
100
AcDbEntity
8
1
62
256
6
ByLayer
370
18
48
1
60
0
100
AcDbEllipse
10
11.617831
20
2.869749
30
0
11
0.234090620025377
21
-0.210776141003043
31
0
210
0
220
0
230
1
40
0.989133
41
-1.24297358689981
42
-0.596617740508785
0
ELLIPSE
5
11A
100
AcDbEntity
8
1
62
256
6
ByLayer
370
18
48
1
60
0
100
AcDbEllipse
10
12.19059
20
1.903991
30
0
11
0.234090620025377
21
-0.210776141003043
31
0
210
0
220
0
230
1
40
0.989133
41
2.80665901506469
42
-3.00332602434967
0
ELLIPSE
5
11B
100
AcDbEntity
8
1
62
256
6
ByLayer
370
18
48
1
60
0
100
AcDbEllipse
10
10.121379
20
1.748506
30
0
11
-0.21551199938844
21
0.194047875844074
31
0
210
0
220
0
230
1
40
0.989133
41
-0.334933638525081
42
2.54497491308095
0
ELLIPSE
5
11C
100
AcDbEntity
8
1
62
256
6
ByLayer
370
18
48
1
60
0
100
AcDbEllipse
10
10.876675
20
1.943002
30
0
11
0.66883034292965
21
-0.602217545722978
31
0
210
0
220
0
230
1
40
0.989133
41
1.72211143796979
42
2.58232493897933
0
ELLIPSE
5
11D
100
AcDbEntity
8
1
62
256
6
ByLayer
370
18
48
1
60
0
100
AcDbEllipse
10
10.876675
20
1.943002
30
0
11
0.66883034292965
21
-0.602217545722978
31
0
210
0
220
0
230
1
40
0.989133
41
0.674913886773214
42
1.53512738778273
0
ELLIPSE
5
11E
100
AcDbEntity
8
1
62
256
6
ByLayer
370
18
48
1
60
0
100
AcDbEllipse
10
11.009486
20
2.090503
30
0
11
-1.41197516840702
21
1.27134815208186
31
0
210
0
220
0
230
1
40
0.989133
41
0
42
6.28318530717959
0
ELLIPSE
5
11F
100
AcDbEntity
8
1
62
256
6
ByLayer
370
18
48
1
60
0
100
AcDbEllipse
10
11.009486
20
2.090503
30
0
11
0.687408963566584
21
-0.61894581088195
31
0
210
0
220
0
230
1
40
0.989133
41
-2.70671582269831
42
-2.41362576112196
0
ELLIPSE
5
120
100
AcDbEntity
8
1
62
256
6
ByLayer
370
18
48
1
60
0
100
AcDbEllipse
10
11.009486
20
2.090503
30
0
11
0.687408963566584
21
-0.61894581088195
31
0
210
0
220
0
230
1
40
0.989133
41
2.52927193328468
42
2.82236199486105
0
ELLIPSE
5
121
100
AcDbEntity
8
1
62
256
6
ByLayer
370
18
48
1
60
0
100
AcDbEllipse
10
11.009486
20
2.090503
30
0
11
0.687408963566584
21
-0.61894581088195
31
0
210
0
220
0
230
1
40
0.989133
41
-1.65951827150171
42
-1.36642820992536
0
ELLIPSE
5
122
100
AcDbEntity
8
1
62
256
6
ByLayer
370
18
48
1
60
0
100
AcDbEllipse
10
11.009486
20
2.090503
30
0
11
0.687408963566584
21
-0.61894581088195
31
0
210
0
220
0
230
1
40
0.989133
41
0.434876830891468
42
0.727966892467827
0
ELLIPSE
5
123
100
AcDbEntity
8
1
62
256
6
ByLayer
370
18
48
1
60
0
100
AcDbEllipse
10
11.009486
20
2.090503
30
0
11
0.687408963566584
21
-0.61894581088195
31
0
210
0
220
0
230
1
40
0.989133
41
-0.612320720305141
42
-0.319230658728787
0
ELLIPSE
5
124
100
AcDbEntity
8
1
62
256
6
ByLayer
370
18
48
1
60
0
100
AcDbEllipse
10
10.569537
20
3.203763
30
0
11
0.234090620025377
21
-0.210776141003043
31
0
210
0
220
0
230
1
40
0.989133
41
-0.0226204570773045
42
0.450579810687893
0
ELLIPSE
5
125
100
AcDbEntity
8
1
62
256
6
ByLayer
370
18
48
1
60
0
100
AcDbEllipse
10
11.005226
20
2.085772
30
0
11
0.66883034292965
21
-0.602217545722978
31
0
210
0
220
0
230
1
40
0.989133
41
-1.60646526580708
42
-1.41948121562001
0
ELLIPSE
5
126
100
AcDbEntity
8
1
62
256
6
ByLayer
370
18
48
1
60
0
100
AcDbEllipse
10
10.870325
20
1.147995
30
0
11
-0.21551199938844
21
0.194047875844074
31
0
210
0
220
0
230
1
40
0.989133
41
0.712263912671484
42
-2.69101284290193
0
ELLIPSE
5
127
100
AcDbEntity
8
1
62
256
6
ByLayer
370
18
48
1
60
0
100
AcDbEllipse
10
12.19059
20
1.903991
30
0
11
0.234090620025377
21
-0.210776141003043
31
0
210
0
220
0
230
1
40
0.989133
41
-2.1170155594706
42
-1.64381529170538
0
ELLIPSE
5
128
100
AcDbEntity
8
1
62
256
6
ByLayer
370
18
48
1
60
0
100
AcDbEllipse
10
11.617831
20
2.869749
30
0
11
0.234090620025377
21
-0.210776141003043
31
0
210
0
220
0
230
1
40
0.989133
41
-2.4293287409183
42
-1.7829728945272
0
ELLIPSE
5
129
100
AcDbEntity
8
1
62
256
6
ByLayer
370
18
48
1
60
0
100
AcDbEllipse
10
11.005226
20
2.085772
30
0
11
0.66883034292965
21
-0.602217545722978
31
0
210
0
220
0
230
1
40
0.989133
41
2.58232493897422
42
2.76930898917423
0
ELLIPSE
5
12A
100
AcDbEntity
8
1
62
256
6
ByLayer
370
18
48
1
60
0
100
AcDbEllipse
10
10.26054
20
2.691014
30
0
11
-0.21551199938844
21
0.194047875844074
31
0
210
0
220
0
230
1
40
0.989133
41
-1.38213118972166
42
1.49777736188439
0
ELLIPSE
5
12B
100
AcDbEntity
8
1
62
256
6
ByLayer
370
18
48
1
60
0
100
AcDbEllipse
10
11.005226
20
2.085772
30
0
11
0.66883034292965
21
-0.602217545722978
31
0
210
0
220
0
230
1
40
0.989133
41
1.53512738778273
42
1.72211143796984
0
ELLIPSE
5
12C
100
AcDbEntity
8
1
62
256
6
ByLayer
370
18
48
1
60
0
100
AcDbEllipse
10
10.569537
20
3.203763
30
0
11
0.234090620025377
21
-0.210776141003043
31
0
210
0
220
0
230
1
40
0.989133
41
-1.3821311897216
42
-0.908930921956346
0
POINT
5
6C
100
AcDbEntity
8
2
62
256
6
ByLayer
370
18
48
1
60
0
100
AcDbPoint
10
24.899434
20
15.4125
30
0
39
0
210
0
220
0
230
1
50
360
0
POINT
5
6E
100
AcDbEntity
8
80
62
256
6
ByLayer
370
18
48
1
60
0
100
AcDbPoint
10
0
20
0
30
0
39
0
210
0
220
0
230
1
50
360
0
POINT
5
70
100
AcDbEntity
8
81
62
256
6
ByLayer
370
18
48
1
60
0
100
AcDbPoint
10
24.899434
20
15.4125
30
0
39
0
210
0
220
0
230
1
50
360
0
SPLINE
5
12D
100
AcDbEntity
8
1
62
256
6
ByLayer
370
18
48
1
60
0
100
AcDbSpline
70
4
71
3
72
10
73
6
40
0
40
0
40
0
40
0
40
0.690921703394067
40
0.690921703394067
40
1
40
1
40
1
40
1
41
1
10
11.8424440230238
20
-5.65558911836607
30
0
41
1
10
11.6621733194422
20
-5.86736241105299
30
0
41
1
10
11.4460756264195
20
-6.08382720366694
30
0
41
1
10
11.0722281888982
20
-6.36234233942477
30
0
41
1
10
10.9472410497242
20
-6.44416744097279
30
0
41
1
10
10.8140301429211
20
-6.51764458621619
30
0
0
SPLINE
5
12E
100
AcDbEntity
8
1
62
256
6
ByLayer
370
18
48
1
60
0
100
AcDbSpline
70
4
71
3
72
11
73
7
40
0
40
0
40
0
40
0
40
0.717036925638433
40
0.717036925638433
40
0.717036925638433
40
1
40
1
40
1
40
1
41
1
10
3.24971836577879
20
1.36821816225142
30
0
41
1
10
3.05669866120849
20
1.13141836443771
30
0
41
1
10
2.86336676843251
20
0.848534039621711
30
0
41
1
10
2.71229844448931
20
0.519942583552563
30
0
41
1
10
2.65209226973451
20
0.3889870389973
30
0
41
1
10
2.59834618681094
20
0.250040313685645
30
0
41
1
10
2.55463866139144
20
0.10479867271377
30
0
0
SPLINE
5
12F
100
AcDbEntity
8
1
62
256
6
ByLayer
370
18
48
1
60
0
100
AcDbSpline
70
4
71
2
72
8
73
5
40
0
40
0
40
0
40
0.14599151027804
40
0.563470207586082
40
1
40
1
40
1
41
1.02393576174182
10
14.1832663823106
20
4.77032729555889
30
0
41
1.02323174907608
10
14.3292998382537
20
4.99138284968672
30
0
41
1.02039724512338
10
14.884375193681
20
5.84305090409876
30
0
41
1.01644464721285
10
15.6360948927042
20
7.12143903277481
30
0
41
1.01495409538129
10
16.0664880301691
20
7.71763409092008
30
0
0
SPLINE
5
130
100
AcDbEntity
8
1
62
256
6
ByLayer
370
18
48
1
60
0
100
AcDbSpline
70
4
71
3
72
8
73
4
40
0
40
0
40
0
40
0
40
1
40
1
40
1
40
1
41
1
10
4.34763353574743
20
-1.31708355769021
30
0
41
1
10
4.32459995211315
20
-1.29861505416804
30
0
41
1
10
4.30248323435029
20
-1.27959991776831
30
0
41
1
10
4.28121437118051
20
-1.26007688767555
30
0
0
SPLINE
5
131
100
AcDbEntity
8
1
62
256
6
ByLayer
370
18
48
1
60
0
100
AcDbSpline
70
4
71
3
72
8
73
4
40
0
40
0
40
0
40
0
40
1
40
1
40
1
40
1
41
1
10
6.49361856830245
20
-0.0254030102720435
30
0
41
1
10
6.46533523056149
20
-0.0604693699052063
30
0
41
1
10
6.43725169891451
20
-0.0952728664450433
30
0
41
1
10
6.40940696712835
20
-0.129765331380383
30
0
0
SPLINE
5
132
100
AcDbEntity
8
1
62
256
6
ByLayer
370
18
48
1
60
0
100
AcDbSpline
70
4
71
3
72
10
73
6
40
0
40
0
40
0
40
0
40
0.560518156563272
40
0.560518156563272
40
1
40
1
40
1
40
1
41
1
10
18.3556092261771
20
4.71947322660759
30
0
41
1
10
18.4671056972013
20
5.10163472881317
30
0
41
1
10
18.6027566657142
20
5.47535421776291
30
0
41
1
10
18.8788256388239
20
6.06899904086859
30
0
41
1
10
19.0145885725419
20
6.30914284325931
30
0
41
1
10
19.1527137737493
20
6.51526728897247
30
0
0
SPLINE
5
133
100
AcDbEntity
8
1
62
256
6
ByLayer
370
18
48
1
60
0
100
AcDbSpline
70
4
71
3
72
12
73
8
40
0
40
0
40
0
40
0
40
0.501637567130152
40
0.501637567130152
40
0.886957471304442
40
0.886957471304442
40
1
40
1
40
1
40
1
41
1
10
9.92628836408863
20
-2.77774390609628
30
0
41
1
10
10.055186289978
20
-2.61793316994485
30
0
41
1
10
10.2035373918069
20
-2.46013066489172
30
0
41
1
10
10.4936737434646
20
-2.21067703400911
30
0
41
1
10
10.6320515349231
20
-2.11007290510881
30
0
41
1
10
10.8150665911631
20
-2.00291367780576
30
0
41
1
10
10.8574089473578
20
-1.97979779328179
30
0
41
1
10
10.8997520209239
20
-1.95835849676192
30
0
0
SPLINE
5
134
100
AcDbEntity
8
1
62
256
6
ByLayer
370
18
48
1
60
0
100
AcDbSpline
70
4
71
3
72
12
73
8
40
0
40
0
40
0
40
0
40
0.391502209781614
40
0.391502209781614
40
0.886018843801028
40
0.886018843801028
40
1
40
1
40
1
40
1
41
1
10
9.23327604122341
20
-5.03722707122228
30
0
41
1
10
9.3131940230241
20
-4.83831508969684
30
0
41
1
10
9.39446032276186
20
-4.5955490572762
30
0
41
1
10
9.57572609057502
20
-3.98321920646924
30
0
41
1
10
9.67710325993914
20
-3.59008941943316
30
0
41
1
10
9.79719649097757
20
-3.07908070947485
30
0
41
1
10
9.81972846272942
20
-2.98115392853555
30
0
41
1
10
9.84207676291567
20
-2.88210622720447
30
0
0
SPLINE
5
135
100
AcDbEntity
8
1
62
256
6
ByLayer
370
18
48
1
60
0
100
AcDbSpline
70
4
71
3
72
8
73
4
40
0
40
0
40
0
40
0
40
1
40
1
40
1
40
1
41
1
10
9.84207676291481
20
-2.88210622720416
30
0
41
1
10
9.86992149470092
20
-2.84761376226885
30
0
41
1
10
9.89800502634762
20
-2.81281026572944
30
0
41
1
10
9.92628836408863
20
-2.77774390609628
30
0
0
SPLINE
5
136
100
AcDbEntity
8
1
62
256
6
ByLayer
370
18
48
1
60
0
100
AcDbSpline
70
4
71
3
72
8
73
4
40
0
40
0
40
0
40
0
40
1
40
1
40
1
40
1
41
1
10
13.4668548344852
20
11.0742324727589
30
0
41
1
10
13.5075084771306
20
11.1180553233462
30
0
41
1
10
13.548751362803
20
11.1613608688848
30
0
41
1
10
13.5905492480775
20
11.204155326513
30
0
0
SPLINE
5
137
100
AcDbEntity
8
1
62
256
6
ByLayer
370
18
48
1
60
0
100
AcDbSpline
70
4
71
2
72
6
73
3
40
0
40
0
40
0
40
1
40
1
40
1
41
1.01103575695168
10
14.2896309057595
20
11.4639757031043
30
0
41
1.01163342726563
10
13.9375961875198
20
11.3423260107588
30
0
41
1.01212826498448
10
13.5898999769454
20
11.2038968467007
30
0
0
SPLINE
5
138
100
AcDbEntity
8
1
62
256
6
ByLayer
370
18
48
1
60
0
100
AcDbSpline
70
4
71
2
72
8
73
5
40
0
40
0
40
0
40
0.581603760070721
40
0.872405640106081
40
1
40
1
40
1
41
1.02990374504916
10
15.4450167678623
20
-0.0007776275553317
30
0
41
1.02669755169729
10
15.9393300253793
20
1.70121381997886
30
0
41
1.02039724512338
10
16.3456028447041
20
4.42321012721012
30
0
41
1.01761724169608
10
16.4170234341805
20
5.78749845015909
30
0
41
1.01686274329306
10
16.4803527311626
20
6.15889311653024
30
0
0
SPLINE
5
139
100
AcDbEntity
8
1
62
256
6
ByLayer
370
18
48
1
60
0
100
AcDbSpline
70
4
71
1
72
4
73
2
40
0
40
0
40
1
40
1
41
1
10
7.96395703227
20
5.99759328468659
30
0
41
1
10
7.16976239057612
20
6.21760198353604
30
0
0
SPLINE
5
13A
100
AcDbEntity
8
1
62
256
6
ByLayer
370
18
48
1
60
0
100
AcDbSpline
70
4
71
2
72
6
73
3
40
0
40
0
40
0
40
1
40
1
40
1
41
1.01212826498425
10
19.2506527771979
20
6.66506195712583
30
0
41
1.01163342726426
10
19.3095555913507
20
7.03504787607014
30
0
41
1.01103575694871
10
19.3511575012095
20
7.40560496929779
30
0
0
SPLINE
5
13B
100
AcDbEntity
8
1
62
256
6
ByLayer
370
18
48
1
60
0
100
AcDbSpline
70
4
71
2
72
6
73
3
40
0
40
0
40
0
40
1
40
1
40
1
41
0.932817050425109
10
14.4557115673009
20
1.17394054731244
30
0
41
0.929591664905396
10
15.2398291833549
20
0.402405305915655
30
0
41
1.02990374504916
10
15.4450167678623
20
-0.0007776275553317
30
0
0
SPLINE
5
13C
100
AcDbEntity
8
1
62
256
6
ByLayer
370
18
48
1
60
0
100
AcDbSpline
70
4
71
2
72
6
73
3
40
0
40
0
40
0
40
1
40
1
40
1
41
1.02990374504916
10
7.96395703226998
20
5.99759328468661
30
0
41
0.929591662588769
10
8.41873618107399
20
5.87160984997234
30
0
41
0.932817050574084
10
9.3522182229188
20
5.26596054967889
30
0
0
SPLINE
5
13D
100
AcDbEntity
8
1
62
256
6
ByLayer
370
18
48
1
60
0
100
AcDbSpline
70
4
71
3
72
8
73
4
40
0
40
0
40
0
40
0
40
1
40
1
40
1
40
1
41
1
10
19.2507627537593
20
6.66575284751136
30
0
41
1
10
19.218703284446
20
6.61515005348923
30
0
41
1
10
19.1860248531539
20
6.56497746291882
30
0
41
1
10
19.1527137737493
20
6.51526728897244
30
0
0
SPLINE
5
13E
100
AcDbEntity
8
1
62
256
6
ByLayer
370
18
48
1
60
0
100
AcDbSpline
70
4
71
3
72
15
73
11
40
0
40
0
40
0
40
0
40
0.22504324078798
40
0.22504324078798
40
0.52048282722711
40
0.52048282722711
40
0.820975208236872
40
0.820975208236872
40
0.820975208236872
40
1
40
1
40
1
40
1
41
1
10
14.1832663825834
20
4.7703272959717
30
0
41
1
10
14.3580898994521
20
4.54695676225199
30
0
41
1
10
14.4999794413129
20
4.29221080906117
30
0
41
1
10
14.7368153782073
20
3.68142033920591
30
0
41
1
10
14.8091554830386
20
3.30849111620893
30
0
41
1
10
14.8391985287124
20
2.56159214906108
30
0
41
1
10
14.7954824761227
20
2.17625571440777
30
0
41
1
10
14.6959326473825
20
1.81103481123173
30
0
41
1
10
14.6361373931534
20
1.59166249254946
30
0
41
1
10
14.5554683754678
20
1.37676702553006
30
0
41
1
10
14.4557115312006
20
1.17394058283341
30
0
0
SPLINE
5
13F
100
AcDbEntity
8
1
62
256
6
ByLayer
370
18
48
1
60
0
100
AcDbSpline
70
4
71
3
72
8
73
4
40
0
40
0
40
0
40
0
40
1
40
1
40
1
40
1
41
1
10
9.3522182082599
20
5.26596053772064
30
0
41
1
10
9.15974603021118
20
5.10913872672427
30
0
41
1
10
8.98592523018311
20
4.93546666447665
30
0
41
1
10
8.83251869379427
20
4.74364574983636
30
0
0
SPLINE
5
140
100
AcDbEntity
8
1
62
256
6
ByLayer
370
18
48
1
60
0
100
AcDbSpline
70
4
71
3
72
10
73
6
40
0
40
0
40
0
40
0
40
0.207845795367685
40
0.207845795367685
40
1
40
1
40
1
40
1
41
1
10
10.8997520209239
20
-1.95835849676195
30
0
41
1
10
10.9361364605061
20
-1.93993619712191
30
0
41
1
10
10.972860869783
20
-1.92241903366556
30
0
41
1
10
11.149537322364
20
-1.84324617645774
30
0
41
1
10
11.2938727594531
20
-1.79387393529186
30
0
41
1
10
11.4378852133268
20
-1.75921278394173
30
0
0
SPLINE
5
141
100
AcDbEntity
8
1
62
256
6
ByLayer
370
18
48
1
60
0
100
AcDbSpline
70
4
71
3
72
8
73
4
40
0
40
0
40
0
40
0
40
1
40
1
40
1
40
1
41
1
10
10.8997520209238
20
-1.95835849676195
30
0
41
1
10
11.2782609953912
20
-3.1547423163162
30
0
41
1
10
11.5473356236991
20
-4.25431181624251
30
0
41
1
10
11.5400450893596
20
-4.88358938152231
30
0
0
SPLINE
5
142
100
AcDbEntity
8
1
62
256
6
ByLayer
370
18
48
1
60
0
100
AcDbSpline
70
4
71
3
72
12
73
8
40
0
40
0
40
0
40
0
40
0.415356444741146
40
0.415356444741146
40
0.825259843212189
40
0.825259843212189
40
1
40
1
40
1
40
1
41
1
10
7.08277709621945
20
1.10212119065113
30
0
41
1
10
7.0410921665719
20
0.935380412745957
30
0
41
1
10
6.97635169098743
20
0.76293612288552
30
0
41
1
10
6.81958880238113
20
0.442434387567005
30
0
41
1
10
6.72629617447882
20
0.289588057897305
30
0
41
1
10
6.58340303925507
20
0.0891657764814511
30
0
41
1
10
6.53899683801581
20
0.030858055514102
30
0
41
1
10
6.49361856830245
20
-0.0254030102720435
30
0
0
SPLINE
5
143
100
AcDbEntity
8
1
62
256
6
ByLayer
370
18
48
1
60
0
100
AcDbSpline
70
4
71
3
72
16
73
12
40
0
40
0
40
0
40
0
40
0.28382542465983
40
0.28382542465983
40
0.572792249827486
40
0.572792249827486
40
0.572792249827486
40
0.894188232602855
40
0.894188232602855
40
0.894188232602855
40
1
40
1
40
1
40
1
41
1
10
9.35221822292874
20
5.26596054967246
30
0
41
1
10
9.62918708214909
20
5.48904979663669
30
0
41
1
10
9.94752937724053
20
5.6724953864076
30
0
41
1
10
10.619025272913
20
5.93949801173613
30
0
41
1
10
10.9810930326008
20
6.02532416245123
30
0
41
1
10
11.3434152420363
20
6.05418011044327
30
0
41
1
10
11.7440437625452
20
6.08608683724853
30
0
41
1
10
12.1600260226978
20
6.04770523384803
30
0
41
1
10
12.5453943406518
20
5.92813205385946
30
0
41
1
10
12.6746242575642
20
5.88803422693661
30
0
41
1
10
12.8014390318901
20
5.83868531352542
30
0
41
1
10
12.9231782054424
20
5.78067563374097
30
0
0
SPLINE
5
144
100
AcDbEntity
8
1
62
256
6
ByLayer
370
18
48
1
60
0
100
AcDbSpline
70
4
71
3
72
16
73
12
40
0
40
0
40
0
40
0
40
0.151798394921708
40
0.151798394921708
40
0.302355402833643
40
0.302355402833643
40
0.469907609657966
40
0.469907609657966
40
0.750934341340613
40
0.750934341340613
40
1
40
1
40
1
40
1
41
1
10
4.28121437118051
20
-1.26007688767555
30
0
41
1
10
4.14551141423271
20
-1.13551297041229
30
0
41
1
10
4.0134266920461
20
-0.997594563299714
30
0
41
1
10
3.78383946054816
20
-0.71785782565928
30
0
41
1
10
3.68255794765588
20
-0.572495768338968
30
0
41
1
10
3.50490876977102
20
-0.275312833652947
30
0
41
1
10
3.43032653420625
20
-0.12153658032662
30
0
41
1
10
3.27804669264515
20
0.256482864756464
30
0
41
1
10
3.22620269696165
20
0.462815672110594
30
0
41
1
10
3.19084337239957
20
0.825870004420352
30
0
41
1
10
3.19993494350126
20
0.992802752767432
30
0
41
1
10
3.253924646695
20
1.17533454218574
30
0
0
SPLINE
5
145
100
AcDbEntity
8
1
62
256
6
ByLayer
370
18
48
1
60
0
100
AcDbSpline
70
4
71
3
72
10
73
6
40
0
40
0
40
0
40
0
40
0.10661627058344
40
0.10661627058344
40
1
40
1
40
1
40
1
41
1
10
16.3511042835065
20
8.7965779043885
30
0
41
1
10
16.3393647565566
20
8.75991767131993
30
0
41
1
10
16.3277942567624
20
8.72306355109151
30
0
41
1
10
16.2209923129578
20
8.37601086967393
30
0
41
1
10
16.1374590888028
20
8.05212441043435
30
0
41
1
10
16.0664880301275
20
7.71763409086245
30
0
0
SPLINE
5
146
100
AcDbEntity
8
1
62
256
6
ByLayer
370
18
48
1
60
0
100
AcDbSpline
70
4
71
2
72
8
73
5
40
0
40
0
40
0
40
0.145991510275427
40
0.56347020759213
40
1
40
1
40
1
41
1.02393576174177
10
12.9231782050748
20
5.78067563335609
30
0
41
1.02323174907605
10
13.1060637376338
20
5.97218291058911
30
0
41
1.02039724512338
10
13.8118047743495
20
6.70304606942643
30
0
41
1.01644464721292
10
14.8869282380148
20
7.72212658620639
30
0
41
1.01495409538139
10
15.369148649582
20
8.27676613956383
30
0
0
SPLINE
5
147
100
AcDbEntity
8
1
62
256
6
ByLayer
370
18
48
1
60
0
100
AcDbSpline
70
4
71
3
72
8
73
4
40
0
40
0
40
0
40
0
40
1
40
1
40
1
40
1
41
1
10
13.0381296894631
20
-0.724597708993457
30
0
41
1
10
12.6124442172883
20
-1.25687865701434
30
0
41
1
10
12.0511587079601
20
-1.61160912297544
30
0
41
1
10
11.4378852133268
20
-1.75921278394173
30
0
0
SPLINE
5
148
100
AcDbEntity
8
1
62
256
6
ByLayer
370
18
48
1
60
0
100
AcDbSpline
70
4
71
3
72
8
73
4
40
0
40
0
40
0
40
0
40
1
40
1
40
1
40
1
41
1
10
9.10656211626912
20
-5.13282889053747
30
0
41
1
10
9.12959569990335
20
-5.15129739405964
30
0
41
1
10
9.15298553792803
20
-5.16876976213118
30
0
41
1
10
9.17670702919185
20
-5.18532034231612
30
0
0
SPLINE
5
149
100
AcDbEntity
8
1
62
256
6
ByLayer
370
18
48
1
60
0
100
AcDbSpline
70
4
71
3
72
8
73
4
40
0
40
0
40
0
40
0
40
1
40
1
40
1
40
1
41
1
10
14.4557115312006
20
1.17394058283341
30
0
41
1
10
14.3463778499989
20
0.955788871144051
30
0
41
1
10
14.2130112487185
20
0.744484773379554
30
0
41
1
10
14.0595386101049
20
0.552581203922188
30
0
0
SPLINE
5
14A
100
AcDbEntity
8
1
62
256
6
ByLayer
370
18
48
1
60
0
100
AcDbSpline
70
4
71
3
72
14
73
10
40
0
40
0
40
0
40
0
40
0.262932482489339
40
0.262932482489339
40
0.526305718382461
40
0.526305718382461
40
0.786105451116569
40
0.786105451116569
40
1
40
1
40
1
40
1
41
1
10
19.0775916933356
20
9.69568471200435
30
0
41
1
10
19.1181695778936
20
9.8139633813891
30
0
41
1
10
19.1461831915046
20
9.94964752189421
30
0
41
1
10
19.1700202521791
20
10.2362183346874
30
0
41
1
10
19.1660573726311
20
10.3907986229562
30
0
41
1
10
19.1289120717021
20
10.6941276561311
30
0
41
1
10
19.0958692436391
20
10.8464915889553
30
0
41
1
10
19.0166675469033
20
11.1099835752822
30
0
41
1
10
18.9734517825835
20
11.2255031983595
30
0
41
1
10
18.9251871419279
20
11.3346421640283
30
0
0
SPLINE
5
14B
100
AcDbEntity
8
1
62
256
6
ByLayer
370
18
48
1
60
0
100
AcDbSpline
70
4
71
3
72
14
73
10
40
0
40
0
40
0
40
0
40
0.304391776008976
40
0.304391776008976
40
0.577373879687157
40
0.577373879687157
40
0.851610378463919
40
0.851610378463919
40
1
40
1
40
1
40
1
41
1
10
18.2110279983794
20
11.9072604273196
30
0
41
1
10
18.0449335061421
20
11.9408930781855
30
0
41
1
10
17.8678673457757
20
11.9617240901813
30
0
41
1
10
17.5305620007267
20
11.9678659620828
30
0
41
1
10
17.3666658756989
20
11.9562595056028
30
0
41
1
10
17.0576184127733
20
11.9016386444151
30
0
41
1
10
16.9084714059442
20
11.8575992691573
30
0
41
1
10
16.7077030892816
20
11.7700785672143
30
0
41
1
10
16.6414269514006
20
11.7351128711838
30
0
41
1
10
16.5812415275613
20
11.6972773673754
30
0
0
SPLINE
5
14C
100
AcDbEntity
8
1
62
256
6
ByLayer
370
18
48
1
60
0
100
AcDbSpline
70
4
71
3
72
8
73
4
40
0
40
0
40
0
40
0
40
1
40
1
40
1
40
1
41
1
10
14.2951924780906
20
11.4658964288171
30
0
41
1
10
13.6613807658416
20
10.469302330605
30
0
41
1
10
14.2017904392081
20
9.37623505661304
30
0
41
1
10
13.7555924492378
20
8.34362675013341
30
0
0
SPLINE
5
14D
100
AcDbEntity
8
1
62
256
6
ByLayer
370
18
48
1
60
0
100
AcDbSpline
70
4
71
3
72
12
73
8
40
0
40
0
40
0
40
0
40
0.369659083875782
40
0.369659083875782
40
0.72770450158611
40
0.72770450158611
40
1
40
1
40
1
40
1
41
1
10
4.05898535376724
20
1.11478153071962
30
0
41
1
10
4.28673380401483
20
1.16262962003049
30
0
41
1
10
4.59326275370159
20
1.18923892035829
30
0
41
1
10
5.28706282712545
20
1.20523680262772
30
0
41
1
10
5.67970184085613
20
1.19610897919316
30
0
41
1
10
6.4103760720829
20
1.15716957889532
30
0
41
1
10
6.74377264555238
20
1.13257774891892
30
0
41
1
10
7.08277709621945
20
1.10212119065093
30
0
0
SPLINE
5
14E
100
AcDbEntity
8
1
62
256
6
ByLayer
370
18
48
1
60
0
100
AcDbSpline
70
4
71
3
72
24
73
20
40
0
40
0
40
0
40
0
40
0.142613444608223
40
0.142613444608223
40
0.19079521826949
40
0.19079521826949
40
0.226951176162321
40
0.226951176162321
40
0.263437466712854
40
0.263437466712854
40
0.29611936557235
40
0.29611936557235
40
0.352324850832278
40
0.352324850832278
40
0.455294648588098
40
0.455294648588098
40
0.66270515804362
40
0.66270515804362
40
1
40
1
40
1
40
1
41
1
10
13.7555924492378
20
8.34362675013341
30
0
41
1
10
13.6990669509067
20
8.28244737203372
30
0
41
1
10
13.6460291880783
20
8.21829784769747
30
0
41
1
10
13.6151023229027
20
8.127699237846
30
0
41
1
10
13.6111062843273
20
8.10393164087489
30
0
41
1
10
13.6168531655492
20
8.06327325346621
30
0
41
1
10
13.623661928323
20
8.04582631963734
30
0
41
1
10
13.6477608054374
20
8.0139031228008
30
0
41
1
10
13.6655655035533
20
7.9990886989859
30
0
41
1
10
13.7064995873535
20
7.97586730071396
30
0
41
1
10
13.7292258602478
20
7.96664103217194
30
0
41
1
10
13.7945087548686
20
7.94655009188315
30
0
41
1
10
13.8405853838792
20
7.93868028214698
30
0
41
1
10
13.9714395180972
20
7.92540745000693
30
0
41
1
10
14.0596696598149
20
7.92666508188057
30
0
41
1
10
14.3177116976993
20
7.94475899462134
30
0
41
1
10
14.4872063928068
20
7.97641931439557
30
0
41
1
10
14.9064723354666
20
8.08233909437396
30
0
41
1
10
15.1483806159228
20
8.1737709947318
30
0
41
1
10
15.3691486495686
20
8.27676613954844
30
0
0
SPLINE
5
14F
100
AcDbEntity
8
1
62
256
6
ByLayer
370
18
48
1
60
0
100
AcDbSpline
70
4
71
3
72
8
73
4
40
0
40
0
40
0
40
0
40
1
40
1
40
1
40
1
41
1
10
7.16976239057612
20
6.21760198353604
30
0
41
1
10
8.54668468372608
20
7.69213626657796
30
0
41
1
10
10.1314574024727
20
8.9201020787396
30
0
41
1
10
11.8981776046212
20
9.8970912881569
30
0
0
SPLINE
5
150
100
AcDbEntity
8
1
62
256
6
ByLayer
370
18
48
1
60
0
100
AcDbSpline
70
4
71
3
72
16
73
12
40
0
40
0
40
0
40
0
40
0.346164403850464
40
0.346164403850464
40
0.574058138681868
40
0.574058138681868
40
0.756733946461145
40
0.756733946461145
40
0.941193093213314
40
0.941193093213314
40
1
40
1
40
1
40
1
41
1
10
11.7489174556674
20
-5.63601566300201
30
0
41
1
10
11.5223915801292
20
-5.76769609801434
30
0
41
1
10
11.3087239621307
20
-5.81254456338436
30
0
41
1
10
10.8933323933177
20
-5.82278171138736
30
0
41
1
10
10.7060098389114
20
-5.80774590370271
30
0
41
1
10
10.3251773475936
20
-5.73140524579142
30
0
41
1
10
10.1371829132318
20
-5.67810348348863
30
0
41
1
10
9.75230742205633
20
-5.52645049683954
30
0
41
1
10
9.54955047536561
20
-5.42449819135317
30
0
41
1
10
9.29728991611222
20
-5.26730178973668
30
0
41
1
10
9.23619288989971
20
-5.22682386739251
30
0
41
1
10
9.17670702919185
20
-5.18532034231612
30
0
0
SPLINE
5
151
100
AcDbEntity
8
1
62
256
6
ByLayer
370
18
48
1
60
0
100
AcDbSpline
70
4
71
3
72
10
73
6
40
0
40
0
40
0
40
0
40
0.679966690484306
40
0.679966690484306
40
1
40
1
40
1
40
1
41
1
10
7.15749095115115
20
1.67284007255492
30
0
41
1
10
7.15602441086895
20
1.54504088265674
30
0
41
1
10
7.14397809562632
20
1.41476338908618
30
0
41
1
10
7.11092557971159
20
1.22411489287447
30
0
41
1
10
7.09798315573937
20
1.16294581515351
30
0
41
1
10
7.08277709621945
20
1.10212119065113
30
0
0
SPLINE
5
152
100
AcDbEntity
8
1
62
256
6
ByLayer
370
18
48
1
60
0
100
AcDbSpline
70
4
71
3
72
8
73
4
40
0
40
0
40
0
40
0
40
1
40
1
40
1
40
1
41
1
10
7.15749095115115
20
1.67284007255495
30
0
41
1
10
7.16471411503363
20
2.30229055808019
30
0
41
1
10
7.39088675373586
20
2.94101618902209
30
0
41
1
10
7.81110977315245
20
3.46646683692072
30
0
0
SPLINE
5
153
100
AcDbEntity
8
1
62
256
6
ByLayer
370
18
48
1
60
0
100
AcDbSpline
70
4
71
3
72
25
73
21
40
0
40
0
40
0
40
0
40
0.442411593548775
40
0.442411593548775
40
0.442411593548775
40
0.583396916265373
40
0.583396916265373
40
0.651602530488651
40
0.651602530488651
40
0.706341521306446
40
0.706341521306446
40
0.742475286987733
40
0.742475286987733
40
0.77897296874293
40
0.77897296874293
40
0.81153946498018
40
0.81153946498018
40
0.868309796146669
40
0.868309796146669
40
1
40
1
40
1
40
1
41
1
10
16.0664880301275
20
7.71763409086242
30
0
41
1
10
16.0004974703043
20
7.40617459824051
30
0
41
1
10
15.9592435265773
20
7.06043845667665
30
0
41
1
10
15.9772297323123
20
6.7027137013194
30
0
41
1
10
15.9830685602615
20
6.5865861905786
30
0
41
1
10
15.9953504473992
20
6.46755079678729
30
0
41
1
10
16.0299249733275
20
6.29483810503223
30
0
41
1
10
16.0440031557441
20
6.23841660638317
30
0
41
1
10
16.0765400420778
20
6.14206440371228
30
0
41
1
10
16.0939099949944
20
6.100254953535
30
0
41
1
10
16.1283999567275
20
6.04037669149318
30
0
41
1
10
16.1439495622919
20
6.01871047212364
30
0
41
1
10
16.177322693297
20
5.98484446959026
30
0
41
1
10
16.1956280528681
20
5.97244704208245
30
0
41
1
10
16.2298077356679
20
5.95994790328896
30
0
41
1
10
16.2460985339226
20
5.95840689490421
30
0
41
1
10
16.2885601528402
20
5.9633892732723
30
0
41
1
10
16.3139516233376
20
5.97631435826463
30
0
41
1
10
16.3913036576362
20
6.03306768716317
30
0
41
1
10
16.4373612696458
20
6.09447468555956
30
0
41
1
10
16.4803527311627
20
6.15889311653041
30
0
0
SPLINE
5
154
100
AcDbEntity
8
1
62
256
6
ByLayer
370
18
48
1
60
0
100
AcDbSpline
70
4
71
3
72
8
73
4
40
0
40
0
40
0
40
0
40
1
40
1
40
1
40
1
41
1
10
6.40940696712869
20
-0.129765331379929
30
0
41
1
10
5.59744827320139
20
-0.507747996679086
30
0
41
1
10
4.88137119652203
20
-0.871378065967463
30
0
41
1
10
4.41655618296227
20
-1.1751442498873
30
0
0
SPLINE
5
155
100
AcDbEntity
8
1
62
256
6
ByLayer
370
18
48
1
60
0
100
AcDbSpline
70
4
71
3
72
10
73
6
40
0
40
0
40
0
40
0
40
0.759976532001893
40
0.759976532001893
40
1
40
1
40
1
40
1
41
1
10
15.3691486495686
20
8.27676613954844
30
0
41
1
10
15.6316298645394
20
8.3993162795702
30
0
41
1
10
15.884460988043
20
8.529151746152
30
0
41
1
10
16.2019945806433
20
8.70849585906782
30
0
41
1
10
16.2771304581559
20
8.7522222090565
30
0
41
1
10
16.3511042835063
20
8.7965779043885
30
0
0
SPLINE
5
156
100
AcDbEntity
8
1
62
256
6
ByLayer
370
18
48
1
60
0
100
AcDbSpline
70
4
71
3
72
12
73
8
40
0
40
0
40
0
40
0
40
0.307573270173409
40
0.307573270173409
40
0.648852820657656
40
0.648852820657656
40
1
40
1
40
1
40
1
41
1
10
12.9231782054424
20
5.78067563374097
30
0
41
1
10
13.0735290214309
20
5.70900914452722
30
0
41
1
10
13.2194086712878
20
5.62619401683435
30
0
41
1
10
13.5125994328784
20
5.4310303324516
30
0
41
1
10
13.6593244538278
20
5.31577021776749
30
0
41
1
10
13.9358348469397
20
5.0610719298451
30
0
41
1
10
14.0660027565009
20
4.92011482166896
30
0
41
1
10
14.1832663825834
20
4.7703272959717
30
0
0
SPLINE
5
157
100
AcDbEntity
8
1
62
256
6
ByLayer
370
18
48
1
60
0
100
AcDbSpline
70
4
71
3
72
8
73
4
40
0
40
0
40
0
40
0
40
1
40
1
40
1
40
1
41
1
10
18.3556092261771
20
4.71947322660759
30
0
41
1
10
17.7930574537914
20
2.79128995382297
30
0
41
1
10
16.9353857573371
20
0.95696377458745
30
0
41
1
10
15.8033420885286
20
-0.704868249168243
30
0
0
SPLINE
5
158
100
AcDbEntity
8
1
62
256
6
ByLayer
370
18
48
1
60
0
100
AcDbSpline
70
4
71
2
72
6
73
3
40
0
40
0
40
0
40
1
40
1
40
1
41
1.02990374504916
10
15.4450167678623
20
-0.0007776275553317
30
0
41
1.02990374504916
10
15.6241794281955
20
-0.352822938361806
30
0
41
1.02990374504916
10
15.8033420885286
20
-0.704868249168225
30
0
0
SPLINE
5
159
100
AcDbEntity
8
1
62
256
6
ByLayer
370
18
48
1
60
0
100
AcDbSpline
70
4
71
3
72
8
73
4
40
0
40
0
40
0
40
0
40
1
40
1
40
1
40
1
41
1
10
16.4803527311627
20
6.15889311653041
30
0
41
1
10
17.3716438333963
20
6.83413189889322
30
0
41
1
10
18.532016904359
20
6.55782866895916
30
0
41
1
10
19.3518136320188
20
7.41145891576923
30
0
0
SPLINE
5
15A
100
AcDbEntity
8
1
62
256
6
ByLayer
370
18
48
1
60
0
100
AcDbSpline
70
4
71
2
72
8
73
5
40
0
40
0
40
0
40
0.581603760044144
40
0.872405640066216
40
1
40
1
40
1
41
1.02990374504916
10
7.96395703226998
20
5.99759328468658
30
0
41
1.02669755169729
10
9.52102263172188
20
6.84746177584999
30
0
41
1.02039724512338
10
12.0910968425727
20
7.83450557835945
30
0
41
1.01761724169577
10
13.407549591548
20
8.20051759406199
30
0
41
1.01686274329252
10
13.7555924492376
20
8.34362675013336
30
0
0
SPLINE
5
15B
100
AcDbEntity
8
1
62
256
6
ByLayer
370
18
48
1
60
0
100
AcDbSpline
70
4
71
3
72
11
73
7
40
0
40
0
40
0
40
0
40
0.559926195718575
40
0.559926195718575
40
0.559926195718575
40
1
40
1
40
1
40
1
41
1
10
13.4668548344853
20
11.0742324727589
30
0
41
1
10
13.2533037602917
20
10.8440337449648
30
0
41
1
10
12.9831668285533
20
10.6060595248259
30
0
41
1
10
12.6790871363233
20
10.3873595642961
30
0
41
1
10
12.4383712310246
20
10.2142320574848
30
0
41
1
10
12.1730051635351
20
10.0490698296276
30
0
41
1
10
11.8981776046211
20
9.8970912881569
30
0
0
SPLINE
5
15C
100
AcDbEntity
8
1
62
256
6
ByLayer
370
18
48
1
60
0
100
AcDbSpline
70
4
71
3
72
10
73
6
40
0
40
0
40
0
40
0
40
0.629893813379275
40
0.629893813379275
40
1
40
1
40
1
40
1
41
1
10
11.4700286826055
20
1.28943893691485
30
0
41
1
10
11.4585606252622
20
1.28913145389595
30
0
41
1
10
11.4465887984697
20
1.28839398881954
30
0
41
1
10
11.4267861745283
20
1.2863265444058
30
0
41
1
10
11.4192608551045
20
1.28536287904961
30
0
41
1
10
11.4115688972171
20
1.28416803315775
30
0
0
SPLINE
5
15D
100
AcDbEntity
8
1
62
256
6
ByLayer
370
18
48
1
60
0
100
AcDbSpline
70
4
71
3
72
10
73
6
40
0
40
0
40
0
40
0
40
0.123732606265398
40
0.123732606265398
40
1
40
1
40
1
40
1
41
1
10
10.135194420465
20
2.30757485050955
30
0
41
1
10
10.1350406545225
20
2.31017801977623
30
0
41
1
10
10.1348660888549
20
2.31275589332032
30
0
41
1
10
10.1333126724221
20
2.33319917794506
30
0
41
1
10
10.1310078592513
20
2.34988382241679
30
0
41
1
10
10.1281326475166
20
2.36538144084722
30
0
0
SPLINE
5
15E
100
AcDbEntity
8
1
62
256
6
ByLayer
370
18
48
1
60
0
100
AcDbSpline
70
4
71
3
72
10
73
6
40
0
40
0
40
0
40
0
40
0.516155291935518
40
0.516155291935518
40
1
40
1
40
1
40
1
41
1
10
11.9299990717637
20
2.08084190323319
30
0
41
1
10
11.9244007980183
20
2.07284454088617
30
0
41
1
10
11.9189368076355
20
2.06440207397142
30
0
41
1
10
11.9087849711167
20
2.0470960221505
30
0
41
1
10
11.9040496551552
20
2.03825549702722
30
0
41
1
10
11.899617327959
20
2.02894816015919
30
0
0
SPLINE
5
15F
100
AcDbEntity
8
1
62
256
6
ByLayer
370
18
48
1
60
0
100
AcDbSpline
70
4
71
3
72
10
73
6
40
0
40
0
40
0
40
0
40
0.516155291935621
40
0.516155291935621
40
1
40
1
40
1
40
1
41
1
10
10.088973433699
20
2.10016455789901
30
0
41
1
10
10.0929340803006
20
2.10634315104554
30
0
41
1
10
10.0968236643343
20
2.11303706256553
30
0
41
1
10
10.1041235034203
20
2.12717565034527
30
0
41
1
10
10.1075631975515
20
2.13457724164945
30
0
41
1
10
10.1108353389654
20
2.14259606166811
30
0
0
SPLINE
5
160
100
AcDbEntity
8
1
62
256
6
ByLayer
370
18
48
1
60
0
100
AcDbSpline
70
4
71
3
72
8
73
4
40
0
40
0
40
0
40
0
40
1
40
1
40
1
40
1
41
1
10
11.6243720084496
20
2.72543746483322
30
0
41
1
10
11.6436743961655
20
2.71892867325553
30
0
41
1
10
11.6624225474484
20
2.71507442691376
30
0
41
1
10
11.68020617356
20
2.71292561056768
30
0
0
SPLINE
5
161
100
AcDbEntity
8
1
62
256
6
ByLayer
370
18
48
1
60
0
100
AcDbSpline
70
4
71
3
72
8
73
4
40
0
40
0
40
0
40
0
40
1
40
1
40
1
40
1
41
1
10
10.5495158635599
20
1.29910026423846
30
0
41
1
10
10.5405837796135
20
1.31231712862265
30
0
41
1
10
10.5299706488148
20
1.32634347783966
30
0
41
1
10
10.5171779027136
20
1.34099198391658
30
0
0
SPLINE
5
162
100
AcDbEntity
8
1
62
256
6
ByLayer
370
18
48
1
60
0
100
AcDbSpline
70
4
71
3
72
8
73
4
40
0
40
0
40
0
40
0
40
1
40
1
40
1
40
1
41
1
10
10.386080658477
20
1.44610675699647
30
0
41
1
10
10.3691714823559
20
1.45527347932196
30
0
41
1
10
10.3533837186925
20
1.46241556920273
30
0
41
1
10
10.3387663319027
20
1.46808085056449
30
0
0
SPLINE
5
163
100
AcDbEntity
8
1
62
256
6
ByLayer
370
18
48
1
60
0
100
AcDbSpline
70
4
71
3
72
10
73
6
40
0
40
0
40
0
40
0
40
0.315026012182604
40
0.315026012182604
40
1
40
1
40
1
40
1
41
1
10
11.2561125714698
20
1.22430401740178
30
0
41
1
10
11.2515275334156
20
1.22102981815908
30
0
41
1
10
11.2472200600335
20
1.2177408954401
30
0
41
1
10
11.2344077021654
20
1.2073519311204
30
0
41
1
10
11.2268025792973
20
1.2002374912251
30
0
41
1
10
11.2201199371175
20
1.19320264028337
30
0
0
SPLINE
5
164
100
AcDbEntity
8
1
62
256
6
ByLayer
370
18
48
1
60
0
100
AcDbSpline
70
4
71
3
72
10
73
6
40
0
40
0
40
0
40
0
40
0.123732606265412
40
0.123732606265412
40
1
40
1
40
1
40
1
41
1
10
11.8752582464616
20
1.86396937132011
30
0
41
1
10
11.8757109941332
20
1.86169825490342
30
0
41
1
10
11.8761934832471
20
1.85946236499245
30
0
41
1
10
11.8802776482048
20
1.84182976135134
30
0
41
1
10
11.8851907861802
20
1.82804195505028
30
0
41
1
10
11.8908398579462
20
1.81562502028496
30
0
0
SPLINE
5
165
100
AcDbEntity
8
1
62
256
6
ByLayer
370
18
48
1
60
0
100
AcDbSpline
70
4
71
3
72
10
73
6
40
0
40
0
40
0
40
0
40
0.629893813379534
40
0.629893813379534
40
1
40
1
40
1
40
1
41
1
10
10.5489438228542
20
2.891567524214
30
0
41
1
10
10.5584138098949
20
2.88965592534936
30
0
41
1
10
10.5684795290494
20
2.88827644342845
30
0
41
1
10
10.5855210089305
20
2.88727732669352
30
0
41
1
10
10.5920794351784
20
2.88716714838807
30
0
41
1
10
10.5988837697076
20
2.88737618866983
30
0
0
SPLINE
5
166
100
AcDbEntity
8
1
62
256
6
ByLayer
370
18
48
1
60
0
100
AcDbSpline
70
4
71
3
72
10
73
6
40
0
40
0
40
0
40
0
40
0.315026012182467
40
0.315026012182467
40
1
40
1
40
1
40
1
41
1
10
10.7543400954555
20
2.94724020442649
30
0
41
1
10
10.7596828437597
20
2.95135592615534
30
0
41
1
10
10.7648057572921
20
2.95555048691043
30
0
41
1
10
10.7803326262693
20
2.96895422123959
30
0
41
1
10
10.7900003088244
20
2.97835936573577
30
0
41
1
10
10.7988525683451
20
2.9878038208488
30
0
0
SPLINE
5
167
100
AcDbEntity
8
1
62
256
6
ByLayer
370
18
48
1
60
0
100
AcDbSpline
70
4
71
3
72
8
73
4
40
0
40
0
40
0
40
0
40
1
40
1
40
1
40
1
41
1
10
11.4694566419028
20
2.88190619689374
30
0
41
1
10
11.4752224865273
20
2.86517286749387
30
0
41
1
10
11.4828752297067
20
2.84785867473786
30
0
41
1
10
11.493274764213
20
2.83055223791314
30
0
0
LINE
5
72
100
AcDbEntity
8
1
62
256
6
ByLayer
370
18
48
1
60
0
100
AcDbLine
10
9.929662
20
1.918738
30
0
11
10.062473
21
2.06624
31
0
39
0
210
0
220
0
230
1
0
LINE
5
74
100
AcDbEntity
8
1
62
256
6
ByLayer
370
18
48
1
60
0
100
AcDbLine
10
13.180955
20
-0.280162
30
0
11
13.344364
21
-0.098678
31
0
39
0
210
0
220
0
230
1
0
LINE
5
75
100
AcDbEntity
8
1
62
256
6
ByLayer
370
18
48
1
60
0
100
AcDbLine
10
8.588237
20
4.183758
30
0
11
8.424828
21
4.002274
31
0
39
0
210
0
220
0
230
1
0
LINE
5
76
100
AcDbEntity
8
1
62
256
6
ByLayer
370
18
48
1
60
0
100
AcDbLine
10
10.670817
20
2.845485
30
0
11
10.803732
21
2.993103
31
0
39
0
210
0
220
0
230
1
0
LINE
5
77
100
AcDbEntity
8
1
62
256
6
ByLayer
370
18
48
1
60
0
100
AcDbLine
10
9.865822
20
14.438985
30
0
11
9.39754
21
13.918905
31
0
39
0
210
0
220
0
230
1
0
LINE
5
78
100
AcDbEntity
8
1
62
256
6
ByLayer
370
18
48
1
60
0
100
AcDbLine
10
11.840178
20
-5.658248
30
0
11
12.173539
21
-5.267724
31
0
39
0
210
0
220
0
230
1
0
LINE
5
79
100
AcDbEntity
8
1
62
256
6
ByLayer
370
18
48
1
60
0
100
AcDbLine
10
9.992829
20
-2.697468
30
0
11
9.74009
21
-2.993545
31
0
39
0
210
0
220
0
230
1
0
LINE
5
7A
100
AcDbEntity
8
1
62
256
6
ByLayer
370
18
48
1
60
0
100
AcDbLine
10
11.215344
20
1.188019
30
0
11
11.082533
21
1.040518
31
0
39
0
210
0
220
0
230
1
0
LINE
5
7B
100
AcDbEntity
8
1
62
256
6
ByLayer
370
18
48
1
60
0
100
AcDbLine
10
11.9565
20
2.114767
30
0
11
11.823689
21
1.967265
31
0
39
0
210
0
220
0
230
1
0
LINE
5
7C
100
AcDbEntity
8
1
62
256
6
ByLayer
370
18
48
1
60
0
100
AcDbLine
10
9.227693
20
13.179612
30
0
11
9.219743
21
13.170783
31
0
39
0
210
0
220
0
230
1
0
LINE
5
7D
100
AcDbEntity
8
1
62
256
6
ByLayer
370
18
48
1
60
0
100
AcDbLine
10
18.153183
20
1.396105
30
0
11
18.621466
21
1.916185
31
0
39
0
210
0
220
0
230
1
0
LINE
5
7E
100
AcDbEntity
8
80
62
256
6
ByLayer
370
18
48
1
60
0
100
AcDbLine
10
0
20
0
30
0
11
-5
21
0
31
0
39
0
210
0
220
0
230
1
0
LINE
5
7F
100
AcDbEntity
8
81
62
256
6
ByLayer
370
18
48
1
60
0
100
AcDbLine
10
24.899434
20
15.4125
30
0
11
34.899434
21
15.4125
31
0
39
0
210
0
220
0
230
1
0
LINE
5
80
100
AcDbEntity
8
1
62
256
6
ByLayer
370
18
48
1
60
0
100
AcDbLine
10
9.854751
20
1.861701
30
0
11
9.980934
21
2.001841
31
0
39
0
210
0
220
0
230
1
0
LINE
5
81
100
AcDbEntity
8
1
62
256
6
ByLayer
370
18
48
1
60
0
100
AcDbLine
10
13.180955
20
-0.280162
30
0
11
13.181106
21
-0.279993
31
0
39
0
210
0
220
0
230
1
0
LINE
5
82
100
AcDbEntity
8
1
62
256
6
ByLayer
370
18
48
1
60
0
100
AcDbLine
10
9.797932
20
13.477823
30
0
11
12.09024
21
10.010032
31
0
39
0
210
0
220
0
230
1
0
LINE
5
83
100
AcDbEntity
8
1
62
256
6
ByLayer
370
18
48
1
60
0
100
AcDbLine
10
17.3518
20
2.050372
30
0
11
17.373462
21
2.017603
31
0
39
0
210
0
220
0
230
1
0
LINE
5
84
100
AcDbEntity
8
1
62
256
6
ByLayer
370
18
48
1
60
0
100
AcDbLine
10
17.29122
20
1.926264
30
0
11
17.373462
21
2.017603
31
0
39
0
210
0
220
0
230
1
0
LINE
5
85
100
AcDbEntity
8
1
62
256
6
ByLayer
370
18
48
1
60
0
100
AcDbLine
10
9.32965
20
12.957743
30
0
11
9.439613
21
12.791391
31
0
39
0
210
0
220
0
230
1
0
LINE
5
86
100
AcDbEntity
8
1
62
256
6
ByLayer
370
18
48
1
60
0
100
AcDbLine
10
15.984733
20
-6.936506
30
0
11
12.8502
21
-4.423214
31
0
39
0
210
0
220
0
230
1
0
LINE
5
87
100
AcDbEntity
8
1
62
256
6
ByLayer
370
18
48
1
60
0
100
AcDbLine
10
4.189518
20
2.520987
30
0
11
3.765076
21
2.861308
31
0
39
0
210
0
220
0
230
1
0
LINE
5
88
100
AcDbEntity
8
1
62
256
6
ByLayer
370
18
48
1
60
0
100
AcDbLine
10
11.961746
20
9.93431
30
0
11
10.051884
21
12.823538
31
0
39
0
210
0
220
0
230
1
0
LINE
5
89
100
AcDbEntity
8
1
62
256
6
ByLayer
370
18
48
1
60
0
100
AcDbLine
10
12.801834
20
-7.806064
30
0
11
11.02494
21
-6.381337
31
0
39
0
210
0
220
0
230
1
0
LINE
5
8A
100
AcDbEntity
8
1
62
256
6
ByLayer
370
18
48
1
60
0
100
AcDbLine
10
2.64363
20
0.338862
30
0
11
1.788739
21
1.02432
31
0
39
0
210
0
220
0
230
1
0
LINE
5
8B
100
AcDbEntity
8
1
62
256
6
ByLayer
370
18
48
1
60
0
100
AcDbLine
10
11.973032
20
9.941101
30
0
11
11.88841
21
10.069116
31
0
39
0
210
0
220
0
230
1
0
LINE
5
8C
100
AcDbEntity
8
1
62
256
6
ByLayer
370
18
48
1
60
0
100
AcDbLine
10
19.512572
20
1.970158
30
0
11
19.415904
21
3.444646
31
0
39
0
210
0
220
0
230
1
0
LINE
5
8D
100
AcDbEntity
8
1
62
256
6
ByLayer
370
18
48
1
60
0
100
AcDbLine
10
20.289462
20
5.194687
30
0
11
20.363588
21
4.909724
31
0
39
0
210
0
220
0
230
1
0
LINE
5
8E
100
AcDbEntity
8
1
62
256
6
ByLayer
370
18
48
1
60
0
100
AcDbLine
10
11.683291
20
-8.111646
30
0
11
9.975802
21
-6.742568
31
0
39
0
210
0
220
0
230
1
0
LINE
5
8F
100
AcDbEntity
8
1
62
256
6
ByLayer
370
18
48
1
60
0
100
AcDbLine
10
2.518715
20
-0.763419
30
0
11
0.920036
21
0.518415
31
0
39
0
210
0
220
0
230
1
0
LINE
5
90
100
AcDbEntity
8
1
62
256
6
ByLayer
370
18
48
1
60
0
100
AcDbLine
10
22.325054
20
8.882915
30
0
11
22.190135
21
9.002393
31
0
39
0
210
0
220
0
230
1
0
LINE
5
91
100
AcDbEntity
8
1
62
256
6
ByLayer
370
18
48
1
60
0
100
AcDbLine
10
12.766831
20
-7.815627
30
0
11
10.998895
21
-6.398082
31
0
39
0
210
0
220
0
230
1
0
LINE
5
92
100
AcDbEntity
8
1
62
256
6
ByLayer
370
18
48
1
60
0
100
AcDbLine
10
2.632712
20
0.309988
30
0
11
1.592831
21
1.143772
31
0
39
0
210
0
220
0
230
1
0
LINE
5
93
100
AcDbEntity
8
1
62
256
6
ByLayer
370
18
48
1
60
0
100
AcDbLine
10
19.348863
20
1.945637
30
0
11
19.26978
21
3.151892
31
0
39
0
210
0
220
0
230
1
0
LINE
5
94
100
AcDbEntity
8
1
62
256
6
ByLayer
370
18
48
1
60
0
100
AcDbLine
10
12.93557
20
-0.835772
30
0
11
13.838856
21
0.294057
31
0
39
0
210
0
220
0
230
1
0
LINE
5
95
100
AcDbEntity
8
1
62
256
6
ByLayer
370
18
48
1
60
0
100
AcDbLine
10
4.347634
20
-1.317084
30
0
11
3.435407
21
-2.385735
31
0
39
0
210
0
220
0
230
1
0
LINE
5
96
100
AcDbEntity
8
1
62
256
6
ByLayer
370
18
48
1
60
0
100
AcDbLine
10
16.581242
20
11.697277
30
0
11
14.283134
21
11.464676
31
0
39
0
210
0
220
0
230
1
0
LINE
5
97
100
AcDbEntity
8
1
62
256
6
ByLayer
370
18
48
1
60
0
100
AcDbLine
10
9.680286
20
-3.065929
30
0
11
8.817523
21
-4.145073
31
0
39
0
210
0
220
0
230
1
0
LINE
5
98
100
AcDbEntity
8
1
62
256
6
ByLayer
370
18
48
1
60
0
100
AcDbLine
10
14.059539
20
0.552581
30
0
11
13.838856
21
0.294057
31
0
39
0
210
0
220
0
230
1
0
LINE
5
99
100
AcDbEntity
8
1
62
256
6
ByLayer
370
18
48
1
60
0
100
AcDbLine
10
4.058985
20
1.114782
30
0
11
7.963957
21
5.997593
31
0
39
0
210
0
220
0
230
1
0
LINE
5
9A
100
AcDbEntity
8
1
62
256
6
ByLayer
370
18
48
1
60
0
100
AcDbLine
10
19.35326
20
7.39941
30
0
11
19.077592
21
9.695685
31
0
39
0
210
0
220
0
230
1
0
LINE
5
9B
100
AcDbEntity
8
1
62
256
6
ByLayer
370
18
48
1
60
0
100
AcDbLine
10
5.384853
20
-1.392732
30
0
11
8.817523
21
-4.145073
31
0
39
0
210
0
220
0
230
1
0
LINE
5
9C
100
AcDbEntity
8
1
62
256
6
ByLayer
370
18
48
1
60
0
100
AcDbLine
10
4.297211
20
2.65322
30
0
11
4.339427
21
2.678525
31
0
39
0
210
0
220
0
230
1
0
LINE
5
9D
100
AcDbEntity
8
1
62
256
6
ByLayer
370
18
48
1
60
0
100
AcDbLine
10
7.81111
20
3.466467
30
0
11
8.832519
21
4.743646
31
0
39
0
210
0
220
0
230
1
0
LINE
5
9E
100
AcDbEntity
8
1
62
256
6
ByLayer
370
18
48
1
60
0
100
AcDbLine
10
8.194335
20
-6.201481
30
0
11
3.435407
21
-2.385735
31
0
39
0
210
0
220
0
230
1
0
LINE
5
9F
100
AcDbEntity
8
1
62
256
6
ByLayer
370
18
48
1
60
0
100
AcDbLine
10
14.059539
20
0.552581
30
0
11
13.03813
21
-0.724598
31
0
39
0
210
0
220
0
230
1
0
LINE
5
A0
100
AcDbEntity
8
1
62
256
6
ByLayer
370
18
48
1
60
0
100
AcDbLine
10
13.03813
20
-0.724598
30
0
11
12.822465
21
-0.977244
31
0
39
0
210
0
220
0
230
1
0
LINE
5
A1
100
AcDbEntity
8
1
62
256
6
ByLayer
370
18
48
1
60
0
100
AcDbLine
10
12.223504
20
-5.207231
30
0
11
12.956901
21
-4.290186
31
0
39
0
210
0
220
0
230
1
0
LINE
5
A2
100
AcDbEntity
8
1
62
256
6
ByLayer
370
18
48
1
60
0
100
AcDbLine
10
9.926288
20
-2.777744
30
0
11
9.680286
21
-3.065929
31
0
39
0
210
0
220
0
230
1
0
LINE
5
A3
100
AcDbEntity
8
1
62
256
6
ByLayer
370
18
48
1
60
0
100
AcDbLine
10
4.297211
20
2.65322
30
0
11
3.563814
21
1.736174
31
0
39
0
210
0
220
0
230
1
0
LINE
5
A4
100
AcDbEntity
8
1
62
256
6
ByLayer
370
18
48
1
60
0
100
AcDbLine
10
3.563814
20
1.736174
30
0
11
3.249718
21
1.368218
31
0
39
0
210
0
220
0
230
1
0
LINE
5
A5
100
AcDbEntity
8
1
62
256
6
ByLayer
370
18
48
1
60
0
100
AcDbLine
10
9.106562
20
-5.132829
30
0
11
8.194335
21
-6.201481
31
0
39
0
210
0
220
0
230
1
0
LINE
5
A6
100
AcDbEntity
8
1
62
256
6
ByLayer
370
18
48
1
60
0
100
AcDbLine
10
11.540045
20
-4.883589
30
0
11
15.445017
21
-0.000778
31
0
39
0
210
0
220
0
230
1
0
LINE
5
A7
100
AcDbEntity
8
1
62
256
6
ByLayer
370
18
48
1
60
0
100
AcDbLine
10
16.351104
20
8.796578
30
0
11
18.639409
21
11.705733
31
0
39
0
210
0
220
0
230
1
0
LINE
5
A8
100
AcDbEntity
8
1
62
256
6
ByLayer
370
18
48
1
60
0
100
AcDbLine
10
4.347634
20
-1.317084
30
0
11
9.106562
21
-5.132829
31
0
39
0
210
0
220
0
230
1
0
LINE
5
A9
100
AcDbEntity
8
1
62
256
6
ByLayer
370
18
48
1
60
0
100
AcDbLine
10
7.169762
20
6.217602
30
0
11
4.339427
21
2.678525
31
0
39
0
210
0
220
0
230
1
0
LINE
5
AA
100
AcDbEntity
8
1
62
256
6
ByLayer
370
18
48
1
60
0
100
AcDbLine
10
12.956901
20
-4.290186
30
0
11
12.973007
21
-4.243945
31
0
39
0
210
0
220
0
230
1
0
LINE
5
AB
100
AcDbEntity
8
1
62
256
6
ByLayer
370
18
48
1
60
0
100
AcDbLine
10
4.297211
20
2.65322
30
0
11
3.254913
21
1.374591
31
0
39
0
210
0
220
0
230
1
0
LINE
5
AC
100
AcDbEntity
8
1
62
256
6
ByLayer
370
18
48
1
60
0
100
AcDbLine
10
15.803342
20
-0.704868
30
0
11
12.973007
21
-4.243945
31
0
39
0
210
0
220
0
230
1
0
LINE
5
AD
100
AcDbEntity
8
1
62
256
6
ByLayer
370
18
48
1
60
0
100
AcDbLine
10
11.683291
20
-8.111646
30
0
11
12.766831
21
-7.815627
31
0
39
0
210
0
220
0
230
1
0
LINE
5
AE
100
AcDbEntity
8
1
62
256
6
ByLayer
370
18
48
1
60
0
100
AcDbLine
10
0
20
-9.9375
30
0
11
1.971389
21
-9.946102
31
0
39
0
210
0
220
0
230
1
0
LINE
5
AF
100
AcDbEntity
8
1
62
256
6
ByLayer
370
18
48
1
60
0
100
AcDbLine
10
10.051884
20
12.823538
30
0
11
10.150254
21
12.828694
31
0
39
0
210
0
220
0
230
1
0
LINE
5
B0
100
AcDbEntity
8
1
62
256
6
ByLayer
370
18
48
1
60
0
100
AcDbLine
10
12.801834
20
-7.806064
30
0
11
15.984733
21
-6.936506
31
0
39
0
210
0
220
0
230
1
0
LINE
5
B1
100
AcDbEntity
8
1
62
256
6
ByLayer
370
18
48
1
60
0
100
AcDbLine
10
10.051884
20
12.823538
30
0
11
2.802358
21
12.443607
31
0
39
0
210
0
220
0
230
1
0
LINE
5
B2
100
AcDbEntity
8
1
62
256
6
ByLayer
370
18
48
1
60
0
100
AcDbLine
10
20.477185
20
3.177034
30
0
11
20.363588
21
4.909724
31
0
39
0
210
0
220
0
230
1
0
LINE
5
B3
100
AcDbEntity
8
1
62
256
6
ByLayer
370
18
48
1
60
0
100
AcDbLine
10
1.788739
20
1.02432
30
0
11
3.765076
21
2.861308
31
0
39
0
210
0
220
0
230
1
0
LINE
5
B4
100
AcDbEntity
8
1
62
256
6
ByLayer
370
18
48
1
60
0
100
AcDbLine
10
19.512572
20
1.970158
30
0
11
20.477185
21
3.177034
31
0
39
0
210
0
220
0
230
1
0
LINE
5
B5
100
AcDbEntity
8
1
62
256
6
ByLayer
370
18
48
1
60
0
100
AcDbLine
10
0
20
-9.9375
30
0
11
0
21
9.9375
31
0
39
0
210
0
220
0
230
1
0
LINE
5
B6
100
AcDbEntity
8
1
62
256
6
ByLayer
370
18
48
1
60
0
100
AcDbLine
10
2.802358
20
12.443607
30
0
11
2.489722
21
12.427222
31
0
39
0
210
0
220
0
230
1
0
LINE
5
B7
100
AcDbEntity
8
1
62
256
6
ByLayer
370
18
48
1
60
0
100
AcDbLine
10
20.363588
20
4.909724
30
0
11
22.325054
21
8.882915
31
0
39
0
210
0
220
0
230
1
0
LINE
5
B8
100
AcDbEntity
8
1
62
256
6
ByLayer
370
18
48
1
60
0
100
AcDbLine
10
1.971389
20
-9.946102
30
0
11
0.920036
21
0.518415
31
0
39
0
210
0
220
0
230
1
0
LINE
5
B9
100
AcDbEntity
8
1
62
256
6
ByLayer
370
18
48
1
60
0
100
AcDbLine
10
12.766831
20
-7.815627
30
0
11
12.801834
21
-7.806064
31
0
39
0
210
0
220
0
230
1
0
LINE
5
BA
100
AcDbEntity
8
1
62
256
6
ByLayer
370
18
48
1
60
0
100
AcDbLine
10
10.150254
20
12.828694
30
0
11
11.495919
21
10.792978
31
0
39
0
210
0
220
0
230
1
0
LINE
5
BB
100
AcDbEntity
8
1
62
256
6
ByLayer
370
18
48
1
60
0
100
AcDbLine
10
22.884291
20
-5.051569
30
0
11
15.984733
21
-6.936506
31
0
39
0
210
0
220
0
230
1
0
LINE
5
BC
100
AcDbEntity
8
1
62
256
6
ByLayer
370
18
48
1
60
0
100
AcDbLine
10
4.973285
20
-9.944798
30
0
11
11.683291
21
-8.111646
31
0
39
0
210
0
220
0
230
1
0
LINE
5
BD
100
AcDbEntity
8
1
62
256
6
ByLayer
370
18
48
1
60
0
100
AcDbLine
10
22.884291
20
-5.051569
30
0
11
23.422986
21
7.910632
31
0
39
0
210
0
220
0
230
1
0
LINE
5
BE
100
AcDbEntity
8
1
62
256
6
ByLayer
370
18
48
1
60
0
100
AcDbLine
10
23.422986
20
7.910632
30
0
11
22.325054
21
8.882915
31
0
39
0
210
0
220
0
230
1
0
LINE
5
BF
100
AcDbEntity
8
1
62
256
6
ByLayer
370
18
48
1
60
0
100
AcDbLine
10
4.973285
20
-9.944798
30
0
11
1.971389
21
-9.946102
31
0
39
0
210
0
220
0
230
1
0
LINE
5
C0
100
AcDbEntity
8
1
62
256
6
ByLayer
370
18
48
1
60
0
100
AcDbLine
10
3.765076
20
2.861308
30
0
11
2.802358
21
12.443607
31
0
39
0
210
0
220
0
230
1
0
LINE
5
C1
100
AcDbEntity
8
1
62
256
6
ByLayer
370
18
48
1
60
0
100
AcDbLine
10
1.592831
20
1.143772
30
0
11
1.788739
21
1.02432
31
0
39
0
210
0
220
0
230
1
0
LINE
5
C2
100
AcDbEntity
8
1
62
256
6
ByLayer
370
18
48
1
60
0
100
AcDbLine
10
2.489722
20
12.427222
30
0
11
0
21
9.9375
31
0
39
0
210
0
220
0
230
1
0
LINE
5
C3
100
AcDbEntity
8
1
62
256
6
ByLayer
370
18
48
1
60
0
100
AcDbLine
10
18.278895
20
0.69731
30
0
11
18.080292
21
0.686467
31
0
39
0
210
0
220
0
230
1
0
LINE
5
C4
100
AcDbEntity
8
1
62
256
6
ByLayer
370
18
48
1
60
0
100
AcDbLine
10
19.348863
20
1.945637
30
0
11
19.512572
21
1.970158
31
0
39
0
210
0
220
0
230
1
0
LINE
5
C5
100
AcDbEntity
8
SK1
62
256
6
ByLayer
370
18
48
1
60
0
100
AcDbLine
10
0
20
9.9375
30
0
11
-101.450566
21
9.9375
31
0
39
0
210
0
220
0
230
1
0
LINE
5
C7
100
AcDbEntity
8
SK1
62
256
6
ByLayer
370
18
48
1
60
0
100
AcDbLine
10
-101.450566
20
9.9375
30
0
11
-101.450566
21
-9.9375
31
0
39
0
210
0
220
0
230
1
0
LINE
5
C8
100
AcDbEntity
8
SK1
62
256
6
ByLayer
370
18
48
1
60
0
100
AcDbLine
10
0
20
9.9375
30
0
11
0
21
-9.9375
31
0
39
0
210
0
220
0
230
1
0
LINE
5
C9
100
AcDbEntity
8
SK1
62
256
6
ByLayer
370
18
48
1
60
0
100
AcDbLine
10
-101.450566
20
-9.9375
30
0
11
0
21
-9.9375
31
0
39
0
210
0
220
0
230
1
0
LINE
5
CA
100
AcDbEntity
8
1
62
256
6
ByLayer
370
18
48
1
60
0
100
AcDbLine
10
24.059174
20
15.411395
30
0
11
10.405933
21
14.695859
31
0
39
0
210
0
220
0
230
1
0
LINE
5
CB
100
AcDbEntity
8
1
62
256
6
ByLayer
370
18
48
1
60
0
100
AcDbLine
10
18.739302
20
2.089183
30
0
11
24.817013
21
14.26494
31
0
39
0
210
0
220
0
230
1
0
LINE
5
CC
100
AcDbEntity
8
1
62
256
6
ByLayer
370
18
48
1
60
0
100
AcDbLine
10
9.797932
20
13.477823
30
0
11
9.32965
21
12.957743
31
0
39
0
210
0
220
0
230
1
0
LINE
5
CD
100
AcDbEntity
8
1
62
256
6
ByLayer
370
18
48
1
60
0
100
AcDbLine
10
11.899617
20
2.028948
30
0
11
11.771066
21
1.886178
31
0
39
0
210
0
220
0
230
1
0
LINE
5
CE
100
AcDbEntity
8
1
62
256
6
ByLayer
370
18
48
1
60
0
100
AcDbLine
10
10.625789
20
2.80447
30
0
11
10.75434
21
2.94724
31
0
39
0
210
0
220
0
230
1
0
LINE
5
CF
100
AcDbEntity
8
1
62
256
6
ByLayer
370
18
48
1
60
0
100
AcDbLine
10
11.694343
20
2.565292
30
0
11
11.827154
21
2.712794
31
0
39
0
210
0
220
0
230
1
0
LINE
5
D0
100
AcDbEntity
8
1
62
256
6
ByLayer
370
18
48
1
60
0
100
AcDbLine
10
11.495821
20
2.582667
30
0
11
11.624372
21
2.725437
31
0
39
0
210
0
220
0
230
1
0
LINE
5
D1
100
AcDbEntity
8
1
62
256
6
ByLayer
370
18
48
1
60
0
100
AcDbLine
10
11.015104
20
0.918645
30
0
11
11.147915
21
1.066147
31
0
39
0
210
0
220
0
230
1
0
LINE
5
D2
100
AcDbEntity
8
1
62
256
6
ByLayer
370
18
48
1
60
0
100
AcDbLine
10
11.493275
20
2.830552
30
0
11
11.364724
21
2.687782
31
0
39
0
210
0
220
0
230
1
0
LINE
5
D3
100
AcDbEntity
8
1
62
256
6
ByLayer
370
18
48
1
60
0
100
AcDbLine
10
11.746707
20
1.721199
30
0
11
11.875258
21
1.863969
31
0
39
0
210
0
220
0
230
1
0
LINE
5
D4
100
AcDbEntity
8
1
62
256
6
ByLayer
370
18
48
1
60
0
100
AcDbLine
10
11.304395
20
2.877955
30
0
11
11.437207
21
3.025457
31
0
39
0
210
0
220
0
230
1
0
LINE
5
D5
100
AcDbEntity
8
1
62
256
6
ByLayer
370
18
48
1
60
0
100
AcDbLine
10
10.598884
20
2.887376
30
0
11
10.470333
21
2.744606
31
0
39
0
210
0
220
0
230
1
0
LINE
5
D6
100
AcDbEntity
8
1
62
256
6
ByLayer
370
18
48
1
60
0
100
AcDbLine
10
11.832771
20
1.540936
30
0
11
11.965583
21
1.688438
31
0
39
0
210
0
220
0
230
1
0
LINE
5
D7
100
AcDbEntity
8
1
62
256
6
ByLayer
370
18
48
1
60
0
100
AcDbLine
10
10.275843
20
2.789293
30
0
11
10.408655
21
2.936795
31
0
39
0
210
0
220
0
230
1
0
MTEXT
5
168
100
AcDbEntity
8
SK6
62
256
6
ByLayer
370
18
48
1
60
0
100
AcDbMText
10
-52.400566
20
-20.816801
30
0
210
0
220
0
230
1
1
\W0.7632;DTJNR 2020K 16
40
3.5
41
0
44
1.084337
50
0
71
7
72
5
7
iso_b_vert
0
DIMENSION
5
179
100
AcDbEntity
8
2
62
256
6
ByLayer
370
13
48
1
60
0
100
AcDbDimension
2
DimnDraft3D1
10
23.065513
20
15.359076
30
0
11
6.456299
21
32.957069
31
0
70
34
71
5
72
1
41
1
210
0
220
0
230
1
3
Standard
100
AcDb2LineAngularDimension
13
24.899434
23
15.4125
33
0
14
24.899434
24
13.825
34
0
15
24.064142
25
15.411412
35
0
16
9.720484
26
29.859474
36
0
40
0
0
DIMENSION
5
18F
100
AcDbEntity
8
SK2
62
256
6
ByLayer
370
13
48
1
60
0
100
AcDbDimension
2
DimnDraft3D2
10
-109.200566
20
9.9375
30
0
11
-109.200566
21
-5.281579
31
0
70
32
71
5
72
1
41
1
210
0
220
0
230
1
3
Standard
100
AcDbAlignedDimension
13
-103.450566
23
-9.9375
33
0
14
-103.450566
24
9.9375
34
0
50
90
100
AcDbRotatedDimension
1001
ACAD
1000
DSTYLE
1002
{
1070
    74
1070
     0
1070
   279
1070
     0
1070
   172
1070
     1
1070
   173
1070
     1
1070
   340
1005
169
1070
    77
1070
     1
1070
    73
1070
     0
1070
   171
1070
     3
1070
   274
1070
     4
1070
   177
1070
     2
1070
   176
1070
     2
1070
   178
1070
     7
1070
    78
1070
     8
1070
    41
1041
3.175
1070
   147
1041
2.25
1070
    42
1041
2.0
1070
    44
1041
2.0
1070
   140
1041
4.5
1070
   343
1005
17A
1070
   344
1005
17A
1002
}
0
DIMENSION
5
19D
100
AcDbEntity
8
2
62
256
6
ByLayer
370
13
48
1
60
0
100
AcDbDimension
2
DimnDraft3D3
10
47.149434
20
15.4125
30
0
11
47.149434
21
-2.544079
31
0
70
32
71
5
72
1
41
1
210
0
220
0
230
1
3
Standard
100
AcDbAlignedDimension
13
2
23
-9.9375
33
0
14
26.899434
24
15.4125
34
0
50
90
100
AcDbRotatedDimension
1001
ACAD
1000
DSTYLE
1002
{
1070
    74
1070
     0
1070
   279
1070
     0
1070
   172
1070
     1
1070
   173
1070
     1
1070
   340
1005
169
1070
    77
1070
     1
1070
    73
1070
     0
1070
   171
1070
     3
1070
   274
1070
     4
1070
   177
1070
     2
1070
   176
1070
     2
1070
   178
1070
     7
1070
    78
1070
     8
1070
    41
1041
3.175
1070
   147
1041
2.25
1070
    42
1041
2.0
1070
    44
1041
2.0
1070
   140
1041
4.5
1070
   343
1005
17A
1070
   344
1005
17A
1002
}
0
DIMENSION
5
1AB
100
AcDbEntity
8
2
62
256
6
ByLayer
370
13
48
1
60
0
100
AcDbDimension
2
DimnDraft3D4
10
24.899434
20
45.1625
30
0
11
6.931296
21
45.1625
31
0
70
32
71
5
72
1
41
1
210
0
220
0
230
1
3
Standard
100
AcDbAlignedDimension
13
0
23
11.9375
33
0
14
24.899434
24
17.4125
34
0
50
0
100
AcDbRotatedDimension
1001
ACAD
1000
DSTYLE
1002
{
1070
   279
1070
     0
1070
   172
1070
     1
1070
   173
1070
     1
1070
   340
1005
169
1070
    77
1070
     1
1070
    73
1070
     0
1070
   171
1070
     3
1070
   274
1070
     4
1070
   177
1070
     2
1070
   176
1070
     2
1070
   178
1070
     7
1070
    78
1070
     8
1070
    41
1041
3.175
1070
   147
1041
2.25
1070
    42
1041
2.0
1070
    44
1041
2.0
1070
   140
1041
4.5
1070
   343
1005
17A
1070
   344
1005
17A
1002
}
0
DIMENSION
5
1B9
100
AcDbEntity
8
SK2
62
256
6
ByLayer
370
13
48
1
60
0
100
AcDbDimension
2
DimnDraft3D5
10
-101.450566
20
55.1625
30
0
11
-44.676224
21
55.1625
31
0
70
32
71
5
72
1
41
1
210
0
220
0
230
1
3
Standard
100
AcDbAlignedDimension
13
24.899434
23
17.4125
33
0
14
-101.450566
24
11.9375
34
0
50
0
100
AcDbRotatedDimension
1001
ACAD
1000
DSTYLE
1002
{
1070
   279
1070
     0
1070
   172
1070
     1
1070
   173
1070
     1
1070
   340
1005
169
1070
    77
1070
     1
1070
    73
1070
     0
1070
   171
1070
     3
1070
   274
1070
     4
1070
   177
1070
     2
1070
   176
1070
     2
1070
   178
1070
     7
1070
    78
1070
     8
1070
    41
1041
3.175
1070
   147
1041
2.25
1070
    42
1041
2.0
1070
    44
1041
2.0
1070
   140
1041
4.5
1070
   343
1005
17A
1070
   344
1005
17A
1002
}
0
ENDSEC
0
SECTION
2
OBJECTS
0
DICTIONARY
5
223
330
0
100
AcDbDictionary
280
0
281
1
3
ACAD_GROUP
350
224
3
ACAD_MLINESTYLE
350
225
0
DICTIONARY
5
224
330
0
100
AcDbDictionary
280
0
281
1
0
DICTIONARY
5
225
330
0
100
AcDbDictionary
280
0
281
1
3
Standard
350
18
0
MLINESTYLE
5
18
330
225
100
AcDbMlineStyle
2
Standard
70
0
3

62
256
51
90
52
90
71
2
49
-0.5
62
256
6
ByLayer
49
0.5
62
256
6
ByLayer
0
RASTERVARIABLES
5
212
330

100
AcDbRasterVariables
90
0
70
1
71
1
72
1
0
ENDSEC
0
EOF
