0
SECTION
2
HEADER
9
$ACADVER
1
AC1015
9
$DWGCODEPAGE
3
ANSI_1252
9
$HANDSEED
5
227
9
$ANGBASE
50
0
9
$ANGDIR
70
0
9
$ATTMODE
70
1
9
$AUNITS
70
0
9
$AUPREC
70
0
9
$CECOLOR
62
256
9
$CELTSCALE
40
1
9
$CELTYPE
6
ByLayer
9
$CELWEIGHT
370
18
9
$CLAYER
8
0
9
$CMLJUST
70
0
9
$CMLSCALE
40
1
9
$CMLSTYLE
2
Standard
9
$DIMSTYLE
2
Standard
9
$TEXTSIZE
40
0.2
9
$TEXTSTYLE
7
Standard
9
$LUNITS
70
2
9
$LUPREC
70
4
9
$EXTNAMES
290
1
9
$INSUNITS
70
4
9
$LTSCALE
40
1
9
$LWDISPLAY
290
1
9
$PDMODE
70
0
9
$PDSIZE
40
0
9
$PLINEGEN
70
0
0
ENDSEC
0
SECTION
2
CLASSES
0
CLASS
1
RASTERVARIABLES
2
AcDbRasterVariables
3
ISM
90
0
280
0
281
0
0
ENDSEC
0
SECTION
2
TABLES
0
TABLE
2
VPORT
5
21d
100
AcDbSymbolTable
0
VPORT
5
1
100
AcDbSymbolTableRecord
100
AcDbViewportTableRecord
2
*Active
70
0
10
0
20
0
11
1
21
1
12
-1
22
1
13
0
23
0
14
0.5
24
0.5
15
10
25
10
16
0
26
0
36
1
17
0
27
0
37
0
0
ENDTAB
0
TABLE
2
LTYPE
5
21e
100
AcDbSymbolTable
0
LTYPE
5
14
100
AcDbSymbolTableRecord
100
AcDbLinetypeTableRecord
70
0
2
ByBlock
3

72
65
73
0
40
0
0
LTYPE
5
15
100
AcDbSymbolTableRecord
100
AcDbLinetypeTableRecord
70
0
2
ByLayer
3

72
65
73
0
40
0
0
LTYPE
5
16
100
AcDbSymbolTableRecord
100
AcDbLinetypeTableRecord
70
0
2
CONTINUOUS
3
Solid line
72
65
73
0
40
0
0
LTYPE
5
6A
100
AcDbSymbolTableRecord
100
AcDbLinetypeTableRecord
70
0
2
CENTER
3
____ _ ____ _ ____ _ ____
72
65
73
4
40
47.5
49
22
74
0
49
-8.5
74
0
49
8.5
74
0
49
-8.5
74
0
0
LTYPE
5
6B
100
AcDbSymbolTableRecord
100
AcDbLinetypeTableRecord
70
0
2
DASHED
3
__ __ __ __ __ __ __ __ __
72
65
73
2
40
25.72
49
12.86
74
0
49
-12.86
74
0
0
ENDTAB
0
TABLE
2
LAYER
5
21f
100
AcDbSymbolTable
0
LAYER
5
10
100
AcDbSymbolTableRecord
100
AcDbLayerTableRecord
2
0
70
0
62
7
6
CONTINUOUS
290
1
370
-3
390
0
0
LAYER
5
6D
100
AcDbSymbolTableRecord
100
AcDbLayerTableRecord
2
2
70
0
62
7
6
CONTINUOUS
290
1
370
-3
390
0
0
LAYER
5
6F
100
AcDbSymbolTableRecord
100
AcDbLayerTableRecord
2
80
70
0
62
-6
6
CONTINUOUS
290
1
370
-3
390
0
0
LAYER
5
71
100
AcDbSymbolTableRecord
100
AcDbLayerTableRecord
2
81
70
0
62
-3
6
CONTINUOUS
290
1
370
-3
390
0
0
LAYER
5
73
100
AcDbSymbolTableRecord
100
AcDbLayerTableRecord
2
1
70
0
62
4
6
CONTINUOUS
290
1
370
-3
390
0
0
LAYER
5
20a
100
AcDbSymbolTableRecord
100
AcDbLayerTableRecord
2
SK1
70
0
62
4
6
CONTINUOUS
290
1
370
-3
390
0
0
LAYER
5
20b
100
AcDbSymbolTableRecord
100
AcDbLayerTableRecord
2
SK6
70
0
62
5
6
CONTINUOUS
290
1
370
-3
390
0
0
LAYER
5
20c
100
AcDbSymbolTableRecord
100
AcDbLayerTableRecord
2
SK2
70
0
62
7
6
CONTINUOUS
290
1
370
-3
390
0
0
ENDTAB
0
TABLE
2
STYLE
5
220
100
AcDbSymbolTable
0
STYLE
5
11
100
AcDbSymbolTableRecord
100
AcDbTextStyleTableRecord
2
Standard
3
txt
70
0
71
0
40
0
41
1
42
0
50
0
0
STYLE
5
160
100
AcDbSymbolTableRecord
100
AcDbTextStyleTableRecord
2
iso_b_vert
3
simplex.shx
70
0
71
0
40
0
41
1
42
0
50
0
0
STYLE
5
161
100
AcDbSymbolTableRecord
100
AcDbTextStyleTableRecord
2
DWGDirectTextStyle
3
simplex
70
0
71
0
40
0
41
1
42
0
50
0
0
ENDTAB
0
TABLE
2
DIMSTYLE
5
221
100
AcDbSymbolTable
100
AcDbDimStyleTable
0
DIMSTYLE
105
27
100
AcDbSymbolTableRecord
100
AcDbDimStyleTableRecord
2
Standard
70
0
3
<>
41
0.18
42
0.0625
44
0.18
140
0.18
147
0.09
73
0
74
0
77
1
271
2
275
0
278
52
280
0
340
11
0
ENDTAB
0
TABLE
2
VIEW
5
222
100
AcDbSymbolTable
0
ENDTAB
0
TABLE
2
UCS
5
223
100
AcDbSymbolTable
0
ENDTAB
0
TABLE
2
APPID
5
224
100
AcDbSymbolTable
0
APPID
5
12
100
AcDbSymbolTableRecord
100
AcDbRegAppTableRecord
2
ACAD
70
0
0
ENDTAB
0
TABLE
2
BLOCK_RECORD
5
225
100
AcDbSymbolTable
0
BLOCK_RECORD
5
1F
100
AcDbSymbolTableRecord
100
AcDbBlockTableRecord
2
*Model_Space
340
0
70
0
0
BLOCK_RECORD
5
1B
100
AcDbSymbolTableRecord
100
AcDbBlockTableRecord
2
*Paper_Space
340
0
70
0
0
BLOCK_RECORD
5
23
100
AcDbSymbolTableRecord
100
AcDbBlockTableRecord
2
*Paper_Space0
340
0
70
0
0
BLOCK_RECORD
5
163
100
AcDbSymbolTableRecord
100
AcDbBlockTableRecord
2
DimnDraft3D1
340
0
70
0
0
BLOCK_RECORD
5
171
100
AcDbSymbolTableRecord
100
AcDbBlockTableRecord
2
_CLOSED
340
0
70
0
0
BLOCK_RECORD
5
178
100
AcDbSymbolTableRecord
100
AcDbBlockTableRecord
2
DimnDraft3D2
340
0
70
0
0
BLOCK_RECORD
5
187
100
AcDbSymbolTableRecord
100
AcDbBlockTableRecord
2
DimnDraft3D3
340
0
70
0
0
BLOCK_RECORD
5
195
100
AcDbSymbolTableRecord
100
AcDbBlockTableRecord
2
DimnDraft3D4
340
0
70
0
0
BLOCK_RECORD
5
1A3
100
AcDbSymbolTableRecord
100
AcDbBlockTableRecord
2
DimnDraft3D5
340
0
70
0
0
ENDTAB
0
ENDSEC
0
SECTION
2
BLOCKS
0
BLOCK
5
20
100
AcDbEntity
8
0
100
AcDbBlockBegin
2
*Model_Space
70
0
10
0
20
0
30
0
3
*Model_Space
0
ENDBLK
5
21
100
AcDbEntity
8
0
100
AcDbBlockEnd
0
BLOCK
5
1C
100
AcDbEntity
8
0
100
AcDbBlockBegin
2
*Paper_Space
70
0
10
0
20
0
30
0
3
*Paper_Space
0
ENDBLK
5
1D
100
AcDbEntity
8
0
100
AcDbBlockEnd
0
BLOCK
5
24
100
AcDbEntity
8
0
100
AcDbBlockBegin
2
*Paper_Space0
70
0
10
0
20
0
30
0
3
*Paper_Space0
0
ENDBLK
5
25
100
AcDbEntity
8
0
100
AcDbBlockEnd
0
BLOCK
5
16E
100
AcDbEntity
8
0
100
AcDbBlockBegin
2
DimnDraft3D1
70
0
10
0
20
0
30
0
3
DimnDraft3D1
0
MTEXT
5
164
100
AcDbEntity
8
2
62
256
6
ByLayer
370
18
48
1
60
0
100
AcDbMText
10
6.895077
20
25.516447
30
0
210
0
220
0
230
1
1
\W0.7399;93%%d
40
4.5
41
0
44
1.084337
50
46.5000000000005
71
7
72
5
7
iso_b_vert
0
LINE
5
165
100
AcDbEntity
8
2
62
256
6
ByLayer
370
13
48
1
60
0
100
AcDbLine
10
24.899434
20
14.4125
30
0
11
24.899434
21
35.380865
31
0
39
0
210
0
220
0
230
1
0
LINE
5
166
100
AcDbEntity
8
2
62
256
6
ByLayer
370
13
48
1
60
0
100
AcDbLine
10
21.068254
20
12.254404
30
0
11
2.005176
21
11.255351
31
0
39
0
210
0
220
0
230
1
0
ARC
5
167
100
AcDbEntity
8
2
62
256
6
ByLayer
370
13
48
1
60
0
100
AcDbCircle
39
0
10
24.899434
20
12.455188
30
0
40
20.9256770833572
210
0
220
0
230
1
100
AcDbArc
50
90
51
183
0
LINE
5
168
100
AcDbEntity
8
2
62
256
6
ByLayer
370
13
48
1
60
0
100
AcDbLine
10
24.899434
20
33.380865
30
0
11
21.742532
21
32.842993
31
0
39
0
210
0
220
0
230
1
0
LINE
5
169
100
AcDbEntity
8
2
62
256
6
ByLayer
370
13
48
1
60
0
100
AcDbLine
10
24.899434
20
33.380865
30
0
11
21.710886
21
33.678387
31
0
39
0
210
0
220
0
230
1
0
LINE
5
16A
100
AcDbEntity
8
2
62
256
6
ByLayer
370
13
48
1
60
0
100
AcDbLine
10
21.742532
20
32.842993
30
0
11
21.710886
21
33.678387
31
0
39
0
210
0
220
0
230
1
0
LINE
5
16B
100
AcDbEntity
8
2
62
256
6
ByLayer
370
13
48
1
60
0
100
AcDbLine
10
4.002435
20
11.360023
30
0
11
3.538445
21
14.528626
31
0
39
0
210
0
220
0
230
1
0
LINE
5
16C
100
AcDbEntity
8
2
62
256
6
ByLayer
370
13
48
1
60
0
100
AcDbLine
10
4.002435
20
11.360023
30
0
11
4.37435
21
14.540751
31
0
39
0
210
0
220
0
230
1
0
LINE
5
16D
100
AcDbEntity
8
2
62
256
6
ByLayer
370
13
48
1
60
0
100
AcDbLine
10
3.538445
20
14.528626
30
0
11
4.37435
21
14.540751
31
0
39
0
210
0
220
0
230
1
0
ENDBLK
5
16F
100
AcDbEntity
8
0
100
AcDbBlockEnd
0
BLOCK
5
172
100
AcDbEntity
8
0
100
AcDbBlockBegin
2
_CLOSED
70
0
10
0
20
0
30
0
3
_CLOSED
0
LINE
5
174
100
AcDbEntity
8
0
62
256
6
ByLayer
370
-2
48
1
60
0
100
AcDbLine
10
-1
20
0.166667
30
0
11
0
21
0
31
0
39
0
210
0
220
0
230
1
0
LINE
5
175
100
AcDbEntity
8
0
62
256
6
ByLayer
370
-2
48
1
60
0
100
AcDbLine
10
0
20
0
30
0
11
-1
21
-0.166667
31
0
39
0
210
0
220
0
230
1
0
LINE
5
176
100
AcDbEntity
8
0
62
256
6
ByLayer
370
-2
48
1
60
0
100
AcDbLine
10
-1
20
0.166667
30
0
11
-1
21
-0.166667
31
0
39
0
210
0
220
0
230
1
0
LINE
5
177
100
AcDbEntity
8
0
62
256
6
ByLayer
370
-2
48
1
60
0
100
AcDbLine
10
0
20
0
30
0
11
-1
21
0
31
0
39
0
210
0
220
0
230
1
0
ENDBLK
5
173
100
AcDbEntity
8
0
100
AcDbBlockEnd
0
BLOCK
5
184
100
AcDbEntity
8
0
100
AcDbBlockBegin
2
DimnDraft3D2
70
0
10
0
20
0
30
0
3
DimnDraft3D2
0
MTEXT
5
179
100
AcDbEntity
8
SK2
62
256
6
ByLayer
370
18
48
1
60
0
100
AcDbMText
10
-85.325566
20
-3.594079
30
0
210
0
220
0
230
1
1
\W0.6563;16.0
40
4.5
41
0
44
1.084337
50
90
71
7
72
5
7
iso_b_vert
0
LINE
5
17B
100
AcDbEntity
8
SK2
62
256
6
ByLayer
370
13
48
1
60
0
100
AcDbLine
10
-78.450566
20
-7.9375
30
0
11
-86.200566
21
-7.9375
31
0
39
0
210
0
220
0
230
1
0
LINE
5
17C
100
AcDbEntity
8
SK2
62
256
6
ByLayer
370
13
48
1
60
0
100
AcDbLine
10
-78.450566
20
7.9375
30
0
11
-86.200566
21
7.9375
31
0
39
0
210
0
220
0
230
1
0
LINE
5
17D
100
AcDbEntity
8
SK2
62
256
6
ByLayer
370
13
48
1
60
0
100
AcDbLine
10
-84.200566
20
-19.1875
30
0
11
-84.200566
21
19.1875
31
0
39
0
210
0
220
0
230
1
0
LINE
5
17E
100
AcDbEntity
8
SK2
62
256
6
ByLayer
370
13
48
1
60
0
100
AcDbLine
10
-84.200566
20
-7.9375
30
0
11
-83.782569
21
-11.112498
31
0
39
0
210
0
220
0
230
1
0
LINE
5
17F
100
AcDbEntity
8
SK2
62
256
6
ByLayer
370
13
48
1
60
0
100
AcDbLine
10
-84.200566
20
-7.9375
30
0
11
-84.618563
21
-11.112502
31
0
39
0
210
0
220
0
230
1
0
LINE
5
180
100
AcDbEntity
8
SK2
62
256
6
ByLayer
370
13
48
1
60
0
100
AcDbLine
10
-83.782569
20
-11.112498
30
0
11
-84.618563
21
-11.112502
31
0
39
0
210
0
220
0
230
1
0
LINE
5
181
100
AcDbEntity
8
SK2
62
256
6
ByLayer
370
13
48
1
60
0
100
AcDbLine
10
-84.200566
20
7.9375
30
0
11
-84.618563
21
11.112498
31
0
39
0
210
0
220
0
230
1
0
LINE
5
182
100
AcDbEntity
8
SK2
62
256
6
ByLayer
370
13
48
1
60
0
100
AcDbLine
10
-84.200566
20
7.9375
30
0
11
-83.782569
21
11.112502
31
0
39
0
210
0
220
0
230
1
0
LINE
5
183
100
AcDbEntity
8
SK2
62
256
6
ByLayer
370
13
48
1
60
0
100
AcDbLine
10
-84.618563
20
11.112498
30
0
11
-83.782569
21
11.112502
31
0
39
0
210
0
220
0
230
1
0
ENDBLK
5
185
100
AcDbEntity
8
0
100
AcDbBlockEnd
0
BLOCK
5
192
100
AcDbEntity
8
0
100
AcDbBlockBegin
2
DimnDraft3D3
70
0
10
0
20
0
30
0
3
DimnDraft3D3
0
MTEXT
5
188
100
AcDbEntity
8
2
62
256
6
ByLayer
370
18
48
1
60
0
100
AcDbMText
10
46.024434
20
-1.919079
30
0
210
0
220
0
230
1
1
\W0.7346;20.0
40
4.5
41
0
44
1.084337
50
90
71
7
72
5
7
iso_b_vert
0
LINE
5
189
100
AcDbEntity
8
2
62
256
6
ByLayer
370
13
48
1
60
0
100
AcDbLine
10
2
20
-7.9375
30
0
11
49.149434
21
-7.9375
31
0
39
0
210
0
220
0
230
1
0
LINE
5
18A
100
AcDbEntity
8
2
62
256
6
ByLayer
370
13
48
1
60
0
100
AcDbLine
10
26.899434
20
12.4125
30
0
11
49.149434
21
12.4125
31
0
39
0
210
0
220
0
230
1
0
LINE
5
18B
100
AcDbEntity
8
2
62
256
6
ByLayer
370
13
48
1
60
0
100
AcDbLine
10
47.149434
20
-19.1875
30
0
11
47.149434
21
23.6625
31
0
39
0
210
0
220
0
230
1
0
LINE
5
18C
100
AcDbEntity
8
2
62
256
6
ByLayer
370
13
48
1
60
0
100
AcDbLine
10
47.149434
20
-7.9375
30
0
11
47.567431
21
-11.112498
31
0
39
0
210
0
220
0
230
1
0
LINE
5
18D
100
AcDbEntity
8
2
62
256
6
ByLayer
370
13
48
1
60
0
100
AcDbLine
10
47.149434
20
-7.9375
30
0
11
46.731437
21
-11.112502
31
0
39
0
210
0
220
0
230
1
0
LINE
5
18E
100
AcDbEntity
8
2
62
256
6
ByLayer
370
13
48
1
60
0
100
AcDbLine
10
47.567431
20
-11.112498
30
0
11
46.731437
21
-11.112502
31
0
39
0
210
0
220
0
230
1
0
LINE
5
18F
100
AcDbEntity
8
2
62
256
6
ByLayer
370
13
48
1
60
0
100
AcDbLine
10
47.149434
20
12.4125
30
0
11
46.731437
21
15.587498
31
0
39
0
210
0
220
0
230
1
0
LINE
5
190
100
AcDbEntity
8
2
62
256
6
ByLayer
370
13
48
1
60
0
100
AcDbLine
10
47.149434
20
12.4125
30
0
11
47.567431
21
15.587502
31
0
39
0
210
0
220
0
230
1
0
LINE
5
191
100
AcDbEntity
8
2
62
256
6
ByLayer
370
13
48
1
60
0
100
AcDbLine
10
46.731437
20
15.587498
30
0
11
47.567431
21
15.587502
31
0
39
0
210
0
220
0
230
1
0
ENDBLK
5
193
100
AcDbEntity
8
0
100
AcDbBlockEnd
0
BLOCK
5
1A0
100
AcDbEntity
8
0
100
AcDbBlockBegin
2
DimnDraft3D4
70
0
10
0
20
0
30
0
3
DimnDraft3D4
0
MTEXT
5
196
100
AcDbEntity
8
2
62
256
6
ByLayer
370
18
48
1
60
0
100
AcDbMText
10
8.056296
20
43.2875
30
0
210
0
220
0
230
1
1
\W0.7756;24.9
40
4.5
41
0
44
1.084337
50
0
71
7
72
5
7
iso_b_vert
0
LINE
5
197
100
AcDbEntity
8
2
62
256
6
ByLayer
370
13
48
1
60
0
100
AcDbLine
10
0
20
9.9375
30
0
11
0
21
44.1625
31
0
39
0
210
0
220
0
230
1
0
LINE
5
198
100
AcDbEntity
8
2
62
256
6
ByLayer
370
13
48
1
60
0
100
AcDbLine
10
24.899434
20
14.4125
30
0
11
24.899434
21
44.1625
31
0
39
0
210
0
220
0
230
1
0
LINE
5
199
100
AcDbEntity
8
2
62
256
6
ByLayer
370
13
48
1
60
0
100
AcDbLine
10
0
20
42.1625
30
0
11
24.899434
21
42.1625
31
0
39
0
210
0
220
0
230
1
0
LINE
5
19A
100
AcDbEntity
8
2
62
256
6
ByLayer
370
13
48
1
60
0
100
AcDbLine
10
0
20
42.1625
30
0
11
3.174998
21
42.580497
31
0
39
0
210
0
220
0
230
1
0
LINE
5
19B
100
AcDbEntity
8
2
62
256
6
ByLayer
370
13
48
1
60
0
100
AcDbLine
10
0
20
42.1625
30
0
11
3.175002
21
41.744503
31
0
39
0
210
0
220
0
230
1
0
LINE
5
19C
100
AcDbEntity
8
2
62
256
6
ByLayer
370
13
48
1
60
0
100
AcDbLine
10
3.174998
20
42.580497
30
0
11
3.175002
21
41.744503
31
0
39
0
210
0
220
0
230
1
0
LINE
5
19D
100
AcDbEntity
8
2
62
256
6
ByLayer
370
13
48
1
60
0
100
AcDbLine
10
24.899434
20
42.1625
30
0
11
21.724436
21
41.744503
31
0
39
0
210
0
220
0
230
1
0
LINE
5
19E
100
AcDbEntity
8
2
62
256
6
ByLayer
370
13
48
1
60
0
100
AcDbLine
10
24.899434
20
42.1625
30
0
11
21.724432
21
42.580497
31
0
39
0
210
0
220
0
230
1
0
LINE
5
19F
100
AcDbEntity
8
2
62
256
6
ByLayer
370
13
48
1
60
0
100
AcDbLine
10
21.724436
20
41.744503
30
0
11
21.724432
21
42.580497
31
0
39
0
210
0
220
0
230
1
0
ENDBLK
5
1A1
100
AcDbEntity
8
0
100
AcDbBlockEnd
0
BLOCK
5
1AE
100
AcDbEntity
8
0
100
AcDbBlockBegin
2
DimnDraft3D5
70
0
10
0
20
0
30
0
3
DimnDraft3D5
0
MTEXT
5
1A4
100
AcDbEntity
8
SK2
62
256
6
ByLayer
370
18
48
1
60
0
100
AcDbMText
10
-31.051224
20
53.2875
30
0
210
0
220
0
230
1
1
\W0.6864;100.0
40
4.5
41
0
44
1.084337
50
0
71
7
72
5
7
iso_b_vert
0
LINE
5
1A5
100
AcDbEntity
8
SK2
62
256
6
ByLayer
370
13
48
1
60
0
100
AcDbLine
10
24.899434
20
14.4125
30
0
11
24.899434
21
54.1625
31
0
39
0
210
0
220
0
230
1
0
LINE
5
1A6
100
AcDbEntity
8
SK2
62
256
6
ByLayer
370
13
48
1
60
0
100
AcDbLine
10
-76.450566
20
9.9375
30
0
11
-76.450566
21
54.1625
31
0
39
0
210
0
220
0
230
1
0
LINE
5
1A7
100
AcDbEntity
8
SK2
62
256
6
ByLayer
370
13
48
1
60
0
100
AcDbLine
10
24.899434
20
52.1625
30
0
11
-76.450566
21
52.1625
31
0
39
0
210
0
220
0
230
1
0
LINE
5
1A8
100
AcDbEntity
8
SK2
62
256
6
ByLayer
370
13
48
1
60
0
100
AcDbLine
10
24.899434
20
52.1625
30
0
11
21.724436
21
51.744503
31
0
39
0
210
0
220
0
230
1
0
LINE
5
1A9
100
AcDbEntity
8
SK2
62
256
6
ByLayer
370
13
48
1
60
0
100
AcDbLine
10
24.899434
20
52.1625
30
0
11
21.724432
21
52.580497
31
0
39
0
210
0
220
0
230
1
0
LINE
5
1AA
100
AcDbEntity
8
SK2
62
256
6
ByLayer
370
13
48
1
60
0
100
AcDbLine
10
21.724436
20
51.744503
30
0
11
21.724432
21
52.580497
31
0
39
0
210
0
220
0
230
1
0
LINE
5
1AB
100
AcDbEntity
8
SK2
62
256
6
ByLayer
370
13
48
1
60
0
100
AcDbLine
10
-76.450566
20
52.1625
30
0
11
-73.275568
21
52.580497
31
0
39
0
210
0
220
0
230
1
0
LINE
5
1AC
100
AcDbEntity
8
SK2
62
256
6
ByLayer
370
13
48
1
60
0
100
AcDbLine
10
-76.450566
20
52.1625
30
0
11
-73.275564
21
51.744503
31
0
39
0
210
0
220
0
230
1
0
LINE
5
1AD
100
AcDbEntity
8
SK2
62
256
6
ByLayer
370
13
48
1
60
0
100
AcDbLine
10
-73.275568
20
52.580497
30
0
11
-73.275564
21
51.744503
31
0
39
0
210
0
220
0
230
1
0
ENDBLK
5
1AF
100
AcDbEntity
8
0
100
AcDbBlockEnd
0
ENDSEC
0
SECTION
2
ENTITIES
0
ELLIPSE
5
D1
100
AcDbEntity
8
1
62
256
6
ByLayer
370
18
48
1
60
0
100
AcDbEllipse
10
12.020743
20
-7.942525
30
0
11
-2.24171979658923
21
1.99366304915849
31
0
210
0
220
0
230
1
40
0.986421
41
0.0200260445400424
42
0.0517566673072222
0
ELLIPSE
5
D2
100
AcDbEntity
8
1
62
256
6
ByLayer
370
18
48
1
60
0
100
AcDbEllipse
10
11.225346
20
-0.61041
30
0
11
-2.50325377285798
21
2.22625707156031
31
0
210
0
220
0
230
1
40
0.986421
41
-3.08983598628257
42
-0.067280209924431
0
ELLIPSE
5
D3
100
AcDbEntity
8
1
62
256
6
ByLayer
370
18
48
1
60
0
100
AcDbEllipse
10
17.92614
20
0.037758
30
0
11
1.78792724391633
21
-1.60985692133255
31
0
210
0
220
0
230
1
40
0.989133
41
-1.32969180628167
42
-0.777753293310924
0
ELLIPSE
5
D4
100
AcDbEntity
8
1
62
256
6
ByLayer
370
18
48
1
60
0
100
AcDbEllipse
10
17.343863
20
-0.818655
30
0
11
1.85656497275481
21
-1.67165860997013
31
0
210
0
220
0
230
1
40
0.989133
41
0.318294468885021
42
0.79304303348398
0
ELLIPSE
5
D5
100
AcDbEntity
8
1
62
256
6
ByLayer
370
18
48
1
60
0
100
AcDbEllipse
10
17.329107
20
-0.835044
30
0
11
1.7450932489332
21
-1.57128901901631
31
0
210
0
220
0
230
1
40
0.989133
41
0.208927718054257
42
0.793043033483987
0
ELLIPSE
5
D6
100
AcDbEntity
8
1
62
256
6
ByLayer
370
18
48
1
60
0
100
AcDbEllipse
10
10.737514
20
-1.999507
30
0
11
-0.21551199938844
21
0.194047875844073
31
0
210
0
220
0
230
1
40
0.989133
41
-2.78834531482259
42
-2.69101284290198
0
ELLIPSE
5
D7
100
AcDbEntity
8
1
62
256
6
ByLayer
370
18
48
1
60
0
100
AcDbEllipse
10
9.695571
20
-0.870486
30
0
11
0.234090620025379
21
-0.21077614100304
31
0
210
0
220
0
230
1
40
0.989133
41
-0.334933638525114
42
9.53575759550074E-07
0
ELLIPSE
5
D8
100
AcDbEntity
8
1
62
256
6
ByLayer
370
18
48
1
60
0
100
AcDbEllipse
10
11.316624
20
-2.170259
30
0
11
0.234090620025379
21
-0.21077614100304
31
0
210
0
220
0
230
1
40
0.989133
41
-3.14158319757522
42
-2.69101284290197
0
ELLIPSE
5
D9
100
AcDbEntity
8
1
62
256
6
ByLayer
370
18
48
1
60
0
100
AcDbEllipse
10
10.842243
20
-1.09524
30
0
11
0.668830342929655
21
-0.602217545722972
31
0
210
0
220
0
230
1
40
0.989133
41
0.0289350020261615
42
3.11260471708343
0
ELLIPSE
5
DA
100
AcDbEntity
8
1
62
256
6
ByLayer
370
18
48
1
60
0
100
AcDbEllipse
10
10.876675
20
-1.056998
30
0
11
0.668830342929655
21
-0.602217545722972
31
0
210
0
220
0
230
1
40
0.989133
41
2.76930898916642
42
-2.95593336389876
0
ELLIPSE
5
DB
100
AcDbEntity
8
1
62
256
6
ByLayer
370
18
48
1
60
0
100
AcDbEllipse
10
10.876675
20
-1.056998
30
0
11
0.668830342929655
21
-0.602217545722972
31
0
210
0
220
0
230
1
40
0.989133
41
-0.103319352981288
42
0.487929836586121
0
ELLIPSE
5
DC
100
AcDbEntity
8
1
62
256
6
ByLayer
370
18
48
1
60
0
100
AcDbEllipse
10
10.876675
20
-1.056998
30
0
11
0.668830342929655
21
-0.602217545722972
31
0
210
0
220
0
230
1
40
0.989133
41
-1.17333872682101
42
-0.559267714610472
0
ELLIPSE
5
DD
100
AcDbEntity
8
1
62
256
6
ByLayer
370
18
48
1
60
0
100
AcDbEllipse
10
10.876675
20
-1.056998
30
0
11
0.668830342929655
21
-0.602217545722972
31
0
210
0
220
0
230
1
40
0.989133
41
-2.44015990225833
42
-1.83315817791558
0
ELLIPSE
5
DE
100
AcDbEntity
8
1
62
256
6
ByLayer
370
18
48
1
60
0
100
AcDbEllipse
10
10.127729
20
-0.456488
30
0
11
-0.21551199938844
21
0.194047875844073
31
0
210
0
220
0
230
1
40
0.989133
41
-1.38213118972172
42
-0.353238143606405
0
ELLIPSE
5
DF
100
AcDbEntity
8
1
62
256
6
ByLayer
370
18
48
1
60
0
100
AcDbEllipse
10
10.802891
20
-1.138944
30
0
11
2.37806344152766
21
-2.14121794034834
31
0
210
0
220
0
230
1
40
0.989133
41
3.14156605715621
42
-0.843188182912961
0
ELLIPSE
5
E0
100
AcDbEntity
8
1
62
256
6
ByLayer
370
18
48
1
60
0
100
AcDbEllipse
10
10.802891
20
-1.138944
30
0
11
2.37806344152766
21
-2.14121794034834
31
0
210
0
220
0
230
1
40
0.989133
41
-0.84318818291295
42
-2.80605091687659E-16
0
ELLIPSE
5
E1
100
AcDbEntity
8
1
62
256
6
ByLayer
370
18
48
1
60
0
100
AcDbEllipse
10
11.625621
20
-1.657509
30
0
11
-0.21551199938844
21
0.194047875844073
31
0
210
0
220
0
230
1
40
0.989133
41
-2.78835510516432
42
-1.64381529170535
0
ELLIPSE
5
E2
100
AcDbEntity
8
1
62
256
6
ByLayer
370
18
48
1
60
0
100
AcDbEllipse
10
10.436726
20
0.056262
30
0
11
0.234090620025379
21
-0.21077614100304
31
0
210
0
220
0
230
1
40
0.989133
41
-0.195776035703198
42
1.0199418308789E-05
0
ELLIPSE
5
E3
100
AcDbEntity
8
1
62
256
6
ByLayer
370
18
48
1
60
0
100
AcDbEllipse
10
12.057779
20
-1.243511
30
0
11
0.234090620025379
21
-0.21077614100304
31
0
210
0
220
0
230
1
40
0.989133
41
3.14159241313836
42
-2.83017044572388
0
ELLIPSE
5
E4
100
AcDbEntity
8
1
62
256
6
ByLayer
370
18
48
1
60
0
100
AcDbEllipse
10
11.015836
20
-0.11449
30
0
11
-0.21551199938844
21
0.194047875844073
31
0
210
0
220
0
230
1
40
0.989133
41
-2.42932874091826
42
-0.353276286586855
0
ELLIPSE
5
E5
100
AcDbEntity
8
1
62
256
6
ByLayer
370
18
48
1
60
0
100
AcDbEllipse
10
11.764782
20
-0.715001
30
0
11
-0.21551199938844
21
0.194047875844073
31
0
210
0
220
0
230
1
40
0.989133
41
-2.78881233080573
42
-0.596617740508753
0
ELLIPSE
5
E6
100
AcDbEntity
8
1
62
256
6
ByLayer
370
18
48
1
60
0
100
AcDbEllipse
10
17.563126
20
-1.072605
30
0
11
0.590056991429052
21
-0.531289701448933
31
0
210
0
220
0
230
1
40
0.989133
41
-1.61285006103899
42
-2.75884038557852E-06
0
ELLIPSE
5
E7
100
AcDbEntity
8
1
62
256
6
ByLayer
370
18
48
1
60
0
100
AcDbEllipse
10
17.532136
20
7.326134
30
0
11
1.41569089253444
21
-1.27469380511362
31
0
210
0
220
0
230
1
40
0.989133
41
0.156431394340482
42
3.1018708787046
0
ELLIPSE
5
E8
100
AcDbEntity
8
1
62
256
6
ByLayer
370
18
48
1
60
0
100
AcDbEllipse
10
9.987597
20
10.387615
30
0
11
0.590056991429052
21
-0.531289701448933
31
0
210
0
220
0
230
1
40
0.989133
41
-3.1415616490443
42
-1.97936830383623
0
ELLIPSE
5
E9
100
AcDbEntity
8
1
62
256
6
ByLayer
370
18
48
1
60
0
100
AcDbEllipse
10
18.031409
20
-0.552525
30
0
11
-0.59005699142904
21
0.531289701448946
31
0
210
0
220
0
230
1
40
0.989133
41
1.31446014751733
42
-2.87433005726909
0
ELLIPSE
5
EA
100
AcDbEntity
8
1
62
256
6
ByLayer
370
18
48
1
60
0
100
AcDbEllipse
10
24.10912
20
11.623231
30
0
11
-0.59005699142904
21
0.531289701448946
31
0
210
0
220
0
230
1
40
0.989133
41
-2.87433005726908
42
-0.779934954875919
0
ELLIPSE
5
EB
100
AcDbEntity
8
1
62
256
6
ByLayer
370
18
48
1
60
0
100
AcDbEllipse
10
10.455879
20
10.907695
30
0
11
-0.59005699142904
21
0.531289701448946
31
0
210
0
220
0
230
1
40
0.989133
41
-0.779934954875914
42
1.31446014751729
0
ELLIPSE
5
EC
100
AcDbEntity
8
1
62
256
6
ByLayer
370
18
48
1
60
0
100
AcDbEllipse
10
11.750642
20
0.017251
30
0
11
0.234090620025379
21
-0.21077614100304
31
0
210
0
220
0
230
1
40
0.989133
41
-1.06981800827397
42
-0.596617740508772
0
ELLIPSE
5
ED
100
AcDbEntity
8
1
62
256
6
ByLayer
370
18
48
1
60
0
100
AcDbEllipse
10
11.617831
20
-0.130251
30
0
11
0.234090620025379
21
-0.21077614100304
31
0
210
0
220
0
230
1
40
0.989133
41
-1.24297358689983
42
-0.596617740508784
0
ELLIPSE
5
EE
100
AcDbEntity
8
1
62
256
6
ByLayer
370
18
48
1
60
0
100
AcDbEllipse
10
10.870325
20
-1.852005
30
0
11
-0.21551199938844
21
0.194047875844073
31
0
210
0
220
0
230
1
40
0.989133
41
0.712263912671513
42
-2.69101284290194
0
ELLIPSE
5
EF
100
AcDbEntity
8
1
62
256
6
ByLayer
370
18
48
1
60
0
100
AcDbEllipse
10
12.057779
20
-1.243511
30
0
11
0.234090620025379
21
-0.21077614100304
31
0
210
0
220
0
230
1
40
0.989133
41
-2.29017113809643
42
-1.64381529170538
0
ELLIPSE
5
F0
100
AcDbEntity
8
1
62
256
6
ByLayer
370
18
48
1
60
0
100
AcDbEllipse
10
12.19059
20
-1.096009
30
0
11
0.234090620025379
21
-0.21077614100304
31
0
210
0
220
0
230
1
40
0.989133
41
-2.11701555947059
42
-1.64381529170538
0
ELLIPSE
5
F1
100
AcDbEntity
8
1
62
256
6
ByLayer
370
18
48
1
60
0
100
AcDbEllipse
10
11.005226
20
-0.914228
30
0
11
0.668830342929655
21
-0.602217545722972
31
0
210
0
220
0
230
1
40
0.989133
41
1.53512738778272
42
1.72211143796981
0
ELLIPSE
5
F2
100
AcDbEntity
8
1
62
256
6
ByLayer
370
18
48
1
60
0
100
AcDbEllipse
10
10.268331
20
-1.836244
30
0
11
0.234090620025379
21
-0.21077614100304
31
0
210
0
220
0
230
1
40
0.989133
41
0.712263912671481
42
1.18546418043675
0
ELLIPSE
5
F3
100
AcDbEntity
8
1
62
256
6
ByLayer
370
18
48
1
60
0
100
AcDbEllipse
10
11.758432
20
-1.510008
30
0
11
-0.21551199938844
21
0.194047875844073
31
0
210
0
220
0
230
1
40
0.989133
41
1.75946146386813
42
-1.64381529170537
0
ELLIPSE
5
F4
100
AcDbEntity
8
1
62
256
6
ByLayer
370
18
48
1
60
0
100
AcDbEllipse
10
11.449435
20
-2.022757
30
0
11
0.234090620025379
21
-0.21077614100304
31
0
210
0
220
0
230
1
40
0.989133
41
3.11897219651233
42
-2.69101284290198
0
ELLIPSE
5
F5
100
AcDbEntity
8
1
62
256
6
ByLayer
370
18
48
1
60
0
100
AcDbEllipse
10
10.121379
20
-1.251494
30
0
11
-0.21551199938844
21
0.194047875844073
31
0
210
0
220
0
230
1
40
0.989133
41
-0.334933638525095
42
2.54497491308106
0
ELLIPSE
5
F6
100
AcDbEntity
8
1
62
256
6
ByLayer
370
18
48
1
60
0
100
AcDbEllipse
10
11.009486
20
-0.909497
30
0
11
0.68740896356659
21
-0.618945810881943
31
0
210
0
220
0
230
1
40
0.989133
41
-2.70671582269831
42
-2.41362576112194
0
ELLIPSE
5
F7
100
AcDbEntity
8
1
62
256
6
ByLayer
370
18
48
1
60
0
100
AcDbEllipse
10
11.009486
20
-0.909497
30
0
11
0.68740896356659
21
-0.618945810881943
31
0
210
0
220
0
230
1
40
0.989133
41
-1.6595182715017
42
-1.36642820992535
0
ELLIPSE
5
F8
100
AcDbEntity
8
1
62
256
6
ByLayer
370
18
48
1
60
0
100
AcDbEllipse
10
11.148647
20
0.033011
30
0
11
-0.21551199938844
21
0.194047875844073
31
0
210
0
220
0
230
1
40
0.989133
41
-2.42932874091829
42
0.450579810687842
0
ELLIPSE
5
F9
100
AcDbEntity
8
1
62
256
6
ByLayer
370
18
48
1
60
0
100
AcDbEllipse
10
11.005226
20
-0.914228
30
0
11
0.668830342929655
21
-0.602217545722972
31
0
210
0
220
0
230
1
40
0.989133
41
2.58232493897423
42
2.76930898917421
0
ELLIPSE
5
FA
100
AcDbEntity
8
1
62
256
6
ByLayer
370
18
48
1
60
0
100
AcDbEllipse
10
11.005226
20
-0.914228
30
0
11
0.668830342929655
21
-0.602217545722972
31
0
210
0
220
0
230
1
40
0.989133
41
0.487929836585961
42
0.67491388678295
0
ELLIPSE
5
FB
100
AcDbEntity
8
1
62
256
6
ByLayer
370
18
48
1
60
0
100
AcDbEllipse
10
12.19059
20
-1.096009
30
0
11
0.234090620025379
21
-0.21077614100304
31
0
210
0
220
0
230
1
40
0.989133
41
2.80665901506466
42
-3.00332602434962
0
ELLIPSE
5
FC
100
AcDbEntity
8
1
62
256
6
ByLayer
370
18
48
1
60
0
100
AcDbEllipse
10
11.617831
20
-0.130251
30
0
11
0.234090620025379
21
-0.21077614100304
31
0
210
0
220
0
230
1
40
0.989133
41
-2.42932874091831
42
-1.78297289452727
0
ELLIPSE
5
FD
100
AcDbEntity
8
1
62
256
6
ByLayer
370
18
48
1
60
0
100
AcDbEllipse
10
11.005226
20
-0.914228
30
0
11
0.668830342929655
21
-0.602217545722972
31
0
210
0
220
0
230
1
40
0.989133
41
-2.65366281700384
42
-2.46667876680685
0
ELLIPSE
5
FE
100
AcDbEntity
8
1
62
256
6
ByLayer
370
18
48
1
60
0
100
AcDbEllipse
10
11.009486
20
-0.909497
30
0
11
0.68740896356659
21
-0.618945810881943
31
0
210
0
220
0
230
1
40
0.989133
41
2.52927193328468
42
2.82236199486104
0
ELLIPSE
5
FF
100
AcDbEntity
8
1
62
256
6
ByLayer
370
18
48
1
60
0
100
AcDbEllipse
10
10.268331
20
-1.836244
30
0
11
0.234090620025379
21
-0.21077614100304
31
0
210
0
220
0
230
1
40
0.989133
41
2.07177464531582
42
2.54497491308104
0
ELLIPSE
5
100
100
AcDbEntity
8
1
62
256
6
ByLayer
370
18
48
1
60
0
100
AcDbEllipse
10
11.009486
20
-0.909497
30
0
11
0.68740896356659
21
-0.618945810881943
31
0
210
0
220
0
230
1
40
0.989133
41
0.434876830891497
42
0.727966892467843
0
ELLIPSE
5
101
100
AcDbEntity
8
1
62
256
6
ByLayer
370
18
48
1
60
0
100
AcDbEllipse
10
10.436726
20
0.056262
30
0
11
0.234090620025379
21
-0.21077614100304
31
0
210
0
220
0
230
1
40
0.989133
41
-1.38213118972164
42
-0.735775343330652
0
ELLIPSE
5
102
100
AcDbEntity
8
1
62
256
6
ByLayer
370
18
48
1
60
0
100
AcDbEllipse
10
10.26054
20
-0.308986
30
0
11
-0.21551199938844
21
0.194047875844073
31
0
210
0
220
0
230
1
40
0.989133
41
-1.3821311897217
42
1.49777736188445
0
ELLIPSE
5
103
100
AcDbEntity
8
1
62
256
6
ByLayer
370
18
48
1
60
0
100
AcDbEllipse
10
10.876675
20
-1.056998
30
0
11
0.668830342929655
21
-0.602217545722972
31
0
210
0
220
0
230
1
40
0.989133
41
0.67491388677322
42
1.53512738778271
0
ELLIPSE
5
104
100
AcDbEntity
8
1
62
256
6
ByLayer
370
18
48
1
60
0
100
AcDbEllipse
10
10.876675
20
-1.056998
30
0
11
0.668830342929655
21
-0.602217545722972
31
0
210
0
220
0
230
1
40
0.989133
41
1.7221114379698
42
2.58232493897932
0
ELLIPSE
5
105
100
AcDbEntity
8
1
62
256
6
ByLayer
370
18
48
1
60
0
100
AcDbEllipse
10
11.009486
20
-0.909497
30
0
11
0.68740896356659
21
-0.618945810881943
31
0
210
0
220
0
230
1
40
0.989133
41
-0.612320720305139
42
-0.319230658728749
0
ELLIPSE
5
106
100
AcDbEntity
8
1
62
256
6
ByLayer
370
18
48
1
60
0
100
AcDbEllipse
10
9.828382
20
-0.722984
30
0
11
0.234090620025379
21
-0.21077614100304
31
0
210
0
220
0
230
1
40
0.989133
41
1.0245770941192
42
1.49777736188445
0
ELLIPSE
5
107
100
AcDbEntity
8
1
62
256
6
ByLayer
370
18
48
1
60
0
100
AcDbEllipse
10
11.009486
20
-0.909497
30
0
11
-1.41197516840702
21
1.27134815208186
31
0
210
0
220
0
230
1
40
0.989133
41
0
42
6.28318530717959
0
ELLIPSE
5
108
100
AcDbEntity
8
1
62
256
6
ByLayer
370
18
48
1
60
0
100
AcDbEllipse
10
10.9663
20
-0.95746
30
0
11
-2.37806344152762
21
2.1412179403484
31
0
210
0
220
0
230
1
40
0.989133
41
0
42
6.28318530717959
0
ELLIPSE
5
109
100
AcDbEntity
8
1
62
256
6
ByLayer
370
18
48
1
60
0
100
AcDbEllipse
10
11.005226
20
-0.914228
30
0
11
0.668830342929655
21
-0.602217545722972
31
0
210
0
220
0
230
1
40
0.989133
41
-0.559267714610487
42
-0.372283664423385
0
ELLIPSE
5
10A
100
AcDbEntity
8
1
62
256
6
ByLayer
370
18
48
1
60
0
100
AcDbEllipse
10
11.009486
20
-0.909497
30
0
11
0.68740896356659
21
-0.618945810881943
31
0
210
0
220
0
230
1
40
0.989133
41
1.48207438208809
42
1.77516444366445
0
ELLIPSE
5
10B
100
AcDbEntity
8
1
62
256
6
ByLayer
370
18
48
1
60
0
100
AcDbEllipse
10
10.569537
20
0.203763
30
0
11
0.234090620025379
21
-0.21077614100304
31
0
210
0
220
0
230
1
40
0.989133
41
-1.38213118972164
42
-0.90893092195643
0
ELLIPSE
5
10C
100
AcDbEntity
8
1
62
256
6
ByLayer
370
18
48
1
60
0
100
AcDbEllipse
10
11.750642
20
0.017251
30
0
11
0.234090620025379
21
-0.21077614100304
31
0
210
0
220
0
230
1
40
0.989133
41
-2.42932874091833
42
-1.95612847315304
0
ELLIPSE
5
10D
100
AcDbEntity
8
1
62
256
6
ByLayer
370
18
48
1
60
0
100
AcDbEllipse
10
11.449435
20
-2.022757
30
0
11
0.234090620025379
21
-0.21077614100304
31
0
210
0
220
0
230
1
40
0.989133
41
1.75946146386803
42
2.23266173163332
0
ELLIPSE
5
10E
100
AcDbEntity
8
1
62
256
6
ByLayer
370
18
48
1
60
0
100
AcDbEllipse
10
9.828382
20
-0.722984
30
0
11
0.234090620025379
21
-0.21077614100304
31
0
210
0
220
0
230
1
40
0.989133
41
-0.334933638525087
42
0.138266629240125
0
ELLIPSE
5
10F
100
AcDbEntity
8
1
62
256
6
ByLayer
370
18
48
1
60
0
100
AcDbEllipse
10
11.005226
20
-0.914228
30
0
11
0.668830342929655
21
-0.602217545722972
31
0
210
0
220
0
230
1
40
0.989133
41
-1.60646526580708
42
-1.41948121562001
0
ELLIPSE
5
110
100
AcDbEntity
8
1
62
256
6
ByLayer
370
18
48
1
60
0
100
AcDbEllipse
10
10.569537
20
0.203763
30
0
11
0.234090620025379
21
-0.21077614100304
31
0
210
0
220
0
230
1
40
0.989133
41
-0.0226204570773945
42
0.450579810687791
0
ELLIPSE
5
111
100
AcDbEntity
8
1
62
256
6
ByLayer
370
18
48
1
60
0
100
AcDbEllipse
10
11.897594
20
-0.567499
30
0
11
-0.21551199938844
21
0.194047875844073
31
0
210
0
220
0
230
1
40
0.989133
41
2.80665901506477
42
-0.596617740508729
0
ELLIPSE
5
112
100
AcDbEntity
8
1
62
256
6
ByLayer
370
18
48
1
60
0
100
AcDbEllipse
10
10.837714
20
-4.583426
30
0
11
2.81499571204061
21
3.51081174960905
31
0
210
0
220
0
230
1
40
0.008497
41
-2.38176204128968
42
-1.94288547246097
0
ELLIPSE
5
113
100
AcDbEntity
8
1
62
256
6
ByLayer
370
18
48
1
60
0
100
AcDbEllipse
10
6.401929
20
-1.02678
30
0
11
-2.92261401134631
21
-3.42440691167858
31
0
210
0
220
0
230
1
40
0.206199
41
0.550849957307221
42
0.612498136866514
0
ELLIPSE
5
114
100
AcDbEntity
8
1
62
256
6
ByLayer
370
18
48
1
60
0
100
AcDbEllipse
10
9.750449
20
-7.255702
30
0
11
-1.64231984481831
21
1.88514045547649
31
0
210
0
220
0
230
1
40
0.996407
41
1.7497104610654
42
2.8635048571774
0
ELLIPSE
5
115
100
AcDbEntity
8
1
62
256
6
ByLayer
370
18
48
1
60
0
100
AcDbEllipse
10
6.820557
20
-1.297285
30
0
11
-3.57777169207506
21
-1.03546212868997
31
0
210
0
220
0
230
1
40
0.460545
41
-0.578248645967876
42
-0.286624782409935
0
ELLIPSE
5
116
100
AcDbEntity
8
1
62
256
6
ByLayer
370
18
48
1
60
0
100
AcDbEllipse
10
0.697294
20
-4.874282
30
0
11
3.75332761605415
21
4.68108233281207
31
0
210
0
220
0
230
1
40
0.008497
41
0.810541504948214
42
0.812430626025594
0
ELLIPSE
5
117
100
AcDbEntity
8
1
62
256
6
ByLayer
370
18
48
1
60
0
100
AcDbEllipse
10
5.125773
20
0.103574
30
0
11
-1.8050624438031
21
-2.01282414338986
31
0
210
0
220
0
230
1
40
0.337398
41
-0.116678527452842
42
0.624812356276248
0
ELLIPSE
5
118
100
AcDbEntity
8
1
62
256
6
ByLayer
370
18
48
1
60
0
100
AcDbEllipse
10
11.840829
20
-5.387731
30
0
11
-2.70802402804667
21
-3.59648624561714
31
0
210
0
220
0
230
1
40
0.189222
41
-0.611937036615965
42
-0.550288856331397
0
ELLIPSE
5
119
100
AcDbEntity
8
1
62
256
6
ByLayer
370
18
48
1
60
0
100
AcDbEllipse
10
13.229013
20
-6.393665
30
0
11
-1.57382819358879
21
-2.19830177674084
31
0
210
0
220
0
230
1
40
0.320461
41
-0.623656443263394
42
0.117834440468956
0
ELLIPSE
5
11A
100
AcDbEntity
8
1
62
256
6
ByLayer
370
18
48
1
60
0
100
AcDbEllipse
10
17.752637
20
7.578367
30
0
11
-0.757597426962996
21
1.5057967341696
31
0
210
0
220
0
230
1
40
0.826259
41
-1.48252862353626
42
-1.20144493857023
0
ELLIPSE
5
11B
100
AcDbEntity
8
1
62
256
6
ByLayer
370
18
48
1
60
0
100
AcDbEllipse
10
10.151861
20
-6.877655
30
0
11
1.76329603787241
21
-0.361644967922212
31
0
210
0
220
0
230
1
40
0.789807
41
-1.95033180541691
42
-0.520101998968106
0
ELLIPSE
5
11C
100
AcDbEntity
8
1
62
256
6
ByLayer
370
18
48
1
60
0
100
AcDbEllipse
10
5.335142
20
-3.015572
30
0
11
0.704568163081538
21
-1.65637667925261
31
0
210
0
220
0
230
1
40
0.78494
41
-2.59707982171682
42
-1.16685001526801
0
ELLIPSE
5
11D
100
AcDbEntity
8
1
62
256
6
ByLayer
370
18
48
1
60
0
100
AcDbEllipse
10
11.579485
20
-5.11303
30
0
11
-0.355765360810101
21
-3.65163204413147
31
0
210
0
220
0
230
1
40
0.450788
41
0.313627366976921
42
0.605251230557732
0
ELLIPSE
5
11E
100
AcDbEntity
8
1
62
256
6
ByLayer
370
18
48
1
60
0
100
AcDbEllipse
10
4.99152
20
-3.439957
30
0
11
-1.64231984465233
21
1.88514045562051
31
0
210
0
220
0
230
1
40
0.996407
41
0.635916065041424
42
1.74971046115369
0
ELLIPSE
5
11F
100
AcDbEntity
8
1
62
256
6
ByLayer
370
18
48
1
60
0
100
AcDbEllipse
10
17.752637
20
7.578367
30
0
11
-1.61982724917247
21
0.505967627097494
31
0
210
0
220
0
230
1
40
0.828245
41
-1.87623666937502
42
-1.595152984456
0
ELLIPSE
5
120
100
AcDbEntity
8
1
62
256
6
ByLayer
370
18
48
1
60
0
100
AcDbEllipse
10
7.405045
20
-1.831085
30
0
11
2.81499571204061
21
3.51081174960905
31
0
210
0
220
0
230
1
40
0.008497
41
-2.38176204128993
42
-1.94288547246104
0
ELLIPSE
5
121
100
AcDbEntity
8
1
62
256
6
ByLayer
370
18
48
1
60
0
100
AcDbEllipse
10
18.124744
20
0.0486
30
0
11
1.78792724391633
21
-1.60985692133255
31
0
210
0
220
0
230
1
40
0.989133
41
-0.77775329331092
42
0.793043033483978
0
ELLIPSE
5
122
100
AcDbEntity
8
1
62
256
6
ByLayer
370
18
48
1
60
0
100
AcDbEllipse
10
1.703664
20
-2.959392
30
0
11
-0.552805684031829
21
1.17214527343941
31
0
210
0
220
0
230
1
40
0.483183
41
-0.632783522090852
42
0.93801280470406
0
ELLIPSE
5
123
100
AcDbEntity
8
1
62
256
6
ByLayer
370
18
48
1
60
0
100
AcDbEllipse
10
12.811201
20
7.359764
30
0
11
-1.18002704788833
21
1.49258672406064
31
0
210
0
220
0
230
1
40
0.482826
41
1.00256613562652
42
1.39634722273048
0
POINT
5
6C
100
AcDbEntity
8
2
62
256
6
ByLayer
370
18
48
1
60
0
100
AcDbPoint
10
24.899434
20
12.4125
30
0
39
0
210
0
220
0
230
1
50
360
0
POINT
5
6E
100
AcDbEntity
8
80
62
256
6
ByLayer
370
18
48
1
60
0
100
AcDbPoint
10
0
20
0
30
0
39
0
210
0
220
0
230
1
50
360
0
POINT
5
70
100
AcDbEntity
8
81
62
256
6
ByLayer
370
18
48
1
60
0
100
AcDbPoint
10
24.899434
20
12.4125
30
0
39
0
210
0
220
0
230
1
50
360
0
SPLINE
5
124
100
AcDbEntity
8
1
62
256
6
ByLayer
370
18
48
1
60
0
100
AcDbSpline
70
4
71
3
72
10
73
6
40
0
40
0
40
0
40
0
40
0.690921703394062
40
0.690921703394062
40
1
40
1
40
1
40
1
41
1
10
11.8424440230239
20
-8.65558911836609
30
0
41
1
10
11.6621733194423
20
-8.86736241105299
30
0
41
1
10
11.4460756264197
20
-9.08382720366694
30
0
41
1
10
11.0722281888984
20
-9.36234233942477
30
0
41
1
10
10.9472410497244
20
-9.44416744097279
30
0
41
1
10
10.8140301429212
20
-9.51764458621619
30
0
0
SPLINE
5
125
100
AcDbEntity
8
1
62
256
6
ByLayer
370
18
48
1
60
0
100
AcDbSpline
70
4
71
3
72
10
73
6
40
0
40
0
40
0
40
0
40
0.516155291935489
40
0.516155291935489
40
1
40
1
40
1
40
1
41
1
10
11.9299990717639
20
-0.919158096766807
30
0
41
1
10
11.9244007980185
20
-0.927155459113834
30
0
41
1
10
11.9189368076356
20
-0.935597926028578
30
0
41
1
10
11.9087849711169
20
-0.952903977849502
30
0
41
1
10
11.9040496551555
20
-0.961744502972778
30
0
41
1
10
11.8996173279592
20
-0.971051839840811
30
0
0
SPLINE
5
126
100
AcDbEntity
8
1
62
256
6
ByLayer
370
18
48
1
60
0
100
AcDbSpline
70
4
71
3
72
10
73
6
40
0
40
0
40
0
40
0
40
0.315026012182468
40
0.315026012182468
40
1
40
1
40
1
40
1
41
1
10
10.7543400954557
20
-0.0527597955735075
30
0
41
1
10
10.7596828437598
20
-0.0486440738446561
30
0
41
1
10
10.7648057572923
20
-0.0444495130895746
30
0
41
1
10
10.7803326262695
20
-0.031045778760415
30
0
41
1
10
10.7900003088246
20
-0.0216406342642301
30
0
41
1
10
10.7988525683453
20
-0.0121961791511751
30
0
0
SPLINE
5
127
100
AcDbEntity
8
1
62
256
6
ByLayer
370
18
48
1
60
0
100
AcDbSpline
70
4
71
3
72
10
73
6
40
0
40
0
40
0
40
0
40
0.629893813379414
40
0.629893813379414
40
1
40
1
40
1
40
1
41
1
10
10.5489438228544
20
-0.108432475786003
30
0
41
1
10
10.5584138098951
20
-0.110344074650641
30
0
41
1
10
10.5684795290496
20
-0.111723556571548
30
0
41
1
10
10.5855210089307
20
-0.112722673306479
30
0
41
1
10
10.5920794351786
20
-0.112832851611927
30
0
41
1
10
10.5988837697078
20
-0.112623811330167
30
0
0
SPLINE
5
128
100
AcDbEntity
8
1
62
256
6
ByLayer
370
18
48
1
60
0
100
AcDbSpline
70
4
71
3
72
10
73
6
40
0
40
0
40
0
40
0
40
0.123732606265405
40
0.123732606265405
40
1
40
1
40
1
40
1
41
1
10
10.1351944204651
20
-0.692425149490447
30
0
41
1
10
10.1350406545226
20
-0.689821980223769
30
0
41
1
10
10.1348660888551
20
-0.687244106679685
30
0
41
1
10
10.1333126724222
20
-0.666800822054938
30
0
41
1
10
10.1310078592515
20
-0.650116177583214
30
0
41
1
10
10.1281326475167
20
-0.634618559152756
30
0
0
SPLINE
5
129
100
AcDbEntity
8
1
62
256
6
ByLayer
370
18
48
1
60
0
100
AcDbSpline
70
4
71
3
72
8
73
4
40
0
40
0
40
0
40
0
40
1
40
1
40
1
40
1
41
1
10
11.469456641903
20
-0.118093803106262
30
0
41
1
10
11.4752224865275
20
-0.134827132506132
30
0
41
1
10
11.4828752297069
20
-0.152141325262136
30
0
41
1
10
11.4932747642132
20
-0.169447762086833
30
0
0
SPLINE
5
12A
100
AcDbEntity
8
1
62
256
6
ByLayer
370
18
48
1
60
0
100
AcDbSpline
70
4
71
3
72
8
73
4
40
0
40
0
40
0
40
0
40
1
40
1
40
1
40
1
41
1
10
11.6243720084498
20
-0.274562535166751
30
0
41
1
10
11.6436743961657
20
-0.281071326744467
30
0
41
1
10
11.6624225474486
20
-0.284925573086241
30
0
41
1
10
11.6802061735601
20
-0.28707438943232
30
0
0
SPLINE
5
12B
100
AcDbEntity
8
1
62
256
6
ByLayer
370
18
48
1
60
0
100
AcDbSpline
70
4
71
3
72
8
73
4
40
0
40
0
40
0
40
0
40
1
40
1
40
1
40
1
41
1
10
10.54951586356
20
-1.70089973576154
30
0
41
1
10
10.5405837796138
20
-1.68768287137735
30
0
41
1
10
10.5299706488149
20
-1.67365652216034
30
0
41
1
10
10.5171779027138
20
-1.65900801608342
30
0
0
SPLINE
5
12C
100
AcDbEntity
8
1
62
256
6
ByLayer
370
18
48
1
60
0
100
AcDbSpline
70
4
71
3
72
10
73
6
40
0
40
0
40
0
40
0
40
0.629893813379254
40
0.629893813379254
40
1
40
1
40
1
40
1
41
1
10
11.4700286826057
20
-1.71056106308515
30
0
41
1
10
11.4585606252624
20
-1.71086854610405
30
0
41
1
10
11.4465887984699
20
-1.71160601118046
30
0
41
1
10
11.4267861745284
20
-1.7136734555942
30
0
41
1
10
11.4192608551047
20
-1.71463712095039
30
0
41
1
10
11.4115688972173
20
-1.71583196684225
30
0
0
SPLINE
5
12D
100
AcDbEntity
8
1
62
256
6
ByLayer
370
18
48
1
60
0
100
AcDbSpline
70
4
71
3
72
10
73
6
40
0
40
0
40
0
40
0
40
0.516155291935623
40
0.516155291935623
40
1
40
1
40
1
40
1
41
1
10
10.0889734336992
20
-0.899835442100994
30
0
41
1
10
10.0929340803008
20
-0.893656848954464
30
0
41
1
10
10.0968236643345
20
-0.886962937434447
30
0
41
1
10
10.1041235034204
20
-0.872824349654735
30
0
41
1
10
10.1075631975517
20
-0.865422758350519
30
0
41
1
10
10.1108353389656
20
-0.857403938331885
30
0
0
SPLINE
5
12E
100
AcDbEntity
8
1
62
256
6
ByLayer
370
18
48
1
60
0
100
AcDbSpline
70
4
71
3
72
10
73
6
40
0
40
0
40
0
40
0
40
0.123732606265402
40
0.123732606265402
40
1
40
1
40
1
40
1
41
1
10
11.8752582464618
20
-1.13603062867989
30
0
41
1
10
11.8757109941334
20
-1.13830174509658
30
0
41
1
10
11.8761934832473
20
-1.14053763500752
30
0
41
1
10
11.880277648205
20
-1.15817023864866
30
0
41
1
10
11.8851907861803
20
-1.17195804494972
30
0
41
1
10
11.8908398579463
20
-1.18437497971504
30
0
0
SPLINE
5
12F
100
AcDbEntity
8
1
62
256
6
ByLayer
370
18
48
1
60
0
100
AcDbSpline
70
4
71
3
72
10
73
6
40
0
40
0
40
0
40
0
40
0.315026012182582
40
0.315026012182582
40
1
40
1
40
1
40
1
41
1
10
11.2561125714701
20
-1.77569598259822
30
0
41
1
10
11.2515275334158
20
-1.77897018184092
30
0
41
1
10
11.2472200600337
20
-1.7822591045599
30
0
41
1
10
11.2344077021656
20
-1.79264806887957
30
0
41
1
10
11.2268025792975
20
-1.79976250877488
30
0
41
1
10
11.2201199371177
20
-1.80679735971663
30
0
0
SPLINE
5
130
100
AcDbEntity
8
1
62
256
6
ByLayer
370
18
48
1
60
0
100
AcDbSpline
70
4
71
3
72
8
73
4
40
0
40
0
40
0
40
0
40
1
40
1
40
1
40
1
41
1
10
10.3860806584772
20
-1.55389324300353
30
0
41
1
10
10.3691714823561
20
-1.54472652067804
30
0
41
1
10
10.3533837186927
20
-1.53758443079727
30
0
41
1
10
10.3387663319029
20
-1.53191914943551
30
0
0
SPLINE
5
131
100
AcDbEntity
8
1
62
256
6
ByLayer
370
18
48
1
60
0
100
AcDbSpline
70
4
71
2
72
8
73
5
40
0
40
0
40
0
40
0.581603760044145
40
0.872405640066217
40
1
40
1
40
1
41
1.02990374504916
10
7.96395703227017
20
2.99759328468659
30
0
41
1.02669755169729
10
9.52102263172215
20
3.84746177584999
30
0
41
1.02039724512338
10
12.0910968425729
20
4.83450557835947
30
0
41
1.01761724169577
10
13.4075495915482
20
5.20051759406198
30
0
41
1.01686274329252
10
13.7555924492378
20
5.34362675013333
30
0
0
SPLINE
5
132
100
AcDbEntity
8
1
62
256
6
ByLayer
370
18
48
1
60
0
100
AcDbSpline
70
4
71
3
72
10
73
6
40
0
40
0
40
0
40
0
40
0.10661627058344
40
0.10661627058344
40
1
40
1
40
1
40
1
41
1
10
16.3511042835066
20
5.7965779043885
30
0
41
1
10
16.3393647565567
20
5.75991767131993
30
0
41
1
10
16.3277942567626
20
5.72306355109151
30
0
41
1
10
16.220992312958
20
5.37601086967393
30
0
41
1
10
16.1374590888029
20
5.05212441043435
30
0
41
1
10
16.0664880301277
20
4.71763409086245
30
0
0
SPLINE
5
133
100
AcDbEntity
8
1
62
256
6
ByLayer
370
18
48
1
60
0
100
AcDbSpline
70
4
71
3
72
24
73
20
40
0
40
0
40
0
40
0
40
0.142613444608222
40
0.142613444608222
40
0.19079521826949
40
0.19079521826949
40
0.226951176162321
40
0.226951176162321
40
0.263437466712854
40
0.263437466712854
40
0.296119365572349
40
0.296119365572349
40
0.352324850832277
40
0.352324850832277
40
0.455294648588095
40
0.455294648588095
40
0.662705158043614
40
0.662705158043614
40
1
40
1
40
1
40
1
41
1
10
13.755592449238
20
5.34362675013341
30
0
41
1
10
13.6990669509069
20
5.28244737203372
30
0
41
1
10
13.6460291880784
20
5.21829784769747
30
0
41
1
10
13.6151023229029
20
5.127699237846
30
0
41
1
10
13.6111062843274
20
5.10393164087489
30
0
41
1
10
13.6168531655493
20
5.06327325346621
30
0
41
1
10
13.6236619283232
20
5.04582631963734
30
0
41
1
10
13.6477608054376
20
5.0139031228008
30
0
41
1
10
13.6655655035535
20
4.9990886989859
30
0
41
1
10
13.7064995873536
20
4.97586730071396
30
0
41
1
10
13.7292258602479
20
4.96664103217194
30
0
41
1
10
13.7945087548687
20
4.94655009188315
30
0
41
1
10
13.8405853838794
20
4.938680282147
30
0
41
1
10
13.9714395180974
20
4.92540745000693
30
0
41
1
10
14.0596696598151
20
4.92666508188057
30
0
41
1
10
14.3177116976995
20
4.94475899462134
30
0
41
1
10
14.487206392807
20
4.97641931439557
30
0
41
1
10
14.9064723354667
20
5.08233909437396
30
0
41
1
10
15.1483806159229
20
5.1737709947318
30
0
41
1
10
15.3691486495688
20
5.27676613954844
30
0
0
SPLINE
5
134
100
AcDbEntity
8
1
62
256
6
ByLayer
370
18
48
1
60
0
100
AcDbSpline
70
4
71
3
72
12
73
8
40
0
40
0
40
0
40
0
40
0.501637567130152
40
0.501637567130152
40
0.886957471304441
40
0.886957471304441
40
1
40
1
40
1
40
1
41
1
10
9.9262883640888
20
-5.77774390609628
30
0
41
1
10
10.0551862899782
20
-5.61793316994482
30
0
41
1
10
10.2035373918071
20
-5.46013066489172
30
0
41
1
10
10.4936737434648
20
-5.21067703400911
30
0
41
1
10
10.6320515349232
20
-5.11007290510881
30
0
41
1
10
10.8150665911633
20
-5.00291367780576
30
0
41
1
10
10.8574089473579
20
-4.97979779328179
30
0
41
1
10
10.899752020924
20
-4.95835849676192
30
0
0
SPLINE
5
135
100
AcDbEntity
8
1
62
256
6
ByLayer
370
18
48
1
60
0
100
AcDbSpline
70
4
71
3
72
8
73
4
40
0
40
0
40
0
40
0
40
1
40
1
40
1
40
1
41
1
10
6.49361856830268
20
-3.02540301027204
30
0
41
1
10
6.46533523056166
20
-3.06046936990518
30
0
41
1
10
6.43725169891468
20
-3.09527286644504
30
0
41
1
10
6.40940696712852
20
-3.12976533138038
30
0
0
SPLINE
5
136
100
AcDbEntity
8
1
62
256
6
ByLayer
370
18
48
1
60
0
100
AcDbSpline
70
4
71
2
72
6
73
3
40
0
40
0
40
0
40
1
40
1
40
1
41
1.01103575695168
10
14.2896309057597
20
8.46397570310432
30
0
41
1.01163342726563
10
13.93759618752
20
8.34232601075883
30
0
41
1.01212826498448
10
13.5898999769456
20
8.20389684670078
30
0
0
SPLINE
5
137
100
AcDbEntity
8
1
62
256
6
ByLayer
370
18
48
1
60
0
100
AcDbSpline
70
4
71
2
72
6
73
3
40
0
40
0
40
0
40
1
40
1
40
1
41
1.01212826498425
10
19.2506527771981
20
3.66506195712581
30
0
41
1.01163342726426
10
19.3095555913509
20
4.03504787607016
30
0
41
1.01103575694871
10
19.3511575012097
20
4.4056049692978
30
0
0
SPLINE
5
138
100
AcDbEntity
8
1
62
256
6
ByLayer
370
18
48
1
60
0
100
AcDbSpline
70
4
71
3
72
8
73
4
40
0
40
0
40
0
40
0
40
1
40
1
40
1
40
1
41
1
10
9.84207676291499
20
-5.88210622720416
30
0
41
1
10
9.86992149470112
20
-5.84761376226885
30
0
41
1
10
9.89800502634779
20
-5.81281026572944
30
0
41
1
10
9.9262883640888
20
-5.77774390609628
30
0
0
SPLINE
5
139
100
AcDbEntity
8
1
62
256
6
ByLayer
370
18
48
1
60
0
100
AcDbSpline
70
4
71
2
72
6
73
3
40
0
40
0
40
0
40
1
40
1
40
1
41
1.02990374504916
10
7.96395703227017
20
2.99759328468659
30
0
41
0.929591662588769
10
8.41873618107417
20
2.87160984997233
30
0
41
0.932817050574084
10
9.35221822291899
20
2.26596054967887
30
0
0
SPLINE
5
13A
100
AcDbEntity
8
1
62
256
6
ByLayer
370
18
48
1
60
0
100
AcDbSpline
70
4
71
3
72
8
73
4
40
0
40
0
40
0
40
0
40
1
40
1
40
1
40
1
41
1
10
18.3556092261773
20
1.71947322660759
30
0
41
1
10
17.7930574537916
20
-0.20871004617706
30
0
41
1
10
16.9353857573373
20
-2.04303622541252
30
0
41
1
10
15.8033420885288
20
-3.70486824916824
30
0
0
SPLINE
5
13B
100
AcDbEntity
8
1
62
256
6
ByLayer
370
18
48
1
60
0
100
AcDbSpline
70
4
71
3
72
14
73
10
40
0
40
0
40
0
40
0
40
0.262932482489326
40
0.262932482489326
40
0.526305718382445
40
0.526305718382445
40
0.786105451116561
40
0.786105451116561
40
1
40
1
40
1
40
1
41
1
10
19.0775916933357
20
6.69568471200435
30
0
41
1
10
19.1181695778937
20
6.81396338138913
30
0
41
1
10
19.1461831915048
20
6.94964752189421
30
0
41
1
10
19.1700202521793
20
7.23621833468738
30
0
41
1
10
19.1660573726313
20
7.39079862295617
30
0
41
1
10
19.1289120717023
20
7.69412765613114
30
0
41
1
10
19.0958692436392
20
7.84649158895527
30
0
41
1
10
19.0166675469034
20
8.10998357528217
30
0
41
1
10
18.9734517825836
20
8.22550319835952
30
0
41
1
10
18.9251871419281
20
8.33464216402831
30
0
0
SPLINE
5
13C
100
AcDbEntity
8
1
62
256
6
ByLayer
370
18
48
1
60
0
100
AcDbSpline
70
4
71
2
72
8
73
5
40
0
40
0
40
0
40
0.145991510278039
40
0.563470207586082
40
1
40
1
40
1
41
1.02393576174182
10
14.1832663823108
20
1.77032729555892
30
0
41
1.02323174907608
10
14.3292998382539
20
1.99138284968672
30
0
41
1.02039724512338
10
14.8843751936812
20
2.84305090409877
30
0
41
1.01644464721285
10
15.6360948927044
20
4.12143903277479
30
0
41
1.01495409538129
10
16.0664880301693
20
4.71763409092005
30
0
0
SPLINE
5
13D
100
AcDbEntity
8
1
62
256
6
ByLayer
370
18
48
1
60
0
100
AcDbSpline
70
4
71
3
72
8
73
4
40
0
40
0
40
0
40
0
40
1
40
1
40
1
40
1
41
1
10
9.10656211626929
20
-8.13282889053747
30
0
41
1
10
9.12959569990355
20
-8.15129739405964
30
0
41
1
10
9.1529855379282
20
-8.16876976213118
30
0
41
1
10
9.17670702919199
20
-8.18532034231612
30
0
0
SPLINE
5
13E
100
AcDbEntity
8
1
62
256
6
ByLayer
370
18
48
1
60
0
100
AcDbSpline
70
4
71
3
72
10
73
6
40
0
40
0
40
0
40
0
40
0.560518156563272
40
0.560518156563272
40
1
40
1
40
1
40
1
41
1
10
18.3556092261773
20
1.71947322660759
30
0
41
1
10
18.4671056972014
20
2.10163472881317
30
0
41
1
10
18.6027566657144
20
2.47535421776291
30
0
41
1
10
18.8788256388241
20
3.06899904086862
30
0
41
1
10
19.0145885725421
20
3.30914284325931
30
0
41
1
10
19.1527137737494
20
3.51526728897247
30
0
0
SPLINE
5
13F
100
AcDbEntity
8
1
62
256
6
ByLayer
370
18
48
1
60
0
100
AcDbSpline
70
4
71
3
72
12
73
8
40
0
40
0
40
0
40
0
40
0.307573270173409
40
0.307573270173409
40
0.648852820657656
40
0.648852820657656
40
1
40
1
40
1
40
1
41
1
10
12.9231782054425
20
2.78067563374097
30
0
41
1
10
13.0735290214311
20
2.70900914452724
30
0
41
1
10
13.219408671288
20
2.62619401683435
30
0
41
1
10
13.5125994328786
20
2.4310303324516
30
0
41
1
10
13.659324453828
20
2.31577021776749
30
0
41
1
10
13.9358348469399
20
2.0610719298451
30
0
41
1
10
14.0660027565011
20
1.92011482166896
30
0
41
1
10
14.1832663825836
20
1.7703272959717
30
0
0
SPLINE
5
140
100
AcDbEntity
8
1
62
256
6
ByLayer
370
18
48
1
60
0
100
AcDbSpline
70
4
71
3
72
8
73
4
40
0
40
0
40
0
40
0
40
1
40
1
40
1
40
1
41
1
10
9.35221820826007
20
2.26596053772065
30
0
41
1
10
9.15974603021135
20
2.1091387267243
30
0
41
1
10
8.98592523018334
20
1.93546666447665
30
0
41
1
10
8.83251869379447
20
1.74364574983636
30
0
0
SPLINE
5
141
100
AcDbEntity
8
1
62
256
6
ByLayer
370
18
48
1
60
0
100
AcDbSpline
70
4
71
3
72
10
73
6
40
0
40
0
40
0
40
0
40
0.679966690484304
40
0.679966690484304
40
1
40
1
40
1
40
1
41
1
10
7.15749095115132
20
-1.32715992744508
30
0
41
1
10
7.15602441086912
20
-1.45495911734327
30
0
41
1
10
7.14397809562649
20
-1.58523661091382
30
0
41
1
10
7.11092557971173
20
-1.77588510712553
30
0
41
1
10
7.09798315573954
20
-1.83705418484649
30
0
41
1
10
7.08277709621964
20
-1.89787880934887
30
0
0
SPLINE
5
142
100
AcDbEntity
8
1
62
256
6
ByLayer
370
18
48
1
60
0
100
AcDbSpline
70
4
71
3
72
16
73
12
40
0
40
0
40
0
40
0
40
0.28382542465983
40
0.28382542465983
40
0.572792249827486
40
0.572792249827486
40
0.572792249827486
40
0.894188232602855
40
0.894188232602855
40
0.894188232602855
40
1
40
1
40
1
40
1
41
1
10
9.35221822292891
20
2.26596054967246
30
0
41
1
10
9.62918708214929
20
2.48904979663669
30
0
41
1
10
9.9475293772407
20
2.6724953864076
30
0
41
1
10
10.6190252729132
20
2.93949801173613
30
0
41
1
10
10.9810930326009
20
3.02532416245123
30
0
41
1
10
11.3434152420364
20
3.05418011044327
30
0
41
1
10
11.7440437625454
20
3.08608683724853
30
0
41
1
10
12.1600260226979
20
3.04770523384803
30
0
41
1
10
12.545394340652
20
2.92813205385946
30
0
41
1
10
12.6746242575643
20
2.88803422693661
30
0
41
1
10
12.8014390318903
20
2.83868531352542
30
0
41
1
10
12.9231782054425
20
2.78067563374097
30
0
0
SPLINE
5
143
100
AcDbEntity
8
1
62
256
6
ByLayer
370
18
48
1
60
0
100
AcDbSpline
70
4
71
3
72
25
73
21
40
0
40
0
40
0
40
0
40
0.442411593548775
40
0.442411593548775
40
0.442411593548775
40
0.583396916265375
40
0.583396916265375
40
0.651602530488651
40
0.651602530488651
40
0.706341521306446
40
0.706341521306446
40
0.742475286987733
40
0.742475286987733
40
0.778972968742932
40
0.778972968742932
40
0.811539464980178
40
0.811539464980178
40
0.86830979614666
40
0.86830979614666
40
1
40
1
40
1
40
1
41
1
10
16.0664880301277
20
4.71763409086242
30
0
41
1
10
16.0004974703045
20
4.40617459824051
30
0
41
1
10
15.9592435265774
20
4.06043845667665
30
0
41
1
10
15.9772297323125
20
3.7027137013194
30
0
41
1
10
15.9830685602616
20
3.5865861905786
30
0
41
1
10
15.9953504473994
20
3.46755079678729
30
0
41
1
10
16.0299249733276
20
3.29483810503223
30
0
41
1
10
16.0440031557442
20
3.23841660638317
30
0
41
1
10
16.076540042078
20
3.14206440371228
30
0
41
1
10
16.0939099949945
20
3.100254953535
30
0
41
1
10
16.1283999567277
20
3.04037669149318
30
0
41
1
10
16.1439495622921
20
3.01871047212364
30
0
41
1
10
16.1773226932971
20
2.98484446959026
30
0
41
1
10
16.1956280528684
20
2.97244704208242
30
0
41
1
10
16.229807735668
20
2.95994790328899
30
0
41
1
10
16.2460985339228
20
2.95840689490421
30
0
41
1
10
16.2885601528404
20
2.9633892732723
30
0
41
1
10
16.3139516233378
20
2.97631435826466
30
0
41
1
10
16.3913036576363
20
3.03306768716317
30
0
41
1
10
16.437361269646
20
3.09447468555959
30
0
41
1
10
16.4803527311628
20
3.15889311653041
30
0
0
SPLINE
5
144
100
AcDbEntity
8
1
62
256
6
ByLayer
370
18
48
1
60
0
100
AcDbSpline
70
4
71
3
72
8
73
4
40
0
40
0
40
0
40
0
40
1
40
1
40
1
40
1
41
1
10
19.2507627537595
20
3.66575284751136
30
0
41
1
10
19.2187032844461
20
3.61515005348926
30
0
41
1
10
19.1860248531542
20
3.56497746291885
30
0
41
1
10
19.1527137737494
20
3.51526728897247
30
0
0
SPLINE
5
145
100
AcDbEntity
8
1
62
256
6
ByLayer
370
18
48
1
60
0
100
AcDbSpline
70
4
71
2
72
8
73
5
40
0
40
0
40
0
40
0.58160376007072
40
0.872405640106081
40
1
40
1
40
1
41
1.02990374504916
10
15.4450167678626
20
-3.00077762755535
30
0
41
1.02669755169729
10
15.9393300253796
20
-1.29878618002111
30
0
41
1.02039724512338
10
16.3456028447042
20
1.42321012721013
30
0
41
1.01761724169608
10
16.4170234341806
20
2.78749845015909
30
0
41
1.01686274329306
10
16.4803527311628
20
3.15889311653024
30
0
0
SPLINE
5
146
100
AcDbEntity
8
1
62
256
6
ByLayer
370
18
48
1
60
0
100
AcDbSpline
70
4
71
3
72
12
73
8
40
0
40
0
40
0
40
0
40
0.415356444741145
40
0.415356444741145
40
0.825259843212188
40
0.825259843212188
40
1
40
1
40
1
40
1
41
1
10
7.08277709621964
20
-1.89787880934887
30
0
41
1
10
7.04109216657207
20
-2.06461958725404
30
0
41
1
10
6.9763516909876
20
-2.23706387711448
30
0
41
1
10
6.8195888023813
20
-2.55756561243299
30
0
41
1
10
6.72629617447899
20
-2.7104119421027
30
0
41
1
10
6.58340303925524
20
-2.91083422351855
30
0
41
1
10
6.53899683801598
20
-2.9691419444859
30
0
41
1
10
6.49361856830268
20
-3.02540301027204
30
0
0
SPLINE
5
147
100
AcDbEntity
8
1
62
256
6
ByLayer
370
18
48
1
60
0
100
AcDbSpline
70
4
71
3
72
11
73
7
40
0
40
0
40
0
40
0
40
0.559926195718576
40
0.559926195718576
40
0.559926195718576
40
1
40
1
40
1
40
1
41
1
10
13.4668548344854
20
8.07423247275889
30
0
41
1
10
13.2533037602918
20
7.8440337449648
30
0
41
1
10
12.9831668285535
20
7.60605952482592
30
0
41
1
10
12.6790871363235
20
7.38735956429608
30
0
41
1
10
12.4383712310249
20
7.21423205748485
30
0
41
1
10
12.1730051635353
20
7.0490698296276
30
0
41
1
10
11.8981776046214
20
6.8970912881569
30
0
0
SPLINE
5
148
100
AcDbEntity
8
1
62
256
6
ByLayer
370
18
48
1
60
0
100
AcDbSpline
70
4
71
3
72
16
73
12
40
0
40
0
40
0
40
0
40
0.346164403850464
40
0.346164403850464
40
0.574058138681868
40
0.574058138681868
40
0.756733946461145
40
0.756733946461145
40
0.941193093213315
40
0.941193093213315
40
1
40
1
40
1
40
1
41
1
10
11.7489174556675
20
-8.63601566300198
30
0
41
1
10
11.5223915801293
20
-8.76769609801434
30
0
41
1
10
11.3087239621309
20
-8.81254456338436
30
0
41
1
10
10.8933323933179
20
-8.82278171138736
30
0
41
1
10
10.7060098389115
20
-8.80774590370271
30
0
41
1
10
10.3251773475938
20
-8.73140524579142
30
0
41
1
10
10.137182913232
20
-8.67810348348863
30
0
41
1
10
9.7523074220565
20
-8.52645049683952
30
0
41
1
10
9.54955047536578
20
-8.42449819135314
30
0
41
1
10
9.29728991611239
20
-8.26730178973668
30
0
41
1
10
9.23619288989988
20
-8.22682386739251
30
0
41
1
10
9.17670702919199
20
-8.18532034231612
30
0
0
SPLINE
5
149
100
AcDbEntity
8
1
62
256
6
ByLayer
370
18
48
1
60
0
100
AcDbSpline
70
4
71
2
72
6
73
3
40
0
40
0
40
0
40
1
40
1
40
1
41
1.02990374504916
10
15.4450167678626
20
-3.00077762755535
30
0
41
1.02990374504916
10
15.6241794281956
20
-3.35282293836182
30
0
41
1.02990374504916
10
15.8033420885288
20
-3.70486824916824
30
0
0
SPLINE
5
14A
100
AcDbEntity
8
1
62
256
6
ByLayer
370
18
48
1
60
0
100
AcDbSpline
70
4
71
3
72
10
73
6
40
0
40
0
40
0
40
0
40
0.207845795367685
40
0.207845795367685
40
1
40
1
40
1
40
1
41
1
10
10.899752020924
20
-4.95835849676195
30
0
41
1
10
10.9361364605063
20
-4.93993619712191
30
0
41
1
10
10.9728608697831
20
-4.92241903366556
30
0
41
1
10
11.1495373223642
20
-4.84324617645771
30
0
41
1
10
11.2938727594532
20
-4.79387393529186
30
0
41
1
10
11.437885213327
20
-4.75921278394173
30
0
0
SPLINE
5
14B
100
AcDbEntity
8
1
62
256
6
ByLayer
370
18
48
1
60
0
100
AcDbSpline
70
4
71
3
72
12
73
8
40
0
40
0
40
0
40
0
40
0.369659083875782
40
0.369659083875782
40
0.727704501586109
40
0.727704501586109
40
1
40
1
40
1
40
1
41
1
10
4.05898535376741
20
-1.88521846928038
30
0
41
1
10
4.286733804015
20
-1.83737037996951
30
0
41
1
10
4.59326275370174
20
-1.81076107964171
30
0
41
1
10
5.28706282712565
20
-1.79476319737228
30
0
41
1
10
5.67970184085632
20
-1.80389102080682
30
0
41
1
10
6.41037607208307
20
-1.84283042110468
30
0
41
1
10
6.74377264555255
20
-1.86742225108108
30
0
41
1
10
7.08277709621961
20
-1.89787880934907
30
0
0
SPLINE
5
14C
100
AcDbEntity
8
1
62
256
6
ByLayer
370
18
48
1
60
0
100
AcDbSpline
70
4
71
3
72
8
73
4
40
0
40
0
40
0
40
0
40
1
40
1
40
1
40
1
41
1
10
10.899752020924
20
-4.95835849676192
30
0
41
1
10
11.2782609953914
20
-6.1547423163162
30
0
41
1
10
11.5473356236993
20
-7.25431181624251
30
0
41
1
10
11.5400450893598
20
-7.88358938152231
30
0
0
SPLINE
5
14D
100
AcDbEntity
8
1
62
256
6
ByLayer
370
18
48
1
60
0
100
AcDbSpline
70
4
71
1
72
4
73
2
40
0
40
0
40
1
40
1
41
1
10
7.9639570322702
20
2.99759328468659
30
0
41
1
10
7.1697623905763
20
3.21760198353604
30
0
0
SPLINE
5
14E
100
AcDbEntity
8
1
62
256
6
ByLayer
370
18
48
1
60
0
100
AcDbSpline
70
4
71
3
72
8
73
4
40
0
40
0
40
0
40
0
40
1
40
1
40
1
40
1
41
1
10
13.4668548344854
20
8.07423247275889
30
0
41
1
10
13.5075084771307
20
8.11805532334617
30
0
41
1
10
13.5487513628032
20
8.1613608688848
30
0
41
1
10
13.5905492480777
20
8.20415532651299
30
0
0
SPLINE
5
14F
100
AcDbEntity
8
1
62
256
6
ByLayer
370
18
48
1
60
0
100
AcDbSpline
70
4
71
3
72
12
73
8
40
0
40
0
40
0
40
0
40
0.391502209781615
40
0.391502209781615
40
0.886018843801028
40
0.886018843801028
40
1
40
1
40
1
40
1
41
1
10
9.23327604122358
20
-8.03722707122228
30
0
41
1
10
9.31319402302427
20
-7.83831508969684
30
0
41
1
10
9.39446032276206
20
-7.5955490572762
30
0
41
1
10
9.57572609057519
20
-6.98321920646922
30
0
41
1
10
9.67710325993934
20
-6.59008941943313
30
0
41
1
10
9.79719649097774
20
-6.07908070947485
30
0
41
1
10
9.81972846272956
20
-5.98115392853555
30
0
41
1
10
9.84207676291587
20
-5.88210622720447
30
0
0
SPLINE
5
150
100
AcDbEntity
8
1
62
256
6
ByLayer
370
18
48
1
60
0
100
AcDbSpline
70
4
71
3
72
8
73
4
40
0
40
0
40
0
40
0
40
1
40
1
40
1
40
1
41
1
10
7.1697623905763
20
3.21760198353604
30
0
41
1
10
8.54668468372628
20
4.69213626657796
30
0
41
1
10
10.1314574024729
20
5.92010207873963
30
0
41
1
10
11.8981776046214
20
6.8970912881569
30
0
0
SPLINE
5
151
100
AcDbEntity
8
1
62
256
6
ByLayer
370
18
48
1
60
0
100
AcDbSpline
70
4
71
3
72
11
73
7
40
0
40
0
40
0
40
0
40
0.717036925638434
40
0.717036925638434
40
0.717036925638434
40
1
40
1
40
1
40
1
41
1
10
3.24971836577896
20
-1.63178183774855
30
0
41
1
10
3.05669866120869
20
-1.86858163556227
30
0
41
1
10
2.86336676843268
20
-2.15146596037829
30
0
41
1
10
2.71229844448948
20
-2.48005741644744
30
0
41
1
10
2.65209226973468
20
-2.6110129610027
30
0
41
1
10
2.59834618681114
20
-2.74995968631436
30
0
41
1
10
2.55463866139161
20
-2.89520132728623
30
0
0
SPLINE
5
152
100
AcDbEntity
8
1
62
256
6
ByLayer
370
18
48
1
60
0
100
AcDbSpline
70
4
71
3
72
8
73
4
40
0
40
0
40
0
40
0
40
1
40
1
40
1
40
1
41
1
10
16.4803527311628
20
3.15889311653041
30
0
41
1
10
17.3716438333964
20
3.83413189889328
30
0
41
1
10
18.5320169043593
20
3.55782866895871
30
0
41
1
10
19.3518136320189
20
4.41145891576923
30
0
0
SPLINE
5
153
100
AcDbEntity
8
1
62
256
6
ByLayer
370
18
48
1
60
0
100
AcDbSpline
70
4
71
3
72
8
73
4
40
0
40
0
40
0
40
0
40
1
40
1
40
1
40
1
41
1
10
14.2951924780908
20
8.46589642881705
30
0
41
1
10
13.6613807658418
20
7.46930233060505
30
0
41
1
10
14.2017904392083
20
6.37623505661304
30
0
41
1
10
13.755592449238
20
5.34362675013341
30
0
0
SPLINE
5
154
100
AcDbEntity
8
1
62
256
6
ByLayer
370
18
48
1
60
0
100
AcDbSpline
70
4
71
3
72
8
73
4
40
0
40
0
40
0
40
0
40
1
40
1
40
1
40
1
41
1
10
14.4557115312008
20
-1.82605941716659
30
0
41
1
10
14.3463778499991
20
-2.04421112885595
30
0
41
1
10
14.2130112487187
20
-2.25551522662045
30
0
41
1
10
14.0595386101051
20
-2.44741879607781
30
0
0
SPLINE
5
155
100
AcDbEntity
8
1
62
256
6
ByLayer
370
18
48
1
60
0
100
AcDbSpline
70
4
71
2
72
6
73
3
40
0
40
0
40
0
40
1
40
1
40
1
41
0.932817050425109
10
14.4557115673011
20
-1.82605945268757
30
0
41
0.929591664905397
10
15.239829183355
20
-2.59759469408438
30
0
41
1.02990374504916
10
15.4450167678626
20
-3.00077762755535
30
0
0
SPLINE
5
156
100
AcDbEntity
8
1
62
256
6
ByLayer
370
18
48
1
60
0
100
AcDbSpline
70
4
71
3
72
15
73
11
40
0
40
0
40
0
40
0
40
0.225043240787981
40
0.225043240787981
40
0.52048282722711
40
0.52048282722711
40
0.820975208236872
40
0.820975208236872
40
0.820975208236872
40
1
40
1
40
1
40
1
41
1
10
14.1832663825836
20
1.7703272959717
30
0
41
1
10
14.3580898994523
20
1.54695676225202
30
0
41
1
10
14.499979441313
20
1.29221080906117
30
0
41
1
10
14.7368153782074
20
0.681420339205914
30
0
41
1
10
14.8091554830389
20
0.308491116208927
30
0
41
1
10
14.8391985287126
20
-0.438407850938915
30
0
41
1
10
14.7954824761229
20
-0.823744285592227
30
0
41
1
10
14.6959326473827
20
-1.18896518876824
30
0
41
1
10
14.6361373931536
20
-1.40833750745054
30
0
41
1
10
14.555468375468
20
-1.62323297446994
30
0
41
1
10
14.4557115312008
20
-1.82605941716659
30
0
0
SPLINE
5
157
100
AcDbEntity
8
1
62
256
6
ByLayer
370
18
48
1
60
0
100
AcDbSpline
70
4
71
3
72
8
73
4
40
0
40
0
40
0
40
0
40
1
40
1
40
1
40
1
41
1
10
6.40940696712889
20
-3.12976533137993
30
0
41
1
10
5.59744827320156
20
-3.50774799667909
30
0
41
1
10
4.8813711965222
20
-3.87137806596746
30
0
41
1
10
4.41655618296244
20
-4.1751442498873
30
0
0
SPLINE
5
158
100
AcDbEntity
8
1
62
256
6
ByLayer
370
18
48
1
60
0
100
AcDbSpline
70
4
71
3
72
8
73
4
40
0
40
0
40
0
40
0
40
1
40
1
40
1
40
1
41
1
10
7.15749095115132
20
-1.32715992744505
30
0
41
1
10
7.16471411503383
20
-0.697709441919812
30
0
41
1
10
7.39088675373603
20
-0.0589838109779066
30
0
41
1
10
7.81110977315265
20
0.466466836920716
30
0
0
SPLINE
5
159
100
AcDbEntity
8
1
62
256
6
ByLayer
370
18
48
1
60
0
100
AcDbSpline
70
4
71
3
72
10
73
6
40
0
40
0
40
0
40
0
40
0.759976532001892
40
0.759976532001892
40
1
40
1
40
1
40
1
41
1
10
15.3691486495688
20
5.27676613954844
30
0
41
1
10
15.6316298645397
20
5.3993162795702
30
0
41
1
10
15.8844609880432
20
5.529151746152
30
0
41
1
10
16.2019945806434
20
5.70849585906785
30
0
41
1
10
16.2771304581561
20
5.7522222090565
30
0
41
1
10
16.3511042835066
20
5.7965779043885
30
0
0
SPLINE
5
15A
100
AcDbEntity
8
1
62
256
6
ByLayer
370
18
48
1
60
0
100
AcDbSpline
70
4
71
3
72
8
73
4
40
0
40
0
40
0
40
0
40
1
40
1
40
1
40
1
41
1
10
4.3476335357476
20
-4.31708355769021
30
0
41
1
10
4.32459995211335
20
-4.29861505416804
30
0
41
1
10
4.30248323435049
20
-4.27959991776831
30
0
41
1
10
4.28121437118068
20
-4.26007688767555
30
0
0
SPLINE
5
15B
100
AcDbEntity
8
1
62
256
6
ByLayer
370
18
48
1
60
0
100
AcDbSpline
70
4
71
3
72
8
73
4
40
0
40
0
40
0
40
0
40
1
40
1
40
1
40
1
41
1
10
13.0381296894634
20
-3.72459770899346
30
0
41
1
10
12.6124442172885
20
-4.25687865701434
30
0
41
1
10
12.0511587079603
20
-4.61160912297544
30
0
41
1
10
11.437885213327
20
-4.75921278394173
30
0
0
SPLINE
5
15C
100
AcDbEntity
8
1
62
256
6
ByLayer
370
18
48
1
60
0
100
AcDbSpline
70
4
71
3
72
16
73
12
40
0
40
0
40
0
40
0
40
0.151798394921707
40
0.151798394921707
40
0.302355402833643
40
0.302355402833643
40
0.469907609657965
40
0.469907609657965
40
0.750934341340612
40
0.750934341340612
40
1
40
1
40
1
40
1
41
1
10
4.28121437118068
20
-4.26007688767555
30
0
41
1
10
4.14551141423289
20
-4.13551297041229
30
0
41
1
10
4.01342669204627
20
-3.99759456329971
30
0
41
1
10
3.78383946054836
20
-3.71785782565928
30
0
41
1
10
3.68255794765608
20
-3.57249576833894
30
0
41
1
10
3.50490876977116
20
-3.27531283365295
30
0
41
1
10
3.43032653420642
20
-3.12153658032662
30
0
41
1
10
3.27804669264532
20
-2.74351713524354
30
0
41
1
10
3.22620269696182
20
-2.53718432788941
30
0
41
1
10
3.19084337239974
20
-2.17412999557965
30
0
41
1
10
3.19993494350143
20
-2.00719724723257
30
0
41
1
10
3.2539246466952
20
-1.82466545781426
30
0
0
SPLINE
5
15D
100
AcDbEntity
8
1
62
256
6
ByLayer
370
18
48
1
60
0
100
AcDbSpline
70
4
71
3
72
14
73
10
40
0
40
0
40
0
40
0
40
0.304391776008975
40
0.304391776008975
40
0.577373879687154
40
0.577373879687154
40
0.851610378463918
40
0.851610378463918
40
1
40
1
40
1
40
1
41
1
10
18.2110279983796
20
8.90726042731961
30
0
41
1
10
18.0449335061422
20
8.94089307818552
30
0
41
1
10
17.8678673457759
20
8.96172409018126
30
0
41
1
10
17.5305620007269
20
8.96786596208278
30
0
41
1
10
17.3666658756991
20
8.95625950560279
30
0
41
1
10
17.0576184127734
20
8.90163864441513
30
0
41
1
10
16.9084714059445
20
8.85759926915728
30
0
41
1
10
16.7077030892818
20
8.77007856721434
30
0
41
1
10
16.6414269514008
20
8.73511287118382
30
0
41
1
10
16.5812415275615
20
8.69727736737536
30
0
0
SPLINE
5
15E
100
AcDbEntity
8
1
62
256
6
ByLayer
370
18
48
1
60
0
100
AcDbSpline
70
4
71
2
72
8
73
5
40
0
40
0
40
0
40
0.145991510275424
40
0.56347020759213
40
1
40
1
40
1
41
1.02393576174177
10
12.9231782050751
20
2.7806756333561
30
0
41
1.02323174907605
10
13.106063737634
20
2.97218291058909
30
0
41
1.02039724512338
10
13.8118047743497
20
3.70304606942645
30
0
41
1.01644464721292
10
14.8869282380149
20
4.72212658620638
30
0
41
1.01495409538139
10
15.3691486495821
20
5.27676613956385
30
0
0
LINE
5
72
100
AcDbEntity
8
1
62
256
6
ByLayer
370
18
48
1
60
0
100
AcDbLine
10
11.840178
20
-8.658248
30
0
11
12.173539
21
-8.267724
31
0
39
0
210
0
220
0
230
1
0
LINE
5
74
100
AcDbEntity
8
1
62
256
6
ByLayer
370
18
48
1
60
0
100
AcDbLine
10
9.929662
20
-1.081262
30
0
11
10.062473
21
-0.93376
31
0
39
0
210
0
220
0
230
1
0
LINE
5
75
100
AcDbEntity
8
1
62
256
6
ByLayer
370
18
48
1
60
0
100
AcDbLine
10
10.670817
20
-0.154515
30
0
11
10.803732
21
-0.006897
31
0
39
0
210
0
220
0
230
1
0
LINE
5
76
100
AcDbEntity
8
1
62
256
6
ByLayer
370
18
48
1
60
0
100
AcDbLine
10
18.153183
20
-1.603895
30
0
11
18.621466
21
-1.083815
31
0
39
0
210
0
220
0
230
1
0
LINE
5
77
100
AcDbEntity
8
1
62
256
6
ByLayer
370
18
48
1
60
0
100
AcDbLine
10
9.865822
20
11.438985
30
0
11
9.39754
21
10.918905
31
0
39
0
210
0
220
0
230
1
0
LINE
5
78
100
AcDbEntity
8
1
62
256
6
ByLayer
370
18
48
1
60
0
100
AcDbLine
10
9.992829
20
-5.697468
30
0
11
9.74009
21
-5.993545
31
0
39
0
210
0
220
0
230
1
0
LINE
5
79
100
AcDbEntity
8
1
62
256
6
ByLayer
370
18
48
1
60
0
100
AcDbLine
10
11.215344
20
-1.811981
30
0
11
11.082533
21
-1.959482
31
0
39
0
210
0
220
0
230
1
0
LINE
5
7A
100
AcDbEntity
8
1
62
256
6
ByLayer
370
18
48
1
60
0
100
AcDbLine
10
13.180955
20
-3.280162
30
0
11
13.344364
21
-3.098678
31
0
39
0
210
0
220
0
230
1
0
LINE
5
7B
100
AcDbEntity
8
1
62
256
6
ByLayer
370
18
48
1
60
0
100
AcDbLine
10
8.588237
20
1.183758
30
0
11
8.424828
21
1.002274
31
0
39
0
210
0
220
0
230
1
0
LINE
5
7C
100
AcDbEntity
8
1
62
256
6
ByLayer
370
18
48
1
60
0
100
AcDbLine
10
11.9565
20
-0.885233
30
0
11
11.823689
21
-1.032735
31
0
39
0
210
0
220
0
230
1
0
LINE
5
7D
100
AcDbEntity
8
80
62
256
6
ByLayer
370
18
48
1
60
0
100
AcDbLine
10
0
20
0
30
0
11
-5
21
0
31
0
39
0
210
0
220
0
230
1
0
LINE
5
7E
100
AcDbEntity
8
81
62
256
6
ByLayer
370
18
48
1
60
0
100
AcDbLine
10
24.899434
20
12.4125
30
0
11
34.899434
21
12.4125
31
0
39
0
210
0
220
0
230
1
0
LINE
5
7F
100
AcDbEntity
8
1
62
256
6
ByLayer
370
18
48
1
60
0
100
AcDbLine
10
12.93557
20
-3.835772
30
0
11
13.838856
21
-2.705943
31
0
39
0
210
0
220
0
230
1
0
LINE
5
80
100
AcDbEntity
8
1
62
256
6
ByLayer
370
18
48
1
60
0
100
AcDbLine
10
14.485966
20
-8.734784
30
0
11
12.85036
21
-7.423342
31
0
39
0
210
0
220
0
230
1
0
LINE
5
81
100
AcDbEntity
8
1
62
256
6
ByLayer
370
18
48
1
60
0
100
AcDbLine
10
4.189556
20
-0.479043
30
0
11
3.765076
21
-0.138692
31
0
39
0
210
0
220
0
230
1
0
LINE
5
82
100
AcDbEntity
8
1
62
256
6
ByLayer
370
18
48
1
60
0
100
AcDbLine
10
11.961668
20
6.934427
30
0
11
9.87269
21
10.094622
31
0
39
0
210
0
220
0
230
1
0
LINE
5
83
100
AcDbEntity
8
1
62
256
6
ByLayer
370
18
48
1
60
0
100
AcDbLine
10
14.485966
20
-8.734784
30
0
11
11.77377
21
-8.734784
31
0
39
0
210
0
220
0
230
1
0
LINE
5
84
100
AcDbEntity
8
1
62
256
6
ByLayer
370
18
48
1
60
0
100
AcDbLine
10
2.643576
20
-2.661095
30
0
11
1.788739
21
-1.97568
31
0
39
0
210
0
220
0
230
1
0
LINE
5
85
100
AcDbEntity
8
1
62
256
6
ByLayer
370
18
48
1
60
0
100
AcDbLine
10
11.973565
20
6.941395
30
0
11
11.896667
21
7.057726
31
0
39
0
210
0
220
0
230
1
0
LINE
5
86
100
AcDbEntity
8
1
62
256
6
ByLayer
370
18
48
1
60
0
100
AcDbLine
10
19.824678
20
-0.683213
30
0
11
19.711864
21
1.037549
31
0
39
0
210
0
220
0
230
1
0
LINE
5
87
100
AcDbEntity
8
1
62
256
6
ByLayer
370
18
48
1
60
0
100
AcDbLine
10
20.322061
20
2.259996
30
0
11
20.396065
21
1.975509
31
0
39
0
210
0
220
0
230
1
0
LINE
5
88
100
AcDbEntity
8
1
62
256
6
ByLayer
370
18
48
1
60
0
100
AcDbLine
10
22.327265
20
5.887393
30
0
11
22.192363
21
6.006857
31
0
39
0
210
0
220
0
230
1
0
LINE
5
89
100
AcDbEntity
8
1
62
256
6
ByLayer
370
18
48
1
60
0
100
AcDbLine
10
2.63261
20
-2.68993
30
0
11
1.592831
21
-1.856228
31
0
39
0
210
0
220
0
230
1
0
LINE
5
8A
100
AcDbEntity
8
1
62
256
6
ByLayer
370
18
48
1
60
0
100
AcDbLine
10
2.518683
20
-3.763393
30
0
11
0.920036
21
-2.481585
31
0
39
0
210
0
220
0
230
1
0
LINE
5
8B
100
AcDbEntity
8
1
62
256
6
ByLayer
370
18
48
1
60
0
100
AcDbLine
10
7.61217
20
-8.734784
30
0
11
1.548284
21
-8.734784
31
0
39
0
210
0
220
0
230
1
0
LINE
5
8C
100
AcDbEntity
8
1
62
256
6
ByLayer
370
18
48
1
60
0
100
AcDbLine
10
19.660969
20
-0.707734
30
0
11
19.56574
21
0.744801
31
0
39
0
210
0
220
0
230
1
0
LINE
5
8D
100
AcDbEntity
8
1
62
256
6
ByLayer
370
18
48
1
60
0
100
AcDbLine
10
9.854751
20
-1.138299
30
0
11
9.980934
21
-0.998159
31
0
39
0
210
0
220
0
230
1
0
LINE
5
8E
100
AcDbEntity
8
1
62
256
6
ByLayer
370
18
48
1
60
0
100
AcDbLine
10
13.180955
20
-3.280162
30
0
11
13.181106
21
-3.279993
31
0
39
0
210
0
220
0
230
1
0
LINE
5
8F
100
AcDbEntity
8
1
62
256
6
ByLayer
370
18
48
1
60
0
100
AcDbLine
10
17.29122
20
-1.073736
30
0
11
17.373462
21
-0.982397
31
0
39
0
210
0
220
0
230
1
0
LINE
5
90
100
AcDbEntity
8
1
62
256
6
ByLayer
370
18
48
1
60
0
100
AcDbLine
10
9.797932
20
10.477823
30
0
11
12.09024
21
7.010032
31
0
39
0
210
0
220
0
230
1
0
LINE
5
91
100
AcDbEntity
8
1
62
256
6
ByLayer
370
18
48
1
60
0
100
AcDbLine
10
17.3518
20
-0.949628
30
0
11
17.373462
21
-0.982397
31
0
39
0
210
0
220
0
230
1
0
LINE
5
92
100
AcDbEntity
8
1
62
256
6
ByLayer
370
18
48
1
60
0
100
AcDbLine
10
9.797932
20
10.477823
30
0
11
9.432108
21
10.071535
31
0
39
0
210
0
220
0
230
1
0
LINE
5
93
100
AcDbEntity
8
1
62
256
6
ByLayer
370
18
48
1
60
0
100
AcDbLine
10
24.059174
20
12.411395
30
0
11
10.405933
21
11.695859
31
0
39
0
210
0
220
0
230
1
0
LINE
5
94
100
AcDbEntity
8
1
62
256
6
ByLayer
370
18
48
1
60
0
100
AcDbLine
10
18.739302
20
-0.910817
30
0
11
24.817013
21
11.26494
31
0
39
0
210
0
220
0
230
1
0
LINE
5
95
100
AcDbEntity
8
1
62
256
6
ByLayer
370
18
48
1
60
0
100
AcDbLine
10
11.899617
20
-0.971052
30
0
11
11.771066
21
-1.113822
31
0
39
0
210
0
220
0
230
1
0
LINE
5
96
100
AcDbEntity
8
1
62
256
6
ByLayer
370
18
48
1
60
0
100
AcDbLine
10
11.746707
20
-1.278801
30
0
11
11.875258
21
-1.136031
31
0
39
0
210
0
220
0
230
1
0
LINE
5
97
100
AcDbEntity
8
1
62
256
6
ByLayer
370
18
48
1
60
0
100
AcDbLine
10
11.495821
20
-0.417333
30
0
11
11.624372
21
-0.274563
31
0
39
0
210
0
220
0
230
1
0
LINE
5
98
100
AcDbEntity
8
1
62
256
6
ByLayer
370
18
48
1
60
0
100
AcDbLine
10
10.625789
20
-0.19553
30
0
11
10.75434
21
-0.05276
31
0
39
0
210
0
220
0
230
1
0
LINE
5
99
100
AcDbEntity
8
1
62
256
6
ByLayer
370
18
48
1
60
0
100
AcDbLine
10
11.832771
20
-1.459064
30
0
11
11.965583
21
-1.311562
31
0
39
0
210
0
220
0
230
1
0
LINE
5
9A
100
AcDbEntity
8
1
62
256
6
ByLayer
370
18
48
1
60
0
100
AcDbLine
10
10.598884
20
-0.112624
30
0
11
10.470333
21
-0.255394
31
0
39
0
210
0
220
0
230
1
0
LINE
5
9B
100
AcDbEntity
8
1
62
256
6
ByLayer
370
18
48
1
60
0
100
AcDbLine
10
11.015104
20
-2.081355
30
0
11
11.147915
21
-1.933853
31
0
39
0
210
0
220
0
230
1
0
LINE
5
9C
100
AcDbEntity
8
1
62
256
6
ByLayer
370
18
48
1
60
0
100
AcDbLine
10
11.694343
20
-0.434708
30
0
11
11.827154
21
-0.287206
31
0
39
0
210
0
220
0
230
1
0
LINE
5
9D
100
AcDbEntity
8
1
62
256
6
ByLayer
370
18
48
1
60
0
100
AcDbLine
10
11.304395
20
-0.122045
30
0
11
11.437207
21
0.025457
31
0
39
0
210
0
220
0
230
1
0
LINE
5
9E
100
AcDbEntity
8
1
62
256
6
ByLayer
370
18
48
1
60
0
100
AcDbLine
10
11.493275
20
-0.169448
30
0
11
11.364724
21
-0.312218
31
0
39
0
210
0
220
0
230
1
0
LINE
5
9F
100
AcDbEntity
8
1
62
256
6
ByLayer
370
18
48
1
60
0
100
AcDbLine
10
10.275843
20
-0.210707
30
0
11
10.408655
21
-0.063205
31
0
39
0
210
0
220
0
230
1
0
LINE
5
A0
100
AcDbEntity
8
1
62
256
6
ByLayer
370
18
48
1
60
0
100
AcDbLine
10
12.223504
20
-8.207231
30
0
11
12.956901
21
-7.290186
31
0
39
0
210
0
220
0
230
1
0
LINE
5
A1
100
AcDbEntity
8
1
62
256
6
ByLayer
370
18
48
1
60
0
100
AcDbLine
10
11.540045
20
-7.883589
30
0
11
15.445017
21
-3.000778
31
0
39
0
210
0
220
0
230
1
0
LINE
5
A2
100
AcDbEntity
8
1
62
256
6
ByLayer
370
18
48
1
60
0
100
AcDbLine
10
15.803342
20
-3.704868
30
0
11
12.973007
21
-7.243945
31
0
39
0
210
0
220
0
230
1
0
LINE
5
A3
100
AcDbEntity
8
1
62
256
6
ByLayer
370
18
48
1
60
0
100
AcDbLine
10
7.81111
20
0.466467
30
0
11
8.832519
21
1.743646
31
0
39
0
210
0
220
0
230
1
0
LINE
5
A4
100
AcDbEntity
8
1
62
256
6
ByLayer
370
18
48
1
60
0
100
AcDbLine
10
4.297211
20
-0.34678
30
0
11
3.563814
21
-1.263826
31
0
39
0
210
0
220
0
230
1
0
LINE
5
A5
100
AcDbEntity
8
1
62
256
6
ByLayer
370
18
48
1
60
0
100
AcDbLine
10
5.384853
20
-4.392732
30
0
11
8.817523
21
-7.145073
31
0
39
0
210
0
220
0
230
1
0
LINE
5
A6
100
AcDbEntity
8
1
62
256
6
ByLayer
370
18
48
1
60
0
100
AcDbLine
10
14.059539
20
-2.447419
30
0
11
13.03813
21
-3.724598
31
0
39
0
210
0
220
0
230
1
0
LINE
5
A7
100
AcDbEntity
8
1
62
256
6
ByLayer
370
18
48
1
60
0
100
AcDbLine
10
4.058985
20
-1.885218
30
0
11
7.963957
21
2.997593
31
0
39
0
210
0
220
0
230
1
0
LINE
5
A8
100
AcDbEntity
8
1
62
256
6
ByLayer
370
18
48
1
60
0
100
AcDbLine
10
4.297211
20
-0.34678
30
0
11
3.254913
21
-1.625409
31
0
39
0
210
0
220
0
230
1
0
LINE
5
A9
100
AcDbEntity
8
1
62
256
6
ByLayer
370
18
48
1
60
0
100
AcDbLine
10
16.581242
20
8.697277
30
0
11
14.283134
21
8.464676
31
0
39
0
210
0
220
0
230
1
0
LINE
5
AA
100
AcDbEntity
8
1
62
256
6
ByLayer
370
18
48
1
60
0
100
AcDbLine
10
9.926288
20
-5.777744
30
0
11
9.680286
21
-6.065929
31
0
39
0
210
0
220
0
230
1
0
LINE
5
AB
100
AcDbEntity
8
1
62
256
6
ByLayer
370
18
48
1
60
0
100
AcDbLine
10
14.059539
20
-2.447419
30
0
11
13.838856
21
-2.705943
31
0
39
0
210
0
220
0
230
1
0
LINE
5
AC
100
AcDbEntity
8
1
62
256
6
ByLayer
370
18
48
1
60
0
100
AcDbLine
10
12.956901
20
-7.290186
30
0
11
12.973007
21
-7.243945
31
0
39
0
210
0
220
0
230
1
0
LINE
5
AD
100
AcDbEntity
8
1
62
256
6
ByLayer
370
18
48
1
60
0
100
AcDbLine
10
13.03813
20
-3.724598
30
0
11
12.822465
21
-3.977244
31
0
39
0
210
0
220
0
230
1
0
LINE
5
AE
100
AcDbEntity
8
1
62
256
6
ByLayer
370
18
48
1
60
0
100
AcDbLine
10
3.563814
20
-1.263826
30
0
11
3.249718
21
-1.631782
31
0
39
0
210
0
220
0
230
1
0
LINE
5
AF
100
AcDbEntity
8
1
62
256
6
ByLayer
370
18
48
1
60
0
100
AcDbLine
10
9.680286
20
-6.065929
30
0
11
8.817523
21
-7.145073
31
0
39
0
210
0
220
0
230
1
0
LINE
5
B0
100
AcDbEntity
8
1
62
256
6
ByLayer
370
18
48
1
60
0
100
AcDbLine
10
7.169762
20
3.217602
30
0
11
4.339427
21
-0.321475
31
0
39
0
210
0
220
0
230
1
0
LINE
5
B1
100
AcDbEntity
8
1
62
256
6
ByLayer
370
18
48
1
60
0
100
AcDbLine
10
16.351104
20
5.796578
30
0
11
18.639409
21
8.705733
31
0
39
0
210
0
220
0
230
1
0
LINE
5
B2
100
AcDbEntity
8
1
62
256
6
ByLayer
370
18
48
1
60
0
100
AcDbLine
10
19.35326
20
4.39941
30
0
11
19.077592
21
6.695685
31
0
39
0
210
0
220
0
230
1
0
LINE
5
B3
100
AcDbEntity
8
1
62
256
6
ByLayer
370
18
48
1
60
0
100
AcDbLine
10
8.194335
20
-9.201481
30
0
11
3.435407
21
-5.385735
31
0
39
0
210
0
220
0
230
1
0
LINE
5
B4
100
AcDbEntity
8
1
62
256
6
ByLayer
370
18
48
1
60
0
100
AcDbLine
10
4.347634
20
-4.317084
30
0
11
9.106562
21
-8.132829
31
0
39
0
210
0
220
0
230
1
0
LINE
5
B5
100
AcDbEntity
8
1
62
256
6
ByLayer
370
18
48
1
60
0
100
AcDbLine
10
4.347634
20
-4.317084
30
0
11
3.435407
21
-5.385735
31
0
39
0
210
0
220
0
230
1
0
LINE
5
B6
100
AcDbEntity
8
1
62
256
6
ByLayer
370
18
48
1
60
0
100
AcDbLine
10
9.106562
20
-8.132829
30
0
11
8.194335
21
-9.201481
31
0
39
0
210
0
220
0
230
1
0
LINE
5
B7
100
AcDbEntity
8
1
62
256
6
ByLayer
370
18
48
1
60
0
100
AcDbLine
10
4.297211
20
-0.34678
30
0
11
4.339427
21
-0.321475
31
0
39
0
210
0
220
0
230
1
0
LINE
5
B8
100
AcDbEntity
8
1
62
256
6
ByLayer
370
18
48
1
60
0
100
AcDbLine
10
23.345491
20
4.985695
30
0
11
22.327265
21
5.887393
31
0
39
0
210
0
220
0
230
1
0
LINE
5
B9
100
AcDbEntity
8
1
62
256
6
ByLayer
370
18
48
1
60
0
100
AcDbLine
10
18.281298
20
-2.33933
30
0
11
18.082694
21
-2.350172
31
0
39
0
210
0
220
0
230
1
0
LINE
5
BA
100
AcDbEntity
8
1
62
256
6
ByLayer
370
18
48
1
60
0
100
AcDbLine
10
22.775283
20
-8.734784
30
0
11
23.345491
21
4.985695
31
0
39
0
210
0
220
0
230
1
0
LINE
5
BB
100
AcDbEntity
8
1
62
256
6
ByLayer
370
18
48
1
60
0
100
AcDbLine
10
1.592831
20
-1.856228
30
0
11
1.788739
21
-1.97568
31
0
39
0
210
0
220
0
230
1
0
LINE
5
BC
100
AcDbEntity
8
1
62
256
6
ByLayer
370
18
48
1
60
0
100
AcDbLine
10
1.730403
20
9.667903
30
0
11
0
21
7.9375
31
0
39
0
210
0
220
0
230
1
0
LINE
5
BD
100
AcDbEntity
8
1
62
256
6
ByLayer
370
18
48
1
60
0
100
AcDbLine
10
1.788739
20
-1.97568
30
0
11
3.765076
21
-0.138692
31
0
39
0
210
0
220
0
230
1
0
LINE
5
BE
100
AcDbEntity
8
1
62
256
6
ByLayer
370
18
48
1
60
0
100
AcDbLine
10
20.396065
20
1.975509
30
0
11
22.327265
21
5.887393
31
0
39
0
210
0
220
0
230
1
0
LINE
5
BF
100
AcDbEntity
8
1
62
256
6
ByLayer
370
18
48
1
60
0
100
AcDbLine
10
9.97106
20
10.099777
30
0
11
11.568768
21
7.682772
31
0
39
0
210
0
220
0
230
1
0
LINE
5
C0
100
AcDbEntity
8
1
62
256
6
ByLayer
370
18
48
1
60
0
100
AcDbLine
10
2.774327
20
9.722613
30
0
11
1.730403
21
9.667903
31
0
39
0
210
0
220
0
230
1
0
LINE
5
C1
100
AcDbEntity
8
1
62
256
6
ByLayer
370
18
48
1
60
0
100
AcDbLine
10
22.775283
20
-8.734784
30
0
11
14.485966
21
-8.734784
31
0
39
0
210
0
220
0
230
1
0
LINE
5
C2
100
AcDbEntity
8
1
62
256
6
ByLayer
370
18
48
1
60
0
100
AcDbLine
10
19.660969
20
-0.707734
30
0
11
19.824678
21
-0.683213
31
0
39
0
210
0
220
0
230
1
0
LINE
5
C3
100
AcDbEntity
8
1
62
256
6
ByLayer
370
18
48
1
60
0
100
AcDbLine
10
1.548284
20
-8.734784
30
0
11
0.793812
21
-8.734784
31
0
39
0
210
0
220
0
230
1
0
LINE
5
C4
100
AcDbEntity
8
1
62
256
6
ByLayer
370
18
48
1
60
0
100
AcDbLine
10
20.513842
20
0.179035
30
0
11
20.396065
21
1.975509
31
0
39
0
210
0
220
0
230
1
0
LINE
5
C5
100
AcDbEntity
8
1
62
256
6
ByLayer
370
18
48
1
60
0
100
AcDbLine
10
9.87269
20
10.094622
30
0
11
9.97106
21
10.099777
31
0
39
0
210
0
220
0
230
1
0
LINE
5
C6
100
AcDbEntity
8
1
62
256
6
ByLayer
370
18
48
1
60
0
100
AcDbLine
10
1.548284
20
-8.734784
30
0
11
0.920036
21
-2.481585
31
0
39
0
210
0
220
0
230
1
0
LINE
5
C7
100
AcDbEntity
8
1
62
256
6
ByLayer
370
18
48
1
60
0
100
AcDbLine
10
9.87269
20
10.094622
30
0
11
2.774327
21
9.722613
31
0
39
0
210
0
220
0
230
1
0
LINE
5
C8
100
AcDbEntity
8
1
62
256
6
ByLayer
370
18
48
1
60
0
100
AcDbLine
10
3.765076
20
-0.138692
30
0
11
2.774327
21
9.722613
31
0
39
0
210
0
220
0
230
1
0
LINE
5
C9
100
AcDbEntity
8
1
62
256
6
ByLayer
370
18
48
1
60
0
100
AcDbLine
10
0
20
-7.9375
30
0
11
0.793812
21
-8.734784
31
0
39
0
210
0
220
0
230
1
0
LINE
5
CA
100
AcDbEntity
8
1
62
256
6
ByLayer
370
18
48
1
60
0
100
AcDbLine
10
0
20
-7.9375
30
0
11
0
21
7.9375
31
0
39
0
210
0
220
0
230
1
0
LINE
5
CB
100
AcDbEntity
8
1
62
256
6
ByLayer
370
18
48
1
60
0
100
AcDbLine
10
19.824678
20
-0.683213
30
0
11
20.513842
21
0.179035
31
0
39
0
210
0
220
0
230
1
0
LINE
5
CC
100
AcDbEntity
8
SK1
62
256
6
ByLayer
370
18
48
1
60
0
100
AcDbLine
10
0
20
7.9375
30
0
11
-76.450566
21
7.9375
31
0
39
0
210
0
220
0
230
1
0
LINE
5
CE
100
AcDbEntity
8
SK1
62
256
6
ByLayer
370
18
48
1
60
0
100
AcDbLine
10
-76.450566
20
-7.9375
30
0
11
0
21
-7.9375
31
0
39
0
210
0
220
0
230
1
0
LINE
5
CF
100
AcDbEntity
8
SK1
62
256
6
ByLayer
370
18
48
1
60
0
100
AcDbLine
10
0
20
7.9375
30
0
11
0
21
-7.9375
31
0
39
0
210
0
220
0
230
1
0
LINE
5
D0
100
AcDbEntity
8
SK1
62
256
6
ByLayer
370
18
48
1
60
0
100
AcDbLine
10
-76.450566
20
7.9375
30
0
11
-76.450566
21
-7.9375
31
0
39
0
210
0
220
0
230
1
0
MTEXT
5
15F
100
AcDbEntity
8
SK6
62
256
6
ByLayer
370
18
48
1
60
0
100
AcDbMText
10
-39.900566
20
-19.719762
30
0
210
0
220
0
230
1
1
\W0.7226;DTJNR 1616H 16
40
3.5
41
0
44
1.084337
50
0
71
7
72
5
7
iso_b_vert
0
DIMENSION
5
170
100
AcDbEntity
8
2
62
256
6
ByLayer
370
13
48
1
60
0
100
AcDbDimension
2
DimnDraft3D1
10
23.065513
20
12.359076
30
0
11
6.456299
21
29.957069
31
0
70
34
71
5
72
1
41
1
210
0
220
0
230
1
3
Standard
100
AcDb2LineAngularDimension
13
24.899434
23
12.4125
33
0
14
24.899434
24
10.825
34
0
15
24.064142
25
12.411412
35
0
16
9.720484
26
26.859474
36
0
40
0
0
DIMENSION
5
186
100
AcDbEntity
8
SK2
62
256
6
ByLayer
370
13
48
1
60
0
100
AcDbDimension
2
DimnDraft3D2
10
-84.200566
20
7.9375
30
0
11
-84.200566
21
-4.719079
31
0
70
32
71
5
72
1
41
1
210
0
220
0
230
1
3
Standard
100
AcDbAlignedDimension
13
-78.450566
23
-7.9375
33
0
14
-78.450566
24
7.9375
34
0
50
90
100
AcDbRotatedDimension
1001
ACAD
1000
DSTYLE
1002
{
1070
    74
1070
     0
1070
   279
1070
     0
1070
   172
1070
     1
1070
   173
1070
     1
1070
   340
1005
160
1070
    77
1070
     1
1070
    73
1070
     0
1070
   171
1070
     3
1070
   274
1070
     4
1070
   177
1070
     2
1070
   176
1070
     2
1070
   178
1070
     7
1070
    78
1070
     8
1070
    41
1041
3.175
1070
   147
1041
2.25
1070
    42
1041
2.0
1070
    44
1041
2.0
1070
   140
1041
4.5
1070
   343
1005
171
1070
   344
1005
171
1002
}
0
DIMENSION
5
194
100
AcDbEntity
8
2
62
256
6
ByLayer
370
13
48
1
60
0
100
AcDbDimension
2
DimnDraft3D3
10
47.149434
20
12.4125
30
0
11
47.149434
21
-3.044079
31
0
70
32
71
5
72
1
41
1
210
0
220
0
230
1
3
Standard
100
AcDbAlignedDimension
13
2
23
-7.9375
33
0
14
26.899434
24
12.4125
34
0
50
90
100
AcDbRotatedDimension
1001
ACAD
1000
DSTYLE
1002
{
1070
    74
1070
     0
1070
   279
1070
     0
1070
   172
1070
     1
1070
   173
1070
     1
1070
   340
1005
160
1070
    77
1070
     1
1070
    73
1070
     0
1070
   171
1070
     3
1070
   274
1070
     4
1070
   177
1070
     2
1070
   176
1070
     2
1070
   178
1070
     7
1070
    78
1070
     8
1070
    41
1041
3.175
1070
   147
1041
2.25
1070
    42
1041
2.0
1070
    44
1041
2.0
1070
   140
1041
4.5
1070
   343
1005
171
1070
   344
1005
171
1002
}
0
DIMENSION
5
1A2
100
AcDbEntity
8
2
62
256
6
ByLayer
370
13
48
1
60
0
100
AcDbDimension
2
DimnDraft3D4
10
24.899434
20
42.1625
30
0
11
6.931296
21
42.1625
31
0
70
32
71
5
72
1
41
1
210
0
220
0
230
1
3
Standard
100
AcDbAlignedDimension
13
0
23
9.9375
33
0
14
24.899434
24
14.4125
34
0
50
0
100
AcDbRotatedDimension
1001
ACAD
1000
DSTYLE
1002
{
1070
   279
1070
     0
1070
   172
1070
     1
1070
   173
1070
     1
1070
   340
1005
160
1070
    77
1070
     1
1070
    73
1070
     0
1070
   171
1070
     3
1070
   274
1070
     4
1070
   177
1070
     2
1070
   176
1070
     2
1070
   178
1070
     7
1070
    78
1070
     8
1070
    41
1041
3.175
1070
   147
1041
2.25
1070
    42
1041
2.0
1070
    44
1041
2.0
1070
   140
1041
4.5
1070
   343
1005
171
1070
   344
1005
171
1002
}
0
DIMENSION
5
1B0
100
AcDbEntity
8
SK2
62
256
6
ByLayer
370
13
48
1
60
0
100
AcDbDimension
2
DimnDraft3D5
10
-76.450566
20
52.1625
30
0
11
-32.176224
21
52.1625
31
0
70
32
71
5
72
1
41
1
210
0
220
0
230
1
3
Standard
100
AcDbAlignedDimension
13
24.899434
23
14.4125
33
0
14
-76.450566
24
9.9375
34
0
50
0
100
AcDbRotatedDimension
1001
ACAD
1000
DSTYLE
1002
{
1070
   279
1070
     0
1070
   172
1070
     1
1070
   173
1070
     1
1070
   340
1005
160
1070
    77
1070
     1
1070
    73
1070
     0
1070
   171
1070
     3
1070
   274
1070
     4
1070
   177
1070
     2
1070
   176
1070
     2
1070
   178
1070
     7
1070
    78
1070
     8
1070
    41
1041
3.175
1070
   147
1041
2.25
1070
    42
1041
2.0
1070
    44
1041
2.0
1070
   140
1041
4.5
1070
   343
1005
171
1070
   344
1005
171
1002
}
0
ENDSEC
0
SECTION
2
OBJECTS
0
DICTIONARY
5
21a
330
0
100
AcDbDictionary
280
0
281
1
3
ACAD_GROUP
350
21b
3
ACAD_MLINESTYLE
350
21c
0
DICTIONARY
5
21b
330
0
100
AcDbDictionary
280
0
281
1
0
DICTIONARY
5
21c
330
0
100
AcDbDictionary
280
0
281
1
3
Standard
350
18
0
MLINESTYLE
5
18
330
21c
100
AcDbMlineStyle
2
Standard
70
0
3

62
256
51
90
52
90
71
2
49
-0.5
62
256
6
ByLayer
49
0.5
62
256
6
ByLayer
0
RASTERVARIABLES
5
209
330

100
AcDbRasterVariables
90
0
70
1
71
1
72
1
0
ENDSEC
0
EOF
