0
SECTION
2
HEADER
9
$ACADVER
1
AC1015
9
$DWGCODEPAGE
3
ANSI_1252
9
$HANDSEED
5
213
9
$ANGBASE
50
0
9
$ANGDIR
70
0
9
$ATTMODE
70
1
9
$AUNITS
70
0
9
$AUPREC
70
0
9
$CECOLOR
62
256
9
$CELTSCALE
40
1
9
$CELTYPE
6
ByLayer
9
$CELWEIGHT
370
18
9
$CLAYER
8
0
9
$CMLJUST
70
0
9
$CMLSCALE
40
1
9
$CMLSTYLE
2
Standard
9
$DIMSTYLE
2
Standard
9
$TEXTSIZE
40
0.2
9
$TEXTSTYLE
7
Standard
9
$LUNITS
70
2
9
$LUPREC
70
4
9
$EXTNAMES
290
1
9
$INSUNITS
70
4
9
$LTSCALE
40
1
9
$LWDISPLAY
290
1
9
$PDMODE
70
0
9
$PDSIZE
40
0
9
$PLINEGEN
70
0
0
ENDSEC
0
SECTION
2
CLASSES
0
CLASS
1
RASTERVARIABLES
2
AcDbRasterVariables
3
ISM
90
0
280
0
281
0
0
ENDSEC
0
SECTION
2
TABLES
0
TABLE
2
VPORT
5
209
100
AcDbSymbolTable
0
VPORT
5
1
100
AcDbSymbolTableRecord
100
AcDbViewportTableRecord
2
*Active
70
0
10
0
20
0
11
1
21
1
12
-1
22
1
13
0
23
0
14
0.5
24
0.5
15
10
25
10
16
0
26
0
36
1
17
0
27
0
37
0
0
ENDTAB
0
TABLE
2
LTYPE
5
20a
100
AcDbSymbolTable
0
LTYPE
5
14
100
AcDbSymbolTableRecord
100
AcDbLinetypeTableRecord
70
0
2
ByBlock
3

72
65
73
0
40
0
0
LTYPE
5
15
100
AcDbSymbolTableRecord
100
AcDbLinetypeTableRecord
70
0
2
ByLayer
3

72
65
73
0
40
0
0
LTYPE
5
16
100
AcDbSymbolTableRecord
100
AcDbLinetypeTableRecord
70
0
2
CONTINUOUS
3
Solid line
72
65
73
0
40
0
0
LTYPE
5
6A
100
AcDbSymbolTableRecord
100
AcDbLinetypeTableRecord
70
0
2
CENTER
3
____ _ ____ _ ____ _ ____
72
65
73
4
40
47.5
49
22
74
0
49
-8.5
74
0
49
8.5
74
0
49
-8.5
74
0
0
LTYPE
5
6B
100
AcDbSymbolTableRecord
100
AcDbLinetypeTableRecord
70
0
2
DASHED
3
__ __ __ __ __ __ __ __ __
72
65
73
2
40
25.72
49
12.86
74
0
49
-12.86
74
0
0
ENDTAB
0
TABLE
2
LAYER
5
20b
100
AcDbSymbolTable
0
LAYER
5
10
100
AcDbSymbolTableRecord
100
AcDbLayerTableRecord
2
0
70
0
62
7
6
CONTINUOUS
290
1
370
-3
390
0
0
LAYER
5
6D
100
AcDbSymbolTableRecord
100
AcDbLayerTableRecord
2
2
70
0
62
7
6
CONTINUOUS
290
1
370
-3
390
0
0
LAYER
5
6F
100
AcDbSymbolTableRecord
100
AcDbLayerTableRecord
2
80
70
0
62
-6
6
CONTINUOUS
290
1
370
-3
390
0
0
LAYER
5
71
100
AcDbSymbolTableRecord
100
AcDbLayerTableRecord
2
81
70
0
62
-3
6
CONTINUOUS
290
1
370
-3
390
0
0
LAYER
5
73
100
AcDbSymbolTableRecord
100
AcDbLayerTableRecord
2
1
70
0
62
4
6
CONTINUOUS
290
1
370
-3
390
0
0
LAYER
5
1f6
100
AcDbSymbolTableRecord
100
AcDbLayerTableRecord
2
SK1
70
0
62
4
6
CONTINUOUS
290
1
370
-3
390
0
0
LAYER
5
1f7
100
AcDbSymbolTableRecord
100
AcDbLayerTableRecord
2
SK6
70
0
62
5
6
CONTINUOUS
290
1
370
-3
390
0
0
LAYER
5
1f8
100
AcDbSymbolTableRecord
100
AcDbLayerTableRecord
2
SK2
70
0
62
7
6
CONTINUOUS
290
1
370
-3
390
0
0
ENDTAB
0
TABLE
2
STYLE
5
20c
100
AcDbSymbolTable
0
STYLE
5
11
100
AcDbSymbolTableRecord
100
AcDbTextStyleTableRecord
2
Standard
3
txt
70
0
71
0
40
0
41
1
42
0
50
0
0
STYLE
5
14C
100
AcDbSymbolTableRecord
100
AcDbTextStyleTableRecord
2
iso_b_vert
3
simplex.shx
70
0
71
0
40
0
41
1
42
0
50
0
0
STYLE
5
14D
100
AcDbSymbolTableRecord
100
AcDbTextStyleTableRecord
2
DWGDirectTextStyle
3
simplex
70
0
71
0
40
0
41
1
42
0
50
0
0
ENDTAB
0
TABLE
2
DIMSTYLE
5
20d
100
AcDbSymbolTable
100
AcDbDimStyleTable
0
DIMSTYLE
105
27
100
AcDbSymbolTableRecord
100
AcDbDimStyleTableRecord
2
Standard
70
0
3
<>
41
0.18
42
0.0625
44
0.18
140
0.18
147
0.09
73
0
74
0
77
1
271
2
275
0
278
52
280
0
340
11
0
ENDTAB
0
TABLE
2
VIEW
5
20e
100
AcDbSymbolTable
0
ENDTAB
0
TABLE
2
UCS
5
20f
100
AcDbSymbolTable
0
ENDTAB
0
TABLE
2
APPID
5
210
100
AcDbSymbolTable
0
APPID
5
12
100
AcDbSymbolTableRecord
100
AcDbRegAppTableRecord
2
ACAD
70
0
0
ENDTAB
0
TABLE
2
BLOCK_RECORD
5
211
100
AcDbSymbolTable
0
BLOCK_RECORD
5
1F
100
AcDbSymbolTableRecord
100
AcDbBlockTableRecord
2
*Model_Space
340
0
70
0
0
BLOCK_RECORD
5
1B
100
AcDbSymbolTableRecord
100
AcDbBlockTableRecord
2
*Paper_Space
340
0
70
0
0
BLOCK_RECORD
5
23
100
AcDbSymbolTableRecord
100
AcDbBlockTableRecord
2
*Paper_Space0
340
0
70
0
0
BLOCK_RECORD
5
14F
100
AcDbSymbolTableRecord
100
AcDbBlockTableRecord
2
DimnDraft3D11
340
0
70
0
0
BLOCK_RECORD
5
15E
100
AcDbSymbolTableRecord
100
AcDbBlockTableRecord
2
DimnDraft3D2
340
0
70
0
0
BLOCK_RECORD
5
16C
100
AcDbSymbolTableRecord
100
AcDbBlockTableRecord
2
_CLOSED
340
0
70
0
0
BLOCK_RECORD
5
173
100
AcDbSymbolTableRecord
100
AcDbBlockTableRecord
2
DimnDraft3D3
340
0
70
0
0
BLOCK_RECORD
5
181
100
AcDbSymbolTableRecord
100
AcDbBlockTableRecord
2
DimnDraft3D4
340
0
70
0
0
BLOCK_RECORD
5
18F
100
AcDbSymbolTableRecord
100
AcDbBlockTableRecord
2
DimnDraft3D5
340
0
70
0
0
ENDTAB
0
ENDSEC
0
SECTION
2
BLOCKS
0
BLOCK
5
20
100
AcDbEntity
8
0
100
AcDbBlockBegin
2
*Model_Space
70
0
10
0
20
0
30
0
3
*Model_Space
0
ENDBLK
5
21
100
AcDbEntity
8
0
100
AcDbBlockEnd
0
BLOCK
5
1C
100
AcDbEntity
8
0
100
AcDbBlockBegin
2
*Paper_Space
70
0
10
0
20
0
30
0
3
*Paper_Space
0
ENDBLK
5
1D
100
AcDbEntity
8
0
100
AcDbBlockEnd
0
BLOCK
5
24
100
AcDbEntity
8
0
100
AcDbBlockBegin
2
*Paper_Space0
70
0
10
0
20
0
30
0
3
*Paper_Space0
0
ENDBLK
5
25
100
AcDbEntity
8
0
100
AcDbBlockEnd
0
BLOCK
5
150
100
AcDbEntity
8
0
100
AcDbBlockBegin
2
DimnDraft3D11
70
0
10
0
20
0
30
0
3
DimnDraft3D11
0
LINE
5
152
100
AcDbEntity
8
SK2
62
256
6
ByLayer
370
25
48
1
60
0
100
AcDbLine
10
32.645022
20
-26.425
30
0
11
32.645022
21
-64.675
31
0
39
0
210
0
220
0
230
1
0
LINE
5
154
100
AcDbEntity
8
SK2
62
256
6
ByLayer
370
25
48
1
60
0
100
AcDbLine
10
-138.704978
20
-17.925
30
0
11
-138.704978
21
-64.675
31
0
39
0
210
0
220
0
230
1
0
LINE
5
155
100
AcDbEntity
8
SK2
62
256
6
ByLayer
370
25
48
1
60
0
100
AcDbLine
10
32.645022
20
-62.675
30
0
11
-138.704978
21
-62.675
31
0
39
0
210
0
220
0
230
1
0
LINE
5
156
100
AcDbEntity
8
SK2
62
256
6
ByLayer
370
25
48
1
60
0
100
AcDbLine
10
32.645022
20
-62.675
30
0
11
29.470024
21
-63.092997
31
0
39
0
210
0
220
0
230
1
0
LINE
5
157
100
AcDbEntity
8
SK2
62
256
6
ByLayer
370
25
48
1
60
0
100
AcDbLine
10
32.645022
20
-62.675
30
0
11
29.47002
21
-62.257003
31
0
39
0
210
0
220
0
230
1
0
LINE
5
158
100
AcDbEntity
8
SK2
62
256
6
ByLayer
370
25
48
1
60
0
100
AcDbLine
10
29.470024
20
-63.092997
30
0
11
29.47002
21
-62.257003
31
0
39
0
210
0
220
0
230
1
0
LINE
5
159
100
AcDbEntity
8
SK2
62
256
6
ByLayer
370
25
48
1
60
0
100
AcDbLine
10
-138.704978
20
-62.675
30
0
11
-135.52998
21
-62.257003
31
0
39
0
210
0
220
0
230
1
0
LINE
5
15A
100
AcDbEntity
8
SK2
62
256
6
ByLayer
370
25
48
1
60
0
100
AcDbLine
10
-138.704978
20
-62.675
30
0
11
-135.529976
21
-63.092997
31
0
39
0
210
0
220
0
230
1
0
LINE
5
15B
100
AcDbEntity
8
SK2
62
256
6
ByLayer
370
25
48
1
60
0
100
AcDbLine
10
-135.52998
20
-62.257003
30
0
11
-135.529976
21
-63.092997
31
0
39
0
210
0
220
0
230
1
0
MTEXT
5
15C
100
AcDbEntity
8
SK2
62
256
6
ByLayer
370
18
48
1
60
0
100
AcDbMText
10
-58.305636
20
-61.55
30
0
210
0
220
0
230
1
1
\W0.6864;170.0
40
4.5
41
0
44
1.084337
50
0
71
7
72
5
7
iso_b_vert
0
ENDBLK
5
151
100
AcDbEntity
8
0
100
AcDbBlockEnd
0
BLOCK
5
169
100
AcDbEntity
8
0
100
AcDbBlockBegin
2
DimnDraft3D2
70
0
10
0
20
0
30
0
3
DimnDraft3D2
0
MTEXT
5
15F
100
AcDbEntity
8
2
62
256
6
ByLayer
370
18
48
1
60
0
100
AcDbMText
10
15.899387
20
-36.334465
30
0
210
0
220
0
230
1
1
\W0.7399;93%%d
40
4.5
41
0
44
1.084337
50
313.5
71
7
72
5
7
iso_b_vert
0
LINE
5
160
100
AcDbEntity
8
2
62
256
6
ByLayer
370
13
48
1
60
0
100
AcDbLine
10
32.645022
20
-26.425
30
0
11
32.645022
21
-47.908093
31
0
39
0
210
0
220
0
230
1
0
LINE
5
161
100
AcDbEntity
8
2
62
256
6
ByLayer
370
13
48
1
60
0
100
AcDbLine
10
28.813842
20
-24.266904
30
0
11
9.236742
21
-23.240912
31
0
39
0
210
0
220
0
230
1
0
ARC
5
162
100
AcDbEntity
8
2
62
256
6
ByLayer
370
13
48
1
60
0
100
AcDbCircle
39
0
10
32.645022
20
-24.467688
30
0
40
21.4404046852669
210
0
220
0
230
1
100
AcDbArc
50
177
51
270
0
LINE
5
163
100
AcDbEntity
8
2
62
256
6
ByLayer
370
13
48
1
60
0
100
AcDbLine
10
32.645022
20
-45.908093
30
0
11
29.456748
21
-46.208502
31
0
39
0
210
0
220
0
230
1
0
LINE
5
164
100
AcDbEntity
8
2
62
256
6
ByLayer
370
13
48
1
60
0
100
AcDbLine
10
32.645022
20
-45.908093
30
0
11
29.487631
21
-45.37308
31
0
39
0
210
0
220
0
230
1
0
LINE
5
165
100
AcDbEntity
8
2
62
256
6
ByLayer
370
13
48
1
60
0
100
AcDbLine
10
29.456748
20
-46.208502
30
0
11
29.487631
21
-45.37308
31
0
39
0
210
0
220
0
230
1
0
LINE
5
166
100
AcDbEntity
8
2
62
256
6
ByLayer
370
13
48
1
60
0
100
AcDbLine
10
11.234001
20
-23.345584
30
0
11
11.603035
21
-26.526645
31
0
39
0
210
0
220
0
230
1
0
LINE
5
167
100
AcDbEntity
8
2
62
256
6
ByLayer
370
13
48
1
60
0
100
AcDbLine
10
11.234001
20
-23.345584
30
0
11
10.767141
21
-26.513769
31
0
39
0
210
0
220
0
230
1
0
LINE
5
168
100
AcDbEntity
8
2
62
256
6
ByLayer
370
13
48
1
60
0
100
AcDbLine
10
11.603035
20
-26.526645
30
0
11
10.767141
21
-26.513769
31
0
39
0
210
0
220
0
230
1
0
ENDBLK
5
16A
100
AcDbEntity
8
0
100
AcDbBlockEnd
0
BLOCK
5
16D
100
AcDbEntity
8
0
100
AcDbBlockBegin
2
_CLOSED
70
0
10
0
20
0
30
0
3
_CLOSED
0
LINE
5
16F
100
AcDbEntity
8
0
62
256
6
ByLayer
370
-2
48
1
60
0
100
AcDbLine
10
-1
20
0.166667
30
0
11
0
21
0
31
0
39
0
210
0
220
0
230
1
0
LINE
5
170
100
AcDbEntity
8
0
62
256
6
ByLayer
370
-2
48
1
60
0
100
AcDbLine
10
0
20
0
30
0
11
-1
21
-0.166667
31
0
39
0
210
0
220
0
230
1
0
LINE
5
171
100
AcDbEntity
8
0
62
256
6
ByLayer
370
-2
48
1
60
0
100
AcDbLine
10
-1
20
0.166667
30
0
11
-1
21
-0.166667
31
0
39
0
210
0
220
0
230
1
0
LINE
5
172
100
AcDbEntity
8
0
62
256
6
ByLayer
370
-2
48
1
60
0
100
AcDbLine
10
0
20
0
30
0
11
-1
21
0
31
0
39
0
210
0
220
0
230
1
0
ENDBLK
5
16E
100
AcDbEntity
8
0
100
AcDbBlockEnd
0
BLOCK
5
17E
100
AcDbEntity
8
0
100
AcDbBlockBegin
2
DimnDraft3D3
70
0
10
0
20
0
30
0
3
DimnDraft3D3
0
MTEXT
5
174
100
AcDbEntity
8
2
62
256
6
ByLayer
370
18
48
1
60
0
100
AcDbMText
10
12.165932
20
-51.55
30
0
210
0
220
0
230
1
1
\W0.7346;32.6
40
4.5
41
0
44
1.084337
50
0
71
7
72
5
7
iso_b_vert
0
LINE
5
175
100
AcDbEntity
8
2
62
256
6
ByLayer
370
13
48
1
60
0
100
AcDbLine
10
0
20
-17.925
30
0
11
0
21
-54.675
31
0
39
0
210
0
220
0
230
1
0
LINE
5
176
100
AcDbEntity
8
2
62
256
6
ByLayer
370
13
48
1
60
0
100
AcDbLine
10
32.645022
20
-26.425
30
0
11
32.645022
21
-54.675
31
0
39
0
210
0
220
0
230
1
0
LINE
5
177
100
AcDbEntity
8
2
62
256
6
ByLayer
370
13
48
1
60
0
100
AcDbLine
10
0
20
-52.675
30
0
11
32.645022
21
-52.675
31
0
39
0
210
0
220
0
230
1
0
LINE
5
178
100
AcDbEntity
8
2
62
256
6
ByLayer
370
13
48
1
60
0
100
AcDbLine
10
0
20
-52.675
30
0
11
3.174998
21
-52.257003
31
0
39
0
210
0
220
0
230
1
0
LINE
5
179
100
AcDbEntity
8
2
62
256
6
ByLayer
370
13
48
1
60
0
100
AcDbLine
10
0
20
-52.675
30
0
11
3.175002
21
-53.092997
31
0
39
0
210
0
220
0
230
1
0
LINE
5
17A
100
AcDbEntity
8
2
62
256
6
ByLayer
370
13
48
1
60
0
100
AcDbLine
10
3.174998
20
-52.257003
30
0
11
3.175002
21
-53.092997
31
0
39
0
210
0
220
0
230
1
0
LINE
5
17B
100
AcDbEntity
8
2
62
256
6
ByLayer
370
13
48
1
60
0
100
AcDbLine
10
32.645022
20
-52.675
30
0
11
29.470024
21
-53.092997
31
0
39
0
210
0
220
0
230
1
0
LINE
5
17C
100
AcDbEntity
8
2
62
256
6
ByLayer
370
13
48
1
60
0
100
AcDbLine
10
32.645022
20
-52.675
30
0
11
29.47002
21
-52.257003
31
0
39
0
210
0
220
0
230
1
0
LINE
5
17D
100
AcDbEntity
8
2
62
256
6
ByLayer
370
13
48
1
60
0
100
AcDbLine
10
29.470024
20
-53.092997
30
0
11
29.47002
21
-52.257003
31
0
39
0
210
0
220
0
230
1
0
ENDBLK
5
17F
100
AcDbEntity
8
0
100
AcDbBlockEnd
0
BLOCK
5
18C
100
AcDbEntity
8
0
100
AcDbBlockBegin
2
DimnDraft3D4
70
0
10
0
20
0
30
0
3
DimnDraft3D4
0
MTEXT
5
182
100
AcDbEntity
8
2
62
256
6
ByLayer
370
18
48
1
60
0
100
AcDbMText
10
53.770022
20
-8.643421
30
0
210
0
220
0
230
1
1
\W0.7640;40.0
40
4.5
41
0
44
1.084337
50
90
71
7
72
5
7
iso_b_vert
0
LINE
5
183
100
AcDbEntity
8
2
62
256
6
ByLayer
370
13
48
1
60
0
100
AcDbLine
10
2
20
15.925
30
0
11
56.895022
21
15.925
31
0
39
0
210
0
220
0
230
1
0
LINE
5
184
100
AcDbEntity
8
2
62
256
6
ByLayer
370
13
48
1
60
0
100
AcDbLine
10
34.645022
20
-24.425
30
0
11
56.895022
21
-24.425
31
0
39
0
210
0
220
0
230
1
0
LINE
5
185
100
AcDbEntity
8
2
62
256
6
ByLayer
370
13
48
1
60
0
100
AcDbLine
10
54.895022
20
15.925
30
0
11
54.895022
21
-24.425
31
0
39
0
210
0
220
0
230
1
0
LINE
5
186
100
AcDbEntity
8
2
62
256
6
ByLayer
370
13
48
1
60
0
100
AcDbLine
10
54.895022
20
15.925
30
0
11
55.313019
21
12.750002
31
0
39
0
210
0
220
0
230
1
0
LINE
5
187
100
AcDbEntity
8
2
62
256
6
ByLayer
370
13
48
1
60
0
100
AcDbLine
10
54.895022
20
15.925
30
0
11
54.477025
21
12.749998
31
0
39
0
210
0
220
0
230
1
0
LINE
5
188
100
AcDbEntity
8
2
62
256
6
ByLayer
370
13
48
1
60
0
100
AcDbLine
10
55.313019
20
12.750002
30
0
11
54.477025
21
12.749998
31
0
39
0
210
0
220
0
230
1
0
LINE
5
189
100
AcDbEntity
8
2
62
256
6
ByLayer
370
13
48
1
60
0
100
AcDbLine
10
54.895022
20
-24.425
30
0
11
54.477025
21
-21.250002
31
0
39
0
210
0
220
0
230
1
0
LINE
5
18A
100
AcDbEntity
8
2
62
256
6
ByLayer
370
13
48
1
60
0
100
AcDbLine
10
54.895022
20
-24.425
30
0
11
55.313019
21
-21.249998
31
0
39
0
210
0
220
0
230
1
0
LINE
5
18B
100
AcDbEntity
8
2
62
256
6
ByLayer
370
13
48
1
60
0
100
AcDbLine
10
54.477025
20
-21.250002
30
0
11
55.313019
21
-21.249998
31
0
39
0
210
0
220
0
230
1
0
ENDBLK
5
18D
100
AcDbEntity
8
0
100
AcDbBlockEnd
0
BLOCK
5
19A
100
AcDbEntity
8
0
100
AcDbBlockBegin
2
DimnDraft3D5
70
0
10
0
20
0
30
0
3
DimnDraft3D5
0
MTEXT
5
190
100
AcDbEntity
8
SK2
62
256
6
ByLayer
370
18
48
1
60
0
100
AcDbMText
10
-147.579978
20
-4.156579
30
0
210
0
220
0
230
1
1
\W0.7346;32.0
40
4.5
41
0
44
1.084337
50
90
71
7
72
5
7
iso_b_vert
0
LINE
5
191
100
AcDbEntity
8
SK2
62
256
6
ByLayer
370
13
48
1
60
0
100
AcDbLine
10
-140.704978
20
15.925
30
0
11
-148.454978
21
15.925
31
0
39
0
210
0
220
0
230
1
0
LINE
5
192
100
AcDbEntity
8
SK2
62
256
6
ByLayer
370
13
48
1
60
0
100
AcDbLine
10
-140.704978
20
-15.925
30
0
11
-148.454978
21
-15.925
31
0
39
0
210
0
220
0
230
1
0
LINE
5
193
100
AcDbEntity
8
SK2
62
256
6
ByLayer
370
13
48
1
60
0
100
AcDbLine
10
-146.454978
20
15.925
30
0
11
-146.454978
21
-15.925
31
0
39
0
210
0
220
0
230
1
0
LINE
5
194
100
AcDbEntity
8
SK2
62
256
6
ByLayer
370
13
48
1
60
0
100
AcDbLine
10
-146.454978
20
15.925
30
0
11
-146.036981
21
12.750002
31
0
39
0
210
0
220
0
230
1
0
LINE
5
195
100
AcDbEntity
8
SK2
62
256
6
ByLayer
370
13
48
1
60
0
100
AcDbLine
10
-146.454978
20
15.925
30
0
11
-146.872975
21
12.749998
31
0
39
0
210
0
220
0
230
1
0
LINE
5
196
100
AcDbEntity
8
SK2
62
256
6
ByLayer
370
13
48
1
60
0
100
AcDbLine
10
-146.036981
20
12.750002
30
0
11
-146.872975
21
12.749998
31
0
39
0
210
0
220
0
230
1
0
LINE
5
197
100
AcDbEntity
8
SK2
62
256
6
ByLayer
370
13
48
1
60
0
100
AcDbLine
10
-146.454978
20
-15.925
30
0
11
-146.872975
21
-12.750002
31
0
39
0
210
0
220
0
230
1
0
LINE
5
198
100
AcDbEntity
8
SK2
62
256
6
ByLayer
370
13
48
1
60
0
100
AcDbLine
10
-146.454978
20
-15.925
30
0
11
-146.036981
21
-12.749998
31
0
39
0
210
0
220
0
230
1
0
LINE
5
199
100
AcDbEntity
8
SK2
62
256
6
ByLayer
370
13
48
1
60
0
100
AcDbLine
10
-146.872975
20
-12.750002
30
0
11
-146.036981
21
-12.749998
31
0
39
0
210
0
220
0
230
1
0
ENDBLK
5
19B
100
AcDbEntity
8
0
100
AcDbBlockEnd
0
ENDSEC
0
SECTION
2
ENTITIES
0
ELLIPSE
5
D7
100
AcDbEntity
8
1
62
256
6
ByLayer
370
18
48
1
60
0
100
AcDbEllipse
10
24.862296
20
-5.433572
30
0
11
1.85749022834611
21
1.67249171384657
31
0
210
0
220
0
230
1
40
0.989133
41
-0.463168242146564
42
-0.336074430666893
0
ELLIPSE
5
D8
100
AcDbEntity
8
1
62
256
6
ByLayer
370
18
48
1
60
0
100
AcDbEllipse
10
24.636545
20
-5.176953
30
0
11
1.85656497275481
21
1.67165860997015
31
0
210
0
220
0
230
1
40
0.989133
41
-1.31446014751727
42
-0.392598961462731
0
ELLIPSE
5
D9
100
AcDbEntity
8
1
62
256
6
ByLayer
370
18
48
1
60
0
100
AcDbEllipse
10
24.621789
20
-5.160564
30
0
11
1.7450932489332
21
1.57128901901632
31
0
210
0
220
0
230
1
40
0.989133
41
-1.31446014751729
42
-0.308929819053257
0
ELLIPSE
5
DA
100
AcDbEntity
8
1
62
256
6
ByLayer
370
18
48
1
60
0
100
AcDbEllipse
10
12.388497
20
-21.100366
30
0
11
-0.884806807833996
21
-0.796683628195995
31
0
210
0
220
0
230
1
40
0.989133
41
-0.399602483995124
42
-3.07753885862621E-05
0
ELLIPSE
5
DB
100
AcDbEntity
8
1
62
256
6
ByLayer
370
18
48
1
60
0
100
AcDbEllipse
10
12.927371
20
-7.131626
30
0
11
-0.282395033681409
21
-0.254269630416367
31
0
210
0
220
0
230
1
40
0.989133
41
0.318229654113914
42
0.836049082912779
0
ELLIPSE
5
DC
100
AcDbEntity
8
1
62
256
6
ByLayer
370
18
48
1
60
0
100
AcDbEllipse
10
14.623206
20
-5.771892
30
0
11
-0.282395033681409
21
-0.254269630416367
31
0
210
0
220
0
230
1
40
0.989133
41
2.18989739851421
42
2.82332933848585
0
ELLIPSE
5
DD
100
AcDbEntity
8
1
62
256
6
ByLayer
370
18
48
1
60
0
100
AcDbEllipse
10
12.921652
20
-7.931801
30
0
11
0.315836550827892
21
0.284380507702516
31
0
210
0
220
0
230
1
40
0.989133
41
-1.70780792851276E-06
42
0.8360490829129
0
ELLIPSE
5
DE
100
AcDbEntity
8
1
62
256
6
ByLayer
370
18
48
1
60
0
100
AcDbEllipse
10
15.404272
20
-5.941217
30
0
11
0.315836550827892
21
0.284380507702516
31
0
210
0
220
0
230
1
40
0.989133
41
2.18989739851421
42
-3.141592404269
0
ELLIPSE
5
DF
100
AcDbEntity
8
1
62
256
6
ByLayer
370
18
48
1
60
0
100
AcDbEllipse
10
13.702717
20
-8.101126
30
0
11
-0.282395033681409
21
-0.254269630416367
31
0
210
0
220
0
230
1
40
0.989133
41
0.318314806973384
42
1.88324663410933
0
ELLIPSE
5
E0
100
AcDbEntity
8
1
62
256
6
ByLayer
370
18
48
1
60
0
100
AcDbEllipse
10
15.398552
20
-6.741392
30
0
11
-0.282395033681409
21
-0.254269630416367
31
0
210
0
220
0
230
1
40
0.989133
41
1.14269984731765
42
2.82328871126032
0
ELLIPSE
5
E1
100
AcDbEntity
8
1
62
256
6
ByLayer
370
18
48
1
60
0
100
AcDbEllipse
10
14.084259
20
-6.849101
30
0
11
2.97257930190957
21
2.67652242543544
31
0
210
0
220
0
230
1
40
0.989133
41
0.843188255950988
42
3.14152707098744
0
ELLIPSE
5
E2
100
AcDbEntity
8
1
62
256
6
ByLayer
370
18
48
1
60
0
100
AcDbEllipse
10
14.084259
20
-6.849101
30
0
11
2.97257930190957
21
2.67652242543544
31
0
210
0
220
0
230
1
40
0.989133
41
3.23618694763009E-05
42
0.843188004747139
0
ELLIPSE
5
E3
100
AcDbEntity
8
1
62
256
6
ByLayer
370
18
48
1
60
0
100
AcDbEllipse
10
14.162962
20
-6.936509
30
0
11
0.854616549299
21
0.76950019731269
31
0
210
0
220
0
230
1
40
0.989133
41
1.16870480377433
42
1.83030423641473
0
ELLIPSE
5
E4
100
AcDbEntity
8
1
62
256
6
ByLayer
370
18
48
1
60
0
100
AcDbEllipse
10
14.162962
20
-6.936509
30
0
11
0.854616549299
21
0.76950019731269
31
0
210
0
220
0
230
1
40
0.989133
41
2.39687120702591
42
0
0
ELLIPSE
5
E5
100
AcDbEntity
8
1
62
256
6
ByLayer
370
18
48
1
60
0
100
AcDbEllipse
10
14.162962
20
-6.936509
30
0
11
0.854616549299
21
0.76950019731269
31
0
210
0
220
0
230
1
40
0.989133
41
0
42
0.62314784217785
0
ELLIPSE
5
E6
100
AcDbEntity
8
1
62
256
6
ByLayer
370
18
48
1
60
0
100
AcDbEllipse
10
14.113772
20
-6.881879
30
0
11
0.854616549299
21
0.76950019731269
31
0
210
0
220
0
230
1
40
0.989133
41
-3.10935921839052
42
-0.0322670504604299
0
ELLIPSE
5
E7
100
AcDbEntity
8
1
62
256
6
ByLayer
370
18
48
1
60
0
100
AcDbEllipse
10
22.877477
20
-6.069285
30
0
11
0.590056991429049
21
0.531289701448936
31
0
210
0
220
0
230
1
40
0.989133
41
1.37350149744877E-06
42
0.477654475016822
0
ELLIPSE
5
E8
100
AcDbEntity
8
1
62
256
6
ByLayer
370
18
48
1
60
0
100
AcDbEllipse
10
22.646764
20
-17.619687
30
0
11
1.91731364973167
21
1.72635696440586
31
0
210
0
220
0
230
1
40
0.989133
41
-2.96248943789039
42
-0.296848204252827
0
ELLIPSE
5
E9
100
AcDbEntity
8
1
62
256
6
ByLayer
370
18
48
1
60
0
100
AcDbEllipse
10
12.271544
20
-22.113883
30
0
11
0.590056991429049
21
0.531289701448936
31
0
210
0
220
0
230
1
40
0.989133
41
1.82713250607246
42
3.14156164904426
0
ELLIPSE
5
EA
100
AcDbEntity
8
1
62
256
6
ByLayer
370
18
48
1
60
0
100
AcDbEllipse
10
14.890585
20
1.10778
30
0
11
-2.24171979658924
21
-1.99366304915848
31
0
210
0
220
0
230
1
40
0.986421
41
-0.0517566673072184
42
-0.0202210245145436
0
ELLIPSE
5
EB
100
AcDbEntity
8
1
62
256
6
ByLayer
370
18
48
1
60
0
100
AcDbEllipse
10
14.522929
20
-7.399891
30
0
11
-3.10104571861512
21
-2.7579005513359
31
0
210
0
220
0
230
1
40
0.986421
41
0.0816137387049556
42
3.08983598628257
0
ELLIPSE
5
EC
100
AcDbEntity
8
1
62
256
6
ByLayer
370
18
48
1
60
0
100
AcDbEllipse
10
13.21086
20
-5.758757
30
0
11
-1.94282382371068
21
-1.72784130927068
31
0
210
0
220
0
230
1
40
0.986421
41
-1.72912158137336
42
-1.51495342864051
0
ELLIPSE
5
ED
100
AcDbEntity
8
1
62
256
6
ByLayer
370
18
48
1
60
0
100
AcDbEllipse
10
15.243263
20
-1.516358
30
0
11
-0.319113840335212
21
4.20275756605621
31
0
210
0
220
0
230
1
40
0.493388
41
-0.626027724827198
42
-0.266411991469588
0
ELLIPSE
5
EE
100
AcDbEntity
8
1
62
256
6
ByLayer
370
18
48
1
60
0
100
AcDbEllipse
10
13.621815
20
0.443474
30
0
11
1.97714422436062
21
0.301497456170791
31
0
210
0
220
0
230
1
40
0.77957
41
0.576717992788193
42
1.98939348704779
0
ELLIPSE
5
EF
100
AcDbEntity
8
1
62
256
6
ByLayer
370
18
48
1
60
0
100
AcDbEllipse
10
13.215498
20
0.859119
30
0
11
-1.97078381324856
21
-2.26216854704511
31
0
210
0
220
0
230
1
40
0.996407
41
-2.80139952436671
42
-1.7497104613039
0
ELLIPSE
5
F0
100
AcDbEntity
8
1
62
256
6
ByLayer
370
18
48
1
60
0
100
AcDbEllipse
10
7.058352
20
-4.819161
30
0
11
0.690275074202071
21
1.87710423843092
31
0
210
0
220
0
230
1
40
0.774127
41
1.12896224861507
42
2.54163774287466
0
ELLIPSE
5
F1
100
AcDbEntity
8
1
62
256
6
ByLayer
370
18
48
1
60
0
100
AcDbEllipse
10
6.662219
20
-4.39535
30
0
11
-1.97078381404513
21
-2.26216854635013
31
0
210
0
220
0
230
1
40
0.996407
41
-1.74971046095001
42
-0.698021397887307
0
ELLIPSE
5
F2
100
AcDbEntity
8
1
62
256
6
ByLayer
370
18
48
1
60
0
100
AcDbEllipse
10
10.09391
20
-6.064187
30
0
11
3.4405503147163
21
-4.29099213841106
31
0
210
0
220
0
230
1
40
0.008497
41
1.97020273205769
42
2.41197047134387
0
ELLIPSE
5
F3
100
AcDbEntity
8
1
62
256
6
ByLayer
370
18
48
1
60
0
100
AcDbEllipse
10
17.392828
20
-0.3448
30
0
11
-2.01435287499696
21
2.86980617533921
31
0
210
0
220
0
230
1
40
0.363769
41
-0.0907109126529007
42
0.632507193744356
0
ELLIPSE
5
F4
100
AcDbEntity
8
1
62
256
6
ByLayer
370
18
48
1
60
0
100
AcDbEllipse
10
14.150702
20
-2.811421
30
0
11
3.4405503147163
21
-4.29099213841106
31
0
210
0
220
0
230
1
40
0.008497
41
1.97020273205745
42
2.4119704713434
0
ELLIPSE
5
F5
100
AcDbEntity
8
1
62
256
6
ByLayer
370
18
48
1
60
0
100
AcDbEllipse
10
6.990813
20
-8.685216
30
0
11
-2.36584609142783
21
2.58782137115362
31
0
210
0
220
0
230
1
40
0.380682
41
-0.633947505634339
42
0.0892706007681499
0
ELLIPSE
5
F6
100
AcDbEntity
8
1
62
256
6
ByLayer
370
18
48
1
60
0
100
AcDbEllipse
10
23.006609
20
-18.028835
30
0
11
-1.0476165426815
21
-1.99157809149651
31
0
210
0
220
0
230
1
40
0.79442
41
1.22781328491602
42
2.08302461839497
0
ELLIPSE
5
F7
100
AcDbEntity
8
1
62
256
6
ByLayer
370
18
48
1
60
0
100
AcDbEllipse
10
8.689984
20
-6.770827
30
0
11
-4.1293894323522
21
1.1039863634267
31
0
210
0
220
0
230
1
40
0.502065
41
0.238549456816294
42
0.598165190191157
0
ELLIPSE
5
F8
100
AcDbEntity
8
1
62
256
6
ByLayer
370
18
48
1
60
0
100
AcDbEllipse
10
15.863634
20
-1.437977
30
0
11
-3.28068292058669
21
4.41891737783296
31
0
210
0
220
0
230
1
40
0.228919
41
0.564788933429077
42
0.617781245565131
0
ELLIPSE
5
F9
100
AcDbEntity
8
1
62
256
6
ByLayer
370
18
48
1
60
0
100
AcDbEllipse
10
23.006609
20
-18.028835
30
0
11
-2.15299364263495
21
-0.712543777391934
31
0
210
0
220
0
230
1
40
0.796789
41
0.994047735093483
42
1.84925906857101
0
ELLIPSE
5
FA
100
AcDbEntity
8
1
62
256
6
ByLayer
370
18
48
1
60
0
100
AcDbEllipse
10
1.64855
20
-2.848194
30
0
11
4.37888221872984
21
-5.46126272161408
31
0
210
0
220
0
230
1
40
0.008497
41
-0.825322541688382
42
-0.810541504948349
0
ELLIPSE
5
FB
100
AcDbEntity
8
1
62
256
6
ByLayer
370
18
48
1
60
0
100
AcDbEllipse
10
8.380978
20
-7.437632
30
0
11
-3.60151710719752
21
4.16162978722271
31
0
210
0
220
0
230
1
40
0.245887
41
-0.618491317948372
42
-0.565499024275516
0
ELLIPSE
5
FC
100
AcDbEntity
8
1
62
256
6
ByLayer
370
18
48
1
60
0
100
AcDbEllipse
10
14.393608
20
-8.498631
30
0
11
0.315836550827892
21
0.284380507702516
31
0
210
0
220
0
230
1
40
0.989133
41
0.0955022961210903
42
1.88324663410953
0
ELLIPSE
5
FD
100
AcDbEntity
8
1
62
256
6
ByLayer
370
18
48
1
60
0
100
AcDbEllipse
10
13.545021
20
-6.141826
30
0
11
-0.282395033681409
21
-0.254269630416367
31
0
210
0
220
0
230
1
40
0.989133
41
-3.04609035746881
42
-0.211148468283758
0
ELLIPSE
5
FE
100
AcDbEntity
8
1
62
256
6
ByLayer
370
18
48
1
60
0
100
AcDbEllipse
10
14.780612
20
-5.946709
30
0
11
-0.282395033681409
21
-0.254269630416367
31
0
210
0
220
0
230
1
40
0.989133
41
2.18989739851422
42
-1.25834601948034
0
ELLIPSE
5
FF
100
AcDbEntity
8
1
62
256
6
ByLayer
370
18
48
1
60
0
100
AcDbEllipse
10
14.08972
20
-5.549205
30
0
11
0.315836550827892
21
0.284380507702516
31
0
210
0
220
0
230
1
40
0.989133
41
-3.04609035746864
42
-1.25834601948036
0
ELLIPSE
5
100
100
AcDbEntity
8
1
62
256
6
ByLayer
370
18
48
1
60
0
100
AcDbEllipse
10
13.084776
20
-7.306443
30
0
11
-0.282395033681409
21
-0.254269630416367
31
0
210
0
220
0
230
1
40
0.989133
41
-1.99889280627218
42
0.83604908291275
0
ELLIPSE
5
101
100
AcDbEntity
8
1
62
256
6
ByLayer
370
18
48
1
60
0
100
AcDbEllipse
10
13.079057
20
-8.106618
30
0
11
0.315836550827892
21
0.284380507702516
31
0
210
0
220
0
230
1
40
0.989133
41
-0.951695255075499
42
0.83604908291276
0
ELLIPSE
5
102
100
AcDbEntity
8
1
62
256
6
ByLayer
370
18
48
1
60
0
100
AcDbEllipse
10
12.84841
20
-6.544496
30
0
11
0.315836550827892
21
0.284380507702516
31
0
210
0
220
0
230
1
40
0.989133
41
-1.99889280627211
42
-0.211148468283677
0
ELLIPSE
5
103
100
AcDbEntity
8
1
62
256
6
ByLayer
370
18
48
1
60
0
100
AcDbEllipse
10
15.555958
20
-6.916209
30
0
11
-0.282395033681409
21
-0.254269630416367
31
0
210
0
220
0
230
1
40
0.989133
41
1.14269984731763
42
-2.30554357067707
0
ELLIPSE
5
104
100
AcDbEntity
8
1
62
256
6
ByLayer
370
18
48
1
60
0
100
AcDbEllipse
10
15.095714
20
-8.080826
30
0
11
-0.282395033681409
21
-0.254269630416367
31
0
210
0
220
0
230
1
40
0.989133
41
0.09550229612102
42
2.93044418530602
0
ELLIPSE
5
105
100
AcDbEntity
8
1
62
256
6
ByLayer
370
18
48
1
60
0
100
AcDbEllipse
10
14.938308
20
-7.906009
30
0
11
-0.282395033681409
21
-0.254269630416367
31
0
210
0
220
0
230
1
40
0.989133
41
0.0955022961210247
42
2.93044418530599
0
ELLIPSE
5
106
100
AcDbEntity
8
1
62
256
6
ByLayer
370
18
48
1
60
0
100
AcDbEllipse
10
14.248153
20
-7.031124
30
0
11
-2.97257930190957
21
-2.67652242543544
31
0
210
0
220
0
230
1
40
0.989133
41
0
42
6.28318530717959
0
ELLIPSE
5
107
100
AcDbEntity
8
1
62
256
6
ByLayer
370
18
48
1
60
0
100
AcDbEllipse
10
14.320367
20
-7.111326
30
0
11
-1.709233098598
21
-1.53900039462538
31
0
210
0
220
0
230
1
40
0.989133
41
0
42
6.28318530717959
0
ELLIPSE
5
108
100
AcDbEntity
8
1
62
256
6
ByLayer
370
18
48
1
60
0
100
AcDbEllipse
10
15.634918
20
-7.503339
30
0
11
0.315836550827892
21
0.284380507702516
31
0
210
0
220
0
230
1
40
0.989133
41
1.14269984731766
42
2.93044418530596
0
ELLIPSE
5
109
100
AcDbEntity
8
1
62
256
6
ByLayer
370
18
48
1
60
0
100
AcDbEllipse
10
13.860123
20
-8.275943
30
0
11
-0.282395033681409
21
-0.254269630416367
31
0
210
0
220
0
230
1
40
0.989133
41
-0.951695255075582
42
1.88324663410943
0
ELLIPSE
5
10A
100
AcDbEntity
8
1
62
256
6
ByLayer
370
18
48
1
60
0
100
AcDbEllipse
10
14.551014
20
-8.673448
30
0
11
0.315836550827892
21
0.284380507702516
31
0
210
0
220
0
230
1
40
0.989133
41
0.0955022961210521
42
1.88324663410947
0
ELLIPSE
5
10B
100
AcDbEntity
8
1
62
256
6
ByLayer
370
18
48
1
60
0
100
AcDbEllipse
10
15.561677
20
-6.116034
30
0
11
0.315836550827892
21
0.284380507702516
31
0
210
0
220
0
230
1
40
0.989133
41
2.1898973985143
42
-2.30554357067699
0
ELLIPSE
5
10C
100
AcDbEntity
8
1
62
256
6
ByLayer
370
18
48
1
60
0
100
AcDbEllipse
10
15.792324
20
-7.678156
30
0
11
0.315836550827892
21
0.284380507702516
31
0
210
0
220
0
230
1
40
0.989133
41
1.14269984731766
42
2.930444185306
0
ELLIPSE
5
10D
100
AcDbEntity
8
1
62
256
6
ByLayer
370
18
48
1
60
0
100
AcDbEllipse
10
25.515076
20
-6.23434
30
0
11
1.78014847609332
21
1.60285288732507
31
0
210
0
220
0
230
1
40
0.989133
41
0.256336179277611
42
1.40719220426332
0
ELLIPSE
5
10E
100
AcDbEntity
8
1
62
256
6
ByLayer
370
18
48
1
60
0
100
AcDbEllipse
10
25.729532
20
-6.390837
30
0
11
1.76049377056326
21
1.58515571097632
31
0
210
0
220
0
230
1
40
0.989133
41
-1.31446014751728
42
-0.321109521196023
0
ELLIPSE
5
10F
100
AcDbEntity
8
1
62
256
6
ByLayer
370
18
48
1
60
0
100
AcDbEllipse
10
2.219693
20
-5.168282
30
0
11
-0.552805684032509
21
-1.17214527344039
31
0
210
0
220
0
230
1
40
0.483183
41
-0.938012804703499
42
0.632783522090669
0
ELLIPSE
5
110
100
AcDbEntity
8
1
62
256
6
ByLayer
370
18
48
1
60
0
100
AcDbEllipse
10
25.680806
20
-6.34262
30
0
11
1.78014847609332
21
1.60285288732507
31
0
210
0
220
0
230
1
40
0.989133
41
-0.347999970292415
42
0.25633617927761
0
ELLIPSE
5
111
100
AcDbEntity
8
1
62
256
6
ByLayer
370
18
48
1
60
0
100
AcDbEllipse
10
24.582587
20
-5.641477
30
0
11
-1.08409418492727
21
-0.976122788508289
31
0
210
0
220
0
230
1
40
0.989133
41
-2.06070441566124
42
-1.31446014751731
0
ELLIPSE
5
112
100
AcDbEntity
8
1
62
256
6
ByLayer
370
18
48
1
60
0
100
AcDbEllipse
10
31.854708
20
-23.635731
30
0
11
-0.59005699142905
21
-0.531289701448935
31
0
210
0
220
0
230
1
40
0.989133
41
0.779934954875901
42
2.87433005726912
0
ELLIPSE
5
113
100
AcDbEntity
8
1
62
256
6
ByLayer
370
18
48
1
60
0
100
AcDbEllipse
10
23.345759
20
-6.589365
30
0
11
-0.59005699142905
21
-0.531289701448935
31
0
210
0
220
0
230
1
40
0.989133
41
2.87433005726913
42
-1.31446014751729
0
ELLIPSE
5
114
100
AcDbEntity
8
1
62
256
6
ByLayer
370
18
48
1
60
0
100
AcDbEllipse
10
12.739826
20
-22.633963
30
0
11
-0.59005699142905
21
-0.531289701448935
31
0
210
0
220
0
230
1
40
0.989133
41
-1.31446014751729
42
0.77993495487589
0
POINT
5
6C
100
AcDbEntity
8
2
62
256
6
ByLayer
370
18
48
1
60
0
100
AcDbPoint
10
32.645022
20
56.275
30
0
39
0
210
0
220
0
230
1
50
360
0
POINT
5
6E
100
AcDbEntity
8
80
62
256
6
ByLayer
370
18
48
1
60
0
100
AcDbPoint
10
0
20
0
30
0
39
0
210
0
220
0
230
1
50
360
0
POINT
5
70
100
AcDbEntity
8
81
62
256
6
ByLayer
370
18
48
1
60
0
100
AcDbPoint
10
32.645022
20
-24.425
30
0
39
0
210
0
220
0
230
1
50
360
0
SPLINE
5
115
100
AcDbEntity
8
1
62
256
6
ByLayer
370
18
48
1
60
0
100
AcDbSpline
70
4
71
2
72
6
73
3
40
0
40
0
40
0
40
1
40
1
40
1
41
1
10
12.005482415486
20
-3.4539590565733
30
0
41
1
10
12.1525989621343
20
-3.38255737060689
30
0
41
1
10
12.30204663904
20
-3.32784883179917
30
0
0
SPLINE
5
116
100
AcDbEntity
8
1
62
256
6
ByLayer
370
18
48
1
60
0
100
AcDbSpline
70
4
71
3
72
8
73
4
40
0
40
0
40
0
40
0
40
1
40
1
40
1
40
1
41
1
10
27.1324264657559
20
-4.41760892644493
30
0
41
1
10
27.1844917381933
20
-4.5278749954679
30
0
41
1
10
27.2283767922285
20
-4.64199988727117
30
0
41
1
10
27.2632071510672
20
-4.75817151144025
30
0
0
SPLINE
5
117
100
AcDbEntity
8
1
62
256
6
ByLayer
370
18
48
1
60
0
100
AcDbSpline
70
4
71
3
72
10
73
6
40
0
40
0
40
0
40
0
40
0.628627889082426
40
0.628627889082426
40
1
40
1
40
1
40
1
41
1
10
15.7392517430809
20
2.52332744978438
30
0
41
1
10
15.5195987842537
20
2.78133736343366
30
0
41
1
10
15.2552149247274
20
3.04475686500612
30
0
41
1
10
14.7521540819212
20
3.41371050168775
30
0
41
1
10
14.5448637917631
20
3.54098431200495
30
0
41
1
10
14.321233181198
20
3.64687040030185
30
0
0
SPLINE
5
118
100
AcDbEntity
8
1
62
256
6
ByLayer
370
18
48
1
60
0
100
AcDbSpline
70
4
71
3
72
12
73
8
40
0
40
0
40
0
40
0
40
0.108853988607131
40
0.502629237162304
40
0.69951686143989
40
0.896404485717476
40
1
40
1
40
1
40
1
41
1.02441262532206
10
18.3405555973893
20
-10.20895872315
30
0
41
1.02394775682001
10
18.5295530420432
20
-10.4901020613452
30
0
41
1.02173322384668
10
19.4184585201283
20
-11.8242949602319
30
0
41
1.01876555595691
10
20.6319771142853
20
-13.7213226689034
30
0
41
1.01610930227499
10
21.4213607588217
20
-15.0058712832723
30
0
41
1.01814069306376
10
21.8584714163776
20
-15.5418388954377
30
0
41
1.02005196006971
10
22.2317813112178
20
-16.0307490233967
30
0
41
1.02076673234773
10
22.3663371627333
20
-16.2108660441593
30
0
0
SPLINE
5
119
100
AcDbEntity
8
1
62
256
6
ByLayer
370
18
48
1
60
0
100
AcDbSpline
70
4
71
3
72
12
73
8
40
0
40
0
40
0
40
0
40
0.108854002841677
40
0.502629245107337
40
0.699516866240167
40
0.896404487372997
40
1
40
1
40
1
40
1
41
1.0244126255267
10
16.4581989716426
20
-11.7182464718133
30
0
41
1.02394775696077
10
16.6902566448725
20
-11.9648638499756
30
0
41
1.02173322391444
10
17.7927753113673
20
-13.1277801251227
30
0
41
1.01876555595691
10
19.3673667114339
20
-14.7352969618321
30
0
41
1.01610930227499
10
20.4381540425103
20
-15.7942139481206
30
0
41
1.01814069306376
10
20.8606502499732
20
-16.3418995381426
30
0
41
1.0200519600697
10
21.251157696742
20
-16.8170205374311
30
0
41
1.02076673234771
10
21.3956134545805
20
-16.9891997375846
30
0
0
SPLINE
5
11A
100
AcDbEntity
8
1
62
256
6
ByLayer
370
18
48
1
60
0
100
AcDbSpline
70
4
71
3
72
8
73
4
40
0
40
0
40
0
40
0
40
1
40
1
40
1
40
1
41
1
10
23.8623304480188
20
-10.4225004769688
30
0
41
1
10
24.0824158766453
20
-11.2066065282639
30
0
41
1
10
24.3731570817446
20
-11.9307452746563
30
0
41
1
10
24.6967587412265
20
-12.4927328977484
30
0
0
SPLINE
5
11B
100
AcDbEntity
8
1
62
256
6
ByLayer
370
18
48
1
60
0
100
AcDbSpline
70
4
71
3
72
12
73
8
40
0
40
0
40
0
40
0
40
0.286978363858301
40
0.286978363858301
40
0.569998995185623
40
0.569998995185623
40
1
40
1
40
1
40
1
41
1
10
16.4581990737578
20
-11.7182465803357
30
0
41
1
10
16.6736819027396
20
-11.6289277059526
30
0
41
1
10
16.882955655723
20
-11.5213451464113
30
0
41
1
10
17.2776423020083
20
-11.2760784999281
30
0
41
1
10
17.4647000604688
20
-11.1379885860859
30
0
41
1
10
17.9026252892942
20
-10.7572605928938
30
0
41
1
10
18.1402528610425
20
-10.4940644022188
30
0
41
1
10
18.3405555973892
20
-10.20895872315
30
0
0
SPLINE
5
11C
100
AcDbEntity
8
1
62
256
6
ByLayer
370
18
48
1
60
0
100
AcDbSpline
70
4
71
3
72
8
73
4
40
0
40
0
40
0
40
0
40
1
40
1
40
1
40
1
41
1
10
22.0841169293948
20
-19.8194851591406
30
0
41
1
10
22.0014249835208
20
-19.8011091800361
30
0
41
1
10
21.9215938559979
20
-19.7793108002513
30
0
41
1
10
21.8459602372274
20
-19.7546238303075
30
0
0
SPLINE
5
11D
100
AcDbEntity
8
1
62
256
6
ByLayer
370
18
48
1
60
0
100
AcDbSpline
70
4
71
3
72
12
73
8
40
0
40
0
40
0
40
0
40
0.46693897235862
40
0.46693897235862
40
0.928803236876554
40
0.928803236876554
40
1
40
1
40
1
40
1
41
1
10
9.51505263969182
20
-6.0936163434196
30
0
41
1
10
9.50780753937067
20
-5.92151291600794
30
0
41
1
10
9.4773859988801
20
-5.73836240574147
30
0
41
1
10
9.38010715875316
20
-5.389865884416
30
0
41
1
10
9.31283497525163
20
-5.21947435967348
30
0
41
1
10
9.22321531331232
20
-5.03699207074263
30
0
41
1
10
9.21086937823895
20
-5.01264068617354
30
0
41
1
10
9.19828208462758
20
-4.98854367563985
30
0
0
SPLINE
5
11E
100
AcDbEntity
8
1
62
256
6
ByLayer
370
18
48
1
60
0
100
AcDbSpline
70
4
71
3
72
8
73
4
40
0
40
0
40
0
40
0
40
1
40
1
40
1
40
1
41
1
10
12.6034017748928
20
1.72916601408832
30
0
41
1
10
12.8699307193418
20
0.943264148658471
30
0
41
1
10
13.1324150915346
20
-0.301091809273089
30
0
41
1
10
13.3659704201449
20
-1.64685929312935
30
0
0
SPLINE
5
11F
100
AcDbEntity
8
1
62
256
6
ByLayer
370
18
48
1
60
0
100
AcDbSpline
70
4
71
3
72
8
73
4
40
0
40
0
40
0
40
0
40
1
40
1
40
1
40
1
41
1
10
9.19828208462758
20
-4.98854367563985
30
0
41
1
10
9.07998164241201
20
-4.76207028984152
30
0
41
1
10
8.94158539220297
20
-4.55681709293225
30
0
41
1
10
8.78956759340559
20
-4.3686102662748
30
0
0
SPLINE
5
120
100
AcDbEntity
8
1
62
256
6
ByLayer
370
18
48
1
60
0
100
AcDbSpline
70
4
71
3
72
10
73
6
40
0
40
0
40
0
40
0
40
0.5
40
0.5
40
1
40
1
40
1
40
1
41
1
10
22.7839132815411
20
-14.474176989008
30
0
41
1
10
23.2455681531325
20
-14.4224026034152
30
0
41
1
10
23.6938114945128
20
-14.4340445055726
30
0
41
1
10
24.5093863767714
20
-14.8399189570637
30
0
41
1
10
24.8685603739987
20
-15.2640799223039
30
0
41
1
10
25.0136597230828
20
-15.9956248682205
30
0
0
SPLINE
5
121
100
AcDbEntity
8
1
62
256
6
ByLayer
370
18
48
1
60
0
100
AcDbSpline
70
4
71
3
72
8
73
4
40
0
40
0
40
0
40
0
40
1
40
1
40
1
40
1
41
1
10
24.9037712732618
20
-17.3028475550273
30
0
41
1
10
24.9108428674373
20
-17.3825080806639
30
0
41
1
10
24.9142484708279
20
-17.4655850302113
30
0
41
1
10
24.9137701779261
20
-17.5506475428645
30
0
0
SPLINE
5
122
100
AcDbEntity
8
1
62
256
6
ByLayer
370
18
48
1
60
0
100
AcDbSpline
70
4
71
3
72
8
73
4
40
0
40
0
40
0
40
0
40
1
40
1
40
1
40
1
41
1
10
5.94212015694865
20
-3.40437592606611
30
0
41
1
10
5.92377030345307
20
-3.41908897894126
30
0
41
1
10
5.90589041658592
20
-3.43408768287404
30
0
41
1
10
5.88845840032866
20
-3.44935911763659
30
0
0
SPLINE
5
123
100
AcDbEntity
8
1
62
256
6
ByLayer
370
18
48
1
60
0
100
AcDbSpline
70
4
71
3
72
12
73
8
40
0
40
0
40
0
40
0
40
0.471343086678526
40
0.471343086678526
40
0.892619726108239
40
0.892619726108239
40
1
40
1
40
1
40
1
41
1
10
13.3659704201449
20
-1.64685929312935
30
0
41
1
10
13.5025855912539
20
-1.76104080383698
30
0
41
1
10
13.6538341048877
20
-1.86888597540931
30
0
41
1
10
13.9559368313135
20
-2.04136315809876
30
0
41
1
10
14.1084488192704
20
-2.11087018323443
30
0
41
1
10
14.2979441721428
20
-2.17409191100717
30
0
41
1
10
14.3368742259794
20
-2.18588395934421
30
0
41
1
10
14.3755672927579
20
-2.19641852062509
30
0
0
SPLINE
5
124
100
AcDbEntity
8
1
62
256
6
ByLayer
370
18
48
1
60
0
100
AcDbSpline
70
4
71
3
72
15
73
11
40
0
40
0
40
0
40
0
40
0.322163720426459
40
0.322163720426459
40
0.64483345260023
40
0.64483345260023
40
0.912233455904559
40
0.912233455904559
40
0.912233455904559
40
1
40
1
40
1
40
1
41
1
10
12.1981618901787
20
-10.9726544913419
30
0
41
1
10
12.5702083988646
20
-11.2825196368443
30
0
41
1
10
13.0012666985543
20
-11.5318931816321
30
0
41
1
10
13.9071589350121
20
-11.8776028950646
30
0
41
1
10
14.39449210165
20
-11.9790733864492
30
0
41
1
10
15.2813179787008
20
-12.0081098423683
30
0
41
1
10
15.6922756302814
20
-11.9617098644781
30
0
41
1
10
16.079474859206
20
-11.8504839433936
30
0
41
1
10
16.2081503883279
20
-11.8135209197651
30
0
41
1
10
16.3349201040401
20
-11.7693390617551
30
0
41
1
10
16.4581990737586
20
-11.7182465803361
30
0
0
SPLINE
5
125
100
AcDbEntity
8
1
62
256
6
ByLayer
370
18
48
1
60
0
100
AcDbSpline
70
4
71
3
72
8
73
4
40
0
40
0
40
0
40
0
40
1
40
1
40
1
40
1
41
1
10
17.2061278039626
20
-18.4987780726924
30
0
41
1
10
17.2820244956879
20
-18.5701608485447
30
0
41
1
10
17.3597731042658
20
-18.6397836557975
30
0
41
1
10
17.4391383989475
20
-18.7077296505356
30
0
0
SPLINE
5
126
100
AcDbEntity
8
1
62
256
6
ByLayer
370
18
48
1
60
0
100
AcDbSpline
70
4
71
3
72
8
73
4
40
0
40
0
40
0
40
0
40
1
40
1
40
1
40
1
41
1
10
18.5377226519944
20
-5.88954618375436
30
0
41
1
10
19.1942709932866
20
-5.25489569220164
30
0
41
1
10
19.6685296867813
20
-4.70912563098204
30
0
41
1
10
19.8668195547111
20
-4.36004064613877
30
0
0
SPLINE
5
127
100
AcDbEntity
8
1
62
256
6
ByLayer
370
18
48
1
60
0
100
AcDbSpline
70
4
71
3
72
8
73
4
40
0
40
0
40
0
40
0
40
1
40
1
40
1
40
1
41
1
10
13.3659704201449
20
-1.64685929312935
30
0
41
1
10
13.1697514618788
20
-1.48286156943266
30
0
41
1
10
12.9983769690411
20
-1.30405057968542
30
0
41
1
10
12.8463591702437
20
-1.115843753028
30
0
0
SPLINE
5
128
100
AcDbEntity
8
1
62
256
6
ByLayer
370
18
48
1
60
0
100
AcDbSpline
70
4
71
1
72
4
73
2
40
0
40
0
40
1
40
1
41
1
10
19.8668195547111
20
-4.36004064613877
30
0
41
1
10
20.4490045088484
20
-3.33511674048083
30
0
0
SPLINE
5
129
100
AcDbEntity
8
1
62
256
6
ByLayer
370
18
48
1
60
0
100
AcDbSpline
70
4
71
3
72
10
73
6
40
0
40
0
40
0
40
0
40
0.5
40
0.5
40
1
40
1
40
1
40
1
41
1
10
15.4813247713946
20
2.57958480072978
30
0
41
1
10
15.0940015073928
20
2.75695945830705
30
0
41
1
10
14.7402143218481
20
2.76434286145252
30
0
41
1
10
13.778157419585
20
2.57818223083481
30
0
41
1
10
13.1353870707216
20
2.32087243822718
30
0
41
1
10
12.5510031862103
20
1.89272024780459
30
0
0
SPLINE
5
12A
100
AcDbEntity
8
1
62
256
6
ByLayer
370
18
48
1
60
0
100
AcDbSpline
70
4
71
3
72
8
73
4
40
0
40
0
40
0
40
0
40
1
40
1
40
1
40
1
41
1
10
9.51468763246578
20
-6.3103996129619
30
0
41
1
10
9.47457923565793
20
-7.18391338076009
30
0
41
1
10
9.75187778864341
20
-8.05381461711303
30
0
41
1
10
10.3283440377302
20
-8.77463320647738
30
0
0
SPLINE
5
12B
100
AcDbEntity
8
1
62
256
6
ByLayer
370
18
48
1
60
0
100
AcDbSpline
70
4
71
3
72
8
73
4
40
0
40
0
40
0
40
0
40
1
40
1
40
1
40
1
41
1
10
19.3395094029016
20
-19.3429589188616
30
0
41
1
10
19.741909279012
20
-19.4213670172171
30
0
41
1
10
20.1462848257507
20
-19.4985877690634
30
0
41
1
10
20.5505287296984
20
-19.5741974329089
30
0
0
SPLINE
5
12C
100
AcDbEntity
8
1
62
256
6
ByLayer
370
18
48
1
60
0
100
AcDbSpline
70
4
71
3
72
8
73
4
40
0
40
0
40
0
40
0
40
1
40
1
40
1
40
1
41
1
10
12.1981618784696
20
-10.9726544815764
30
0
41
1
10
11.9756828633435
20
-10.7871051562194
30
0
41
1
10
11.7750246790367
20
-10.5835757087995
30
0
41
1
10
11.5973672421639
20
-10.3614312497968
30
0
0
SPLINE
5
12D
100
AcDbEntity
8
1
62
256
6
ByLayer
370
18
48
1
60
0
100
AcDbSpline
70
4
71
3
72
15
73
11
40
0
40
0
40
0
40
0
40
0.22760447994975
40
0.22760447994975
40
0.479423709218442
40
0.479423709218442
40
0.785574270382839
40
0.785574270382839
40
0.785574270382839
40
1
40
1
40
1
40
1
41
1
10
18.3405555973892
20
-10.20895872315
30
0
41
1
10
18.5373615433711
20
-9.92879942118165
30
0
41
1
10
18.6944819571722
20
-9.61476125553125
30
0
41
1
10
18.9289564372422
20
-8.93114791979394
30
0
41
1
10
18.999693983445
20
-8.55149833255555
30
0
41
1
10
19.045705823662
20
-7.71431438174304
30
0
41
1
10
18.9983270018114
20
-7.2455174384524
30
0
41
1
10
18.8831272586343
20
-6.79962016918105
30
0
41
1
10
18.8019451772193
20
-6.48539318031538
30
0
41
1
10
18.6860154961573
20
-6.17804922484015
30
0
41
1
10
18.5377226345736
20
-5.88954620059403
30
0
0
SPLINE
5
12E
100
AcDbEntity
8
1
62
256
6
ByLayer
370
18
48
1
60
0
100
AcDbSpline
70
4
71
3
72
8
73
4
40
0
40
0
40
0
40
0
40
1
40
1
40
1
40
1
41
1
10
9.51468763246584
20
-6.31039961296199
30
0
41
1
10
9.51796676577931
20
-6.2389839413384
30
0
41
1
10
9.51812942073462
20
-6.16670360783007
30
0
41
1
10
9.51505263969182
20
-6.0936163434196
30
0
0
SPLINE
5
12F
100
AcDbEntity
8
1
62
256
6
ByLayer
370
18
48
1
60
0
100
AcDbSpline
70
4
71
3
72
8
73
4
40
0
40
0
40
0
40
0
40
1
40
1
40
1
40
1
41
1
10
12.4953988579949
20
1.85009305687112
30
0
41
1
10
12.5137487114906
20
1.86480610974627
30
0
41
1
10
12.5322862730057
20
1.87900719445238
30
0
41
1
10
12.5510031862102
20
1.89272024780459
30
0
0
SPLINE
5
130
100
AcDbEntity
8
1
62
256
6
ByLayer
370
18
48
1
60
0
100
AcDbSpline
70
4
71
3
72
11
73
7
40
0
40
0
40
0
40
0
40
0.564783939443786
40
0.564783939443786
40
0.564783939443786
40
1
40
1
40
1
40
1
41
1
10
17.2061278039626
20
-18.4987780726924
30
0
41
1
10
16.9440457960338
20
-18.2522832545174
30
0
41
1
10
16.6283198197943
20
-17.9876568668751
30
0
41
1
10
16.2701921655429
20
-17.7512588230552
30
0
41
1
10
15.9919464295996
20
-17.567590382773
30
0
41
1
10
15.6890960854909
20
-17.3917854870692
30
0
41
1
10
15.3790515971794
20
-17.2244583409348
30
0
0
SPLINE
5
131
100
AcDbEntity
8
1
62
256
6
ByLayer
370
18
48
1
60
0
100
AcDbSpline
70
4
71
3
72
11
73
7
40
0
40
0
40
0
40
0
40
0.656642656743968
40
0.656642656743968
40
0.656642656743968
40
1
40
1
40
1
40
1
41
1
10
4.58473826135076
20
-6.5800152121879
30
0
41
1
10
4.35019694528688
20
-6.29215533354736
30
0
41
1
10
4.11583847783658
20
-5.94702908015913
30
0
41
1
10
3.93553147022277
20
-5.54649478325004
30
0
41
1
10
3.84048196728367
20
-5.33535165390009
30
0
41
1
10
3.75975935940397
20
-5.10659490792384
30
0
41
1
10
3.70369333555942
20
-4.86635425243577
30
0
0
SPLINE
5
132
100
AcDbEntity
8
1
62
256
6
ByLayer
370
18
48
1
60
0
100
AcDbSpline
70
4
71
3
72
10
73
6
40
0
40
0
40
0
40
0
40
0.5
40
0.5
40
1
40
1
40
1
40
1
41
1
10
20.550528729677
20
-19.5741974328992
30
0
41
1
10
19.8867514137396
20
-19.2730038299331
30
0
41
1
10
19.5524576307226
20
-18.8197683167663
30
0
41
1
10
19.3520014445219
20
-17.9257347796489
30
0
41
1
10
19.4479448609828
20
-17.4677422107491
30
0
41
1
10
19.6093292748504
20
-17.0195827252466
30
0
0
SPLINE
5
133
100
AcDbEntity
8
1
62
256
6
ByLayer
370
18
48
1
60
0
100
AcDbSpline
70
4
71
3
72
10
73
6
40
0
40
0
40
0
40
0
40
0.967465556419471
40
0.967465556419471
40
1
40
1
40
1
40
1
41
1
10
21.3956134545921
20
-16.9891997375984
30
0
41
1
10
21.7775450404287
20
-17.1263967999457
30
0
41
1
10
22.1505605079548
20
-17.270153534525
30
0
41
1
10
22.5202162739173
20
-17.4277979711726
30
0
41
1
10
22.532235454694
20
-17.4329417258693
30
0
41
1
10
22.5442363043479
20
-17.4380960302388
30
0
0
SPLINE
5
134
100
AcDbEntity
8
1
62
256
6
ByLayer
370
18
48
1
60
0
100
AcDbSpline
70
4
71
3
72
8
73
4
40
0
40
0
40
0
40
0
40
1
40
1
40
1
40
1
41
1
10
9.19828208462758
20
-4.98854367563985
30
0
41
1
10
7.93013006635073
20
-4.47092640358261
30
0
41
1
10
6.77072538187775
20
-3.95650255399937
30
0
41
1
10
6.03993862982219
20
-3.53346893395977
30
0
0
SPLINE
5
135
100
AcDbEntity
8
1
62
256
6
ByLayer
370
18
48
1
60
0
100
AcDbSpline
70
4
71
3
72
10
73
6
40
0
40
0
40
0
40
0
40
0.5
40
0.5
40
1
40
1
40
1
40
1
41
1
10
5.88845840032872
20
-3.44935911763659
30
0
41
1
10
5.34288751593743
20
-3.92731015017304
30
0
41
1
10
4.95001727100492
20
-4.49755501476258
30
0
41
1
10
4.54189450820689
20
-5.414873456641
30
0
41
1
10
4.46568394896741
20
-5.76704592905381
30
0
41
1
10
4.54656080793393
20
-6.18799257585434
30
0
0
SPLINE
5
136
100
AcDbEntity
8
1
62
256
6
ByLayer
370
18
48
1
60
0
100
AcDbSpline
70
4
71
2
72
6
73
3
40
0
40
0
40
0
40
1
40
1
40
1
41
1.02805999725224
10
10.3839984687148
20
-11.9634391188995
30
0
41
1.02805999725224
10
9.80106449802469
20
-12.1517782565661
30
0
41
1.02805999725224
10
9.21813052733472
20
-12.3401173942328
30
0
0
SPLINE
5
137
100
AcDbEntity
8
1
62
256
6
ByLayer
370
18
48
1
60
0
100
AcDbSpline
70
4
71
3
72
11
73
7
40
0
40
0
40
0
40
0
40
0.423407924946024
40
0.740963868655543
40
0.899741840510302
40
1
40
1
40
1
40
1
41
1.02805999725224
10
10.3839984687148
20
-11.9634391188995
30
0
41
1.02767136955277
10
11.0037174664231
20
-12.5641165234169
30
0
41
1.02349884684923
10
13.8644063720315
20
-14.151472898744
30
0
41
1.01876555595691
10
17.7021256027795
20
-15.8678393529262
30
0
41
1.01635405201144
10
19.140147053576
20
-16.5186640754516
30
0
41
1.01722454828215
10
19.4766678278316
20
-16.8687445180438
30
0
41
1.0177432798788
10
19.6093292747962
20
-17.019582725185
30
0
0
SPLINE
5
138
100
AcDbEntity
8
1
62
256
6
ByLayer
370
18
48
1
60
0
100
AcDbSpline
70
4
71
3
72
8
73
4
40
0
40
0
40
0
40
0
40
1
40
1
40
1
40
1
41
1
10
18.5377226306832
20
-5.88954619304212
30
0
41
1
10
18.4076547153306
20
-5.63706880561961
30
0
41
1
10
18.2513461587085
20
-5.39298286233986
30
0
41
1
10
18.0726307205788
20
-5.16951546903738
30
0
0
SPLINE
5
139
100
AcDbEntity
8
1
62
256
6
ByLayer
370
18
48
1
60
0
100
AcDbSpline
70
4
71
3
72
8
73
4
40
0
40
0
40
0
40
0
40
1
40
1
40
1
40
1
41
1
10
25.05047480161
20
-14.7638631845894
30
0
41
1
10
25.040002769302
20
-15.173315136745
30
0
41
1
10
25.0277176995039
20
-15.5846175575363
30
0
41
1
10
25.0136597230829
20
-15.9956248682204
30
0
0
SPLINE
5
13A
100
AcDbEntity
8
1
62
256
6
ByLayer
370
18
48
1
60
0
100
AcDbSpline
70
4
71
3
72
8
73
4
40
0
40
0
40
0
40
0
40
1
40
1
40
1
40
1
41
1
10
10.3839984687147
20
-11.9634391188995
30
0
41
1
10
10.7810884321734
20
-11.8351440030644
30
0
41
1
10
11.4284323341115
20
-11.4816045263033
30
0
41
1
10
12.1981618901787
20
-10.9726544913419
30
0
0
SPLINE
5
13B
100
AcDbEntity
8
1
62
256
6
ByLayer
370
18
48
1
60
0
100
AcDbSpline
70
4
71
2
72
6
73
3
40
0
40
0
40
0
40
1
40
1
40
1
41
1
10
24.8466442083718
20
-12.7682774840335
30
0
41
1
10
24.9987393445303
20
-13.7690314390818
30
0
41
1
10
25.0504919775948
20
-14.7637426787341
30
0
0
SPLINE
5
13C
100
AcDbEntity
8
1
62
256
6
ByLayer
370
18
48
1
60
0
100
AcDbSpline
70
4
71
3
72
8
73
4
40
0
40
0
40
0
40
0
40
1
40
1
40
1
40
1
41
1
10
14.3755672927579
20
-2.19641852062509
30
0
41
1
10
14.4454574821114
20
-2.21544679995191
30
0
41
1
10
14.5158441568683
20
-2.23133924279779
30
0
41
1
10
14.5862226645109
20
-2.24400403642309
30
0
0
SPLINE
5
13D
100
AcDbEntity
8
1
62
256
6
ByLayer
370
18
48
1
60
0
100
AcDbSpline
70
4
71
3
72
8
73
4
40
0
40
0
40
0
40
0
40
1
40
1
40
1
40
1
41
1
10
24.8468171987143
20
-12.7681961338737
30
0
41
1
10
24.7988271055553
20
-12.6750932625903
30
0
41
1
10
24.7488520077648
20
-12.5832014419701
30
0
41
1
10
24.6967587412264
20
-12.4927328977484
30
0
0
SPLINE
5
13E
100
AcDbEntity
8
1
62
256
6
ByLayer
370
18
48
1
60
0
100
AcDbSpline
70
4
71
3
72
10
73
6
40
0
40
0
40
0
40
0
40
0.5
40
0.5
40
1
40
1
40
1
40
1
41
1
10
9.21813052733472
20
-12.3401173942328
30
0
41
1
10
10.0594729289039
20
-13.3719192325938
30
0
41
1
10
11.0395727773249
20
-14.2433429549216
30
0
41
1
10
13.098459364207
20
-15.8721264854525
30
0
41
1
10
14.2151418556244
20
-16.5963107596857
30
0
41
1
10
15.379051597179
20
-17.2244583409346
30
0
0
SPLINE
5
13F
100
AcDbEntity
8
1
62
256
6
ByLayer
370
18
48
1
60
0
100
AcDbSpline
70
4
71
3
72
8
73
4
40
0
40
0
40
0
40
0
40
1
40
1
40
1
40
1
41
1
10
16.803607516145
20
-3.58271742571799
30
0
41
1
10
16.2289006628315
20
-2.86409880067328
30
0
41
1
10
15.4400179108907
20
-2.39764668892991
30
0
41
1
10
14.5862226645109
20
-2.24400403642309
30
0
0
SPLINE
5
140
100
AcDbEntity
8
1
62
256
6
ByLayer
370
18
48
1
60
0
100
AcDbSpline
70
4
71
3
72
8
73
4
40
0
40
0
40
0
40
0
40
1
40
1
40
1
40
1
41
1
10
5.6681875097608
20
-6.06674662644707
30
0
41
1
10
6.50203186869561
20
-6.21659048084274
30
0
41
1
10
7.95462450148449
20
-6.19791459690589
30
0
41
1
10
9.5150526396904
20
-6.09361634341093
30
0
0
SPLINE
5
141
100
AcDbEntity
8
1
62
256
6
ByLayer
370
18
48
1
60
0
100
AcDbSpline
70
4
71
2
72
6
73
3
40
0
40
0
40
0
40
1
40
1
40
1
41
1
10
19.3394163990878
20
-19.3429516410848
30
0
41
1
10
18.3809549756551
20
-19.0747740156427
30
0
41
1
10
17.4392557558849
20
-18.7075780614391
30
0
0
SPLINE
5
142
100
AcDbEntity
8
1
62
256
6
ByLayer
370
18
48
1
60
0
100
AcDbSpline
70
4
71
3
72
11
73
7
40
0
40
0
40
0
40
0
40
0.423407924939447
40
0.740963868644032
40
0.899741840496324
40
1
40
1
40
1
40
1
41
1.02805999725224
10
19.8668195547111
20
-4.36004064613878
30
0
41
1.02767136955277
10
20.3179644309032
20
-5.09588207060595
30
0
41
1.02349884684923
10
21.249211416485
20
-8.23027973411695
30
0
41
1.01876555595691
10
22.0847727074443
20
-12.3537993853035
30
0
41
1.01635405201137
10
22.4021477895383
20
-13.903166937145
30
0
41
1.01722454828226
10
22.6671471993217
20
-14.3105937567996
30
0
41
1.01774327987904
10
22.7839132815415
20
-14.4741769890085
30
0
0
SPLINE
5
143
100
AcDbEntity
8
1
62
256
6
ByLayer
370
18
48
1
60
0
100
AcDbSpline
70
4
71
3
72
20
73
16
40
0
40
0
40
0
40
0
40
0.332873226652398
40
0.332873226652398
40
0.501657261698215
40
0.501657261698215
40
0.631212321676522
40
0.631212321676522
40
0.722542323637675
40
0.722542323637675
40
0.814765347404187
40
0.814765347404187
40
0.896421359038788
40
0.896421359038788
40
1
40
1
40
1
40
1
41
1
10
22.3663371627395
20
-16.2108660441677
30
0
41
1
10
22.3419022519891
20
-16.003433749333
30
0
41
1
10
22.3253126705448
20
-15.7863536705456
30
0
41
1
10
22.3294701091613
20
-15.4429873310739
30
0
41
1
10
22.3360865166623
20
-15.3232147524357
30
0
41
1
10
22.3645279710961
20
-15.1097672144508
30
0
41
1
10
22.3828443442713
20
-15.0147588055952
30
0
41
1
10
22.4279746867134
20
-14.8607002880031
30
0
41
1
10
22.4512217109106
20
-14.7980852101917
30
0
41
1
10
22.5057030111802
20
-14.6863972823724
30
0
41
1
10
22.5378505100156
20
-14.6361236885735
30
0
41
1
10
22.6015940654144
20
-14.5620945336207
30
0
41
1
10
22.6335184729509
20
-14.5349706415472
30
0
41
1
10
22.7050522565007
20
-14.491240074163
30
0
41
1
10
22.7453261280982
20
-14.4785010812492
30
0
41
1
10
22.7839132815411
20
-14.474176989008
30
0
0
SPLINE
5
144
100
AcDbEntity
8
1
62
256
6
ByLayer
370
18
48
1
60
0
100
AcDbSpline
70
4
71
3
72
10
73
6
40
0
40
0
40
0
40
0
40
0.5
40
0.5
40
1
40
1
40
1
40
1
41
1
10
23.8623304480187
20
-10.4225004769685
30
0
41
1
10
23.5062784712821
20
-9.15398165099671
30
0
41
1
10
23.052485815683
20
-7.92126994705421
30
0
41
1
10
21.9119468117485
20
-5.54118870580746
30
0
41
1
10
21.2681994791273
20
-4.37960569807174
30
0
41
1
10
20.4490045088484
20
-3.33511674048083
30
0
0
SPLINE
5
145
100
AcDbEntity
8
1
62
256
6
ByLayer
370
18
48
1
60
0
100
AcDbSpline
70
4
71
3
72
8
73
4
40
0
40
0
40
0
40
0
40
1
40
1
40
1
40
1
41
1
10
14.3755672927579
20
-2.19641852062509
30
0
41
1
10
14.8124464291707
20
-0.69821170054351
30
0
41
1
10
15.1340938591413
20
0.703531034321657
30
0
41
1
10
15.1510085957571
20
1.53665184631365
30
0
0
SPLINE
5
146
100
AcDbEntity
8
1
62
256
6
ByLayer
370
18
48
1
60
0
100
AcDbSpline
70
4
71
3
72
10
73
6
40
0
40
0
40
0
40
0
40
0.264715639145587
40
0.264715639145587
40
1
40
1
40
1
40
1
41
1
10
22.5442363043332
20
-17.4380960302325
30
0
41
1
10
22.5255258942096
20
-17.3329475500336
30
0
41
1
10
22.5077393868651
20
-17.2267775573041
30
0
41
1
10
22.4436091140198
20
-16.8225794751745
30
0
41
1
10
22.4025608024114
20
-16.5188891860371
30
0
41
1
10
22.3663371627395
20
-16.2108660441677
30
0
0
SPLINE
5
147
100
AcDbEntity
8
1
62
256
6
ByLayer
370
18
48
1
60
0
100
AcDbSpline
70
4
71
3
72
20
73
16
40
0
40
0
40
0
40
0
40
0.110576036200126
40
0.110576036200126
40
0.197179369122809
40
0.197179369122809
40
0.28429111738737
40
0.28429111738737
40
0.365904217918075
40
0.365904217918075
40
0.497270233392072
40
0.497270233392072
40
0.733496364826727
40
0.733496364826727
40
1
40
1
40
1
40
1
41
1
10
19.6093292748513
20
-17.0195827252475
30
0
41
1
10
19.6236908025249
20
-16.9796905115931
30
0
41
1
10
19.6478503836899
20
-16.9399502060662
30
0
41
1
10
19.7141847681198
20
-16.8753295925326
30
0
41
1
10
19.7522118889833
20
-16.8485879119629
30
0
41
1
10
19.8437588266773
20
-16.8037152889942
30
0
41
1
10
19.8986014395249
20
-16.7851308476981
30
0
41
1
10
20.0120312737607
20
-16.7595114327453
30
0
41
1
10
20.0713357814345
20
-16.7514365616977
30
0
41
1
10
20.2261173250418
20
-16.7404578598668
30
0
41
1
10
20.3242902704789
20
-16.7431831234027
30
0
41
1
10
20.5874211889525
20
-16.7663964517431
30
0
41
1
10
20.7496674841335
20
-16.7987661869637
30
0
41
1
10
21.0750162924487
20
-16.8805321566779
30
0
41
1
10
21.2388329206098
20
-16.9328458419716
30
0
41
1
10
21.3956134545921
20
-16.9891997375984
30
0
0
SPLINE
5
148
100
AcDbEntity
8
1
62
256
6
ByLayer
370
18
48
1
60
0
100
AcDbSpline
70
4
71
3
72
10
73
6
40
0
40
0
40
0
40
0
40
0.585516416900592
40
0.585516416900592
40
1
40
1
40
1
40
1
41
1
10
27.2632071510674
20
-4.75817151144059
30
0
41
1
10
27.3883879195979
20
-4.88571999955627
30
0
41
1
10
27.5123094539841
20
-5.01623748787657
30
0
41
1
10
27.7222684791086
20
-5.24374524095811
30
0
41
1
10
27.8087969762209
20
-5.33939431635287
30
0
41
1
10
27.8949086899449
20
-5.43631355425887
30
0
0
SPLINE
5
149
100
AcDbEntity
8
1
62
256
6
ByLayer
370
18
48
1
60
0
100
AcDbSpline
70
4
71
3
72
8
73
4
40
0
40
0
40
0
40
0
40
1
40
1
40
1
40
1
41
1
10
23.4648899554929
20
-4.86786295266154
30
0
41
1
10
23.4623524704679
20
-4.87165592750665
30
0
41
1
10
23.4598218338086
20
-4.87546136715659
30
0
41
1
10
23.4573004704425
20
-4.87927567207424
30
0
0
SPLINE
5
14A
100
AcDbEntity
8
1
62
256
6
ByLayer
370
18
48
1
60
0
100
AcDbSpline
70
4
71
3
72
8
73
4
40
0
40
0
40
0
40
0
40
1
40
1
40
1
40
1
41
1
10
24.2407548586833
20
-4.23598385779582
30
0
41
1
10
23.9804701631284
20
-4.34841178676646
30
0
41
1
10
23.6904402550626
20
-4.53071549991071
30
0
41
1
10
23.4648899554929
20
-4.86786295266157
30
0
0
INSERT
5
15D
100
AcDbEntity
8
SK2
62
256
6
ByLayer
370
25
48
1
60
0
100
AcDbBlockReference
2
DimnDraft3D11
10
0
20
0
30
0
41
1
42
1
43
1
50
0
210
0
220
0
230
1
0
LINE
5
72
100
AcDbEntity
8
1
62
256
6
ByLayer
370
18
48
1
60
0
100
AcDbLine
10
11.50369
20
-21.89705
30
0
11
11.51164
21
-21.90588
31
0
39
0
210
0
220
0
230
1
0
LINE
5
74
100
AcDbEntity
8
1
62
256
6
ByLayer
370
18
48
1
60
0
100
AcDbLine
10
23.935816
20
-6.058076
30
0
11
23.467534
21
-5.537996
31
0
39
0
210
0
220
0
230
1
0
LINE
5
75
100
AcDbEntity
8
1
62
256
6
ByLayer
370
18
48
1
60
0
100
AcDbLine
10
11.681487
20
-22.645172
30
0
11
12.149769
21
-23.165253
31
0
39
0
210
0
220
0
230
1
0
LINE
5
76
100
AcDbEntity
8
1
62
256
6
ByLayer
370
18
48
1
60
0
100
AcDbLine
10
16.139593
20
2.054348
30
0
11
15.736793
21
2.526219
31
0
39
0
210
0
220
0
230
1
0
LINE
5
77
100
AcDbEntity
8
1
62
256
6
ByLayer
370
18
48
1
60
0
100
AcDbLine
10
12.609893
20
-0.841156
30
0
11
12.915474
21
-1.199136
31
0
39
0
210
0
220
0
230
1
0
LINE
5
78
100
AcDbEntity
8
1
62
256
6
ByLayer
370
18
48
1
60
0
100
AcDbLine
10
13.394894
20
-7.822237
30
0
11
13.237488
21
-7.647421
31
0
39
0
210
0
220
0
230
1
0
LINE
5
79
100
AcDbEntity
8
1
62
256
6
ByLayer
370
18
48
1
60
0
100
AcDbLine
10
15.088435
20
-6.225598
30
0
11
15.245841
21
-6.400415
31
0
39
0
210
0
220
0
230
1
0
LINE
5
7A
100
AcDbEntity
8
1
62
256
6
ByLayer
370
18
48
1
60
0
100
AcDbLine
10
11.111679
20
-9.525623
30
0
11
11.275574
21
-9.707647
31
0
39
0
210
0
220
0
230
1
0
LINE
5
7B
100
AcDbEntity
8
1
62
256
6
ByLayer
370
18
48
1
60
0
100
AcDbLine
10
17.220733
20
-4.354602
30
0
11
17.056838
21
-4.172578
31
0
39
0
210
0
220
0
230
1
0
LINE
5
7C
100
AcDbEntity
8
80
62
256
6
ByLayer
370
18
48
1
60
0
100
AcDbLine
10
0
20
0
30
0
11
-5
21
0
31
0
39
0
210
0
220
0
230
1
0
LINE
5
7D
100
AcDbEntity
8
81
62
256
6
ByLayer
370
18
48
1
60
0
100
AcDbLine
10
32.645022
20
-24.425
30
0
11
42.645022
21
-24.425
31
0
39
0
210
0
220
0
230
1
0
LINE
5
7E
100
AcDbEntity
8
1
62
256
6
ByLayer
370
18
48
1
60
0
100
AcDbLine
10
23.373761
20
-4.851685
30
0
11
22.323088
21
-6.441138
31
0
39
0
210
0
220
0
230
1
0
LINE
5
7F
100
AcDbEntity
8
1
62
256
6
ByLayer
370
18
48
1
60
0
100
AcDbLine
10
15.246913
20
-17.145938
30
0
11
12.335831
21
-21.549806
31
0
39
0
210
0
220
0
230
1
0
LINE
5
80
100
AcDbEntity
8
1
62
256
6
ByLayer
370
18
48
1
60
0
100
AcDbLine
10
23.861173
20
6.764059
30
0
11
16.862525
21
1.152488
31
0
39
0
210
0
220
0
230
1
0
LINE
5
81
100
AcDbEntity
8
1
62
256
6
ByLayer
370
18
48
1
60
0
100
AcDbLine
10
5.625965
20
-7.857071
30
0
11
4.827751
21
-8.497085
31
0
39
0
210
0
220
0
230
1
0
LINE
5
82
100
AcDbEntity
8
1
62
256
6
ByLayer
370
18
48
1
60
0
100
AcDbLine
10
20.468552
20
8.411867
30
0
11
14.438175
21
3.576665
31
0
39
0
210
0
220
0
230
1
0
LINE
5
83
100
AcDbEntity
8
1
62
256
6
ByLayer
370
18
48
1
60
0
100
AcDbLine
10
3.747653
20
-4.995078
30
0
11
2.304767
21
-6.151995
31
0
39
0
210
0
220
0
230
1
0
LINE
5
84
100
AcDbEntity
8
1
62
256
6
ByLayer
370
18
48
1
60
0
100
AcDbLine
10
19.534627
20
8.865478
30
0
11
13.284402
21
3.853999
31
0
39
0
210
0
220
0
230
1
0
LINE
5
85
100
AcDbEntity
8
1
62
256
6
ByLayer
370
18
48
1
60
0
100
AcDbLine
10
3.72836
20
-3.808108
30
0
11
1.436064
21
-5.646089
31
0
39
0
210
0
220
0
230
1
0
LINE
5
86
100
AcDbEntity
8
1
62
256
6
ByLayer
370
18
48
1
60
0
100
AcDbLine
10
22.364307
20
-6.53275
30
0
11
23.4573
21
-4.879276
31
0
39
0
210
0
220
0
230
1
0
LINE
5
87
100
AcDbEntity
8
1
62
256
6
ByLayer
370
18
48
1
60
0
100
AcDbLine
10
12.434201
20
-21.554961
30
0
11
15.319884
21
-17.189515
31
0
39
0
210
0
220
0
230
1
0
LINE
5
88
100
AcDbEntity
8
1
62
256
6
ByLayer
370
18
48
1
60
0
100
AcDbLine
10
25.976764
20
-10.083732
30
0
11
25.992194
21
-10.103422
31
0
39
0
210
0
220
0
230
1
0
LINE
5
89
100
AcDbEntity
8
1
62
256
6
ByLayer
370
18
48
1
60
0
100
AcDbLine
10
26.706721
20
-6.52951
30
0
11
25.280009
21
-8.687832
31
0
39
0
210
0
220
0
230
1
0
LINE
5
8A
100
AcDbEntity
8
1
62
256
6
ByLayer
370
18
48
1
60
0
100
AcDbLine
10
30.061352
20
-17.903642
30
0
11
29.935723
21
-18.014894
31
0
39
0
210
0
220
0
230
1
0
LINE
5
8B
100
AcDbEntity
8
1
62
256
6
ByLayer
370
18
48
1
60
0
100
AcDbLine
10
25.992194
20
-10.103422
30
0
11
26.495983
21
-11.123909
31
0
39
0
210
0
220
0
230
1
0
LINE
5
8C
100
AcDbEntity
8
1
62
256
6
ByLayer
370
18
48
1
60
0
100
AcDbLine
10
20.439326
20
8.426062
30
0
11
14.411181
21
3.592649
31
0
39
0
210
0
220
0
230
1
0
LINE
5
8D
100
AcDbEntity
8
1
62
256
6
ByLayer
370
18
48
1
60
0
100
AcDbLine
10
3.737693
20
-4.965435
30
0
11
2.10886
21
-6.271446
31
0
39
0
210
0
220
0
230
1
0
LINE
5
8E
100
AcDbEntity
8
1
62
256
6
ByLayer
370
18
48
1
60
0
100
AcDbLine
10
26.567667
20
-6.431911
30
0
11
25.192408
21
-8.512394
31
0
39
0
210
0
220
0
230
1
0
LINE
5
8F
100
AcDbEntity
8
1
62
256
6
ByLayer
370
18
48
1
60
0
100
AcDbLine
10
22.643537
20
-6.110321
30
0
11
22.687812
21
-6.159493
31
0
39
0
210
0
220
0
230
1
0
LINE
5
90
100
AcDbEntity
8
1
62
256
6
ByLayer
370
18
48
1
60
0
100
AcDbLine
10
12.081879
20
-22.204091
30
0
11
15.389605
21
-17.200182
31
0
39
0
210
0
220
0
230
1
0
LINE
5
91
100
AcDbEntity
8
1
62
256
6
ByLayer
370
18
48
1
60
0
100
AcDbLine
10
22.39532
20
-6.601973
30
0
11
22.687812
21
-6.159493
31
0
39
0
210
0
220
0
230
1
0
LINE
5
92
100
AcDbEntity
8
1
62
256
6
ByLayer
370
18
48
1
60
0
100
AcDbLine
10
11.613597
20
-21.684011
30
0
11
11.723634
21
-21.517548
31
0
39
0
210
0
220
0
230
1
0
LINE
5
93
100
AcDbEntity
8
1
62
256
6
ByLayer
370
18
48
1
60
0
100
AcDbLine
10
16.803608
20
-3.582717
30
0
11
16.681397
21
-3.439551
31
0
39
0
210
0
220
0
230
1
0
LINE
5
94
100
AcDbEntity
8
1
62
256
6
ByLayer
370
18
48
1
60
0
100
AcDbLine
10
16.626398
20
-3.385324
30
0
11
17.760561
21
-4.803933
31
0
39
0
210
0
220
0
230
1
0
LINE
5
95
100
AcDbEntity
8
1
62
256
6
ByLayer
370
18
48
1
60
0
100
AcDbLine
10
5.854991
20
-8.1383
30
0
11
4.965453
21
-7.026014
31
0
39
0
210
0
220
0
230
1
0
LINE
5
96
100
AcDbEntity
8
1
62
256
6
ByLayer
370
18
48
1
60
0
100
AcDbLine
10
22.544236
20
-17.438096
30
0
11
24.144297
21
-19.482372
31
0
39
0
210
0
220
0
230
1
0
LINE
5
97
100
AcDbEntity
8
1
62
256
6
ByLayer
370
18
48
1
60
0
100
AcDbLine
10
12.495399
20
1.850093
30
0
11
11.348161
21
3.194054
31
0
39
0
210
0
220
0
230
1
0
LINE
5
98
100
AcDbEntity
8
1
62
256
6
ByLayer
370
18
48
1
60
0
100
AcDbLine
10
7.553537
20
-2.846082
30
0
11
11.610328
21
0.406684
31
0
39
0
210
0
220
0
230
1
0
LINE
5
99
100
AcDbEntity
8
1
62
256
6
ByLayer
370
18
48
1
60
0
100
AcDbLine
10
21.606867
20
-19.743152
30
0
11
20.550529
21
-19.574197
31
0
39
0
210
0
220
0
230
1
0
LINE
5
9A
100
AcDbEntity
8
1
62
256
6
ByLayer
370
18
48
1
60
0
100
AcDbLine
10
9.218131
20
-12.340117
30
0
11
5.859922
21
-8.140984
31
0
39
0
210
0
220
0
230
1
0
LINE
5
9B
100
AcDbEntity
8
1
62
256
6
ByLayer
370
18
48
1
60
0
100
AcDbLine
10
17.089183
20
0.869361
30
0
11
17.090796
21
0.864017
31
0
39
0
210
0
220
0
230
1
0
LINE
5
9C
100
AcDbEntity
8
1
62
256
6
ByLayer
370
18
48
1
60
0
100
AcDbLine
10
5.94212
20
-3.404376
30
0
11
4.794883
21
-2.060415
31
0
39
0
210
0
220
0
230
1
0
LINE
5
9D
100
AcDbEntity
8
1
62
256
6
ByLayer
370
18
48
1
60
0
100
AcDbLine
10
15.151009
20
1.536652
30
0
11
19.86682
21
-4.360041
31
0
39
0
210
0
220
0
230
1
0
LINE
5
9E
100
AcDbEntity
8
1
62
256
6
ByLayer
370
18
48
1
60
0
100
AcDbLine
10
12.550128
20
-0.768816
30
0
11
11.610328
21
0.406684
31
0
39
0
210
0
220
0
230
1
0
LINE
5
9F
100
AcDbEntity
8
1
62
256
6
ByLayer
370
18
48
1
60
0
100
AcDbLine
10
20.449005
20
-3.335117
30
0
11
17.090796
21
0.864017
31
0
39
0
210
0
220
0
230
1
0
LINE
5
A0
100
AcDbEntity
8
1
62
256
6
ByLayer
370
18
48
1
60
0
100
AcDbLine
10
11.348161
20
3.194054
30
0
11
4.794883
21
-2.060415
31
0
39
0
210
0
220
0
230
1
0
LINE
5
A1
100
AcDbEntity
8
1
62
256
6
ByLayer
370
18
48
1
60
0
100
AcDbLine
10
22.308487
20
-19.855372
30
0
11
22.084117
21
-19.819485
31
0
39
0
210
0
220
0
230
1
0
LINE
5
A2
100
AcDbEntity
8
1
62
256
6
ByLayer
370
18
48
1
60
0
100
AcDbLine
10
24.899156
20
-17.778154
30
0
11
24.91377
21
-17.550648
31
0
39
0
210
0
220
0
230
1
0
LINE
5
A3
100
AcDbEntity
8
1
62
256
6
ByLayer
370
18
48
1
60
0
100
AcDbLine
10
12.846359
20
-1.115844
30
0
11
12.550128
21
-0.768816
31
0
39
0
210
0
220
0
230
1
0
LINE
5
A4
100
AcDbEntity
8
1
62
256
6
ByLayer
370
18
48
1
60
0
100
AcDbLine
10
5.854991
20
-8.1383
30
0
11
4.632438
21
-6.638545
31
0
39
0
210
0
220
0
230
1
0
LINE
5
A5
100
AcDbEntity
8
1
62
256
6
ByLayer
370
18
48
1
60
0
100
AcDbLine
10
18.072631
20
-5.169515
30
0
11
16.803608
21
-3.582717
31
0
39
0
210
0
220
0
230
1
0
LINE
5
A6
100
AcDbEntity
8
1
62
256
6
ByLayer
370
18
48
1
60
0
100
AcDbLine
10
18.072631
20
-5.169515
30
0
11
17.760561
21
-4.803933
31
0
39
0
210
0
220
0
230
1
0
LINE
5
A7
100
AcDbEntity
8
1
62
256
6
ByLayer
370
18
48
1
60
0
100
AcDbLine
10
5.854991
20
-8.1383
30
0
11
5.859922
21
-8.140984
31
0
39
0
210
0
220
0
230
1
0
LINE
5
A8
100
AcDbEntity
8
1
62
256
6
ByLayer
370
18
48
1
60
0
100
AcDbLine
10
16.199645
20
1.981647
30
0
11
17.089183
21
0.869361
31
0
39
0
210
0
220
0
230
1
0
LINE
5
A9
100
AcDbEntity
8
1
62
256
6
ByLayer
370
18
48
1
60
0
100
AcDbLine
10
5.94212
20
-3.404376
30
0
11
12.495399
21
1.850093
31
0
39
0
210
0
220
0
230
1
0
LINE
5
AA
100
AcDbEntity
8
1
62
256
6
ByLayer
370
18
48
1
60
0
100
AcDbLine
10
24.944856
20
-17.066727
30
0
11
25.01366
21
-15.995625
31
0
39
0
210
0
220
0
230
1
0
LINE
5
AB
100
AcDbEntity
8
1
62
256
6
ByLayer
370
18
48
1
60
0
100
AcDbLine
10
4.965453
20
-7.026014
30
0
11
4.584738
21
-6.580015
31
0
39
0
210
0
220
0
230
1
0
LINE
5
AC
100
AcDbEntity
8
1
62
256
6
ByLayer
370
18
48
1
60
0
100
AcDbLine
10
10.328344
20
-8.774633
30
0
11
11.597367
21
-10.361431
31
0
39
0
210
0
220
0
230
1
0
LINE
5
AD
100
AcDbEntity
8
1
62
256
6
ByLayer
370
18
48
1
60
0
100
AcDbLine
10
21.84596
20
-19.754624
30
0
11
21.606867
21
-19.743152
31
0
39
0
210
0
220
0
230
1
0
LINE
5
AE
100
AcDbEntity
8
1
62
256
6
ByLayer
370
18
48
1
60
0
100
AcDbLine
10
5.668188
20
-6.066747
30
0
11
10.383998
21
-11.963439
31
0
39
0
210
0
220
0
230
1
0
LINE
5
AF
100
AcDbEntity
8
1
62
256
6
ByLayer
370
18
48
1
60
0
100
AcDbLine
10
24.944856
20
-17.066727
30
0
11
24.903771
21
-17.302848
31
0
39
0
210
0
220
0
230
1
0
LINE
5
B0
100
AcDbEntity
8
1
62
256
6
ByLayer
370
18
48
1
60
0
100
AcDbLine
10
15.267143
20
-7.715929
30
0
11
15.424549
21
-7.890746
31
0
39
0
210
0
220
0
230
1
0
LINE
5
B1
100
AcDbEntity
8
1
62
256
6
ByLayer
370
18
48
1
60
0
100
AcDbLine
10
14.028852
20
-8.288768
30
0
11
14.186258
21
-8.463585
31
0
39
0
210
0
220
0
230
1
0
LINE
5
B2
100
AcDbEntity
8
1
62
256
6
ByLayer
370
18
48
1
60
0
100
AcDbLine
10
12.924671
20
-7.509348
30
0
11
13.082077
21
-7.684165
31
0
39
0
210
0
220
0
230
1
0
LINE
5
B3
100
AcDbEntity
8
1
62
256
6
ByLayer
370
18
48
1
60
0
100
AcDbLine
10
14.991908
20
-5.851822
30
0
11
15.149314
21
-6.026639
31
0
39
0
210
0
220
0
230
1
0
LINE
5
B4
100
AcDbEntity
8
1
62
256
6
ByLayer
370
18
48
1
60
0
100
AcDbLine
10
14.681183
20
-8.185756
30
0
11
14.838589
21
-8.360573
31
0
39
0
210
0
220
0
230
1
0
LINE
5
B5
100
AcDbEntity
8
1
62
256
6
ByLayer
370
18
48
1
60
0
100
AcDbLine
10
15.510129
20
-7.101069
30
0
11
15.667535
21
-7.275886
31
0
39
0
210
0
220
0
230
1
0
LINE
5
B6
100
AcDbEntity
8
1
62
256
6
ByLayer
370
18
48
1
60
0
100
AcDbLine
10
4.968835
20
15.940137
30
0
11
3.604857
21
15.940729
31
0
39
0
210
0
220
0
230
1
0
LINE
5
B7
100
AcDbEntity
8
1
62
256
6
ByLayer
370
18
48
1
60
0
100
AcDbLine
10
19.534627
20
8.865478
30
0
11
20.439326
21
8.426062
31
0
39
0
210
0
220
0
230
1
0
LINE
5
B8
100
AcDbEntity
8
1
62
256
6
ByLayer
370
18
48
1
60
0
100
AcDbLine
10
30.314422
20
3.629692
30
0
11
31.168574
21
-16.923132
31
0
39
0
210
0
220
0
230
1
0
LINE
5
B9
100
AcDbEntity
8
1
62
256
6
ByLayer
370
18
48
1
60
0
100
AcDbLine
10
12.335831
20
-21.549806
30
0
11
5.253644
21
-21.178644
31
0
39
0
210
0
220
0
230
1
0
LINE
5
BA
100
AcDbEntity
8
1
62
256
6
ByLayer
370
18
48
1
60
0
100
AcDbLine
10
26.157432
20
-9.995772
30
0
11
30.061352
21
-17.903642
31
0
39
0
210
0
220
0
230
1
0
LINE
5
BB
100
AcDbEntity
8
1
62
256
6
ByLayer
370
18
48
1
60
0
100
AcDbLine
10
0
20
15.925
30
0
11
3.604857
21
15.940729
31
0
39
0
210
0
220
0
230
1
0
LINE
5
BC
100
AcDbEntity
8
1
62
256
6
ByLayer
370
18
48
1
60
0
100
AcDbLine
10
26.706721
20
-6.52951
30
0
11
27.692582
21
-7.673404
31
0
39
0
210
0
220
0
230
1
0
LINE
5
BD
100
AcDbEntity
8
1
62
256
6
ByLayer
370
18
48
1
60
0
100
AcDbLine
10
4.827751
20
-8.497085
30
0
11
3.708857
21
-19.633857
31
0
39
0
210
0
220
0
230
1
0
LINE
5
BE
100
AcDbEntity
8
1
62
256
6
ByLayer
370
18
48
1
60
0
100
AcDbLine
10
31.168574
20
-16.923132
30
0
11
30.061352
21
-17.903642
31
0
39
0
210
0
220
0
230
1
0
LINE
5
BF
100
AcDbEntity
8
1
62
256
6
ByLayer
370
18
48
1
60
0
100
AcDbLine
10
3.708857
20
-19.633857
30
0
11
5.253644
21
-21.178644
31
0
39
0
210
0
220
0
230
1
0
LINE
5
C0
100
AcDbEntity
8
1
62
256
6
ByLayer
370
18
48
1
60
0
100
AcDbLine
10
2.10886
20
-6.271446
30
0
11
2.304767
21
-6.151995
31
0
39
0
210
0
220
0
230
1
0
LINE
5
C1
100
AcDbEntity
8
1
62
256
6
ByLayer
370
18
48
1
60
0
100
AcDbLine
10
3.708857
20
-19.633857
30
0
11
0
21
-15.925
31
0
39
0
210
0
220
0
230
1
0
LINE
5
C2
100
AcDbEntity
8
1
62
256
6
ByLayer
370
18
48
1
60
0
100
AcDbLine
10
4.968835
20
15.940137
30
0
11
19.534627
21
8.865478
31
0
39
0
210
0
220
0
230
1
0
LINE
5
C3
100
AcDbEntity
8
1
62
256
6
ByLayer
370
18
48
1
60
0
100
AcDbLine
10
2.304767
20
-6.151995
30
0
11
4.827751
21
-8.497085
31
0
39
0
210
0
220
0
230
1
0
LINE
5
C4
100
AcDbEntity
8
1
62
256
6
ByLayer
370
18
48
1
60
0
100
AcDbLine
10
23.4573
20
-4.879276
30
0
11
23.373761
21
-4.851685
31
0
39
0
210
0
220
0
230
1
0
LINE
5
C5
100
AcDbEntity
8
1
62
256
6
ByLayer
370
18
48
1
60
0
100
AcDbLine
10
26.567667
20
-6.431911
30
0
11
26.706721
21
-6.52951
31
0
39
0
210
0
220
0
230
1
0
LINE
5
C6
100
AcDbEntity
8
1
62
256
6
ByLayer
370
18
48
1
60
0
100
AcDbLine
10
27.692582
20
-7.673404
30
0
11
26.157432
21
-9.995772
31
0
39
0
210
0
220
0
230
1
0
LINE
5
C7
100
AcDbEntity
8
1
62
256
6
ByLayer
370
18
48
1
60
0
100
AcDbLine
10
3.604857
20
15.940729
30
0
11
1.436064
21
-5.646089
31
0
39
0
210
0
220
0
230
1
0
LINE
5
C8
100
AcDbEntity
8
1
62
256
6
ByLayer
370
18
48
1
60
0
100
AcDbLine
10
27.000821
20
-4.345709
30
0
11
26.835091
21
-4.237429
31
0
39
0
210
0
220
0
230
1
0
LINE
5
C9
100
AcDbEntity
8
1
62
256
6
ByLayer
370
18
48
1
60
0
100
AcDbLine
10
0
20
-15.925
30
0
11
0
21
15.925
31
0
39
0
210
0
220
0
230
1
0
LINE
5
CA
100
AcDbEntity
8
1
62
256
6
ByLayer
370
18
48
1
60
0
100
AcDbLine
10
30.314422
20
3.629692
30
0
11
23.861173
21
6.764059
31
0
39
0
210
0
220
0
230
1
0
LINE
5
CB
100
AcDbEntity
8
1
62
256
6
ByLayer
370
18
48
1
60
0
100
AcDbLine
10
20.439326
20
8.426062
30
0
11
20.468552
21
8.411867
31
0
39
0
210
0
220
0
230
1
0
LINE
5
CC
100
AcDbEntity
8
1
62
256
6
ByLayer
370
18
48
1
60
0
100
AcDbLine
10
20.468552
20
8.411867
30
0
11
23.861173
21
6.764059
31
0
39
0
210
0
220
0
230
1
0
LINE
5
CD
100
AcDbEntity
8
1
62
256
6
ByLayer
370
18
48
1
60
0
100
AcDbLine
10
25.992194
20
-10.103422
30
0
11
26.157432
21
-9.995772
31
0
39
0
210
0
220
0
230
1
0
LINE
5
CE
100
AcDbEntity
8
1
62
256
6
ByLayer
370
18
48
1
60
0
100
AcDbLine
10
12.335831
20
-21.549806
30
0
11
12.434201
21
-21.554961
31
0
39
0
210
0
220
0
230
1
0
LINE
5
CF
100
AcDbEntity
8
SK1
62
256
6
ByLayer
370
18
48
1
60
0
100
AcDbLine
10
-138.704978
20
15.925
30
0
11
0
21
15.925
31
0
39
0
210
0
220
0
230
1
0
LINE
5
D1
100
AcDbEntity
8
SK1
62
256
6
ByLayer
370
18
48
1
60
0
100
AcDbLine
10
0
20
-15.925
30
0
11
-138.704978
21
-15.925
31
0
39
0
210
0
220
0
230
1
0
LINE
5
D2
100
AcDbEntity
8
SK1
62
256
6
ByLayer
370
18
48
1
60
0
100
AcDbLine
10
0
20
-15.925
30
0
11
0
21
15.925
31
0
39
0
210
0
220
0
230
1
0
LINE
5
D3
100
AcDbEntity
8
SK1
62
256
6
ByLayer
370
18
48
1
60
0
100
AcDbLine
10
-138.704978
20
-15.925
30
0
11
-138.704978
21
15.925
31
0
39
0
210
0
220
0
230
1
0
LINE
5
D4
100
AcDbEntity
8
1
62
256
6
ByLayer
370
18
48
1
60
0
100
AcDbLine
10
12.081879
20
-22.204091
30
0
11
11.613597
21
-21.684011
31
0
39
0
210
0
220
0
230
1
0
LINE
5
D5
100
AcDbEntity
8
1
62
256
6
ByLayer
370
18
48
1
60
0
100
AcDbLine
10
24.053652
20
-6.231074
30
0
11
32.562601
21
-23.27744
31
0
39
0
210
0
220
0
230
1
0
LINE
5
D6
100
AcDbEntity
8
1
62
256
6
ByLayer
370
18
48
1
60
0
100
AcDbLine
10
31.804762
20
-24.423895
30
0
11
12.68988
21
-23.422127
31
0
39
0
210
0
220
0
230
1
0
MTEXT
5
14B
100
AcDbEntity
8
SK6
62
256
6
ByLayer
370
18
48
1
60
0
100
AcDbMText
10
-67.154978
20
25.057865
30
0
210
0
220
0
230
1
1
\W0.7853;DTJNL 3232P 22
40
3.5
41
0
44
1.084337
50
0
71
7
72
5
7
iso_b_vert
0
DIMENSION
5
16B
100
AcDbEntity
8
2
62
256
6
ByLayer
370
13
48
1
60
0
100
AcDbDimension
2
DimnDraft3D2
10
30.811101
20
-24.371576
30
0
11
20.356887
21
-36.128693
31
0
70
34
71
5
72
1
41
1
210
0
220
0
230
1
3
Standard
100
AcDb2LineAngularDimension
13
32.645022
23
-24.425
33
0
14
32.645022
24
-22.8375
34
0
15
31.80973
25
-24.423912
35
0
16
17.092702
26
-39.226289
36
0
40
0
0
DIMENSION
5
180
100
AcDbEntity
8
2
62
256
6
ByLayer
370
13
48
1
60
0
100
AcDbDimension
2
DimnDraft3D3
10
32.645022
20
-52.675
30
0
11
11.040932
21
-52.675
31
0
70
32
71
5
72
1
41
1
210
0
220
0
230
1
3
Standard
100
AcDbAlignedDimension
13
0
23
-17.925
33
0
14
32.645022
24
-26.425
34
0
50
0
100
AcDbRotatedDimension
1001
ACAD
1000
DSTYLE
1002
{
1070
   279
1070
     0
1070
   172
1070
     1
1070
   173
1070
     1
1070
   340
1005
14C
1070
    77
1070
     1
1070
    73
1070
     0
1070
   171
1070
     3
1070
   274
1070
     4
1070
   177
1070
     2
1070
   176
1070
     2
1070
   178
1070
     7
1070
    78
1070
     8
1070
    41
1041
3.175
1070
   147
1041
2.25
1070
    42
1041
2.0
1070
    44
1041
2.0
1070
   140
1041
4.5
1070
   343
1005
16C
1070
   344
1005
16C
1002
}
0
DIMENSION
5
18E
100
AcDbEntity
8
2
62
256
6
ByLayer
370
13
48
1
60
0
100
AcDbDimension
2
DimnDraft3D4
10
54.895022
20
-24.425
30
0
11
54.895022
21
-9.768421
31
0
70
32
71
5
72
1
41
1
210
0
220
0
230
1
3
Standard
100
AcDbAlignedDimension
13
2
23
15.925
33
0
14
34.645022
24
-24.425
34
0
50
90
100
AcDbRotatedDimension
1001
ACAD
1000
DSTYLE
1002
{
1070
    74
1070
     0
1070
   279
1070
     0
1070
   172
1070
     1
1070
   173
1070
     1
1070
   340
1005
14C
1070
    77
1070
     1
1070
    73
1070
     0
1070
   171
1070
     3
1070
   274
1070
     4
1070
   177
1070
     2
1070
   176
1070
     2
1070
   178
1070
     7
1070
    78
1070
     8
1070
    41
1041
3.175
1070
   147
1041
2.25
1070
    42
1041
2.0
1070
    44
1041
2.0
1070
   140
1041
4.5
1070
   343
1005
16C
1070
   344
1005
16C
1002
}
0
DIMENSION
5
19C
100
AcDbEntity
8
SK2
62
256
6
ByLayer
370
13
48
1
60
0
100
AcDbDimension
2
DimnDraft3D5
10
-146.454978
20
-15.925
30
0
11
-146.454978
21
-5.281579
31
0
70
32
71
5
72
1
41
1
210
0
220
0
230
1
3
Standard
100
AcDbAlignedDimension
13
-140.704978
23
15.925
33
0
14
-140.704978
24
-15.925
34
0
50
90
100
AcDbRotatedDimension
1001
ACAD
1000
DSTYLE
1002
{
1070
    74
1070
     0
1070
   279
1070
     0
1070
   172
1070
     1
1070
   173
1070
     1
1070
   340
1005
14C
1070
    77
1070
     1
1070
    73
1070
     0
1070
   171
1070
     3
1070
   274
1070
     4
1070
   177
1070
     2
1070
   176
1070
     2
1070
   178
1070
     7
1070
    78
1070
     8
1070
    41
1041
3.175
1070
   147
1041
2.25
1070
    42
1041
2.0
1070
    44
1041
2.0
1070
   140
1041
4.5
1070
   343
1005
16C
1070
   344
1005
16C
1002
}
0
ENDSEC
0
SECTION
2
OBJECTS
0
DICTIONARY
5
206
330
0
100
AcDbDictionary
280
0
281
1
3
ACAD_GROUP
350
207
3
ACAD_MLINESTYLE
350
208
0
DICTIONARY
5
207
330
0
100
AcDbDictionary
280
0
281
1
0
DICTIONARY
5
208
330
0
100
AcDbDictionary
280
0
281
1
3
Standard
350
18
0
MLINESTYLE
5
18
330
208
100
AcDbMlineStyle
2
Standard
70
0
3

62
256
51
90
52
90
71
2
49
-0.5
62
256
6
ByLayer
49
0.5
62
256
6
ByLayer
0
RASTERVARIABLES
5
1f5
330

100
AcDbRasterVariables
90
0
70
1
71
1
72
1
0
ENDSEC
0
EOF
