0
SECTION
2
HEADER
9
$ACADVER
1
AC1015
9
$DWGCODEPAGE
3
ANSI_1252
9
$HANDSEED
5
22f
9
$ANGBASE
50
0
9
$ANGDIR
70
0
9
$ATTMODE
70
1
9
$AUNITS
70
0
9
$AUPREC
70
0
9
$CECOLOR
62
256
9
$CELTSCALE
40
1
9
$CELTYPE
6
ByLayer
9
$CELWEIGHT
370
18
9
$CLAYER
8
0
9
$CMLJUST
70
0
9
$CMLSCALE
40
1
9
$CMLSTYLE
2
Standard
9
$DIMSTYLE
2
Standard
9
$TEXTSIZE
40
0.2
9
$TEXTSTYLE
7
Standard
9
$LUNITS
70
2
9
$LUPREC
70
4
9
$EXTNAMES
290
1
9
$INSUNITS
70
4
9
$LTSCALE
40
1
9
$LWDISPLAY
290
1
9
$PDMODE
70
0
9
$PDSIZE
40
0
9
$PLINEGEN
70
0
0
ENDSEC
0
SECTION
2
CLASSES
0
CLASS
1
RASTERVARIABLES
2
AcDbRasterVariables
3
ISM
90
0
280
0
281
0
0
ENDSEC
0
SECTION
2
TABLES
0
TABLE
2
VPORT
5
225
100
AcDbSymbolTable
0
VPORT
5
1
100
AcDbSymbolTableRecord
100
AcDbViewportTableRecord
2
*Active
70
0
10
0
20
0
11
1
21
1
12
-1
22
1
13
0
23
0
14
0.5
24
0.5
15
10
25
10
16
0
26
0
36
1
17
0
27
0
37
0
0
ENDTAB
0
TABLE
2
LTYPE
5
226
100
AcDbSymbolTable
0
LTYPE
5
14
100
AcDbSymbolTableRecord
100
AcDbLinetypeTableRecord
70
0
2
ByBlock
3

72
65
73
0
40
0
0
LTYPE
5
15
100
AcDbSymbolTableRecord
100
AcDbLinetypeTableRecord
70
0
2
ByLayer
3

72
65
73
0
40
0
0
LTYPE
5
16
100
AcDbSymbolTableRecord
100
AcDbLinetypeTableRecord
70
0
2
CONTINUOUS
3
Solid line
72
65
73
0
40
0
0
LTYPE
5
6A
100
AcDbSymbolTableRecord
100
AcDbLinetypeTableRecord
70
0
2
CENTER
3
____ _ ____ _ ____ _ ____
72
65
73
4
40
47.5
49
22
74
0
49
-8.5
74
0
49
8.5
74
0
49
-8.5
74
0
0
LTYPE
5
6B
100
AcDbSymbolTableRecord
100
AcDbLinetypeTableRecord
70
0
2
DASHED
3
__ __ __ __ __ __ __ __ __
72
65
73
2
40
25.72
49
12.86
74
0
49
-12.86
74
0
0
ENDTAB
0
TABLE
2
LAYER
5
227
100
AcDbSymbolTable
0
LAYER
5
10
100
AcDbSymbolTableRecord
100
AcDbLayerTableRecord
2
0
70
0
62
7
6
CONTINUOUS
290
1
370
-3
390
0
0
LAYER
5
6D
100
AcDbSymbolTableRecord
100
AcDbLayerTableRecord
2
2
70
0
62
7
6
CONTINUOUS
290
1
370
-3
390
0
0
LAYER
5
6F
100
AcDbSymbolTableRecord
100
AcDbLayerTableRecord
2
80
70
0
62
-6
6
CONTINUOUS
290
1
370
-3
390
0
0
LAYER
5
71
100
AcDbSymbolTableRecord
100
AcDbLayerTableRecord
2
81
70
0
62
-3
6
CONTINUOUS
290
1
370
-3
390
0
0
LAYER
5
73
100
AcDbSymbolTableRecord
100
AcDbLayerTableRecord
2
1
70
0
62
4
6
CONTINUOUS
290
1
370
-3
390
0
0
LAYER
5
212
100
AcDbSymbolTableRecord
100
AcDbLayerTableRecord
2
SK1
70
0
62
4
6
CONTINUOUS
290
1
370
-3
390
0
0
LAYER
5
213
100
AcDbSymbolTableRecord
100
AcDbLayerTableRecord
2
SK6
70
0
62
5
6
CONTINUOUS
290
1
370
-3
390
0
0
LAYER
5
214
100
AcDbSymbolTableRecord
100
AcDbLayerTableRecord
2
SK2
70
0
62
7
6
CONTINUOUS
290
1
370
-3
390
0
0
ENDTAB
0
TABLE
2
STYLE
5
228
100
AcDbSymbolTable
0
STYLE
5
11
100
AcDbSymbolTableRecord
100
AcDbTextStyleTableRecord
2
Standard
3
txt
70
0
71
0
40
0
41
1
42
0
50
0
0
STYLE
5
168
100
AcDbSymbolTableRecord
100
AcDbTextStyleTableRecord
2
iso_b_vert
3
simplex.shx
70
0
71
0
40
0
41
1
42
0
50
0
0
STYLE
5
169
100
AcDbSymbolTableRecord
100
AcDbTextStyleTableRecord
2
DWGDirectTextStyle
3
simplex
70
0
71
0
40
0
41
1
42
0
50
0
0
ENDTAB
0
TABLE
2
DIMSTYLE
5
229
100
AcDbSymbolTable
100
AcDbDimStyleTable
0
DIMSTYLE
105
27
100
AcDbSymbolTableRecord
100
AcDbDimStyleTableRecord
2
Standard
70
0
3
<>
41
0.18
42
0.0625
44
0.18
140
0.18
147
0.09
73
0
74
0
77
1
271
2
275
0
278
52
280
0
340
11
0
ENDTAB
0
TABLE
2
VIEW
5
22a
100
AcDbSymbolTable
0
ENDTAB
0
TABLE
2
UCS
5
22b
100
AcDbSymbolTable
0
ENDTAB
0
TABLE
2
APPID
5
22c
100
AcDbSymbolTable
0
APPID
5
12
100
AcDbSymbolTableRecord
100
AcDbRegAppTableRecord
2
ACAD
70
0
0
ENDTAB
0
TABLE
2
BLOCK_RECORD
5
22d
100
AcDbSymbolTable
0
BLOCK_RECORD
5
1F
100
AcDbSymbolTableRecord
100
AcDbBlockTableRecord
2
*Model_Space
340
0
70
0
0
BLOCK_RECORD
5
1B
100
AcDbSymbolTableRecord
100
AcDbBlockTableRecord
2
*Paper_Space
340
0
70
0
0
BLOCK_RECORD
5
23
100
AcDbSymbolTableRecord
100
AcDbBlockTableRecord
2
*Paper_Space0
340
0
70
0
0
BLOCK_RECORD
5
16B
100
AcDbSymbolTableRecord
100
AcDbBlockTableRecord
2
DimnDraft3D11
340
0
70
0
0
BLOCK_RECORD
5
17A
100
AcDbSymbolTableRecord
100
AcDbBlockTableRecord
2
DimnDraft3D2
340
0
70
0
0
BLOCK_RECORD
5
188
100
AcDbSymbolTableRecord
100
AcDbBlockTableRecord
2
_CLOSED
340
0
70
0
0
BLOCK_RECORD
5
18F
100
AcDbSymbolTableRecord
100
AcDbBlockTableRecord
2
DimnDraft3D3
340
0
70
0
0
BLOCK_RECORD
5
19D
100
AcDbSymbolTableRecord
100
AcDbBlockTableRecord
2
DimnDraft3D4
340
0
70
0
0
BLOCK_RECORD
5
1AB
100
AcDbSymbolTableRecord
100
AcDbBlockTableRecord
2
DimnDraft3D5
340
0
70
0
0
ENDTAB
0
ENDSEC
0
SECTION
2
BLOCKS
0
BLOCK
5
20
100
AcDbEntity
8
0
100
AcDbBlockBegin
2
*Model_Space
70
0
10
0
20
0
30
0
3
*Model_Space
0
ENDBLK
5
21
100
AcDbEntity
8
0
100
AcDbBlockEnd
0
BLOCK
5
1C
100
AcDbEntity
8
0
100
AcDbBlockBegin
2
*Paper_Space
70
0
10
0
20
0
30
0
3
*Paper_Space
0
ENDBLK
5
1D
100
AcDbEntity
8
0
100
AcDbBlockEnd
0
BLOCK
5
24
100
AcDbEntity
8
0
100
AcDbBlockBegin
2
*Paper_Space0
70
0
10
0
20
0
30
0
3
*Paper_Space0
0
ENDBLK
5
25
100
AcDbEntity
8
0
100
AcDbBlockEnd
0
BLOCK
5
16C
100
AcDbEntity
8
0
100
AcDbBlockBegin
2
DimnDraft3D11
70
0
10
0
20
0
30
0
3
DimnDraft3D11
0
LINE
5
16E
100
AcDbEntity
8
SK2
62
256
6
ByLayer
370
25
48
1
60
0
100
AcDbLine
10
24.899434
20
-21.9125
30
0
11
24.899434
21
-60.1625
31
0
39
0
210
0
220
0
230
1
0
LINE
5
170
100
AcDbEntity
8
SK2
62
256
6
ByLayer
370
25
48
1
60
0
100
AcDbLine
10
-126.450566
20
-14.4375
30
0
11
-126.450566
21
-60.1625
31
0
39
0
210
0
220
0
230
1
0
LINE
5
171
100
AcDbEntity
8
SK2
62
256
6
ByLayer
370
25
48
1
60
0
100
AcDbLine
10
24.899434
20
-58.1625
30
0
11
-126.450566
21
-58.1625
31
0
39
0
210
0
220
0
230
1
0
LINE
5
172
100
AcDbEntity
8
SK2
62
256
6
ByLayer
370
25
48
1
60
0
100
AcDbLine
10
24.899434
20
-58.1625
30
0
11
21.724436
21
-58.580497
31
0
39
0
210
0
220
0
230
1
0
LINE
5
173
100
AcDbEntity
8
SK2
62
256
6
ByLayer
370
25
48
1
60
0
100
AcDbLine
10
24.899434
20
-58.1625
30
0
11
21.724432
21
-57.744503
31
0
39
0
210
0
220
0
230
1
0
LINE
5
174
100
AcDbEntity
8
SK2
62
256
6
ByLayer
370
25
48
1
60
0
100
AcDbLine
10
21.724436
20
-58.580497
30
0
11
21.724432
21
-57.744503
31
0
39
0
210
0
220
0
230
1
0
LINE
5
175
100
AcDbEntity
8
SK2
62
256
6
ByLayer
370
25
48
1
60
0
100
AcDbLine
10
-126.450566
20
-58.1625
30
0
11
-123.275568
21
-57.744503
31
0
39
0
210
0
220
0
230
1
0
LINE
5
176
100
AcDbEntity
8
SK2
62
256
6
ByLayer
370
25
48
1
60
0
100
AcDbLine
10
-126.450566
20
-58.1625
30
0
11
-123.275564
21
-58.580497
31
0
39
0
210
0
220
0
230
1
0
LINE
5
177
100
AcDbEntity
8
SK2
62
256
6
ByLayer
370
25
48
1
60
0
100
AcDbLine
10
-123.275568
20
-57.744503
30
0
11
-123.275564
21
-58.580497
31
0
39
0
210
0
220
0
230
1
0
MTEXT
5
178
100
AcDbEntity
8
SK2
62
256
6
ByLayer
370
18
48
1
60
0
100
AcDbMText
10
-56.051224
20
-57.0375
30
0
210
0
220
0
230
1
1
\W0.6864;150.0
40
4.5
41
0
44
1.084337
50
0
71
7
72
5
7
iso_b_vert
0
ENDBLK
5
16D
100
AcDbEntity
8
0
100
AcDbBlockEnd
0
BLOCK
5
185
100
AcDbEntity
8
0
100
AcDbBlockBegin
2
DimnDraft3D2
70
0
10
0
20
0
30
0
3
DimnDraft3D2
0
MTEXT
5
17B
100
AcDbEntity
8
2
62
256
6
ByLayer
370
18
48
1
60
0
100
AcDbMText
10
8.153799
20
-31.821965
30
0
210
0
220
0
230
1
1
\W0.7399;93%%d
40
4.5
41
0
44
1.084337
50
313.5
71
7
72
5
7
iso_b_vert
0
LINE
5
17C
100
AcDbEntity
8
2
62
256
6
ByLayer
370
13
48
1
60
0
100
AcDbLine
10
24.899434
20
-21.9125
30
0
11
24.899434
21
-43.395593
31
0
39
0
210
0
220
0
230
1
0
LINE
5
17D
100
AcDbEntity
8
2
62
256
6
ByLayer
370
13
48
1
60
0
100
AcDbLine
10
21.068254
20
-19.754404
30
0
11
1.491154
21
-18.728412
31
0
39
0
210
0
220
0
230
1
0
ARC
5
17E
100
AcDbEntity
8
2
62
256
6
ByLayer
370
13
48
1
60
0
100
AcDbCircle
39
0
10
24.899434
20
-19.955188
30
0
40
21.440404685267
210
0
220
0
230
1
100
AcDbArc
50
177
51
270
0
LINE
5
17F
100
AcDbEntity
8
2
62
256
6
ByLayer
370
13
48
1
60
0
100
AcDbLine
10
24.899434
20
-41.395593
30
0
11
21.71116
21
-41.696002
31
0
39
0
210
0
220
0
230
1
0
LINE
5
180
100
AcDbEntity
8
2
62
256
6
ByLayer
370
13
48
1
60
0
100
AcDbLine
10
24.899434
20
-41.395593
30
0
11
21.742043
21
-40.86058
31
0
39
0
210
0
220
0
230
1
0
LINE
5
181
100
AcDbEntity
8
2
62
256
6
ByLayer
370
13
48
1
60
0
100
AcDbLine
10
21.71116
20
-41.696002
30
0
11
21.742043
21
-40.86058
31
0
39
0
210
0
220
0
230
1
0
LINE
5
182
100
AcDbEntity
8
2
62
256
6
ByLayer
370
13
48
1
60
0
100
AcDbLine
10
3.488413
20
-18.833084
30
0
11
3.857447
21
-22.014145
31
0
39
0
210
0
220
0
230
1
0
LINE
5
183
100
AcDbEntity
8
2
62
256
6
ByLayer
370
13
48
1
60
0
100
AcDbLine
10
3.488413
20
-18.833084
30
0
11
3.021553
21
-22.001269
31
0
39
0
210
0
220
0
230
1
0
LINE
5
184
100
AcDbEntity
8
2
62
256
6
ByLayer
370
13
48
1
60
0
100
AcDbLine
10
3.857447
20
-22.014145
30
0
11
3.021553
21
-22.001269
31
0
39
0
210
0
220
0
230
1
0
ENDBLK
5
186
100
AcDbEntity
8
0
100
AcDbBlockEnd
0
BLOCK
5
189
100
AcDbEntity
8
0
100
AcDbBlockBegin
2
_CLOSED
70
0
10
0
20
0
30
0
3
_CLOSED
0
LINE
5
18B
100
AcDbEntity
8
0
62
256
6
ByLayer
370
-2
48
1
60
0
100
AcDbLine
10
-1
20
0.166667
30
0
11
0
21
0
31
0
39
0
210
0
220
0
230
1
0
LINE
5
18C
100
AcDbEntity
8
0
62
256
6
ByLayer
370
-2
48
1
60
0
100
AcDbLine
10
0
20
0
30
0
11
-1
21
-0.166667
31
0
39
0
210
0
220
0
230
1
0
LINE
5
18D
100
AcDbEntity
8
0
62
256
6
ByLayer
370
-2
48
1
60
0
100
AcDbLine
10
-1
20
0.166667
30
0
11
-1
21
-0.166667
31
0
39
0
210
0
220
0
230
1
0
LINE
5
18E
100
AcDbEntity
8
0
62
256
6
ByLayer
370
-2
48
1
60
0
100
AcDbLine
10
0
20
0
30
0
11
-1
21
0
31
0
39
0
210
0
220
0
230
1
0
ENDBLK
5
18A
100
AcDbEntity
8
0
100
AcDbBlockEnd
0
BLOCK
5
19A
100
AcDbEntity
8
0
100
AcDbBlockBegin
2
DimnDraft3D3
70
0
10
0
20
0
30
0
3
DimnDraft3D3
0
MTEXT
5
190
100
AcDbEntity
8
2
62
256
6
ByLayer
370
18
48
1
60
0
100
AcDbMText
10
8.056296
20
-47.0375
30
0
210
0
220
0
230
1
1
\W0.7756;24.9
40
4.5
41
0
44
1.084337
50
0
71
7
72
5
7
iso_b_vert
0
LINE
5
191
100
AcDbEntity
8
2
62
256
6
ByLayer
370
13
48
1
60
0
100
AcDbLine
10
0
20
-14.4375
30
0
11
0
21
-50.1625
31
0
39
0
210
0
220
0
230
1
0
LINE
5
192
100
AcDbEntity
8
2
62
256
6
ByLayer
370
13
48
1
60
0
100
AcDbLine
10
24.899434
20
-21.9125
30
0
11
24.899434
21
-50.1625
31
0
39
0
210
0
220
0
230
1
0
LINE
5
193
100
AcDbEntity
8
2
62
256
6
ByLayer
370
13
48
1
60
0
100
AcDbLine
10
0
20
-48.1625
30
0
11
24.899434
21
-48.1625
31
0
39
0
210
0
220
0
230
1
0
LINE
5
194
100
AcDbEntity
8
2
62
256
6
ByLayer
370
13
48
1
60
0
100
AcDbLine
10
0
20
-48.1625
30
0
11
3.174998
21
-47.744503
31
0
39
0
210
0
220
0
230
1
0
LINE
5
195
100
AcDbEntity
8
2
62
256
6
ByLayer
370
13
48
1
60
0
100
AcDbLine
10
0
20
-48.1625
30
0
11
3.175002
21
-48.580497
31
0
39
0
210
0
220
0
230
1
0
LINE
5
196
100
AcDbEntity
8
2
62
256
6
ByLayer
370
13
48
1
60
0
100
AcDbLine
10
3.174998
20
-47.744503
30
0
11
3.175002
21
-48.580497
31
0
39
0
210
0
220
0
230
1
0
LINE
5
197
100
AcDbEntity
8
2
62
256
6
ByLayer
370
13
48
1
60
0
100
AcDbLine
10
24.899434
20
-48.1625
30
0
11
21.724436
21
-48.580497
31
0
39
0
210
0
220
0
230
1
0
LINE
5
198
100
AcDbEntity
8
2
62
256
6
ByLayer
370
13
48
1
60
0
100
AcDbLine
10
24.899434
20
-48.1625
30
0
11
21.724432
21
-47.744503
31
0
39
0
210
0
220
0
230
1
0
LINE
5
199
100
AcDbEntity
8
2
62
256
6
ByLayer
370
13
48
1
60
0
100
AcDbLine
10
21.724436
20
-48.580497
30
0
11
21.724432
21
-47.744503
31
0
39
0
210
0
220
0
230
1
0
ENDBLK
5
19B
100
AcDbEntity
8
0
100
AcDbBlockEnd
0
BLOCK
5
1A8
100
AcDbEntity
8
0
100
AcDbBlockBegin
2
DimnDraft3D4
70
0
10
0
20
0
30
0
3
DimnDraft3D4
0
MTEXT
5
19E
100
AcDbEntity
8
2
62
256
6
ByLayer
370
18
48
1
60
0
100
AcDbMText
10
46.024434
20
-7.894079
30
0
210
0
220
0
230
1
1
\W0.7346;32.0
40
4.5
41
0
44
1.084337
50
90
71
7
72
5
7
iso_b_vert
0
LINE
5
19F
100
AcDbEntity
8
2
62
256
6
ByLayer
370
13
48
1
60
0
100
AcDbLine
10
2
20
12.4375
30
0
11
49.149434
21
12.4375
31
0
39
0
210
0
220
0
230
1
0
LINE
5
1A0
100
AcDbEntity
8
2
62
256
6
ByLayer
370
13
48
1
60
0
100
AcDbLine
10
26.899434
20
-19.9125
30
0
11
49.149434
21
-19.9125
31
0
39
0
210
0
220
0
230
1
0
LINE
5
1A1
100
AcDbEntity
8
2
62
256
6
ByLayer
370
13
48
1
60
0
100
AcDbLine
10
47.149434
20
12.4375
30
0
11
47.149434
21
-19.9125
31
0
39
0
210
0
220
0
230
1
0
LINE
5
1A2
100
AcDbEntity
8
2
62
256
6
ByLayer
370
13
48
1
60
0
100
AcDbLine
10
47.149434
20
12.4375
30
0
11
47.567431
21
9.262502
31
0
39
0
210
0
220
0
230
1
0
LINE
5
1A3
100
AcDbEntity
8
2
62
256
6
ByLayer
370
13
48
1
60
0
100
AcDbLine
10
47.149434
20
12.4375
30
0
11
46.731437
21
9.262498
31
0
39
0
210
0
220
0
230
1
0
LINE
5
1A4
100
AcDbEntity
8
2
62
256
6
ByLayer
370
13
48
1
60
0
100
AcDbLine
10
47.567431
20
9.262502
30
0
11
46.731437
21
9.262498
31
0
39
0
210
0
220
0
230
1
0
LINE
5
1A5
100
AcDbEntity
8
2
62
256
6
ByLayer
370
13
48
1
60
0
100
AcDbLine
10
47.149434
20
-19.9125
30
0
11
46.731437
21
-16.737502
31
0
39
0
210
0
220
0
230
1
0
LINE
5
1A6
100
AcDbEntity
8
2
62
256
6
ByLayer
370
13
48
1
60
0
100
AcDbLine
10
47.149434
20
-19.9125
30
0
11
47.567431
21
-16.737498
31
0
39
0
210
0
220
0
230
1
0
LINE
5
1A7
100
AcDbEntity
8
2
62
256
6
ByLayer
370
13
48
1
60
0
100
AcDbLine
10
46.731437
20
-16.737502
30
0
11
47.567431
21
-16.737498
31
0
39
0
210
0
220
0
230
1
0
ENDBLK
5
1A9
100
AcDbEntity
8
0
100
AcDbBlockEnd
0
BLOCK
5
1B6
100
AcDbEntity
8
0
100
AcDbBlockBegin
2
DimnDraft3D5
70
0
10
0
20
0
30
0
3
DimnDraft3D5
0
MTEXT
5
1AC
100
AcDbEntity
8
SK2
62
256
6
ByLayer
370
18
48
1
60
0
100
AcDbMText
10
-135.325566
20
-4.156579
30
0
210
0
220
0
230
1
1
\W0.7346;25.0
40
4.5
41
0
44
1.084337
50
90
71
7
72
5
7
iso_b_vert
0
LINE
5
1AD
100
AcDbEntity
8
SK2
62
256
6
ByLayer
370
13
48
1
60
0
100
AcDbLine
10
-128.450566
20
12.4375
30
0
11
-136.200566
21
12.4375
31
0
39
0
210
0
220
0
230
1
0
LINE
5
1AE
100
AcDbEntity
8
SK2
62
256
6
ByLayer
370
13
48
1
60
0
100
AcDbLine
10
-128.450566
20
-12.4375
30
0
11
-136.200566
21
-12.4375
31
0
39
0
210
0
220
0
230
1
0
LINE
5
1AF
100
AcDbEntity
8
SK2
62
256
6
ByLayer
370
13
48
1
60
0
100
AcDbLine
10
-134.200566
20
12.4375
30
0
11
-134.200566
21
-12.4375
31
0
39
0
210
0
220
0
230
1
0
LINE
5
1B0
100
AcDbEntity
8
SK2
62
256
6
ByLayer
370
13
48
1
60
0
100
AcDbLine
10
-134.200566
20
12.4375
30
0
11
-133.782569
21
9.262502
31
0
39
0
210
0
220
0
230
1
0
LINE
5
1B1
100
AcDbEntity
8
SK2
62
256
6
ByLayer
370
13
48
1
60
0
100
AcDbLine
10
-134.200566
20
12.4375
30
0
11
-134.618563
21
9.262498
31
0
39
0
210
0
220
0
230
1
0
LINE
5
1B2
100
AcDbEntity
8
SK2
62
256
6
ByLayer
370
13
48
1
60
0
100
AcDbLine
10
-133.782569
20
9.262502
30
0
11
-134.618563
21
9.262498
31
0
39
0
210
0
220
0
230
1
0
LINE
5
1B3
100
AcDbEntity
8
SK2
62
256
6
ByLayer
370
13
48
1
60
0
100
AcDbLine
10
-134.200566
20
-12.4375
30
0
11
-134.618563
21
-9.262502
31
0
39
0
210
0
220
0
230
1
0
LINE
5
1B4
100
AcDbEntity
8
SK2
62
256
6
ByLayer
370
13
48
1
60
0
100
AcDbLine
10
-134.200566
20
-12.4375
30
0
11
-133.782569
21
-9.262498
31
0
39
0
210
0
220
0
230
1
0
LINE
5
1B5
100
AcDbEntity
8
SK2
62
256
6
ByLayer
370
13
48
1
60
0
100
AcDbLine
10
-134.618563
20
-9.262502
30
0
11
-133.782569
21
-9.262498
31
0
39
0
210
0
220
0
230
1
0
ENDBLK
5
1B7
100
AcDbEntity
8
0
100
AcDbBlockEnd
0
ENDSEC
0
SECTION
2
ENTITIES
0
ELLIPSE
5
D6
100
AcDbEntity
8
1
62
256
6
ByLayer
370
18
48
1
60
0
100
AcDbEllipse
10
10.737514
20
-5.500493
30
0
11
-0.21551199938844
21
-0.194047875844074
31
0
210
0
220
0
230
1
40
0.989133
41
2.69101284290193
42
2.78834531482254
0
ELLIPSE
5
D7
100
AcDbEntity
8
1
62
256
6
ByLayer
370
18
48
1
60
0
100
AcDbEllipse
10
9.695571
20
-6.629514
30
0
11
0.23409062002537
21
0.210776141003051
31
0
210
0
220
0
230
1
40
0.989133
41
-9.53575861102393E-07
42
0.334933638525014
0
ELLIPSE
5
D8
100
AcDbEntity
8
1
62
256
6
ByLayer
370
18
48
1
60
0
100
AcDbEllipse
10
11.316624
20
-5.329741
30
0
11
0.23409062002537
21
0.210776141003051
31
0
210
0
220
0
230
1
40
0.989133
41
2.69101284290194
42
3.14158319757519
0
ELLIPSE
5
D9
100
AcDbEntity
8
1
62
256
6
ByLayer
370
18
48
1
60
0
100
AcDbEllipse
10
10.842243
20
-6.40476
30
0
11
0.668830342929627
21
0.602217545723003
31
0
210
0
220
0
230
1
40
0.989133
41
-3.11269729544513
42
-0.028831001484718
0
ELLIPSE
5
DA
100
AcDbEntity
8
1
62
256
6
ByLayer
370
18
48
1
60
0
100
AcDbEllipse
10
10.876675
20
-6.443002
30
0
11
0.668830342929627
21
0.602217545723003
31
0
210
0
220
0
230
1
40
0.989133
41
0.559267714610505
42
1.17333872682104
0
ELLIPSE
5
DB
100
AcDbEntity
8
1
62
256
6
ByLayer
370
18
48
1
60
0
100
AcDbEllipse
10
10.876675
20
-6.443002
30
0
11
0.668830342929627
21
0.602217545723003
31
0
210
0
220
0
230
1
40
0.989133
41
-0.487929836586126
42
0.103319352981283
0
ELLIPSE
5
DC
100
AcDbEntity
8
1
62
256
6
ByLayer
370
18
48
1
60
0
100
AcDbEllipse
10
10.876675
20
-6.443002
30
0
11
0.668830342929627
21
0.602217545723003
31
0
210
0
220
0
230
1
40
0.989133
41
2.95593336389877
42
-2.76930898916641
0
ELLIPSE
5
DD
100
AcDbEntity
8
1
62
256
6
ByLayer
370
18
48
1
60
0
100
AcDbEllipse
10
10.876675
20
-6.443002
30
0
11
0.668830342929627
21
0.602217545723003
31
0
210
0
220
0
230
1
40
0.989133
41
1.83315882397806
42
2.4401605519618
0
ELLIPSE
5
DE
100
AcDbEntity
8
1
62
256
6
ByLayer
370
18
48
1
60
0
100
AcDbEllipse
10
10.127729
20
-7.043512
30
0
11
-0.21551199938844
21
-0.194047875844074
31
0
210
0
220
0
230
1
40
0.989133
41
0.35323814360638
42
1.38213118972171
0
ELLIPSE
5
DF
100
AcDbEntity
8
1
62
256
6
ByLayer
370
18
48
1
60
0
100
AcDbEllipse
10
10.802891
20
-6.361056
30
0
11
2.37806344152756
21
2.14121794034846
31
0
210
0
220
0
230
1
40
0.989133
41
0.843188067548103
42
3.14152688142747
0
ELLIPSE
5
E0
100
AcDbEntity
8
1
62
256
6
ByLayer
370
18
48
1
60
0
100
AcDbEllipse
10
10.802891
20
-6.361056
30
0
11
2.37806344152756
21
2.14121794034846
31
0
210
0
220
0
230
1
40
0.989133
41
-0.716741483125899
42
-2.80605091687659E-16
0
ELLIPSE
5
E1
100
AcDbEntity
8
1
62
256
6
ByLayer
370
18
48
1
60
0
100
AcDbEllipse
10
10.802891
20
-6.361056
30
0
11
2.37806344152756
21
2.14121794034846
31
0
210
0
220
0
230
1
40
0.989133
41
3.24250561387373E-05
42
0.843188067548104
0
ELLIPSE
5
E2
100
AcDbEntity
8
1
62
256
6
ByLayer
370
18
48
1
60
0
100
AcDbEllipse
10
11.625621
20
-5.842491
30
0
11
-0.21551199938844
21
-0.194047875844074
31
0
210
0
220
0
230
1
40
0.989133
41
1.64381529170535
42
2.78835510516431
0
ELLIPSE
5
E3
100
AcDbEntity
8
1
62
256
6
ByLayer
370
18
48
1
60
0
100
AcDbEllipse
10
10.436726
20
-7.556262
30
0
11
0.23409062002537
21
0.210776141003051
31
0
210
0
220
0
230
1
40
0.989133
41
-1.01994184454391E-05
42
0.195776035703062
0
ELLIPSE
5
E4
100
AcDbEntity
8
1
62
256
6
ByLayer
370
18
48
1
60
0
100
AcDbEllipse
10
12.057779
20
-6.256489
30
0
11
0.23409062002537
21
0.210776141003051
31
0
210
0
220
0
230
1
40
0.989133
41
2.83017044572394
42
-3.1415924131383
0
ELLIPSE
5
E5
100
AcDbEntity
8
1
62
256
6
ByLayer
370
18
48
1
60
0
100
AcDbEllipse
10
11.015836
20
-7.38551
30
0
11
-0.21551199938844
21
-0.194047875844074
31
0
210
0
220
0
230
1
40
0.989133
41
0.353276286586901
42
2.42932874091831
0
ELLIPSE
5
E6
100
AcDbEntity
8
1
62
256
6
ByLayer
370
18
48
1
60
0
100
AcDbEllipse
10
11.764782
20
-6.784999
30
0
11
-0.21551199938844
21
-0.194047875844074
31
0
210
0
220
0
230
1
40
0.989133
41
0.596617740508784
42
2.78881233080575
0
ELLIPSE
5
E7
100
AcDbEntity
8
1
62
256
6
ByLayer
370
18
48
1
60
0
100
AcDbEllipse
10
17.563126
20
-6.427395
30
0
11
0.590056991429027
21
0.531289701448961
31
0
210
0
220
0
230
1
40
0.989133
41
1.37350153250673E-06
42
1.61284869072866
0
ELLIPSE
5
E8
100
AcDbEntity
8
1
62
256
6
ByLayer
370
18
48
1
60
0
100
AcDbEllipse
10
17.532136
20
-14.826134
30
0
11
1.41569089253438
21
1.27469380511369
31
0
210
0
220
0
230
1
40
0.989133
41
-3.10189751778513
42
-0.156261719732317
0
ELLIPSE
5
E9
100
AcDbEntity
8
1
62
256
6
ByLayer
370
18
48
1
60
0
100
AcDbEllipse
10
9.987597
20
-17.887615
30
0
11
0.590056991429027
21
0.531289701448961
31
0
210
0
220
0
230
1
40
0.989133
41
1.82713250607249
42
3.14156164904428
0
ELLIPSE
5
EA
100
AcDbEntity
8
1
62
256
6
ByLayer
370
18
48
1
60
0
100
AcDbEllipse
10
12.020743
20
0.442525
30
0
11
-2.24171979658924
21
-1.99366304915848
31
0
210
0
220
0
230
1
40
0.986421
41
-0.0517566673072238
42
-0.0201405995016375
0
ELLIPSE
5
EB
100
AcDbEntity
8
1
62
256
6
ByLayer
370
18
48
1
60
0
100
AcDbEllipse
10
11.225346
20
-6.88959
30
0
11
-2.50325377285799
21
-2.2262570715603
31
0
210
0
220
0
230
1
40
0.986421
41
0.0671821682038534
42
3.08983598628258
0
ELLIPSE
5
EC
100
AcDbEntity
8
1
62
256
6
ByLayer
370
18
48
1
60
0
100
AcDbEllipse
10
17.92614
20
-7.537758
30
0
11
1.76049377056318
21
1.58515571097639
31
0
210
0
220
0
230
1
40
0.989133
41
0.777753293310902
42
1.33165515689148
0
ELLIPSE
5
ED
100
AcDbEntity
8
1
62
256
6
ByLayer
370
18
48
1
60
0
100
AcDbEllipse
10
17.031757
20
-6.334716
30
0
11
1.85656497275473
21
1.67165860997022
31
0
210
0
220
0
230
1
40
0.989133
41
-0.793043033483985
42
-0.418898835881289
0
ELLIPSE
5
EE
100
AcDbEntity
8
1
62
256
6
ByLayer
370
18
48
1
60
0
100
AcDbEllipse
10
17.017
20
-6.318327
30
0
11
1.74509324893313
21
1.57128901901639
31
0
210
0
220
0
230
1
40
0.989133
41
-0.793043033483983
42
-0.351084803212919
0
ELLIPSE
5
EF
100
AcDbEntity
8
1
62
256
6
ByLayer
370
18
48
1
60
0
100
AcDbEllipse
10
16.922956
20
-6.559251
30
0
11
0.88480680783396
21
0.796683628196033
31
0
210
0
220
0
230
1
40
0.989133
41
0.142125932998496
42
0.769593548975474
0
ELLIPSE
5
F0
100
AcDbEntity
8
1
62
256
6
ByLayer
370
18
48
1
60
0
100
AcDbEllipse
10
10.104549
20
-16.874099
30
0
11
-0.884806807834036
21
-0.796683628196064
31
0
210
0
220
0
230
1
40
0.989133
41
-0.399602483994987
42
-3.07753884686093E-05
0
ELLIPSE
5
F1
100
AcDbEntity
8
1
62
256
6
ByLayer
370
18
48
1
60
0
100
AcDbEllipse
10
10.837714
20
-2.916574
30
0
11
2.81499571204061
21
-3.51081174960906
31
0
210
0
220
0
230
1
40
0.008497
41
1.94288547246111
42
2.38176204129022
0
ELLIPSE
5
F2
100
AcDbEntity
8
1
62
256
6
ByLayer
370
18
48
1
60
0
100
AcDbEllipse
10
17.752637
20
-15.078367
30
0
11
-0.757597427209031
21
-1.50579673355473
31
0
210
0
220
0
230
1
40
0.826259
41
1.20144493883639
42
1.48252862387224
0
ELLIPSE
5
F3
100
AcDbEntity
8
1
62
256
6
ByLayer
370
18
48
1
60
0
100
AcDbEllipse
10
5.335142
20
-4.484428
30
0
11
0.704568163081537
21
1.65637667925261
31
0
210
0
220
0
230
1
40
0.78494
41
1.166850015268
42
2.59707982171682
0
ELLIPSE
5
F4
100
AcDbEntity
8
1
62
256
6
ByLayer
370
18
48
1
60
0
100
AcDbEllipse
10
0.697294
20
-2.625718
30
0
11
3.75332761605414
21
-4.68108233281208
31
0
210
0
220
0
230
1
40
0.008497
41
-0.812430626025468
42
-0.810541504948245
0
ELLIPSE
5
F5
100
AcDbEntity
8
1
62
256
6
ByLayer
370
18
48
1
60
0
100
AcDbEllipse
10
10.151861
20
-0.622345
30
0
11
1.76329603787241
21
0.361644967922211
31
0
210
0
220
0
230
1
40
0.789807
41
0.520101998968118
42
1.95033180541691
0
ELLIPSE
5
F6
100
AcDbEntity
8
1
62
256
6
ByLayer
370
18
48
1
60
0
100
AcDbEllipse
10
5.125773
20
-7.603574
30
0
11
-1.80506244379711
21
2.01282414338262
31
0
210
0
220
0
230
1
40
0.337398
41
-0.624812356277411
42
0.116678527452936
0
ELLIPSE
5
F7
100
AcDbEntity
8
1
62
256
6
ByLayer
370
18
48
1
60
0
100
AcDbEllipse
10
7.405045
20
-5.668915
30
0
11
2.81499571204061
21
-3.51081174960906
31
0
210
0
220
0
230
1
40
0.008497
41
1.94288547246096
42
2.38176204128991
0
ELLIPSE
5
F8
100
AcDbEntity
8
1
62
256
6
ByLayer
370
18
48
1
60
0
100
AcDbEllipse
10
6.820557
20
-6.202715
30
0
11
-3.57777169374287
21
1.03546212875923
31
0
210
0
220
0
230
1
40
0.460545
41
0.286624782304228
42
0.578248645792498
0
ELLIPSE
5
F9
100
AcDbEntity
8
1
62
256
6
ByLayer
370
18
48
1
60
0
100
AcDbEllipse
10
13.229013
20
-1.106335
30
0
11
-1.5738281936188
21
2.19830177677572
31
0
210
0
220
0
230
1
40
0.320461
41
-0.117834440468377
42
0.623656443257432
0
ELLIPSE
5
FA
100
AcDbEntity
8
1
62
256
6
ByLayer
370
18
48
1
60
0
100
AcDbEllipse
10
17.752637
20
-15.078367
30
0
11
-1.6198272490906
21
-0.505967627091505
31
0
210
0
220
0
230
1
40
0.828245
41
1.5951529844441
42
1.87623666937665
0
ELLIPSE
5
FB
100
AcDbEntity
8
1
62
256
6
ByLayer
370
18
48
1
60
0
100
AcDbEllipse
10
11.84083
20
-2.11227
30
0
11
-2.70802492883888
21
3.59648721076109
31
0
210
0
220
0
230
1
40
0.189222
41
0.550288776933094
42
0.611936946637567
0
ELLIPSE
5
FC
100
AcDbEntity
8
1
62
256
6
ByLayer
370
18
48
1
60
0
100
AcDbEllipse
10
11.579485
20
-2.38697
30
0
11
-0.355765360811341
21
3.65163204409995
31
0
210
0
220
0
230
1
40
0.450788
41
-0.60525123056092
42
-0.313627366978807
0
ELLIPSE
5
FD
100
AcDbEntity
8
1
62
256
6
ByLayer
370
18
48
1
60
0
100
AcDbEllipse
10
4.99152
20
-4.060043
30
0
11
-1.64231984446233
21
-1.88514045578276
31
0
210
0
220
0
230
1
40
0.996407
41
-1.74971046125418
42
-0.635916065140867
0
ELLIPSE
5
FE
100
AcDbEntity
8
1
62
256
6
ByLayer
370
18
48
1
60
0
100
AcDbEllipse
10
9.750449
20
-0.244298
30
0
11
-1.64231984481571
21
-1.8851404554788
31
0
210
0
220
0
230
1
40
0.996407
41
-2.86350485717876
42
-1.74971046106679
0
ELLIPSE
5
FF
100
AcDbEntity
8
1
62
256
6
ByLayer
370
18
48
1
60
0
100
AcDbEllipse
10
6.401929
20
-6.47322
30
0
11
-2.92261385535172
21
3.42440667950396
31
0
210
0
220
0
230
1
40
0.206199
41
-0.612498156227408
42
-0.550849974435191
0
ELLIPSE
5
100
100
AcDbEntity
8
1
62
256
6
ByLayer
370
18
48
1
60
0
100
AcDbEllipse
10
12.057779
20
-6.256489
30
0
11
0.23409062002537
21
0.210776141003051
31
0
210
0
220
0
230
1
40
0.989133
41
1.64381529170538
42
2.29017113809644
0
ELLIPSE
5
101
100
AcDbEntity
8
1
62
256
6
ByLayer
370
18
48
1
60
0
100
AcDbEllipse
10
11.897594
20
-6.932501
30
0
11
-0.21551199938844
21
-0.194047875844074
31
0
210
0
220
0
230
1
40
0.989133
41
0.596617740508729
42
-2.80665901506465
0
ELLIPSE
5
102
100
AcDbEntity
8
1
62
256
6
ByLayer
370
18
48
1
60
0
100
AcDbEllipse
10
11.750642
20
-7.517251
30
0
11
0.23409062002537
21
0.210776141003051
31
0
210
0
220
0
230
1
40
0.989133
41
1.95612847315303
42
2.42932874091836
0
ELLIPSE
5
103
100
AcDbEntity
8
1
62
256
6
ByLayer
370
18
48
1
60
0
100
AcDbEllipse
10
11.009486
20
-6.590503
30
0
11
-1.41197516840702
21
-1.27134815208186
31
0
210
0
220
0
230
1
40
0.989133
41
0
42
6.28318530717959
0
ELLIPSE
5
104
100
AcDbEntity
8
1
62
256
6
ByLayer
370
18
48
1
60
0
100
AcDbEllipse
10
10.569537
20
-7.703763
30
0
11
0.23409062002537
21
0.210776141003051
31
0
210
0
220
0
230
1
40
0.989133
41
0.908930921956445
42
1.38213118972169
0
ELLIPSE
5
105
100
AcDbEntity
8
1
62
256
6
ByLayer
370
18
48
1
60
0
100
AcDbEllipse
10
11.449435
20
-5.477243
30
0
11
0.23409062002537
21
0.210776141003051
31
0
210
0
220
0
230
1
40
0.989133
41
-2.23266173163335
42
-1.75946146386802
0
ELLIPSE
5
106
100
AcDbEntity
8
1
62
256
6
ByLayer
370
18
48
1
60
0
100
AcDbEllipse
10
12.19059
20
-6.403991
30
0
11
0.23409062002537
21
0.210776141003051
31
0
210
0
220
0
230
1
40
0.989133
41
1.64381529170543
42
2.11701555947064
0
ELLIPSE
5
107
100
AcDbEntity
8
1
62
256
6
ByLayer
370
18
48
1
60
0
100
AcDbEllipse
10
11.750642
20
-7.517251
30
0
11
0.23409062002537
21
0.210776141003051
31
0
210
0
220
0
230
1
40
0.989133
41
0.596617740508845
42
1.06981800827409
0
ELLIPSE
5
108
100
AcDbEntity
8
1
62
256
6
ByLayer
370
18
48
1
60
0
100
AcDbEllipse
10
11.449435
20
-5.477243
30
0
11
0.23409062002537
21
0.210776141003051
31
0
210
0
220
0
230
1
40
0.989133
41
2.69101284290196
42
-3.1189721965124
0
ELLIPSE
5
109
100
AcDbEntity
8
1
62
256
6
ByLayer
370
18
48
1
60
0
100
AcDbEllipse
10
11.005226
20
-6.585772
30
0
11
0.668830342929627
21
0.602217545723003
31
0
210
0
220
0
230
1
40
0.989133
41
-0.674913886782943
42
-0.487929836585967
0
ELLIPSE
5
10A
100
AcDbEntity
8
1
62
256
6
ByLayer
370
18
48
1
60
0
100
AcDbEllipse
10
10.121379
20
-6.248506
30
0
11
-0.21551199938844
21
-0.194047875844074
31
0
210
0
220
0
230
1
40
0.989133
41
-2.54497491308102
42
0.334933638525141
0
ELLIPSE
5
10B
100
AcDbEntity
8
1
62
256
6
ByLayer
370
18
48
1
60
0
100
AcDbEllipse
10
11.005226
20
-6.585772
30
0
11
0.668830342929627
21
0.602217545723003
31
0
210
0
220
0
230
1
40
0.989133
41
-1.72211143796979
42
-1.53512738778274
0
ELLIPSE
5
10C
100
AcDbEntity
8
1
62
256
6
ByLayer
370
18
48
1
60
0
100
AcDbEllipse
10
11.148647
20
-7.533011
30
0
11
-0.21551199938844
21
-0.194047875844074
31
0
210
0
220
0
230
1
40
0.989133
41
-0.450579810687732
42
2.42932874091827
0
ELLIPSE
5
10D
100
AcDbEntity
8
1
62
256
6
ByLayer
370
18
48
1
60
0
100
AcDbEllipse
10
10.436726
20
-7.556262
30
0
11
0.23409062002537
21
0.210776141003051
31
0
210
0
220
0
230
1
40
0.989133
41
0.735775343330536
42
1.38213118972159
0
ELLIPSE
5
10E
100
AcDbEntity
8
1
62
256
6
ByLayer
370
18
48
1
60
0
100
AcDbEllipse
10
11.009486
20
-6.590503
30
0
11
0.687408963566561
21
0.618945810881976
31
0
210
0
220
0
230
1
40
0.989133
41
1.36642820992536
42
1.6595182715017
0
ELLIPSE
5
10F
100
AcDbEntity
8
1
62
256
6
ByLayer
370
18
48
1
60
0
100
AcDbEllipse
10
11.005226
20
-6.585772
30
0
11
0.668830342929627
21
0.602217545723003
31
0
210
0
220
0
230
1
40
0.989133
41
-2.76930898917424
42
-2.58232493897421
0
ELLIPSE
5
110
100
AcDbEntity
8
1
62
256
6
ByLayer
370
18
48
1
60
0
100
AcDbEllipse
10
11.617831
20
-7.369749
30
0
11
0.23409062002537
21
0.210776141003051
31
0
210
0
220
0
230
1
40
0.989133
41
0.596617740508745
42
1.2429735868998
0
ELLIPSE
5
111
100
AcDbEntity
8
1
62
256
6
ByLayer
370
18
48
1
60
0
100
AcDbEllipse
10
10.9663
20
-6.54254
30
0
11
-2.37806344152761
21
-2.1412179403484
31
0
210
0
220
0
230
1
40
0.989133
41
0
42
6.28318530717959
0
ELLIPSE
5
112
100
AcDbEntity
8
1
62
256
6
ByLayer
370
18
48
1
60
0
100
AcDbEllipse
10
12.19059
20
-6.403991
30
0
11
0.23409062002537
21
0.210776141003051
31
0
210
0
220
0
230
1
40
0.989133
41
3.00332602434966
42
-2.80665901506462
0
ELLIPSE
5
113
100
AcDbEntity
8
1
62
256
6
ByLayer
370
18
48
1
60
0
100
AcDbEllipse
10
11.617831
20
-7.369749
30
0
11
0.23409062002537
21
0.210776141003051
31
0
210
0
220
0
230
1
40
0.989133
41
1.78297289452729
42
2.42932874091839
0
ELLIPSE
5
114
100
AcDbEntity
8
1
62
256
6
ByLayer
370
18
48
1
60
0
100
AcDbEllipse
10
10.569537
20
-7.703763
30
0
11
0.23409062002537
21
0.210776141003051
31
0
210
0
220
0
230
1
40
0.989133
41
-0.450579810687973
42
0.0226204570773016
0
ELLIPSE
5
115
100
AcDbEntity
8
1
62
256
6
ByLayer
370
18
48
1
60
0
100
AcDbEllipse
10
11.005226
20
-6.585772
30
0
11
0.668830342929627
21
0.602217545723003
31
0
210
0
220
0
230
1
40
0.989133
41
0.372283664423393
42
0.559267714610498
0
ELLIPSE
5
116
100
AcDbEntity
8
1
62
256
6
ByLayer
370
18
48
1
60
0
100
AcDbEllipse
10
11.005226
20
-6.585772
30
0
11
0.668830342929627
21
0.602217545723003
31
0
210
0
220
0
230
1
40
0.989133
41
2.46667876680684
42
2.65366281700385
0
ELLIPSE
5
117
100
AcDbEntity
8
1
62
256
6
ByLayer
370
18
48
1
60
0
100
AcDbEllipse
10
10.268331
20
-5.663756
30
0
11
0.23409062002537
21
0.210776141003051
31
0
210
0
220
0
230
1
40
0.989133
41
-1.1854641804368
42
-0.712263912671492
0
ELLIPSE
5
118
100
AcDbEntity
8
1
62
256
6
ByLayer
370
18
48
1
60
0
100
AcDbEllipse
10
11.009486
20
-6.590503
30
0
11
0.687408963566561
21
0.618945810881976
31
0
210
0
220
0
230
1
40
0.989133
41
0.319230658728755
42
0.612320720305107
0
ELLIPSE
5
119
100
AcDbEntity
8
1
62
256
6
ByLayer
370
18
48
1
60
0
100
AcDbEllipse
10
9.828382
20
-6.777016
30
0
11
0.23409062002537
21
0.210776141003051
31
0
210
0
220
0
230
1
40
0.989133
41
-0.138266629240119
42
0.334933638525071
0
ELLIPSE
5
11A
100
AcDbEntity
8
1
62
256
6
ByLayer
370
18
48
1
60
0
100
AcDbEllipse
10
10.870325
20
-5.647995
30
0
11
-0.21551199938844
21
-0.194047875844074
31
0
210
0
220
0
230
1
40
0.989133
41
2.69101284290193
42
-0.712263912671524
0
ELLIPSE
5
11B
100
AcDbEntity
8
1
62
256
6
ByLayer
370
18
48
1
60
0
100
AcDbEllipse
10
11.009486
20
-6.590503
30
0
11
0.687408963566561
21
0.618945810881976
31
0
210
0
220
0
230
1
40
0.989133
41
-1.77516444366443
42
-1.48207438208809
0
ELLIPSE
5
11C
100
AcDbEntity
8
1
62
256
6
ByLayer
370
18
48
1
60
0
100
AcDbEllipse
10
10.876675
20
-6.443002
30
0
11
0.668830342929627
21
0.602217545723003
31
0
210
0
220
0
230
1
40
0.989133
41
-1.53512738778273
42
-0.674913886773223
0
ELLIPSE
5
11D
100
AcDbEntity
8
1
62
256
6
ByLayer
370
18
48
1
60
0
100
AcDbEllipse
10
10.268331
20
-5.663756
30
0
11
0.23409062002537
21
0.210776141003051
31
0
210
0
220
0
230
1
40
0.989133
41
-2.54497491308112
42
-2.07177464531584
0
ELLIPSE
5
11E
100
AcDbEntity
8
1
62
256
6
ByLayer
370
18
48
1
60
0
100
AcDbEllipse
10
11.009486
20
-6.590503
30
0
11
0.687408963566561
21
0.618945810881976
31
0
210
0
220
0
230
1
40
0.989133
41
2.41362576112194
42
2.7067158226983
0
ELLIPSE
5
11F
100
AcDbEntity
8
1
62
256
6
ByLayer
370
18
48
1
60
0
100
AcDbEllipse
10
11.009486
20
-6.590503
30
0
11
0.687408963566561
21
0.618945810881976
31
0
210
0
220
0
230
1
40
0.989133
41
-0.727966892467839
42
-0.434876830891476
0
ELLIPSE
5
120
100
AcDbEntity
8
1
62
256
6
ByLayer
370
18
48
1
60
0
100
AcDbEllipse
10
11.009486
20
-6.590503
30
0
11
0.687408963566561
21
0.618945810881976
31
0
210
0
220
0
230
1
40
0.989133
41
-2.82236199486105
42
-2.5292719332847
0
ELLIPSE
5
121
100
AcDbEntity
8
1
62
256
6
ByLayer
370
18
48
1
60
0
100
AcDbEllipse
10
11.758432
20
-5.989992
30
0
11
-0.21551199938844
21
-0.194047875844074
31
0
210
0
220
0
230
1
40
0.989133
41
1.64381529170539
42
-1.75946146386814
0
ELLIPSE
5
122
100
AcDbEntity
8
1
62
256
6
ByLayer
370
18
48
1
60
0
100
AcDbEllipse
10
9.828382
20
-6.777016
30
0
11
0.23409062002537
21
0.210776141003051
31
0
210
0
220
0
230
1
40
0.989133
41
-1.49777736188445
42
-1.02457709411926
0
ELLIPSE
5
123
100
AcDbEntity
8
1
62
256
6
ByLayer
370
18
48
1
60
0
100
AcDbEllipse
10
10.26054
20
-7.191014
30
0
11
-0.21551199938844
21
-0.194047875844074
31
0
210
0
220
0
230
1
40
0.989133
41
-1.49777736188435
42
1.38213118972166
0
ELLIPSE
5
124
100
AcDbEntity
8
1
62
256
6
ByLayer
370
18
48
1
60
0
100
AcDbEllipse
10
11.005226
20
-6.585772
30
0
11
0.668830342929627
21
0.602217545723003
31
0
210
0
220
0
230
1
40
0.989133
41
1.41948121561996
42
1.60646526580705
0
ELLIPSE
5
125
100
AcDbEntity
8
1
62
256
6
ByLayer
370
18
48
1
60
0
100
AcDbEllipse
10
10.876675
20
-6.443002
30
0
11
0.668830342929627
21
0.602217545723003
31
0
210
0
220
0
230
1
40
0.989133
41
-2.58232493897932
42
-1.72211143796981
0
ELLIPSE
5
126
100
AcDbEntity
8
1
62
256
6
ByLayer
370
18
48
1
60
0
100
AcDbEllipse
10
13.104973
20
-14.970904
30
0
11
-1.56973692355426
21
-1.98552100702498
31
0
210
0
220
0
230
1
40
0.482826
41
-1.39634722275763
42
-1.05401673776544
0
ELLIPSE
5
127
100
AcDbEntity
8
1
62
256
6
ByLayer
370
18
48
1
60
0
100
AcDbEllipse
10
1.703664
20
-4.540608
30
0
11
-0.552805684031421
21
-1.17214527343865
31
0
210
0
220
0
230
1
40
0.483183
41
-0.93801280470441
42
0.632783522091043
0
ELLIPSE
5
128
100
AcDbEntity
8
1
62
256
6
ByLayer
370
18
48
1
60
0
100
AcDbEllipse
10
18.124744
20
-7.5486
30
0
11
1.76049377056318
21
1.58515571097639
31
0
210
0
220
0
230
1
40
0.989133
41
-0.793043033483992
42
0.777753293310915
0
ELLIPSE
5
129
100
AcDbEntity
8
1
62
256
6
ByLayer
370
18
48
1
60
0
100
AcDbEllipse
10
10.455879
20
-18.407695
30
0
11
-0.590056991429039
21
-0.531289701448947
31
0
210
0
220
0
230
1
40
0.989133
41
-1.3144601475173
42
0.779934954875878
0
ELLIPSE
5
12A
100
AcDbEntity
8
1
62
256
6
ByLayer
370
18
48
1
60
0
100
AcDbEllipse
10
18.031409
20
-6.947475
30
0
11
-0.590056991429039
21
-0.531289701448947
31
0
210
0
220
0
230
1
40
0.989133
41
2.8743300572691
42
-1.31446014751726
0
ELLIPSE
5
12B
100
AcDbEntity
8
1
62
256
6
ByLayer
370
18
48
1
60
0
100
AcDbEllipse
10
24.10912
20
-19.123231
30
0
11
-0.590056991429039
21
-0.531289701448947
31
0
210
0
220
0
230
1
40
0.989133
41
0.779934954875914
42
2.87433005726907
0
POINT
5
6C
100
AcDbEntity
8
2
62
256
6
ByLayer
370
18
48
1
60
0
100
AcDbPoint
10
24.899434
20
44.7875
30
0
39
0
210
0
220
0
230
1
50
360
0
POINT
5
6E
100
AcDbEntity
8
80
62
256
6
ByLayer
370
18
48
1
60
0
100
AcDbPoint
10
0
20
0
30
0
39
0
210
0
220
0
230
1
50
360
0
POINT
5
70
100
AcDbEntity
8
81
62
256
6
ByLayer
370
18
48
1
60
0
100
AcDbPoint
10
24.899434
20
-19.9125
30
0
39
0
210
0
220
0
230
1
50
360
0
SPLINE
5
12C
100
AcDbEntity
8
1
62
256
6
ByLayer
370
18
48
1
60
0
100
AcDbSpline
70
4
71
3
72
10
73
6
40
0
40
0
40
0
40
0
40
0.690921703394061
40
0.690921703394061
40
1
40
1
40
1
40
1
41
1
10
11.8424440230238
20
1.15558911836609
30
0
41
1
10
11.6621733194421
20
1.36736241105302
30
0
41
1
10
11.4460756264194
20
1.58382720366694
30
0
41
1
10
11.0722281888982
20
1.86234233942477
30
0
41
1
10
10.9472410497242
20
1.94416744097276
30
0
41
1
10
10.8140301429211
20
2.01764458621619
30
0
0
SPLINE
5
12D
100
AcDbEntity
8
1
62
256
6
ByLayer
370
18
48
1
60
0
100
AcDbSpline
70
4
71
3
72
14
73
10
40
0
40
0
40
0
40
0
40
0.262932482489338
40
0.262932482489338
40
0.526305718382456
40
0.526305718382456
40
0.786105451116566
40
0.786105451116566
40
1
40
1
40
1
40
1
41
1
10
19.0775916933355
20
-14.1956847120044
30
0
41
1
10
19.1181695778936
20
-14.3139633813891
30
0
41
1
10
19.1461831915046
20
-14.4496475218942
30
0
41
1
10
19.1700202521791
20
-14.7362183346874
30
0
41
1
10
19.1660573726311
20
-14.8907986229562
30
0
41
1
10
19.1289120717021
20
-15.1941276561312
30
0
41
1
10
19.0958692436391
20
-15.3464915889553
30
0
41
1
10
19.0166675469033
20
-15.6099835752822
30
0
41
1
10
18.9734517825835
20
-15.7255031983596
30
0
41
1
10
18.925187141928
20
-15.8346421640283
30
0
0
SPLINE
5
12E
100
AcDbEntity
8
1
62
256
6
ByLayer
370
18
48
1
60
0
100
AcDbSpline
70
4
71
3
72
8
73
4
40
0
40
0
40
0
40
0
40
1
40
1
40
1
40
1
41
1
10
14.4557115312006
20
-5.67394058283341
30
0
41
1
10
14.3463778499989
20
-5.45578887114405
30
0
41
1
10
14.2130112487185
20
-5.24448477337958
30
0
41
1
10
14.0595386101049
20
-5.05258120392219
30
0
0
SPLINE
5
12F
100
AcDbEntity
8
1
62
256
6
ByLayer
370
18
48
1
60
0
100
AcDbSpline
70
4
71
3
72
16
73
12
40
0
40
0
40
0
40
0
40
0.346164403850464
40
0.346164403850464
40
0.57405813868187
40
0.57405813868187
40
0.756733946461153
40
0.756733946461153
40
0.941193093213319
40
0.941193093213319
40
1
40
1
40
1
40
1
41
1
10
11.7489174556673
20
1.13601566300198
30
0
41
1
10
11.5223915801292
20
1.26769609801434
30
0
41
1
10
11.3087239621307
20
1.31254456338434
30
0
41
1
10
10.8933323933177
20
1.32278171138736
30
0
41
1
10
10.7060098389114
20
1.30774590370268
30
0
41
1
10
10.3251773475936
20
1.23140524579142
30
0
41
1
10
10.1371829132318
20
1.17810348348863
30
0
41
1
10
9.75230742205633
20
1.02645049683952
30
0
41
1
10
9.54955047536561
20
0.924498191353138
30
0
41
1
10
9.29728991611222
20
0.767301789736649
30
0
41
1
10
9.23619288989971
20
0.726823867392483
30
0
41
1
10
9.17670702919179
20
0.685320342316089
30
0
0
SPLINE
5
130
100
AcDbEntity
8
1
62
256
6
ByLayer
370
18
48
1
60
0
100
AcDbSpline
70
4
71
3
72
8
73
4
40
0
40
0
40
0
40
0
40
1
40
1
40
1
40
1
41
1
10
6.49361856830251
20
-4.47459698972796
30
0
41
1
10
6.46533523056149
20
-4.43953063009482
30
0
41
1
10
6.43725169891445
20
-4.40472713355499
30
0
41
1
10
6.40940696712835
20
-4.37023466861964
30
0
0
SPLINE
5
131
100
AcDbEntity
8
1
62
256
6
ByLayer
370
18
48
1
60
0
100
AcDbSpline
70
4
71
3
72
24
73
20
40
0
40
0
40
0
40
0
40
0.142613444608223
40
0.142613444608223
40
0.190795218269489
40
0.190795218269489
40
0.226951176162321
40
0.226951176162321
40
0.263437466712853
40
0.263437466712853
40
0.296119365572356
40
0.296119365572356
40
0.352324850832287
40
0.352324850832287
40
0.455294648588109
40
0.455294648588109
40
0.66270515804363
40
0.66270515804363
40
1
40
1
40
1
40
1
41
1
10
13.7555924492378
20
-12.8436267501334
30
0
41
1
10
13.6990669509067
20
-12.7824473720337
30
0
41
1
10
13.6460291880783
20
-12.7182978476975
30
0
41
1
10
13.6151023229027
20
-12.627699237846
30
0
41
1
10
13.6111062843272
20
-12.6039316408749
30
0
41
1
10
13.6168531655492
20
-12.5632732534662
30
0
41
1
10
13.623661928323
20
-12.5458263196373
30
0
41
1
10
13.6477608054374
20
-12.5139031228008
30
0
41
1
10
13.6655655035533
20
-12.4990886989859
30
0
41
1
10
13.7064995873534
20
-12.475867300714
30
0
41
1
10
13.7292258602478
20
-12.466641032172
30
0
41
1
10
13.7945087548686
20
-12.4465500918832
30
0
41
1
10
13.8405853838792
20
-12.438680282147
30
0
41
1
10
13.9714395180972
20
-12.4254074500069
30
0
41
1
10
14.0596696598149
20
-12.4266650818806
30
0
41
1
10
14.3177116976993
20
-12.4447589946214
30
0
41
1
10
14.4872063928068
20
-12.4764193143956
30
0
41
1
10
14.9064723354666
20
-12.582339094374
30
0
41
1
10
15.1483806159228
20
-12.6737709947318
30
0
41
1
10
15.3691486495686
20
-12.7767661395485
30
0
0
SPLINE
5
132
100
AcDbEntity
8
1
62
256
6
ByLayer
370
18
48
1
60
0
100
AcDbSpline
70
4
71
3
72
25
73
21
40
0
40
0
40
0
40
0
40
0.442411593548776
40
0.442411593548776
40
0.442411593548776
40
0.583396916265379
40
0.583396916265379
40
0.651602530488662
40
0.651602530488662
40
0.706341521306458
40
0.706341521306458
40
0.742475286987745
40
0.742475286987745
40
0.778972968742945
40
0.778972968742945
40
0.811539464980194
40
0.811539464980194
40
0.868309796146682
40
0.868309796146682
40
1
40
1
40
1
40
1
41
1
10
16.0664880301275
20
-12.2176340908625
30
0
41
1
10
16.0004974703043
20
-11.9061745982405
30
0
41
1
10
15.9592435265773
20
-11.5604384566767
30
0
41
1
10
15.9772297323123
20
-11.2027137013194
30
0
41
1
10
15.9830685602615
20
-11.0865861905786
30
0
41
1
10
15.9953504473992
20
-10.9675507967873
30
0
41
1
10
16.0299249733274
20
-10.7948381050322
30
0
41
1
10
16.0440031557441
20
-10.7384166063832
30
0
41
1
10
16.0765400420778
20
-10.6420644037123
30
0
41
1
10
16.0939099949944
20
-10.600254953535
30
0
41
1
10
16.1283999567275
20
-10.5403766914932
30
0
41
1
10
16.1439495622919
20
-10.5187104721236
30
0
41
1
10
16.1773226932969
20
-10.4848444695903
30
0
41
1
10
16.1956280528681
20
-10.4724470420825
30
0
41
1
10
16.2298077356679
20
-10.459947903289
30
0
41
1
10
16.2460985339226
20
-10.4584068949042
30
0
41
1
10
16.2885601528402
20
-10.4633892732723
30
0
41
1
10
16.3139516233376
20
-10.4763143582647
30
0
41
1
10
16.3913036576362
20
-10.5330676871632
30
0
41
1
10
16.4373612696457
20
-10.5944746855596
30
0
41
1
10
16.4803527311626
20
-10.6588931165304
30
0
0
SPLINE
5
133
100
AcDbEntity
8
1
62
256
6
ByLayer
370
18
48
1
60
0
100
AcDbSpline
70
4
71
3
72
8
73
4
40
0
40
0
40
0
40
0
40
1
40
1
40
1
40
1
41
1
10
18.3556092261771
20
-9.21947322660762
30
0
41
1
10
17.7930574537913
20
-7.29128995382302
30
0
41
1
10
16.9353857573372
20
-5.45696377458748
30
0
41
1
10
15.8033420885286
20
-3.79513175083176
30
0
0
SPLINE
5
134
100
AcDbEntity
8
1
62
256
6
ByLayer
370
18
48
1
60
0
100
AcDbSpline
70
4
71
2
72
6
73
3
40
0
40
0
40
0
40
1
40
1
40
1
41
1
10
14.288695382131
20
-15.9666012853362
30
0
41
1
10
13.936133390139
20
-15.8446211595722
30
0
41
1
10
13.588953554994
20
-15.7062126304517
30
0
0
SPLINE
5
135
100
AcDbEntity
8
1
62
256
6
ByLayer
370
18
48
1
60
0
100
AcDbSpline
70
4
71
2
72
8
73
5
40
0
40
0
40
0
40
0.58160376007072
40
0.87240564010608
40
1
40
1
40
1
41
1.02990374504916
10
15.4450167678624
20
-4.49922237244464
30
0
41
1.02669755169729
10
15.9393300253793
20
-6.20121381997888
30
0
41
1.02039724512338
10
16.3456028447041
20
-8.9232101272101
30
0
41
1.01761724169607
10
16.4170234341804
20
-10.2874984501591
30
0
41
1.01686274329306
10
16.4803527311626
20
-10.6588931165303
30
0
0
SPLINE
5
136
100
AcDbEntity
8
1
62
256
6
ByLayer
370
18
48
1
60
0
100
AcDbSpline
70
4
71
3
72
8
73
4
40
0
40
0
40
0
40
0
40
1
40
1
40
1
40
1
41
1
10
14.2951924780906
20
-15.9658964288171
30
0
41
1
10
13.6613807658416
20
-14.969302330605
30
0
41
1
10
14.2017904392081
20
-13.8762350566131
30
0
41
1
10
13.7555924492378
20
-12.8436267501334
30
0
0
SPLINE
5
137
100
AcDbEntity
8
1
62
256
6
ByLayer
370
18
48
1
60
0
100
AcDbSpline
70
4
71
3
72
15
73
11
40
0
40
0
40
0
40
0
40
0.225043240787981
40
0.225043240787981
40
0.520482827227109
40
0.520482827227109
40
0.820975208236872
40
0.820975208236872
40
0.820975208236872
40
1
40
1
40
1
40
1
41
1
10
14.1832663825834
20
-9.27032729597173
30
0
41
1
10
14.3580898994521
20
-9.04695676225202
30
0
41
1
10
14.4999794413129
20
-8.79221080906117
30
0
41
1
10
14.7368153782073
20
-8.18142033920594
30
0
41
1
10
14.8091554830387
20
-7.80849111620893
30
0
41
1
10
14.8391985287124
20
-7.06159214906111
30
0
41
1
10
14.7954824761227
20
-6.6762557144078
30
0
41
1
10
14.6959326473825
20
-6.31103481123176
30
0
41
1
10
14.6361373931534
20
-6.09166249254949
30
0
41
1
10
14.5554683754678
20
-5.87676702553009
30
0
41
1
10
14.4557115312006
20
-5.67394058283341
30
0
0
SPLINE
5
138
100
AcDbEntity
8
1
62
256
6
ByLayer
370
18
48
1
60
0
100
AcDbSpline
70
4
71
2
72
8
73
5
40
0
40
0
40
0
40
0.145991510278043
40
0.563470207586083
40
1
40
1
40
1
41
1.02393576174182
10
14.1832663823107
20
-9.27032729555889
30
0
41
1.02323174907608
10
14.3292998382537
20
-9.49138284968672
30
0
41
1.02039724512338
10
14.8843751936809
20
-10.3430509040987
30
0
41
1.01644464721285
10
15.6360948927042
20
-11.6214390327748
30
0
41
1.01495409538129
10
16.0664880301691
20
-12.2176340909201
30
0
0
SPLINE
5
139
100
AcDbEntity
8
1
62
256
6
ByLayer
370
18
48
1
60
0
100
AcDbSpline
70
4
71
3
72
8
73
4
40
0
40
0
40
0
40
0
40
1
40
1
40
1
40
1
41
1
10
7.1574909511512
20
-6.17284007255495
30
0
41
1
10
7.16471411503369
20
-6.80229055808019
30
0
41
1
10
7.3908867537358
20
-7.44101618902209
30
0
41
1
10
7.81110977315245
20
-7.96646683692072
30
0
0
SPLINE
5
13A
100
AcDbEntity
8
1
62
256
6
ByLayer
370
18
48
1
60
0
100
AcDbSpline
70
4
71
3
72
8
73
4
40
0
40
0
40
0
40
0
40
1
40
1
40
1
40
1
41
1
10
19.2507627537593
20
-11.1657528475114
30
0
41
1
10
19.218703284446
20
-11.1151500534893
30
0
41
1
10
19.1860248531539
20
-11.0649774629189
30
0
41
1
10
19.1527137737493
20
-11.0152672889725
30
0
0
SPLINE
5
13B
100
AcDbEntity
8
1
62
256
6
ByLayer
370
18
48
1
60
0
100
AcDbSpline
70
4
71
3
72
8
73
4
40
0
40
0
40
0
40
0
40
1
40
1
40
1
40
1
41
1
10
7.96395703227
20
-10.4975932846866
30
0
41
1
10
8.2565507116289
20
-10.4165386523486
30
0
41
1
10
8.75163891766016
20
-10.1556203606833
30
0
41
1
10
9.35221822292874
20
-9.76596054967246
30
0
0
SPLINE
5
13C
100
AcDbEntity
8
1
62
256
6
ByLayer
370
18
48
1
60
0
100
AcDbSpline
70
4
71
3
72
12
73
8
40
0
40
0
40
0
40
0
40
0.307573270173417
40
0.307573270173417
40
0.648852820657669
40
0.648852820657669
40
1
40
1
40
1
40
1
41
1
10
12.9231782054423
20
-10.280675633741
30
0
41
1
10
13.0735290214309
20
-10.2090091445272
30
0
41
1
10
13.2194086712878
20
-10.1261940168344
30
0
41
1
10
13.5125994328784
20
-9.93103033245163
30
0
41
1
10
13.6593244538278
20
-9.81577021776749
30
0
41
1
10
13.9358348469398
20
-9.56107192984513
30
0
41
1
10
14.0660027565009
20
-9.42011482166896
30
0
41
1
10
14.1832663825834
20
-9.27032729597173
30
0
0
SPLINE
5
13D
100
AcDbEntity
8
1
62
256
6
ByLayer
370
18
48
1
60
0
100
AcDbSpline
70
4
71
3
72
8
73
4
40
0
40
0
40
0
40
0
40
1
40
1
40
1
40
1
41
1
10
13.4668548344853
20
-15.5742324727589
30
0
41
1
10
13.5075084771306
20
-15.6180553233462
30
0
41
1
10
13.548751362803
20
-15.6613608688848
30
0
41
1
10
13.5905492480775
20
-15.704155326513
30
0
0
SPLINE
5
13E
100
AcDbEntity
8
1
62
256
6
ByLayer
370
18
48
1
60
0
100
AcDbSpline
70
4
71
3
72
8
73
4
40
0
40
0
40
0
40
0
40
1
40
1
40
1
40
1
41
1
10
9.35221820825996
20
-9.76596053772064
30
0
41
1
10
9.15974603021118
20
-9.6091387267243
30
0
41
1
10
8.98592523018311
20
-9.43546666447665
30
0
41
1
10
8.83251869379427
20
-9.24364574983636
30
0
0
SPLINE
5
13F
100
AcDbEntity
8
1
62
256
6
ByLayer
370
18
48
1
60
0
100
AcDbSpline
70
4
71
2
72
6
73
3
40
0
40
0
40
0
40
1
40
1
40
1
41
1
10
19.253116519949
20
-11.1646434448047
30
0
41
1
10
19.3121121005716
20
-11.5341203141986
30
0
41
1
10
19.3539207776409
20
-11.9052648254413
30
0
0
SPLINE
5
140
100
AcDbEntity
8
1
62
256
6
ByLayer
370
18
48
1
60
0
100
AcDbSpline
70
4
71
3
72
8
73
4
40
0
40
0
40
0
40
0
40
1
40
1
40
1
40
1
41
1
10
7.16976239057612
20
-10.717601983536
30
0
41
1
10
8.54668468372608
20
-12.1921362665779
30
0
41
1
10
10.1314574024727
20
-13.4201020787396
30
0
41
1
10
11.8981776046211
20
-14.3970912881569
30
0
0
SPLINE
5
141
100
AcDbEntity
8
1
62
256
6
ByLayer
370
18
48
1
60
0
100
AcDbSpline
70
4
71
3
72
12
73
8
40
0
40
0
40
0
40
0
40
0.36965908387578
40
0.36965908387578
40
0.727704501586106
40
0.727704501586106
40
1
40
1
40
1
40
1
41
1
10
4.05898535376724
20
-5.61478153071965
30
0
41
1
10
4.28673380401483
20
-5.66262962003051
30
0
41
1
10
4.59326275370154
20
-5.68923892035829
30
0
41
1
10
5.28706282712545
20
-5.70523680262775
30
0
41
1
10
5.67970184085618
20
-5.69610897919318
30
0
41
1
10
6.4103760720829
20
-5.65716957889535
30
0
41
1
10
6.74377264555233
20
-5.63257774891892
30
0
41
1
10
7.08277709621945
20
-5.60212119065096
30
0
0
SPLINE
5
142
100
AcDbEntity
8
1
62
256
6
ByLayer
370
18
48
1
60
0
100
AcDbSpline
70
4
71
3
72
10
73
6
40
0
40
0
40
0
40
0
40
0.106616270583438
40
0.106616270583438
40
1
40
1
40
1
40
1
41
1
10
16.3511042835065
20
-13.2965779043885
30
0
41
1
10
16.3393647565566
20
-13.2599176713199
30
0
41
1
10
16.3277942567624
20
-13.2230635510915
30
0
41
1
10
16.2209923129578
20
-12.876010869674
30
0
41
1
10
16.1374590888028
20
-12.5521244104344
30
0
41
1
10
16.0664880301275
20
-12.2176340908625
30
0
0
SPLINE
5
143
100
AcDbEntity
8
1
62
256
6
ByLayer
370
18
48
1
60
0
100
AcDbSpline
70
4
71
3
72
16
73
12
40
0
40
0
40
0
40
0
40
0.151798394921706
40
0.151798394921706
40
0.302355402833638
40
0.302355402833638
40
0.469907609657962
40
0.469907609657962
40
0.750934341340611
40
0.750934341340611
40
1
40
1
40
1
40
1
41
1
10
4.28121437118045
20
-3.23992311232448
30
0
41
1
10
4.14551141423271
20
-3.36448702958771
30
0
41
1
10
4.0134266920461
20
-3.50240543670029
30
0
41
1
10
3.78383946054816
20
-3.78214217434075
30
0
41
1
10
3.68255794765594
20
-3.92750423166106
30
0
41
1
10
3.50490876977096
20
-4.22468716634705
30
0
41
1
10
3.43032653420625
20
-4.37846341967341
30
0
41
1
10
3.27804669264515
20
-4.75648286475649
30
0
41
1
10
3.22620269696165
20
-4.96281567211059
30
0
41
1
10
3.19084337239951
20
-5.32587000442035
30
0
41
1
10
3.19993494350126
20
-5.49280275276746
30
0
41
1
10
3.25392464669505
20
-5.67533454218574
30
0
0
SPLINE
5
144
100
AcDbEntity
8
1
62
256
6
ByLayer
370
18
48
1
60
0
100
AcDbSpline
70
4
71
3
72
12
73
8
40
0
40
0
40
0
40
0
40
0.501637567130163
40
0.501637567130163
40
0.886957471304449
40
0.886957471304449
40
1
40
1
40
1
40
1
41
1
10
9.92628836408858
20
-1.72225609390375
30
0
41
1
10
10.055186289978
20
-1.88206683005518
30
0
41
1
10
10.2035373918069
20
-2.03986933510828
30
0
41
1
10
10.4936737434647
20
-2.28932296599092
30
0
41
1
10
10.6320515349231
20
-2.38992709489122
30
0
41
1
10
10.8150665911631
20
-2.49708632219424
30
0
41
1
10
10.8574089473578
20
-2.52020220671824
30
0
41
1
10
10.8997520209239
20
-2.54164150323808
30
0
0
SPLINE
5
145
100
AcDbEntity
8
1
62
256
6
ByLayer
370
18
48
1
60
0
100
AcDbSpline
70
4
71
3
72
8
73
4
40
0
40
0
40
0
40
0
40
1
40
1
40
1
40
1
41
1
10
9.84207676291481
20
-1.61789377279584
30
0
41
1
10
9.86992149470092
20
-1.65238623773118
30
0
41
1
10
9.89800502634762
20
-1.68718973427059
30
0
41
1
10
9.92628836408858
20
-1.72225609390375
30
0
0
SPLINE
5
146
100
AcDbEntity
8
1
62
256
6
ByLayer
370
18
48
1
60
0
100
AcDbSpline
70
4
71
2
72
6
73
3
40
0
40
0
40
0
40
1
40
1
40
1
41
1.02990374504916
10
7.96395703226998
20
-10.4975932846866
30
0
41
1.02990374504916
10
7.56685971142304
20
-10.6075976341113
30
0
41
1.02990374504916
10
7.16976239057609
20
-10.717601983536
30
0
0
SPLINE
5
147
100
AcDbEntity
8
1
62
256
6
ByLayer
370
18
48
1
60
0
100
AcDbSpline
70
4
71
3
72
8
73
4
40
0
40
0
40
0
40
0
40
1
40
1
40
1
40
1
41
1
10
10.8997520209239
20
-2.54164150323808
30
0
41
1
10
11.2782609953912
20
-1.3452576836838
30
0
41
1
10
11.547335623699
20
-0.245688183757522
30
0
41
1
10
11.5400450893596
20
0.383589381522285
30
0
0
SPLINE
5
148
100
AcDbEntity
8
1
62
256
6
ByLayer
370
18
48
1
60
0
100
AcDbSpline
70
4
71
3
72
16
73
12
40
0
40
0
40
0
40
0
40
0.283825424659826
40
0.283825424659826
40
0.572792249827487
40
0.572792249827487
40
0.572792249827487
40
0.894188232602851
40
0.894188232602851
40
0.894188232602851
40
1
40
1
40
1
40
1
41
1
10
9.35221822292874
20
-9.76596054967246
30
0
41
1
10
9.62918708214909
20
-9.98904979663669
30
0
41
1
10
9.94752937724053
20
-10.1724953864076
30
0
41
1
10
10.6190252729129
20
-10.4394980117362
30
0
41
1
10
10.9810930326007
20
-10.5253241624513
30
0
41
1
10
11.3434152420363
20
-10.5541801104433
30
0
41
1
10
11.7440437625452
20
-10.5860868372486
30
0
41
1
10
12.1600260226977
20
-10.547705233848
30
0
41
1
10
12.5453943406518
20
-10.4281320538595
30
0
41
1
10
12.6746242575641
20
-10.3880342269366
30
0
41
1
10
12.80143903189
20
-10.3386853135254
30
0
41
1
10
12.9231782054423
20
-10.280675633741
30
0
0
SPLINE
5
149
100
AcDbEntity
8
1
62
256
6
ByLayer
370
18
48
1
60
0
100
AcDbSpline
70
4
71
3
72
8
73
4
40
0
40
0
40
0
40
0
40
1
40
1
40
1
40
1
41
1
10
4.34763353574738
20
-3.18291644230982
30
0
41
1
10
4.32459995211315
20
-3.20138494583199
30
0
41
1
10
4.30248323435035
20
-3.22040008223172
30
0
41
1
10
4.28121437118051
20
-3.23992311232448
30
0
0
SPLINE
5
14A
100
AcDbEntity
8
1
62
256
6
ByLayer
370
18
48
1
60
0
100
AcDbSpline
70
4
71
3
72
14
73
10
40
0
40
0
40
0
40
0
40
0.304391776008974
40
0.304391776008974
40
0.577373879687157
40
0.577373879687157
40
0.851610378463921
40
0.851610378463921
40
1
40
1
40
1
40
1
41
1
10
18.2110279983795
20
-16.4072604273196
30
0
41
1
10
18.0449335061421
20
-16.4408930781856
30
0
41
1
10
17.8678673457757
20
-16.4617240901813
30
0
41
1
10
17.5305620007267
20
-16.4678659620828
30
0
41
1
10
17.3666658756989
20
-16.4562595056028
30
0
41
1
10
17.0576184127732
20
-16.4016386444152
30
0
41
1
10
16.9084714059442
20
-16.3575992691573
30
0
41
1
10
16.7077030892816
20
-16.2700785672144
30
0
41
1
10
16.6414269514006
20
-16.2351128711838
30
0
41
1
10
16.5812415275613
20
-16.1972773673754
30
0
0
SPLINE
5
14B
100
AcDbEntity
8
1
62
256
6
ByLayer
370
18
48
1
60
0
100
AcDbSpline
70
4
71
3
72
11
73
7
40
0
40
0
40
0
40
0
40
0.55992619571858
40
0.55992619571858
40
0.55992619571858
40
1
40
1
40
1
40
1
41
1
10
13.4668548344853
20
-15.5742324727589
30
0
41
1
10
13.2533037602916
20
-15.3440337449648
30
0
41
1
10
12.9831668285533
20
-15.1060595248259
30
0
41
1
10
12.6790871363232
20
-14.8873595642961
30
0
41
1
10
12.4383712310246
20
-14.7142320574848
30
0
41
1
10
12.1730051635351
20
-14.5490698296276
30
0
41
1
10
11.8981776046212
20
-14.3970912881569
30
0
0
SPLINE
5
14C
100
AcDbEntity
8
1
62
256
6
ByLayer
370
18
48
1
60
0
100
AcDbSpline
70
4
71
3
72
10
73
6
40
0
40
0
40
0
40
0
40
0.560518156563275
40
0.560518156563275
40
1
40
1
40
1
40
1
41
1
10
18.3556092261771
20
-9.21947322660762
30
0
41
1
10
18.4671056972012
20
-9.6016347288132
30
0
41
1
10
18.6027566657142
20
-9.97535421776294
30
0
41
1
10
18.878825638824
20
-10.5689990408686
30
0
41
1
10
19.0145885725419
20
-10.8091428432593
30
0
41
1
10
19.1527137737493
20
-11.0152672889725
30
0
0
SPLINE
5
14D
100
AcDbEntity
8
1
62
256
6
ByLayer
370
18
48
1
60
0
100
AcDbSpline
70
4
71
1
72
4
73
2
40
0
40
0
40
1
40
1
41
1
10
15.4450167678624
20
-4.49922237244465
30
0
41
1
10
15.8033420885286
20
-3.79513175083176
30
0
0
SPLINE
5
14E
100
AcDbEntity
8
1
62
256
6
ByLayer
370
18
48
1
60
0
100
AcDbSpline
70
4
71
3
72
12
73
8
40
0
40
0
40
0
40
0
40
0.41535644474115
40
0.41535644474115
40
0.825259843212195
40
0.825259843212195
40
1
40
1
40
1
40
1
41
1
10
7.08277709621945
20
-5.60212119065113
30
0
41
1
10
7.0410921665719
20
-5.43538041274599
30
0
41
1
10
6.97635169098743
20
-5.26293612288552
30
0
41
1
10
6.81958880238108
20
-4.942434387567
30
0
41
1
10
6.72629617447876
20
-4.7895880578973
30
0
41
1
10
6.58340303925502
20
-4.58916577648148
30
0
41
1
10
6.53899683801581
20
-4.53085805551413
30
0
41
1
10
6.49361856830245
20
-4.47459698972796
30
0
0
SPLINE
5
14F
100
AcDbEntity
8
1
62
256
6
ByLayer
370
18
48
1
60
0
100
AcDbSpline
70
4
71
3
72
10
73
6
40
0
40
0
40
0
40
0
40
0.679966690484314
40
0.679966690484314
40
1
40
1
40
1
40
1
41
1
10
7.15749095115115
20
-6.17284007255495
30
0
41
1
10
7.15602441086889
20
-6.04504088265676
30
0
41
1
10
7.14397809562627
20
-5.91476338908617
30
0
41
1
10
7.11092557971153
20
-5.72411489287447
30
0
41
1
10
7.09798315573937
20
-5.66294581515351
30
0
41
1
10
7.08277709621945
20
-5.60212119065116
30
0
0
SPLINE
5
150
100
AcDbEntity
8
1
62
256
6
ByLayer
370
18
48
1
60
0
100
AcDbSpline
70
4
71
3
72
8
73
4
40
0
40
0
40
0
40
0
40
1
40
1
40
1
40
1
41
1
10
6.40940696712869
20
-4.3702346686201
30
0
41
1
10
5.59744827320139
20
-3.99225200332091
30
0
41
1
10
4.88137119652203
20
-3.62862193403254
30
0
41
1
10
4.41655618296227
20
-3.3248557501127
30
0
0
SPLINE
5
151
100
AcDbEntity
8
1
62
256
6
ByLayer
370
18
48
1
60
0
100
AcDbSpline
70
4
71
3
72
8
73
4
40
0
40
0
40
0
40
0
40
1
40
1
40
1
40
1
41
1
10
13.0381296894632
20
-3.77540229100654
30
0
41
1
10
12.6124442172884
20
-3.24312134298566
30
0
41
1
10
12.0511587079601
20
-2.88839087702456
30
0
41
1
10
11.4378852133268
20
-2.74078721605829
30
0
0
SPLINE
5
152
100
AcDbEntity
8
1
62
256
6
ByLayer
370
18
48
1
60
0
100
AcDbSpline
70
4
71
3
72
11
73
7
40
0
40
0
40
0
40
0
40
0.717036925638435
40
0.717036925638435
40
0.717036925638435
40
1
40
1
40
1
40
1
41
1
10
3.24971836577879
20
-5.86821816225145
30
0
41
1
10
3.05669866120849
20
-5.63141836443774
30
0
41
1
10
2.86336676843251
20
-5.34853403962171
30
0
41
1
10
2.71229844448931
20
-5.01994258355256
30
0
41
1
10
2.65209226973451
20
-4.88898703899733
30
0
41
1
10
2.59834618681094
20
-4.75004031368564
30
0
41
1
10
2.55463866139144
20
-4.6047986727138
30
0
0
SPLINE
5
153
100
AcDbEntity
8
1
62
256
6
ByLayer
370
18
48
1
60
0
100
AcDbSpline
70
4
71
3
72
8
73
4
40
0
40
0
40
0
40
0
40
1
40
1
40
1
40
1
41
1
10
16.4803527311626
20
-10.6588931165304
30
0
41
1
10
17.3716438333962
20
-11.3341318988934
30
0
41
1
10
18.532016904359
20
-11.0578286689589
30
0
41
1
10
19.3518136320188
20
-11.9114589157692
30
0
0
SPLINE
5
154
100
AcDbEntity
8
1
62
256
6
ByLayer
370
18
48
1
60
0
100
AcDbSpline
70
4
71
3
72
12
73
8
40
0
40
0
40
0
40
0
40
0.391502209781617
40
0.391502209781617
40
0.886018843801028
40
0.886018843801028
40
1
40
1
40
1
40
1
41
1
10
9.23327604122341
20
0.537227071222276
30
0
41
1
10
9.31319402302404
20
0.338315089696806
30
0
41
1
10
9.39446032276192
20
0.0955490572761732
30
0
41
1
10
9.57572609057502
20
-0.516780793530785
30
0
41
1
10
9.67710325993914
20
-0.909910580566873
30
0
41
1
10
9.79719649097751
20
-1.42091929052515
30
0
41
1
10
9.81972846272936
20
-1.51884607146448
30
0
41
1
10
9.84207676291567
20
-1.61789377279555
30
0
0
SPLINE
5
155
100
AcDbEntity
8
1
62
256
6
ByLayer
370
18
48
1
60
0
100
AcDbSpline
70
4
71
3
72
10
73
6
40
0
40
0
40
0
40
0
40
0.207845795367675
40
0.207845795367675
40
1
40
1
40
1
40
1
41
1
10
10.8997520209239
20
-2.54164150323808
30
0
41
1
10
10.9361364605061
20
-2.56006380287812
30
0
41
1
10
10.972860869783
20
-2.57758096633447
30
0
41
1
10
11.149537322364
20
-2.65675382354229
30
0
41
1
10
11.2938727594531
20
-2.70612606470817
30
0
41
1
10
11.4378852133268
20
-2.74078721605829
30
0
0
SPLINE
5
156
100
AcDbEntity
8
1
62
256
6
ByLayer
370
18
48
1
60
0
100
AcDbSpline
70
4
71
3
72
8
73
4
40
0
40
0
40
0
40
0
40
1
40
1
40
1
40
1
41
1
10
9.10656211626906
20
0.632828890537468
30
0
41
1
10
9.12959569990335
20
0.65129739405964
30
0
41
1
10
9.15298553792798
20
0.668769762131177
30
0
41
1
10
9.17670702919179
20
0.685320342316089
30
0
0
SPLINE
5
157
100
AcDbEntity
8
1
62
256
6
ByLayer
370
18
48
1
60
0
100
AcDbSpline
70
4
71
3
72
10
73
6
40
0
40
0
40
0
40
0
40
0.7599765320019
40
0.7599765320019
40
1
40
1
40
1
40
1
41
1
10
15.3691486495686
20
-12.7767661395485
30
0
41
1
10
15.6316298645394
20
-12.8993162795702
30
0
41
1
10
15.884460988043
20
-13.029151746152
30
0
41
1
10
16.2019945806433
20
-13.2084958590679
30
0
41
1
10
16.2771304581558
20
-13.2522222090565
30
0
41
1
10
16.3511042835063
20
-13.2965779043885
30
0
0
SPLINE
5
158
100
AcDbEntity
8
1
62
256
6
ByLayer
370
18
48
1
60
0
100
AcDbSpline
70
4
71
3
72
8
73
4
40
0
40
0
40
0
40
0
40
1
40
1
40
1
40
1
41
1
10
14.4557115672925
20
-5.67394054732065
30
0
41
1
10
14.960193488538
20
-5.17755381538291
30
0
41
1
10
15.313004140256
20
-4.75862032082102
30
0
41
1
10
15.4450167678624
20
-4.49922237244465
30
0
0
SPLINE
5
159
100
AcDbEntity
8
1
62
256
6
ByLayer
370
18
48
1
60
0
100
AcDbSpline
70
4
71
2
72
8
73
5
40
0
40
0
40
0
40
0.581603760044146
40
0.872405640066219
40
1
40
1
40
1
41
1.02990374504916
10
7.96395703226998
20
-10.4975932846866
30
0
41
1.02669755169729
10
9.52102263172199
20
-11.34746177585
30
0
41
1.02039724512338
10
12.0910968425727
20
-12.3345055783594
30
0
41
1.01761724169577
10
13.407549591548
20
-12.700517594062
30
0
41
1.01686274329252
10
13.7555924492377
20
-12.8436267501333
30
0
0
SPLINE
5
15A
100
AcDbEntity
8
1
62
256
6
ByLayer
370
18
48
1
60
0
100
AcDbSpline
70
4
71
2
72
8
73
5
40
0
40
0
40
0
40
0.145991510275421
40
0.563470207592129
40
1
40
1
40
1
41
1.02393576174177
10
12.9231782050749
20
-10.2806756333561
30
0
41
1.02323174907605
10
13.1060637376338
20
-10.4721829105891
30
0
41
1.02039724512338
10
13.8118047743495
20
-11.2030460694265
30
0
41
1.01644464721292
10
14.8869282380147
20
-12.2221265862064
30
0
41
1.01495409538139
10
15.369148649582
20
-12.7767661395639
30
0
0
SPLINE
5
15B
100
AcDbEntity
8
1
62
256
6
ByLayer
370
18
48
1
60
0
100
AcDbSpline
70
4
71
3
72
8
73
4
40
0
40
0
40
0
40
0
40
1
40
1
40
1
40
1
41
1
10
11.4694566419028
20
-7.38190619689374
30
0
41
1
10
11.4752224865273
20
-7.36517286749387
30
0
41
1
10
11.4828752297067
20
-7.34785867473786
30
0
41
1
10
11.493274764213
20
-7.33055223791317
30
0
0
SPLINE
5
15C
100
AcDbEntity
8
1
62
256
6
ByLayer
370
18
48
1
60
0
100
AcDbSpline
70
4
71
3
72
10
73
6
40
0
40
0
40
0
40
0
40
0.516155291935436
40
0.516155291935436
40
1
40
1
40
1
40
1
41
1
10
11.9299990717636
20
-6.58084190323319
30
0
41
1
10
11.9244007980183
20
-6.57284454088617
30
0
41
1
10
11.9189368076355
20
-6.56440207397142
30
0
41
1
10
11.9087849711167
20
-6.54709602215053
30
0
41
1
10
11.9040496551553
20
-6.53825549702725
30
0
41
1
10
11.899617327959
20
-6.52894816015919
30
0
0
SPLINE
5
15D
100
AcDbEntity
8
1
62
256
6
ByLayer
370
18
48
1
60
0
100
AcDbSpline
70
4
71
3
72
8
73
4
40
0
40
0
40
0
40
0
40
1
40
1
40
1
40
1
41
1
10
11.6243720084496
20
-7.22543746483325
30
0
41
1
10
11.6436743961655
20
-7.21892867325553
30
0
41
1
10
11.6624225474484
20
-7.21507442691376
30
0
41
1
10
11.68020617356
20
-7.21292561056768
30
0
0
SPLINE
5
15E
100
AcDbEntity
8
1
62
256
6
ByLayer
370
18
48
1
60
0
100
AcDbSpline
70
4
71
3
72
10
73
6
40
0
40
0
40
0
40
0
40
0.123732606265425
40
0.123732606265425
40
1
40
1
40
1
40
1
41
1
10
11.8752582464616
20
-6.36396937132014
30
0
41
1
10
11.8757109941332
20
-6.36169825490344
30
0
41
1
10
11.8761934832471
20
-6.35946236499248
30
0
41
1
10
11.8802776482048
20
-6.34182976135133
30
0
41
1
10
11.8851907861802
20
-6.32804195505031
30
0
41
1
10
11.8908398579462
20
-6.31562502028498
30
0
0
SPLINE
5
15F
100
AcDbEntity
8
1
62
256
6
ByLayer
370
18
48
1
60
0
100
AcDbSpline
70
4
71
3
72
10
73
6
40
0
40
0
40
0
40
0
40
0.123732606265412
40
0.123732606265412
40
1
40
1
40
1
40
1
41
1
10
10.135194420465
20
-6.80757485050955
30
0
41
1
10
10.1350406545224
20
-6.81017801977626
30
0
41
1
10
10.1348660888549
20
-6.81275589332034
30
0
41
1
10
10.1333126724221
20
-6.83319917794509
30
0
41
1
10
10.1310078592513
20
-6.84988382241679
30
0
41
1
10
10.1281326475165
20
-6.86538144084724
30
0
0
SPLINE
5
160
100
AcDbEntity
8
1
62
256
6
ByLayer
370
18
48
1
60
0
100
AcDbSpline
70
4
71
3
72
10
73
6
40
0
40
0
40
0
40
0
40
0.629893813379421
40
0.629893813379421
40
1
40
1
40
1
40
1
41
1
10
11.4700286826055
20
-5.78943893691485
30
0
41
1
10
11.4585606252622
20
-5.78913145389598
30
0
41
1
10
11.4465887984697
20
-5.78839398881956
30
0
41
1
10
11.4267861745283
20
-5.78632654440582
30
0
41
1
10
11.4192608551045
20
-5.78536287904964
30
0
41
1
10
11.4115688972171
20
-5.78416803315778
30
0
0
SPLINE
5
161
100
AcDbEntity
8
1
62
256
6
ByLayer
370
18
48
1
60
0
100
AcDbSpline
70
4
71
3
72
8
73
4
40
0
40
0
40
0
40
0
40
1
40
1
40
1
40
1
41
1
10
10.386080658477
20
-5.9461067569965
30
0
41
1
10
10.3691714823559
20
-5.95527347932199
30
0
41
1
10
10.3533837186925
20
-5.96241556920276
30
0
41
1
10
10.3387663319027
20
-5.96808085056452
30
0
0
SPLINE
5
162
100
AcDbEntity
8
1
62
256
6
ByLayer
370
18
48
1
60
0
100
AcDbSpline
70
4
71
3
72
8
73
4
40
0
40
0
40
0
40
0
40
1
40
1
40
1
40
1
41
1
10
10.5495158635598
20
-5.79910026423846
30
0
41
1
10
10.5405837796136
20
-5.81231712862265
30
0
41
1
10
10.5299706488148
20
-5.82634347783966
30
0
41
1
10
10.5171779027136
20
-5.84099198391658
30
0
0
SPLINE
5
163
100
AcDbEntity
8
1
62
256
6
ByLayer
370
18
48
1
60
0
100
AcDbSpline
70
4
71
3
72
10
73
6
40
0
40
0
40
0
40
0
40
0.315026012182466
40
0.315026012182466
40
1
40
1
40
1
40
1
41
1
10
11.2561125714698
20
-5.72430401740178
30
0
41
1
10
11.2515275334156
20
-5.72102981815908
30
0
41
1
10
11.2472200600334
20
-5.71774089544013
30
0
41
1
10
11.2344077021654
20
-5.70735193112043
30
0
41
1
10
11.2268025792973
20
-5.70023749122512
30
0
41
1
10
11.2201199371175
20
-5.69320264028337
30
0
0
SPLINE
5
164
100
AcDbEntity
8
1
62
256
6
ByLayer
370
18
48
1
60
0
100
AcDbSpline
70
4
71
3
72
10
73
6
40
0
40
0
40
0
40
0
40
0.516155291935659
40
0.516155291935659
40
1
40
1
40
1
40
1
41
1
10
10.088973433699
20
-6.60016455789903
30
0
41
1
10
10.0929340803005
20
-6.60634315104556
30
0
41
1
10
10.0968236643343
20
-6.61303706256555
30
0
41
1
10
10.1041235034203
20
-6.62717565034527
30
0
41
1
10
10.1075631975515
20
-6.63457724164951
30
0
41
1
10
10.1108353389654
20
-6.64259606166814
30
0
0
SPLINE
5
165
100
AcDbEntity
8
1
62
256
6
ByLayer
370
18
48
1
60
0
100
AcDbSpline
70
4
71
3
72
10
73
6
40
0
40
0
40
0
40
0
40
0.315026012182752
40
0.315026012182752
40
1
40
1
40
1
40
1
41
1
10
10.7543400954555
20
-7.44724020442649
30
0
41
1
10
10.7596828437596
20
-7.45135592615534
30
0
41
1
10
10.7648057572921
20
-7.45555048691045
30
0
41
1
10
10.7803326262693
20
-7.46895422123961
30
0
41
1
10
10.7900003088244
20
-7.47835936573577
30
0
41
1
10
10.7988525683452
20
-7.48780382084882
30
0
0
SPLINE
5
166
100
AcDbEntity
8
1
62
256
6
ByLayer
370
18
48
1
60
0
100
AcDbSpline
70
4
71
3
72
10
73
6
40
0
40
0
40
0
40
0
40
0.629893813379492
40
0.629893813379492
40
1
40
1
40
1
40
1
41
1
10
10.5489438228542
20
-7.391567524214
30
0
41
1
10
10.5584138098949
20
-7.38965592534936
30
0
41
1
10
10.5684795290494
20
-7.38827644342845
30
0
41
1
10
10.5855210089305
20
-7.38727732669355
30
0
41
1
10
10.5920794351784
20
-7.3871671483881
30
0
41
1
10
10.5988837697076
20
-7.38737618866983
30
0
0
INSERT
5
179
100
AcDbEntity
8
SK2
62
256
6
ByLayer
370
25
48
1
60
0
100
AcDbBlockReference
2
DimnDraft3D11
10
0
20
0
30
0
41
1
42
1
43
1
50
0
210
0
220
0
230
1
0
LINE
5
72
100
AcDbEntity
8
1
62
256
6
ByLayer
370
18
48
1
60
0
100
AcDbLine
10
11.823689
20
-6.467265
30
0
11
11.9565
21
-6.614767
31
0
39
0
210
0
220
0
230
1
0
LINE
5
74
100
AcDbEntity
8
1
62
256
6
ByLayer
370
18
48
1
60
0
100
AcDbLine
10
9.39754
20
-18.418905
30
0
11
9.865822
21
-18.938985
31
0
39
0
210
0
220
0
230
1
0
LINE
5
75
100
AcDbEntity
8
1
62
256
6
ByLayer
370
18
48
1
60
0
100
AcDbLine
10
12.173539
20
0.767724
30
0
11
11.840178
21
1.158248
31
0
39
0
210
0
220
0
230
1
0
LINE
5
76
100
AcDbEntity
8
1
62
256
6
ByLayer
370
18
48
1
60
0
100
AcDbLine
10
9.219743
20
-17.670783
30
0
11
9.227693
21
-17.679612
31
0
39
0
210
0
220
0
230
1
0
LINE
5
77
100
AcDbEntity
8
1
62
256
6
ByLayer
370
18
48
1
60
0
100
AcDbLine
10
18.621466
20
-6.416185
30
0
11
18.153183
21
-5.896105
31
0
39
0
210
0
220
0
230
1
0
LINE
5
78
100
AcDbEntity
8
1
62
256
6
ByLayer
370
18
48
1
60
0
100
AcDbLine
10
10.062473
20
-6.56624
30
0
11
9.929662
21
-6.418738
31
0
39
0
210
0
220
0
230
1
0
LINE
5
79
100
AcDbEntity
8
1
62
256
6
ByLayer
370
18
48
1
60
0
100
AcDbLine
10
11.082533
20
-5.540518
30
0
11
11.215344
21
-5.688019
31
0
39
0
210
0
220
0
230
1
0
LINE
5
7A
100
AcDbEntity
8
1
62
256
6
ByLayer
370
18
48
1
60
0
100
AcDbLine
10
8.424828
20
-8.502274
30
0
11
8.588237
21
-8.683758
31
0
39
0
210
0
220
0
230
1
0
LINE
5
7B
100
AcDbEntity
8
1
62
256
6
ByLayer
370
18
48
1
60
0
100
AcDbLine
10
13.344364
20
-4.401322
30
0
11
13.180955
21
-4.219838
31
0
39
0
210
0
220
0
230
1
0
LINE
5
7C
100
AcDbEntity
8
1
62
256
6
ByLayer
370
18
48
1
60
0
100
AcDbLine
10
10.803628
20
-7.492987
30
0
11
10.670817
21
-7.345485
31
0
39
0
210
0
220
0
230
1
0
LINE
5
7D
100
AcDbEntity
8
1
62
256
6
ByLayer
370
18
48
1
60
0
100
AcDbLine
10
9.740065
20
-1.506426
30
0
11
9.992829
21
-1.802532
31
0
39
0
210
0
220
0
230
1
0
LINE
5
7E
100
AcDbEntity
8
80
62
256
6
ByLayer
370
18
48
1
60
0
100
AcDbLine
10
0
20
0
30
0
11
-5
21
0
31
0
39
0
210
0
220
0
230
1
0
LINE
5
7F
100
AcDbEntity
8
81
62
256
6
ByLayer
370
18
48
1
60
0
100
AcDbLine
10
24.899434
20
-19.9125
30
0
11
34.899434
21
-19.9125
31
0
39
0
210
0
220
0
230
1
0
LINE
5
80
100
AcDbEntity
8
1
62
256
6
ByLayer
370
18
48
1
60
0
100
AcDbLine
10
9.854751
20
-6.361701
30
0
11
9.980934
21
-6.501841
31
0
39
0
210
0
220
0
230
1
0
LINE
5
81
100
AcDbEntity
8
1
62
256
6
ByLayer
370
18
48
1
60
0
100
AcDbLine
10
13.180955
20
-4.219838
30
0
11
13.180886
21
-4.219762
31
0
39
0
210
0
220
0
230
1
0
LINE
5
82
100
AcDbEntity
8
1
62
256
6
ByLayer
370
18
48
1
60
0
100
AcDbLine
10
17.29122
20
-6.426264
30
0
11
17.373462
21
-6.517603
31
0
39
0
210
0
220
0
230
1
0
LINE
5
83
100
AcDbEntity
8
1
62
256
6
ByLayer
370
18
48
1
60
0
100
AcDbLine
10
9.797932
20
-17.977823
30
0
11
12.086689
21
-14.515404
31
0
39
0
210
0
220
0
230
1
0
LINE
5
84
100
AcDbEntity
8
1
62
256
6
ByLayer
370
18
48
1
60
0
100
AcDbLine
10
9.32965
20
-17.457743
30
0
11
9.439613
21
-17.291391
31
0
39
0
210
0
220
0
230
1
0
LINE
5
85
100
AcDbEntity
8
1
62
256
6
ByLayer
370
18
48
1
60
0
100
AcDbLine
10
11.960563
20
-14.436099
30
0
11
10.051884
21
-17.323538
31
0
39
0
210
0
220
0
230
1
0
LINE
5
86
100
AcDbEntity
8
1
62
256
6
ByLayer
370
18
48
1
60
0
100
AcDbLine
10
17.483927
20
3.638571
30
0
11
12.850385
21
-0.076638
31
0
39
0
210
0
220
0
230
1
0
LINE
5
87
100
AcDbEntity
8
1
62
256
6
ByLayer
370
18
48
1
60
0
100
AcDbLine
10
4.189503
20
-7.020999
30
0
11
3.765076
21
-7.361308
31
0
39
0
210
0
220
0
230
1
0
LINE
5
88
100
AcDbEntity
8
1
62
256
6
ByLayer
370
18
48
1
60
0
100
AcDbLine
10
15.212875
20
5.239255
30
0
11
11.024964
21
1.881356
31
0
39
0
210
0
220
0
230
1
0
LINE
5
89
100
AcDbEntity
8
1
62
256
6
ByLayer
370
18
48
1
60
0
100
AcDbLine
10
2.643688
20
-4.838815
30
0
11
1.788739
21
-5.52432
31
0
39
0
210
0
220
0
230
1
0
LINE
5
8A
100
AcDbEntity
8
1
62
256
6
ByLayer
370
18
48
1
60
0
100
AcDbLine
10
14.414776
20
5.801772
30
0
11
9.975639
21
2.242438
31
0
39
0
210
0
220
0
230
1
0
LINE
5
8B
100
AcDbEntity
8
1
62
256
6
ByLayer
370
18
48
1
60
0
100
AcDbLine
10
2.518741
20
-3.736561
30
0
11
0.920036
21
-5.018415
31
0
39
0
210
0
220
0
230
1
0
LINE
5
8C
100
AcDbEntity
8
1
62
256
6
ByLayer
370
18
48
1
60
0
100
AcDbLine
10
11.971663
20
-14.443172
30
0
11
11.88841
21
-14.569116
31
0
39
0
210
0
220
0
230
1
0
LINE
5
8D
100
AcDbEntity
8
1
62
256
6
ByLayer
370
18
48
1
60
0
100
AcDbLine
10
20.289462
20
-9.694687
30
0
11
20.363588
21
-9.409724
31
0
39
0
210
0
220
0
230
1
0
LINE
5
8E
100
AcDbEntity
8
1
62
256
6
ByLayer
370
18
48
1
60
0
100
AcDbLine
10
19.512572
20
-6.470158
30
0
11
19.415904
21
-7.944646
31
0
39
0
210
0
220
0
230
1
0
LINE
5
8F
100
AcDbEntity
8
1
62
256
6
ByLayer
370
18
48
1
60
0
100
AcDbLine
10
22.325054
20
-13.382915
30
0
11
22.190135
21
-13.502393
31
0
39
0
210
0
220
0
230
1
0
LINE
5
90
100
AcDbEntity
8
1
62
256
6
ByLayer
370
18
48
1
60
0
100
AcDbLine
10
15.1879
20
5.256858
30
0
11
10.99892
21
1.898101
31
0
39
0
210
0
220
0
230
1
0
LINE
5
91
100
AcDbEntity
8
1
62
256
6
ByLayer
370
18
48
1
60
0
100
AcDbLine
10
2.632642
20
-4.810044
30
0
11
1.592831
21
-5.643772
31
0
39
0
210
0
220
0
230
1
0
LINE
5
92
100
AcDbEntity
8
1
62
256
6
ByLayer
370
18
48
1
60
0
100
AcDbLine
10
19.348863
20
-6.445637
30
0
11
19.26978
21
-7.651892
31
0
39
0
210
0
220
0
230
1
0
LINE
5
93
100
AcDbEntity
8
1
62
256
6
ByLayer
370
18
48
1
60
0
100
AcDbLine
10
4.347634
20
-3.182916
30
0
11
3.435407
21
-2.114265
31
0
39
0
210
0
220
0
230
1
0
LINE
5
94
100
AcDbEntity
8
1
62
256
6
ByLayer
370
18
48
1
60
0
100
AcDbLine
10
12.822465
20
-3.522756
30
0
11
13.838856
21
-4.794057
31
0
39
0
210
0
220
0
230
1
0
LINE
5
95
100
AcDbEntity
8
1
62
256
6
ByLayer
370
18
48
1
60
0
100
AcDbLine
10
4.297211
20
-7.15322
30
0
11
3.563814
21
-6.236174
31
0
39
0
210
0
220
0
230
1
0
LINE
5
96
100
AcDbEntity
8
1
62
256
6
ByLayer
370
18
48
1
60
0
100
AcDbLine
10
12.223504
20
0.707231
30
0
11
12.956901
21
-0.209814
31
0
39
0
210
0
220
0
230
1
0
LINE
5
97
100
AcDbEntity
8
1
62
256
6
ByLayer
370
18
48
1
60
0
100
AcDbLine
10
4.058985
20
-5.614782
30
0
11
7.963957
21
-10.497593
31
0
39
0
210
0
220
0
230
1
0
LINE
5
98
100
AcDbEntity
8
1
62
256
6
ByLayer
370
18
48
1
60
0
100
AcDbLine
10
15.803342
20
-3.795132
30
0
11
12.973007
21
-0.256055
31
0
39
0
210
0
220
0
230
1
0
LINE
5
99
100
AcDbEntity
8
1
62
256
6
ByLayer
370
18
48
1
60
0
100
AcDbLine
10
13.03813
20
-3.775402
30
0
11
12.822465
21
-3.522756
31
0
39
0
210
0
220
0
230
1
0
LINE
5
9A
100
AcDbEntity
8
1
62
256
6
ByLayer
370
18
48
1
60
0
100
AcDbLine
10
4.297211
20
-7.15322
30
0
11
3.254913
21
-5.874591
31
0
39
0
210
0
220
0
230
1
0
LINE
5
9B
100
AcDbEntity
8
1
62
256
6
ByLayer
370
18
48
1
60
0
100
AcDbLine
10
7.81111
20
-7.966467
30
0
11
8.832519
21
-9.243646
31
0
39
0
210
0
220
0
230
1
0
LINE
5
9C
100
AcDbEntity
8
1
62
256
6
ByLayer
370
18
48
1
60
0
100
AcDbLine
10
4.297211
20
-7.15322
30
0
11
4.339427
21
-7.178525
31
0
39
0
210
0
220
0
230
1
0
LINE
5
9D
100
AcDbEntity
8
1
62
256
6
ByLayer
370
18
48
1
60
0
100
AcDbLine
10
16.581242
20
-16.197277
30
0
11
14.283134
21
-15.964676
31
0
39
0
210
0
220
0
230
1
0
LINE
5
9E
100
AcDbEntity
8
1
62
256
6
ByLayer
370
18
48
1
60
0
100
AcDbLine
10
9.680286
20
-1.434071
30
0
11
8.817523
21
-0.354927
31
0
39
0
210
0
220
0
230
1
0
LINE
5
9F
100
AcDbEntity
8
1
62
256
6
ByLayer
370
18
48
1
60
0
100
AcDbLine
10
5.384853
20
-3.107268
30
0
11
8.817523
21
-0.354927
31
0
39
0
210
0
220
0
230
1
0
LINE
5
A0
100
AcDbEntity
8
1
62
256
6
ByLayer
370
18
48
1
60
0
100
AcDbLine
10
12.956901
20
-0.209814
30
0
11
12.973007
21
-0.256055
31
0
39
0
210
0
220
0
230
1
0
LINE
5
A1
100
AcDbEntity
8
1
62
256
6
ByLayer
370
18
48
1
60
0
100
AcDbLine
10
11.540045
20
0.383589
30
0
11
15.445017
21
-4.499222
31
0
39
0
210
0
220
0
230
1
0
LINE
5
A2
100
AcDbEntity
8
1
62
256
6
ByLayer
370
18
48
1
60
0
100
AcDbLine
10
7.169762
20
-10.717602
30
0
11
4.339427
21
-7.178525
31
0
39
0
210
0
220
0
230
1
0
LINE
5
A3
100
AcDbEntity
8
1
62
256
6
ByLayer
370
18
48
1
60
0
100
AcDbLine
10
14.059539
20
-5.052581
30
0
11
13.838856
21
-4.794057
31
0
39
0
210
0
220
0
230
1
0
LINE
5
A4
100
AcDbEntity
8
1
62
256
6
ByLayer
370
18
48
1
60
0
100
AcDbLine
10
9.106562
20
0.632829
30
0
11
8.194335
21
1.701481
31
0
39
0
210
0
220
0
230
1
0
LINE
5
A5
100
AcDbEntity
8
1
62
256
6
ByLayer
370
18
48
1
60
0
100
AcDbLine
10
14.059539
20
-5.052581
30
0
11
13.03813
21
-3.775402
31
0
39
0
210
0
220
0
230
1
0
LINE
5
A6
100
AcDbEntity
8
1
62
256
6
ByLayer
370
18
48
1
60
0
100
AcDbLine
10
8.194335
20
1.701481
30
0
11
3.435407
21
-2.114265
31
0
39
0
210
0
220
0
230
1
0
LINE
5
A7
100
AcDbEntity
8
1
62
256
6
ByLayer
370
18
48
1
60
0
100
AcDbLine
10
16.351104
20
-13.296578
30
0
11
18.639409
21
-16.205733
31
0
39
0
210
0
220
0
230
1
0
LINE
5
A8
100
AcDbEntity
8
1
62
256
6
ByLayer
370
18
48
1
60
0
100
AcDbLine
10
3.563814
20
-6.236174
30
0
11
3.249718
21
-5.868218
31
0
39
0
210
0
220
0
230
1
0
LINE
5
A9
100
AcDbEntity
8
1
62
256
6
ByLayer
370
18
48
1
60
0
100
AcDbLine
10
19.35326
20
-11.89941
30
0
11
19.077592
21
-14.195685
31
0
39
0
210
0
220
0
230
1
0
LINE
5
AA
100
AcDbEntity
8
1
62
256
6
ByLayer
370
18
48
1
60
0
100
AcDbLine
10
4.347634
20
-3.182916
30
0
11
9.106562
21
0.632829
31
0
39
0
210
0
220
0
230
1
0
LINE
5
AB
100
AcDbEntity
8
1
62
256
6
ByLayer
370
18
48
1
60
0
100
AcDbLine
10
11.899617
20
-6.528948
30
0
11
11.771066
21
-6.386178
31
0
39
0
210
0
220
0
230
1
0
LINE
5
AC
100
AcDbEntity
8
1
62
256
6
ByLayer
370
18
48
1
60
0
100
AcDbLine
10
10.275843
20
-7.289293
30
0
11
10.408655
21
-7.436795
31
0
39
0
210
0
220
0
230
1
0
LINE
5
AD
100
AcDbEntity
8
1
62
256
6
ByLayer
370
18
48
1
60
0
100
AcDbLine
10
11.832771
20
-6.040936
30
0
11
11.965583
21
-6.188438
31
0
39
0
210
0
220
0
230
1
0
LINE
5
AE
100
AcDbEntity
8
1
62
256
6
ByLayer
370
18
48
1
60
0
100
AcDbLine
10
11.495821
20
-7.082667
30
0
11
11.624372
21
-7.225437
31
0
39
0
210
0
220
0
230
1
0
LINE
5
AF
100
AcDbEntity
8
1
62
256
6
ByLayer
370
18
48
1
60
0
100
AcDbLine
10
11.493275
20
-7.330552
30
0
11
11.364724
21
-7.187782
31
0
39
0
210
0
220
0
230
1
0
LINE
5
B0
100
AcDbEntity
8
1
62
256
6
ByLayer
370
18
48
1
60
0
100
AcDbLine
10
11.304395
20
-7.377955
30
0
11
11.437207
21
-7.525457
31
0
39
0
210
0
220
0
230
1
0
LINE
5
B1
100
AcDbEntity
8
1
62
256
6
ByLayer
370
18
48
1
60
0
100
AcDbLine
10
10.598884
20
-7.387376
30
0
11
10.470333
21
-7.244606
31
0
39
0
210
0
220
0
230
1
0
LINE
5
B2
100
AcDbEntity
8
1
62
256
6
ByLayer
370
18
48
1
60
0
100
AcDbLine
10
11.746707
20
-6.221199
30
0
11
11.875258
21
-6.363969
31
0
39
0
210
0
220
0
230
1
0
LINE
5
B3
100
AcDbEntity
8
1
62
256
6
ByLayer
370
18
48
1
60
0
100
AcDbLine
10
11.694343
20
-7.065292
30
0
11
11.827154
21
-7.212794
31
0
39
0
210
0
220
0
230
1
0
LINE
5
B4
100
AcDbEntity
8
1
62
256
6
ByLayer
370
18
48
1
60
0
100
AcDbLine
10
11.015104
20
-5.418645
30
0
11
11.147915
21
-5.566147
31
0
39
0
210
0
220
0
230
1
0
LINE
5
B5
100
AcDbEntity
8
1
62
256
6
ByLayer
370
18
48
1
60
0
100
AcDbLine
10
10.625789
20
-7.30447
30
0
11
10.75434
21
-7.44724
31
0
39
0
210
0
220
0
230
1
0
LINE
5
B6
100
AcDbEntity
8
1
62
256
6
ByLayer
370
18
48
1
60
0
100
AcDbLine
10
0
20
-12.4375
30
0
11
0
21
12.4375
31
0
39
0
210
0
220
0
230
1
0
LINE
5
B7
100
AcDbEntity
8
1
62
256
6
ByLayer
370
18
48
1
60
0
100
AcDbLine
10
20.363588
20
-9.409724
30
0
11
22.325054
21
-13.382915
31
0
39
0
210
0
220
0
230
1
0
LINE
5
B8
100
AcDbEntity
8
1
62
256
6
ByLayer
370
18
48
1
60
0
100
AcDbLine
10
23.422986
20
-12.410632
30
0
11
22.325054
21
-13.382915
31
0
39
0
210
0
220
0
230
1
0
LINE
5
B9
100
AcDbEntity
8
1
62
256
6
ByLayer
370
18
48
1
60
0
100
AcDbLine
10
10.051884
20
-17.323538
30
0
11
4.600335
21
-17.037835
31
0
39
0
210
0
220
0
230
1
0
LINE
5
BA
100
AcDbEntity
8
1
62
256
6
ByLayer
370
18
48
1
60
0
100
AcDbLine
10
14.414776
20
5.801772
30
0
11
15.1879
21
5.256858
31
0
39
0
210
0
220
0
230
1
0
LINE
5
BB
100
AcDbEntity
8
1
62
256
6
ByLayer
370
18
48
1
60
0
100
AcDbLine
10
2.674976
20
12.449172
30
0
11
0.920036
21
-5.018415
31
0
39
0
210
0
220
0
230
1
0
LINE
5
BC
100
AcDbEntity
8
1
62
256
6
ByLayer
370
18
48
1
60
0
100
AcDbLine
10
1.788739
20
-5.52432
30
0
11
3.765076
21
-7.361308
31
0
39
0
210
0
220
0
230
1
0
LINE
5
BD
100
AcDbEntity
8
1
62
256
6
ByLayer
370
18
48
1
60
0
100
AcDbLine
10
1.592831
20
-5.643772
30
0
11
1.788739
21
-5.52432
31
0
39
0
210
0
220
0
230
1
0
LINE
5
BE
100
AcDbEntity
8
1
62
256
6
ByLayer
370
18
48
1
60
0
100
AcDbLine
10
0
20
12.4375
30
0
11
2.674976
21
12.449172
31
0
39
0
210
0
220
0
230
1
0
LINE
5
BF
100
AcDbEntity
8
1
62
256
6
ByLayer
370
18
48
1
60
0
100
AcDbLine
10
19.348863
20
-6.445637
30
0
11
19.512572
21
-6.470158
31
0
39
0
210
0
220
0
230
1
0
LINE
5
C0
100
AcDbEntity
8
1
62
256
6
ByLayer
370
18
48
1
60
0
100
AcDbLine
10
4.984863
20
12.448169
30
0
11
2.674976
21
12.449172
31
0
39
0
210
0
220
0
230
1
0
LINE
5
C1
100
AcDbEntity
8
1
62
256
6
ByLayer
370
18
48
1
60
0
100
AcDbLine
10
15.1879
20
5.256858
30
0
11
15.212875
21
5.239255
31
0
39
0
210
0
220
0
230
1
0
LINE
5
C2
100
AcDbEntity
8
1
62
256
6
ByLayer
370
18
48
1
60
0
100
AcDbLine
10
10.150254
20
-17.328694
30
0
11
11.495919
21
-15.292978
31
0
39
0
210
0
220
0
230
1
0
LINE
5
C3
100
AcDbEntity
8
1
62
256
6
ByLayer
370
18
48
1
60
0
100
AcDbLine
10
4.984863
20
12.448169
30
0
11
14.414776
21
5.801772
31
0
39
0
210
0
220
0
230
1
0
LINE
5
C4
100
AcDbEntity
8
1
62
256
6
ByLayer
370
18
48
1
60
0
100
AcDbLine
10
10.051884
20
-17.323538
30
0
11
10.150254
21
-17.328694
31
0
39
0
210
0
220
0
230
1
0
LINE
5
C5
100
AcDbEntity
8
1
62
256
6
ByLayer
370
18
48
1
60
0
100
AcDbLine
10
2.957903
20
-15.395403
30
0
11
4.600335
21
-17.037835
31
0
39
0
210
0
220
0
230
1
0
LINE
5
C6
100
AcDbEntity
8
1
62
256
6
ByLayer
370
18
48
1
60
0
100
AcDbLine
10
2.957903
20
-15.395403
30
0
11
0
21
-12.4375
31
0
39
0
210
0
220
0
230
1
0
LINE
5
C7
100
AcDbEntity
8
1
62
256
6
ByLayer
370
18
48
1
60
0
100
AcDbLine
10
18.278895
20
-5.19731
30
0
11
18.080292
21
-5.186467
31
0
39
0
210
0
220
0
230
1
0
LINE
5
C8
100
AcDbEntity
8
1
62
256
6
ByLayer
370
18
48
1
60
0
100
AcDbLine
10
3.765076
20
-7.361308
30
0
11
2.957903
21
-15.395403
31
0
39
0
210
0
220
0
230
1
0
LINE
5
C9
100
AcDbEntity
8
1
62
256
6
ByLayer
370
18
48
1
60
0
100
AcDbLine
10
20.477185
20
-7.677034
30
0
11
20.363588
21
-9.409724
31
0
39
0
210
0
220
0
230
1
0
LINE
5
CA
100
AcDbEntity
8
1
62
256
6
ByLayer
370
18
48
1
60
0
100
AcDbLine
10
22.915086
20
-0.189422
30
0
11
17.483927
21
3.638571
31
0
39
0
210
0
220
0
230
1
0
LINE
5
CB
100
AcDbEntity
8
1
62
256
6
ByLayer
370
18
48
1
60
0
100
AcDbLine
10
22.915086
20
-0.189422
30
0
11
23.422986
21
-12.410632
31
0
39
0
210
0
220
0
230
1
0
LINE
5
CC
100
AcDbEntity
8
1
62
256
6
ByLayer
370
18
48
1
60
0
100
AcDbLine
10
19.512572
20
-6.470158
30
0
11
20.477185
21
-7.677034
31
0
39
0
210
0
220
0
230
1
0
LINE
5
CD
100
AcDbEntity
8
1
62
256
6
ByLayer
370
18
48
1
60
0
100
AcDbLine
10
15.212875
20
5.239255
30
0
11
17.483927
21
3.638571
31
0
39
0
210
0
220
0
230
1
0
LINE
5
CE
100
AcDbEntity
8
SK1
62
256
6
ByLayer
370
18
48
1
60
0
100
AcDbLine
10
0
20
-12.4375
30
0
11
0
21
12.4375
31
0
39
0
210
0
220
0
230
1
0
LINE
5
D0
100
AcDbEntity
8
SK1
62
256
6
ByLayer
370
18
48
1
60
0
100
AcDbLine
10
-126.450566
20
12.4375
30
0
11
0
21
12.4375
31
0
39
0
210
0
220
0
230
1
0
LINE
5
D1
100
AcDbEntity
8
SK1
62
256
6
ByLayer
370
18
48
1
60
0
100
AcDbLine
10
0
20
-12.4375
30
0
11
-126.450566
21
-12.4375
31
0
39
0
210
0
220
0
230
1
0
LINE
5
D2
100
AcDbEntity
8
SK1
62
256
6
ByLayer
370
18
48
1
60
0
100
AcDbLine
10
-126.450566
20
-12.4375
30
0
11
-126.450566
21
12.4375
31
0
39
0
210
0
220
0
230
1
0
LINE
5
D3
100
AcDbEntity
8
1
62
256
6
ByLayer
370
18
48
1
60
0
100
AcDbLine
10
18.739302
20
-6.589183
30
0
11
24.817013
21
-18.76494
31
0
39
0
210
0
220
0
230
1
0
LINE
5
D4
100
AcDbEntity
8
1
62
256
6
ByLayer
370
18
48
1
60
0
100
AcDbLine
10
24.059174
20
-19.911395
30
0
11
10.405933
21
-19.195859
31
0
39
0
210
0
220
0
230
1
0
LINE
5
D5
100
AcDbEntity
8
1
62
256
6
ByLayer
370
18
48
1
60
0
100
AcDbLine
10
9.797932
20
-17.977823
30
0
11
9.32965
21
-17.457743
31
0
39
0
210
0
220
0
230
1
0
MTEXT
5
167
100
AcDbEntity
8
SK6
62
256
6
ByLayer
370
18
48
1
60
0
100
AcDbMText
10
-64.900566
20
21.568336
30
0
210
0
220
0
230
1
1
\W0.7660;DTJNL 2525M 16
40
3.5
41
0
44
1.084337
50
0
71
7
72
5
7
iso_b_vert
0
DIMENSION
5
187
100
AcDbEntity
8
2
62
256
6
ByLayer
370
13
48
1
60
0
100
AcDbDimension
2
DimnDraft3D2
10
23.065513
20
-19.859076
30
0
11
12.611299
21
-31.616193
31
0
70
34
71
5
72
1
41
1
210
0
220
0
230
1
3
Standard
100
AcDb2LineAngularDimension
13
24.899434
23
-19.9125
33
0
14
24.899434
24
-18.325
34
0
15
24.064142
25
-19.911412
35
0
16
9.347114
26
-34.713789
36
0
40
0
0
DIMENSION
5
19C
100
AcDbEntity
8
2
62
256
6
ByLayer
370
13
48
1
60
0
100
AcDbDimension
2
DimnDraft3D3
10
24.899434
20
-48.1625
30
0
11
6.931296
21
-48.1625
31
0
70
32
71
5
72
1
41
1
210
0
220
0
230
1
3
Standard
100
AcDbAlignedDimension
13
0
23
-14.4375
33
0
14
24.899434
24
-21.9125
34
0
50
0
100
AcDbRotatedDimension
1001
ACAD
1000
DSTYLE
1002
{
1070
   279
1070
     0
1070
   172
1070
     1
1070
   173
1070
     1
1070
   340
1005
168
1070
    77
1070
     1
1070
    73
1070
     0
1070
   171
1070
     3
1070
   274
1070
     4
1070
   177
1070
     2
1070
   176
1070
     2
1070
   178
1070
     7
1070
    78
1070
     8
1070
    41
1041
3.175
1070
   147
1041
2.25
1070
    42
1041
2.0
1070
    44
1041
2.0
1070
   140
1041
4.5
1070
   343
1005
188
1070
   344
1005
188
1002
}
0
DIMENSION
5
1AA
100
AcDbEntity
8
2
62
256
6
ByLayer
370
13
48
1
60
0
100
AcDbDimension
2
DimnDraft3D4
10
47.149434
20
-19.9125
30
0
11
47.149434
21
-9.019079
31
0
70
32
71
5
72
1
41
1
210
0
220
0
230
1
3
Standard
100
AcDbAlignedDimension
13
2
23
12.4375
33
0
14
26.899434
24
-19.9125
34
0
50
90
100
AcDbRotatedDimension
1001
ACAD
1000
DSTYLE
1002
{
1070
    74
1070
     0
1070
   279
1070
     0
1070
   172
1070
     1
1070
   173
1070
     1
1070
   340
1005
168
1070
    77
1070
     1
1070
    73
1070
     0
1070
   171
1070
     3
1070
   274
1070
     4
1070
   177
1070
     2
1070
   176
1070
     2
1070
   178
1070
     7
1070
    78
1070
     8
1070
    41
1041
3.175
1070
   147
1041
2.25
1070
    42
1041
2.0
1070
    44
1041
2.0
1070
   140
1041
4.5
1070
   343
1005
188
1070
   344
1005
188
1002
}
0
DIMENSION
5
1B8
100
AcDbEntity
8
SK2
62
256
6
ByLayer
370
13
48
1
60
0
100
AcDbDimension
2
DimnDraft3D5
10
-134.200566
20
-12.4375
30
0
11
-134.200566
21
-5.281579
31
0
70
32
71
5
72
1
41
1
210
0
220
0
230
1
3
Standard
100
AcDbAlignedDimension
13
-128.450566
23
12.4375
33
0
14
-128.450566
24
-12.4375
34
0
50
90
100
AcDbRotatedDimension
1001
ACAD
1000
DSTYLE
1002
{
1070
    74
1070
     0
1070
   279
1070
     0
1070
   172
1070
     1
1070
   173
1070
     1
1070
   340
1005
168
1070
    77
1070
     1
1070
    73
1070
     0
1070
   171
1070
     3
1070
   274
1070
     4
1070
   177
1070
     2
1070
   176
1070
     2
1070
   178
1070
     7
1070
    78
1070
     8
1070
    41
1041
3.175
1070
   147
1041
2.25
1070
    42
1041
2.0
1070
    44
1041
2.0
1070
   140
1041
4.5
1070
   343
1005
188
1070
   344
1005
188
1002
}
0
ENDSEC
0
SECTION
2
OBJECTS
0
DICTIONARY
5
222
330
0
100
AcDbDictionary
280
0
281
1
3
ACAD_GROUP
350
223
3
ACAD_MLINESTYLE
350
224
0
DICTIONARY
5
223
330
0
100
AcDbDictionary
280
0
281
1
0
DICTIONARY
5
224
330
0
100
AcDbDictionary
280
0
281
1
3
Standard
350
18
0
MLINESTYLE
5
18
330
224
100
AcDbMlineStyle
2
Standard
70
0
3

62
256
51
90
52
90
71
2
49
-0.5
62
256
6
ByLayer
49
0.5
62
256
6
ByLayer
0
RASTERVARIABLES
5
211
330

100
AcDbRasterVariables
90
0
70
1
71
1
72
1
0
ENDSEC
0
EOF
