0
SECTION
2
HEADER
9
$ACADVER
1
AC1015
9
$DWGCODEPAGE
3
ANSI_1252
9
$HANDSEED
5
230
9
$ANGBASE
50
0
9
$ANGDIR
70
0
9
$ATTMODE
70
1
9
$AUNITS
70
0
9
$AUPREC
70
0
9
$CECOLOR
62
256
9
$CELTSCALE
40
1
9
$CELTYPE
6
ByLayer
9
$CELWEIGHT
370
18
9
$CLAYER
8
0
9
$CMLJUST
70
0
9
$CMLSCALE
40
1
9
$CMLSTYLE
2
Standard
9
$DIMSTYLE
2
Standard
9
$TEXTSIZE
40
0.2
9
$TEXTSTYLE
7
Standard
9
$LUNITS
70
2
9
$LUPREC
70
4
9
$EXTNAMES
290
1
9
$INSUNITS
70
4
9
$LTSCALE
40
1
9
$LWDISPLAY
290
1
9
$PDMODE
70
0
9
$PDSIZE
40
0
9
$PLINEGEN
70
0
0
ENDSEC
0
SECTION
2
CLASSES
0
CLASS
1
RASTERVARIABLES
2
AcDbRasterVariables
3
ISM
90
0
280
0
281
0
0
ENDSEC
0
SECTION
2
TABLES
0
TABLE
2
VPORT
5
226
100
AcDbSymbolTable
0
VPORT
5
1
100
AcDbSymbolTableRecord
100
AcDbViewportTableRecord
2
*Active
70
0
10
0
20
0
11
1
21
1
12
-1
22
1
13
0
23
0
14
0.5
24
0.5
15
10
25
10
16
0
26
0
36
1
17
0
27
0
37
0
0
ENDTAB
0
TABLE
2
LTYPE
5
227
100
AcDbSymbolTable
0
LTYPE
5
14
100
AcDbSymbolTableRecord
100
AcDbLinetypeTableRecord
70
0
2
ByBlock
3

72
65
73
0
40
0
0
LTYPE
5
15
100
AcDbSymbolTableRecord
100
AcDbLinetypeTableRecord
70
0
2
ByLayer
3

72
65
73
0
40
0
0
LTYPE
5
16
100
AcDbSymbolTableRecord
100
AcDbLinetypeTableRecord
70
0
2
CONTINUOUS
3
Solid line
72
65
73
0
40
0
0
LTYPE
5
6A
100
AcDbSymbolTableRecord
100
AcDbLinetypeTableRecord
70
0
2
CENTER
3
____ _ ____ _ ____ _ ____
72
65
73
4
40
47.5
49
22
74
0
49
-8.5
74
0
49
8.5
74
0
49
-8.5
74
0
0
LTYPE
5
6B
100
AcDbSymbolTableRecord
100
AcDbLinetypeTableRecord
70
0
2
DASHED
3
__ __ __ __ __ __ __ __ __
72
65
73
2
40
25.72
49
12.86
74
0
49
-12.86
74
0
0
ENDTAB
0
TABLE
2
LAYER
5
228
100
AcDbSymbolTable
0
LAYER
5
10
100
AcDbSymbolTableRecord
100
AcDbLayerTableRecord
2
0
70
0
62
7
6
CONTINUOUS
290
1
370
-3
390
0
0
LAYER
5
6D
100
AcDbSymbolTableRecord
100
AcDbLayerTableRecord
2
2
70
0
62
7
6
CONTINUOUS
290
1
370
-3
390
0
0
LAYER
5
6F
100
AcDbSymbolTableRecord
100
AcDbLayerTableRecord
2
80
70
0
62
-6
6
CONTINUOUS
290
1
370
-3
390
0
0
LAYER
5
71
100
AcDbSymbolTableRecord
100
AcDbLayerTableRecord
2
81
70
0
62
-3
6
CONTINUOUS
290
1
370
-3
390
0
0
LAYER
5
73
100
AcDbSymbolTableRecord
100
AcDbLayerTableRecord
2
1
70
0
62
4
6
CONTINUOUS
290
1
370
-3
390
0
0
LAYER
5
213
100
AcDbSymbolTableRecord
100
AcDbLayerTableRecord
2
SK1
70
0
62
4
6
CONTINUOUS
290
1
370
-3
390
0
0
LAYER
5
214
100
AcDbSymbolTableRecord
100
AcDbLayerTableRecord
2
SK6
70
0
62
5
6
CONTINUOUS
290
1
370
-3
390
0
0
LAYER
5
215
100
AcDbSymbolTableRecord
100
AcDbLayerTableRecord
2
SK2
70
0
62
7
6
CONTINUOUS
290
1
370
-3
390
0
0
ENDTAB
0
TABLE
2
STYLE
5
229
100
AcDbSymbolTable
0
STYLE
5
11
100
AcDbSymbolTableRecord
100
AcDbTextStyleTableRecord
2
Standard
3
txt
70
0
71
0
40
0
41
1
42
0
50
0
0
STYLE
5
169
100
AcDbSymbolTableRecord
100
AcDbTextStyleTableRecord
2
iso_b_vert
3
simplex.shx
70
0
71
0
40
0
41
1
42
0
50
0
0
STYLE
5
16A
100
AcDbSymbolTableRecord
100
AcDbTextStyleTableRecord
2
DWGDirectTextStyle
3
simplex
70
0
71
0
40
0
41
1
42
0
50
0
0
ENDTAB
0
TABLE
2
DIMSTYLE
5
22a
100
AcDbSymbolTable
100
AcDbDimStyleTable
0
DIMSTYLE
105
27
100
AcDbSymbolTableRecord
100
AcDbDimStyleTableRecord
2
Standard
70
0
3
<>
41
0.18
42
0.0625
44
0.18
140
0.18
147
0.09
73
0
74
0
77
1
271
2
275
0
278
52
280
0
340
11
0
ENDTAB
0
TABLE
2
VIEW
5
22b
100
AcDbSymbolTable
0
ENDTAB
0
TABLE
2
UCS
5
22c
100
AcDbSymbolTable
0
ENDTAB
0
TABLE
2
APPID
5
22d
100
AcDbSymbolTable
0
APPID
5
12
100
AcDbSymbolTableRecord
100
AcDbRegAppTableRecord
2
ACAD
70
0
0
ENDTAB
0
TABLE
2
BLOCK_RECORD
5
22e
100
AcDbSymbolTable
0
BLOCK_RECORD
5
1F
100
AcDbSymbolTableRecord
100
AcDbBlockTableRecord
2
*Model_Space
340
0
70
0
0
BLOCK_RECORD
5
1B
100
AcDbSymbolTableRecord
100
AcDbBlockTableRecord
2
*Paper_Space
340
0
70
0
0
BLOCK_RECORD
5
23
100
AcDbSymbolTableRecord
100
AcDbBlockTableRecord
2
*Paper_Space0
340
0
70
0
0
BLOCK_RECORD
5
16C
100
AcDbSymbolTableRecord
100
AcDbBlockTableRecord
2
DimnDraft3D11
340
0
70
0
0
BLOCK_RECORD
5
17B
100
AcDbSymbolTableRecord
100
AcDbBlockTableRecord
2
DimnDraft3D2
340
0
70
0
0
BLOCK_RECORD
5
189
100
AcDbSymbolTableRecord
100
AcDbBlockTableRecord
2
_CLOSED
340
0
70
0
0
BLOCK_RECORD
5
190
100
AcDbSymbolTableRecord
100
AcDbBlockTableRecord
2
DimnDraft3D3
340
0
70
0
0
BLOCK_RECORD
5
19E
100
AcDbSymbolTableRecord
100
AcDbBlockTableRecord
2
DimnDraft3D4
340
0
70
0
0
BLOCK_RECORD
5
1AC
100
AcDbSymbolTableRecord
100
AcDbBlockTableRecord
2
DimnDraft3D5
340
0
70
0
0
ENDTAB
0
ENDSEC
0
SECTION
2
BLOCKS
0
BLOCK
5
20
100
AcDbEntity
8
0
100
AcDbBlockBegin
2
*Model_Space
70
0
10
0
20
0
30
0
3
*Model_Space
0
ENDBLK
5
21
100
AcDbEntity
8
0
100
AcDbBlockEnd
0
BLOCK
5
1C
100
AcDbEntity
8
0
100
AcDbBlockBegin
2
*Paper_Space
70
0
10
0
20
0
30
0
3
*Paper_Space
0
ENDBLK
5
1D
100
AcDbEntity
8
0
100
AcDbBlockEnd
0
BLOCK
5
24
100
AcDbEntity
8
0
100
AcDbBlockBegin
2
*Paper_Space0
70
0
10
0
20
0
30
0
3
*Paper_Space0
0
ENDBLK
5
25
100
AcDbEntity
8
0
100
AcDbBlockEnd
0
BLOCK
5
16D
100
AcDbEntity
8
0
100
AcDbBlockBegin
2
DimnDraft3D11
70
0
10
0
20
0
30
0
3
DimnDraft3D11
0
LINE
5
16F
100
AcDbEntity
8
SK2
62
256
6
ByLayer
370
25
48
1
60
0
100
AcDbLine
10
25.376414
20
-21.9125
30
0
11
25.376414
21
-60.1625
31
0
39
0
210
0
220
0
230
1
0
LINE
5
171
100
AcDbEntity
8
SK2
62
256
6
ByLayer
370
25
48
1
60
0
100
AcDbLine
10
-125.973586
20
-14.4375
30
0
11
-125.973586
21
-60.1625
31
0
39
0
210
0
220
0
230
1
0
LINE
5
172
100
AcDbEntity
8
SK2
62
256
6
ByLayer
370
25
48
1
60
0
100
AcDbLine
10
25.376414
20
-58.1625
30
0
11
-125.973586
21
-58.1625
31
0
39
0
210
0
220
0
230
1
0
LINE
5
173
100
AcDbEntity
8
SK2
62
256
6
ByLayer
370
25
48
1
60
0
100
AcDbLine
10
25.376414
20
-58.1625
30
0
11
22.201416
21
-58.580497
31
0
39
0
210
0
220
0
230
1
0
LINE
5
174
100
AcDbEntity
8
SK2
62
256
6
ByLayer
370
25
48
1
60
0
100
AcDbLine
10
25.376414
20
-58.1625
30
0
11
22.201413
21
-57.744503
31
0
39
0
210
0
220
0
230
1
0
LINE
5
175
100
AcDbEntity
8
SK2
62
256
6
ByLayer
370
25
48
1
60
0
100
AcDbLine
10
22.201416
20
-58.580497
30
0
11
22.201413
21
-57.744503
31
0
39
0
210
0
220
0
230
1
0
LINE
5
176
100
AcDbEntity
8
SK2
62
256
6
ByLayer
370
25
48
1
60
0
100
AcDbLine
10
-125.973586
20
-58.1625
30
0
11
-122.798587
21
-57.744503
31
0
39
0
210
0
220
0
230
1
0
LINE
5
177
100
AcDbEntity
8
SK2
62
256
6
ByLayer
370
25
48
1
60
0
100
AcDbLine
10
-125.973586
20
-58.1625
30
0
11
-122.798584
21
-58.580497
31
0
39
0
210
0
220
0
230
1
0
LINE
5
178
100
AcDbEntity
8
SK2
62
256
6
ByLayer
370
25
48
1
60
0
100
AcDbLine
10
-122.798587
20
-57.744503
30
0
11
-122.798584
21
-58.580497
31
0
39
0
210
0
220
0
230
1
0
MTEXT
5
179
100
AcDbEntity
8
SK2
62
256
6
ByLayer
370
18
48
1
60
0
100
AcDbMText
10
-55.574244
20
-57.0375
30
0
210
0
220
0
230
1
1
\W0.6864;150.0
40
4.5
41
0
44
1.084337
50
0
71
7
72
5
7
iso_b_vert
0
ENDBLK
5
16E
100
AcDbEntity
8
0
100
AcDbBlockEnd
0
BLOCK
5
186
100
AcDbEntity
8
0
100
AcDbBlockBegin
2
DimnDraft3D2
70
0
10
0
20
0
30
0
3
DimnDraft3D2
0
MTEXT
5
17C
100
AcDbEntity
8
2
62
256
6
ByLayer
370
18
48
1
60
0
100
AcDbMText
10
9.220231
20
-32.499114
30
0
210
0
220
0
230
1
1
\W0.6369;91%%d
40
4.5
41
0
44
1.084337
50
314.5
71
7
72
5
7
iso_b_vert
0
LINE
5
17D
100
AcDbEntity
8
2
62
256
6
ByLayer
370
13
48
1
60
0
100
AcDbLine
10
25.376414
20
-21.9125
30
0
11
25.376414
21
-43.387159
31
0
39
0
210
0
220
0
230
1
0
LINE
5
17E
100
AcDbEntity
8
2
62
256
6
ByLayer
370
13
48
1
60
0
100
AcDbLine
10
21.569268
20
-19.860022
30
0
11
1.919304
21
-19.51703
31
0
39
0
210
0
220
0
230
1
0
ARC
5
17F
100
AcDbEntity
8
2
62
256
6
ByLayer
370
13
48
1
60
0
100
AcDbCircle
39
0
10
25.376414
20
-19.926476
30
0
40
21.4606831971137
210
0
220
0
230
1
100
AcDbArc
50
179
51
270
0
LINE
5
180
100
AcDbEntity
8
2
62
256
6
ByLayer
370
13
48
1
60
0
100
AcDbLine
10
25.376414
20
-41.387159
30
0
11
22.188151
21
-41.68768
31
0
39
0
210
0
220
0
230
1
0
LINE
5
181
100
AcDbEntity
8
2
62
256
6
ByLayer
370
13
48
1
60
0
100
AcDbLine
10
25.376414
20
-41.387159
30
0
11
22.219005
21
-40.852256
31
0
39
0
210
0
220
0
230
1
0
LINE
5
182
100
AcDbEntity
8
2
62
256
6
ByLayer
370
13
48
1
60
0
100
AcDbLine
10
22.188151
20
-41.68768
30
0
11
22.219005
21
-40.852256
31
0
39
0
210
0
220
0
230
1
0
LINE
5
183
100
AcDbEntity
8
2
62
256
6
ByLayer
370
13
48
1
60
0
100
AcDbLine
10
3.918999
20
-19.551935
30
0
11
4.398717
21
-22.718196
31
0
39
0
210
0
220
0
230
1
0
LINE
5
184
100
AcDbEntity
8
2
62
256
6
ByLayer
370
13
48
1
60
0
100
AcDbLine
10
3.918999
20
-19.551935
30
0
11
3.562882
21
-22.734471
31
0
39
0
210
0
220
0
230
1
0
LINE
5
185
100
AcDbEntity
8
2
62
256
6
ByLayer
370
13
48
1
60
0
100
AcDbLine
10
4.398717
20
-22.718196
30
0
11
3.562882
21
-22.734471
31
0
39
0
210
0
220
0
230
1
0
ENDBLK
5
187
100
AcDbEntity
8
0
100
AcDbBlockEnd
0
BLOCK
5
18A
100
AcDbEntity
8
0
100
AcDbBlockBegin
2
_CLOSED
70
0
10
0
20
0
30
0
3
_CLOSED
0
LINE
5
18C
100
AcDbEntity
8
0
62
256
6
ByLayer
370
-2
48
1
60
0
100
AcDbLine
10
-1
20
0.166667
30
0
11
0
21
0
31
0
39
0
210
0
220
0
230
1
0
LINE
5
18D
100
AcDbEntity
8
0
62
256
6
ByLayer
370
-2
48
1
60
0
100
AcDbLine
10
0
20
0
30
0
11
-1
21
-0.166667
31
0
39
0
210
0
220
0
230
1
0
LINE
5
18E
100
AcDbEntity
8
0
62
256
6
ByLayer
370
-2
48
1
60
0
100
AcDbLine
10
-1
20
0.166667
30
0
11
-1
21
-0.166667
31
0
39
0
210
0
220
0
230
1
0
LINE
5
18F
100
AcDbEntity
8
0
62
256
6
ByLayer
370
-2
48
1
60
0
100
AcDbLine
10
0
20
0
30
0
11
-1
21
0
31
0
39
0
210
0
220
0
230
1
0
ENDBLK
5
18B
100
AcDbEntity
8
0
100
AcDbBlockEnd
0
BLOCK
5
19B
100
AcDbEntity
8
0
100
AcDbBlockBegin
2
DimnDraft3D3
70
0
10
0
20
0
30
0
3
DimnDraft3D3
0
MTEXT
5
191
100
AcDbEntity
8
2
62
256
6
ByLayer
370
18
48
1
60
0
100
AcDbMText
10
8.294786
20
-47.0375
30
0
210
0
220
0
230
1
1
\W0.7528;25.4
40
4.5
41
0
44
1.084337
50
0
71
7
72
5
7
iso_b_vert
0
LINE
5
192
100
AcDbEntity
8
2
62
256
6
ByLayer
370
13
48
1
60
0
100
AcDbLine
10
0
20
-14.4375
30
0
11
0
21
-50.1625
31
0
39
0
210
0
220
0
230
1
0
LINE
5
193
100
AcDbEntity
8
2
62
256
6
ByLayer
370
13
48
1
60
0
100
AcDbLine
10
25.376414
20
-21.9125
30
0
11
25.376414
21
-50.1625
31
0
39
0
210
0
220
0
230
1
0
LINE
5
194
100
AcDbEntity
8
2
62
256
6
ByLayer
370
13
48
1
60
0
100
AcDbLine
10
0
20
-48.1625
30
0
11
25.376414
21
-48.1625
31
0
39
0
210
0
220
0
230
1
0
LINE
5
195
100
AcDbEntity
8
2
62
256
6
ByLayer
370
13
48
1
60
0
100
AcDbLine
10
0
20
-48.1625
30
0
11
3.174998
21
-47.744503
31
0
39
0
210
0
220
0
230
1
0
LINE
5
196
100
AcDbEntity
8
2
62
256
6
ByLayer
370
13
48
1
60
0
100
AcDbLine
10
0
20
-48.1625
30
0
11
3.175002
21
-48.580497
31
0
39
0
210
0
220
0
230
1
0
LINE
5
197
100
AcDbEntity
8
2
62
256
6
ByLayer
370
13
48
1
60
0
100
AcDbLine
10
3.174998
20
-47.744503
30
0
11
3.175002
21
-48.580497
31
0
39
0
210
0
220
0
230
1
0
LINE
5
198
100
AcDbEntity
8
2
62
256
6
ByLayer
370
13
48
1
60
0
100
AcDbLine
10
25.376414
20
-48.1625
30
0
11
22.201416
21
-48.580497
31
0
39
0
210
0
220
0
230
1
0
LINE
5
199
100
AcDbEntity
8
2
62
256
6
ByLayer
370
13
48
1
60
0
100
AcDbLine
10
25.376414
20
-48.1625
30
0
11
22.201413
21
-47.744503
31
0
39
0
210
0
220
0
230
1
0
LINE
5
19A
100
AcDbEntity
8
2
62
256
6
ByLayer
370
13
48
1
60
0
100
AcDbLine
10
22.201416
20
-48.580497
30
0
11
22.201413
21
-47.744503
31
0
39
0
210
0
220
0
230
1
0
ENDBLK
5
19C
100
AcDbEntity
8
0
100
AcDbBlockEnd
0
BLOCK
5
1A9
100
AcDbEntity
8
0
100
AcDbBlockBegin
2
DimnDraft3D4
70
0
10
0
20
0
30
0
3
DimnDraft3D4
0
MTEXT
5
19F
100
AcDbEntity
8
2
62
256
6
ByLayer
370
18
48
1
60
0
100
AcDbMText
10
46.501414
20
-7.894079
30
0
210
0
220
0
230
1
1
\W0.7346;32.0
40
4.5
41
0
44
1.084337
50
90
71
7
72
5
7
iso_b_vert
0
LINE
5
1A0
100
AcDbEntity
8
2
62
256
6
ByLayer
370
13
48
1
60
0
100
AcDbLine
10
2
20
12.4375
30
0
11
49.626414
21
12.4375
31
0
39
0
210
0
220
0
230
1
0
LINE
5
1A1
100
AcDbEntity
8
2
62
256
6
ByLayer
370
13
48
1
60
0
100
AcDbLine
10
27.376414
20
-19.9125
30
0
11
49.626414
21
-19.9125
31
0
39
0
210
0
220
0
230
1
0
LINE
5
1A2
100
AcDbEntity
8
2
62
256
6
ByLayer
370
13
48
1
60
0
100
AcDbLine
10
47.626414
20
12.4375
30
0
11
47.626414
21
-19.9125
31
0
39
0
210
0
220
0
230
1
0
LINE
5
1A3
100
AcDbEntity
8
2
62
256
6
ByLayer
370
13
48
1
60
0
100
AcDbLine
10
47.626414
20
12.4375
30
0
11
48.044411
21
9.262502
31
0
39
0
210
0
220
0
230
1
0
LINE
5
1A4
100
AcDbEntity
8
2
62
256
6
ByLayer
370
13
48
1
60
0
100
AcDbLine
10
47.626414
20
12.4375
30
0
11
47.208417
21
9.262498
31
0
39
0
210
0
220
0
230
1
0
LINE
5
1A5
100
AcDbEntity
8
2
62
256
6
ByLayer
370
13
48
1
60
0
100
AcDbLine
10
48.044411
20
9.262502
30
0
11
47.208417
21
9.262498
31
0
39
0
210
0
220
0
230
1
0
LINE
5
1A6
100
AcDbEntity
8
2
62
256
6
ByLayer
370
13
48
1
60
0
100
AcDbLine
10
47.626414
20
-19.9125
30
0
11
47.208417
21
-16.737502
31
0
39
0
210
0
220
0
230
1
0
LINE
5
1A7
100
AcDbEntity
8
2
62
256
6
ByLayer
370
13
48
1
60
0
100
AcDbLine
10
47.626414
20
-19.9125
30
0
11
48.044411
21
-16.737498
31
0
39
0
210
0
220
0
230
1
0
LINE
5
1A8
100
AcDbEntity
8
2
62
256
6
ByLayer
370
13
48
1
60
0
100
AcDbLine
10
47.208417
20
-16.737502
30
0
11
48.044411
21
-16.737498
31
0
39
0
210
0
220
0
230
1
0
ENDBLK
5
1AA
100
AcDbEntity
8
0
100
AcDbBlockEnd
0
BLOCK
5
1B7
100
AcDbEntity
8
0
100
AcDbBlockBegin
2
DimnDraft3D5
70
0
10
0
20
0
30
0
3
DimnDraft3D5
0
MTEXT
5
1AD
100
AcDbEntity
8
SK2
62
256
6
ByLayer
370
18
48
1
60
0
100
AcDbMText
10
-134.848586
20
-4.156579
30
0
210
0
220
0
230
1
1
\W0.7346;25.0
40
4.5
41
0
44
1.084337
50
90
71
7
72
5
7
iso_b_vert
0
LINE
5
1AE
100
AcDbEntity
8
SK2
62
256
6
ByLayer
370
13
48
1
60
0
100
AcDbLine
10
-127.973586
20
12.4375
30
0
11
-135.723586
21
12.4375
31
0
39
0
210
0
220
0
230
1
0
LINE
5
1AF
100
AcDbEntity
8
SK2
62
256
6
ByLayer
370
13
48
1
60
0
100
AcDbLine
10
-127.973586
20
-12.4375
30
0
11
-135.723586
21
-12.4375
31
0
39
0
210
0
220
0
230
1
0
LINE
5
1B0
100
AcDbEntity
8
SK2
62
256
6
ByLayer
370
13
48
1
60
0
100
AcDbLine
10
-133.723586
20
12.4375
30
0
11
-133.723586
21
-12.4375
31
0
39
0
210
0
220
0
230
1
0
LINE
5
1B1
100
AcDbEntity
8
SK2
62
256
6
ByLayer
370
13
48
1
60
0
100
AcDbLine
10
-133.723586
20
12.4375
30
0
11
-133.305589
21
9.262502
31
0
39
0
210
0
220
0
230
1
0
LINE
5
1B2
100
AcDbEntity
8
SK2
62
256
6
ByLayer
370
13
48
1
60
0
100
AcDbLine
10
-133.723586
20
12.4375
30
0
11
-134.141583
21
9.262498
31
0
39
0
210
0
220
0
230
1
0
LINE
5
1B3
100
AcDbEntity
8
SK2
62
256
6
ByLayer
370
13
48
1
60
0
100
AcDbLine
10
-133.305589
20
9.262502
30
0
11
-134.141583
21
9.262498
31
0
39
0
210
0
220
0
230
1
0
LINE
5
1B4
100
AcDbEntity
8
SK2
62
256
6
ByLayer
370
13
48
1
60
0
100
AcDbLine
10
-133.723586
20
-12.4375
30
0
11
-134.141583
21
-9.262502
31
0
39
0
210
0
220
0
230
1
0
LINE
5
1B5
100
AcDbEntity
8
SK2
62
256
6
ByLayer
370
13
48
1
60
0
100
AcDbLine
10
-133.723586
20
-12.4375
30
0
11
-133.305589
21
-9.262498
31
0
39
0
210
0
220
0
230
1
0
LINE
5
1B6
100
AcDbEntity
8
SK2
62
256
6
ByLayer
370
13
48
1
60
0
100
AcDbLine
10
-134.141583
20
-9.262502
30
0
11
-133.305589
21
-9.262498
31
0
39
0
210
0
220
0
230
1
0
ENDBLK
5
1B8
100
AcDbEntity
8
0
100
AcDbBlockEnd
0
ENDSEC
0
SECTION
2
ENTITIES
0
ELLIPSE
5
D6
100
AcDbEntity
8
1
62
256
6
ByLayer
370
18
48
1
60
0
100
AcDbEllipse
10
10.747504
20
-5.975168
30
0
11
-0.208608542098208
21
-0.20145092743311
31
0
210
0
220
0
230
1
40
0.989133
41
2.69101284290193
42
2.78834531482254
0
ELLIPSE
5
D7
100
AcDbEntity
8
1
62
256
6
ByLayer
370
18
48
1
60
0
100
AcDbEllipse
10
9.745598
20
-7.139865
30
0
11
0.226592037106663
21
0.218817386694597
31
0
210
0
220
0
230
1
40
0.989133
41
-9.53575872504758E-07
42
0.334933638524999
0
ELLIPSE
5
D8
100
AcDbEntity
8
1
62
256
6
ByLayer
370
18
48
1
60
0
100
AcDbEllipse
10
11.320302
20
-5.78431
30
0
11
0.226592037106663
21
0.218817386694597
31
0
210
0
220
0
230
1
40
0.989133
41
2.69101284290198
42
3.14158319757523
0
ELLIPSE
5
D9
100
AcDbEntity
8
1
62
256
6
ByLayer
370
18
48
1
60
0
100
AcDbEllipse
10
10.883727
20
-6.87523
30
0
11
0.647405820304752
21
0.625192533413133
31
0
210
0
220
0
230
1
40
0.989133
41
-3.11276806385254
42
-0.0289017698918372
0
ELLIPSE
5
DA
100
AcDbEntity
8
1
62
256
6
ByLayer
370
18
48
1
60
0
100
AcDbEllipse
10
10.919473
20
-6.912246
30
0
11
0.647405820304752
21
0.625192533413133
31
0
210
0
220
0
230
1
40
0.989133
41
0.559267714610484
42
1.17333872682102
0
ELLIPSE
5
DB
100
AcDbEntity
8
1
62
256
6
ByLayer
370
18
48
1
60
0
100
AcDbEllipse
10
10.919473
20
-6.912246
30
0
11
0.647405820304752
21
0.625192533413133
31
0
210
0
220
0
230
1
40
0.989133
41
-0.487929836586119
42
0.10331935298129
0
ELLIPSE
5
DC
100
AcDbEntity
8
1
62
256
6
ByLayer
370
18
48
1
60
0
100
AcDbEllipse
10
10.919473
20
-6.912246
30
0
11
0.647405820304752
21
0.625192533413133
31
0
210
0
220
0
230
1
40
0.989133
41
2.95593336389875
42
-2.76930898916643
0
ELLIPSE
5
DD
100
AcDbEntity
8
1
62
256
6
ByLayer
370
18
48
1
60
0
100
AcDbEllipse
10
10.919473
20
-6.912246
30
0
11
0.647405820304752
21
0.625192533413133
31
0
210
0
220
0
230
1
40
0.989133
41
1.83315882397807
42
2.44016055196181
0
ELLIPSE
5
DE
100
AcDbEntity
8
1
62
256
6
ByLayer
370
18
48
1
60
0
100
AcDbEllipse
10
10.191941
20
-7.538529
30
0
11
-0.208608542098208
21
-0.20145092743311
31
0
210
0
220
0
230
1
40
0.989133
41
0.353238143606378
42
1.38213118972171
0
ELLIPSE
5
DF
100
AcDbEntity
8
1
62
256
6
ByLayer
370
18
48
1
60
0
100
AcDbEllipse
10
10.842875
20
-6.832925
30
0
11
2.30188736108356
21
2.22290678546892
31
0
210
0
220
0
230
1
40
0.989133
41
0.808310282001069
42
3.14155436762425
0
ELLIPSE
5
E0
100
AcDbEntity
8
1
62
256
6
ByLayer
370
18
48
1
60
0
100
AcDbEllipse
10
10.842875
20
-6.832925
30
0
11
2.30188736108356
21
2.22290678546892
31
0
210
0
220
0
230
1
40
0.989133
41
-0.751566426032012
42
-2.80605091687659E-16
0
ELLIPSE
5
E1
100
AcDbEntity
8
1
62
256
6
ByLayer
370
18
48
1
60
0
100
AcDbEllipse
10
10.842875
20
-6.832925
30
0
11
2.30188736108356
21
2.22290678546892
31
0
210
0
220
0
230
1
40
0.989133
41
5.99112529115298E-05
42
0.808310282001067
0
ELLIPSE
5
E2
100
AcDbEntity
8
1
62
256
6
ByLayer
370
18
48
1
60
0
100
AcDbEllipse
10
11.647006
20
-6.285963
30
0
11
-0.208608542098208
21
-0.20145092743311
31
0
210
0
220
0
230
1
40
0.989133
41
1.6438152917053
42
2.78835510516427
0
ELLIPSE
5
E3
100
AcDbEntity
8
1
62
256
6
ByLayer
370
18
48
1
60
0
100
AcDbEllipse
10
10.518645
20
-8.040182
30
0
11
0.226592037106663
21
0.218817386694597
31
0
210
0
220
0
230
1
40
0.989133
41
-1.01994184055309E-05
42
0.195776035703107
0
ELLIPSE
5
E4
100
AcDbEntity
8
1
62
256
6
ByLayer
370
18
48
1
60
0
100
AcDbEllipse
10
12.093349
20
-6.684627
30
0
11
0.226592037106663
21
0.218817386694597
31
0
210
0
220
0
230
1
40
0.989133
41
2.83017044572382
42
-3.14159241313842
0
ELLIPSE
5
E5
100
AcDbEntity
8
1
62
256
6
ByLayer
370
18
48
1
60
0
100
AcDbEllipse
10
11.091443
20
-7.849323
30
0
11
-0.208608542098208
21
-0.20145092743311
31
0
210
0
220
0
230
1
40
0.989133
41
0.353276286586934
42
2.42932874091834
0
ELLIPSE
5
E6
100
AcDbEntity
8
1
62
256
6
ByLayer
370
18
48
1
60
0
100
AcDbEllipse
10
11.818975
20
-7.22304
30
0
11
-0.208608542098208
21
-0.20145092743311
31
0
210
0
220
0
230
1
40
0.989133
41
0.596617740508729
42
2.7888123308057
0
ELLIPSE
5
E7
100
AcDbEntity
8
1
62
256
6
ByLayer
370
18
48
1
60
0
100
AcDbEllipse
10
17.601307
20
-6.663295
30
0
11
0.571155801468859
21
0.551558746144475
31
0
210
0
220
0
230
1
40
0.989133
41
1.37350153703034E-06
42
1.61284869072866
0
ELLIPSE
5
E8
100
AcDbEntity
8
1
62
256
6
ByLayer
370
18
48
1
60
0
100
AcDbEllipse
10
17.863447
20
-15.057999
30
0
11
1.37034231964506
21
1.32332419572447
31
0
210
0
220
0
230
1
40
0.989133
41
-3.10196863056458
42
-0.156332814719096
0
ELLIPSE
5
E9
100
AcDbEntity
8
1
62
256
6
ByLayer
370
18
48
1
60
0
100
AcDbEllipse
10
10.430348
20
-18.380916
30
0
11
0.571155801468859
21
0.551558746144475
31
0
210
0
220
0
230
1
40
0.989133
41
1.8271325060725
42
3.14156164904429
0
ELLIPSE
5
EA
100
AcDbEntity
8
1
62
256
6
ByLayer
370
18
48
1
60
0
100
AcDbEllipse
10
11.822543
20
0.009014
30
0
11
-2.17077636444839
21
-2.07068345614491
31
0
210
0
220
0
230
1
40
0.986421
41
-0.0517566673072193
42
-0.020140599501633
0
ELLIPSE
5
EB
100
AcDbEntity
8
1
62
256
6
ByLayer
370
18
48
1
60
0
100
AcDbEllipse
10
11.283518
20
-7.346393
30
0
11
-2.42403360696737
21
-2.31226319269515
31
0
210
0
220
0
230
1
40
0.986421
41
0.067182168203841
42
3.08983598628257
0
ELLIPSE
5
EC
100
AcDbEntity
8
1
62
256
6
ByLayer
370
18
48
1
60
0
100
AcDbEllipse
10
18.00285
20
-7.760312
30
0
11
1.70410018881692
21
1.64563042348729
31
0
210
0
220
0
230
1
40
0.989133
41
0.77775329331092
42
1.33165515689149
0
ELLIPSE
5
ED
100
AcDbEntity
8
1
62
256
6
ByLayer
370
18
48
1
60
0
100
AcDbEllipse
10
17.067027
20
-6.589217
30
0
11
1.79709395938966
21
1.73543346385638
31
0
210
0
220
0
230
1
40
0.989133
41
-0.79304303348398
42
-0.418898835881281
0
ELLIPSE
5
EE
100
AcDbEntity
8
1
62
256
6
ByLayer
370
18
48
1
60
0
100
AcDbEllipse
10
17.051707
20
-6.573353
30
0
11
1.68919298933886
21
1.63123470828752
31
0
210
0
220
0
230
1
40
0.989133
41
-0.793043033483978
42
-0.351084803212914
0
ELLIPSE
5
EF
100
AcDbEntity
8
1
62
256
6
ByLayer
370
18
48
1
60
0
100
AcDbEllipse
10
16.966128
20
-6.817412
30
0
11
0.856463949778189
21
0.827077622327818
31
0
210
0
220
0
230
1
40
0.989133
41
0.142125932998543
42
0.769593548975479
0
ELLIPSE
5
F0
100
AcDbEntity
8
1
62
256
6
ByLayer
370
18
48
1
60
0
100
AcDbEllipse
10
10.511858
20
-17.363936
30
0
11
-0.856463949778236
21
-0.82707762232778
31
0
210
0
220
0
230
1
40
0.989133
41
-0.399602483995037
42
-3.07753885259263E-05
0
ELLIPSE
5
F1
100
AcDbEntity
8
1
62
256
6
ByLayer
370
18
48
1
60
0
100
AcDbEllipse
10
7.422943
20
-6.259789
30
0
11
2.93580645579006
21
-3.41043112438023
31
0
210
0
220
0
230
1
40
0.008497
41
1.94288547246096
42
2.38176204128991
0
ELLIPSE
5
F2
100
AcDbEntity
8
1
62
256
6
ByLayer
370
18
48
1
60
0
100
AcDbEllipse
10
6.85744
20
-6.813662
30
0
11
-3.61172931697273
21
0.909968921775033
31
0
210
0
220
0
230
1
40
0.460545
41
0.286624782435656
42
0.578248646010596
0
ELLIPSE
5
F3
100
AcDbEntity
8
1
62
256
6
ByLayer
370
18
48
1
60
0
100
AcDbEllipse
10
10.757466
20
-3.389327
30
0
11
2.93580645579006
21
-3.41043112438023
31
0
210
0
220
0
230
1
40
0.008497
41
1.94288547246096
42
2.38176204128992
0
ELLIPSE
5
F4
100
AcDbEntity
8
1
62
256
6
ByLayer
370
18
48
1
60
0
100
AcDbEllipse
10
5.312962
20
-5.148262
30
0
11
0.646332246737712
21
1.67995673361756
31
0
210
0
220
0
230
1
40
0.78494
41
1.16685001526801
42
2.59707982171682
0
ELLIPSE
5
F5
100
AcDbEntity
8
1
62
256
6
ByLayer
370
18
48
1
60
0
100
AcDbEllipse
10
0.613072
20
-3.452543
30
0
11
3.91440860772008
21
-4.54724149917364
31
0
210
0
220
0
230
1
40
0.008497
41
-0.812430626025418
42
-0.810541504948295
0
ELLIPSE
5
F6
100
AcDbEntity
8
1
62
256
6
ByLayer
370
18
48
1
60
0
100
AcDbEllipse
10
18.092617
20
-15.302383
30
0
11
-0.704584371051255
21
-1.53131921222118
31
0
210
0
220
0
230
1
40
0.826259
41
1.20144493868808
42
1.48252862366834
0
ELLIPSE
5
F7
100
AcDbEntity
8
1
62
256
6
ByLayer
370
18
48
1
60
0
100
AcDbEllipse
10
9.991963
20
-1.120431
30
0
11
1.74960065820333
21
0.422962807838336
31
0
210
0
220
0
230
1
40
0.789807
41
0.520101998968099
42
1.95033180541691
0
ELLIPSE
5
F8
100
AcDbEntity
8
1
62
256
6
ByLayer
370
18
48
1
60
0
100
AcDbEllipse
10
11.480302
20
-2.834157
30
0
11
-0.482988758469568
21
3.63699153811605
31
0
210
0
220
0
230
1
40
0.450788
41
-0.605251230381105
42
-0.313627366869064
0
ELLIPSE
5
F9
100
AcDbEntity
8
1
62
256
6
ByLayer
370
18
48
1
60
0
100
AcDbEllipse
10
6.448509
20
-7.098613
30
0
11
-3.04034406511221
21
3.32032358924427
31
0
210
0
220
0
230
1
40
0.206199
41
-0.612498095407049
42
-0.550849920733836
0
ELLIPSE
5
FA
100
AcDbEntity
8
1
62
256
6
ByLayer
370
18
48
1
60
0
100
AcDbEllipse
10
5.212578
20
-8.272815
30
0
11
-1.87420939809553
21
1.94860221451096
31
0
210
0
220
0
230
1
40
0.337398
41
-0.624812356274586
42
0.116678527452737
0
ELLIPSE
5
FB
100
AcDbEntity
8
1
62
256
6
ByLayer
370
18
48
1
60
0
100
AcDbEllipse
10
18.092617
20
-15.302383
30
0
11
-1.60118247755907
21
-0.562190561432828
31
0
210
0
220
0
230
1
40
0.828245
41
1.59515298394152
42
1.87623666900534
0
ELLIPSE
5
FC
100
AcDbEntity
8
1
62
256
6
ByLayer
370
18
48
1
60
0
100
AcDbEllipse
10
13.084131
20
-1.496734
30
0
11
-1.6495890855931
21
2.1420368188512
31
0
210
0
220
0
230
1
40
0.320461
41
-0.117834440468763
42
0.623656443261859
0
ELLIPSE
5
FD
100
AcDbEntity
8
1
62
256
6
ByLayer
370
18
48
1
60
0
100
AcDbEllipse
10
11.731899
20
-2.550502
30
0
11
-2.83188920581275
21
3.49978596092527
31
0
210
0
220
0
230
1
40
0.189222
41
0.5502889182561
42
0.611937106769752
0
ELLIPSE
5
FE
100
AcDbEntity
8
1
62
256
6
ByLayer
370
18
48
1
60
0
100
AcDbEllipse
10
9.577602
20
-0.756623
30
0
11
-1.57552893492459
21
-1.94130821477881
31
0
210
0
220
0
230
1
40
0.996407
41
-2.86350485713008
42
-1.74971046101774
0
ELLIPSE
5
FF
100
AcDbEntity
8
1
62
256
6
ByLayer
370
18
48
1
60
0
100
AcDbEllipse
10
4.95474
20
-4.736128
30
0
11
-1.57552893460083
21
-1.94130821504168
31
0
210
0
220
0
230
1
40
0.996407
41
-1.74971046118531
42
-0.635916065072794
0
ELLIPSE
5
100
100
AcDbEntity
8
1
62
256
6
ByLayer
370
18
48
1
60
0
100
AcDbEllipse
10
10.329819
20
-7.681305
30
0
11
-0.208608542098208
21
-0.20145092743311
31
0
210
0
220
0
230
1
40
0.989133
41
-1.49777736188435
42
1.38213118972162
0
ELLIPSE
5
101
100
AcDbEntity
8
1
62
256
6
ByLayer
370
18
48
1
60
0
100
AcDbEllipse
10
11.057351
20
-7.055023
30
0
11
-1.36674562064343
21
-1.3198509038721
31
0
210
0
220
0
230
1
40
0.989133
41
0
42
6.28318530717959
0
ELLIPSE
5
102
100
AcDbEntity
8
1
62
256
6
ByLayer
370
18
48
1
60
0
100
AcDbEllipse
10
11.052929
20
-7.050443
30
0
11
0.647405820304752
21
0.625192533413133
31
0
210
0
220
0
230
1
40
0.989133
41
-1.72211143796979
42
-1.53512738778273
0
ELLIPSE
5
103
100
AcDbEntity
8
1
62
256
6
ByLayer
370
18
48
1
60
0
100
AcDbEllipse
10
11.784884
20
-6.42874
30
0
11
-0.208608542098208
21
-0.20145092743311
31
0
210
0
220
0
230
1
40
0.989133
41
1.64381529170539
42
-1.75946146386824
0
ELLIPSE
5
104
100
AcDbEntity
8
1
62
256
6
ByLayer
370
18
48
1
60
0
100
AcDbEllipse
10
11.057351
20
-7.055023
30
0
11
0.665389315313217
21
0.642558992674609
31
0
210
0
220
0
230
1
40
0.989133
41
-1.77516444366441
42
-1.48207438208806
0
ELLIPSE
5
105
100
AcDbEntity
8
1
62
256
6
ByLayer
370
18
48
1
60
0
100
AcDbEllipse
10
11.057351
20
-7.055023
30
0
11
0.665389315313217
21
0.642558992674609
31
0
210
0
220
0
230
1
40
0.989133
41
-0.727966892467829
42
-0.434876830891468
0
ELLIPSE
5
106
100
AcDbEntity
8
1
62
256
6
ByLayer
370
18
48
1
60
0
100
AcDbEllipse
10
11.052929
20
-7.050443
30
0
11
0.647405820304752
21
0.625192533413133
31
0
210
0
220
0
230
1
40
0.989133
41
1.41948121561999
42
1.60646526580705
0
ELLIPSE
5
107
100
AcDbEntity
8
1
62
256
6
ByLayer
370
18
48
1
60
0
100
AcDbEllipse
10
10.919473
20
-6.912246
30
0
11
0.647405820304752
21
0.625192533413133
31
0
210
0
220
0
230
1
40
0.989133
41
-2.5823249389793
42
-1.72211143796982
0
ELLIPSE
5
108
100
AcDbEntity
8
1
62
256
6
ByLayer
370
18
48
1
60
0
100
AcDbEllipse
10
10.885382
20
-6.117945
30
0
11
-0.208608542098208
21
-0.20145092743311
31
0
210
0
220
0
230
1
40
0.989133
41
2.69101284290195
42
-0.712263912671596
0
ELLIPSE
5
109
100
AcDbEntity
8
1
62
256
6
ByLayer
370
18
48
1
60
0
100
AcDbEllipse
10
11.45818
20
-5.927087
30
0
11
0.226592037106663
21
0.218817386694597
31
0
210
0
220
0
230
1
40
0.989133
41
-2.23266173163328
42
-1.75946146386806
0
ELLIPSE
5
10A
100
AcDbEntity
8
1
62
256
6
ByLayer
370
18
48
1
60
0
100
AcDbEllipse
10
11.057351
20
-7.055023
30
0
11
0.665389315313217
21
0.642558992674609
31
0
210
0
220
0
230
1
40
0.989133
41
-2.82236199486103
42
-2.52927193328466
0
ELLIPSE
5
10B
100
AcDbEntity
8
1
62
256
6
ByLayer
370
18
48
1
60
0
100
AcDbEllipse
10
11.830398
20
-7.95534
30
0
11
0.226592037106663
21
0.218817386694597
31
0
210
0
220
0
230
1
40
0.989133
41
0.596617740508845
42
1.06981800827399
0
ELLIPSE
5
10C
100
AcDbEntity
8
1
62
256
6
ByLayer
370
18
48
1
60
0
100
AcDbEllipse
10
11.057351
20
-7.055023
30
0
11
0.665389315313217
21
0.642558992674609
31
0
210
0
220
0
230
1
40
0.989133
41
2.41362576112196
42
2.70671582269831
0
ELLIPSE
5
10D
100
AcDbEntity
8
1
62
256
6
ByLayer
370
18
48
1
60
0
100
AcDbEllipse
10
11.229321
20
-7.9921
30
0
11
-0.208608542098208
21
-0.20145092743311
31
0
210
0
220
0
230
1
40
0.989133
41
-0.450579810687801
42
2.42932874091827
0
ELLIPSE
5
10E
100
AcDbEntity
8
1
62
256
6
ByLayer
370
18
48
1
60
0
100
AcDbEllipse
10
10.284304
20
-6.154706
30
0
11
0.226592037106663
21
0.218817386694597
31
0
210
0
220
0
230
1
40
0.989133
41
-2.54497491308103
42
-2.07177464531586
0
ELLIPSE
5
10F
100
AcDbEntity
8
1
62
256
6
ByLayer
370
18
48
1
60
0
100
AcDbEllipse
10
9.883476
20
-7.282642
30
0
11
0.226592037106663
21
0.218817386694597
31
0
210
0
220
0
230
1
40
0.989133
41
-1.4977773618845
42
-1.02457709411926
0
ELLIPSE
5
110
100
AcDbEntity
8
1
62
256
6
ByLayer
370
18
48
1
60
0
100
AcDbEllipse
10
10.919473
20
-6.912246
30
0
11
0.647405820304752
21
0.625192533413133
31
0
210
0
220
0
230
1
40
0.989133
41
-1.53512738778273
42
-0.674913886773214
0
ELLIPSE
5
111
100
AcDbEntity
8
1
62
256
6
ByLayer
370
18
48
1
60
0
100
AcDbEllipse
10
10.284304
20
-6.154706
30
0
11
0.226592037106663
21
0.218817386694597
31
0
210
0
220
0
230
1
40
0.989133
41
-1.18546418043678
42
-0.7122639126715
0
ELLIPSE
5
112
100
AcDbEntity
8
1
62
256
6
ByLayer
370
18
48
1
60
0
100
AcDbEllipse
10
11.45818
20
-5.927087
30
0
11
0.226592037106663
21
0.218817386694597
31
0
210
0
220
0
230
1
40
0.989133
41
2.69101284290194
42
-3.11897219651235
0
ELLIPSE
5
113
100
AcDbEntity
8
1
62
256
6
ByLayer
370
18
48
1
60
0
100
AcDbEllipse
10
10.518645
20
-8.040182
30
0
11
0.226592037106663
21
0.218817386694597
31
0
210
0
220
0
230
1
40
0.989133
41
0.735775343330636
42
1.38213118972159
0
ELLIPSE
5
114
100
AcDbEntity
8
1
62
256
6
ByLayer
370
18
48
1
60
0
100
AcDbEllipse
10
9.883476
20
-7.282642
30
0
11
0.226592037106663
21
0.218817386694597
31
0
210
0
220
0
230
1
40
0.989133
41
-0.13826662924013
42
0.334933638525102
0
ELLIPSE
5
115
100
AcDbEntity
8
1
62
256
6
ByLayer
370
18
48
1
60
0
100
AcDbEllipse
10
11.956853
20
-7.365817
30
0
11
-0.208608542098208
21
-0.20145092743311
31
0
210
0
220
0
230
1
40
0.989133
41
0.5966177405087
42
-2.80665901506471
0
ELLIPSE
5
116
100
AcDbEntity
8
1
62
256
6
ByLayer
370
18
48
1
60
0
100
AcDbEllipse
10
11.69252
20
-7.812563
30
0
11
0.226592037106663
21
0.218817386694597
31
0
210
0
220
0
230
1
40
0.989133
41
0.596617740508671
42
1.24297358689973
0
ELLIPSE
5
117
100
AcDbEntity
8
1
62
256
6
ByLayer
370
18
48
1
60
0
100
AcDbEllipse
10
12.231227
20
-6.827404
30
0
11
0.226592037106663
21
0.218817386694597
31
0
210
0
220
0
230
1
40
0.989133
41
1.64381529170542
42
2.11701555947055
0
ELLIPSE
5
118
100
AcDbEntity
8
1
62
256
6
ByLayer
370
18
48
1
60
0
100
AcDbEllipse
10
11.052929
20
-7.050443
30
0
11
0.647405820304752
21
0.625192533413133
31
0
210
0
220
0
230
1
40
0.989133
41
0.372283664423373
42
0.559267714610484
0
ELLIPSE
5
119
100
AcDbEntity
8
1
62
256
6
ByLayer
370
18
48
1
60
0
100
AcDbEllipse
10
12.093349
20
-6.684627
30
0
11
0.226592037106663
21
0.218817386694597
31
0
210
0
220
0
230
1
40
0.989133
41
1.64381529170533
42
2.29017113809635
0
ELLIPSE
5
11A
100
AcDbEntity
8
1
62
256
6
ByLayer
370
18
48
1
60
0
100
AcDbEllipse
10
11.052929
20
-7.050443
30
0
11
0.647405820304752
21
0.625192533413133
31
0
210
0
220
0
230
1
40
0.989133
41
2.46667876680687
42
2.65366281700388
0
ELLIPSE
5
11B
100
AcDbEntity
8
1
62
256
6
ByLayer
370
18
48
1
60
0
100
AcDbEllipse
10
11.057351
20
-7.055023
30
0
11
0.665389315313217
21
0.642558992674609
31
0
210
0
220
0
230
1
40
0.989133
41
0.319230658728729
42
0.612320720305097
0
ELLIPSE
5
11C
100
AcDbEntity
8
1
62
256
6
ByLayer
370
18
48
1
60
0
100
AcDbEllipse
10
11.057351
20
-7.055023
30
0
11
0.665389315313217
21
0.642558992674609
31
0
210
0
220
0
230
1
40
0.989133
41
1.36642820992534
42
1.6595182715017
0
ELLIPSE
5
11D
100
AcDbEntity
8
1
62
256
6
ByLayer
370
18
48
1
60
0
100
AcDbEllipse
10
11.012518
20
-7.008596
30
0
11
-2.30188736108367
21
-2.22290678546881
31
0
210
0
220
0
230
1
40
0.989133
41
0
42
6.28318530717959
0
ELLIPSE
5
11E
100
AcDbEntity
8
1
62
256
6
ByLayer
370
18
48
1
60
0
100
AcDbEllipse
10
11.052929
20
-7.050443
30
0
11
0.647405820304752
21
0.625192533413133
31
0
210
0
220
0
230
1
40
0.989133
41
-0.674913886782957
42
-0.487929836585967
0
ELLIPSE
5
11F
100
AcDbEntity
8
1
62
256
6
ByLayer
370
18
48
1
60
0
100
AcDbEllipse
10
11.69252
20
-7.812563
30
0
11
0.226592037106663
21
0.218817386694597
31
0
210
0
220
0
230
1
40
0.989133
41
1.78297289452716
42
2.42932874091824
0
ELLIPSE
5
120
100
AcDbEntity
8
1
62
256
6
ByLayer
370
18
48
1
60
0
100
AcDbEllipse
10
11.830398
20
-7.95534
30
0
11
0.226592037106663
21
0.218817386694597
31
0
210
0
220
0
230
1
40
0.989133
41
1.95612847315304
42
2.42932874091833
0
ELLIPSE
5
121
100
AcDbEntity
8
1
62
256
6
ByLayer
370
18
48
1
60
0
100
AcDbEllipse
10
12.231227
20
-6.827404
30
0
11
0.226592037106663
21
0.218817386694597
31
0
210
0
220
0
230
1
40
0.989133
41
3.00332602434958
42
-2.80665901506482
0
ELLIPSE
5
122
100
AcDbEntity
8
1
62
256
6
ByLayer
370
18
48
1
60
0
100
AcDbEllipse
10
10.656523
20
-8.182959
30
0
11
0.226592037106663
21
0.218817386694597
31
0
210
0
220
0
230
1
40
0.989133
41
0.908930921956411
42
1.38213118972164
0
ELLIPSE
5
123
100
AcDbEntity
8
1
62
256
6
ByLayer
370
18
48
1
60
0
100
AcDbEllipse
10
10.15785
20
-6.744228
30
0
11
-0.208608542098208
21
-0.20145092743311
31
0
210
0
220
0
230
1
40
0.989133
41
-2.544974913081
42
0.33493363852511
0
ELLIPSE
5
124
100
AcDbEntity
8
1
62
256
6
ByLayer
370
18
48
1
60
0
100
AcDbEllipse
10
11.052929
20
-7.050443
30
0
11
0.647405820304752
21
0.625192533413133
31
0
210
0
220
0
230
1
40
0.989133
41
-2.76930898917419
42
-2.5823249389742
0
ELLIPSE
5
125
100
AcDbEntity
8
1
62
256
6
ByLayer
370
18
48
1
60
0
100
AcDbEllipse
10
10.656523
20
-8.182959
30
0
11
0.226592037106663
21
0.218817386694597
31
0
210
0
220
0
230
1
40
0.989133
41
-0.450579810687933
42
0.0226204570772589
0
ELLIPSE
5
126
100
AcDbEntity
8
1
62
256
6
ByLayer
370
18
48
1
60
0
100
AcDbEllipse
10
18.201711
20
-7.764217
30
0
11
1.70410018881692
21
1.64563042348729
31
0
210
0
220
0
230
1
40
0.989133
41
-0.793043033483987
42
0.77775329331091
0
ELLIPSE
5
127
100
AcDbEntity
8
1
62
256
6
ByLayer
370
18
48
1
60
0
100
AcDbEllipse
10
1.703669
20
-5.31564
30
0
11
-0.552554132343124
21
-1.22574174629796
31
0
210
0
220
0
230
1
40
0.461973
41
-0.93764954886489
42
0.633146777929826
0
ELLIPSE
5
128
100
AcDbEntity
8
1
62
256
6
ByLayer
370
18
48
1
60
0
100
AcDbEllipse
10
15.008915
20
-12.800111
30
0
11
-1.49948699856655
21
-2.03909451011178
31
0
210
0
220
0
230
1
40
0.482826
41
-1.73867770773867
42
-1.39634722278812
0
ELLIPSE
5
129
100
AcDbEntity
8
1
62
256
6
ByLayer
370
18
48
1
60
0
100
AcDbEllipse
10
13.444034
20
-15.357187
30
0
11
-1.4994869986703
21
-2.03909451003795
31
0
210
0
220
0
230
1
40
0.482826
41
-1.39634722267782
42
-1.05401673772233
0
ELLIPSE
5
12A
100
AcDbEntity
8
1
62
256
6
ByLayer
370
18
48
1
60
0
100
AcDbEllipse
10
10.916495
20
-18.884337
30
0
11
-0.571155801468886
21
-0.551558746144447
31
0
210
0
220
0
230
1
40
0.989133
41
-1.31446014751729
42
0.779934954875903
0
ELLIPSE
5
12B
100
AcDbEntity
8
1
62
256
6
ByLayer
370
18
48
1
60
0
100
AcDbEllipse
10
18.087454
20
-7.166715
30
0
11
-0.571155801468886
21
-0.551558746144447
31
0
210
0
220
0
230
1
40
0.989133
41
2.87433005726912
42
-1.31446014751727
0
ELLIPSE
5
12C
100
AcDbEntity
8
1
62
256
6
ByLayer
370
18
48
1
60
0
100
AcDbEllipse
10
24.586391
20
-19.122946
30
0
11
-0.571155801468886
21
-0.551558746144447
31
0
210
0
220
0
230
1
40
0.989133
41
0.779934954875901
42
2.8743300572691
0
POINT
5
6C
100
AcDbEntity
8
2
62
256
6
ByLayer
370
18
48
1
60
0
100
AcDbPoint
10
25.376414
20
44.7875
30
0
39
0
210
0
220
0
230
1
50
360
0
POINT
5
6E
100
AcDbEntity
8
80
62
256
6
ByLayer
370
18
48
1
60
0
100
AcDbPoint
10
0
20
0
30
0
39
0
210
0
220
0
230
1
50
360
0
POINT
5
70
100
AcDbEntity
8
81
62
256
6
ByLayer
370
18
48
1
60
0
100
AcDbPoint
10
25.376414
20
-19.9125
30
0
39
0
210
0
220
0
230
1
50
360
0
SPLINE
5
12D
100
AcDbEntity
8
1
62
256
6
ByLayer
370
18
48
1
60
0
100
AcDbSpline
70
4
71
3
72
10
73
6
40
0
40
0
40
0
40
0
40
0.690921703394062
40
0.690921703394062
40
1
40
1
40
1
40
1
41
1
10
11.6194669722973
20
0.71542077495576
30
0
41
1
10
11.4319153034277
20
0.920773704249484
30
0
41
1
10
11.2083947389649
20
1.12956493163537
30
0
41
1
10
10.8250550011396
20
1.39486331608472
30
0
41
1
10
10.6972883458921
20
1.47227658374024
30
0
41
1
10
10.561594272186
20
1.54105997508935
30
0
0
SPLINE
5
12E
100
AcDbEntity
8
1
62
256
6
ByLayer
370
18
48
1
60
0
100
AcDbSpline
70
4
71
3
72
16
73
12
40
0
40
0
40
0
40
0
40
0.28382542465983
40
0.28382542465983
40
0.572792249827485
40
0.572792249827485
40
0.572792249827485
40
0.894188232602851
40
0.894188232602851
40
0.894188232602851
40
1
40
1
40
1
40
1
41
1
10
9.51191473710202
20
-10.2863834072143
30
0
41
1
10
9.79650057681562
20
-10.4996706804479
30
0
41
1
10
10.1210511051375
20
-10.6718945342443
30
0
41
1
10
10.8014562008957
20
-10.9152996399909
30
0
41
1
10
11.1662986881509
20
-10.9884375251486
30
0
41
1
10
11.5294072387478
20
-11.0046310321233
30
0
41
1
10
11.9309052358936
20
-11.0225365884823
30
0
41
1
10
12.3452945922514
20
-10.969660794601
30
0
41
1
10
12.7262551104378
20
-10.8367112950213
30
0
41
1
10
12.8540069099979
20
-10.792127835552
30
0
41
1
10
12.9790221799489
20
-10.7383832123671
30
0
41
1
10
13.0986626846576
20
-10.6761602346263
30
0
0
SPLINE
5
12F
100
AcDbEntity
8
1
62
256
6
ByLayer
370
18
48
1
60
0
100
AcDbSpline
70
4
71
3
72
8
73
4
40
0
40
0
40
0
40
0
40
1
40
1
40
1
40
1
41
1
10
7.19312633763599
20
-6.77204663919289
30
0
41
1
10
7.22231260650614
20
-7.40086159570544
30
0
41
1
10
7.47063866999866
20
-8.03130482099218
30
0
41
1
10
7.90894366405962
20
-8.54176980667285
30
0
0
SPLINE
5
130
100
AcDbEntity
8
1
62
256
6
ByLayer
370
18
48
1
60
0
100
AcDbSpline
70
4
71
3
72
8
73
4
40
0
40
0
40
0
40
0
40
1
40
1
40
1
40
1
41
1
10
8.15003285187413
20
-11.0660200681799
30
0
41
1
10
8.43961952519516
20
-10.9748034399859
30
0
41
1
10
8.92530021980855
20
-10.6967657634803
30
0
41
1
10
9.51191473710196
20
-10.2863834072143
30
0
0
SPLINE
5
131
100
AcDbEntity
8
1
62
256
6
ByLayer
370
18
48
1
60
0
100
AcDbSpline
70
4
71
3
72
12
73
8
40
0
40
0
40
0
40
0
40
0.415356444741153
40
0.415356444741153
40
0.825259843212191
40
0.825259843212191
40
1
40
1
40
1
40
1
41
1
10
7.09854019462892
20
-6.20428289974544
30
0
41
1
10
7.05106148908556
20
-6.03909847888178
30
0
41
1
10
6.98034223272424
20
-5.8690186474376
30
0
41
1
10
6.8124894905792
20
-5.55418309903058
30
0
41
1
10
6.71391943404683
20
-5.40468574497498
30
0
41
1
10
6.56411870871085
20
-5.20937245389931
30
0
41
1
10
6.51770464841394
20
-5.15265000649384
30
0
41
1
10
6.47039053903654
20
-5.09800689220307
30
0
0
SPLINE
5
132
100
AcDbEntity
8
1
62
256
6
ByLayer
370
18
48
1
60
0
100
AcDbSpline
70
4
71
2
72
8
73
5
40
0
40
0
40
0
40
0.581603760070721
40
0.872405640106082
40
1
40
1
40
1
41
1.02990374504916
10
15.4171952021349
20
-4.81021798185366
30
0
41
1.02669755169729
10
15.9706059822822
20
-6.4939213382836
30
0
41
1.02039724512338
10
16.4716276123309
20
-9.200080761992
30
0
41
1.01761724169607
10
16.5906176701418
20
-10.5610454547296
30
0
41
1.01686274329306
10
16.6668698755618
20
-10.9300037169135
30
0
0
SPLINE
5
133
100
AcDbEntity
8
1
62
256
6
ByLayer
370
18
48
1
60
0
100
AcDbSpline
70
4
71
3
72
8
73
4
40
0
40
0
40
0
40
0
40
1
40
1
40
1
40
1
41
1
10
9.71711143888973
20
-2.12618439596383
30
0
41
1
10
9.74614297808381
20
-2.15968408189633
30
0
41
1
10
9.77542402651449
20
-2.19348627596591
30
0
41
1
10
9.80491393311274
20
-2.22754419986802
30
0
0
SPLINE
5
134
100
AcDbEntity
8
1
62
256
6
ByLayer
370
18
48
1
60
0
100
AcDbSpline
70
4
71
3
72
8
73
4
40
0
40
0
40
0
40
0
40
1
40
1
40
1
40
1
41
1
10
12.9865133777665
20
-4.17083797970807
30
0
41
1
10
12.5425108844895
20
-3.65373749159144
30
0
41
1
10
11.969187380401
20
-3.3188116996277
30
0
41
1
10
11.3511361819314
20
-3.19270089112723
30
0
0
SPLINE
5
135
100
AcDbEntity
8
1
62
256
6
ByLayer
370
18
48
1
60
0
100
AcDbSpline
70
4
71
3
72
12
73
8
40
0
40
0
40
0
40
0
40
0.307573270173406
40
0.307573270173406
40
0.648852820657658
40
0.648852820657658
40
1
40
1
40
1
40
1
41
1
10
13.0986626846576
20
-10.6761602346263
30
0
41
1
10
13.2464207865874
20
-10.5992902348946
30
0
41
1
10
13.3893213642273
20
-10.5114344295808
30
0
41
1
10
13.6755224075681
20
-10.3061574236241
30
0
41
1
10
13.8181355276067
20
-10.1858468929028
30
0
41
1
10
14.0855886359988
20
-9.92165368674307
30
0
41
1
10
14.2107579186545
20
-9.77623965129817
30
0
41
1
10
14.3227226016452
20
-9.62245093058269
30
0
0
SPLINE
5
136
100
AcDbEntity
8
1
62
256
6
ByLayer
370
18
48
1
60
0
100
AcDbSpline
70
4
71
3
72
8
73
4
40
0
40
0
40
0
40
0
40
1
40
1
40
1
40
1
41
1
10
14.6682525076722
20
-16.3100351392194
30
0
41
1
10
14.0000462639489
20
-15.3361678489666
30
0
41
1
10
14.5019792366197
20
-14.2249064164106
30
0
41
1
10
14.0200155482219
20
-13.2084992322908
30
0
0
SPLINE
5
137
100
AcDbEntity
8
1
62
256
6
ByLayer
370
18
48
1
60
0
100
AcDbSpline
70
4
71
3
72
8
73
4
40
0
40
0
40
0
40
0
40
1
40
1
40
1
40
1
41
1
10
6.47039053903654
20
-5.09800689220307
30
0
41
1
10
6.44090063243834
20
-5.06394896830099
30
0
41
1
10
6.41161958400727
20
-5.03014677423099
30
0
41
1
10
6.38258804481319
20
-4.99664708829849
30
0
0
SPLINE
5
138
100
AcDbEntity
8
1
62
256
6
ByLayer
370
18
48
1
60
0
100
AcDbSpline
70
4
71
3
72
11
73
7
40
0
40
0
40
0
40
0
40
0.559926195718577
40
0.559926195718577
40
0.559926195718577
40
1
40
1
40
1
40
1
41
1
10
13.8267505900355
20
-15.9475183411225
30
0
41
1
10
13.6052957856447
20
-15.7249126691832
30
0
41
1
10
13.3270182335154
20
-15.4965110594678
30
0
41
1
10
13.0154912598666
20
-15.2885565532612
30
0
41
1
10
12.7688799293404
20
-15.1239353749925
30
0
41
1
10
12.4979114370627
20
-14.9681349016993
30
0
41
1
10
12.2179473210652
20
-14.8258402849358
30
0
0
SPLINE
5
139
100
AcDbEntity
8
1
62
256
6
ByLayer
370
18
48
1
60
0
100
AcDbSpline
70
4
71
3
72
8
73
4
40
0
40
0
40
0
40
0
40
1
40
1
40
1
40
1
41
1
10
14.4694897326335
20
-6.0187468037424
30
0
41
1
10
14.9563406900088
20
-5.50505629204284
30
0
41
1
10
15.2943158508984
20
-5.07406508627042
30
0
41
1
10
15.4171952021349
20
-4.81021798185367
30
0
0
SPLINE
5
13A
100
AcDbEntity
8
1
62
256
6
ByLayer
370
18
48
1
60
0
100
AcDbSpline
70
4
71
3
72
8
73
4
40
0
40
0
40
0
40
0
40
1
40
1
40
1
40
1
41
1
10
8.90349575972652
20
0.0974980969502042
30
0
41
1
10
8.92587077044624
20
0.116759210435134
30
0
41
1
10
8.94863658316166
20
0.13503722838712
30
0
41
1
10
8.97176601701528
20
0.152405594511919
30
0
0
SPLINE
5
13B
100
AcDbEntity
8
1
62
256
6
ByLayer
370
18
48
1
60
0
100
AcDbSpline
70
4
71
3
72
25
73
21
40
0
40
0
40
0
40
0
40
0.44241159354879
40
0.44241159354879
40
0.44241159354879
40
0.583396916265399
40
0.583396916265399
40
0.651602530488682
40
0.651602530488682
40
0.706341521306475
40
0.706341521306475
40
0.742475286987761
40
0.742475286987761
40
0.778972968742954
40
0.778972968742954
40
0.811539464980194
40
0.811539464980194
40
0.868309796146665
40
0.868309796146665
40
1
40
1
40
1
40
1
41
1
10
16.3076565652141
20
-12.502238818129
30
0
41
1
10
16.2308364255213
20
-12.1932720955396
30
0
41
1
10
16.1775415952496
20
-11.8491863089647
30
0
41
1
10
16.1830324303541
20
-11.4910517603353
30
0
41
1
10
16.1848149097688
20
-11.3747912191796
30
0
41
1
10
16.1929350397797
20
-11.2553997068543
30
0
41
1
10
16.2214609178245
20
-11.0815855934509
30
0
41
1
10
16.2335614422868
20
-11.0247071437736
30
0
41
1
10
16.2627158646491
20
-10.9272781153038
30
0
41
1
10
16.278616107491
20
-10.8848879316994
30
0
41
1
10
16.3109953376626
20
-10.8238424635712
30
0
41
1
10
16.3257793306761
20
-10.801646769269
30
0
41
1
10
16.3579502252276
20
-10.7666366915139
30
0
41
1
10
16.375811769688
20
-10.7536079683479
30
0
41
1
10
16.4095344174953
20
-10.739923589965
30
0
41
1
10
16.4257615114189
20
-10.7378149796609
30
0
41
1
10
16.4683711463629
20
-10.7413124337693
30
0
41
1
10
16.4941982280237
20
-10.7533434956082
30
0
41
1
10
16.5734838041677
20
-10.8073627048462
30
0
41
1
10
16.6216564324625
20
-10.8671249082799
30
0
41
1
10
16.6668698755619
20
-10.9300037169137
30
0
0
SPLINE
5
13C
100
AcDbEntity
8
1
62
256
6
ByLayer
370
18
48
1
60
0
100
AcDbSpline
70
4
71
2
72
8
73
5
40
0
40
0
40
0
40
0.145991510275425
40
0.563470207592131
40
1
40
1
40
1
41
1.02393576174177
10
13.0986626842768
20
-10.6761602342545
30
0
41
1.02323174907605
10
13.2881203155011
20
-10.861168237388
30
0
41
1.02039724512338
10
14.0189381902475
20
-11.5669561671526
30
0
41
1.01644464721292
10
15.1289721148824
20
-12.5478946198414
30
0
41
1.01495409538139
10
15.6302554120676
20
-13.0853670521054
30
0
0
SPLINE
5
13D
100
AcDbEntity
8
1
62
256
6
ByLayer
370
18
48
1
60
0
100
AcDbSpline
70
4
71
3
72
8
73
4
40
0
40
0
40
0
40
0
40
1
40
1
40
1
40
1
41
1
10
18.4907489852854
20
-9.42601517483186
30
0
41
1
10
17.8612472784694
20
-7.51863927292462
30
0
41
1
10
16.9400809919956
20
-5.71536282617791
30
0
41
1
10
15.7507298323701
20
-4.09405089987655
30
0
0
SPLINE
5
13E
100
AcDbEntity
8
1
62
256
6
ByLayer
370
18
48
1
60
0
100
AcDbSpline
70
4
71
3
72
8
73
4
40
0
40
0
40
0
40
0
40
1
40
1
40
1
40
1
41
1
10
16.6668698755619
20
-10.9300037169137
30
0
41
1
10
17.5811835209964
20
-11.5737255511711
30
0
41
1
10
18.7312068803745
20
-11.2570942015354
30
0
41
1
10
19.5802954760016
20
-12.08159394667
30
0
0
SPLINE
5
13F
100
AcDbEntity
8
1
62
256
6
ByLayer
370
18
48
1
60
0
100
AcDbSpline
70
4
71
3
72
11
73
7
40
0
40
0
40
0
40
0
40
0.717036925638437
40
0.717036925638437
40
0.717036925638437
40
1
40
1
40
1
40
1
41
1
10
3.27710311038396
20
-6.60398959278385
30
0
41
1
10
3.07593679443954
20
-6.37407033755201
30
0
41
1
10
2.87285015366791
20
-6.09810552397784
30
0
41
1
10
2.71040618002831
20
-5.77498644541879
30
0
41
1
10
2.64566639865308
20
-5.64621184064029
30
0
41
1
10
2.58710388560928
20
-5.50922546916323
30
0
41
1
10
2.53835412546317
20
-5.36559767611402
30
0
0
SPLINE
5
140
100
AcDbEntity
8
1
62
256
6
ByLayer
370
18
48
1
60
0
100
AcDbSpline
70
4
71
3
72
8
73
4
40
0
40
0
40
0
40
0
40
1
40
1
40
1
40
1
41
1
10
6.38258804481353
20
-4.99664708829891
30
0
41
1
10
5.55793256940296
20
-4.64723162958799
30
0
41
1
10
4.82960120112682
20
-4.30881380348919
30
0
41
1
10
4.35446805338046
20
-4.0214544757541
30
0
0
SPLINE
5
141
100
AcDbEntity
8
1
62
256
6
ByLayer
370
18
48
1
60
0
100
AcDbSpline
70
4
71
3
72
10
73
6
40
0
40
0
40
0
40
0
40
0.759976532001887
40
0.759976532001887
40
1
40
1
40
1
40
1
41
1
10
15.6302554120537
20
-13.0853670520905
30
0
41
1
10
15.896853668768
20
-13.1986820755818
30
0
41
1
10
16.1540619668202
20
-13.3196147709444
30
0
41
1
10
16.4776611458127
20
-13.4877678697045
30
0
41
1
10
16.5542772801861
20
-13.5288453784727
30
0
41
1
10
16.6297540341238
20
-13.5705924042397
30
0
0
SPLINE
5
142
100
AcDbEntity
8
1
62
256
6
ByLayer
370
18
48
1
60
0
100
AcDbSpline
70
4
71
3
72
14
73
10
40
0
40
0
40
0
40
0
40
0.26293248248932
40
0.26293248248932
40
0.526305718382444
40
0.526305718382444
40
0.786105451116562
40
0.786105451116562
40
1
40
1
40
1
40
1
41
1
10
19.3859589165577
20
-14.3739984619126
30
0
41
1
10
19.430639948197
20
-14.4907889313795
30
0
41
1
10
19.4633718048856
20
-14.6254127557564
30
0
41
1
10
19.497195521803
20
-14.9109770959329
30
0
41
1
10
19.4986298305949
20
-15.0656015205684
30
0
41
1
10
19.4720931881727
20
-15.3700421261993
30
0
41
1
10
19.4443879134788
20
-15.5234664211013
30
0
41
1
10
19.3744302019846
20
-15.7895619945835
30
0
41
1
10
19.3352723402455
20
-15.9065194546521
30
0
41
1
10
19.2908459960775
20
-16.0172763474792
30
0
0
SPLINE
5
143
100
AcDbEntity
8
1
62
256
6
ByLayer
370
18
48
1
60
0
100
AcDbSpline
70
4
71
2
72
6
73
3
40
0
40
0
40
0
40
1
40
1
40
1
41
1
10
14.6617839687057
20
-16.310966311738
30
0
41
1
10
14.3051797029565
20
-16.2013647290478
30
0
41
1
10
13.9533809723808
20
-16.0751569161754
30
0
0
SPLINE
5
144
100
AcDbEntity
8
1
62
256
6
ByLayer
370
18
48
1
60
0
100
AcDbSpline
70
4
71
3
72
15
73
11
40
0
40
0
40
0
40
0
40
0.22504324078798
40
0.22504324078798
40
0.52048282722711
40
0.52048282722711
40
0.820975208236873
40
0.820975208236873
40
0.820975208236873
40
1
40
1
40
1
40
1
41
1
10
14.3227226016452
20
-9.62245093058269
30
0
41
1
10
14.4896441015461
20
-9.39311521540637
30
0
41
1
10
14.6225567025782
20
-9.13357257296892
30
0
41
1
10
14.8379320854303
20
-8.51488872516623
30
0
41
1
10
14.8972130804362
20
-8.13966204732563
30
0
41
1
10
14.9011714266571
20
-7.39216958367464
30
0
41
1
10
14.844033957075
20
-7.00859355379907
30
0
41
1
10
14.7317987456946
20
-6.64706937224918
30
0
41
1
10
14.6643839336064
20
-6.42991751353398
30
0
41
1
10
14.5762643136641
20
-6.21796826314352
30
0
41
1
10
14.469489697803
20
-6.01874684049312
30
0
0
SPLINE
5
145
100
AcDbEntity
8
1
62
256
6
ByLayer
370
18
48
1
60
0
100
AcDbSpline
70
4
71
2
72
6
73
3
40
0
40
0
40
0
40
1
40
1
40
1
41
1.02990374504916
10
8.15003285187418
20
-11.0660200681799
30
0
41
1.02990374504916
10
7.75701652841586
20
-11.1898159025667
30
0
41
1.02990374504916
10
7.36400020495754
20
-11.3136117369534
30
0
0
SPLINE
5
146
100
AcDbEntity
8
1
62
256
6
ByLayer
370
18
48
1
60
0
100
AcDbSpline
70
4
71
3
72
14
73
10
40
0
40
0
40
0
40
0
40
0.304391776008983
40
0.304391776008983
40
0.577373879687157
40
0.577373879687157
40
0.851610378463911
40
0.851610378463911
40
1
40
1
40
1
40
1
41
1
10
18.5971059881748
20
-16.6144695818715
30
0
41
1
10
18.4322864388024
20
-16.6538783588194
30
0
41
1
10
18.2560551341912
20
-16.6808762010053
30
0
41
1
10
17.9191696146829
20
-16.6987861182217
30
0
41
1
10
17.7549682712565
20
-16.6929066243563
30
0
41
1
10
17.4442028311301
20
-16.6491046376348
30
0
41
1
10
17.2936097285963
20
-16.6102972454475
30
0
41
1
10
17.0899092861187
20
-16.5298365719567
30
0
41
1
10
17.0224532366768
20
-16.4972051799389
30
0
41
1
10
16.9609840361312
20
-16.4614931654979
30
0
0
SPLINE
5
147
100
AcDbEntity
8
1
62
256
6
ByLayer
370
18
48
1
60
0
100
AcDbSpline
70
4
71
3
72
10
73
6
40
0
40
0
40
0
40
0
40
0.207845795367704
40
0.207845795367704
40
1
40
1
40
1
40
1
41
1
10
10.8063807205814
20
-3.01245707006831
30
0
41
1
10
10.8433859247318
20
-3.02959834871191
30
0
41
1
10
10.880699302679
20
-3.04582317778514
30
0
41
1
10
11.0600312216079
20
-3.11878188575327
30
0
41
1
10
11.2060017998161
20
-3.16308681657307
30
0
41
1
10
11.3511361819313
20
-3.19270089112723
30
0
0
SPLINE
5
148
100
AcDbEntity
8
1
62
256
6
ByLayer
370
18
48
1
60
0
100
AcDbSpline
70
4
71
3
72
12
73
8
40
0
40
0
40
0
40
0
40
0.369659083875782
40
0.369659083875782
40
0.727704501586106
40
0.727704501586106
40
1
40
1
40
1
40
1
41
1
10
4.07703230390263
20
-6.32246433742162
30
0
41
1
10
4.306311890183
20
-6.36233497268086
30
0
41
1
10
4.61358276190475
20
-6.37823035727303
30
0
41
1
10
5.30751850910929
20
-6.37000522069019
30
0
41
1
10
5.69959978131766
20
-6.34718005371408
30
0
41
1
10
6.4284699400726
20
-6.2827642113235
30
0
41
1
10
6.76080517486849
20
-6.24655198940903
30
0
41
1
10
7.09854019462892
20
-6.20428289974527
30
0
0
SPLINE
5
149
100
AcDbEntity
8
1
62
256
6
ByLayer
370
18
48
1
60
0
100
AcDbSpline
70
4
71
3
72
8
73
4
40
0
40
0
40
0
40
0
40
1
40
1
40
1
40
1
41
1
10
13.8267505900355
20
-15.9475183411225
30
0
41
1
10
13.8689088630097
20
-15.9898957043458
30
0
41
1
10
13.9116379663743
20
-16.0317355133636
30
0
41
1
10
13.9549038945393
20
-16.0730451766052
30
0
0
SPLINE
5
14A
100
AcDbEntity
8
1
62
256
6
ByLayer
370
18
48
1
60
0
100
AcDbSpline
70
4
71
3
72
8
73
4
40
0
40
0
40
0
40
0
40
1
40
1
40
1
40
1
41
1
10
19.4532813887367
20
-11.3398687671932
30
0
41
1
10
19.4194754371428
20
-11.2904156583696
30
0
41
1
10
19.385065914509
20
-11.2414140923908
30
0
41
1
10
19.3500402672622
20
-11.1928967404452
30
0
0
SPLINE
5
14B
100
AcDbEntity
8
1
62
256
6
ByLayer
370
18
48
1
60
0
100
AcDbSpline
70
4
71
3
72
12
73
8
40
0
40
0
40
0
40
0
40
0.391502209781612
40
0.391502209781612
40
0.886018843801027
40
0.886018843801027
40
1
40
1
40
1
40
1
41
1
10
9.03346894935936
20
0.0063767678863655
30
0
41
1
10
9.12028017532822
20
-0.189624944492039
30
0
41
1
10
9.20996938217985
20
-0.429406937445321
30
0
41
1
10
9.41249473139396
20
-1.03503768938569
30
0
41
1
10
9.52753017623201
20
-1.4243899801896
30
0
41
1
10
9.66538419650698
20
-1.93089620412815
30
0
41
1
10
9.69132003775889
20
-2.02797697624456
30
0
41
1
10
9.71711143889053
20
-2.12618439596352
30
0
0
SPLINE
5
14C
100
AcDbEntity
8
1
62
256
6
ByLayer
370
18
48
1
60
0
100
AcDbSpline
70
4
71
3
72
10
73
6
40
0
40
0
40
0
40
0
40
0.679966690484312
40
0.679966690484312
40
1
40
1
40
1
40
1
41
1
10
7.19312633763599
20
-6.77204663919289
30
0
41
1
10
7.18720056332404
20
-6.64437648262592
30
0
41
1
10
7.17061496741388
20
-6.51459876092352
30
0
41
1
10
7.13092904963395
20
-6.32521991879472
30
0
41
1
10
7.1158597398105
20
-6.2645397877059
30
0
41
1
10
7.09854019462892
20
-6.20428289974544
30
0
0
SPLINE
5
14D
100
AcDbEntity
8
1
62
256
6
ByLayer
370
18
48
1
60
0
100
AcDbSpline
70
4
71
3
72
10
73
6
40
0
40
0
40
0
40
0
40
0.560518156563274
40
0.560518156563274
40
1
40
1
40
1
40
1
41
1
10
18.4907489852854
20
-9.42601517483189
30
0
41
1
10
18.615514779758
20
-9.80405270385313
30
0
41
1
10
18.7641257354383
20
-10.1728103824595
30
0
41
1
10
19.0607444403352
20
-10.756458904962
30
0
41
1
10
19.2048055687819
20
-10.9917183601791
30
0
41
1
10
19.3500402672622
20
-11.1928967404451
30
0
0
SPLINE
5
14E
100
AcDbEntity
8
1
62
256
6
ByLayer
370
18
48
1
60
0
100
AcDbSpline
70
4
71
3
72
12
73
8
40
0
40
0
40
0
40
0
40
0.501637567130154
40
0.501637567130154
40
0.88695747130445
40
0.88695747130445
40
1
40
1
40
1
40
1
41
1
10
9.80491393311274
20
-2.22754419986802
30
0
41
1
10
9.9393106521278
20
-2.38275911089738
30
0
41
1
10
10.0930786104785
20
-2.53528810813901
30
0
41
1
10
10.3917440250784
20
-2.77446416596175
30
0
41
1
10
10.5335485539899
20
-2.87017769426825
30
0
41
1
10
10.7201919255026
20
-2.97088450971361
30
0
41
1
10
10.7633152206136
20
-2.99250858574493
30
0
41
1
10
10.8063807205814
20
-3.01245707006831
30
0
0
SPLINE
5
14F
100
AcDbEntity
8
1
62
256
6
ByLayer
370
18
48
1
60
0
100
AcDbSpline
70
4
71
3
72
8
73
4
40
0
40
0
40
0
40
0
40
1
40
1
40
1
40
1
41
1
10
10.8063807205814
20
-3.01245707006831
30
0
41
1
10
11.1429059244431
20
-1.80359228250541
30
0
41
1
10
11.3734422176207
20
-0.695302041505755
30
0
41
1
10
11.3441946541633
20
-0.0666622510953516
30
0
0
SPLINE
5
150
100
AcDbEntity
8
1
62
256
6
ByLayer
370
18
48
1
60
0
100
AcDbSpline
70
4
71
1
72
4
73
2
40
0
40
0
40
1
40
1
41
1
10
15.4171952021349
20
-4.81021798185367
30
0
41
1
10
15.7507298323701
20
-4.09405089987655
30
0
0
SPLINE
5
151
100
AcDbEntity
8
1
62
256
6
ByLayer
370
18
48
1
60
0
100
AcDbSpline
70
4
71
2
72
6
73
3
40
0
40
0
40
0
40
1
40
1
40
1
41
1
10
19.4555950034795
20
-11.3386778950493
30
0
41
1
10
19.5274492023735
20
-11.7058707730459
30
0
41
1
10
19.5821851673726
20
-12.0753300912928
30
0
0
SPLINE
5
152
100
AcDbEntity
8
1
62
256
6
ByLayer
370
18
48
1
60
0
100
AcDbSpline
70
4
71
3
72
8
73
4
40
0
40
0
40
0
40
0
40
1
40
1
40
1
40
1
41
1
10
14.469489697803
20
-6.01874684049312
30
0
41
1
10
14.352609234783
20
-5.80454371137884
30
0
41
1
10
14.2119494701695
20
-5.59802276162307
30
0
41
1
10
14.0518729849512
20
-5.41159221248034
30
0
0
SPLINE
5
153
100
AcDbEntity
8
1
62
256
6
ByLayer
370
18
48
1
60
0
100
AcDbSpline
70
4
71
3
72
16
73
12
40
0
40
0
40
0
40
0
40
0.151798394921706
40
0.151798394921706
40
0.302355402833642
40
0.302355402833642
40
0.469907609657964
40
0.469907609657964
40
0.750934341340612
40
0.750934341340612
40
1
40
1
40
1
40
1
41
1
10
4.21624458186119
20
-3.94129693774798
30
0
41
1
10
4.08497150950797
20
-4.07052093893694
30
0
41
1
10
3.95778053275956
20
-4.21296502020877
30
0
41
1
10
3.73809583095266
20
-4.50054382861546
30
0
41
1
10
3.64194907866164
20
-4.64935200912322
30
0
41
1
10
3.47477965470506
20
-4.95255377489281
30
0
41
1
10
3.40560956646897
20
-5.10883923436469
30
0
41
1
10
3.26661517805007
20
-5.49194289004399
30
0
41
1
10
3.22200367545781
20
-5.69995933438318
30
0
41
1
10
3.19933630431416
20
-6.06402652643405
30
0
41
1
10
3.21424820597684
20
-6.23054029260555
30
0
41
1
10
3.27457528768508
20
-6.411076675121
30
0
0
SPLINE
5
154
100
AcDbEntity
8
1
62
256
6
ByLayer
370
18
48
1
60
0
100
AcDbSpline
70
4
71
3
72
8
73
4
40
0
40
0
40
0
40
0
40
1
40
1
40
1
40
1
41
1
10
9.51191472202498
20
-10.2863833957817
30
0
41
1
10
9.31408679055096
20
-10.1363742985386
30
0
41
1
10
9.13431080989409
20
-9.96887429105621
30
0
41
1
10
8.97430327124431
20
-9.78252403944512
30
0
0
SPLINE
5
155
100
AcDbEntity
8
1
62
256
6
ByLayer
370
18
48
1
60
0
100
AcDbSpline
70
4
71
3
72
24
73
20
40
0
40
0
40
0
40
0
40
0.142613444608224
40
0.142613444608224
40
0.190795218269491
40
0.190795218269491
40
0.22695117616232
40
0.22695117616232
40
0.26343746671285
40
0.26343746671285
40
0.296119365572348
40
0.296119365572348
40
0.352324850832274
40
0.352324850832274
40
0.455294648588087
40
0.455294648588087
40
0.662705158043598
40
0.662705158043598
40
1
40
1
40
1
40
1
41
1
10
14.0200155482219
20
-13.2084992322908
30
0
41
1
10
13.9613893541929
20
-13.1493298344578
30
0
41
1
10
13.9061451144235
20
-13.0870703795075
30
0
41
1
10
13.8720752431728
20
-12.9976062919104
30
0
41
1
10
13.867252161704
20
-12.9739926332523
30
0
41
1
10
13.8715765848239
20
-12.9331584505724
30
0
41
1
10
13.8777723106738
20
-12.9154845225503
30
0
41
1
10
13.9007424039007
20
-12.8827397337803
30
0
41
1
10
13.9180192399405
20
-12.867312959509
30
0
41
1
10
13.9581179726903
20
-12.8426771281628
30
0
41
1
10
13.9805084092247
20
-12.8326633445284
30
0
41
1
10
14.0450503715656
20
-12.810306302932
30
0
41
1
10
14.0908242795399
20
-12.8008332361091
30
0
41
1
10
14.2211354857934
20
-12.7830017459941
30
0
41
1
10
14.309355770812
20
-12.7811794242124
30
0
41
1
10
14.5678720849071
20
-12.7902567773802
30
0
41
1
10
14.7383684576515
20
-12.8159825309901
30
0
41
1
10
15.1610755418392
20
-12.907205617117
30
0
41
1
10
15.4060273856121
20
-12.9901393423955
30
0
41
1
10
15.6302554120537
20
-13.0853670520905
30
0
0
SPLINE
5
156
100
AcDbEntity
8
1
62
256
6
ByLayer
370
18
48
1
60
0
100
AcDbSpline
70
4
71
2
72
8
73
5
40
0
40
0
40
0
40
0.145991510278043
40
0.563470207586083
40
1
40
1
40
1
41
1.02393576174182
10
14.3227226013582
20
-9.62245093017961
30
0
41
1.02323174907608
10
14.4763818252479
20
-9.83827532912242
30
0
41
1.02039724512338
10
15.0608418302229
20
-10.6700527198307
30
0
41
1.01644464721285
10
15.8567187041974
20
-11.9214274498423
30
0
41
1.01495409538129
10
16.3076565652576
20
-12.5022388181851
30
0
0
SPLINE
5
157
100
AcDbEntity
8
1
62
256
6
ByLayer
370
18
48
1
60
0
100
AcDbSpline
70
4
71
3
72
8
73
4
40
0
40
0
40
0
40
0
40
1
40
1
40
1
40
1
41
1
10
4.28063378157543
20
-3.88200699924164
30
0
41
1
10
4.25825877085578
20
-3.90126811272657
30
0
41
1
10
4.23681914468989
20
-3.92104352793757
30
0
41
1
10
4.21624458186119
20
-3.94129693774798
30
0
0
SPLINE
5
158
100
AcDbEntity
8
1
62
256
6
ByLayer
370
18
48
1
60
0
100
AcDbSpline
70
4
71
3
72
16
73
12
40
0
40
0
40
0
40
0
40
0.346164403850463
40
0.346164403850463
40
0.574058138681866
40
0.574058138681866
40
0.756733946461148
40
0.756733946461148
40
0.941193093213319
40
0.941193093213319
40
1
40
1
40
1
40
1
41
1
10
11.5266804825397
20
0.692595213082768
30
0
41
1
10
11.2956970195369
20
0.816289792885613
30
0
41
1
10
11.0805943732089
20
0.853654045452515
30
0
41
1
10
10.6650985784031
20
0.849388000575516
30
0
41
1
10
10.4784148779564
20
0.827823889428828
30
0
41
1
10
10.1004786300417
20
0.738238873908756
30
0
41
1
10
9.91445892148755
20
0.678408670457287
30
0
41
1
10
9.5351104989698
20
0.513416105774979
30
0
41
1
10
9.33603515048179
20
0.404449791486002
30
0
41
1
10
9.0894143368451
20
0.238545383114257
30
0
41
1
10
9.02976718840756
20
0.19595986336185
30
0
41
1
10
8.97176601701528
20
0.152405594511947
30
0
0
SPLINE
5
159
100
AcDbEntity
8
1
62
256
6
ByLayer
370
18
48
1
60
0
100
AcDbSpline
70
4
71
2
72
8
73
5
40
0
40
0
40
0
40
0.581603760044149
40
0.872405640066223
40
1
40
1
40
1
41
1.02990374504916
10
8.15003285187418
20
-11.0660200681799
30
0
41
1.02669755169729
10
9.73580991163829
20
-11.8610300366675
30
0
41
1.02039724512338
10
12.3387658346519
20
-12.7577782623148
30
0
41
1.01761724169577
10
13.6671902713168
20
-13.0776237750148
30
0
41
1.01686274329252
10
14.0200155482218
20
-13.2084992322907
30
0
0
SPLINE
5
15A
100
AcDbEntity
8
1
62
256
6
ByLayer
370
18
48
1
60
0
100
AcDbSpline
70
4
71
3
72
8
73
4
40
0
40
0
40
0
40
0
40
1
40
1
40
1
40
1
41
1
10
7.36400020495756
20
-11.3136117369534
30
0
41
1
10
8.79154421859846
20
-12.7391938785213
30
0
41
1
10
10.4182069254362
20
-13.9111038768166
30
0
41
1
10
12.2179473210652
20
-14.8258402849357
30
0
0
SPLINE
5
15B
100
AcDbEntity
8
1
62
256
6
ByLayer
370
18
48
1
60
0
100
AcDbSpline
70
4
71
3
72
10
73
6
40
0
40
0
40
0
40
0
40
0.106616270583433
40
0.106616270583433
40
1
40
1
40
1
40
1
41
1
10
16.6297540341238
20
-13.5705924042396
30
0
41
1
10
16.6167422348935
20
-13.5343642071766
30
0
41
1
10
16.6038925932879
20
-13.4979363421019
30
0
41
1
10
16.485043746431
20
-13.1548224098864
30
0
41
1
10
16.3902579340428
20
-12.8340485210076
30
0
41
1
10
16.3076565652141
20
-12.502238818129
30
0
0
SPLINE
5
15C
100
AcDbEntity
8
1
62
256
6
ByLayer
370
18
48
1
60
0
100
AcDbSpline
70
4
71
3
72
10
73
6
40
0
40
0
40
0
40
0
40
0.315026012182422
40
0.315026012182422
40
1
40
1
40
1
40
1
41
1
10
11.2735975058268
20
-6.18074398836237
30
0
41
1
10
11.2689009929482
20
-6.17763179919385
30
0
41
1
10
11.2644813618149
20
-6.17449520865082
30
0
41
1
10
11.2513142392631
20
-6.16455971784868
30
0
41
1
10
11.2434654588587
20
-6.15771502683839
30
0
41
1
10
11.2365413748067
20
-6.15091768218647
30
0
0
SPLINE
5
15D
100
AcDbEntity
8
1
62
256
6
ByLayer
370
18
48
1
60
0
100
AcDbSpline
70
4
71
3
72
10
73
6
40
0
40
0
40
0
40
0
40
0.315026012182605
40
0.315026012182605
40
1
40
1
40
1
40
1
41
1
10
10.8322603018252
20
-7.92014221608619
30
0
41
1
10
10.8377434320883
20
-7.92406897140177
30
0
41
1
10
10.8430096129395
20
-7.92808218983984
30
0
41
1
10
10.8589948069497
20
-7.94093587906352
30
0
41
1
10
10.8689848350231
20
-7.94999789694432
30
0
41
1
10
10.8781613087166
20
-7.95912765934855
30
0
0
SPLINE
5
15E
100
AcDbEntity
8
1
62
256
6
ByLayer
370
18
48
1
60
0
100
AcDbSpline
70
4
71
3
72
10
73
6
40
0
40
0
40
0
40
0
40
0.516155291935502
40
0.516155291935502
40
1
40
1
40
1
40
1
41
1
10
11.9769662337947
20
-7.01324179476174
30
0
41
1
10
11.9710922664455
20
-7.00544468112787
30
0
41
1
10
11.9653369667317
20
-6.99719804765024
30
0
41
1
10
11.954587341939
20
-6.98025683219362
30
0
41
1
10
11.9495463807268
20
-6.97158695262317
30
0
41
1
10
11.9447919322121
20
-6.96243997152163
30
0
0
SPLINE
5
15F
100
AcDbEntity
8
1
62
256
6
ByLayer
370
18
48
1
60
0
100
AcDbSpline
70
4
71
3
72
10
73
6
40
0
40
0
40
0
40
0
40
0.12373260626543
40
0.12373260626543
40
1
40
1
40
1
40
1
41
1
10
10.1911677947414
20
-7.3024744014624
30
0
41
1
10
10.1911049717661
20
-7.3050813513027
30
0
41
1
10
10.1910204789285
20
-7.30766374672982
30
0
41
1
10
10.1901814691393
20
-7.32814879130959
30
0
41
1
10
10.1884603456932
20
-7.34490370876634
30
0
41
1
10
10.1861277445431
20
-7.36049222990886
30
0
0
SPLINE
5
160
100
AcDbEntity
8
1
62
256
6
ByLayer
370
18
48
1
60
0
100
AcDbSpline
70
4
71
3
72
10
73
6
40
0
40
0
40
0
40
0
40
0.123732606265371
40
0.123732606265371
40
1
40
1
40
1
40
1
41
1
10
11.914690012912
20
-6.79841180298757
30
0
41
1
10
11.915063223962
20
-6.79612626940775
30
0
41
1
10
11.915467387724
20
-6.79387490291327
30
0
41
1
10
11.9189336957261
20
-6.77611050527636
30
0
41
1
10
11.92336265325
20
-6.76215963209185
30
0
41
1
10
11.9285749389803
20
-6.7495531116262
30
0
0
SPLINE
5
161
100
AcDbEntity
8
1
62
256
6
ByLayer
370
18
48
1
60
0
100
AcDbSpline
70
4
71
3
72
10
73
6
40
0
40
0
40
0
40
0
40
0.516155291935568
40
0.516155291935568
40
1
40
1
40
1
40
1
41
1
10
10.1377364497286
20
-7.09680354677329
30
0
41
1
10
10.1419103134024
20
-7.10284015151478
30
0
41
1
10
10.1460311421498
20
-7.1093942407596
30
0
41
1
10
10.1538199639685
20
-7.12326945498356
30
0
41
1
10
10.1575158745424
20
-7.13054649384432
30
0
41
1
10
10.161065875439
20
-7.13844623292599
30
0
0
SPLINE
5
162
100
AcDbEntity
8
1
62
256
6
ByLayer
370
18
48
1
60
0
100
AcDbSpline
70
4
71
3
72
8
73
4
40
0
40
0
40
0
40
0
40
1
40
1
40
1
40
1
41
1
10
11.5446610946138
20
-7.82989080071093
30
0
41
1
10
11.5498394420673
20
-7.81296643972775
30
0
41
1
10
11.5568832667893
20
-7.79539571742481
30
0
41
1
10
11.5666724802452
20
-7.77773688469358
30
0
0
SPLINE
5
163
100
AcDbEntity
8
1
62
256
6
ByLayer
370
18
48
1
60
0
100
AcDbSpline
70
4
71
3
72
8
73
4
40
0
40
0
40
0
40
0
40
1
40
1
40
1
40
1
41
1
10
10.411836396747
20
-6.43277528759961
30
0
41
1
10
10.3952574352347
20
-6.4425265475418
30
0
41
1
10
10.3797285443926
20
-6.45021527166031
30
0
41
1
10
10.3653177775881
20
-6.4563872413278
30
0
0
SPLINE
5
164
100
AcDbEntity
8
1
62
256
6
ByLayer
370
18
48
1
60
0
100
AcDbSpline
70
4
71
3
72
8
73
4
40
0
40
0
40
0
40
0
40
1
40
1
40
1
40
1
41
1
10
11.6940214109063
20
-7.6681109168504
30
0
41
1
10
11.7130848865789
20
-7.66093244663622
30
0
41
1
10
11.7316871057372
20
-7.65642624715329
30
0
41
1
10
11.7493849059352
20
-7.65365810020725
30
0
0
SPLINE
5
165
100
AcDbEntity
8
1
62
256
6
ByLayer
370
18
48
1
60
0
100
AcDbSpline
70
4
71
3
72
8
73
4
40
0
40
0
40
0
40
0
40
1
40
1
40
1
40
1
41
1
10
10.5700415889095
20
-6.2801545408241
30
0
41
1
10
10.5615762080625
20
-6.29367507908583
30
0
41
1
10
10.5514590550244
20
-6.30806327675319
30
0
41
1
10
10.5391853274081
20
-6.32314931975637
30
0
0
SPLINE
5
166
100
AcDbEntity
8
1
62
256
6
ByLayer
370
18
48
1
60
0
100
AcDbSpline
70
4
71
3
72
10
73
6
40
0
40
0
40
0
40
0
40
0.629893813379365
40
0.629893813379365
40
1
40
1
40
1
40
1
41
1
10
10.625046202564
20
-7.87167167670461
30
0
41
1
10
10.6344437069062
20
-7.86943074455286
30
0
41
1
10
10.6444551510718
20
-7.86770081444263
30
0
41
1
10
10.6614513810726
20
-7.86610756727171
30
0
41
1
10
10.6680019669371
20
-7.86576857030869
30
0
41
1
10
10.6748094518501
20
-7.86574001539827
30
0
0
SPLINE
5
167
100
AcDbEntity
8
1
62
256
6
ByLayer
370
18
48
1
60
0
100
AcDbSpline
70
4
71
3
72
10
73
6
40
0
40
0
40
0
40
0
40
0.629893813379534
40
0.629893813379534
40
1
40
1
40
1
40
1
41
1
10
11.4896564809562
20
-6.23837366482718
30
0
41
1
10
11.478184678641
20
-6.23846659854806
30
0
41
1
10
11.4661944076019
20
-6.23814739344513
30
0
41
1
10
11.4463316941144
20
-6.23677231007161
30
0
41
1
10
11.438777327476
20
-6.23607186161473
30
0
41
1
10
11.4310483558012
20
-6.23514618904963
30
0
0
INSERT
5
17A
100
AcDbEntity
8
SK2
62
256
6
ByLayer
370
25
48
1
60
0
100
AcDbBlockReference
2
DimnDraft3D11
10
0
20
0
30
0
41
1
42
1
43
1
50
0
210
0
220
0
230
1
0
LINE
5
72
100
AcDbEntity
8
1
62
256
6
ByLayer
370
18
48
1
60
0
100
AcDbLine
10
10.110068
20
-7.063824
30
0
11
9.97219
21
-6.921047
31
0
39
0
210
0
220
0
230
1
0
LINE
5
74
100
AcDbEntity
8
1
62
256
6
ByLayer
370
18
48
1
60
0
100
AcDbLine
10
8.540987
20
-9.055832
30
0
11
8.71063
21
-9.231503
31
0
39
0
210
0
220
0
230
1
0
LINE
5
75
100
AcDbEntity
8
1
62
256
6
ByLayer
370
18
48
1
60
0
100
AcDbLine
10
13.314405
20
-4.785689
30
0
11
13.144762
21
-4.610019
31
0
39
0
210
0
220
0
230
1
0
LINE
5
76
100
AcDbEntity
8
1
62
256
6
ByLayer
370
18
48
1
60
0
100
AcDbLine
10
10.883115
20
-7.964141
30
0
11
10.745237
21
-7.821364
31
0
39
0
210
0
220
0
230
1
0
LINE
5
77
100
AcDbEntity
8
1
62
256
6
ByLayer
370
18
48
1
60
0
100
AcDbLine
10
18.65861
20
-6.615157
30
0
11
18.172463
21
-6.111736
31
0
39
0
210
0
220
0
230
1
0
LINE
5
78
100
AcDbEntity
8
1
62
256
6
ByLayer
370
18
48
1
60
0
100
AcDbLine
10
9.859192
20
-18.932475
30
0
11
10.34534
21
-19.435895
31
0
39
0
210
0
220
0
230
1
0
LINE
5
79
100
AcDbEntity
8
1
62
256
6
ByLayer
370
18
48
1
60
0
100
AcDbLine
10
11.963896
20
0.339347
30
0
11
11.61711
21
0.717999
31
0
39
0
210
0
220
0
230
1
0
LINE
5
7A
100
AcDbEntity
8
1
62
256
6
ByLayer
370
18
48
1
60
0
100
AcDbLine
10
9.655394
20
-18.191013
30
0
11
9.663648
21
-18.19956
31
0
39
0
210
0
220
0
230
1
0
LINE
5
7B
100
AcDbEntity
8
1
62
256
6
ByLayer
370
18
48
1
60
0
100
AcDbLine
10
11.09371
20
-6.003127
30
0
11
11.231588
21
-6.145904
31
0
39
0
210
0
220
0
230
1
0
LINE
5
7C
100
AcDbEntity
8
1
62
256
6
ByLayer
370
18
48
1
60
0
100
AcDbLine
10
11.866757
20
-6.903444
30
0
11
12.004635
21
-7.046221
31
0
39
0
210
0
220
0
230
1
0
LINE
5
7D
100
AcDbEntity
8
1
62
256
6
ByLayer
370
18
48
1
60
0
100
AcDbLine
10
9.611272
20
-2.018345
30
0
11
9.874215
21
-2.305449
31
0
39
0
210
0
220
0
230
1
0
LINE
5
7E
100
AcDbEntity
8
80
62
256
6
ByLayer
370
18
48
1
60
0
100
AcDbLine
10
0
20
0
30
0
11
-5
21
0
31
0
39
0
210
0
220
0
230
1
0
LINE
5
7F
100
AcDbEntity
8
81
62
256
6
ByLayer
370
18
48
1
60
0
100
AcDbLine
10
25.376414
20
-19.9125
30
0
11
35.376414
21
-19.9125
31
0
39
0
210
0
220
0
230
1
0
LINE
5
80
100
AcDbEntity
8
1
62
256
6
ByLayer
370
18
48
1
60
0
100
AcDbLine
10
9.895335
20
-6.866659
30
0
11
10.026332
21
-7.002311
31
0
39
0
210
0
220
0
230
1
0
LINE
5
81
100
AcDbEntity
8
1
62
256
6
ByLayer
370
18
48
1
60
0
100
AcDbLine
10
13.144762
20
-4.610019
30
0
11
13.14463
21
-4.609883
31
0
39
0
210
0
220
0
230
1
0
LINE
5
82
100
AcDbEntity
8
1
62
256
6
ByLayer
370
18
48
1
60
0
100
AcDbLine
10
17.329526
20
-6.671654
30
0
11
17.414906
21
-6.760067
31
0
39
0
210
0
220
0
230
1
0
LINE
5
83
100
AcDbEntity
8
1
62
256
6
ByLayer
370
18
48
1
60
0
100
AcDbLine
10
10.243947
20
-18.477688
30
0
11
12.410473
21
-14.937502
31
0
39
0
210
0
220
0
230
1
0
LINE
5
84
100
AcDbEntity
8
1
62
256
6
ByLayer
370
18
48
1
60
0
100
AcDbLine
10
9.757799
20
-17.974268
30
0
11
9.86189
21
-17.804179
31
0
39
0
210
0
220
0
230
1
0
LINE
5
85
100
AcDbEntity
8
1
62
256
6
ByLayer
370
18
48
1
60
0
100
AcDbLine
10
12.281656
20
-14.862648
30
0
11
10.47491
21
-17.814939
31
0
39
0
210
0
220
0
230
1
0
LINE
5
86
100
AcDbEntity
8
1
62
256
6
ByLayer
370
18
48
1
60
0
100
AcDbLine
10
17.370074
20
3.565266
30
0
11
12.669708
21
-0.480956
31
0
39
0
210
0
220
0
230
1
0
LINE
5
87
100
AcDbEntity
8
1
62
256
6
ByLayer
370
18
48
1
60
0
100
AcDbLine
10
4.256537
20
-7.723279
30
0
11
3.766158
21
-8.145412
31
0
39
0
210
0
220
0
230
1
0
LINE
5
88
100
AcDbEntity
8
1
62
256
6
ByLayer
370
18
48
1
60
0
100
AcDbLine
10
15.138011
20
5.166177
30
0
11
10.777096
21
1.412164
31
0
39
0
210
0
220
0
230
1
0
LINE
5
89
100
AcDbEntity
8
1
62
256
6
ByLayer
370
18
48
1
60
0
100
AcDbLine
10
2.635526
20
-5.596356
30
0
11
1.789123
21
-6.324966
31
0
39
0
210
0
220
0
230
1
0
LINE
5
8A
100
AcDbEntity
8
1
62
256
6
ByLayer
370
18
48
1
60
0
100
AcDbLine
10
14.353614
20
5.728773
30
0
11
9.715948
21
1.736525
31
0
39
0
210
0
220
0
230
1
0
LINE
5
8B
100
AcDbEntity
8
1
62
256
6
ByLayer
370
18
48
1
60
0
100
AcDbLine
10
2.472206
20
-4.499116
30
0
11
0.92023
21
-5.835106
31
0
39
0
210
0
220
0
230
1
0
LINE
5
8C
100
AcDbEntity
8
1
62
256
6
ByLayer
370
18
48
1
60
0
100
AcDbLine
10
20.440008
20
-9.833449
30
0
11
20.504145
21
-9.546073
31
0
39
0
210
0
220
0
230
1
0
LINE
5
8D
100
AcDbEntity
8
1
62
256
6
ByLayer
370
18
48
1
60
0
100
AcDbLine
10
19.551058
20
-6.637998
30
0
11
19.505907
21
-8.114961
31
0
39
0
210
0
220
0
230
1
0
LINE
5
8E
100
AcDbEntity
8
1
62
256
6
ByLayer
370
18
48
1
60
0
100
AcDbLine
10
22.603078
20
-13.448389
30
0
11
22.472411
21
-13.572503
31
0
39
0
210
0
220
0
230
1
0
LINE
5
8F
100
AcDbEntity
8
1
62
256
6
ByLayer
370
18
48
1
60
0
100
AcDbLine
10
15.113465
20
5.183782
30
0
11
10.750454
21
1.427965
31
0
39
0
210
0
220
0
230
1
0
LINE
5
90
100
AcDbEntity
8
1
62
256
6
ByLayer
370
18
48
1
60
0
100
AcDbLine
10
2.623545
20
-5.567933
30
0
11
1.593264
21
-6.454832
31
0
39
0
210
0
220
0
230
1
0
LINE
5
91
100
AcDbEntity
8
1
62
256
6
ByLayer
370
18
48
1
60
0
100
AcDbLine
10
19.386592
20
-6.619205
30
0
11
19.349655
21
-7.827485
31
0
39
0
210
0
220
0
230
1
0
LINE
5
92
100
AcDbEntity
8
1
62
256
6
ByLayer
370
18
48
1
60
0
100
AcDbLine
10
12.780897
20
-0.610257
30
0
11
12.798607
21
-0.655908
31
0
39
0
210
0
220
0
230
1
0
LINE
5
93
100
AcDbEntity
8
1
62
256
6
ByLayer
370
18
48
1
60
0
100
AcDbLine
10
12.986513
20
-4.170838
30
0
11
12.762163
21
-3.925872
31
0
39
0
210
0
220
0
230
1
0
LINE
5
94
100
AcDbEntity
8
1
62
256
6
ByLayer
370
18
48
1
60
0
100
AcDbLine
10
7.364
20
-11.313612
30
0
11
4.411877
21
-7.875468
31
0
39
0
210
0
220
0
230
1
0
LINE
5
95
100
AcDbEntity
8
1
62
256
6
ByLayer
370
18
48
1
60
0
100
AcDbLine
10
8.903496
20
0.097498
30
0
11
7.954529
21
1.133663
31
0
39
0
210
0
220
0
230
1
0
LINE
5
96
100
AcDbEntity
8
1
62
256
6
ByLayer
370
18
48
1
60
0
100
AcDbLine
10
16.960984
20
-16.461493
30
0
11
14.656158
21
-16.309236
31
0
39
0
210
0
220
0
230
1
0
LINE
5
97
100
AcDbEntity
8
1
62
256
6
ByLayer
370
18
48
1
60
0
100
AcDbLine
10
4.280634
20
-3.882007
30
0
11
8.903496
21
0.097498
31
0
39
0
210
0
220
0
230
1
0
LINE
5
98
100
AcDbEntity
8
1
62
256
6
ByLayer
370
18
48
1
60
0
100
AcDbLine
10
12.015942
20
0.280635
30
0
11
12.780897
21
-0.610257
31
0
39
0
210
0
220
0
230
1
0
LINE
5
99
100
AcDbEntity
8
1
62
256
6
ByLayer
370
18
48
1
60
0
100
AcDbLine
10
4.077032
20
-6.322464
30
0
11
8.150033
21
-11.06602
31
0
39
0
210
0
220
0
230
1
0
LINE
5
9A
100
AcDbEntity
8
1
62
256
6
ByLayer
370
18
48
1
60
0
100
AcDbLine
10
11.344195
20
-0.066662
30
0
11
15.417195
21
-4.810218
31
0
39
0
210
0
220
0
230
1
0
LINE
5
9B
100
AcDbEntity
8
1
62
256
6
ByLayer
370
18
48
1
60
0
100
AcDbLine
10
14.051873
20
-5.411592
30
0
11
13.822303
21
-5.160927
31
0
39
0
210
0
220
0
230
1
0
LINE
5
9C
100
AcDbEntity
8
1
62
256
6
ByLayer
370
18
48
1
60
0
100
AcDbLine
10
19.581321
20
-12.069502
30
0
11
19.385959
21
-14.373998
31
0
39
0
210
0
220
0
230
1
0
LINE
5
9D
100
AcDbEntity
8
1
62
256
6
ByLayer
370
18
48
1
60
0
100
AcDbLine
10
7.954529
20
1.133663
30
0
11
3.331667
21
-2.845842
31
0
39
0
210
0
220
0
230
1
0
LINE
5
9E
100
AcDbEntity
8
1
62
256
6
ByLayer
370
18
48
1
60
0
100
AcDbLine
10
9.549004
20
-1.94812
30
0
11
8.649105
21
-0.899744
31
0
39
0
210
0
220
0
230
1
0
LINE
5
9F
100
AcDbEntity
8
1
62
256
6
ByLayer
370
18
48
1
60
0
100
AcDbLine
10
14.051873
20
-5.411592
30
0
11
12.986513
21
-4.170838
31
0
39
0
210
0
220
0
230
1
0
LINE
5
A0
100
AcDbEntity
8
1
62
256
6
ByLayer
370
18
48
1
60
0
100
AcDbLine
10
3.603849
20
-6.960759
30
0
11
3.277103
21
-6.60399
31
0
39
0
210
0
220
0
230
1
0
LINE
5
A1
100
AcDbEntity
8
1
62
256
6
ByLayer
370
18
48
1
60
0
100
AcDbLine
10
4.368804
20
-7.851651
30
0
11
3.603849
21
-6.960759
31
0
39
0
210
0
220
0
230
1
0
LINE
5
A2
100
AcDbEntity
8
1
62
256
6
ByLayer
370
18
48
1
60
0
100
AcDbLine
10
15.75073
20
-4.094051
30
0
11
12.798607
21
-0.655908
31
0
39
0
210
0
220
0
230
1
0
LINE
5
A3
100
AcDbEntity
8
1
62
256
6
ByLayer
370
18
48
1
60
0
100
AcDbLine
10
7.908944
20
-8.54177
30
0
11
8.974303
21
-9.782524
31
0
39
0
210
0
220
0
230
1
0
LINE
5
A4
100
AcDbEntity
8
1
62
256
6
ByLayer
370
18
48
1
60
0
100
AcDbLine
10
4.280634
20
-3.882007
30
0
11
3.331667
21
-2.845842
31
0
39
0
210
0
220
0
230
1
0
LINE
5
A5
100
AcDbEntity
8
1
62
256
6
ByLayer
370
18
48
1
60
0
100
AcDbLine
10
16.629754
20
-13.570592
30
0
11
19.018193
21
-16.398114
31
0
39
0
210
0
220
0
230
1
0
LINE
5
A6
100
AcDbEntity
8
1
62
256
6
ByLayer
370
18
48
1
60
0
100
AcDbLine
10
4.368804
20
-7.851651
30
0
11
4.411877
21
-7.875468
31
0
39
0
210
0
220
0
230
1
0
LINE
5
A7
100
AcDbEntity
8
1
62
256
6
ByLayer
370
18
48
1
60
0
100
AcDbLine
10
12.762163
20
-3.925872
30
0
11
13.822303
21
-5.160927
31
0
39
0
210
0
220
0
230
1
0
LINE
5
A8
100
AcDbEntity
8
1
62
256
6
ByLayer
370
18
48
1
60
0
100
AcDbLine
10
4.368804
20
-7.851651
30
0
11
3.282517
21
-6.610177
31
0
39
0
210
0
220
0
230
1
0
LINE
5
A9
100
AcDbEntity
8
1
62
256
6
ByLayer
370
18
48
1
60
0
100
AcDbLine
10
5.314581
20
-3.770206
30
0
11
8.649105
21
-0.899744
31
0
39
0
210
0
220
0
230
1
0
LINE
5
AA
100
AcDbEntity
8
1
62
256
6
ByLayer
370
18
48
1
60
0
100
AcDbLine
10
11.022068
20
-5.883683
30
0
11
11.159946
21
-6.026459
31
0
39
0
210
0
220
0
230
1
0
LINE
5
AB
100
AcDbEntity
8
1
62
256
6
ByLayer
370
18
48
1
60
0
100
AcDbLine
10
11.566672
20
-7.777737
30
0
11
11.433217
21
-7.63954
31
0
39
0
210
0
220
0
230
1
0
LINE
5
AC
100
AcDbEntity
8
1
62
256
6
ByLayer
370
18
48
1
60
0
100
AcDbLine
10
10.348543
20
-7.77899
30
0
11
10.486421
21
-7.921767
31
0
39
0
210
0
220
0
230
1
0
LINE
5
AD
100
AcDbEntity
8
1
62
256
6
ByLayer
370
18
48
1
60
0
100
AcDbLine
10
10.674809
20
-7.86574
30
0
11
10.541354
21
-7.727543
31
0
39
0
210
0
220
0
230
1
0
LINE
5
AE
100
AcDbEntity
8
1
62
256
6
ByLayer
370
18
48
1
60
0
100
AcDbLine
10
11.560566
20
-7.529914
30
0
11
11.694021
21
-7.668111
31
0
39
0
210
0
220
0
230
1
0
LINE
5
AF
100
AcDbEntity
8
1
62
256
6
ByLayer
370
18
48
1
60
0
100
AcDbLine
10
11.860955
20
-6.477058
30
0
11
11.998833
21
-6.619835
31
0
39
0
210
0
220
0
230
1
0
LINE
5
B0
100
AcDbEntity
8
1
62
256
6
ByLayer
370
18
48
1
60
0
100
AcDbLine
10
11.781234
20
-6.660215
30
0
11
11.91469
21
-6.798412
31
0
39
0
210
0
220
0
230
1
0
LINE
5
B1
100
AcDbEntity
8
1
62
256
6
ByLayer
370
18
48
1
60
0
100
AcDbLine
10
11.944792
20
-6.96244
30
0
11
11.811336
21
-6.824243
31
0
39
0
210
0
220
0
230
1
0
LINE
5
B2
100
AcDbEntity
8
1
62
256
6
ByLayer
370
18
48
1
60
0
100
AcDbLine
10
10.698805
20
-7.781945
30
0
11
10.83226
21
-7.920142
31
0
39
0
210
0
220
0
230
1
0
LINE
5
B3
100
AcDbEntity
8
1
62
256
6
ByLayer
370
18
48
1
60
0
100
AcDbLine
10
11.75836
20
-7.505621
30
0
11
11.896238
21
-7.648398
31
0
39
0
210
0
220
0
230
1
0
LINE
5
B4
100
AcDbEntity
8
1
62
256
6
ByLayer
370
18
48
1
60
0
100
AcDbLine
10
11.379563
20
-7.831703
30
0
11
11.517441
21
-7.974479
31
0
39
0
210
0
220
0
230
1
0
LINE
5
B5
100
AcDbEntity
8
1
62
256
6
ByLayer
370
18
48
1
60
0
100
AcDbLine
10
19.386592
20
-6.619205
30
0
11
19.551058
21
-6.637998
31
0
39
0
210
0
220
0
230
1
0
LINE
5
B6
100
AcDbEntity
8
1
62
256
6
ByLayer
370
18
48
1
60
0
100
AcDbLine
10
1.789123
20
-6.324966
30
0
11
3.766158
21
-8.145412
31
0
39
0
210
0
220
0
230
1
0
LINE
5
B7
100
AcDbEntity
8
1
62
256
6
ByLayer
370
18
48
1
60
0
100
AcDbLine
10
10.47491
20
-17.814939
30
0
11
10.573399
21
-17.816658
31
0
39
0
210
0
220
0
230
1
0
LINE
5
B8
100
AcDbEntity
8
1
62
256
6
ByLayer
370
18
48
1
60
0
100
AcDbLine
10
15.138011
20
5.166177
30
0
11
17.370074
21
3.565266
31
0
39
0
210
0
220
0
230
1
0
LINE
5
B9
100
AcDbEntity
8
1
62
256
6
ByLayer
370
18
48
1
60
0
100
AcDbLine
10
4.985062
20
12.448214
30
0
11
2.69227
21
12.449247
31
0
39
0
210
0
220
0
230
1
0
LINE
5
BA
100
AcDbEntity
8
1
62
256
6
ByLayer
370
18
48
1
60
0
100
AcDbLine
10
15.113465
20
5.183782
30
0
11
15.138011
21
5.166177
31
0
39
0
210
0
220
0
230
1
0
LINE
5
BB
100
AcDbEntity
8
1
62
256
6
ByLayer
370
18
48
1
60
0
100
AcDbLine
10
22.735413
20
-0.282936
30
0
11
23.666409
21
-12.438381
31
0
39
0
210
0
220
0
230
1
0
LINE
5
BC
100
AcDbEntity
8
1
62
256
6
ByLayer
370
18
48
1
60
0
100
AcDbLine
10
0
20
-12.4375
30
0
11
0
21
12.4375
31
0
39
0
210
0
220
0
230
1
0
LINE
5
BD
100
AcDbEntity
8
1
62
256
6
ByLayer
370
18
48
1
60
0
100
AcDbLine
10
18.273711
20
-5.40898
30
0
11
18.074849
21
-5.405074
31
0
39
0
210
0
220
0
230
1
0
LINE
5
BE
100
AcDbEntity
8
1
62
256
6
ByLayer
370
18
48
1
60
0
100
AcDbLine
10
3.054189
20
-15.491689
30
0
11
5.286882
21
-17.724382
31
0
39
0
210
0
220
0
230
1
0
LINE
5
BF
100
AcDbEntity
8
1
62
256
6
ByLayer
370
18
48
1
60
0
100
AcDbLine
10
20.504145
20
-9.546073
30
0
11
22.603078
21
-13.448389
31
0
39
0
210
0
220
0
230
1
0
LINE
5
C0
100
AcDbEntity
8
1
62
256
6
ByLayer
370
18
48
1
60
0
100
AcDbLine
10
0
20
12.4375
30
0
11
2.69227
21
12.449247
31
0
39
0
210
0
220
0
230
1
0
LINE
5
C1
100
AcDbEntity
8
1
62
256
6
ByLayer
370
18
48
1
60
0
100
AcDbLine
10
3.766158
20
-8.145412
30
0
11
3.054189
21
-15.491689
31
0
39
0
210
0
220
0
230
1
0
LINE
5
C2
100
AcDbEntity
8
1
62
256
6
ByLayer
370
18
48
1
60
0
100
AcDbLine
10
23.666409
20
-12.438381
30
0
11
22.603078
21
-13.448389
31
0
39
0
210
0
220
0
230
1
0
LINE
5
C3
100
AcDbEntity
8
1
62
256
6
ByLayer
370
18
48
1
60
0
100
AcDbLine
10
20.557202
20
-7.810474
30
0
11
20.504145
21
-9.546073
31
0
39
0
210
0
220
0
230
1
0
LINE
5
C4
100
AcDbEntity
8
1
62
256
6
ByLayer
370
18
48
1
60
0
100
AcDbLine
10
10.47491
20
-17.814939
30
0
11
5.286882
21
-17.724382
31
0
39
0
210
0
220
0
230
1
0
LINE
5
C5
100
AcDbEntity
8
1
62
256
6
ByLayer
370
18
48
1
60
0
100
AcDbLine
10
19.551058
20
-6.637998
30
0
11
20.557202
21
-7.810474
31
0
39
0
210
0
220
0
230
1
0
LINE
5
C6
100
AcDbEntity
8
1
62
256
6
ByLayer
370
18
48
1
60
0
100
AcDbLine
10
1.593264
20
-6.454832
30
0
11
1.789123
21
-6.324966
31
0
39
0
210
0
220
0
230
1
0
LINE
5
C7
100
AcDbEntity
8
1
62
256
6
ByLayer
370
18
48
1
60
0
100
AcDbLine
10
4.985062
20
12.448214
30
0
11
14.353614
21
5.728773
31
0
39
0
210
0
220
0
230
1
0
LINE
5
C8
100
AcDbEntity
8
1
62
256
6
ByLayer
370
18
48
1
60
0
100
AcDbLine
10
22.735413
20
-0.282936
30
0
11
17.370074
21
3.565266
31
0
39
0
210
0
220
0
230
1
0
LINE
5
C9
100
AcDbEntity
8
1
62
256
6
ByLayer
370
18
48
1
60
0
100
AcDbLine
10
2.69227
20
12.449247
30
0
11
0.92023
21
-5.835106
31
0
39
0
210
0
220
0
230
1
0
LINE
5
CA
100
AcDbEntity
8
1
62
256
6
ByLayer
370
18
48
1
60
0
100
AcDbLine
10
3.054189
20
-15.491689
30
0
11
0
21
-12.4375
31
0
39
0
210
0
220
0
230
1
0
LINE
5
CB
100
AcDbEntity
8
1
62
256
6
ByLayer
370
18
48
1
60
0
100
AcDbLine
10
10.573399
20
-17.816658
30
0
11
11.8472
21
-15.73522
31
0
39
0
210
0
220
0
230
1
0
LINE
5
CC
100
AcDbEntity
8
1
62
256
6
ByLayer
370
18
48
1
60
0
100
AcDbLine
10
14.353614
20
5.728773
30
0
11
15.113465
21
5.183782
31
0
39
0
210
0
220
0
230
1
0
LINE
5
CD
100
AcDbEntity
8
1
62
256
6
ByLayer
370
18
48
1
60
0
100
AcDbLine
10
13.779071
20
-12.441025
30
0
11
12.214189
21
-14.998101
31
0
39
0
210
0
220
0
230
1
0
LINE
5
CE
100
AcDbEntity
8
SK1
62
256
6
ByLayer
370
18
48
1
60
0
100
AcDbLine
10
0
20
-12.4375
30
0
11
0
21
12.4375
31
0
39
0
210
0
220
0
230
1
0
LINE
5
D0
100
AcDbEntity
8
SK1
62
256
6
ByLayer
370
18
48
1
60
0
100
AcDbLine
10
0
20
-12.4375
30
0
11
-125.973586
21
-12.4375
31
0
39
0
210
0
220
0
230
1
0
LINE
5
D1
100
AcDbEntity
8
SK1
62
256
6
ByLayer
370
18
48
1
60
0
100
AcDbLine
10
-125.973586
20
12.4375
30
0
11
0
21
12.4375
31
0
39
0
210
0
220
0
230
1
0
LINE
5
D2
100
AcDbEntity
8
SK1
62
256
6
ByLayer
370
18
48
1
60
0
100
AcDbLine
10
-125.973586
20
-12.4375
30
0
11
-125.973586
21
12.4375
31
0
39
0
210
0
220
0
230
1
0
LINE
5
D3
100
AcDbEntity
8
1
62
256
6
ByLayer
370
18
48
1
60
0
100
AcDbLine
10
18.782412
20
-6.783937
30
0
11
25.281349
21
-18.740167
31
0
39
0
210
0
220
0
230
1
0
LINE
5
D4
100
AcDbEntity
8
1
62
256
6
ByLayer
370
18
48
1
60
0
100
AcDbLine
10
10.243947
20
-18.477688
30
0
11
9.757799
21
-17.974268
31
0
39
0
210
0
220
0
230
1
0
LINE
5
D5
100
AcDbEntity
8
1
62
256
6
ByLayer
370
18
48
1
60
0
100
AcDbLine
10
24.563982
20
-19.912372
30
0
11
10.894086
21
-19.673763
31
0
39
0
210
0
220
0
230
1
0
MTEXT
5
168
100
AcDbEntity
8
SK6
62
256
6
ByLayer
370
18
48
1
60
0
100
AcDbMText
10
-64.423586
20
21.568374
30
0
210
0
220
0
230
1
1
\W0.7699;DTGNL 2525M 16
40
3.5
41
0
44
1.084337
50
0
71
7
72
5
7
iso_b_vert
0
DIMENSION
5
188
100
AcDbEntity
8
2
62
256
6
ByLayer
370
13
48
1
60
0
100
AcDbDimension
2
DimnDraft3D2
10
23.568964
20
-19.894927
30
0
11
13.279199
21
-31.814376
31
0
70
34
71
5
72
1
41
1
210
0
220
0
230
1
3
Standard
100
AcDb2LineAngularDimension
13
25.376414
23
-19.9125
33
0
14
25.376414
24
-18.325
34
0
15
24.568811
25
-19.912379
35
0
16
10.069572
26
-34.968468
36
0
40
0
0
DIMENSION
5
19D
100
AcDbEntity
8
2
62
256
6
ByLayer
370
13
48
1
60
0
100
AcDbDimension
2
DimnDraft3D3
10
25.376414
20
-48.1625
30
0
11
7.169786
21
-48.1625
31
0
70
32
71
5
72
1
41
1
210
0
220
0
230
1
3
Standard
100
AcDbAlignedDimension
13
0
23
-14.4375
33
0
14
25.376414
24
-21.9125
34
0
50
0
100
AcDbRotatedDimension
1001
ACAD
1000
DSTYLE
1002
{
1070
   279
1070
     0
1070
   172
1070
     1
1070
   173
1070
     1
1070
   340
1005
169
1070
    77
1070
     1
1070
    73
1070
     0
1070
   171
1070
     3
1070
   274
1070
     4
1070
   177
1070
     2
1070
   176
1070
     2
1070
   178
1070
     7
1070
    78
1070
     8
1070
    41
1041
3.175
1070
   147
1041
2.25
1070
    42
1041
2.0
1070
    44
1041
2.0
1070
   140
1041
4.5
1070
   343
1005
189
1070
   344
1005
189
1002
}
0
DIMENSION
5
1AB
100
AcDbEntity
8
2
62
256
6
ByLayer
370
13
48
1
60
0
100
AcDbDimension
2
DimnDraft3D4
10
47.626414
20
-19.9125
30
0
11
47.626414
21
-9.019079
31
0
70
32
71
5
72
1
41
1
210
0
220
0
230
1
3
Standard
100
AcDbAlignedDimension
13
2
23
12.4375
33
0
14
27.376414
24
-19.9125
34
0
50
90
100
AcDbRotatedDimension
1001
ACAD
1000
DSTYLE
1002
{
1070
    74
1070
     0
1070
   279
1070
     0
1070
   172
1070
     1
1070
   173
1070
     1
1070
   340
1005
169
1070
    77
1070
     1
1070
    73
1070
     0
1070
   171
1070
     3
1070
   274
1070
     4
1070
   177
1070
     2
1070
   176
1070
     2
1070
   178
1070
     7
1070
    78
1070
     8
1070
    41
1041
3.175
1070
   147
1041
2.25
1070
    42
1041
2.0
1070
    44
1041
2.0
1070
   140
1041
4.5
1070
   343
1005
189
1070
   344
1005
189
1002
}
0
DIMENSION
5
1B9
100
AcDbEntity
8
SK2
62
256
6
ByLayer
370
13
48
1
60
0
100
AcDbDimension
2
DimnDraft3D5
10
-133.723586
20
-12.4375
30
0
11
-133.723586
21
-5.281579
31
0
70
32
71
5
72
1
41
1
210
0
220
0
230
1
3
Standard
100
AcDbAlignedDimension
13
-127.973586
23
12.4375
33
0
14
-127.973586
24
-12.4375
34
0
50
90
100
AcDbRotatedDimension
1001
ACAD
1000
DSTYLE
1002
{
1070
    74
1070
     0
1070
   279
1070
     0
1070
   172
1070
     1
1070
   173
1070
     1
1070
   340
1005
169
1070
    77
1070
     1
1070
    73
1070
     0
1070
   171
1070
     3
1070
   274
1070
     4
1070
   177
1070
     2
1070
   176
1070
     2
1070
   178
1070
     7
1070
    78
1070
     8
1070
    41
1041
3.175
1070
   147
1041
2.25
1070
    42
1041
2.0
1070
    44
1041
2.0
1070
   140
1041
4.5
1070
   343
1005
189
1070
   344
1005
189
1002
}
0
ENDSEC
0
SECTION
2
OBJECTS
0
DICTIONARY
5
223
330
0
100
AcDbDictionary
280
0
281
1
3
ACAD_GROUP
350
224
3
ACAD_MLINESTYLE
350
225
0
DICTIONARY
5
224
330
0
100
AcDbDictionary
280
0
281
1
0
DICTIONARY
5
225
330
0
100
AcDbDictionary
280
0
281
1
3
Standard
350
18
0
MLINESTYLE
5
18
330
225
100
AcDbMlineStyle
2
Standard
70
0
3

62
256
51
90
52
90
71
2
49
-0.5
62
256
6
ByLayer
49
0.5
62
256
6
ByLayer
0
RASTERVARIABLES
5
212
330

100
AcDbRasterVariables
90
0
70
1
71
1
72
1
0
ENDSEC
0
EOF
