0
SECTION
2
HEADER
9
$ACADVER
1
AC1015
9
$DWGCODEPAGE
3
ANSI_1252
9
$HANDSEED
5
22f
9
$ANGBASE
50
0
9
$ANGDIR
70
0
9
$ATTMODE
70
1
9
$AUNITS
70
0
9
$AUPREC
70
0
9
$CECOLOR
62
256
9
$CELTSCALE
40
1
9
$CELTYPE
6
ByLayer
9
$CELWEIGHT
370
18
9
$CLAYER
8
0
9
$CMLJUST
70
0
9
$CMLSCALE
40
1
9
$CMLSTYLE
2
Standard
9
$DIMSTYLE
2
Standard
9
$TEXTSIZE
40
0.2
9
$TEXTSTYLE
7
Standard
9
$LUNITS
70
2
9
$LUPREC
70
4
9
$EXTNAMES
290
1
9
$INSUNITS
70
4
9
$LTSCALE
40
1
9
$LWDISPLAY
290
1
9
$PDMODE
70
0
9
$PDSIZE
40
0
9
$PLINEGEN
70
0
0
ENDSEC
0
SECTION
2
CLASSES
0
CLASS
1
RASTERVARIABLES
2
AcDbRasterVariables
3
ISM
90
0
280
0
281
0
0
ENDSEC
0
SECTION
2
TABLES
0
TABLE
2
VPORT
5
225
100
AcDbSymbolTable
0
VPORT
5
1
100
AcDbSymbolTableRecord
100
AcDbViewportTableRecord
2
*Active
70
0
10
0
20
0
11
1
21
1
12
-1
22
1
13
0
23
0
14
0.5
24
0.5
15
10
25
10
16
0
26
0
36
1
17
0
27
0
37
0
0
ENDTAB
0
TABLE
2
LTYPE
5
226
100
AcDbSymbolTable
0
LTYPE
5
14
100
AcDbSymbolTableRecord
100
AcDbLinetypeTableRecord
70
0
2
ByBlock
3

72
65
73
0
40
0
0
LTYPE
5
15
100
AcDbSymbolTableRecord
100
AcDbLinetypeTableRecord
70
0
2
ByLayer
3

72
65
73
0
40
0
0
LTYPE
5
16
100
AcDbSymbolTableRecord
100
AcDbLinetypeTableRecord
70
0
2
CONTINUOUS
3
Solid line
72
65
73
0
40
0
0
LTYPE
5
6A
100
AcDbSymbolTableRecord
100
AcDbLinetypeTableRecord
70
0
2
CENTER
3
____ _ ____ _ ____ _ ____
72
65
73
4
40
47.5
49
22
74
0
49
-8.5
74
0
49
8.5
74
0
49
-8.5
74
0
0
LTYPE
5
6B
100
AcDbSymbolTableRecord
100
AcDbLinetypeTableRecord
70
0
2
DASHED
3
__ __ __ __ __ __ __ __ __
72
65
73
2
40
25.72
49
12.86
74
0
49
-12.86
74
0
0
ENDTAB
0
TABLE
2
LAYER
5
227
100
AcDbSymbolTable
0
LAYER
5
10
100
AcDbSymbolTableRecord
100
AcDbLayerTableRecord
2
0
70
0
62
7
6
CONTINUOUS
290
1
370
-3
390
0
0
LAYER
5
6D
100
AcDbSymbolTableRecord
100
AcDbLayerTableRecord
2
2
70
0
62
7
6
CONTINUOUS
290
1
370
-3
390
0
0
LAYER
5
6F
100
AcDbSymbolTableRecord
100
AcDbLayerTableRecord
2
80
70
0
62
-6
6
CONTINUOUS
290
1
370
-3
390
0
0
LAYER
5
71
100
AcDbSymbolTableRecord
100
AcDbLayerTableRecord
2
81
70
0
62
-3
6
CONTINUOUS
290
1
370
-3
390
0
0
LAYER
5
73
100
AcDbSymbolTableRecord
100
AcDbLayerTableRecord
2
1
70
0
62
4
6
CONTINUOUS
290
1
370
-3
390
0
0
LAYER
5
212
100
AcDbSymbolTableRecord
100
AcDbLayerTableRecord
2
SK1
70
0
62
4
6
CONTINUOUS
290
1
370
-3
390
0
0
LAYER
5
213
100
AcDbSymbolTableRecord
100
AcDbLayerTableRecord
2
SK6
70
0
62
5
6
CONTINUOUS
290
1
370
-3
390
0
0
LAYER
5
214
100
AcDbSymbolTableRecord
100
AcDbLayerTableRecord
2
SK2
70
0
62
7
6
CONTINUOUS
290
1
370
-3
390
0
0
ENDTAB
0
TABLE
2
STYLE
5
228
100
AcDbSymbolTable
0
STYLE
5
11
100
AcDbSymbolTableRecord
100
AcDbTextStyleTableRecord
2
Standard
3
txt
70
0
71
0
40
0
41
1
42
0
50
0
0
STYLE
5
168
100
AcDbSymbolTableRecord
100
AcDbTextStyleTableRecord
2
iso_b_vert
3
simplex.shx
70
0
71
0
40
0
41
1
42
0
50
0
0
STYLE
5
169
100
AcDbSymbolTableRecord
100
AcDbTextStyleTableRecord
2
DWGDirectTextStyle
3
simplex
70
0
71
0
40
0
41
1
42
0
50
0
0
ENDTAB
0
TABLE
2
DIMSTYLE
5
229
100
AcDbSymbolTable
100
AcDbDimStyleTable
0
DIMSTYLE
105
27
100
AcDbSymbolTableRecord
100
AcDbDimStyleTableRecord
2
Standard
70
0
3
<>
41
0.18
42
0.0625
44
0.18
140
0.18
147
0.09
73
0
74
0
77
1
271
2
275
0
278
52
280
0
340
11
0
ENDTAB
0
TABLE
2
VIEW
5
22a
100
AcDbSymbolTable
0
ENDTAB
0
TABLE
2
UCS
5
22b
100
AcDbSymbolTable
0
ENDTAB
0
TABLE
2
APPID
5
22c
100
AcDbSymbolTable
0
APPID
5
12
100
AcDbSymbolTableRecord
100
AcDbRegAppTableRecord
2
ACAD
70
0
0
ENDTAB
0
TABLE
2
BLOCK_RECORD
5
22d
100
AcDbSymbolTable
0
BLOCK_RECORD
5
1F
100
AcDbSymbolTableRecord
100
AcDbBlockTableRecord
2
*Model_Space
340
0
70
0
0
BLOCK_RECORD
5
1B
100
AcDbSymbolTableRecord
100
AcDbBlockTableRecord
2
*Paper_Space
340
0
70
0
0
BLOCK_RECORD
5
23
100
AcDbSymbolTableRecord
100
AcDbBlockTableRecord
2
*Paper_Space0
340
0
70
0
0
BLOCK_RECORD
5
16B
100
AcDbSymbolTableRecord
100
AcDbBlockTableRecord
2
DimnDraft3D11
340
0
70
0
0
BLOCK_RECORD
5
17A
100
AcDbSymbolTableRecord
100
AcDbBlockTableRecord
2
DimnDraft3D2
340
0
70
0
0
BLOCK_RECORD
5
188
100
AcDbSymbolTableRecord
100
AcDbBlockTableRecord
2
_CLOSED
340
0
70
0
0
BLOCK_RECORD
5
18F
100
AcDbSymbolTableRecord
100
AcDbBlockTableRecord
2
DimnDraft3D3
340
0
70
0
0
BLOCK_RECORD
5
19D
100
AcDbSymbolTableRecord
100
AcDbBlockTableRecord
2
DimnDraft3D4
340
0
70
0
0
BLOCK_RECORD
5
1AB
100
AcDbSymbolTableRecord
100
AcDbBlockTableRecord
2
DimnDraft3D5
340
0
70
0
0
ENDTAB
0
ENDSEC
0
SECTION
2
BLOCKS
0
BLOCK
5
20
100
AcDbEntity
8
0
100
AcDbBlockBegin
2
*Model_Space
70
0
10
0
20
0
30
0
3
*Model_Space
0
ENDBLK
5
21
100
AcDbEntity
8
0
100
AcDbBlockEnd
0
BLOCK
5
1C
100
AcDbEntity
8
0
100
AcDbBlockBegin
2
*Paper_Space
70
0
10
0
20
0
30
0
3
*Paper_Space
0
ENDBLK
5
1D
100
AcDbEntity
8
0
100
AcDbBlockEnd
0
BLOCK
5
24
100
AcDbEntity
8
0
100
AcDbBlockBegin
2
*Paper_Space0
70
0
10
0
20
0
30
0
3
*Paper_Space0
0
ENDBLK
5
25
100
AcDbEntity
8
0
100
AcDbBlockEnd
0
BLOCK
5
16C
100
AcDbEntity
8
0
100
AcDbBlockBegin
2
DimnDraft3D11
70
0
10
0
20
0
30
0
3
DimnDraft3D11
0
LINE
5
16E
100
AcDbEntity
8
SK2
62
256
6
ByLayer
370
25
48
1
60
0
100
AcDbLine
10
25.376414
20
-17.4125
30
0
11
25.376414
21
-55.6625
31
0
39
0
210
0
220
0
230
1
0
LINE
5
170
100
AcDbEntity
8
SK2
62
256
6
ByLayer
370
25
48
1
60
0
100
AcDbLine
10
-100.973586
20
-11.9375
30
0
11
-100.973586
21
-55.6625
31
0
39
0
210
0
220
0
230
1
0
LINE
5
171
100
AcDbEntity
8
SK2
62
256
6
ByLayer
370
25
48
1
60
0
100
AcDbLine
10
25.376414
20
-53.6625
30
0
11
-100.973586
21
-53.6625
31
0
39
0
210
0
220
0
230
1
0
LINE
5
172
100
AcDbEntity
8
SK2
62
256
6
ByLayer
370
25
48
1
60
0
100
AcDbLine
10
25.376414
20
-53.6625
30
0
11
22.201416
21
-54.080497
31
0
39
0
210
0
220
0
230
1
0
LINE
5
173
100
AcDbEntity
8
SK2
62
256
6
ByLayer
370
25
48
1
60
0
100
AcDbLine
10
25.376414
20
-53.6625
30
0
11
22.201413
21
-53.244503
31
0
39
0
210
0
220
0
230
1
0
LINE
5
174
100
AcDbEntity
8
SK2
62
256
6
ByLayer
370
25
48
1
60
0
100
AcDbLine
10
22.201416
20
-54.080497
30
0
11
22.201413
21
-53.244503
31
0
39
0
210
0
220
0
230
1
0
LINE
5
175
100
AcDbEntity
8
SK2
62
256
6
ByLayer
370
25
48
1
60
0
100
AcDbLine
10
-100.973586
20
-53.6625
30
0
11
-97.798587
21
-53.244503
31
0
39
0
210
0
220
0
230
1
0
LINE
5
176
100
AcDbEntity
8
SK2
62
256
6
ByLayer
370
25
48
1
60
0
100
AcDbLine
10
-100.973586
20
-53.6625
30
0
11
-97.798584
21
-54.080497
31
0
39
0
210
0
220
0
230
1
0
LINE
5
177
100
AcDbEntity
8
SK2
62
256
6
ByLayer
370
25
48
1
60
0
100
AcDbLine
10
-97.798587
20
-53.244503
30
0
11
-97.798584
21
-54.080497
31
0
39
0
210
0
220
0
230
1
0
MTEXT
5
178
100
AcDbEntity
8
SK2
62
256
6
ByLayer
370
18
48
1
60
0
100
AcDbMText
10
-43.074244
20
-52.5375
30
0
210
0
220
0
230
1
1
\W0.6864;125.0
40
4.5
41
0
44
1.084337
50
0
71
7
72
5
7
iso_b_vert
0
ENDBLK
5
16D
100
AcDbEntity
8
0
100
AcDbBlockEnd
0
BLOCK
5
185
100
AcDbEntity
8
0
100
AcDbBlockBegin
2
DimnDraft3D2
70
0
10
0
20
0
30
0
3
DimnDraft3D2
0
MTEXT
5
17B
100
AcDbEntity
8
2
62
256
6
ByLayer
370
18
48
1
60
0
100
AcDbMText
10
9.220231
20
-27.999114
30
0
210
0
220
0
230
1
1
\W0.6369;91%%d
40
4.5
41
0
44
1.084337
50
314.5
71
7
72
5
7
iso_b_vert
0
LINE
5
17C
100
AcDbEntity
8
2
62
256
6
ByLayer
370
13
48
1
60
0
100
AcDbLine
10
25.376414
20
-17.4125
30
0
11
25.376414
21
-38.887159
31
0
39
0
210
0
220
0
230
1
0
LINE
5
17D
100
AcDbEntity
8
2
62
256
6
ByLayer
370
13
48
1
60
0
100
AcDbLine
10
21.569268
20
-15.360022
30
0
11
1.919304
21
-15.01703
31
0
39
0
210
0
220
0
230
1
0
ARC
5
17E
100
AcDbEntity
8
2
62
256
6
ByLayer
370
13
48
1
60
0
100
AcDbCircle
39
0
10
25.376414
20
-15.426476
30
0
40
21.4606831971137
210
0
220
0
230
1
100
AcDbArc
50
179
51
270
0
LINE
5
17F
100
AcDbEntity
8
2
62
256
6
ByLayer
370
13
48
1
60
0
100
AcDbLine
10
25.376414
20
-36.887159
30
0
11
22.188151
21
-37.18768
31
0
39
0
210
0
220
0
230
1
0
LINE
5
180
100
AcDbEntity
8
2
62
256
6
ByLayer
370
13
48
1
60
0
100
AcDbLine
10
25.376414
20
-36.887159
30
0
11
22.219005
21
-36.352256
31
0
39
0
210
0
220
0
230
1
0
LINE
5
181
100
AcDbEntity
8
2
62
256
6
ByLayer
370
13
48
1
60
0
100
AcDbLine
10
22.188151
20
-37.18768
30
0
11
22.219005
21
-36.352256
31
0
39
0
210
0
220
0
230
1
0
LINE
5
182
100
AcDbEntity
8
2
62
256
6
ByLayer
370
13
48
1
60
0
100
AcDbLine
10
3.918999
20
-15.051935
30
0
11
4.398717
21
-18.218196
31
0
39
0
210
0
220
0
230
1
0
LINE
5
183
100
AcDbEntity
8
2
62
256
6
ByLayer
370
13
48
1
60
0
100
AcDbLine
10
3.918999
20
-15.051935
30
0
11
3.562882
21
-18.234471
31
0
39
0
210
0
220
0
230
1
0
LINE
5
184
100
AcDbEntity
8
2
62
256
6
ByLayer
370
13
48
1
60
0
100
AcDbLine
10
4.398717
20
-18.218196
30
0
11
3.562882
21
-18.234471
31
0
39
0
210
0
220
0
230
1
0
ENDBLK
5
186
100
AcDbEntity
8
0
100
AcDbBlockEnd
0
BLOCK
5
189
100
AcDbEntity
8
0
100
AcDbBlockBegin
2
_CLOSED
70
0
10
0
20
0
30
0
3
_CLOSED
0
LINE
5
18B
100
AcDbEntity
8
0
62
256
6
ByLayer
370
-2
48
1
60
0
100
AcDbLine
10
-1
20
0.166667
30
0
11
0
21
0
31
0
39
0
210
0
220
0
230
1
0
LINE
5
18C
100
AcDbEntity
8
0
62
256
6
ByLayer
370
-2
48
1
60
0
100
AcDbLine
10
0
20
0
30
0
11
-1
21
-0.166667
31
0
39
0
210
0
220
0
230
1
0
LINE
5
18D
100
AcDbEntity
8
0
62
256
6
ByLayer
370
-2
48
1
60
0
100
AcDbLine
10
-1
20
0.166667
30
0
11
-1
21
-0.166667
31
0
39
0
210
0
220
0
230
1
0
LINE
5
18E
100
AcDbEntity
8
0
62
256
6
ByLayer
370
-2
48
1
60
0
100
AcDbLine
10
0
20
0
30
0
11
-1
21
0
31
0
39
0
210
0
220
0
230
1
0
ENDBLK
5
18A
100
AcDbEntity
8
0
100
AcDbBlockEnd
0
BLOCK
5
19A
100
AcDbEntity
8
0
100
AcDbBlockBegin
2
DimnDraft3D3
70
0
10
0
20
0
30
0
3
DimnDraft3D3
0
MTEXT
5
190
100
AcDbEntity
8
2
62
256
6
ByLayer
370
18
48
1
60
0
100
AcDbMText
10
8.294786
20
-42.5375
30
0
210
0
220
0
230
1
1
\W0.7528;25.4
40
4.5
41
0
44
1.084337
50
0
71
7
72
5
7
iso_b_vert
0
LINE
5
191
100
AcDbEntity
8
2
62
256
6
ByLayer
370
13
48
1
60
0
100
AcDbLine
10
0
20
-11.9375
30
0
11
0
21
-45.6625
31
0
39
0
210
0
220
0
230
1
0
LINE
5
192
100
AcDbEntity
8
2
62
256
6
ByLayer
370
13
48
1
60
0
100
AcDbLine
10
25.376414
20
-17.4125
30
0
11
25.376414
21
-45.6625
31
0
39
0
210
0
220
0
230
1
0
LINE
5
193
100
AcDbEntity
8
2
62
256
6
ByLayer
370
13
48
1
60
0
100
AcDbLine
10
0
20
-43.6625
30
0
11
25.376414
21
-43.6625
31
0
39
0
210
0
220
0
230
1
0
LINE
5
194
100
AcDbEntity
8
2
62
256
6
ByLayer
370
13
48
1
60
0
100
AcDbLine
10
0
20
-43.6625
30
0
11
3.174998
21
-43.244503
31
0
39
0
210
0
220
0
230
1
0
LINE
5
195
100
AcDbEntity
8
2
62
256
6
ByLayer
370
13
48
1
60
0
100
AcDbLine
10
0
20
-43.6625
30
0
11
3.175002
21
-44.080497
31
0
39
0
210
0
220
0
230
1
0
LINE
5
196
100
AcDbEntity
8
2
62
256
6
ByLayer
370
13
48
1
60
0
100
AcDbLine
10
3.174998
20
-43.244503
30
0
11
3.175002
21
-44.080497
31
0
39
0
210
0
220
0
230
1
0
LINE
5
197
100
AcDbEntity
8
2
62
256
6
ByLayer
370
13
48
1
60
0
100
AcDbLine
10
25.376414
20
-43.6625
30
0
11
22.201416
21
-44.080497
31
0
39
0
210
0
220
0
230
1
0
LINE
5
198
100
AcDbEntity
8
2
62
256
6
ByLayer
370
13
48
1
60
0
100
AcDbLine
10
25.376414
20
-43.6625
30
0
11
22.201413
21
-43.244503
31
0
39
0
210
0
220
0
230
1
0
LINE
5
199
100
AcDbEntity
8
2
62
256
6
ByLayer
370
13
48
1
60
0
100
AcDbLine
10
22.201416
20
-44.080497
30
0
11
22.201413
21
-43.244503
31
0
39
0
210
0
220
0
230
1
0
ENDBLK
5
19B
100
AcDbEntity
8
0
100
AcDbBlockEnd
0
BLOCK
5
1A8
100
AcDbEntity
8
0
100
AcDbBlockBegin
2
DimnDraft3D4
70
0
10
0
20
0
30
0
3
DimnDraft3D4
0
MTEXT
5
19E
100
AcDbEntity
8
2
62
256
6
ByLayer
370
18
48
1
60
0
100
AcDbMText
10
46.501414
20
-6.894079
30
0
210
0
220
0
230
1
1
\W0.7346;25.0
40
4.5
41
0
44
1.084337
50
90
71
7
72
5
7
iso_b_vert
0
LINE
5
19F
100
AcDbEntity
8
2
62
256
6
ByLayer
370
13
48
1
60
0
100
AcDbLine
10
2
20
9.9375
30
0
11
49.626414
21
9.9375
31
0
39
0
210
0
220
0
230
1
0
LINE
5
1A0
100
AcDbEntity
8
2
62
256
6
ByLayer
370
13
48
1
60
0
100
AcDbLine
10
27.376414
20
-15.4125
30
0
11
49.626414
21
-15.4125
31
0
39
0
210
0
220
0
230
1
0
LINE
5
1A1
100
AcDbEntity
8
2
62
256
6
ByLayer
370
13
48
1
60
0
100
AcDbLine
10
47.626414
20
9.9375
30
0
11
47.626414
21
-15.4125
31
0
39
0
210
0
220
0
230
1
0
LINE
5
1A2
100
AcDbEntity
8
2
62
256
6
ByLayer
370
13
48
1
60
0
100
AcDbLine
10
47.626414
20
9.9375
30
0
11
48.044411
21
6.762502
31
0
39
0
210
0
220
0
230
1
0
LINE
5
1A3
100
AcDbEntity
8
2
62
256
6
ByLayer
370
13
48
1
60
0
100
AcDbLine
10
47.626414
20
9.9375
30
0
11
47.208417
21
6.762498
31
0
39
0
210
0
220
0
230
1
0
LINE
5
1A4
100
AcDbEntity
8
2
62
256
6
ByLayer
370
13
48
1
60
0
100
AcDbLine
10
48.044411
20
6.762502
30
0
11
47.208417
21
6.762498
31
0
39
0
210
0
220
0
230
1
0
LINE
5
1A5
100
AcDbEntity
8
2
62
256
6
ByLayer
370
13
48
1
60
0
100
AcDbLine
10
47.626414
20
-15.4125
30
0
11
47.208417
21
-12.237502
31
0
39
0
210
0
220
0
230
1
0
LINE
5
1A6
100
AcDbEntity
8
2
62
256
6
ByLayer
370
13
48
1
60
0
100
AcDbLine
10
47.626414
20
-15.4125
30
0
11
48.044411
21
-12.237498
31
0
39
0
210
0
220
0
230
1
0
LINE
5
1A7
100
AcDbEntity
8
2
62
256
6
ByLayer
370
13
48
1
60
0
100
AcDbLine
10
47.208417
20
-12.237502
30
0
11
48.044411
21
-12.237498
31
0
39
0
210
0
220
0
230
1
0
ENDBLK
5
1A9
100
AcDbEntity
8
0
100
AcDbBlockEnd
0
BLOCK
5
1B6
100
AcDbEntity
8
0
100
AcDbBlockBegin
2
DimnDraft3D5
70
0
10
0
20
0
30
0
3
DimnDraft3D5
0
MTEXT
5
1AC
100
AcDbEntity
8
SK2
62
256
6
ByLayer
370
18
48
1
60
0
100
AcDbMText
10
-109.848586
20
-4.156579
30
0
210
0
220
0
230
1
1
\W0.7346;20.0
40
4.5
41
0
44
1.084337
50
90
71
7
72
5
7
iso_b_vert
0
LINE
5
1AD
100
AcDbEntity
8
SK2
62
256
6
ByLayer
370
13
48
1
60
0
100
AcDbLine
10
-102.973586
20
9.9375
30
0
11
-110.723586
21
9.9375
31
0
39
0
210
0
220
0
230
1
0
LINE
5
1AE
100
AcDbEntity
8
SK2
62
256
6
ByLayer
370
13
48
1
60
0
100
AcDbLine
10
-102.973586
20
-9.9375
30
0
11
-110.723586
21
-9.9375
31
0
39
0
210
0
220
0
230
1
0
LINE
5
1AF
100
AcDbEntity
8
SK2
62
256
6
ByLayer
370
13
48
1
60
0
100
AcDbLine
10
-108.723586
20
21.1875
30
0
11
-108.723586
21
-21.1875
31
0
39
0
210
0
220
0
230
1
0
LINE
5
1B0
100
AcDbEntity
8
SK2
62
256
6
ByLayer
370
13
48
1
60
0
100
AcDbLine
10
-108.723586
20
9.9375
30
0
11
-109.141583
21
13.112498
31
0
39
0
210
0
220
0
230
1
0
LINE
5
1B1
100
AcDbEntity
8
SK2
62
256
6
ByLayer
370
13
48
1
60
0
100
AcDbLine
10
-108.723586
20
9.9375
30
0
11
-108.305589
21
13.112502
31
0
39
0
210
0
220
0
230
1
0
LINE
5
1B2
100
AcDbEntity
8
SK2
62
256
6
ByLayer
370
13
48
1
60
0
100
AcDbLine
10
-109.141583
20
13.112498
30
0
11
-108.305589
21
13.112502
31
0
39
0
210
0
220
0
230
1
0
LINE
5
1B3
100
AcDbEntity
8
SK2
62
256
6
ByLayer
370
13
48
1
60
0
100
AcDbLine
10
-108.723586
20
-9.9375
30
0
11
-108.305589
21
-13.112498
31
0
39
0
210
0
220
0
230
1
0
LINE
5
1B4
100
AcDbEntity
8
SK2
62
256
6
ByLayer
370
13
48
1
60
0
100
AcDbLine
10
-108.723586
20
-9.9375
30
0
11
-109.141583
21
-13.112502
31
0
39
0
210
0
220
0
230
1
0
LINE
5
1B5
100
AcDbEntity
8
SK2
62
256
6
ByLayer
370
13
48
1
60
0
100
AcDbLine
10
-108.305589
20
-13.112498
30
0
11
-109.141583
21
-13.112502
31
0
39
0
210
0
220
0
230
1
0
ENDBLK
5
1B7
100
AcDbEntity
8
0
100
AcDbBlockEnd
0
ENDSEC
0
SECTION
2
ENTITIES
0
ELLIPSE
5
D6
100
AcDbEntity
8
1
62
256
6
ByLayer
370
18
48
1
60
0
100
AcDbEllipse
10
18.00285
20
-3.260312
30
0
11
1.704100188817
21
1.64563042348721
31
0
210
0
220
0
230
1
40
0.989133
41
0.777753293310915
42
1.33165515689149
0
ELLIPSE
5
D7
100
AcDbEntity
8
1
62
256
6
ByLayer
370
18
48
1
60
0
100
AcDbEllipse
10
17.067027
20
-2.089217
30
0
11
1.79709395938974
21
1.73543346385629
31
0
210
0
220
0
230
1
40
0.989133
41
-0.79304303348398
42
-0.418898835881281
0
ELLIPSE
5
D8
100
AcDbEntity
8
1
62
256
6
ByLayer
370
18
48
1
60
0
100
AcDbEllipse
10
17.051707
20
-2.073353
30
0
11
1.68919298933895
21
1.63123470828744
31
0
210
0
220
0
230
1
40
0.989133
41
-0.793043033483982
42
-0.351084803212919
0
ELLIPSE
5
D9
100
AcDbEntity
8
1
62
256
6
ByLayer
370
18
48
1
60
0
100
AcDbEllipse
10
16.966128
20
-2.317412
30
0
11
0.856463949778189
21
0.827077622327733
31
0
210
0
220
0
230
1
40
0.989133
41
0.14212593299853
42
0.769593548975497
0
ELLIPSE
5
DA
100
AcDbEntity
8
1
62
256
6
ByLayer
370
18
48
1
60
0
100
AcDbEllipse
10
10.511858
20
-12.863936
30
0
11
-0.856463949778191
21
-0.827077622327728
31
0
210
0
220
0
230
1
40
0.989133
41
-0.399602483995071
42
-3.07753885379948E-05
0
ELLIPSE
5
DB
100
AcDbEntity
8
1
62
256
6
ByLayer
370
18
48
1
60
0
100
AcDbEllipse
10
10.747504
20
-1.475168
30
0
11
-0.208608542098209
21
-0.201450927433109
31
0
210
0
220
0
230
1
40
0.989133
41
2.69101284290193
42
2.78834531482254
0
ELLIPSE
5
DC
100
AcDbEntity
8
1
62
256
6
ByLayer
370
18
48
1
60
0
100
AcDbEllipse
10
9.745598
20
-2.639865
30
0
11
0.226592037106674
21
0.218817386694585
31
0
210
0
220
0
230
1
40
0.989133
41
-9.53575759906398E-07
42
0.334933638525116
0
ELLIPSE
5
DD
100
AcDbEntity
8
1
62
256
6
ByLayer
370
18
48
1
60
0
100
AcDbEllipse
10
11.320302
20
-1.28431
30
0
11
0.226592037106674
21
0.218817386694585
31
0
210
0
220
0
230
1
40
0.989133
41
2.69101284290198
42
3.14158319757523
0
ELLIPSE
5
DE
100
AcDbEntity
8
1
62
256
6
ByLayer
370
18
48
1
60
0
100
AcDbEllipse
10
10.883727
20
-2.37523
30
0
11
0.647405820304784
21
0.6251925334131
31
0
210
0
220
0
230
1
40
0.989133
41
-3.11276806385255
42
-0.0289017698918491
0
ELLIPSE
5
DF
100
AcDbEntity
8
1
62
256
6
ByLayer
370
18
48
1
60
0
100
AcDbEllipse
10
10.919473
20
-2.412246
30
0
11
0.647405820304784
21
0.6251925334131
31
0
210
0
220
0
230
1
40
0.989133
41
0.559267714610513
42
1.17333872682104
0
ELLIPSE
5
E0
100
AcDbEntity
8
1
62
256
6
ByLayer
370
18
48
1
60
0
100
AcDbEllipse
10
10.919473
20
-2.412246
30
0
11
0.647405820304784
21
0.6251925334131
31
0
210
0
220
0
230
1
40
0.989133
41
-0.487929836586095
42
0.103319352981312
0
ELLIPSE
5
E1
100
AcDbEntity
8
1
62
256
6
ByLayer
370
18
48
1
60
0
100
AcDbEllipse
10
10.919473
20
-2.412246
30
0
11
0.647405820304784
21
0.6251925334131
31
0
210
0
220
0
230
1
40
0.989133
41
2.95593336389877
42
-2.76930898916641
0
ELLIPSE
5
E2
100
AcDbEntity
8
1
62
256
6
ByLayer
370
18
48
1
60
0
100
AcDbEllipse
10
10.919473
20
-2.412246
30
0
11
0.647405820304784
21
0.6251925334131
31
0
210
0
220
0
230
1
40
0.989133
41
1.83315882397805
42
2.44016055196178
0
ELLIPSE
5
E3
100
AcDbEntity
8
1
62
256
6
ByLayer
370
18
48
1
60
0
100
AcDbEllipse
10
10.191941
20
-3.038529
30
0
11
-0.208608542098209
21
-0.201450927433109
31
0
210
0
220
0
230
1
40
0.989133
41
0.353238143606328
42
1.38213118972166
0
ELLIPSE
5
E4
100
AcDbEntity
8
1
62
256
6
ByLayer
370
18
48
1
60
0
100
AcDbEllipse
10
10.842875
20
-2.332925
30
0
11
2.30188736108368
21
2.2229067854688
31
0
210
0
220
0
230
1
40
0.989133
41
0.808310282001073
42
3.14155436762425
0
ELLIPSE
5
E5
100
AcDbEntity
8
1
62
256
6
ByLayer
370
18
48
1
60
0
100
AcDbEllipse
10
10.842875
20
-2.332925
30
0
11
2.30188736108368
21
2.2229067854688
31
0
210
0
220
0
230
1
40
0.989133
41
-0.751566426032004
42
-2.80605091687659E-16
0
ELLIPSE
5
E6
100
AcDbEntity
8
1
62
256
6
ByLayer
370
18
48
1
60
0
100
AcDbEllipse
10
10.842875
20
-2.332925
30
0
11
2.30188736108368
21
2.2229067854688
31
0
210
0
220
0
230
1
40
0.989133
41
5.99112529171419E-05
42
0.808310282001073
0
ELLIPSE
5
E7
100
AcDbEntity
8
1
62
256
6
ByLayer
370
18
48
1
60
0
100
AcDbEllipse
10
11.647006
20
-1.785963
30
0
11
-0.208608542098209
21
-0.201450927433109
31
0
210
0
220
0
230
1
40
0.989133
41
1.6438152917053
42
2.78835510516427
0
ELLIPSE
5
E8
100
AcDbEntity
8
1
62
256
6
ByLayer
370
18
48
1
60
0
100
AcDbEllipse
10
10.518645
20
-3.540182
30
0
11
0.226592037106674
21
0.218817386694585
31
0
210
0
220
0
230
1
40
0.989133
41
-1.01994183171625E-05
42
0.195776035703197
0
ELLIPSE
5
E9
100
AcDbEntity
8
1
62
256
6
ByLayer
370
18
48
1
60
0
100
AcDbEllipse
10
12.093349
20
-2.184627
30
0
11
0.226592037106674
21
0.218817386694585
31
0
210
0
220
0
230
1
40
0.989133
41
2.83017044572386
42
-3.14159241313838
0
ELLIPSE
5
EA
100
AcDbEntity
8
1
62
256
6
ByLayer
370
18
48
1
60
0
100
AcDbEllipse
10
11.091443
20
-3.349323
30
0
11
-0.208608542098209
21
-0.201450927433109
31
0
210
0
220
0
230
1
40
0.989133
41
0.353276286586936
42
2.42932874091834
0
ELLIPSE
5
EB
100
AcDbEntity
8
1
62
256
6
ByLayer
370
18
48
1
60
0
100
AcDbEllipse
10
11.818975
20
-2.72304
30
0
11
-0.208608542098209
21
-0.201450927433109
31
0
210
0
220
0
230
1
40
0.989133
41
0.596617740508797
42
2.78881233080575
0
ELLIPSE
5
EC
100
AcDbEntity
8
1
62
256
6
ByLayer
370
18
48
1
60
0
100
AcDbEllipse
10
17.601307
20
-2.163295
30
0
11
0.571155801468887
21
0.551558746144446
31
0
210
0
220
0
230
1
40
0.989133
41
1.37350151723955E-06
42
1.61284869072864
0
ELLIPSE
5
ED
100
AcDbEntity
8
1
62
256
6
ByLayer
370
18
48
1
60
0
100
AcDbEllipse
10
17.863447
20
-10.557999
30
0
11
1.37034231964512
21
1.3233241957244
31
0
210
0
220
0
230
1
40
0.989133
41
-3.10196863056458
42
-0.156332814719096
0
ELLIPSE
5
EE
100
AcDbEntity
8
1
62
256
6
ByLayer
370
18
48
1
60
0
100
AcDbEllipse
10
10.430348
20
-13.880916
30
0
11
0.571155801468887
21
0.551558746144446
31
0
210
0
220
0
230
1
40
0.989133
41
1.8271325060725
42
3.14156164904429
0
ELLIPSE
5
EF
100
AcDbEntity
8
1
62
256
6
ByLayer
370
18
48
1
60
0
100
AcDbEllipse
10
11.822543
20
4.509014
30
0
11
-2.17077636444839
21
-2.07068345614491
31
0
210
0
220
0
230
1
40
0.986421
41
-0.0517566673072192
42
-0.0201405995016328
0
ELLIPSE
5
F0
100
AcDbEntity
8
1
62
256
6
ByLayer
370
18
48
1
60
0
100
AcDbEllipse
10
11.283518
20
-2.846393
30
0
11
-2.42403360696737
21
-2.31226319269515
31
0
210
0
220
0
230
1
40
0.986421
41
0.0671821682038516
42
3.08983598628257
0
ELLIPSE
5
F1
100
AcDbEntity
8
1
62
256
6
ByLayer
370
18
48
1
60
0
100
AcDbEllipse
10
13.444034
20
-10.857187
30
0
11
-1.49948699785523
21
-2.03909450950237
31
0
210
0
220
0
230
1
40
0.482826
41
-1.39634722290759
42
-1.05401673784083
0
ELLIPSE
5
F2
100
AcDbEntity
8
1
62
256
6
ByLayer
370
18
48
1
60
0
100
AcDbEllipse
10
18.201711
20
-3.264217
30
0
11
1.704100188817
21
1.64563042348721
31
0
210
0
220
0
230
1
40
0.989133
41
-0.793043033483987
42
0.777753293310905
0
ELLIPSE
5
F3
100
AcDbEntity
8
1
62
256
6
ByLayer
370
18
48
1
60
0
100
AcDbEllipse
10
1.703669
20
-0.81564
30
0
11
-0.552554132343143
21
-1.22574174629794
31
0
210
0
220
0
230
1
40
0.461973
41
-0.937649548864879
42
0.633146777929827
0
ELLIPSE
5
F4
100
AcDbEntity
8
1
62
256
6
ByLayer
370
18
48
1
60
0
100
AcDbEllipse
10
18.087454
20
-2.666715
30
0
11
-0.571155801468889
21
-0.551558746144444
31
0
210
0
220
0
230
1
40
0.989133
41
2.87433005726914
42
-1.31446014751729
0
ELLIPSE
5
F5
100
AcDbEntity
8
1
62
256
6
ByLayer
370
18
48
1
60
0
100
AcDbEllipse
10
24.586391
20
-14.622946
30
0
11
-0.571155801468889
21
-0.551558746144444
31
0
210
0
220
0
230
1
40
0.989133
41
0.779934954875905
42
2.87433005726907
0
ELLIPSE
5
F6
100
AcDbEntity
8
1
62
256
6
ByLayer
370
18
48
1
60
0
100
AcDbEllipse
10
10.916495
20
-14.384337
30
0
11
-0.571155801468889
21
-0.551558746144444
31
0
210
0
220
0
230
1
40
0.989133
41
-1.31446014751729
42
0.779934954875889
0
ELLIPSE
5
F7
100
AcDbEntity
8
1
62
256
6
ByLayer
370
18
48
1
60
0
100
AcDbEllipse
10
11.7319
20
1.949497
30
0
11
-2.83188993749755
21
3.49978669219644
31
0
210
0
220
0
230
1
40
0.189222
41
0.550288855981397
42
0.611937036210641
0
ELLIPSE
5
F8
100
AcDbEntity
8
1
62
256
6
ByLayer
370
18
48
1
60
0
100
AcDbEllipse
10
18.092617
20
-10.802383
30
0
11
-0.704584371089141
21
-1.53131921202965
31
0
210
0
220
0
230
1
40
0.826259
41
1.20144493873526
42
1.4825286237418
0
ELLIPSE
5
F9
100
AcDbEntity
8
1
62
256
6
ByLayer
370
18
48
1
60
0
100
AcDbEllipse
10
18.092617
20
-10.802383
30
0
11
-1.6011824785808
21
-0.56219056103574
31
0
210
0
220
0
230
1
40
0.828245
41
1.59515298443853
42
1.87623666936739
0
ELLIPSE
5
FA
100
AcDbEntity
8
1
62
256
6
ByLayer
370
18
48
1
60
0
100
AcDbEllipse
10
5.312962
20
-0.648262
30
0
11
0.646332246737707
21
1.67995673361756
31
0
210
0
220
0
230
1
40
0.78494
41
1.166850015268
42
2.59707982171683
0
ELLIPSE
5
FB
100
AcDbEntity
8
1
62
256
6
ByLayer
370
18
48
1
60
0
100
AcDbEllipse
10
0.613072
20
1.047457
30
0
11
3.91440860772008
21
-4.54724149917365
31
0
210
0
220
0
230
1
40
0.008497
41
-0.812430626025368
42
-0.810541504948298
0
ELLIPSE
5
FC
100
AcDbEntity
8
1
62
256
6
ByLayer
370
18
48
1
60
0
100
AcDbEllipse
10
6.85744
20
-2.313662
30
0
11
-3.61172931881452
21
0.909968921773974
31
0
210
0
220
0
230
1
40
0.460545
41
0.286624782318519
42
0.578248645816264
0
ELLIPSE
5
FD
100
AcDbEntity
8
1
62
256
6
ByLayer
370
18
48
1
60
0
100
AcDbEllipse
10
13.084131
20
3.003266
30
0
11
-1.64958908559062
21
2.14203681884766
31
0
210
0
220
0
230
1
40
0.320461
41
-0.117834440468873
42
0.623656443262356
0
ELLIPSE
5
FE
100
AcDbEntity
8
1
62
256
6
ByLayer
370
18
48
1
60
0
100
AcDbEllipse
10
6.448509
20
-2.598613
30
0
11
-3.04034410627985
21
3.32032364396499
31
0
210
0
220
0
230
1
40
0.206199
41
-0.612498090370531
42
-0.550849916211006
0
ELLIPSE
5
FF
100
AcDbEntity
8
1
62
256
6
ByLayer
370
18
48
1
60
0
100
AcDbEllipse
10
11.480302
20
1.665843
30
0
11
-0.482988758404173
21
3.63699153870844
31
0
210
0
220
0
230
1
40
0.450788
41
-0.605251230315704
42
-0.313627366829127
0
ELLIPSE
5
100
100
AcDbEntity
8
1
62
256
6
ByLayer
370
18
48
1
60
0
100
AcDbEllipse
10
9.577602
20
3.743377
30
0
11
-1.57552893499874
21
-1.94130821471757
31
0
210
0
220
0
230
1
40
0.996407
41
-2.86350485709181
42
-1.74971046097917
0
ELLIPSE
5
101
100
AcDbEntity
8
1
62
256
6
ByLayer
370
18
48
1
60
0
100
AcDbEllipse
10
9.991963
20
3.379569
30
0
11
1.74960065820333
21
0.422962807838334
31
0
210
0
220
0
230
1
40
0.789807
41
0.520101998968111
42
1.95033180541692
0
ELLIPSE
5
102
100
AcDbEntity
8
1
62
256
6
ByLayer
370
18
48
1
60
0
100
AcDbEllipse
10
5.212578
20
-3.772815
30
0
11
-1.87420939809723
21
1.9486022145118
31
0
210
0
220
0
230
1
40
0.337398
41
-0.624812356274461
42
0.116678527452657
0
ELLIPSE
5
103
100
AcDbEntity
8
1
62
256
6
ByLayer
370
18
48
1
60
0
100
AcDbEllipse
10
7.422943
20
-1.759789
30
0
11
2.93580645579006
21
-3.41043112438024
31
0
210
0
220
0
230
1
40
0.008497
41
1.94288547246096
42
2.38176204129019
0
ELLIPSE
5
104
100
AcDbEntity
8
1
62
256
6
ByLayer
370
18
48
1
60
0
100
AcDbEllipse
10
10.757466
20
1.110673
30
0
11
2.93580645579006
21
-3.41043112438024
31
0
210
0
220
0
230
1
40
0.008497
41
1.94288547246098
42
2.38176204128967
0
ELLIPSE
5
105
100
AcDbEntity
8
1
62
256
6
ByLayer
370
18
48
1
60
0
100
AcDbEllipse
10
4.95474
20
-0.236128
30
0
11
-1.57552893494727
21
-1.94130821476618
31
0
210
0
220
0
230
1
40
0.996407
41
-1.7497104610073
42
-0.635916064896653
0
ELLIPSE
5
106
100
AcDbEntity
8
1
62
256
6
ByLayer
370
18
48
1
60
0
100
AcDbEllipse
10
11.052929
20
-2.550443
30
0
11
0.647405820304784
21
0.6251925334131
31
0
210
0
220
0
230
1
40
0.989133
41
-2.76930898917421
42
-2.58232493897423
0
ELLIPSE
5
107
100
AcDbEntity
8
1
62
256
6
ByLayer
370
18
48
1
60
0
100
AcDbEllipse
10
11.057351
20
-2.555023
30
0
11
0.66538931531325
21
0.642558992674575
31
0
210
0
220
0
230
1
40
0.989133
41
-1.77516444366444
42
-1.48207438208809
0
ELLIPSE
5
108
100
AcDbEntity
8
1
62
256
6
ByLayer
370
18
48
1
60
0
100
AcDbEllipse
10
11.830398
20
-3.45534
30
0
11
0.226592037106674
21
0.218817386694585
31
0
210
0
220
0
230
1
40
0.989133
41
1.95612847315304
42
2.42932874091832
0
ELLIPSE
5
109
100
AcDbEntity
8
1
62
256
6
ByLayer
370
18
48
1
60
0
100
AcDbEllipse
10
11.052929
20
-2.550443
30
0
11
0.647405820304784
21
0.6251925334131
31
0
210
0
220
0
230
1
40
0.989133
41
-1.72211143796982
42
-1.53512738778273
0
ELLIPSE
5
10A
100
AcDbEntity
8
1
62
256
6
ByLayer
370
18
48
1
60
0
100
AcDbEllipse
10
10.919473
20
-2.412246
30
0
11
0.647405820304784
21
0.6251925334131
31
0
210
0
220
0
230
1
40
0.989133
41
-1.53512738778269
42
-0.674913886773192
0
ELLIPSE
5
10B
100
AcDbEntity
8
1
62
256
6
ByLayer
370
18
48
1
60
0
100
AcDbEllipse
10
11.45818
20
-1.427087
30
0
11
0.226592037106674
21
0.218817386694585
31
0
210
0
220
0
230
1
40
0.989133
41
2.691012842902
42
-3.1189721965124
0
ELLIPSE
5
10C
100
AcDbEntity
8
1
62
256
6
ByLayer
370
18
48
1
60
0
100
AcDbEllipse
10
10.518645
20
-3.540182
30
0
11
0.226592037106674
21
0.218817386694585
31
0
210
0
220
0
230
1
40
0.989133
41
0.735775343330695
42
1.38213118972169
0
ELLIPSE
5
10D
100
AcDbEntity
8
1
62
256
6
ByLayer
370
18
48
1
60
0
100
AcDbEllipse
10
11.057351
20
-2.555023
30
0
11
0.66538931531325
21
0.642558992674575
31
0
210
0
220
0
230
1
40
0.989133
41
-2.82236199486105
42
-2.52927193328468
0
ELLIPSE
5
10E
100
AcDbEntity
8
1
62
256
6
ByLayer
370
18
48
1
60
0
100
AcDbEllipse
10
11.012518
20
-2.508596
30
0
11
-2.30188736108369
21
-2.22290678546879
31
0
210
0
220
0
230
1
40
0.989133
41
0
42
6.28318530717959
0
ELLIPSE
5
10F
100
AcDbEntity
8
1
62
256
6
ByLayer
370
18
48
1
60
0
100
AcDbEllipse
10
12.231227
20
-2.327404
30
0
11
0.226592037106674
21
0.218817386694585
31
0
210
0
220
0
230
1
40
0.989133
41
1.64381529170542
42
2.11701555947067
0
ELLIPSE
5
110
100
AcDbEntity
8
1
62
256
6
ByLayer
370
18
48
1
60
0
100
AcDbEllipse
10
11.784884
20
-1.92874
30
0
11
-0.208608542098209
21
-0.201450927433109
31
0
210
0
220
0
230
1
40
0.989133
41
1.64381529170535
42
-1.75946146386815
0
ELLIPSE
5
111
100
AcDbEntity
8
1
62
256
6
ByLayer
370
18
48
1
60
0
100
AcDbEllipse
10
11.69252
20
-3.312563
30
0
11
0.226592037106674
21
0.218817386694585
31
0
210
0
220
0
230
1
40
0.989133
41
0.596617740508784
42
1.24297358689979
0
ELLIPSE
5
112
100
AcDbEntity
8
1
62
256
6
ByLayer
370
18
48
1
60
0
100
AcDbEllipse
10
11.052929
20
-2.550443
30
0
11
0.647405820304784
21
0.6251925334131
31
0
210
0
220
0
230
1
40
0.989133
41
0.3722836644234
42
0.559267714610506
0
ELLIPSE
5
113
100
AcDbEntity
8
1
62
256
6
ByLayer
370
18
48
1
60
0
100
AcDbEllipse
10
10.284304
20
-1.654706
30
0
11
0.226592037106674
21
0.218817386694585
31
0
210
0
220
0
230
1
40
0.989133
41
-2.54497491308103
42
-2.07177464531576
0
ELLIPSE
5
114
100
AcDbEntity
8
1
62
256
6
ByLayer
370
18
48
1
60
0
100
AcDbEllipse
10
11.69252
20
-3.312563
30
0
11
0.226592037106674
21
0.218817386694585
31
0
210
0
220
0
230
1
40
0.989133
41
1.78297289452723
42
2.42932874091829
0
ELLIPSE
5
115
100
AcDbEntity
8
1
62
256
6
ByLayer
370
18
48
1
60
0
100
AcDbEllipse
10
10.656523
20
-3.682959
30
0
11
0.226592037106674
21
0.218817386694585
31
0
210
0
220
0
230
1
40
0.989133
41
0.90893092195653
42
1.38213118972171
0
ELLIPSE
5
116
100
AcDbEntity
8
1
62
256
6
ByLayer
370
18
48
1
60
0
100
AcDbEllipse
10
10.15785
20
-2.244228
30
0
11
-0.208608542098209
21
-0.201450927433109
31
0
210
0
220
0
230
1
40
0.989133
41
-2.544974913081
42
0.334933638525128
0
ELLIPSE
5
117
100
AcDbEntity
8
1
62
256
6
ByLayer
370
18
48
1
60
0
100
AcDbEllipse
10
11.229321
20
-3.4921
30
0
11
-0.208608542098209
21
-0.201450927433109
31
0
210
0
220
0
230
1
40
0.989133
41
-0.450579810687826
42
2.42932874091827
0
ELLIPSE
5
118
100
AcDbEntity
8
1
62
256
6
ByLayer
370
18
48
1
60
0
100
AcDbEllipse
10
11.057351
20
-2.555023
30
0
11
0.66538931531325
21
0.642558992674575
31
0
210
0
220
0
230
1
40
0.989133
41
1.36642820992536
42
1.65951827150168
0
ELLIPSE
5
119
100
AcDbEntity
8
1
62
256
6
ByLayer
370
18
48
1
60
0
100
AcDbEllipse
10
11.057351
20
-2.555023
30
0
11
0.66538931531325
21
0.642558992674575
31
0
210
0
220
0
230
1
40
0.989133
41
0.319230658728768
42
0.612320720305115
0
ELLIPSE
5
11A
100
AcDbEntity
8
1
62
256
6
ByLayer
370
18
48
1
60
0
100
AcDbEllipse
10
10.656523
20
-3.682959
30
0
11
0.226592037106674
21
0.218817386694585
31
0
210
0
220
0
230
1
40
0.989133
41
-0.450579810687831
42
0.0226204570773957
0
ELLIPSE
5
11B
100
AcDbEntity
8
1
62
256
6
ByLayer
370
18
48
1
60
0
100
AcDbEllipse
10
11.057351
20
-2.555023
30
0
11
0.66538931531325
21
0.642558992674575
31
0
210
0
220
0
230
1
40
0.989133
41
2.41362576112194
42
2.7067158226983
0
ELLIPSE
5
11C
100
AcDbEntity
8
1
62
256
6
ByLayer
370
18
48
1
60
0
100
AcDbEllipse
10
10.329819
20
-3.181305
30
0
11
-0.208608542098209
21
-0.201450927433109
31
0
210
0
220
0
230
1
40
0.989133
41
-1.4977773618844
42
1.38213118972164
0
ELLIPSE
5
11D
100
AcDbEntity
8
1
62
256
6
ByLayer
370
18
48
1
60
0
100
AcDbEllipse
10
9.883476
20
-2.782642
30
0
11
0.226592037106674
21
0.218817386694585
31
0
210
0
220
0
230
1
40
0.989133
41
-0.13826662924017
42
0.334933638525114
0
ELLIPSE
5
11E
100
AcDbEntity
8
1
62
256
6
ByLayer
370
18
48
1
60
0
100
AcDbEllipse
10
11.052929
20
-2.550443
30
0
11
0.647405820304784
21
0.6251925334131
31
0
210
0
220
0
230
1
40
0.989133
41
-0.674913886782953
42
-0.487929836585949
0
ELLIPSE
5
11F
100
AcDbEntity
8
1
62
256
6
ByLayer
370
18
48
1
60
0
100
AcDbEllipse
10
10.919473
20
-2.412246
30
0
11
0.647405820304784
21
0.6251925334131
31
0
210
0
220
0
230
1
40
0.989133
41
-2.58232493897932
42
-1.72211143796979
0
ELLIPSE
5
120
100
AcDbEntity
8
1
62
256
6
ByLayer
370
18
48
1
60
0
100
AcDbEllipse
10
11.057351
20
-2.555023
30
0
11
-1.36674562064344
21
-1.31985090387209
31
0
210
0
220
0
230
1
40
0.989133
41
0
42
6.28318530717959
0
ELLIPSE
5
121
100
AcDbEntity
8
1
62
256
6
ByLayer
370
18
48
1
60
0
100
AcDbEllipse
10
10.284304
20
-1.654706
30
0
11
0.226592037106674
21
0.218817386694585
31
0
210
0
220
0
230
1
40
0.989133
41
-1.18546418043675
42
-0.712263912671431
0
ELLIPSE
5
122
100
AcDbEntity
8
1
62
256
6
ByLayer
370
18
48
1
60
0
100
AcDbEllipse
10
11.830398
20
-3.45534
30
0
11
0.226592037106674
21
0.218817386694585
31
0
210
0
220
0
230
1
40
0.989133
41
0.596617740508722
42
1.06981800827402
0
ELLIPSE
5
123
100
AcDbEntity
8
1
62
256
6
ByLayer
370
18
48
1
60
0
100
AcDbEllipse
10
11.45818
20
-1.427087
30
0
11
0.226592037106674
21
0.218817386694585
31
0
210
0
220
0
230
1
40
0.989133
41
-2.23266173163335
42
-1.75946146386806
0
ELLIPSE
5
124
100
AcDbEntity
8
1
62
256
6
ByLayer
370
18
48
1
60
0
100
AcDbEllipse
10
11.052929
20
-2.550443
30
0
11
0.647405820304784
21
0.6251925334131
31
0
210
0
220
0
230
1
40
0.989133
41
1.41948121562
42
1.6064652658071
0
ELLIPSE
5
125
100
AcDbEntity
8
1
62
256
6
ByLayer
370
18
48
1
60
0
100
AcDbEllipse
10
9.883476
20
-2.782642
30
0
11
0.226592037106674
21
0.218817386694585
31
0
210
0
220
0
230
1
40
0.989133
41
-1.49777736188441
42
-1.02457709411918
0
ELLIPSE
5
126
100
AcDbEntity
8
1
62
256
6
ByLayer
370
18
48
1
60
0
100
AcDbEllipse
10
12.231227
20
-2.327404
30
0
11
0.226592037106674
21
0.218817386694585
31
0
210
0
220
0
230
1
40
0.989133
41
3.00332602434963
42
-2.80665901506475
0
ELLIPSE
5
127
100
AcDbEntity
8
1
62
256
6
ByLayer
370
18
48
1
60
0
100
AcDbEllipse
10
10.885382
20
-1.617945
30
0
11
-0.208608542098209
21
-0.201450927433109
31
0
210
0
220
0
230
1
40
0.989133
41
2.69101284290191
42
-0.712263912671521
0
ELLIPSE
5
128
100
AcDbEntity
8
1
62
256
6
ByLayer
370
18
48
1
60
0
100
AcDbEllipse
10
12.093349
20
-2.184627
30
0
11
0.226592037106674
21
0.218817386694585
31
0
210
0
220
0
230
1
40
0.989133
41
1.64381529170538
42
2.29017113809641
0
ELLIPSE
5
129
100
AcDbEntity
8
1
62
256
6
ByLayer
370
18
48
1
60
0
100
AcDbEllipse
10
11.057351
20
-2.555023
30
0
11
0.66538931531325
21
0.642558992674575
31
0
210
0
220
0
230
1
40
0.989133
41
-0.72796689246786
42
-0.43487683089149
0
ELLIPSE
5
12A
100
AcDbEntity
8
1
62
256
6
ByLayer
370
18
48
1
60
0
100
AcDbEllipse
10
11.956853
20
-2.865817
30
0
11
-0.208608542098209
21
-0.201450927433109
31
0
210
0
220
0
230
1
40
0.989133
41
0.596617740508828
42
-2.80665901506473
0
ELLIPSE
5
12B
100
AcDbEntity
8
1
62
256
6
ByLayer
370
18
48
1
60
0
100
AcDbEllipse
10
11.052929
20
-2.550443
30
0
11
0.647405820304784
21
0.6251925334131
31
0
210
0
220
0
230
1
40
0.989133
41
2.46667876680686
42
2.65366281700387
0
POINT
5
6C
100
AcDbEntity
8
2
62
256
6
ByLayer
370
18
48
1
60
0
100
AcDbPoint
10
25.376414
20
35.2875
30
0
39
0
210
0
220
0
230
1
50
360
0
POINT
5
6E
100
AcDbEntity
8
80
62
256
6
ByLayer
370
18
48
1
60
0
100
AcDbPoint
10
0
20
0
30
0
39
0
210
0
220
0
230
1
50
360
0
POINT
5
70
100
AcDbEntity
8
81
62
256
6
ByLayer
370
18
48
1
60
0
100
AcDbPoint
10
25.376414
20
-15.4125
30
0
39
0
210
0
220
0
230
1
50
360
0
SPLINE
5
12C
100
AcDbEntity
8
1
62
256
6
ByLayer
370
18
48
1
60
0
100
AcDbSpline
70
4
71
3
72
10
73
6
40
0
40
0
40
0
40
0
40
0.690921703394061
40
0.690921703394061
40
1
40
1
40
1
40
1
41
1
10
11.6194669722973
20
5.21542077495579
30
0
41
1
10
11.4319153034277
20
5.42077370424951
30
0
41
1
10
11.2083947389649
20
5.62956493163543
30
0
41
1
10
10.8250550011396
20
5.89486331608472
30
0
41
1
10
10.6972883458922
20
5.97227658374024
30
0
41
1
10
10.561594272186
20
6.04105997508935
30
0
0
SPLINE
5
12D
100
AcDbEntity
8
1
62
256
6
ByLayer
370
18
48
1
60
0
100
AcDbSpline
70
4
71
3
72
12
73
8
40
0
40
0
40
0
40
0
40
0.501637567130161
40
0.501637567130161
40
0.886957471304443
40
0.886957471304443
40
1
40
1
40
1
40
1
41
1
10
9.80491393311274
20
2.27245580013198
30
0
41
1
10
9.9393106521278
20
2.11724088910262
30
0
41
1
10
10.0930786104785
20
1.96471189186099
30
0
41
1
10
10.3917440250784
20
1.72553583403825
30
0
41
1
10
10.5335485539899
20
1.62982230573175
30
0
41
1
10
10.7201919255026
20
1.52911549028639
30
0
41
1
10
10.7633152206136
20
1.50749141425507
30
0
41
1
10
10.8063807205815
20
1.48754292993169
30
0
0
SPLINE
5
12E
100
AcDbEntity
8
1
62
256
6
ByLayer
370
18
48
1
60
0
100
AcDbSpline
70
4
71
3
72
8
73
4
40
0
40
0
40
0
40
0
40
1
40
1
40
1
40
1
41
1
10
8.15003285187419
20
-6.56602006817994
30
0
41
1
10
8.43961952519521
20
-6.47480343998595
30
0
41
1
10
8.92530021980855
20
-6.19676576348033
30
0
41
1
10
9.51191473710202
20
-5.78638340721432
30
0
0
SPLINE
5
12F
100
AcDbEntity
8
1
62
256
6
ByLayer
370
18
48
1
60
0
100
AcDbSpline
70
4
71
3
72
8
73
4
40
0
40
0
40
0
40
0
40
1
40
1
40
1
40
1
41
1
10
14.6682525076723
20
-11.8100351392194
30
0
41
1
10
14.0000462639489
20
-10.8361678489666
30
0
41
1
10
14.5019792366197
20
-9.72490641641062
30
0
41
1
10
14.020015548222
20
-8.70849923229076
30
0
0
SPLINE
5
130
100
AcDbEntity
8
1
62
256
6
ByLayer
370
18
48
1
60
0
100
AcDbSpline
70
4
71
3
72
10
73
6
40
0
40
0
40
0
40
0
40
0.759976532001902
40
0.759976532001902
40
1
40
1
40
1
40
1
41
1
10
15.6302554120537
20
-8.5853670520905
30
0
41
1
10
15.896853668768
20
-8.69868207558181
30
0
41
1
10
16.1540619668203
20
-8.81961477094441
30
0
41
1
10
16.4776611458127
20
-8.98776786970447
30
0
41
1
10
16.5542772801861
20
-9.02884537847268
30
0
41
1
10
16.6297540341238
20
-9.07059240423965
30
0
0
SPLINE
5
131
100
AcDbEntity
8
1
62
256
6
ByLayer
370
18
48
1
60
0
100
AcDbSpline
70
4
71
2
72
8
73
5
40
0
40
0
40
0
40
0.145991510278038
40
0.563470207586081
40
1
40
1
40
1
41
1.02393576174182
10
14.3227226013582
20
-5.12245093017964
30
0
41
1.02323174907608
10
14.4763818252479
20
-5.33827532912247
30
0
41
1.02039724512338
10
15.0608418302229
20
-6.17005271983065
30
0
41
1.01644464721285
10
15.8567187041976
20
-7.42142744984238
30
0
41
1.01495409538129
10
16.3076565652576
20
-8.00223881818512
30
0
0
SPLINE
5
132
100
AcDbEntity
8
1
62
256
6
ByLayer
370
18
48
1
60
0
100
AcDbSpline
70
4
71
3
72
8
73
4
40
0
40
0
40
0
40
0
40
1
40
1
40
1
40
1
41
1
10
4.28063378157543
20
0.617993000758361
30
0
41
1
10
4.25825877085578
20
0.598731887273431
30
0
41
1
10
4.23681914468989
20
0.578956472062401
30
0
41
1
10
4.21624458186119
20
0.558703062252022
30
0
0
SPLINE
5
133
100
AcDbEntity
8
1
62
256
6
ByLayer
370
18
48
1
60
0
100
AcDbSpline
70
4
71
3
72
8
73
4
40
0
40
0
40
0
40
0
40
1
40
1
40
1
40
1
41
1
10
10.8063807205815
20
1.48754292993169
30
0
41
1
10
11.1429059244431
20
2.69640771749459
30
0
41
1
10
11.3734422176207
20
3.80469795849427
30
0
41
1
10
11.3441946541633
20
4.43333774890465
30
0
0
SPLINE
5
134
100
AcDbEntity
8
1
62
256
6
ByLayer
370
18
48
1
60
0
100
AcDbSpline
70
4
71
3
72
12
73
8
40
0
40
0
40
0
40
0
40
0.415356444741144
40
0.415356444741144
40
0.825259843212188
40
0.825259843212188
40
1
40
1
40
1
40
1
41
1
10
7.09854019462898
20
-1.70428289974544
30
0
41
1
10
7.05106148908556
20
-1.53909847888178
30
0
41
1
10
6.9803422327243
20
-1.3690186474376
30
0
41
1
10
6.8124894905792
20
-1.05418309903058
30
0
41
1
10
6.71391943404683
20
-0.904685744974984
30
0
41
1
10
6.56411870871085
20
-0.709372453899306
30
0
41
1
10
6.51770464841394
20
-0.652650006493843
30
0
41
1
10
6.47039053903654
20
-0.598006892203074
30
0
0
SPLINE
5
135
100
AcDbEntity
8
1
62
256
6
ByLayer
370
18
48
1
60
0
100
AcDbSpline
70
4
71
3
72
12
73
8
40
0
40
0
40
0
40
0
40
0.307573270173413
40
0.307573270173413
40
0.648852820657659
40
0.648852820657659
40
1
40
1
40
1
40
1
41
1
10
13.0986626846576
20
-6.17616023462625
30
0
41
1
10
13.2464207865874
20
-6.0992902348946
30
0
41
1
10
13.3893213642273
20
-6.01143442958076
30
0
41
1
10
13.6755224075681
20
-5.80615742362406
30
0
41
1
10
13.8181355276067
20
-5.68584689290279
30
0
41
1
10
14.0855886359988
20
-5.42165368674307
30
0
41
1
10
14.2107579186545
20
-5.27623965129817
30
0
41
1
10
14.3227226016452
20
-5.12245093058269
30
0
0
SPLINE
5
136
100
AcDbEntity
8
1
62
256
6
ByLayer
370
18
48
1
60
0
100
AcDbSpline
70
4
71
1
72
4
73
2
40
0
40
0
40
1
40
1
41
1
10
15.4171952021349
20
-0.310217981853668
30
0
41
1
10
15.7507298323701
20
0.40594910012345
30
0
0
SPLINE
5
137
100
AcDbEntity
8
1
62
256
6
ByLayer
370
18
48
1
60
0
100
AcDbSpline
70
4
71
3
72
10
73
6
40
0
40
0
40
0
40
0
40
0.207845795367686
40
0.207845795367686
40
1
40
1
40
1
40
1
41
1
10
10.8063807205815
20
1.48754292993169
30
0
41
1
10
10.8433859247318
20
1.47040165128806
30
0
41
1
10
10.880699302679
20
1.45417682221486
30
0
41
1
10
11.0600312216079
20
1.38121811424674
30
0
41
1
10
11.2060017998162
20
1.3369131834269
30
0
41
1
10
11.3511361819314
20
1.30729910887274
30
0
0
SPLINE
5
138
100
AcDbEntity
8
1
62
256
6
ByLayer
370
18
48
1
60
0
100
AcDbSpline
70
4
71
3
72
16
73
12
40
0
40
0
40
0
40
0
40
0.28382542465983
40
0.28382542465983
40
0.572792249827486
40
0.572792249827486
40
0.572792249827486
40
0.894188232602854
40
0.894188232602854
40
0.894188232602854
40
1
40
1
40
1
40
1
41
1
10
9.51191473710202
20
-5.78638340721432
30
0
41
1
10
9.79650057681556
20
-5.99967068044791
30
0
41
1
10
10.1210511051374
20
-6.17189453424427
30
0
41
1
10
10.8014562008957
20
-6.41529963999088
30
0
41
1
10
11.1662986881509
20
-6.48843752514858
30
0
41
1
10
11.5294072387478
20
-6.50463103212334
30
0
41
1
10
11.9309052358935
20
-6.52253658848227
30
0
41
1
10
12.3452945922514
20
-6.46966079460103
30
0
41
1
10
12.7262551104377
20
-6.33671129502127
30
0
41
1
10
12.8540069099979
20
-6.29212783555204
30
0
41
1
10
12.9790221799489
20
-6.2383832123671
30
0
41
1
10
13.0986626846576
20
-6.17616023462625
30
0
0
SPLINE
5
139
100
AcDbEntity
8
1
62
256
6
ByLayer
370
18
48
1
60
0
100
AcDbSpline
70
4
71
3
72
8
73
4
40
0
40
0
40
0
40
0
40
1
40
1
40
1
40
1
41
1
10
12.9865133777665
20
0.329162020291932
30
0
41
1
10
12.5425108844895
20
0.846262508408557
30
0
41
1
10
11.969187380401
20
1.18118830037233
30
0
41
1
10
11.3511361819314
20
1.30729910887277
30
0
0
SPLINE
5
13A
100
AcDbEntity
8
1
62
256
6
ByLayer
370
18
48
1
60
0
100
AcDbSpline
70
4
71
3
72
8
73
4
40
0
40
0
40
0
40
0
40
1
40
1
40
1
40
1
41
1
10
19.4532813887367
20
-6.83986876719322
30
0
41
1
10
19.4194754371428
20
-6.79041565836957
30
0
41
1
10
19.385065914509
20
-6.74141409239084
30
0
41
1
10
19.3500402672621
20
-6.69289674044515
30
0
0
SPLINE
5
13B
100
AcDbEntity
8
1
62
256
6
ByLayer
370
18
48
1
60
0
100
AcDbSpline
70
4
71
3
72
11
73
7
40
0
40
0
40
0
40
0
40
0.559926195718577
40
0.559926195718577
40
0.559926195718577
40
1
40
1
40
1
40
1
41
1
10
13.8267505900355
20
-11.4475183411225
30
0
41
1
10
13.6052957856448
20
-11.2249126691832
30
0
41
1
10
13.3270182335154
20
-10.9965110594678
30
0
41
1
10
13.0154912598666
20
-10.7885565532612
30
0
41
1
10
12.7688799293404
20
-10.6239353749925
30
0
41
1
10
12.4979114370627
20
-10.4681349016993
30
0
41
1
10
12.2179473210652
20
-10.3258402849358
30
0
0
SPLINE
5
13C
100
AcDbEntity
8
1
62
256
6
ByLayer
370
18
48
1
60
0
100
AcDbSpline
70
4
71
3
72
15
73
11
40
0
40
0
40
0
40
0
40
0.225043240787982
40
0.225043240787982
40
0.520482827227111
40
0.520482827227111
40
0.820975208236874
40
0.820975208236874
40
0.820975208236874
40
1
40
1
40
1
40
1
41
1
10
14.3227226016452
20
-5.12245093058269
30
0
41
1
10
14.489644101546
20
-4.89311521540637
30
0
41
1
10
14.6225567025782
20
-4.63357257296892
30
0
41
1
10
14.8379320854303
20
-4.01488872516623
30
0
41
1
10
14.8972130804362
20
-3.63966204732563
30
0
41
1
10
14.9011714266572
20
-2.89216958367464
30
0
41
1
10
14.844033957075
20
-2.50859355379907
30
0
41
1
10
14.7317987456946
20
-2.14706937224918
30
0
41
1
10
14.6643839336064
20
-1.92991751353398
30
0
41
1
10
14.5762643136641
20
-1.71796826314352
30
0
41
1
10
14.469489697803
20
-1.51874684049312
30
0
0
SPLINE
5
13D
100
AcDbEntity
8
1
62
256
6
ByLayer
370
18
48
1
60
0
100
AcDbSpline
70
4
71
2
72
8
73
5
40
0
40
0
40
0
40
0.58160376007072
40
0.87240564010608
40
1
40
1
40
1
41
1.02990374504916
10
15.4171952021348
20
-0.310217981853664
30
0
41
1.02669755169729
10
15.9706059822822
20
-1.99392133828359
30
0
41
1.02039724512338
10
16.471627612331
20
-4.70008076199199
30
0
41
1.01761724169607
10
16.5906176701419
20
-6.06104545472957
30
0
41
1.01686274329306
10
16.6668698755618
20
-6.43000371691352
30
0
0
SPLINE
5
13E
100
AcDbEntity
8
1
62
256
6
ByLayer
370
18
48
1
60
0
100
AcDbSpline
70
4
71
3
72
8
73
4
40
0
40
0
40
0
40
0
40
1
40
1
40
1
40
1
41
1
10
6.38258804481353
20
-0.496647088298914
30
0
41
1
10
5.55793256940296
20
-0.147231629587992
30
0
41
1
10
4.82960120112688
20
0.191186196510813
30
0
41
1
10
4.35446805338051
20
0.478545524245902
30
0
0
SPLINE
5
13F
100
AcDbEntity
8
1
62
256
6
ByLayer
370
18
48
1
60
0
100
AcDbSpline
70
4
71
2
72
8
73
5
40
0
40
0
40
0
40
0.581603760044149
40
0.872405640066223
40
1
40
1
40
1
41
1.02990374504916
10
8.15003285187418
20
-6.56602006817994
30
0
41
1.02669755169729
10
9.73580991163829
20
-7.36103003666752
30
0
41
1.02039724512338
10
12.3387658346519
20
-8.25777826231479
30
0
41
1.01761724169577
10
13.6671902713168
20
-8.57762377501479
30
0
41
1.01686274329252
10
14.0200155482219
20
-8.70849923229069
30
0
0
SPLINE
5
140
100
AcDbEntity
8
1
62
256
6
ByLayer
370
18
48
1
60
0
100
AcDbSpline
70
4
71
3
72
8
73
4
40
0
40
0
40
0
40
0
40
1
40
1
40
1
40
1
41
1
10
9.51191472202504
20
-5.78638339578171
30
0
41
1
10
9.31408679055096
20
-5.63637429853858
30
0
41
1
10
9.13431080989409
20
-5.46887429105621
30
0
41
1
10
8.97430327124431
20
-5.28252403944512
30
0
0
SPLINE
5
141
100
AcDbEntity
8
1
62
256
6
ByLayer
370
18
48
1
60
0
100
AcDbSpline
70
4
71
3
72
8
73
4
40
0
40
0
40
0
40
0
40
1
40
1
40
1
40
1
41
1
10
7.36400020495762
20
-6.81361173695342
30
0
41
1
10
8.79154421859852
20
-8.23919387852132
30
0
41
1
10
10.4182069254363
20
-9.41110387681661
30
0
41
1
10
12.2179473210652
20
-10.3258402849358
30
0
0
SPLINE
5
142
100
AcDbEntity
8
1
62
256
6
ByLayer
370
18
48
1
60
0
100
AcDbSpline
70
4
71
3
72
14
73
10
40
0
40
0
40
0
40
0
40
0.304391776008989
40
0.304391776008989
40
0.577373879687168
40
0.577373879687168
40
0.851610378463922
40
0.851610378463922
40
1
40
1
40
1
40
1
41
1
10
18.5971059881748
20
-12.1144695818715
30
0
41
1
10
18.4322864388024
20
-12.1538783588194
30
0
41
1
10
18.2560551341912
20
-12.1808762010053
30
0
41
1
10
17.9191696146829
20
-12.1987861182216
30
0
41
1
10
17.7549682712565
20
-12.1929066243563
30
0
41
1
10
17.4442028311302
20
-12.1491046376348
30
0
41
1
10
17.2936097285963
20
-12.1102972454474
30
0
41
1
10
17.0899092861188
20
-12.0298365719567
30
0
41
1
10
17.0224532366769
20
-11.9972051799389
30
0
41
1
10
16.9609840361312
20
-11.9614931654979
30
0
0
SPLINE
5
143
100
AcDbEntity
8
1
62
256
6
ByLayer
370
18
48
1
60
0
100
AcDbSpline
70
4
71
2
72
6
73
3
40
0
40
0
40
0
40
1
40
1
40
1
41
1
10
19.4555950034795
20
-6.8386778950493
30
0
41
1
10
19.5274492023735
20
-7.20587077304592
30
0
41
1
10
19.5821851673726
20
-7.57533009129284
30
0
0
SPLINE
5
144
100
AcDbEntity
8
1
62
256
6
ByLayer
370
18
48
1
60
0
100
AcDbSpline
70
4
71
3
72
8
73
4
40
0
40
0
40
0
40
0
40
1
40
1
40
1
40
1
41
1
10
6.47039053903654
20
-0.598006892203074
30
0
41
1
10
6.44090063243834
20
-0.563948968300991
30
0
41
1
10
6.41161958400733
20
-0.530146774230985
30
0
41
1
10
6.38258804481319
20
-0.496647088298488
30
0
0
SPLINE
5
145
100
AcDbEntity
8
1
62
256
6
ByLayer
370
18
48
1
60
0
100
AcDbSpline
70
4
71
3
72
12
73
8
40
0
40
0
40
0
40
0
40
0.369659083875783
40
0.369659083875783
40
0.727704501586108
40
0.727704501586108
40
1
40
1
40
1
40
1
41
1
10
4.07703230390263
20
-1.82246433742162
30
0
41
1
10
4.306311890183
20
-1.86233497268086
30
0
41
1
10
4.61358276190475
20
-1.87823035727303
30
0
41
1
10
5.30751850910929
20
-1.87000522069019
30
0
41
1
10
5.69959978131771
20
-1.84718005371408
30
0
41
1
10
6.42846994007266
20
-1.7827642113235
30
0
41
1
10
6.76080517486844
20
-1.74655198940903
30
0
41
1
10
7.09854019462892
20
-1.70428289974527
30
0
0
SPLINE
5
146
100
AcDbEntity
8
1
62
256
6
ByLayer
370
18
48
1
60
0
100
AcDbSpline
70
4
71
3
72
8
73
4
40
0
40
0
40
0
40
0
40
1
40
1
40
1
40
1
41
1
10
18.4907489852854
20
-4.92601517483189
30
0
41
1
10
17.8612472784695
20
-3.01863927292462
30
0
41
1
10
16.9400809919957
20
-1.21536282617794
30
0
41
1
10
15.7507298323701
20
0.40594910012345
30
0
0
SPLINE
5
147
100
AcDbEntity
8
1
62
256
6
ByLayer
370
18
48
1
60
0
100
AcDbSpline
70
4
71
3
72
10
73
6
40
0
40
0
40
0
40
0
40
0.560518156563273
40
0.560518156563273
40
1
40
1
40
1
40
1
41
1
10
18.4907489852854
20
-4.92601517483189
30
0
41
1
10
18.615514779758
20
-5.30405270385313
30
0
41
1
10
18.7641257354384
20
-5.67281038245946
30
0
41
1
10
19.0607444403352
20
-6.25645890496196
30
0
41
1
10
19.2048055687819
20
-6.49171836017911
30
0
41
1
10
19.3500402672622
20
-6.69289674044515
30
0
0
SPLINE
5
148
100
AcDbEntity
8
1
62
256
6
ByLayer
370
18
48
1
60
0
100
AcDbSpline
70
4
71
3
72
10
73
6
40
0
40
0
40
0
40
0
40
0.679966690484301
40
0.679966690484301
40
1
40
1
40
1
40
1
41
1
10
7.19312633763599
20
-2.27204663919289
30
0
41
1
10
7.18720056332404
20
-2.14437648262592
30
0
41
1
10
7.17061496741394
20
-2.01459876092352
30
0
41
1
10
7.13092904963395
20
-1.82521991879472
30
0
41
1
10
7.1158597398105
20
-1.76453978770593
30
0
41
1
10
7.09854019462898
20
-1.70428289974544
30
0
0
SPLINE
5
149
100
AcDbEntity
8
1
62
256
6
ByLayer
370
18
48
1
60
0
100
AcDbSpline
70
4
71
3
72
14
73
10
40
0
40
0
40
0
40
0
40
0.262932482489326
40
0.262932482489326
40
0.526305718382449
40
0.526305718382449
40
0.786105451116568
40
0.786105451116568
40
1
40
1
40
1
40
1
41
1
10
19.3859589165577
20
-9.87399846191263
30
0
41
1
10
19.430639948197
20
-9.99078893137946
30
0
41
1
10
19.4633718048856
20
-10.1254127557564
30
0
41
1
10
19.4971955218031
20
-10.4109770959329
30
0
41
1
10
19.4986298305949
20
-10.5656015205684
30
0
41
1
10
19.4720931881726
20
-10.8700421261993
30
0
41
1
10
19.4443879134788
20
-11.0234664211013
30
0
41
1
10
19.3744302019846
20
-11.2895619945835
30
0
41
1
10
19.3352723402455
20
-11.4065194546521
30
0
41
1
10
19.2908459960775
20
-11.5172763474792
30
0
0
SPLINE
5
14A
100
AcDbEntity
8
1
62
256
6
ByLayer
370
18
48
1
60
0
100
AcDbSpline
70
4
71
3
72
11
73
7
40
0
40
0
40
0
40
0
40
0.717036925638433
40
0.717036925638433
40
0.717036925638433
40
1
40
1
40
1
40
1
41
1
10
3.27710311038402
20
-2.10398959278385
30
0
41
1
10
3.0759367944396
20
-1.87407033755204
30
0
41
1
10
2.87285015366797
20
-1.59810552397784
30
0
41
1
10
2.71040618002837
20
-1.27498644541879
30
0
41
1
10
2.64566639865313
20
-1.14621184064029
30
0
41
1
10
2.58710388560928
20
-1.00922546916323
30
0
41
1
10
2.53835412546317
20
-0.865597676114021
30
0
0
SPLINE
5
14B
100
AcDbEntity
8
1
62
256
6
ByLayer
370
18
48
1
60
0
100
AcDbSpline
70
4
71
3
72
8
73
4
40
0
40
0
40
0
40
0
40
1
40
1
40
1
40
1
41
1
10
13.8267505900355
20
-11.4475183411225
30
0
41
1
10
13.8689088630097
20
-11.4898957043458
30
0
41
1
10
13.9116379663743
20
-11.5317355133636
30
0
41
1
10
13.9549038945393
20
-11.5730451766052
30
0
0
SPLINE
5
14C
100
AcDbEntity
8
1
62
256
6
ByLayer
370
18
48
1
60
0
100
AcDbSpline
70
4
71
3
72
12
73
8
40
0
40
0
40
0
40
0
40
0.391502209781616
40
0.391502209781616
40
0.886018843801029
40
0.886018843801029
40
1
40
1
40
1
40
1
41
1
10
9.03346894935942
20
4.50637676788637
30
0
41
1
10
9.12028017532822
20
4.31037505550796
30
0
41
1
10
9.20996938217991
20
4.07059306255468
30
0
41
1
10
9.41249473139396
20
3.46496231061431
30
0
41
1
10
9.52753017623201
20
3.0756100198104
30
0
41
1
10
9.66538419650703
20
2.56910379587185
30
0
41
1
10
9.69132003775894
20
2.47202302375544
30
0
41
1
10
9.71711143889058
20
2.37381560403648
30
0
0
SPLINE
5
14D
100
AcDbEntity
8
1
62
256
6
ByLayer
370
18
48
1
60
0
100
AcDbSpline
70
4
71
3
72
25
73
21
40
0
40
0
40
0
40
0
40
0.442411593548774
40
0.442411593548774
40
0.442411593548774
40
0.583396916265378
40
0.583396916265378
40
0.651602530488659
40
0.651602530488659
40
0.706341521306453
40
0.706341521306453
40
0.742475286987741
40
0.742475286987741
40
0.778972968742936
40
0.778972968742936
40
0.811539464980179
40
0.811539464980179
40
0.868309796146651
40
0.868309796146651
40
1
40
1
40
1
40
1
41
1
10
16.3076565652141
20
-8.00223881812897
30
0
41
1
10
16.2308364255213
20
-7.69327209553956
30
0
41
1
10
16.1775415952496
20
-7.34918630896473
30
0
41
1
10
16.1830324303541
20
-6.9910517603353
30
0
41
1
10
16.1848149097689
20
-6.8747912191796
30
0
41
1
10
16.1929350397797
20
-6.75539970685432
30
0
41
1
10
16.2214609178245
20
-6.58158559345091
30
0
41
1
10
16.2335614422867
20
-6.52470714377355
30
0
41
1
10
16.2627158646491
20
-6.42727811530384
30
0
41
1
10
16.278616107491
20
-6.38488793169944
30
0
41
1
10
16.3109953376627
20
-6.32384246357122
30
0
41
1
10
16.3257793306761
20
-6.30164676926898
30
0
41
1
10
16.3579502252277
20
-6.26663669151387
30
0
41
1
10
16.375811769688
20
-6.25360796834789
30
0
41
1
10
16.4095344174954
20
-6.23992358996494
30
0
41
1
10
16.425761511419
20
-6.23781497966087
30
0
41
1
10
16.4683711463629
20
-6.24131243376928
30
0
41
1
10
16.4941982280237
20
-6.25334349560816
30
0
41
1
10
16.5734838041677
20
-6.30736270484624
30
0
41
1
10
16.6216564324625
20
-6.36712490827992
30
0
41
1
10
16.6668698755619
20
-6.43000371691366
30
0
0
SPLINE
5
14E
100
AcDbEntity
8
1
62
256
6
ByLayer
370
18
48
1
60
0
100
AcDbSpline
70
4
71
3
72
16
73
12
40
0
40
0
40
0
40
0
40
0.151798394921706
40
0.151798394921706
40
0.302355402833641
40
0.302355402833641
40
0.469907609657965
40
0.469907609657965
40
0.750934341340612
40
0.750934341340612
40
1
40
1
40
1
40
1
41
1
10
4.21624458186119
20
0.558703062252022
30
0
41
1
10
4.08497150950797
20
0.429479061063063
30
0
41
1
10
3.95778053275956
20
0.287034979791258
30
0
41
1
10
3.73809583095272
20
-0.0005438286154629
30
0
41
1
10
3.64194907866164
20
-0.14935200912322
30
0
41
1
10
3.47477965470512
20
-0.452553774892806
30
0
41
1
10
3.40560956646897
20
-0.608839234364694
30
0
41
1
10
3.26661517805007
20
-0.991942890043987
30
0
41
1
10
3.22200367545787
20
-1.19995933438318
30
0
41
1
10
3.19933630431421
20
-1.56402652643405
30
0
41
1
10
3.2142482059769
20
-1.73054029260555
30
0
41
1
10
3.27457528768514
20
-1.911076675121
30
0
0
SPLINE
5
14F
100
AcDbEntity
8
1
62
256
6
ByLayer
370
18
48
1
60
0
100
AcDbSpline
70
4
71
3
72
8
73
4
40
0
40
0
40
0
40
0
40
1
40
1
40
1
40
1
41
1
10
14.4694897326336
20
-1.5187468037424
30
0
41
1
10
14.9563406900088
20
-1.00505629204284
30
0
41
1
10
15.2943158508984
20
-0.574065086270423
30
0
41
1
10
15.4171952021349
20
-0.310217981853668
30
0
0
SPLINE
5
150
100
AcDbEntity
8
1
62
256
6
ByLayer
370
18
48
1
60
0
100
AcDbSpline
70
4
71
3
72
8
73
4
40
0
40
0
40
0
40
0
40
1
40
1
40
1
40
1
41
1
10
7.19312633763599
20
-2.27204663919289
30
0
41
1
10
7.22231260650619
20
-2.90086159570544
30
0
41
1
10
7.47063866999872
20
-3.53130482099218
30
0
41
1
10
7.90894366405962
20
-4.04176980667287
30
0
0
SPLINE
5
151
100
AcDbEntity
8
1
62
256
6
ByLayer
370
18
48
1
60
0
100
AcDbSpline
70
4
71
3
72
24
73
20
40
0
40
0
40
0
40
0
40
0.142613444608221
40
0.142613444608221
40
0.190795218269489
40
0.190795218269489
40
0.226951176162322
40
0.226951176162322
40
0.263437466712855
40
0.263437466712855
40
0.296119365572351
40
0.296119365572351
40
0.352324850832281
40
0.352324850832281
40
0.455294648588098
40
0.455294648588098
40
0.662705158043621
40
0.662705158043621
40
1
40
1
40
1
40
1
41
1
10
14.020015548222
20
-8.70849923229076
30
0
41
1
10
13.961389354193
20
-8.6493298344578
30
0
41
1
10
13.9061451144236
20
-8.58707037950748
30
0
41
1
10
13.8720752431729
20
-8.49760629191042
30
0
41
1
10
13.867252161704
20
-8.47399263325229
30
0
41
1
10
13.8715765848239
20
-8.43315845057242
30
0
41
1
10
13.8777723106738
20
-8.41548452255029
30
0
41
1
10
13.9007424039007
20
-8.38273973378031
30
0
41
1
10
13.9180192399405
20
-8.36731295950898
30
0
41
1
10
13.9581179726903
20
-8.34267712816282
30
0
41
1
10
13.9805084092247
20
-8.33266334452838
30
0
41
1
10
14.0450503715656
20
-8.31030630293205
30
0
41
1
10
14.0908242795399
20
-8.3008332361091
30
0
41
1
10
14.2211354857934
20
-8.28300174599411
30
0
41
1
10
14.309355770812
20
-8.28117942421244
30
0
41
1
10
14.5678720849071
20
-8.29025677738022
30
0
41
1
10
14.7383684576515
20
-8.31598253099008
30
0
41
1
10
15.1610755418392
20
-8.40720561711703
30
0
41
1
10
15.4060273856121
20
-8.49013934239551
30
0
41
1
10
15.6302554120538
20
-8.5853670520905
30
0
0
SPLINE
5
152
100
AcDbEntity
8
1
62
256
6
ByLayer
370
18
48
1
60
0
100
AcDbSpline
70
4
71
3
72
8
73
4
40
0
40
0
40
0
40
0
40
1
40
1
40
1
40
1
41
1
10
8.90349575972652
20
4.5974980969502
30
0
41
1
10
8.92587077044624
20
4.61675921043513
30
0
41
1
10
8.94863658316166
20
4.63503722838712
30
0
41
1
10
8.97176601701528
20
4.65240559451195
30
0
0
SPLINE
5
153
100
AcDbEntity
8
1
62
256
6
ByLayer
370
18
48
1
60
0
100
AcDbSpline
70
4
71
3
72
8
73
4
40
0
40
0
40
0
40
0
40
1
40
1
40
1
40
1
41
1
10
9.71711143888967
20
2.37381560403617
30
0
41
1
10
9.74614297808381
20
2.34031591810367
30
0
41
1
10
9.77542402651454
20
2.30651372403409
30
0
41
1
10
9.80491393311274
20
2.27245580013198
30
0
0
SPLINE
5
154
100
AcDbEntity
8
1
62
256
6
ByLayer
370
18
48
1
60
0
100
AcDbSpline
70
4
71
2
72
6
73
3
40
0
40
0
40
0
40
1
40
1
40
1
41
1
10
14.6617839687057
20
-11.810966311738
30
0
41
1
10
14.3051797029565
20
-11.7013647290478
30
0
41
1
10
13.9533809723808
20
-11.5751569161754
30
0
0
SPLINE
5
155
100
AcDbEntity
8
1
62
256
6
ByLayer
370
18
48
1
60
0
100
AcDbSpline
70
4
71
3
72
10
73
6
40
0
40
0
40
0
40
0
40
0.106616270583438
40
0.106616270583438
40
1
40
1
40
1
40
1
41
1
10
16.6297540341239
20
-9.07059240423965
30
0
41
1
10
16.6167422348935
20
-9.03436420717662
30
0
41
1
10
16.6038925932879
20
-8.99793634210189
30
0
41
1
10
16.485043746431
20
-8.65482240988641
30
0
41
1
10
16.3902579340429
20
-8.33404852100762
30
0
41
1
10
16.3076565652141
20
-8.00223881812897
30
0
0
SPLINE
5
156
100
AcDbEntity
8
1
62
256
6
ByLayer
370
18
48
1
60
0
100
AcDbSpline
70
4
71
2
72
6
73
3
40
0
40
0
40
0
40
1
40
1
40
1
41
1.02990374504916
10
8.15003285187418
20
-6.56602006817994
30
0
41
1.02990374504916
10
7.75701652841586
20
-6.68981590256669
30
0
41
1.02990374504916
10
7.36400020495754
20
-6.81361173695344
30
0
0
SPLINE
5
157
100
AcDbEntity
8
1
62
256
6
ByLayer
370
18
48
1
60
0
100
AcDbSpline
70
4
71
3
72
16
73
12
40
0
40
0
40
0
40
0
40
0.346164403850465
40
0.346164403850465
40
0.57405813868187
40
0.57405813868187
40
0.756733946461149
40
0.756733946461149
40
0.941193093213317
40
0.941193093213317
40
1
40
1
40
1
40
1
41
1
10
11.5266804825397
20
5.19259521308277
30
0
41
1
10
11.2956970195369
20
5.31628979288561
30
0
41
1
10
11.0805943732089
20
5.35365404545252
30
0
41
1
10
10.6650985784031
20
5.34938800057552
30
0
41
1
10
10.4784148779564
20
5.32782388942883
30
0
41
1
10
10.1004786300416
20
5.23823887390876
30
0
41
1
10
9.91445892148755
20
5.17840867045729
30
0
41
1
10
9.53511049896974
20
5.01341610577498
30
0
41
1
10
9.33603515048179
20
4.904449791486
30
0
41
1
10
9.0894143368451
20
4.73854538311423
30
0
41
1
10
9.02976718840756
20
4.69595986336188
30
0
41
1
10
8.97176601701528
20
4.65240559451195
30
0
0
SPLINE
5
158
100
AcDbEntity
8
1
62
256
6
ByLayer
370
18
48
1
60
0
100
AcDbSpline
70
4
71
2
72
8
73
5
40
0
40
0
40
0
40
0.145991510275429
40
0.563470207592133
40
1
40
1
40
1
41
1.02393576174177
10
13.0986626842769
20
-6.17616023425442
30
0
41
1.02323174907605
10
13.2881203155011
20
-6.36116823738805
30
0
41
1.02039724512338
10
14.0189381902475
20
-7.06695616715258
30
0
41
1.01644464721292
10
15.1289721148826
20
-8.04789461984138
30
0
41
1.01495409538139
10
15.6302554120676
20
-8.58536705210543
30
0
0
SPLINE
5
159
100
AcDbEntity
8
1
62
256
6
ByLayer
370
18
48
1
60
0
100
AcDbSpline
70
4
71
3
72
8
73
4
40
0
40
0
40
0
40
0
40
1
40
1
40
1
40
1
41
1
10
14.469489697803
20
-1.51874684049312
30
0
41
1
10
14.3526092347831
20
-1.30454371137884
30
0
41
1
10
14.2119494701695
20
-1.09802276162307
30
0
41
1
10
14.0518729849513
20
-0.911592212480343
30
0
0
SPLINE
5
15A
100
AcDbEntity
8
1
62
256
6
ByLayer
370
18
48
1
60
0
100
AcDbSpline
70
4
71
3
72
8
73
4
40
0
40
0
40
0
40
0
40
1
40
1
40
1
40
1
41
1
10
16.6668698755619
20
-6.43000371691369
30
0
41
1
10
17.5811835209964
20
-7.07372555117115
30
0
41
1
10
18.7312068803746
20
-6.75709420153527
30
0
41
1
10
19.5802954760016
20
-7.58159394667001
30
0
0
SPLINE
5
15B
100
AcDbEntity
8
1
62
256
6
ByLayer
370
18
48
1
60
0
100
AcDbSpline
70
4
71
3
72
10
73
6
40
0
40
0
40
0
40
0
40
0.516155291935601
40
0.516155291935601
40
1
40
1
40
1
40
1
41
1
10
10.1377364497287
20
-2.59680354677329
30
0
41
1
10
10.1419103134025
20
-2.60284015151481
30
0
41
1
10
10.1460311421498
20
-2.6093942407596
30
0
41
1
10
10.1538199639685
20
-2.62326945498356
30
0
41
1
10
10.1575158745424
20
-2.63054649384435
30
0
41
1
10
10.161065875439
20
-2.63844623292599
30
0
0
SPLINE
5
15C
100
AcDbEntity
8
1
62
256
6
ByLayer
370
18
48
1
60
0
100
AcDbSpline
70
4
71
3
72
10
73
6
40
0
40
0
40
0
40
0
40
0.629893813379431
40
0.629893813379431
40
1
40
1
40
1
40
1
41
1
10
10.625046202564
20
-3.37167167670461
30
0
41
1
10
10.6344437069062
20
-3.36943074455286
30
0
41
1
10
10.6444551510719
20
-3.36770081444263
30
0
41
1
10
10.6614513810727
20
-3.36610756727171
30
0
41
1
10
10.6680019669371
20
-3.36576857030869
30
0
41
1
10
10.6748094518501
20
-3.36574001539827
30
0
0
SPLINE
5
15D
100
AcDbEntity
8
1
62
256
6
ByLayer
370
18
48
1
60
0
100
AcDbSpline
70
4
71
3
72
10
73
6
40
0
40
0
40
0
40
0
40
0.6298938133793
40
0.6298938133793
40
1
40
1
40
1
40
1
41
1
10
11.4896564809562
20
-1.73837366482718
30
0
41
1
10
11.478184678641
20
-1.73846659854806
30
0
41
1
10
11.4661944076019
20
-1.73814739344513
30
0
41
1
10
11.4463316941145
20
-1.73677231007162
30
0
41
1
10
11.438777327476
20
-1.73607186161473
30
0
41
1
10
11.4310483558013
20
-1.73514618904963
30
0
0
SPLINE
5
15E
100
AcDbEntity
8
1
62
256
6
ByLayer
370
18
48
1
60
0
100
AcDbSpline
70
4
71
3
72
10
73
6
40
0
40
0
40
0
40
0
40
0.315026012182621
40
0.315026012182621
40
1
40
1
40
1
40
1
41
1
10
11.2735975058268
20
-1.68074398836239
30
0
41
1
10
11.2689009929483
20
-1.67763179919385
30
0
41
1
10
11.2644813618149
20
-1.67449520865082
30
0
41
1
10
11.2513142392631
20
-1.66455971784868
30
0
41
1
10
11.2434654588587
20
-1.65771502683839
30
0
41
1
10
11.2365413748067
20
-1.65091768218647
30
0
0
SPLINE
5
15F
100
AcDbEntity
8
1
62
256
6
ByLayer
370
18
48
1
60
0
100
AcDbSpline
70
4
71
3
72
8
73
4
40
0
40
0
40
0
40
0
40
1
40
1
40
1
40
1
41
1
10
10.5700415889096
20
-1.7801545408241
30
0
41
1
10
10.5615762080625
20
-1.79367507908586
30
0
41
1
10
10.5514590550245
20
-1.80806327675322
30
0
41
1
10
10.5391853274081
20
-1.8231493197564
30
0
0
SPLINE
5
160
100
AcDbEntity
8
1
62
256
6
ByLayer
370
18
48
1
60
0
100
AcDbSpline
70
4
71
3
72
10
73
6
40
0
40
0
40
0
40
0
40
0.516155291935427
40
0.516155291935427
40
1
40
1
40
1
40
1
41
1
10
11.9769662337947
20
-2.51324179476174
30
0
41
1
10
11.9710922664456
20
-2.5054446811279
30
0
41
1
10
11.9653369667318
20
-2.49719804765024
30
0
41
1
10
11.954587341939
20
-2.48025683219362
30
0
41
1
10
11.9495463807268
20
-2.47158695262317
30
0
41
1
10
11.9447919322121
20
-2.46243997152163
30
0
0
SPLINE
5
161
100
AcDbEntity
8
1
62
256
6
ByLayer
370
18
48
1
60
0
100
AcDbSpline
70
4
71
3
72
8
73
4
40
0
40
0
40
0
40
0
40
1
40
1
40
1
40
1
41
1
10
11.6940214109064
20
-3.1681109168504
30
0
41
1
10
11.7130848865789
20
-3.16093244663622
30
0
41
1
10
11.7316871057372
20
-3.15642624715329
30
0
41
1
10
11.7493849059352
20
-3.15365810020722
30
0
0
SPLINE
5
162
100
AcDbEntity
8
1
62
256
6
ByLayer
370
18
48
1
60
0
100
AcDbSpline
70
4
71
3
72
10
73
6
40
0
40
0
40
0
40
0
40
0.315026012182474
40
0.315026012182474
40
1
40
1
40
1
40
1
41
1
10
10.8322603018252
20
-3.42014221608622
30
0
41
1
10
10.8377434320883
20
-3.42406897140177
30
0
41
1
10
10.8430096129396
20
-3.42808218983984
30
0
41
1
10
10.8589948069497
20
-3.44093587906352
30
0
41
1
10
10.8689848350231
20
-3.44999789694432
30
0
41
1
10
10.8781613087166
20
-3.45912765934855
30
0
0
SPLINE
5
163
100
AcDbEntity
8
1
62
256
6
ByLayer
370
18
48
1
60
0
100
AcDbSpline
70
4
71
3
72
10
73
6
40
0
40
0
40
0
40
0
40
0.12373260626539
40
0.12373260626539
40
1
40
1
40
1
40
1
41
1
10
11.9146900129119
20
-2.29841180298755
30
0
41
1
10
11.915063223962
20
-2.29612626940775
30
0
41
1
10
11.915467387724
20
-2.29387490291327
30
0
41
1
10
11.9189336957261
20
-2.27611050527636
30
0
41
1
10
11.92336265325
20
-2.26215963209185
30
0
41
1
10
11.9285749389803
20
-2.2495531116262
30
0
0
SPLINE
5
164
100
AcDbEntity
8
1
62
256
6
ByLayer
370
18
48
1
60
0
100
AcDbSpline
70
4
71
3
72
10
73
6
40
0
40
0
40
0
40
0
40
0.123732606265397
40
0.123732606265397
40
1
40
1
40
1
40
1
41
1
10
10.1911677947414
20
-2.8024744014624
30
0
41
1
10
10.1911049717661
20
-2.8050813513027
30
0
41
1
10
10.1910204789285
20
-2.80766374672982
30
0
41
1
10
10.1901814691394
20
-2.82814879130959
30
0
41
1
10
10.1884603456932
20
-2.84490370876634
30
0
41
1
10
10.1861277445431
20
-2.86049222990883
30
0
0
SPLINE
5
165
100
AcDbEntity
8
1
62
256
6
ByLayer
370
18
48
1
60
0
100
AcDbSpline
70
4
71
3
72
8
73
4
40
0
40
0
40
0
40
0
40
1
40
1
40
1
40
1
41
1
10
11.5446610946137
20
-3.32989080071093
30
0
41
1
10
11.5498394420673
20
-3.31296643972775
30
0
41
1
10
11.5568832667893
20
-3.29539571742481
30
0
41
1
10
11.5666724802452
20
-3.27773688469361
30
0
0
SPLINE
5
166
100
AcDbEntity
8
1
62
256
6
ByLayer
370
18
48
1
60
0
100
AcDbSpline
70
4
71
3
72
8
73
4
40
0
40
0
40
0
40
0
40
1
40
1
40
1
40
1
41
1
10
10.4118363967471
20
-1.93277528759961
30
0
41
1
10
10.3952574352347
20
-1.9425265475418
30
0
41
1
10
10.3797285443926
20
-1.95021527166028
30
0
41
1
10
10.3653177775882
20
-1.9563872413278
30
0
0
INSERT
5
179
100
AcDbEntity
8
SK2
62
256
6
ByLayer
370
25
48
1
60
0
100
AcDbBlockReference
2
DimnDraft3D11
10
0
20
0
30
0
41
1
42
1
43
1
50
0
210
0
220
0
230
1
0
LINE
5
72
100
AcDbEntity
8
1
62
256
6
ByLayer
370
18
48
1
60
0
100
AcDbLine
10
9.655394
20
-13.691013
30
0
11
9.663648
21
-13.69956
31
0
39
0
210
0
220
0
230
1
0
LINE
5
74
100
AcDbEntity
8
1
62
256
6
ByLayer
370
18
48
1
60
0
100
AcDbLine
10
11.09371
20
-1.503127
30
0
11
11.231588
21
-1.645904
31
0
39
0
210
0
220
0
230
1
0
LINE
5
75
100
AcDbEntity
8
1
62
256
6
ByLayer
370
18
48
1
60
0
100
AcDbLine
10
11.963896
20
4.839347
30
0
11
11.61711
21
5.217999
31
0
39
0
210
0
220
0
230
1
0
LINE
5
76
100
AcDbEntity
8
1
62
256
6
ByLayer
370
18
48
1
60
0
100
AcDbLine
10
8.540987
20
-4.555832
30
0
11
8.71063
21
-4.731503
31
0
39
0
210
0
220
0
230
1
0
LINE
5
77
100
AcDbEntity
8
1
62
256
6
ByLayer
370
18
48
1
60
0
100
AcDbLine
10
18.65861
20
-2.115157
30
0
11
18.172463
21
-1.611736
31
0
39
0
210
0
220
0
230
1
0
LINE
5
78
100
AcDbEntity
8
1
62
256
6
ByLayer
370
18
48
1
60
0
100
AcDbLine
10
9.859192
20
-14.432475
30
0
11
10.34534
21
-14.935895
31
0
39
0
210
0
220
0
230
1
0
LINE
5
79
100
AcDbEntity
8
1
62
256
6
ByLayer
370
18
48
1
60
0
100
AcDbLine
10
9.611272
20
2.481655
30
0
11
9.874215
21
2.194551
31
0
39
0
210
0
220
0
230
1
0
LINE
5
7A
100
AcDbEntity
8
1
62
256
6
ByLayer
370
18
48
1
60
0
100
AcDbLine
10
10.110068
20
-2.563824
30
0
11
9.97219
21
-2.421047
31
0
39
0
210
0
220
0
230
1
0
LINE
5
7B
100
AcDbEntity
8
1
62
256
6
ByLayer
370
18
48
1
60
0
100
AcDbLine
10
13.314405
20
-0.285689
30
0
11
13.144762
21
-0.110019
31
0
39
0
210
0
220
0
230
1
0
LINE
5
7C
100
AcDbEntity
8
1
62
256
6
ByLayer
370
18
48
1
60
0
100
AcDbLine
10
10.883115
20
-3.464141
30
0
11
10.745237
21
-3.321364
31
0
39
0
210
0
220
0
230
1
0
LINE
5
7D
100
AcDbEntity
8
1
62
256
6
ByLayer
370
18
48
1
60
0
100
AcDbLine
10
11.866757
20
-2.403444
30
0
11
12.004635
21
-2.546221
31
0
39
0
210
0
220
0
230
1
0
LINE
5
7E
100
AcDbEntity
8
80
62
256
6
ByLayer
370
18
48
1
60
0
100
AcDbLine
10
0
20
0
30
0
11
-5
21
0
31
0
39
0
210
0
220
0
230
1
0
LINE
5
7F
100
AcDbEntity
8
81
62
256
6
ByLayer
370
18
48
1
60
0
100
AcDbLine
10
25.376414
20
-15.4125
30
0
11
35.376414
21
-15.4125
31
0
39
0
210
0
220
0
230
1
0
LINE
5
80
100
AcDbEntity
8
1
62
256
6
ByLayer
370
18
48
1
60
0
100
AcDbLine
10
15.905088
20
6.804161
30
0
11
12.669684
21
4.019023
31
0
39
0
210
0
220
0
230
1
0
LINE
5
81
100
AcDbEntity
8
1
62
256
6
ByLayer
370
18
48
1
60
0
100
AcDbLine
10
4.256647
20
-3.223184
30
0
11
3.766158
21
-3.645412
31
0
39
0
210
0
220
0
230
1
0
LINE
5
82
100
AcDbEntity
8
1
62
256
6
ByLayer
370
18
48
1
60
0
100
AcDbLine
10
12.837274
20
7.68563
30
0
11
10.777139
21
5.912201
31
0
39
0
210
0
220
0
230
1
0
LINE
5
83
100
AcDbEntity
8
1
62
256
6
ByLayer
370
18
48
1
60
0
100
AcDbLine
10
2.635515
20
-1.096365
30
0
11
1.789123
21
-1.824966
31
0
39
0
210
0
220
0
230
1
0
LINE
5
84
100
AcDbEntity
8
1
62
256
6
ByLayer
370
18
48
1
60
0
100
AcDbLine
10
12.281656
20
-10.362648
30
0
11
10.47491
21
-13.314939
31
0
39
0
210
0
220
0
230
1
0
LINE
5
85
100
AcDbEntity
8
1
62
256
6
ByLayer
370
18
48
1
60
0
100
AcDbLine
10
20.440008
20
-5.333449
30
0
11
20.504145
21
-5.046073
31
0
39
0
210
0
220
0
230
1
0
LINE
5
86
100
AcDbEntity
8
1
62
256
6
ByLayer
370
18
48
1
60
0
100
AcDbLine
10
19.551058
20
-2.137998
30
0
11
19.505907
21
-3.614961
31
0
39
0
210
0
220
0
230
1
0
LINE
5
87
100
AcDbEntity
8
1
62
256
6
ByLayer
370
18
48
1
60
0
100
AcDbLine
10
11.759175
20
7.995399
30
0
11
9.716034
21
6.236599
31
0
39
0
210
0
220
0
230
1
0
LINE
5
88
100
AcDbEntity
8
1
62
256
6
ByLayer
370
18
48
1
60
0
100
AcDbLine
10
2.472232
20
0.000906
30
0
11
0.92023
21
-1.335106
31
0
39
0
210
0
220
0
230
1
0
LINE
5
89
100
AcDbEntity
8
1
62
256
6
ByLayer
370
18
48
1
60
0
100
AcDbLine
10
22.603078
20
-8.948389
30
0
11
22.472411
21
-9.072503
31
0
39
0
210
0
220
0
230
1
0
LINE
5
8A
100
AcDbEntity
8
1
62
256
6
ByLayer
370
18
48
1
60
0
100
AcDbLine
10
12.803537
20
7.695324
30
0
11
10.750481
21
5.927988
31
0
39
0
210
0
220
0
230
1
0
LINE
5
8B
100
AcDbEntity
8
1
62
256
6
ByLayer
370
18
48
1
60
0
100
AcDbLine
10
2.623558
20
-1.067923
30
0
11
1.593264
21
-1.954832
31
0
39
0
210
0
220
0
230
1
0
LINE
5
8C
100
AcDbEntity
8
1
62
256
6
ByLayer
370
18
48
1
60
0
100
AcDbLine
10
19.386592
20
-2.119205
30
0
11
19.349655
21
-3.327485
31
0
39
0
210
0
220
0
230
1
0
LINE
5
8D
100
AcDbEntity
8
1
62
256
6
ByLayer
370
18
48
1
60
0
100
AcDbLine
10
9.895335
20
-2.366659
30
0
11
10.026332
21
-2.502311
31
0
39
0
210
0
220
0
230
1
0
LINE
5
8E
100
AcDbEntity
8
1
62
256
6
ByLayer
370
18
48
1
60
0
100
AcDbLine
10
13.144762
20
-0.110019
30
0
11
13.14463
21
-0.109883
31
0
39
0
210
0
220
0
230
1
0
LINE
5
8F
100
AcDbEntity
8
1
62
256
6
ByLayer
370
18
48
1
60
0
100
AcDbLine
10
17.329526
20
-2.171654
30
0
11
17.414906
21
-2.260067
31
0
39
0
210
0
220
0
230
1
0
LINE
5
90
100
AcDbEntity
8
1
62
256
6
ByLayer
370
18
48
1
60
0
100
AcDbLine
10
10.243947
20
-13.977688
30
0
11
12.410473
21
-10.437502
31
0
39
0
210
0
220
0
230
1
0
LINE
5
91
100
AcDbEntity
8
1
62
256
6
ByLayer
370
18
48
1
60
0
100
AcDbLine
10
9.757799
20
-13.474268
30
0
11
9.86189
21
-13.304179
31
0
39
0
210
0
220
0
230
1
0
LINE
5
92
100
AcDbEntity
8
1
62
256
6
ByLayer
370
18
48
1
60
0
100
AcDbLine
10
12.292996
20
-10.369328
30
0
11
12.214189
21
-10.498101
31
0
39
0
210
0
220
0
230
1
0
LINE
5
93
100
AcDbEntity
8
1
62
256
6
ByLayer
370
18
48
1
60
0
100
AcDbLine
10
0
20
-9.9375
30
0
11
0
21
9.9375
31
0
39
0
210
0
220
0
230
1
0
LINE
5
94
100
AcDbEntity
8
1
62
256
6
ByLayer
370
18
48
1
60
0
100
AcDbLine
10
19.551058
20
-2.137998
30
0
11
20.557202
21
-3.310474
31
0
39
0
210
0
220
0
230
1
0
LINE
5
95
100
AcDbEntity
8
1
62
256
6
ByLayer
370
18
48
1
60
0
100
AcDbLine
10
2.877484
20
-12.814984
30
0
11
3.251352
21
-13.188852
31
0
39
0
210
0
220
0
230
1
0
LINE
5
96
100
AcDbEntity
8
1
62
256
6
ByLayer
370
18
48
1
60
0
100
AcDbLine
10
20.504145
20
-5.046073
30
0
11
22.603078
21
-8.948389
31
0
39
0
210
0
220
0
230
1
0
LINE
5
97
100
AcDbEntity
8
1
62
256
6
ByLayer
370
18
48
1
60
0
100
AcDbLine
10
22.686502
20
4.85567
30
0
11
15.905088
21
6.804161
31
0
39
0
210
0
220
0
230
1
0
LINE
5
98
100
AcDbEntity
8
1
62
256
6
ByLayer
370
18
48
1
60
0
100
AcDbLine
10
1.593264
20
-1.954832
30
0
11
1.789123
21
-1.824966
31
0
39
0
210
0
220
0
230
1
0
LINE
5
99
100
AcDbEntity
8
1
62
256
6
ByLayer
370
18
48
1
60
0
100
AcDbLine
10
2.877484
20
-12.814984
30
0
11
0
21
-9.9375
31
0
39
0
210
0
220
0
230
1
0
LINE
5
9A
100
AcDbEntity
8
1
62
256
6
ByLayer
370
18
48
1
60
0
100
AcDbLine
10
20.557202
20
-3.310474
30
0
11
20.504145
21
-5.046073
31
0
39
0
210
0
220
0
230
1
0
LINE
5
9B
100
AcDbEntity
8
1
62
256
6
ByLayer
370
18
48
1
60
0
100
AcDbLine
10
4.974066
20
9.944952
30
0
11
2.013574
21
9.946286
31
0
39
0
210
0
220
0
230
1
0
LINE
5
9C
100
AcDbEntity
8
1
62
256
6
ByLayer
370
18
48
1
60
0
100
AcDbLine
10
23.666409
20
-7.938381
30
0
11
22.603078
21
-8.948389
31
0
39
0
210
0
220
0
230
1
0
LINE
5
9D
100
AcDbEntity
8
1
62
256
6
ByLayer
370
18
48
1
60
0
100
AcDbLine
10
10.47491
20
-13.314939
30
0
11
3.251352
21
-13.188852
31
0
39
0
210
0
220
0
230
1
0
LINE
5
9E
100
AcDbEntity
8
1
62
256
6
ByLayer
370
18
48
1
60
0
100
AcDbLine
10
4.974066
20
9.944952
30
0
11
11.759175
21
7.995399
31
0
39
0
210
0
220
0
230
1
0
LINE
5
9F
100
AcDbEntity
8
1
62
256
6
ByLayer
370
18
48
1
60
0
100
AcDbLine
10
2.013574
20
9.946286
30
0
11
0.92023
21
-1.335106
31
0
39
0
210
0
220
0
230
1
0
LINE
5
A0
100
AcDbEntity
8
1
62
256
6
ByLayer
370
18
48
1
60
0
100
AcDbLine
10
11.759175
20
7.995399
30
0
11
12.803537
21
7.695324
31
0
39
0
210
0
220
0
230
1
0
LINE
5
A1
100
AcDbEntity
8
1
62
256
6
ByLayer
370
18
48
1
60
0
100
AcDbLine
10
18.273711
20
-0.90898
30
0
11
18.074849
21
-0.905074
31
0
39
0
210
0
220
0
230
1
0
LINE
5
A2
100
AcDbEntity
8
1
62
256
6
ByLayer
370
18
48
1
60
0
100
AcDbLine
10
10.573399
20
-13.316658
30
0
11
11.8472
21
-11.23522
31
0
39
0
210
0
220
0
230
1
0
LINE
5
A3
100
AcDbEntity
8
1
62
256
6
ByLayer
370
18
48
1
60
0
100
AcDbLine
10
10.47491
20
-13.314939
30
0
11
10.573399
21
-13.316658
31
0
39
0
210
0
220
0
230
1
0
LINE
5
A4
100
AcDbEntity
8
1
62
256
6
ByLayer
370
18
48
1
60
0
100
AcDbLine
10
3.766158
20
-3.645412
30
0
11
2.877484
21
-12.814984
31
0
39
0
210
0
220
0
230
1
0
LINE
5
A5
100
AcDbEntity
8
1
62
256
6
ByLayer
370
18
48
1
60
0
100
AcDbLine
10
22.686502
20
4.85567
30
0
11
23.666409
21
-7.938381
31
0
39
0
210
0
220
0
230
1
0
LINE
5
A6
100
AcDbEntity
8
1
62
256
6
ByLayer
370
18
48
1
60
0
100
AcDbLine
10
1.789123
20
-1.824966
30
0
11
3.766158
21
-3.645412
31
0
39
0
210
0
220
0
230
1
0
LINE
5
A7
100
AcDbEntity
8
1
62
256
6
ByLayer
370
18
48
1
60
0
100
AcDbLine
10
0
20
9.9375
30
0
11
2.013574
21
9.946286
31
0
39
0
210
0
220
0
230
1
0
LINE
5
A8
100
AcDbEntity
8
1
62
256
6
ByLayer
370
18
48
1
60
0
100
AcDbLine
10
12.803537
20
7.695324
30
0
11
12.837274
21
7.68563
31
0
39
0
210
0
220
0
230
1
0
LINE
5
A9
100
AcDbEntity
8
1
62
256
6
ByLayer
370
18
48
1
60
0
100
AcDbLine
10
12.837274
20
7.68563
30
0
11
15.905088
21
6.804161
31
0
39
0
210
0
220
0
230
1
0
LINE
5
AA
100
AcDbEntity
8
1
62
256
6
ByLayer
370
18
48
1
60
0
100
AcDbLine
10
19.386592
20
-2.119205
30
0
11
19.551058
21
-2.137998
31
0
39
0
210
0
220
0
230
1
0
LINE
5
AB
100
AcDbEntity
8
1
62
256
6
ByLayer
370
18
48
1
60
0
100
AcDbLine
10
18.782412
20
-2.283937
30
0
11
25.281349
21
-14.240167
31
0
39
0
210
0
220
0
230
1
0
LINE
5
AC
100
AcDbEntity
8
1
62
256
6
ByLayer
370
18
48
1
60
0
100
AcDbLine
10
10.243947
20
-13.977688
30
0
11
9.757799
21
-13.474268
31
0
39
0
210
0
220
0
230
1
0
LINE
5
AD
100
AcDbEntity
8
1
62
256
6
ByLayer
370
18
48
1
60
0
100
AcDbLine
10
24.563982
20
-15.412372
30
0
11
10.894086
21
-15.173763
31
0
39
0
210
0
220
0
230
1
0
LINE
5
AE
100
AcDbEntity
8
1
62
256
6
ByLayer
370
18
48
1
60
0
100
AcDbLine
10
4.368804
20
-3.351651
30
0
11
3.603849
21
-2.460759
31
0
39
0
210
0
220
0
230
1
0
LINE
5
AF
100
AcDbEntity
8
1
62
256
6
ByLayer
370
18
48
1
60
0
100
AcDbLine
10
11.344195
20
4.433338
30
0
11
15.417195
21
-0.310218
31
0
39
0
210
0
220
0
230
1
0
LINE
5
B0
100
AcDbEntity
8
1
62
256
6
ByLayer
370
18
48
1
60
0
100
AcDbLine
10
4.368804
20
-3.351651
30
0
11
3.282517
21
-2.110177
31
0
39
0
210
0
220
0
230
1
0
LINE
5
B1
100
AcDbEntity
8
1
62
256
6
ByLayer
370
18
48
1
60
0
100
AcDbLine
10
12.015942
20
4.780635
30
0
11
12.780897
21
3.889743
31
0
39
0
210
0
220
0
230
1
0
LINE
5
B2
100
AcDbEntity
8
1
62
256
6
ByLayer
370
18
48
1
60
0
100
AcDbLine
10
4.077032
20
-1.822464
30
0
11
8.150033
21
-6.56602
31
0
39
0
210
0
220
0
230
1
0
LINE
5
B3
100
AcDbEntity
8
1
62
256
6
ByLayer
370
18
48
1
60
0
100
AcDbLine
10
8.903496
20
4.597498
30
0
11
7.954529
21
5.633663
31
0
39
0
210
0
220
0
230
1
0
LINE
5
B4
100
AcDbEntity
8
1
62
256
6
ByLayer
370
18
48
1
60
0
100
AcDbLine
10
4.368804
20
-3.351651
30
0
11
4.411877
21
-3.375468
31
0
39
0
210
0
220
0
230
1
0
LINE
5
B5
100
AcDbEntity
8
1
62
256
6
ByLayer
370
18
48
1
60
0
100
AcDbLine
10
7.908944
20
-4.04177
30
0
11
8.974303
21
-5.282524
31
0
39
0
210
0
220
0
230
1
0
LINE
5
B6
100
AcDbEntity
8
1
62
256
6
ByLayer
370
18
48
1
60
0
100
AcDbLine
10
15.75073
20
0.405949
30
0
11
12.798607
21
3.844092
31
0
39
0
210
0
220
0
230
1
0
LINE
5
B7
100
AcDbEntity
8
1
62
256
6
ByLayer
370
18
48
1
60
0
100
AcDbLine
10
12.780897
20
3.889743
30
0
11
12.798607
21
3.844092
31
0
39
0
210
0
220
0
230
1
0
LINE
5
B8
100
AcDbEntity
8
1
62
256
6
ByLayer
370
18
48
1
60
0
100
AcDbLine
10
16.960984
20
-11.961493
30
0
11
14.656158
21
-11.809236
31
0
39
0
210
0
220
0
230
1
0
LINE
5
B9
100
AcDbEntity
8
1
62
256
6
ByLayer
370
18
48
1
60
0
100
AcDbLine
10
9.549004
20
2.55188
30
0
11
8.649105
21
3.600256
31
0
39
0
210
0
220
0
230
1
0
LINE
5
BA
100
AcDbEntity
8
1
62
256
6
ByLayer
370
18
48
1
60
0
100
AcDbLine
10
7.364
20
-6.813612
30
0
11
4.411877
21
-3.375468
31
0
39
0
210
0
220
0
230
1
0
LINE
5
BB
100
AcDbEntity
8
1
62
256
6
ByLayer
370
18
48
1
60
0
100
AcDbLine
10
12.762163
20
0.574128
30
0
11
13.822303
21
-0.660927
31
0
39
0
210
0
220
0
230
1
0
LINE
5
BC
100
AcDbEntity
8
1
62
256
6
ByLayer
370
18
48
1
60
0
100
AcDbLine
10
14.051873
20
-0.911592
30
0
11
13.822303
21
-0.660927
31
0
39
0
210
0
220
0
230
1
0
LINE
5
BD
100
AcDbEntity
8
1
62
256
6
ByLayer
370
18
48
1
60
0
100
AcDbLine
10
12.986513
20
0.329162
30
0
11
12.762163
21
0.574128
31
0
39
0
210
0
220
0
230
1
0
LINE
5
BE
100
AcDbEntity
8
1
62
256
6
ByLayer
370
18
48
1
60
0
100
AcDbLine
10
4.280634
20
0.617993
30
0
11
3.331667
21
1.654158
31
0
39
0
210
0
220
0
230
1
0
LINE
5
BF
100
AcDbEntity
8
1
62
256
6
ByLayer
370
18
48
1
60
0
100
AcDbLine
10
5.314581
20
0.729794
30
0
11
8.649105
21
3.600256
31
0
39
0
210
0
220
0
230
1
0
LINE
5
C0
100
AcDbEntity
8
1
62
256
6
ByLayer
370
18
48
1
60
0
100
AcDbLine
10
19.581321
20
-7.569502
30
0
11
19.385959
21
-9.873998
31
0
39
0
210
0
220
0
230
1
0
LINE
5
C1
100
AcDbEntity
8
1
62
256
6
ByLayer
370
18
48
1
60
0
100
AcDbLine
10
14.051873
20
-0.911592
30
0
11
12.986513
21
0.329162
31
0
39
0
210
0
220
0
230
1
0
LINE
5
C2
100
AcDbEntity
8
1
62
256
6
ByLayer
370
18
48
1
60
0
100
AcDbLine
10
7.954529
20
5.633663
30
0
11
3.331667
21
1.654158
31
0
39
0
210
0
220
0
230
1
0
LINE
5
C3
100
AcDbEntity
8
1
62
256
6
ByLayer
370
18
48
1
60
0
100
AcDbLine
10
16.629754
20
-9.070592
30
0
11
19.018193
21
-11.898114
31
0
39
0
210
0
220
0
230
1
0
LINE
5
C4
100
AcDbEntity
8
1
62
256
6
ByLayer
370
18
48
1
60
0
100
AcDbLine
10
3.603849
20
-2.460759
30
0
11
3.277103
21
-2.10399
31
0
39
0
210
0
220
0
230
1
0
LINE
5
C5
100
AcDbEntity
8
1
62
256
6
ByLayer
370
18
48
1
60
0
100
AcDbLine
10
4.280634
20
0.617993
30
0
11
8.903496
21
4.597498
31
0
39
0
210
0
220
0
230
1
0
LINE
5
C6
100
AcDbEntity
8
1
62
256
6
ByLayer
370
18
48
1
60
0
100
AcDbLine
10
11.022068
20
-1.383683
30
0
11
11.159946
21
-1.526459
31
0
39
0
210
0
220
0
230
1
0
LINE
5
C7
100
AcDbEntity
8
1
62
256
6
ByLayer
370
18
48
1
60
0
100
AcDbLine
10
10.348543
20
-3.27899
30
0
11
10.486421
21
-3.421767
31
0
39
0
210
0
220
0
230
1
0
LINE
5
C8
100
AcDbEntity
8
1
62
256
6
ByLayer
370
18
48
1
60
0
100
AcDbLine
10
11.379563
20
-3.331703
30
0
11
11.517441
21
-3.474479
31
0
39
0
210
0
220
0
230
1
0
LINE
5
C9
100
AcDbEntity
8
1
62
256
6
ByLayer
370
18
48
1
60
0
100
AcDbLine
10
10.698805
20
-3.281945
30
0
11
10.83226
21
-3.420142
31
0
39
0
210
0
220
0
230
1
0
LINE
5
CA
100
AcDbEntity
8
1
62
256
6
ByLayer
370
18
48
1
60
0
100
AcDbLine
10
10.674809
20
-3.36574
30
0
11
10.541354
21
-3.227543
31
0
39
0
210
0
220
0
230
1
0
LINE
5
CB
100
AcDbEntity
8
1
62
256
6
ByLayer
370
18
48
1
60
0
100
AcDbLine
10
11.860955
20
-1.977058
30
0
11
11.998833
21
-2.119835
31
0
39
0
210
0
220
0
230
1
0
LINE
5
CC
100
AcDbEntity
8
1
62
256
6
ByLayer
370
18
48
1
60
0
100
AcDbLine
10
11.75836
20
-3.005621
30
0
11
11.896238
21
-3.148398
31
0
39
0
210
0
220
0
230
1
0
LINE
5
CD
100
AcDbEntity
8
1
62
256
6
ByLayer
370
18
48
1
60
0
100
AcDbLine
10
11.781234
20
-2.160215
30
0
11
11.91469
21
-2.298412
31
0
39
0
210
0
220
0
230
1
0
LINE
5
CE
100
AcDbEntity
8
1
62
256
6
ByLayer
370
18
48
1
60
0
100
AcDbLine
10
11.944792
20
-2.46244
30
0
11
11.811336
21
-2.324243
31
0
39
0
210
0
220
0
230
1
0
LINE
5
CF
100
AcDbEntity
8
1
62
256
6
ByLayer
370
18
48
1
60
0
100
AcDbLine
10
11.566672
20
-3.277737
30
0
11
11.433217
21
-3.13954
31
0
39
0
210
0
220
0
230
1
0
LINE
5
D0
100
AcDbEntity
8
1
62
256
6
ByLayer
370
18
48
1
60
0
100
AcDbLine
10
11.560566
20
-3.029914
30
0
11
11.694021
21
-3.168111
31
0
39
0
210
0
220
0
230
1
0
LINE
5
D1
100
AcDbEntity
8
SK1
62
256
6
ByLayer
370
18
48
1
60
0
100
AcDbLine
10
0
20
-9.9375
30
0
11
0
21
9.9375
31
0
39
0
210
0
220
0
230
1
0
LINE
5
D3
100
AcDbEntity
8
SK1
62
256
6
ByLayer
370
18
48
1
60
0
100
AcDbLine
10
0
20
-9.9375
30
0
11
-100.973586
21
-9.9375
31
0
39
0
210
0
220
0
230
1
0
LINE
5
D4
100
AcDbEntity
8
SK1
62
256
6
ByLayer
370
18
48
1
60
0
100
AcDbLine
10
-100.973586
20
-9.9375
30
0
11
-100.973586
21
9.9375
31
0
39
0
210
0
220
0
230
1
0
LINE
5
D5
100
AcDbEntity
8
SK1
62
256
6
ByLayer
370
18
48
1
60
0
100
AcDbLine
10
-100.973586
20
9.9375
30
0
11
0
21
9.9375
31
0
39
0
210
0
220
0
230
1
0
MTEXT
5
167
100
AcDbEntity
8
SK6
62
256
6
ByLayer
370
18
48
1
60
0
100
AcDbMText
10
-51.923586
20
19.066893
30
0
210
0
220
0
230
1
1
\W0.7688;DTGNL 2020K 16
40
3.5
41
0
44
1.084337
50
0
71
7
72
5
7
iso_b_vert
0
DIMENSION
5
187
100
AcDbEntity
8
2
62
256
6
ByLayer
370
13
48
1
60
0
100
AcDbDimension
2
DimnDraft3D2
10
23.568964
20
-15.394927
30
0
11
13.279199
21
-27.314376
31
0
70
34
71
5
72
1
41
1
210
0
220
0
230
1
3
Standard
100
AcDb2LineAngularDimension
13
25.376414
23
-15.4125
33
0
14
25.376414
24
-13.825
34
0
15
24.568811
25
-15.412379
35
0
16
10.069572
26
-30.468468
36
0
40
0
0
DIMENSION
5
19C
100
AcDbEntity
8
2
62
256
6
ByLayer
370
13
48
1
60
0
100
AcDbDimension
2
DimnDraft3D3
10
25.376414
20
-43.6625
30
0
11
7.169786
21
-43.6625
31
0
70
32
71
5
72
1
41
1
210
0
220
0
230
1
3
Standard
100
AcDbAlignedDimension
13
0
23
-11.9375
33
0
14
25.376414
24
-17.4125
34
0
50
0
100
AcDbRotatedDimension
1001
ACAD
1000
DSTYLE
1002
{
1070
   279
1070
     0
1070
   172
1070
     1
1070
   173
1070
     1
1070
   340
1005
168
1070
    77
1070
     1
1070
    73
1070
     0
1070
   171
1070
     3
1070
   274
1070
     4
1070
   177
1070
     2
1070
   176
1070
     2
1070
   178
1070
     7
1070
    78
1070
     8
1070
    41
1041
3.175
1070
   147
1041
2.25
1070
    42
1041
2.0
1070
    44
1041
2.0
1070
   140
1041
4.5
1070
   343
1005
188
1070
   344
1005
188
1002
}
0
DIMENSION
5
1AA
100
AcDbEntity
8
2
62
256
6
ByLayer
370
13
48
1
60
0
100
AcDbDimension
2
DimnDraft3D4
10
47.626414
20
-15.4125
30
0
11
47.626414
21
-8.019079
31
0
70
32
71
5
72
1
41
1
210
0
220
0
230
1
3
Standard
100
AcDbAlignedDimension
13
2
23
9.9375
33
0
14
27.376414
24
-15.4125
34
0
50
90
100
AcDbRotatedDimension
1001
ACAD
1000
DSTYLE
1002
{
1070
    74
1070
     0
1070
   279
1070
     0
1070
   172
1070
     1
1070
   173
1070
     1
1070
   340
1005
168
1070
    77
1070
     1
1070
    73
1070
     0
1070
   171
1070
     3
1070
   274
1070
     4
1070
   177
1070
     2
1070
   176
1070
     2
1070
   178
1070
     7
1070
    78
1070
     8
1070
    41
1041
3.175
1070
   147
1041
2.25
1070
    42
1041
2.0
1070
    44
1041
2.0
1070
   140
1041
4.5
1070
   343
1005
188
1070
   344
1005
188
1002
}
0
DIMENSION
5
1B8
100
AcDbEntity
8
SK2
62
256
6
ByLayer
370
13
48
1
60
0
100
AcDbDimension
2
DimnDraft3D5
10
-108.723586
20
-9.9375
30
0
11
-108.723586
21
-5.281579
31
0
70
32
71
5
72
1
41
1
210
0
220
0
230
1
3
Standard
100
AcDbAlignedDimension
13
-102.973586
23
9.9375
33
0
14
-102.973586
24
-9.9375
34
0
50
90
100
AcDbRotatedDimension
1001
ACAD
1000
DSTYLE
1002
{
1070
    74
1070
     0
1070
   279
1070
     0
1070
   172
1070
     1
1070
   173
1070
     1
1070
   340
1005
168
1070
    77
1070
     1
1070
    73
1070
     0
1070
   171
1070
     3
1070
   274
1070
     4
1070
   177
1070
     2
1070
   176
1070
     2
1070
   178
1070
     7
1070
    78
1070
     8
1070
    41
1041
3.175
1070
   147
1041
2.25
1070
    42
1041
2.0
1070
    44
1041
2.0
1070
   140
1041
4.5
1070
   343
1005
188
1070
   344
1005
188
1002
}
0
ENDSEC
0
SECTION
2
OBJECTS
0
DICTIONARY
5
222
330
0
100
AcDbDictionary
280
0
281
1
3
ACAD_GROUP
350
223
3
ACAD_MLINESTYLE
350
224
0
DICTIONARY
5
223
330
0
100
AcDbDictionary
280
0
281
1
0
DICTIONARY
5
224
330
0
100
AcDbDictionary
280
0
281
1
3
Standard
350
18
0
MLINESTYLE
5
18
330
224
100
AcDbMlineStyle
2
Standard
70
0
3

62
256
51
90
52
90
71
2
49
-0.5
62
256
6
ByLayer
49
0.5
62
256
6
ByLayer
0
RASTERVARIABLES
5
211
330

100
AcDbRasterVariables
90
0
70
1
71
1
72
1
0
ENDSEC
0
EOF
