0
SECTION
2
HEADER
9
$ACADVER
1
AC1015
9
$DWGCODEPAGE
3
ANSI_1252
9
$HANDSEED
5
26c
9
$ANGBASE
50
0
9
$ANGDIR
70
0
9
$ATTMODE
70
1
9
$AUNITS
70
0
9
$AUPREC
70
0
9
$CECOLOR
62
256
9
$CELTSCALE
40
1
9
$CELTYPE
6
ByLayer
9
$CELWEIGHT
370
18
9
$CLAYER
8
0
9
$CMLJUST
70
0
9
$CMLSCALE
40
1
9
$CMLSTYLE
2
Standard
9
$DIMSTYLE
2
Standard
9
$TEXTSIZE
40
0.2
9
$TEXTSTYLE
7
Standard
9
$LUNITS
70
2
9
$LUPREC
70
4
9
$EXTNAMES
290
1
9
$INSUNITS
70
4
9
$LTSCALE
40
1
9
$LWDISPLAY
290
1
9
$PDMODE
70
0
9
$PDSIZE
40
0
9
$PLINEGEN
70
0
0
ENDSEC
0
SECTION
2
CLASSES
0
CLASS
1
RASTERVARIABLES
2
AcDbRasterVariables
3
ISM
90
0
280
0
281
0
0
ENDSEC
0
SECTION
2
TABLES
0
TABLE
2
VPORT
5
262
100
AcDbSymbolTable
0
VPORT
5
1
100
AcDbSymbolTableRecord
100
AcDbViewportTableRecord
2
*Active
70
0
10
0
20
0
11
1
21
1
12
-1
22
1
13
0
23
0
14
0.5
24
0.5
15
10
25
10
16
0
26
0
36
1
17
0
27
0
37
0
0
ENDTAB
0
TABLE
2
LTYPE
5
263
100
AcDbSymbolTable
0
LTYPE
5
14
100
AcDbSymbolTableRecord
100
AcDbLinetypeTableRecord
70
0
2
ByBlock
3

72
65
73
0
40
0
0
LTYPE
5
15
100
AcDbSymbolTableRecord
100
AcDbLinetypeTableRecord
70
0
2
ByLayer
3

72
65
73
0
40
0
0
LTYPE
5
16
100
AcDbSymbolTableRecord
100
AcDbLinetypeTableRecord
70
0
2
CONTINUOUS
3
Solid line
72
65
73
0
40
0
0
LTYPE
5
6A
100
AcDbSymbolTableRecord
100
AcDbLinetypeTableRecord
70
0
2
CENTER
3
____ _ ____ _ ____ _ ____
72
65
73
4
40
47.5
49
22
74
0
49
-8.5
74
0
49
8.5
74
0
49
-8.5
74
0
0
LTYPE
5
6B
100
AcDbSymbolTableRecord
100
AcDbLinetypeTableRecord
70
0
2
DASHED
3
__ __ __ __ __ __ __ __ __
72
65
73
2
40
25.72
49
12.86
74
0
49
-12.86
74
0
0
ENDTAB
0
TABLE
2
LAYER
5
264
100
AcDbSymbolTable
0
LAYER
5
10
100
AcDbSymbolTableRecord
100
AcDbLayerTableRecord
2
0
70
0
62
7
6
CONTINUOUS
290
1
370
-3
390
0
0
LAYER
5
6D
100
AcDbSymbolTableRecord
100
AcDbLayerTableRecord
2
2
70
0
62
7
6
CONTINUOUS
290
1
370
-3
390
0
0
LAYER
5
6F
100
AcDbSymbolTableRecord
100
AcDbLayerTableRecord
2
80
70
0
62
-6
6
CONTINUOUS
290
1
370
-3
390
0
0
LAYER
5
71
100
AcDbSymbolTableRecord
100
AcDbLayerTableRecord
2
81
70
0
62
-3
6
CONTINUOUS
290
1
370
-3
390
0
0
LAYER
5
73
100
AcDbSymbolTableRecord
100
AcDbLayerTableRecord
2
1
70
0
62
4
6
CONTINUOUS
290
1
370
-3
390
0
0
LAYER
5
24f
100
AcDbSymbolTableRecord
100
AcDbLayerTableRecord
2
SK1
70
0
62
4
6
CONTINUOUS
290
1
370
-3
390
0
0
LAYER
5
250
100
AcDbSymbolTableRecord
100
AcDbLayerTableRecord
2
SK6
70
0
62
5
6
CONTINUOUS
290
1
370
-3
390
0
0
LAYER
5
251
100
AcDbSymbolTableRecord
100
AcDbLayerTableRecord
2
SK2
70
0
62
7
6
CONTINUOUS
290
1
370
-3
390
0
0
ENDTAB
0
TABLE
2
STYLE
5
265
100
AcDbSymbolTable
0
STYLE
5
11
100
AcDbSymbolTableRecord
100
AcDbTextStyleTableRecord
2
Standard
3
txt
70
0
71
0
40
0
41
1
42
0
50
0
0
STYLE
5
189
100
AcDbSymbolTableRecord
100
AcDbTextStyleTableRecord
2
iso_b_vert
3
simplex.shx
70
0
71
0
40
0
41
1
42
0
50
0
0
STYLE
5
18A
100
AcDbSymbolTableRecord
100
AcDbTextStyleTableRecord
2
DWGDirectTextStyle
3
simplex
70
0
71
0
40
0
41
1
42
0
50
0
0
ENDTAB
0
TABLE
2
DIMSTYLE
5
266
100
AcDbSymbolTable
100
AcDbDimStyleTable
0
DIMSTYLE
105
27
100
AcDbSymbolTableRecord
100
AcDbDimStyleTableRecord
2
Standard
70
0
3
<>
41
0.18
42
0.0625
44
0.18
140
0.18
147
0.09
73
0
74
0
77
1
271
2
275
0
278
52
280
0
340
11
0
ENDTAB
0
TABLE
2
VIEW
5
267
100
AcDbSymbolTable
0
ENDTAB
0
TABLE
2
UCS
5
268
100
AcDbSymbolTable
0
ENDTAB
0
TABLE
2
APPID
5
269
100
AcDbSymbolTable
0
APPID
5
12
100
AcDbSymbolTableRecord
100
AcDbRegAppTableRecord
2
ACAD
70
0
0
ENDTAB
0
TABLE
2
BLOCK_RECORD
5
26a
100
AcDbSymbolTable
0
BLOCK_RECORD
5
1F
100
AcDbSymbolTableRecord
100
AcDbBlockTableRecord
2
*Model_Space
340
0
70
0
0
BLOCK_RECORD
5
1B
100
AcDbSymbolTableRecord
100
AcDbBlockTableRecord
2
*Paper_Space
340
0
70
0
0
BLOCK_RECORD
5
23
100
AcDbSymbolTableRecord
100
AcDbBlockTableRecord
2
*Paper_Space0
340
0
70
0
0
BLOCK_RECORD
5
18C
100
AcDbSymbolTableRecord
100
AcDbBlockTableRecord
2
DimnDraft3D1
340
0
70
0
0
BLOCK_RECORD
5
19A
100
AcDbSymbolTableRecord
100
AcDbBlockTableRecord
2
_CLOSED
340
0
70
0
0
BLOCK_RECORD
5
1A1
100
AcDbSymbolTableRecord
100
AcDbBlockTableRecord
2
DimnDraft3D2
340
0
70
0
0
BLOCK_RECORD
5
1B0
100
AcDbSymbolTableRecord
100
AcDbBlockTableRecord
2
DimnDraft3D3
340
0
70
0
0
BLOCK_RECORD
5
1BE
100
AcDbSymbolTableRecord
100
AcDbBlockTableRecord
2
DimnDraft3D4
340
0
70
0
0
BLOCK_RECORD
5
1CC
100
AcDbSymbolTableRecord
100
AcDbBlockTableRecord
2
DimnDraft3D5
340
0
70
0
0
BLOCK_RECORD
5
1DA
100
AcDbSymbolTableRecord
100
AcDbBlockTableRecord
2
DimnDraft3D6
340
0
70
0
0
BLOCK_RECORD
5
1E8
100
AcDbSymbolTableRecord
100
AcDbBlockTableRecord
2
DimnDraft3D7
340
0
70
0
0
ENDTAB
0
ENDSEC
0
SECTION
2
BLOCKS
0
BLOCK
5
20
100
AcDbEntity
8
0
100
AcDbBlockBegin
2
*Model_Space
70
0
10
0
20
0
30
0
3
*Model_Space
0
ENDBLK
5
21
100
AcDbEntity
8
0
100
AcDbBlockEnd
0
BLOCK
5
1C
100
AcDbEntity
8
0
100
AcDbBlockBegin
2
*Paper_Space
70
0
10
0
20
0
30
0
3
*Paper_Space
0
ENDBLK
5
1D
100
AcDbEntity
8
0
100
AcDbBlockEnd
0
BLOCK
5
24
100
AcDbEntity
8
0
100
AcDbBlockBegin
2
*Paper_Space0
70
0
10
0
20
0
30
0
3
*Paper_Space0
0
ENDBLK
5
25
100
AcDbEntity
8
0
100
AcDbBlockEnd
0
BLOCK
5
197
100
AcDbEntity
8
0
100
AcDbBlockBegin
2
DimnDraft3D1
70
0
10
0
20
0
30
0
3
DimnDraft3D1
0
MTEXT
5
18D
100
AcDbEntity
8
2
62
256
6
ByLayer
370
18
48
1
60
0
100
AcDbMText
10
80.800118
20
-7.894079
30
0
210
0
220
0
230
1
1
\W0.7346;32.0
40
4.5
41
0
44
1.084337
50
90
71
7
72
5
7
iso_b_vert
0
LINE
5
18E
100
AcDbEntity
8
2
62
256
6
ByLayer
370
13
48
1
60
0
100
AcDbLine
10
29.325118
20
-19.9125
30
0
11
83.925118
21
-19.9125
31
0
39
0
210
0
220
0
230
1
0
LINE
5
18F
100
AcDbEntity
8
2
62
256
6
ByLayer
370
13
48
1
60
0
100
AcDbLine
10
2
20
12.4375
30
0
11
83.925118
21
12.4375
31
0
39
0
210
0
220
0
230
1
0
LINE
5
190
100
AcDbEntity
8
2
62
256
6
ByLayer
370
13
48
1
60
0
100
AcDbLine
10
81.925118
20
-19.9125
30
0
11
81.925118
21
12.4375
31
0
39
0
210
0
220
0
230
1
0
LINE
5
191
100
AcDbEntity
8
2
62
256
6
ByLayer
370
13
48
1
60
0
100
AcDbLine
10
81.925118
20
-19.9125
30
0
11
81.507122
21
-16.737502
31
0
39
0
210
0
220
0
230
1
0
LINE
5
192
100
AcDbEntity
8
2
62
256
6
ByLayer
370
13
48
1
60
0
100
AcDbLine
10
81.925118
20
-19.9125
30
0
11
82.343115
21
-16.737498
31
0
39
0
210
0
220
0
230
1
0
LINE
5
193
100
AcDbEntity
8
2
62
256
6
ByLayer
370
13
48
1
60
0
100
AcDbLine
10
81.507122
20
-16.737502
30
0
11
82.343115
21
-16.737498
31
0
39
0
210
0
220
0
230
1
0
LINE
5
194
100
AcDbEntity
8
2
62
256
6
ByLayer
370
13
48
1
60
0
100
AcDbLine
10
81.925118
20
12.4375
30
0
11
82.343115
21
9.262502
31
0
39
0
210
0
220
0
230
1
0
LINE
5
195
100
AcDbEntity
8
2
62
256
6
ByLayer
370
13
48
1
60
0
100
AcDbLine
10
81.925118
20
12.4375
30
0
11
81.507122
21
9.262498
31
0
39
0
210
0
220
0
230
1
0
LINE
5
196
100
AcDbEntity
8
2
62
256
6
ByLayer
370
13
48
1
60
0
100
AcDbLine
10
82.343115
20
9.262502
30
0
11
81.507122
21
9.262498
31
0
39
0
210
0
220
0
230
1
0
ENDBLK
5
198
100
AcDbEntity
8
0
100
AcDbBlockEnd
0
BLOCK
5
19B
100
AcDbEntity
8
0
100
AcDbBlockBegin
2
_CLOSED
70
0
10
0
20
0
30
0
3
_CLOSED
0
LINE
5
19D
100
AcDbEntity
8
0
62
256
6
ByLayer
370
-2
48
1
60
0
100
AcDbLine
10
-1
20
0.166667
30
0
11
0
21
0
31
0
39
0
210
0
220
0
230
1
0
LINE
5
19E
100
AcDbEntity
8
0
62
256
6
ByLayer
370
-2
48
1
60
0
100
AcDbLine
10
0
20
0
30
0
11
-1
21
-0.166667
31
0
39
0
210
0
220
0
230
1
0
LINE
5
19F
100
AcDbEntity
8
0
62
256
6
ByLayer
370
-2
48
1
60
0
100
AcDbLine
10
-1
20
0.166667
30
0
11
-1
21
-0.166667
31
0
39
0
210
0
220
0
230
1
0
LINE
5
1A0
100
AcDbEntity
8
0
62
256
6
ByLayer
370
-2
48
1
60
0
100
AcDbLine
10
0
20
0
30
0
11
-1
21
0
31
0
39
0
210
0
220
0
230
1
0
ENDBLK
5
19C
100
AcDbEntity
8
0
100
AcDbBlockEnd
0
BLOCK
5
1AD
100
AcDbEntity
8
0
100
AcDbBlockBegin
2
DimnDraft3D2
70
0
10
0
20
0
30
0
3
DimnDraft3D2
0
MTEXT
5
1A2
100
AcDbEntity
8
SK2
62
256
6
ByLayer
370
18
48
1
60
0
100
AcDbMText
10
-132.899882
20
-4.156579
30
0
210
0
220
0
230
1
1
\W0.7346;25.0
40
4.5
41
0
44
1.084337
50
90
71
7
72
5
7
iso_b_vert
0
LINE
5
1A4
100
AcDbEntity
8
SK2
62
256
6
ByLayer
370
13
48
1
60
0
100
AcDbLine
10
-126.024882
20
12.4375
30
0
11
-133.774882
21
12.4375
31
0
39
0
210
0
220
0
230
1
0
LINE
5
1A5
100
AcDbEntity
8
SK2
62
256
6
ByLayer
370
13
48
1
60
0
100
AcDbLine
10
-126.024882
20
-12.4375
30
0
11
-133.774882
21
-12.4375
31
0
39
0
210
0
220
0
230
1
0
LINE
5
1A6
100
AcDbEntity
8
SK2
62
256
6
ByLayer
370
13
48
1
60
0
100
AcDbLine
10
-131.774882
20
12.4375
30
0
11
-131.774882
21
-12.4375
31
0
39
0
210
0
220
0
230
1
0
LINE
5
1A7
100
AcDbEntity
8
SK2
62
256
6
ByLayer
370
13
48
1
60
0
100
AcDbLine
10
-131.774882
20
12.4375
30
0
11
-131.356885
21
9.262502
31
0
39
0
210
0
220
0
230
1
0
LINE
5
1A8
100
AcDbEntity
8
SK2
62
256
6
ByLayer
370
13
48
1
60
0
100
AcDbLine
10
-131.774882
20
12.4375
30
0
11
-132.192878
21
9.262498
31
0
39
0
210
0
220
0
230
1
0
LINE
5
1A9
100
AcDbEntity
8
SK2
62
256
6
ByLayer
370
13
48
1
60
0
100
AcDbLine
10
-131.356885
20
9.262502
30
0
11
-132.192878
21
9.262498
31
0
39
0
210
0
220
0
230
1
0
LINE
5
1AA
100
AcDbEntity
8
SK2
62
256
6
ByLayer
370
13
48
1
60
0
100
AcDbLine
10
-131.774882
20
-12.4375
30
0
11
-132.192878
21
-9.262502
31
0
39
0
210
0
220
0
230
1
0
LINE
5
1AB
100
AcDbEntity
8
SK2
62
256
6
ByLayer
370
13
48
1
60
0
100
AcDbLine
10
-131.774882
20
-12.4375
30
0
11
-131.356885
21
-9.262498
31
0
39
0
210
0
220
0
230
1
0
LINE
5
1AC
100
AcDbEntity
8
SK2
62
256
6
ByLayer
370
13
48
1
60
0
100
AcDbLine
10
-132.192878
20
-9.262502
30
0
11
-131.356885
21
-9.262498
31
0
39
0
210
0
220
0
230
1
0
ENDBLK
5
1AE
100
AcDbEntity
8
0
100
AcDbBlockEnd
0
BLOCK
5
1BB
100
AcDbEntity
8
0
100
AcDbBlockBegin
2
DimnDraft3D3
70
0
10
0
20
0
30
0
3
DimnDraft3D3
0
MTEXT
5
1B1
100
AcDbEntity
8
2
62
256
6
ByLayer
370
18
48
1
60
0
100
AcDbMText
10
70.800118
20
-3.732733
30
0
210
0
220
0
230
1
1
\W0.7346;23.7
40
4.5
41
0
44
1.084337
50
90
71
7
72
5
7
iso_b_vert
0
LINE
5
1B2
100
AcDbEntity
8
2
62
256
6
ByLayer
370
13
48
1
60
0
100
AcDbLine
10
37.64781
20
-11.589808
30
0
11
73.925118
21
-11.589808
31
0
39
0
210
0
220
0
230
1
0
LINE
5
1B3
100
AcDbEntity
8
2
62
256
6
ByLayer
370
13
48
1
60
0
100
AcDbLine
10
2
20
12.4375
30
0
11
73.925118
21
12.4375
31
0
39
0
210
0
220
0
230
1
0
LINE
5
1B4
100
AcDbEntity
8
2
62
256
6
ByLayer
370
13
48
1
60
0
100
AcDbLine
10
71.925118
20
-11.589808
30
0
11
71.925118
21
12.4375
31
0
39
0
210
0
220
0
230
1
0
LINE
5
1B5
100
AcDbEntity
8
2
62
256
6
ByLayer
370
13
48
1
60
0
100
AcDbLine
10
71.925118
20
-11.589808
30
0
11
71.507122
21
-8.414809
31
0
39
0
210
0
220
0
230
1
0
LINE
5
1B6
100
AcDbEntity
8
2
62
256
6
ByLayer
370
13
48
1
60
0
100
AcDbLine
10
71.925118
20
-11.589808
30
0
11
72.343115
21
-8.414806
31
0
39
0
210
0
220
0
230
1
0
LINE
5
1B7
100
AcDbEntity
8
2
62
256
6
ByLayer
370
13
48
1
60
0
100
AcDbLine
10
71.507122
20
-8.414809
30
0
11
72.343115
21
-8.414806
31
0
39
0
210
0
220
0
230
1
0
LINE
5
1B8
100
AcDbEntity
8
2
62
256
6
ByLayer
370
13
48
1
60
0
100
AcDbLine
10
71.925118
20
12.4375
30
0
11
72.343115
21
9.262502
31
0
39
0
210
0
220
0
230
1
0
LINE
5
1B9
100
AcDbEntity
8
2
62
256
6
ByLayer
370
13
48
1
60
0
100
AcDbLine
10
71.925118
20
12.4375
30
0
11
71.507122
21
9.262498
31
0
39
0
210
0
220
0
230
1
0
LINE
5
1BA
100
AcDbEntity
8
2
62
256
6
ByLayer
370
13
48
1
60
0
100
AcDbLine
10
72.343115
20
9.262502
30
0
11
71.507122
21
9.262498
31
0
39
0
210
0
220
0
230
1
0
ENDBLK
5
1BC
100
AcDbEntity
8
0
100
AcDbBlockEnd
0
BLOCK
5
1C9
100
AcDbEntity
8
0
100
AcDbBlockBegin
2
DimnDraft3D4
70
0
10
0
20
0
30
0
3
DimnDraft3D4
0
MTEXT
5
1BF
100
AcDbEntity
8
2
62
256
6
ByLayer
370
18
48
1
60
0
100
AcDbMText
10
9.50598
20
-33.714808
30
0
210
0
220
0
230
1
1
\W0.7346;27.3
40
4.5
41
0
44
1.084337
50
0
71
7
72
5
7
iso_b_vert
0
LINE
5
1C0
100
AcDbEntity
8
2
62
256
6
ByLayer
370
13
48
1
60
0
100
AcDbLine
10
0
20
-14.4375
30
0
11
0
21
-36.839808
31
0
39
0
210
0
220
0
230
1
0
LINE
5
1C1
100
AcDbEntity
8
2
62
256
6
ByLayer
370
13
48
1
60
0
100
AcDbLine
10
27.325118
20
-21.9125
30
0
11
27.325118
21
-36.839808
31
0
39
0
210
0
220
0
230
1
0
LINE
5
1C2
100
AcDbEntity
8
2
62
256
6
ByLayer
370
13
48
1
60
0
100
AcDbLine
10
0
20
-34.839808
30
0
11
27.325118
21
-34.839808
31
0
39
0
210
0
220
0
230
1
0
LINE
5
1C3
100
AcDbEntity
8
2
62
256
6
ByLayer
370
13
48
1
60
0
100
AcDbLine
10
0
20
-34.839808
30
0
11
3.174998
21
-34.421811
31
0
39
0
210
0
220
0
230
1
0
LINE
5
1C4
100
AcDbEntity
8
2
62
256
6
ByLayer
370
13
48
1
60
0
100
AcDbLine
10
0
20
-34.839808
30
0
11
3.175002
21
-35.257805
31
0
39
0
210
0
220
0
230
1
0
LINE
5
1C5
100
AcDbEntity
8
2
62
256
6
ByLayer
370
13
48
1
60
0
100
AcDbLine
10
3.174998
20
-34.421811
30
0
11
3.175002
21
-35.257805
31
0
39
0
210
0
220
0
230
1
0
LINE
5
1C6
100
AcDbEntity
8
2
62
256
6
ByLayer
370
13
48
1
60
0
100
AcDbLine
10
27.325118
20
-34.839808
30
0
11
24.15012
21
-35.257805
31
0
39
0
210
0
220
0
230
1
0
LINE
5
1C7
100
AcDbEntity
8
2
62
256
6
ByLayer
370
13
48
1
60
0
100
AcDbLine
10
27.325118
20
-34.839808
30
0
11
24.150117
21
-34.421811
31
0
39
0
210
0
220
0
230
1
0
LINE
5
1C8
100
AcDbEntity
8
2
62
256
6
ByLayer
370
13
48
1
60
0
100
AcDbLine
10
24.15012
20
-35.257805
30
0
11
24.150117
21
-34.421811
31
0
39
0
210
0
220
0
230
1
0
ENDBLK
5
1CA
100
AcDbEntity
8
0
100
AcDbBlockEnd
0
BLOCK
5
1D7
100
AcDbEntity
8
0
100
AcDbBlockBegin
2
DimnDraft3D5
70
0
10
0
20
0
30
0
3
DimnDraft3D5
0
MTEXT
5
1CD
100
AcDbEntity
8
SK2
62
256
6
ByLayer
370
18
48
1
60
0
100
AcDbMText
10
-53.62554
20
-43.714808
30
0
210
0
220
0
230
1
1
\W0.6864;150.0
40
4.5
41
0
44
1.084337
50
0
71
7
72
5
7
iso_b_vert
0
LINE
5
1CE
100
AcDbEntity
8
SK2
62
256
6
ByLayer
370
13
48
1
60
0
100
AcDbLine
10
-124.024882
20
-14.4375
30
0
11
-124.024882
21
-46.839808
31
0
39
0
210
0
220
0
230
1
0
LINE
5
1CF
100
AcDbEntity
8
SK2
62
256
6
ByLayer
370
13
48
1
60
0
100
AcDbLine
10
27.325118
20
-21.9125
30
0
11
27.325118
21
-46.839808
31
0
39
0
210
0
220
0
230
1
0
LINE
5
1D0
100
AcDbEntity
8
SK2
62
256
6
ByLayer
370
13
48
1
60
0
100
AcDbLine
10
-124.024882
20
-44.839808
30
0
11
27.325118
21
-44.839808
31
0
39
0
210
0
220
0
230
1
0
LINE
5
1D1
100
AcDbEntity
8
SK2
62
256
6
ByLayer
370
13
48
1
60
0
100
AcDbLine
10
-124.024882
20
-44.839808
30
0
11
-120.849883
21
-44.421811
31
0
39
0
210
0
220
0
230
1
0
LINE
5
1D2
100
AcDbEntity
8
SK2
62
256
6
ByLayer
370
13
48
1
60
0
100
AcDbLine
10
-124.024882
20
-44.839808
30
0
11
-120.84988
21
-45.257805
31
0
39
0
210
0
220
0
230
1
0
LINE
5
1D3
100
AcDbEntity
8
SK2
62
256
6
ByLayer
370
13
48
1
60
0
100
AcDbLine
10
-120.849883
20
-44.421811
30
0
11
-120.84988
21
-45.257805
31
0
39
0
210
0
220
0
230
1
0
LINE
5
1D4
100
AcDbEntity
8
SK2
62
256
6
ByLayer
370
13
48
1
60
0
100
AcDbLine
10
27.325118
20
-44.839808
30
0
11
24.15012
21
-45.257805
31
0
39
0
210
0
220
0
230
1
0
LINE
5
1D5
100
AcDbEntity
8
SK2
62
256
6
ByLayer
370
13
48
1
60
0
100
AcDbLine
10
27.325118
20
-44.839808
30
0
11
24.150117
21
-44.421811
31
0
39
0
210
0
220
0
230
1
0
LINE
5
1D6
100
AcDbEntity
8
SK2
62
256
6
ByLayer
370
13
48
1
60
0
100
AcDbLine
10
24.15012
20
-45.257805
30
0
11
24.150117
21
-44.421811
31
0
39
0
210
0
220
0
230
1
0
ENDBLK
5
1D8
100
AcDbEntity
8
0
100
AcDbBlockEnd
0
BLOCK
5
1E5
100
AcDbEntity
8
0
100
AcDbBlockBegin
2
DimnDraft3D6
70
0
10
0
20
0
30
0
3
DimnDraft3D6
0
MTEXT
5
1DB
100
AcDbEntity
8
SK2
62
256
6
ByLayer
370
18
48
1
60
0
100
AcDbMText
10
-49.464194
20
-53.714808
30
0
210
0
220
0
230
1
1
\W0.6864;158.3
40
4.5
41
0
44
1.084337
50
0
71
7
72
5
7
iso_b_vert
0
LINE
5
1DC
100
AcDbEntity
8
SK2
62
256
6
ByLayer
370
13
48
1
60
0
100
AcDbLine
10
35.64781
20
-13.589808
30
0
11
35.64781
21
-56.839808
31
0
39
0
210
0
220
0
230
1
0
LINE
5
1DD
100
AcDbEntity
8
SK2
62
256
6
ByLayer
370
13
48
1
60
0
100
AcDbLine
10
-124.024882
20
-14.4375
30
0
11
-124.024882
21
-56.839808
31
0
39
0
210
0
220
0
230
1
0
LINE
5
1DE
100
AcDbEntity
8
SK2
62
256
6
ByLayer
370
13
48
1
60
0
100
AcDbLine
10
35.64781
20
-54.839808
30
0
11
-124.024882
21
-54.839808
31
0
39
0
210
0
220
0
230
1
0
LINE
5
1DF
100
AcDbEntity
8
SK2
62
256
6
ByLayer
370
13
48
1
60
0
100
AcDbLine
10
35.64781
20
-54.839808
30
0
11
32.472812
21
-55.257805
31
0
39
0
210
0
220
0
230
1
0
LINE
5
1E0
100
AcDbEntity
8
SK2
62
256
6
ByLayer
370
13
48
1
60
0
100
AcDbLine
10
35.64781
20
-54.839808
30
0
11
32.472809
21
-54.421811
31
0
39
0
210
0
220
0
230
1
0
LINE
5
1E1
100
AcDbEntity
8
SK2
62
256
6
ByLayer
370
13
48
1
60
0
100
AcDbLine
10
32.472812
20
-55.257805
30
0
11
32.472809
21
-54.421811
31
0
39
0
210
0
220
0
230
1
0
LINE
5
1E2
100
AcDbEntity
8
SK2
62
256
6
ByLayer
370
13
48
1
60
0
100
AcDbLine
10
-124.024882
20
-54.839808
30
0
11
-120.849883
21
-54.421811
31
0
39
0
210
0
220
0
230
1
0
LINE
5
1E3
100
AcDbEntity
8
SK2
62
256
6
ByLayer
370
13
48
1
60
0
100
AcDbLine
10
-124.024882
20
-54.839808
30
0
11
-120.84988
21
-55.257805
31
0
39
0
210
0
220
0
230
1
0
LINE
5
1E4
100
AcDbEntity
8
SK2
62
256
6
ByLayer
370
13
48
1
60
0
100
AcDbLine
10
-120.849883
20
-54.421811
30
0
11
-120.84988
21
-55.257805
31
0
39
0
210
0
220
0
230
1
0
ENDBLK
5
1E6
100
AcDbEntity
8
0
100
AcDbBlockEnd
0
BLOCK
5
1F3
100
AcDbEntity
8
0
100
AcDbBlockBegin
2
DimnDraft3D7
70
0
10
0
20
0
30
0
3
DimnDraft3D7
0
MTEXT
5
1E9
100
AcDbEntity
8
2
62
256
6
ByLayer
370
18
48
1
60
0
100
AcDbMText
10
44.444048
20
17.893008
30
0
210
0
220
0
230
1
1
\W0.7785;45%%d
40
4.5
41
0
44
1.084337
50
337.500000000001
71
7
72
5
7
iso_b_vert
0
LINE
5
1EA
100
AcDbEntity
8
2
62
256
6
ByLayer
370
13
48
1
60
0
100
AcDbLine
10
35.64781
20
-8.796058
30
0
11
35.64781
21
19.889937
31
0
39
0
210
0
220
0
230
1
0
LINE
5
1EB
100
AcDbEntity
8
2
62
256
6
ByLayer
370
13
48
1
60
0
100
AcDbLine
10
37.390806
20
-9.846812
30
0
11
57.907351
21
10.669733
31
0
39
0
210
0
220
0
230
1
0
ARC
5
1EC
100
AcDbEntity
8
2
62
256
6
ByLayer
370
13
48
1
60
0
100
AcDbCircle
39
0
10
35.64781
20
-11.589808
30
0
40
29.4797447124699
210
0
220
0
230
1
100
AcDbArc
50
45
51
90
0
LINE
5
1ED
100
AcDbEntity
8
2
62
256
6
ByLayer
370
13
48
1
60
0
100
AcDbLine
10
35.64781
20
17.889937
30
0
11
38.832903
21
18.222387
31
0
39
0
210
0
220
0
230
1
0
LINE
5
1EE
100
AcDbEntity
8
2
62
256
6
ByLayer
370
13
48
1
60
0
100
AcDbLine
10
35.64781
20
17.889937
30
0
11
38.810421
21
17.386696
31
0
39
0
210
0
220
0
230
1
0
LINE
5
1EF
100
AcDbEntity
8
2
62
256
6
ByLayer
370
13
48
1
60
0
100
AcDbLine
10
38.832903
20
18.222387
30
0
11
38.810421
21
17.386696
31
0
39
0
210
0
220
0
230
1
0
LINE
5
1F0
100
AcDbEntity
8
2
62
256
6
ByLayer
370
13
48
1
60
0
100
AcDbLine
10
56.493138
20
9.255519
30
0
11
53.900992
21
11.135976
31
0
39
0
210
0
220
0
230
1
0
LINE
5
1F1
100
AcDbEntity
8
2
62
256
6
ByLayer
370
13
48
1
60
0
100
AcDbLine
10
56.493138
20
9.255519
30
0
11
54.476013
21
11.7428
31
0
39
0
210
0
220
0
230
1
0
LINE
5
1F2
100
AcDbEntity
8
2
62
256
6
ByLayer
370
13
48
1
60
0
100
AcDbLine
10
53.900992
20
11.135976
30
0
11
54.476013
21
11.7428
31
0
39
0
210
0
220
0
230
1
0
ENDBLK
5
1F4
100
AcDbEntity
8
0
100
AcDbBlockEnd
0
ENDSEC
0
SECTION
2
ENTITIES
0
ELLIPSE
5
FD
100
AcDbEntity
8
1
62
256
6
ByLayer
370
18
48
1
60
0
100
AcDbEllipse
10
25.05012
20
-5.998448
30
0
11
1.77017998976051
21
1.77017998976051
31
0
210
0
220
0
230
-1
40
0.50533
41
-1.5707963267949
42
-1.22846584175883
0
ELLIPSE
5
FE
100
AcDbEntity
8
1
62
256
6
ByLayer
370
18
48
1
60
0
100
AcDbEllipse
10
6.654381
20
12.447602
30
0
11
0.803406090797513
21
3.03757714555607E-05
31
0
210
0
220
0
230
-1
40
0.004364
41
0.107650575313122
42
1.67844690210896
0
ELLIPSE
5
FF
100
AcDbEntity
8
1
62
256
6
ByLayer
370
18
48
1
60
0
100
AcDbEllipse
10
34.861132
20
-11.264879
30
0
11
-0.561266007566972
21
-0.561266007566673
31
0
210
0
220
0
230
1
40
0.990268
41
1.57079632679517
42
-3.1415926535895
0
ELLIPSE
5
100
100
AcDbEntity
8
1
62
256
6
ByLayer
370
18
48
1
60
0
100
AcDbEllipse
10
27.003408
20
-19.122603
30
0
11
-0.561266007566972
21
-0.561266007566673
31
0
210
0
220
0
230
1
40
0.990268
41
0
42
1.57079632679518
0
ELLIPSE
5
101
100
AcDbEntity
8
1
62
256
6
ByLayer
370
18
48
1
60
0
100
AcDbEllipse
10
27.079879
20
-3.483626
30
0
11
-0.561266007566972
21
-0.561266007566673
31
0
210
0
220
0
230
1
40
0.990268
41
-3.14159265358952
42
-1.57079632679465
0
ELLIPSE
5
102
100
AcDbEntity
8
1
62
256
6
ByLayer
370
18
48
1
60
0
100
AcDbEllipse
10
26.298747
20
-2.702494
30
0
11
-0.561266007566972
21
-0.561266007566673
31
0
210
0
220
0
230
1
40
0.990268
41
-3.14159265358954
42
-1.68919539560924
0
ELLIPSE
5
103
100
AcDbEntity
8
1
62
256
6
ByLayer
370
18
48
1
60
0
100
AcDbEllipse
10
26.010602
20
-3.536881
30
0
11
1.12253201513359
21
1.12253201513369
31
0
210
0
220
0
230
1
40
0.990268
41
0.768905042165529
42
0.977526286597345
0
ELLIPSE
5
104
100
AcDbEntity
8
1
62
256
6
ByLayer
370
18
48
1
60
0
100
AcDbEllipse
10
9.782063
20
-17.121504
30
0
11
2.99892012717077
21
-0.147586188258508
31
0
210
0
220
0
230
-1
40
0.277966
41
3.0791689112636
42
-2.66670243859138
0
ELLIPSE
5
105
100
AcDbEntity
8
1
62
256
6
ByLayer
370
18
48
1
60
0
100
AcDbEllipse
10
7.228085
20
-5.23582
30
0
11
2.74193925666137
21
1.25002285424517
31
0
210
0
220
0
230
-1
40
0.988829
41
-2.62660291119034
42
-1.57407200672959
0
ELLIPSE
5
106
100
AcDbEntity
8
1
62
256
6
ByLayer
370
18
48
1
60
0
100
AcDbEllipse
10
10.178296
20
-12.01958
30
0
11
5.24459187076841
21
2.54469482097963
31
0
210
0
220
0
230
-1
40
0.112876
41
1.87502698144731
42
2.74677786204332
0
ELLIPSE
5
107
100
AcDbEntity
8
1
62
256
6
ByLayer
370
18
48
1
60
0
100
AcDbEllipse
10
6.462483
20
-13.527028
30
0
11
2.74193925661494
21
1.25002285434825
31
0
210
0
220
0
230
-1
40
0.988829
41
2.60405149156501
42
-2.6266029111536
0
ELLIPSE
5
108
100
AcDbEntity
8
1
62
256
6
ByLayer
370
18
48
1
60
0
100
AcDbEllipse
10
7.236901
20
-14.681179
30
0
11
-0.863555437154775
21
1.8039600901795
31
0
210
0
220
0
230
1
40
0.870996
41
1.13227825419529
42
2.58149297792187
0
ELLIPSE
5
109
100
AcDbEntity
8
1
62
256
6
ByLayer
370
18
48
1
60
0
100
AcDbEllipse
10
10.576665
20
-7.705375
30
0
11
4.97881916218304
21
-0.459738784832195
31
0
210
0
220
0
230
1
40
0.089459
41
-2.53048103342983
42
-2.0372830995098
0
ELLIPSE
5
10A
100
AcDbEntity
8
1
62
256
6
ByLayer
370
18
48
1
60
0
100
AcDbEllipse
10
8.072505
20
-5.631864
30
0
11
1.50905390796319
21
1.3125381148222
31
0
210
0
220
0
230
1
40
0.812153
41
0.82539760702455
42
2.27461233075114
0
ELLIPSE
5
10B
100
AcDbEntity
8
1
62
256
6
ByLayer
370
18
48
1
60
0
100
AcDbEllipse
10
25.084985
20
-15.081096
30
0
11
1.03100520215209
21
0.305175916342511
31
0
210
0
220
0
230
-1
40
0.133742
41
1.73138955775143
42
2.25498833344184
0
ELLIPSE
5
10C
100
AcDbEntity
8
1
62
256
6
ByLayer
370
18
48
1
60
0
100
AcDbEllipse
10
10.791908
20
-5.374372
30
0
11
4.96656617848537
21
-0.590628428395811
31
0
210
0
220
0
230
-1
40
0.310004
41
2.67048434115866
42
2.77587801577252
0
ELLIPSE
5
10D
100
AcDbEntity
8
1
62
256
6
ByLayer
370
18
48
1
60
0
100
AcDbEllipse
10
10.498823
20
-8.54838
30
0
11
2.55439447886697
21
-5.22676326103522
31
0
210
0
220
0
230
-1
40
0.039104
41
-2.67251112486679
42
-1.74819504533864
0
ELLIPSE
5
10E
100
AcDbEntity
8
1
62
256
6
ByLayer
370
18
48
1
60
0
100
AcDbEllipse
10
10.100454
20
-12.862586
30
0
11
4.97881916218304
21
-0.459738784832195
31
0
210
0
220
0
230
1
40
0.089459
41
-2.53048103342983
42
-2.0372830995098
0
ELLIPSE
5
10F
100
AcDbEntity
8
1
62
256
6
ByLayer
370
18
48
1
60
0
100
AcDbEllipse
10
9.885212
20
-15.193589
30
0
11
4.98991114196939
21
-0.339342608223372
31
0
210
0
220
0
230
-1
40
0.131204
41
-2.78085614508262
42
-2.67546247023211
0
ELLIPSE
5
110
100
AcDbEntity
8
1
62
256
6
ByLayer
370
18
48
1
60
0
100
AcDbEllipse
10
12.060984
20
-10.634972
30
0
11
2.71113597415642
21
3.14201236942743
31
0
210
0
220
0
230
1
40
0.988257
41
-2.86027306847415
42
-2.51615799704746
0
ELLIPSE
5
111
100
AcDbEntity
8
1
62
256
6
ByLayer
370
18
48
1
60
0
100
AcDbEllipse
10
14.088547
20
-10.799288
30
0
11
2.71113597415642
21
3.14201236942743
31
0
210
0
220
0
230
1
40
0.988257
41
-2.51615799704747
42
0.169069312201356
0
ELLIPSE
5
112
100
AcDbEntity
8
1
62
256
6
ByLayer
370
18
48
1
60
0
100
AcDbEllipse
10
25.745824
20
-7.924425
30
0
11
0.948846714887006
21
-0.518309738887676
31
0
210
0
220
0
230
-1
40
0.285329
41
-2.32431913276136
42
-1.80072035716814
0
ELLIPSE
5
113
100
AcDbEntity
8
1
62
256
6
ByLayer
370
18
48
1
60
0
100
AcDbEllipse
10
11.032144
20
-3.583544
30
0
11
2.97270737353879
21
-0.425270785801046
31
0
210
0
220
0
230
-1
40
0.456451
41
2.65578999331736
42
-3.09008135652715
0
ELLIPSE
5
114
100
AcDbEntity
8
1
62
256
6
ByLayer
370
18
48
1
60
0
100
AcDbEllipse
10
10.178296
20
-12.01958
30
0
11
3.42079229235786
21
4.72163312825225
31
0
210
0
220
0
230
-1
40
0.117874
41
1.880395931949
42
2.8047120115049
0
ELLIPSE
5
115
100
AcDbEntity
8
1
62
256
6
ByLayer
370
18
48
1
60
0
100
AcDbEllipse
10
7.151295
20
-15.832565
30
0
11
1.95985733071548
21
2.27133424295959
31
0
210
0
220
0
230
1
40
0.988257
41
0.251157406134151
42
0.625434656542342
0
ELLIPSE
5
116
100
AcDbEntity
8
1
62
256
6
ByLayer
370
18
48
1
60
0
100
AcDbEllipse
10
28.011512
20
-14.221921
30
0
11
4.75599018552091
21
2.61488106685267
31
0
210
0
220
0
230
-1
40
0.5394
41
-2.87166937310328
42
-2.79236693438612
0
ELLIPSE
5
117
100
AcDbEntity
8
1
62
256
6
ByLayer
370
18
48
1
60
0
100
AcDbEllipse
10
10.444873
20
-6.821182
30
0
11
2.69050439831735
21
-3.54982541564676
31
0
210
0
220
0
230
-1
40
0.562638
41
-2.99567078945219
42
-2.67432753648059
0
ELLIPSE
5
118
100
AcDbEntity
8
1
62
256
6
ByLayer
370
18
48
1
60
0
100
AcDbEllipse
10
28.463824
20
-9.323526
30
0
11
1.4576482101305
21
-7.55650687673604
31
0
210
0
220
0
230
-1
40
0.578723
41
2.03655488117963
42
2.11585732232484
0
ELLIPSE
5
119
100
AcDbEntity
8
1
62
256
6
ByLayer
370
18
48
1
60
0
100
AcDbEllipse
10
9.679272
20
-15.11239
30
0
11
3.58042260454182
21
1.27880914432555
31
0
210
0
220
0
230
-1
40
0.470149
41
2.33781414899047
42
2.65915740197307
0
ELLIPSE
5
11A
100
AcDbEntity
8
1
62
256
6
ByLayer
370
18
48
1
60
0
100
AcDbEllipse
10
10.498823
20
-8.54838
30
0
11
4.70523415029547
21
-3.41916499782275
31
0
210
0
220
0
230
-1
40
0.018838
41
1.79568675752282
42
2.66743763812743
0
ELLIPSE
5
11B
100
AcDbEntity
8
1
62
256
6
ByLayer
370
18
48
1
60
0
100
AcDbEllipse
10
13.549566
20
-11.011323
30
0
11
0.830850467894157
21
0.83085046789423
31
0
210
0
220
0
230
1
40
0.990268
41
-0.412309702097549
42
-0.285821998700175
0
ELLIPSE
5
11C
100
AcDbEntity
8
1
62
256
6
ByLayer
370
18
48
1
60
0
100
AcDbEllipse
10
14.766435
20
-10.113722
30
0
11
0.300520382004269
21
0.300520382004296
31
0
210
0
220
0
230
1
40
0.990268
41
1.89865463419674
42
3.14158432898254
0
ELLIPSE
5
11D
100
AcDbEntity
8
1
62
256
6
ByLayer
370
18
48
1
60
0
100
AcDbEllipse
10
14.987858
20
-10.335145
30
0
11
0.300520382004269
21
0.300520382004296
31
0
210
0
220
0
230
1
40
0.990268
41
2.96816252173922
42
-2.59678633499459
0
ELLIPSE
5
11E
100
AcDbEntity
8
1
62
256
6
ByLayer
370
18
48
1
60
0
100
AcDbEllipse
10
13.224812
20
-10.686569
30
0
11
2.82842712474607
21
2.82842712474632
31
0
210
0
220
0
230
1
40
0.990268
41
2.35130472193646
42
-3.14157376068885
0
ELLIPSE
5
11F
100
AcDbEntity
8
1
62
256
6
ByLayer
370
18
48
1
60
0
100
AcDbEllipse
10
13.224812
20
-10.686569
30
0
11
2.82842712474607
21
2.82842712474632
31
0
210
0
220
0
230
1
40
0.990268
41
0
42
0.495212453084067
0
ELLIPSE
5
120
100
AcDbEntity
8
1
62
256
6
ByLayer
370
18
48
1
60
0
100
AcDbEllipse
10
13.224812
20
-10.686569
30
0
11
2.82842712474607
21
2.82842712474632
31
0
210
0
220
0
230
1
40
0.990268
41
0.910884619296013
42
2.35130497314388
0
ELLIPSE
5
121
100
AcDbEntity
8
1
62
256
6
ByLayer
370
18
48
1
60
0
100
AcDbEllipse
10
13.328143
20
-10.7899
30
0
11
0.813172798364493
21
0.813172798364566
31
0
210
0
220
0
230
1
40
0.990268
41
2.3513043396643
42
2.76677976447652
0
ELLIPSE
5
122
100
AcDbEntity
8
1
62
256
6
ByLayer
370
18
48
1
60
0
100
AcDbEllipse
10
13.328143
20
-10.7899
30
0
11
0.813172798364493
21
0.813172798364566
31
0
210
0
220
0
230
1
40
0.990268
41
-3.14157322284591
42
0
0
ELLIPSE
5
123
100
AcDbEntity
8
1
62
256
6
ByLayer
370
18
48
1
60
0
100
AcDbEllipse
10
13.328143
20
-10.7899
30
0
11
0.813172798364493
21
0.813172798364566
31
0
210
0
220
0
230
1
40
0.990268
41
0
42
0.259690978668907
0
ELLIPSE
5
124
100
AcDbEntity
8
1
62
256
6
ByLayer
370
18
48
1
60
0
100
AcDbEllipse
10
13.328143
20
-10.7899
30
0
11
0.813172798364493
21
0.813172798364566
31
0
210
0
220
0
230
1
40
0.990268
41
0.808782833914332
42
1.42522179352332
0
ELLIPSE
5
125
100
AcDbEntity
8
1
62
256
6
ByLayer
370
18
48
1
60
0
100
AcDbEllipse
10
13.328143
20
-10.7899
30
0
11
0.813172798364493
21
0.813172798364566
31
0
210
0
220
0
230
1
40
0.990268
41
2.13374920510969
42
2.3513043396643
0
ELLIPSE
5
126
100
AcDbEntity
8
1
62
256
6
ByLayer
370
18
48
1
60
0
100
AcDbEllipse
10
13.027295
20
-9.882022
30
0
11
-0.26870057685096
21
-0.268700576850817
31
0
210
0
220
0
230
1
40
0.990268
41
2.94585218539326
42
-0.502391232601237
0
ELLIPSE
5
127
100
AcDbEntity
8
1
62
256
6
ByLayer
370
18
48
1
60
0
100
AcDbEllipse
10
13.549566
20
-11.011323
30
0
11
0.830850467894157
21
0.83085046789423
31
0
210
0
220
0
230
1
40
0.990268
41
0.634887849099044
42
0.761375552496397
0
ELLIPSE
5
128
100
AcDbEntity
8
1
62
256
6
ByLayer
370
18
48
1
60
0
100
AcDbEllipse
10
12.084534
20
-10.687135
30
0
11
-0.26870057685096
21
-0.268700576850817
31
0
210
0
220
0
230
1
40
0.990268
41
0.429104837925051
42
0.544806318595316
0
ELLIPSE
5
129
100
AcDbEntity
8
1
62
256
6
ByLayer
370
18
48
1
60
0
100
AcDbEllipse
10
13.549566
20
-11.011323
30
0
11
0.830850467894157
21
0.83085046789423
31
0
210
0
220
0
230
1
40
0.990268
41
2.72928295149225
42
2.85577065488966
0
ELLIPSE
5
12A
100
AcDbEntity
8
1
62
256
6
ByLayer
370
18
48
1
60
0
100
AcDbEllipse
10
13.695278
20
-9.433303
30
0
11
0.300520382004269
21
0.300520382004296
31
0
210
0
220
0
230
1
40
0.990268
41
-2.26782523424368
42
-1.54958878379799
0
ELLIPSE
5
12B
100
AcDbEntity
8
1
62
256
6
ByLayer
370
18
48
1
60
0
100
AcDbEllipse
10
13.244494
20
-10.706251
30
0
11
0.813172798364493
21
0.813172798364566
31
0
210
0
220
0
230
1
40
0.990268
41
-3.02906554757544
42
-0.0520135600000716
0
ELLIPSE
5
12C
100
AcDbEntity
8
1
62
256
6
ByLayer
370
18
48
1
60
0
100
AcDbEllipse
10
14.270904
20
-9.984787
30
0
11
-0.26870057685096
21
-0.268700576850817
31
0
210
0
220
0
230
1
40
0.990268
41
1.89865463419672
42
-1.5495887837978
0
ELLIPSE
5
12D
100
AcDbEntity
8
1
62
256
6
ByLayer
370
18
48
1
60
0
100
AcDbEllipse
10
13.549566
20
-11.011323
30
0
11
0.830850467894157
21
0.83085046789423
31
0
210
0
220
0
230
1
40
0.990268
41
-1.45950725329417
42
-1.33301954989674
0
ELLIPSE
5
12E
100
AcDbEntity
8
1
62
256
6
ByLayer
370
18
48
1
60
0
100
AcDbEllipse
10
13.850413
20
-11.919201
30
0
11
-0.26870057685096
21
-0.268700576850817
31
0
210
0
220
0
230
1
40
0.990268
41
0.285446270348216
42
2.63920142098851
0
ELLIPSE
5
12F
100
AcDbEntity
8
1
62
256
6
ByLayer
370
18
48
1
60
0
100
AcDbEllipse
10
14.071836
20
-12.140624
30
0
11
-0.26870057685096
21
-0.268700576850817
31
0
210
0
220
0
230
1
40
0.990268
41
-0.195740468196452
42
2.63920142098851
0
ELLIPSE
5
130
100
AcDbEntity
8
1
62
256
6
ByLayer
370
18
48
1
60
0
100
AcDbEllipse
10
12.111273
20
-11.687501
30
0
11
0.300520382004269
21
0.300520382004296
31
0
210
0
220
0
230
1
40
0.990268
41
-1.24293801939309
42
-0.524701568947328
0
ELLIPSE
5
131
100
AcDbEntity
8
1
62
256
6
ByLayer
370
18
48
1
60
0
100
AcDbEllipse
10
13.695278
20
-9.433303
30
0
11
0.300520382004269
21
0.300520382004296
31
0
210
0
220
0
230
1
40
0.990268
41
2.94585218539332
42
-2.61909667134056
0
ELLIPSE
5
132
100
AcDbEntity
8
1
62
256
6
ByLayer
370
18
48
1
60
0
100
AcDbEllipse
10
14.842146
20
-11.913165
30
0
11
0.300520382004269
21
0.300520382004296
31
0
210
0
220
0
230
1
40
0.990268
41
0.851457083000089
42
1.56969353344583
0
ELLIPSE
5
133
100
AcDbEntity
8
1
62
256
6
ByLayer
370
18
48
1
60
0
100
AcDbEllipse
10
12.828227
20
-12.037859
30
0
11
-0.26870057685096
21
-0.268700576850817
31
0
210
0
220
0
230
1
40
0.990268
41
-1.24293801939308
42
1.59200386979196
0
ELLIPSE
5
134
100
AcDbEntity
8
1
62
256
6
ByLayer
370
18
48
1
60
0
100
AcDbEllipse
10
14.987858
20
-10.335145
30
0
11
0.300520382004269
21
0.300520382004296
31
0
210
0
220
0
230
1
40
0.990268
41
1.89865463419672
42
2.61689108464244
0
ELLIPSE
5
135
100
AcDbEntity
8
1
62
256
6
ByLayer
370
18
48
1
60
0
100
AcDbEllipse
10
13.549566
20
-11.011323
30
0
11
0.830850467894157
21
0.83085046789423
31
0
210
0
220
0
230
1
40
0.990268
41
-2.5067048044907
42
-2.38021710109332
0
ELLIPSE
5
136
100
AcDbEntity
8
1
62
256
6
ByLayer
370
18
48
1
60
0
100
AcDbEllipse
10
13.464264
20
-10.926022
30
0
11
-2.82842712474694
21
-2.82842712474544
31
0
210
0
220
0
230
1
40
0.990268
41
0
42
6.28318530717959
0
ELLIPSE
5
137
100
AcDbEntity
8
1
62
256
6
ByLayer
370
18
48
1
60
0
100
AcDbEllipse
10
13.549566
20
-11.011323
30
0
11
0.830850467894157
21
0.83085046789423
31
0
210
0
220
0
230
1
40
0.990268
41
1.68208540029563
42
1.80857310369303
0
ELLIPSE
5
138
100
AcDbEntity
8
1
62
256
6
ByLayer
370
18
48
1
60
0
100
AcDbEllipse
10
11.88985
20
-11.466078
30
0
11
0.300520382004269
21
0.300520382004296
31
0
210
0
220
0
230
1
40
0.990268
41
-8.87311459582079E-06
42
0.544806318595361
0
ELLIPSE
5
139
100
AcDbEntity
8
1
62
256
6
ByLayer
370
18
48
1
60
0
100
AcDbEllipse
10
13.18243
20
-12.36792
30
0
11
0.300520382004269
21
0.300520382004296
31
0
210
0
220
0
230
1
40
0.990268
41
1.6965658641381E-05
42
1.59200386979187
0
ELLIPSE
5
13A
100
AcDbEntity
8
1
62
256
6
ByLayer
370
18
48
1
60
0
100
AcDbEllipse
10
12.256985
20
-10.109481
30
0
11
0.300520382004269
21
0.300520382004296
31
0
210
0
220
0
230
1
40
0.990268
41
-1.220627683047
42
-0.502391232601296
0
ELLIPSE
5
13B
100
AcDbEntity
8
1
62
256
6
ByLayer
370
18
48
1
60
0
100
AcDbEllipse
10
14.571751
20
-10.892664
30
0
11
-0.26870057685096
21
-0.268700576850817
31
0
210
0
220
0
230
1
40
0.990268
41
0.8514570830002
42
2.71246349637751
0
ELLIPSE
5
13C
100
AcDbEntity
8
1
62
256
6
ByLayer
370
18
48
1
60
0
100
AcDbEllipse
10
12.256985
20
-10.109481
30
0
11
0.300520382004269
21
0.300520382004296
31
0
210
0
220
0
230
1
40
0.990268
41
-2.29013557058961
42
-1.57189912014389
0
ELLIPSE
5
13D
100
AcDbEntity
8
1
62
256
6
ByLayer
370
18
48
1
60
0
100
AcDbEllipse
10
14.842146
20
-11.913165
30
0
11
0.300520382004269
21
0.300520382004296
31
0
210
0
220
0
230
1
40
0.990268
41
1.92096497054274
42
2.6392014209885
0
ELLIPSE
5
13E
100
AcDbEntity
8
1
62
256
6
ByLayer
370
18
48
1
60
0
100
AcDbEllipse
10
13.549566
20
-11.011323
30
0
11
-1.62634559672949
21
-1.62634559672862
31
0
210
0
220
0
230
1
40
0.990268
41
0
42
6.28318530717959
0
ELLIPSE
5
13F
100
AcDbEntity
8
1
62
256
6
ByLayer
370
18
48
1
60
0
100
AcDbEllipse
10
12.606804
20
-11.816436
30
0
11
-0.26870057685096
21
-0.268700576850817
31
0
210
0
220
0
230
1
40
0.990268
41
0.429102886325648
42
1.59200386979196
0
ELLIPSE
5
140
100
AcDbEntity
8
1
62
256
6
ByLayer
370
18
48
1
60
0
100
AcDbEllipse
10
13.403853
20
-12.589343
30
0
11
0.300520382004269
21
0.300520382004296
31
0
210
0
220
0
230
1
40
0.990268
41
-0.195740468196511
42
0.52249598224926
0
ELLIPSE
5
141
100
AcDbEntity
8
1
62
256
6
ByLayer
370
18
48
1
60
0
100
AcDbEllipse
10
14.793174
20
-11.114087
30
0
11
-0.26870057685096
21
-0.268700576850817
31
0
210
0
220
0
230
1
40
0.990268
41
0.851457083000117
42
-2.59678633499439
0
ELLIPSE
5
142
100
AcDbEntity
8
1
62
256
6
ByLayer
370
18
48
1
60
0
100
AcDbEllipse
10
12.111273
20
-11.687501
30
0
11
0.300520382004269
21
0.300520382004296
31
0
210
0
220
0
230
1
40
0.990268
41
-0.173430131850431
42
0.544806318595404
0
ELLIPSE
5
143
100
AcDbEntity
8
1
62
256
6
ByLayer
370
18
48
1
60
0
100
AcDbEllipse
10
12.305957
20
-10.908558
30
0
11
-0.26870057685096
21
-0.268700576850817
31
0
210
0
220
0
230
1
40
0.990268
41
-2.29013557058962
42
0.544806318595283
0
ELLIPSE
5
144
100
AcDbEntity
8
1
62
256
6
ByLayer
370
18
48
1
60
0
100
AcDbEllipse
10
13.403853
20
-12.589343
30
0
11
0.300520382004269
21
0.300520382004296
31
0
210
0
220
0
230
1
40
0.990268
41
0.873767419346166
42
1.5920038697919
0
ELLIPSE
5
145
100
AcDbEntity
8
1
62
256
6
ByLayer
370
18
48
1
60
0
100
AcDbEllipse
10
14.620723
20
-11.691742
30
0
11
0.300520382004269
21
0.300520382004296
31
0
210
0
220
0
230
1
40
0.990268
41
0.851457083000136
42
2.63920142098849
0
ELLIPSE
5
146
100
AcDbEntity
8
1
62
256
6
ByLayer
370
18
48
1
60
0
100
AcDbEllipse
10
14.049481
20
-9.763364
30
0
11
-0.26870057685096
21
-0.268700576850817
31
0
210
0
220
0
230
1
40
0.990268
41
1.89865463419672
42
2.71250485419725
0
ELLIPSE
5
147
100
AcDbEntity
8
1
62
256
6
ByLayer
370
18
48
1
60
0
100
AcDbEllipse
10
29.785608
20
-13.266468
30
0
11
1.40819469433461
21
1.06491119978309
31
0
210
0
220
0
230
-1
40
0.888799
41
1.31948662553381
42
2.34044418597919
0
ELLIPSE
5
148
100
AcDbEntity
8
1
62
256
6
ByLayer
370
18
48
1
60
0
100
AcDbEllipse
10
27.970792
20
-11.68684
30
0
11
2.30693672462042
21
2.30693672462063
31
0
210
0
220
0
230
1
40
0.990268
41
-1.48352986419519
42
-0.261799387799155
0
ELLIPSE
5
149
100
AcDbEntity
8
1
62
256
6
ByLayer
370
18
48
1
60
0
100
AcDbEllipse
10
27.970792
20
-11.68684
30
0
11
-2.53778696600302
21
-2.53778696600167
31
0
210
0
220
0
230
1
40
0.990268
41
1.1344640137963
42
1.22822851335426
0
ELLIPSE
5
14A
100
AcDbEntity
8
1
62
256
6
ByLayer
370
18
48
1
60
0
100
AcDbEllipse
10
27.636197
20
-11.352245
30
0
11
-3.18198051534031
21
-3.18198051533862
31
0
210
0
220
0
230
1
40
0.990268
41
2.87979326579063
42
-2.87979326579065
0
ELLIPSE
5
14B
100
AcDbEntity
8
1
62
256
6
ByLayer
370
18
48
1
60
0
100
AcDbEllipse
10
29.986065
20
-11.095587
30
0
11
1.08917214736639
21
2.42666868037513
31
0
210
0
220
0
230
-1
40
0.572768
41
-0.627024830494979
42
0.393932729952927
0
ELLIPSE
5
14C
100
AcDbEntity
8
1
62
256
6
ByLayer
370
18
48
1
60
0
100
AcDbEllipse
10
27.970792
20
-11.68684
30
0
11
-2.53778696600302
21
-2.53778696600167
31
0
210
0
220
0
230
1
40
0.990268
41
-2.97355776534861
42
-2.87979326579065
0
ELLIPSE
5
14D
100
AcDbEntity
8
1
62
256
6
ByLayer
370
18
48
1
60
0
100
AcDbEllipse
10
27.376238
20
-11.637709
30
0
11
2.37173880782491
21
2.37173880782512
31
0
210
0
220
0
230
1
40
0.990268
41
-2.06821516361328
42
0.322885911618949
0
ELLIPSE
5
14E
100
AcDbEntity
8
1
62
256
6
ByLayer
370
18
48
1
60
0
100
AcDbEllipse
10
25.174432
20
-6.982865
30
0
11
4.36754810618369
21
-8.45223122414135
31
0
210
0
220
0
230
-1
40
0.721729
41
0.642762594911228
42
0.706333252932352
0
ELLIPSE
5
14F
100
AcDbEntity
8
1
62
256
6
ByLayer
370
18
48
1
60
0
100
AcDbEllipse
10
27.636197
20
-11.352245
30
0
11
-3.18198051534031
21
-3.18198051533862
31
0
210
0
220
0
230
1
40
0.990268
41
1.6580627893946
42
2.87979326579063
0
ELLIPSE
5
150
100
AcDbEntity
8
1
62
256
6
ByLayer
370
18
48
1
60
0
100
AcDbEllipse
10
27.041643
20
-11.303114
30
0
11
-3.88908729652705
21
-3.88908729652498
31
0
210
0
220
0
230
1
40
0.990268
41
0.115049967507039
42
0.261799387799141
0
ELLIPSE
5
151
100
AcDbEntity
8
1
62
256
6
ByLayer
370
18
48
1
60
0
100
AcDbEllipse
10
27.307351
20
-11.568822
30
0
11
3.3775218308758
21
3.3775218308761
31
0
210
0
220
0
230
1
40
0.990268
41
1.22799189686219
42
1.26097645581338
0
ELLIPSE
5
152
100
AcDbEntity
8
1
62
256
6
ByLayer
370
18
48
1
60
0
100
AcDbEllipse
10
27.307351
20
-11.568822
30
0
11
3.3775218308758
21
3.3775218308761
31
0
210
0
220
0
230
1
40
0.990268
41
-2.9995398203484
42
-2.97332114885654
0
ELLIPSE
5
153
100
AcDbEntity
8
1
62
256
6
ByLayer
370
18
48
1
60
0
100
AcDbEllipse
10
27.636197
20
-11.352245
30
0
11
-3.18198051534031
21
-3.18198051533862
31
0
210
0
220
0
230
1
40
0.990268
41
1.13446401379631
42
1.6580627893946
0
ELLIPSE
5
154
100
AcDbEntity
8
1
62
256
6
ByLayer
370
18
48
1
60
0
100
AcDbEllipse
10
24.554948
20
-13.69168
30
0
11
7.5442921229562
21
2.78448377203125
31
0
210
0
220
0
230
-1
40
0.767882
41
-1.2004160081201
42
-1.13684534652815
0
ELLIPSE
5
155
100
AcDbEntity
8
1
62
256
6
ByLayer
370
18
48
1
60
0
100
AcDbEllipse
10
27.041643
20
-11.303114
30
0
11
-3.88908729652705
21
-3.88908729652498
31
0
210
0
220
0
230
1
40
0.990268
41
-2.00712863979348
42
-1.75958502152426
0
POINT
5
6C
100
AcDbEntity
8
2
62
256
6
ByLayer
370
18
48
1
60
0
100
AcDbPoint
10
27.325118
20
44.7875
30
0
39
0
210
0
220
0
230
1
50
360
0
POINT
5
6E
100
AcDbEntity
8
80
62
256
6
ByLayer
370
18
48
1
60
0
100
AcDbPoint
10
0
20
0
30
0
39
0
210
0
220
0
230
1
50
360
0
POINT
5
70
100
AcDbEntity
8
81
62
256
6
ByLayer
370
18
48
1
60
0
100
AcDbPoint
10
27.325118
20
-19.9125
30
0
39
0
210
0
220
0
230
1
50
360
0
SPLINE
5
156
100
AcDbEntity
8
1
62
256
6
ByLayer
370
18
48
1
60
0
100
AcDbSpline
70
4
71
3
72
12
73
8
40
0
40
0
40
0
40
0
40
0.412488217320879
40
0.412488217320879
40
0.702829232095174
40
0.702829232095174
40
1
40
1
40
1
40
1
41
1
10
30.2833742866965
20
-12.9315659262757
30
-4E-16
41
1
10
30.3055196357056
20
-12.8988376758684
30
-4E-16
41
1
10
30.3271993066079
20
-12.8633886680232
30
-4E-16
41
1
10
30.3615602456123
20
-12.8012520613359
30
-3E-16
41
1
10
30.3751532066429
20
-12.7748183216044
30
-3E-16
41
1
10
30.4009276133484
20
-12.7208575096336
30
-3E-16
41
1
10
30.4131452602147
20
-12.6931583381123
30
-3E-16
41
1
10
30.4243775772993
20
-12.6655380781209
30
-3E-16
0
SPLINE
5
157
100
AcDbEntity
8
1
62
256
6
ByLayer
370
18
48
1
60
0
100
AcDbSpline
70
4
71
3
72
18
73
14
40
0
40
0
40
0
40
0
40
0.0367931396620228
40
0.0367931396620228
40
0.291979817817006
40
0.291979817817006
40
0.505668143229389
40
0.505668143229389
40
0.721016338466077
40
0.721016338466077
40
0.911566759950596
40
0.911566759950596
40
1
40
1
40
1
40
1
41
1
10
23.3619690831048
20
-15.6790791207146
30
-1.4E-15
41
1
10
23.3565452346457
20
-15.6805575847316
30
-1.4E-15
41
1
10
23.3511166178391
20
-15.6820546838866
30
-1.4E-15
41
1
10
23.3083904376778
20
-15.6939773704332
30
-1.5E-15
41
1
10
23.2705722459164
20
-15.7053881729714
30
-1.5E-15
41
1
10
23.2059314421784
20
-15.7267761441994
30
-1.6E-15
41
1
10
23.1776222896227
20
-15.7369276131155
30
-1.6E-15
41
1
10
23.1285772330439
20
-15.7564369132757
30
-1.7E-15
41
1
10
23.107209534813
20
-15.7660792228485
30
-1.7E-15
41
1
10
23.0778814627363
20
-15.7820146562204
30
-1.8E-15
41
1
10
23.0682753582552
20
-15.7887776703369
30
-1.8E-15
41
1
10
23.0613549832784
20
-15.7968134288102
30
1.8E-15
41
1
10
23.0601685796503
20
-15.7991295416998
30
1.8E-15
41
1
10
23.0599826529335
20
-15.8011642322849
30
1.8E-15
0
SPLINE
5
158
100
AcDbEntity
8
1
62
256
6
ByLayer
370
18
48
1
60
0
100
AcDbSpline
70
4
71
3
72
11
73
7
40
0
40
0
40
0
40
0
40
0.379837525225137
40
0.569756287837705
40
0.759675050450274
40
1
40
1
40
1
40
1
41
1.02830968163241
10
16.0248041181449
20
-4.47831649785432
30
6E-16
41
1.02565532568264
10
18.4132915629882
20
-5.41887575004724
30
3.4E-15
41
1.02058995167321
10
21.389430682585
20
-6.92864926355651
30
-2E-16
41
1.0133636309892
10
26.0759609541697
20
-9.93973714852334
30
-1.8E-15
41
1.01212905948733
10
28.0565027178948
20
-10.0797879258355
30
5E-16
41
1.0095816818588
10
29.7202869327781
20
-10.7830693510385
30
-1.1E-15
41
1.00899450091457
10
30.46309072692
20
-10.9852961494579
30
-2E-16
0
SPLINE
5
159
100
AcDbEntity
8
1
62
256
6
ByLayer
370
18
48
1
60
0
100
AcDbSpline
70
4
71
3
72
11
73
7
40
0
40
0
40
0
40
0
40
0.379837525225133
40
0.569756287837699
40
0.759675050450266
40
1
40
1
40
1
40
1
41
1.02830968163241
10
14.8458153593311
20
-17.2463752695843
30
-7E-16
41
1.02565532568264
10
17.3630801799102
20
-16.7923180848457
30
2.2E-15
41
1.02058995167321
10
20.5604899820538
20
-15.9058032044763
30
-1.2E-15
41
1.0133636309892
10
25.7296327694047
20
-13.6903569778802
30
-2.2E-15
41
1.01212905948733
10
27.7250860859773
20
-13.6689205640038
30
1E-16
41
1.0095816818588
10
29.5054396932044
20
-13.1097939795023
30
-1.3E-15
41
1.00899450091458
10
30.2833742772975
20
-12.9315659284291
30
-4E-16
0
SPLINE
5
15A
100
AcDbEntity
8
1
62
256
6
ByLayer
370
18
48
1
60
0
100
AcDbSpline
70
4
71
3
72
8
73
4
40
0
40
0
40
0
40
0
40
1
40
1
40
1
40
1
41
1
10
9.74241391207596
20
-13.9135085203243
30
4E-16
41
1
10
9.71755671250008
20
-13.8893112047672
30
4E-16
41
1
10
9.69212438959602
20
-13.8655306279107
30
3E-16
41
1
10
9.66615499265237
20
-13.842205806058
30
3E-16
0
SPLINE
5
15B
100
AcDbEntity
8
1
62
256
6
ByLayer
370
18
48
1
60
0
100
AcDbSpline
70
4
71
3
72
12
73
8
40
0
40
0
40
0
40
0
40
0.402184145094049
40
0.402184145094049
40
0.696777465474654
40
0.696777465474654
40
1
40
1
40
1
40
1
41
1
10
30.5530640663637
20
-11.2719059139307
30
-1E-16
41
1
10
30.544814100801
20
-11.2343331489799
30
-1E-16
41
1
10
30.5348633349467
20
-11.1955787571245
30
-1E-16
41
1
10
30.5150305014999
20
-11.1284058891854
30
-2E-16
41
1
10
30.5057792997473
20
-11.0997779562906
30
-2E-16
41
1
10
30.4856224449217
20
-11.042377766766
30
-2E-16
41
1
10
30.474593666303
20
-11.0133971779697
30
-2E-16
41
1
10
30.4630907358945
20
-10.9852961519012
30
-2E-16
0
SPLINE
5
15C
100
AcDbEntity
8
1
62
256
6
ByLayer
370
18
48
1
60
0
100
AcDbSpline
70
4
71
3
72
8
73
4
40
0
40
0
40
0
40
0
40
1
40
1
40
1
40
1
41
1
10
15.0853618145158
20
-17.8178318375693
30
-5E-16
41
1
10
14.9166920499328
20
-17.8071714063059
30
-7E-16
41
1
10
14.7484167048926
20
-17.7966652241685
30
-9E-16
41
1
10
14.5809574890114
20
-17.7864497992196
30
-1.1E-15
0
SPLINE
5
15D
100
AcDbEntity
8
1
62
256
6
ByLayer
370
18
48
1
60
0
100
AcDbSpline
70
4
71
3
72
8
73
4
40
0
40
0
40
0
40
0
40
1
40
1
40
1
40
1
41
1
10
16.0692704209064
20
-7.1734918797286
30
7E-16
41
1
10
16.1165279680031
20
-6.00927015648685
30
7E-16
41
1
10
16.1003011705025
20
-5.02573740393768
30
7E-16
41
1
10
16.024804118145
20
-4.47831649785434
30
6E-16
0
SPLINE
5
15E
100
AcDbEntity
8
1
62
256
6
ByLayer
370
18
48
1
60
0
100
AcDbSpline
70
4
71
3
72
8
73
4
40
0
40
0
40
0
40
0
40
1
40
1
40
1
40
1
41
1
10
29.3561784907367
20
-13.8851272597378
30
-1.5E-15
41
1
10
29.5532557492749
20
-13.7012578721922
30
-1.3E-15
41
1
10
29.7513638554306
20
-13.5144912731747
30
-1E-15
41
1
10
29.9495275523229
20
-13.3246856611745
30
-8E-16
0
SPLINE
5
15F
100
AcDbEntity
8
1
62
256
6
ByLayer
370
18
48
1
60
0
100
AcDbSpline
70
4
71
3
72
8
73
4
40
0
40
0
40
0
40
0
40
1
40
1
40
1
40
1
41
1
10
9.38677085745616
20
-7.87231167817851
30
0
41
1
10
9.01536911270256
20
-7.94439507079213
30
-5E-16
41
1
10
8.64475818808523
20
-7.94388231270608
30
-9E-16
41
1
10
8.30070210693219
20
-7.89641630433118
30
-1.3E-15
0
SPLINE
5
160
100
AcDbEntity
8
1
62
256
6
ByLayer
370
18
48
1
60
0
100
AcDbSpline
70
4
71
3
72
8
73
4
40
0
40
0
40
0
40
0
40
1
40
1
40
1
40
1
41
1
10
5.98305118433501
20
-2.52862113001683
30
-5E-16
41
1
10
6.19309888394389
20
-2.4575650883196
30
-2E-16
41
1
10
6.40319710720564
20
-2.41117684798829
30
0
41
1
10
6.60940003887316
20
-2.38416516342312
30
3E-16
0
SPLINE
5
161
100
AcDbEntity
8
1
62
256
6
ByLayer
370
18
48
1
60
0
100
AcDbSpline
70
4
71
3
72
10
73
6
40
0
40
0
40
0
40
0
40
0.35479724810069
40
0.35479724810069
40
1
40
1
40
1
40
1
41
1
10
28.7383306038985
20
-8.9673866088751
30
1.3E-15
41
1
10
28.8026611664556
20
-8.99757697513886
30
1.4E-15
41
1
10
28.866954398832
20
-9.02857781486784
30
1.5E-15
41
1
10
29.0475500264944
20
-9.11804708429352
30
1.7E-15
41
1
10
29.1635669761697
20
-9.17836621242714
30
-1.7E-15
41
1
10
29.2776559577475
20
-9.24047072032567
30
-1.6E-15
0
SPLINE
5
162
100
AcDbEntity
8
1
62
256
6
ByLayer
370
18
48
1
60
0
100
AcDbSpline
70
4
71
3
72
8
73
4
40
0
40
0
40
0
40
0
40
1
40
1
40
1
40
1
41
1
10
14.9331491574687
20
-6.91238512697984
30
-6E-16
41
1
10
15.3248853673039
20
-6.9447559569561
30
-2E-16
41
1
10
15.703210989785
20
-7.03376428848827
30
3E-16
41
1
10
16.0692704177388
20
-7.17349189297244
30
7E-16
0
SPLINE
5
163
100
AcDbEntity
8
1
62
256
6
ByLayer
370
18
48
1
60
0
100
AcDbSpline
70
4
71
3
72
11
73
7
40
0
40
0
40
0
40
0
40
0.267973217054012
40
0.487581251937809
40
0.707189286821605
40
1
40
1
40
1
40
1
41
1.02490899991337
10
18.258214197088
20
-13.0766213842573
30
3.3E-15
41
1.02299818100183
10
19.5954499782783
20
-13.143992155264
30
-2.3E-15
41
1.01918124209525
10
21.9345250066897
20
-13.2110203926492
30
5E-16
41
1.0133636309892
10
25.8190147398244
20
-13.0095236810377
30
-2.1E-15
41
1.01210337903089
10
27.8686708745092
20
-12.9765858793281
30
3E-16
41
1.00942740489664
10
29.647966015104
20
-12.7973487102908
30
-1.2E-15
41
1.00890738029382
10
30.4386082399768
20
-12.6631298511934
30
-2E-16
0
SPLINE
5
164
100
AcDbEntity
8
1
62
256
6
ByLayer
370
18
48
1
60
0
100
AcDbSpline
70
4
71
3
72
8
73
4
40
0
40
0
40
0
40
0
40
1
40
1
40
1
40
1
41
1
10
5.09804028621272
20
-14.0831810772767
30
2E-15
41
1
10
5.12942078037662
20
-14.2695195901834
30
2.1E-15
41
1
10
5.17430066133795
20
-14.4580717215858
30
2.1E-15
41
1
10
5.23218078528515
20
-14.6450027620927
30
2.2E-15
0
SPLINE
5
165
100
AcDbEntity
8
1
62
256
6
ByLayer
370
18
48
1
60
0
100
AcDbSpline
70
4
71
3
72
11
73
7
40
0
40
0
40
0
40
0
40
0.267973217480478
40
0.487581252236334
40
0.707189286992191
40
1
40
1
40
1
40
1
41
1.02490899992583
10
18.5698161026021
20
-9.70207559245234
30
-3.5E-15
41
1.02299818101095
10
19.901198506349
20
-9.83283654172154
30
-1.9E-15
41
1.01918124210004
10
22.2235940959532
20
-10.0804976173999
30
8E-16
41
1.0133636309892
10
26.035261409638
20
-10.6676436853829
30
-1.8E-15
41
1.01210337903089
10
28.0653215436286
20
-10.8469240975178
30
5E-16
41
1.00942740489664
10
29.8026697599506
20
-11.1219582609574
30
-1E-15
41
1.00890738029382
10
30.5668189730608
20
-11.2746499671022
30
-1E-16
0
SPLINE
5
166
100
AcDbEntity
8
1
62
256
6
ByLayer
370
18
48
1
60
0
100
AcDbSpline
70
4
71
3
72
13
73
9
40
0
40
0
40
0
40
0
40
0.287855605153641
40
0.287855605153641
40
0.605649284587149
40
0.605649284587149
40
0.605649284587149
40
1
40
1
40
1
40
1
41
1
10
18.2582142441233
20
-13.076621386627
30
3.3E-15
41
1
10
18.0883228365432
20
-13.3846696285256
30
3.1E-15
41
1
10
17.8698080052985
20
-13.669375571012
30
2.8E-15
41
1
10
17.3470256271307
20
-14.1878183855432
30
2.2E-15
41
1
10
17.0305695754739
20
-14.4201003298235
30
1.8E-15
41
1
10
16.692102016748
20
-14.6058935209966
30
1.4E-15
41
1
10
16.2740745791828
20
-14.8353590919823
30
9E-16
41
1
10
15.8102483960411
20
-15.0001945789638
30
4E-16
41
1
10
15.3384275816856
20
-15.0882783980158
30
-2E-16
0
SPLINE
5
167
100
AcDbEntity
8
1
62
256
6
ByLayer
370
18
48
1
60
0
100
AcDbSpline
70
4
71
3
72
8
73
4
40
0
40
0
40
0
40
0
40
1
40
1
40
1
40
1
41
1
10
29.9495275523229
20
-13.3246856611745
30
-8E-16
41
1
10
30.0766481798129
20
-13.2029266867661
30
-7E-16
41
1
10
30.1895672251388
20
-13.0686332663876
30
-5E-16
41
1
10
30.2833742866965
20
-12.9315659262757
30
-4E-16
0
SPLINE
5
168
100
AcDbEntity
8
1
62
256
6
ByLayer
370
18
48
1
60
0
100
AcDbSpline
70
4
71
3
72
8
73
4
40
0
40
0
40
0
40
0
40
1
40
1
40
1
40
1
41
1
10
10.2492300852414
20
-7.52769517577894
30
1E-15
41
1
10
10.279188981186
20
-7.50781504140664
30
1E-15
41
1
10
10.3087077677128
20
-7.48734056721833
30
1E-15
41
1
10
10.3377420712911
20
-7.46630122636233
30
1.1E-15
0
SPLINE
5
169
100
AcDbEntity
8
1
62
256
6
ByLayer
370
18
48
1
60
0
100
AcDbSpline
70
4
71
3
72
8
73
4
40
0
40
0
40
0
40
0
40
1
40
1
40
1
40
1
41
1
10
14.1730426684708
20
-15.144087296949
30
-1.5E-15
41
1
10
14.5647788784346
20
-15.1764581269359
30
-1.1E-15
41
1
10
14.9531720764276
20
-15.1564379429058
30
-6E-16
41
1
10
15.3384275793391
20
-15.088278398431
30
-2E-16
0
SPLINE
5
16A
100
AcDbEntity
8
1
62
256
6
ByLayer
370
18
48
1
60
0
100
AcDbSpline
70
4
71
3
72
8
73
4
40
0
40
0
40
0
40
0
40
1
40
1
40
1
40
1
41
1
10
9.74241391207596
20
-13.9135085203242
30
4E-16
41
1
10
10.37434311421
20
-14.5286618994101
30
1.1E-15
41
1
10
11.2096657564571
20
-14.8992108526327
30
2.1E-15
41
1
10
12.1376065550225
20
-14.9758905494906
30
3.2E-15
0
SPLINE
5
16B
100
AcDbEntity
8
1
62
256
6
ByLayer
370
18
48
1
60
0
100
AcDbSpline
70
4
71
3
72
8
73
4
40
0
40
0
40
0
40
0
40
1
40
1
40
1
40
1
41
1
10
8.8812745753691
20
-13.3466694193609
30
-6E-16
41
1
10
8.53078987947282
20
-13.1922280829251
30
-1E-15
41
1
10
8.16854689377334
20
-13.1010933107591
30
-1.5E-15
41
1
10
7.82449081262024
20
-13.0536273023842
30
-1.9E-15
0
SPLINE
5
16C
100
AcDbEntity
8
1
62
256
6
ByLayer
370
18
48
1
60
0
100
AcDbSpline
70
4
71
3
72
8
73
4
40
0
40
0
40
0
40
0
40
1
40
1
40
1
40
1
41
1
10
29.7296586551127
20
-9.84046046101162
30
-1.1E-15
41
1
10
29.8889413386186
20
-10.0658938353985
30
-9E-16
41
1
10
30.0488651581498
20
-10.2926504461133
30
-7E-16
41
1
10
30.2085375458105
20
-10.5196929972541
30
-5E-16
0
SPLINE
5
16D
100
AcDbEntity
8
1
62
256
6
ByLayer
370
18
48
1
60
0
100
AcDbSpline
70
4
71
3
72
10
73
6
40
0
40
0
40
0
40
0
40
0.560712447053341
40
0.560712447053341
40
1
40
1
40
1
40
1
41
1
10
9.38677085745616
20
-7.87231167817851
30
0
41
1
10
9.55357925928814
20
-7.83993672116671
30
2E-16
41
1
10
9.72439749449808
20
-7.789974952184
30
4E-16
41
1
10
10.0131055127408
20
-7.66819001227913
30
7E-16
41
1
10
10.1367857108338
20
-7.60231105203704
30
8E-16
41
1
10
10.2492300852414
20
-7.52769517577894
30
1E-15
0
SPLINE
5
16E
100
AcDbEntity
8
1
62
256
6
ByLayer
370
18
48
1
60
0
100
AcDbSpline
70
4
71
1
72
4
73
2
40
0
40
0
40
1
40
1
41
1
10
30.5668189730608
20
-11.2746499671022
30
-1E-16
41
1
10
30.4386082399768
20
-12.6631298511934
30
-2E-16
0
SPLINE
5
16F
100
AcDbEntity
8
1
62
256
6
ByLayer
370
18
48
1
60
0
100
AcDbSpline
70
4
71
3
72
8
73
4
40
0
40
0
40
0
40
0
40
1
40
1
40
1
40
1
41
1
10
14.8458153593311
20
-17.2463752695843
30
-7E-16
41
1
10
15.001098892369
20
-16.9297349486289
30
-6E-16
41
1
10
15.1808646533162
20
-16.1421947536801
30
-4E-16
41
1
10
15.3384275800274
20
-15.0882784091077
30
-2E-16
0
SPLINE
5
170
100
AcDbEntity
8
1
62
256
6
ByLayer
370
18
48
1
60
0
100
AcDbSpline
70
4
71
3
72
8
73
4
40
0
40
0
40
0
40
0
40
1
40
1
40
1
40
1
41
1
10
30.4630907358945
20
-10.9852961519012
30
-2E-16
41
1
10
30.3968079719651
20
-10.8242844415215
30
-3E-16
41
1
10
30.3109662672693
20
-10.665339208041
30
-4E-16
41
1
10
30.2085375458105
20
-10.5196929972541
30
-5E-16
0
SPLINE
5
171
100
AcDbEntity
8
1
62
256
6
ByLayer
370
18
48
1
60
0
100
AcDbSpline
70
4
71
3
72
18
73
14
40
0
40
0
40
0
40
0
40
0.150186459400631
40
0.150186459400631
40
0.339592137529989
40
0.339592137529989
40
0.523539642595929
40
0.523539642595929
40
0.71656462410822
40
0.71656462410822
40
0.935518218901364
40
0.935518218901364
40
1
40
1
40
1
40
1
41
1
10
23.9018876399976
20
-6.68361135092567
30
-8E-16
41
1
10
23.9012039020841
20
-6.69098047307517
30
-8E-16
41
1
10
23.9031849752279
20
-6.69966929122137
30
-8E-16
41
1
10
23.9138479335521
20
-6.72143374404897
30
-8E-16
41
1
10
23.9243575478522
20
-6.7353894896155
30
-8E-16
41
1
10
23.9522702530146
20
-6.7641159968442
30
-7E-16
41
1
10
23.9697963744275
20
-6.77920736464566
30
-7E-16
41
1
10
24.0101940471815
20
-6.8096682142679
30
-7E-16
41
1
10
24.0337421318177
20
-6.82537830081472
30
-6E-16
41
1
10
24.0862432899136
20
-6.85709684695013
30
-6E-16
41
1
10
24.1160981479652
20
-6.8732442254925
30
-5E-16
41
1
10
24.1548124898048
20
-6.89224861166517
30
-5E-16
41
1
10
24.163689701078
20
-6.89647777185488
30
-5E-16
41
1
10
24.1725658606785
20
-6.90058380524755
30
-5E-16
0
SPLINE
5
172
100
AcDbEntity
8
1
62
256
6
ByLayer
370
18
48
1
60
0
100
AcDbSpline
70
4
71
3
72
16
73
12
40
0
40
0
40
0
40
0
40
0.125
40
0.125
40
0.25
40
0.25
40
0.5
40
0.5
40
0.75
40
0.75
40
1
40
1
40
1
40
1
41
1
10
16.4004376195741
20
-3.5759953121769
30
1.1E-15
41
1
10
16.683078728377
20
-3.91022358065285
30
1.4E-15
41
1
10
17.047177406763
20
-4.26432484059765
30
1.8E-15
41
1
10
17.9896867294668
20
-4.99460513411378
30
2.9E-15
41
1
10
18.5466641001366
20
-5.35483243530592
30
-3.5E-15
41
1
10
20.3127416268058
20
-6.36544560312814
30
-1.4E-15
41
1
10
21.5719147093953
20
-6.92993614195564
30
0
41
1
10
23.9735928098359
20
-7.89166403685681
30
2.8E-15
41
1
10
25.1608088560758
20
-8.33506909964697
30
-2.9E-15
41
1
10
27.5336699265825
20
-9.21755941948012
30
-1E-16
41
1
10
28.6564735262193
20
-9.5579656236122
30
1.2E-15
41
1
10
29.7296586551126
20
-9.84046046101162
30
-1.1E-15
0
SPLINE
5
173
100
AcDbEntity
8
1
62
256
6
ByLayer
370
18
48
1
60
0
100
AcDbSpline
70
4
71
3
72
10
73
6
40
0
40
0
40
0
40
0
40
0.560712447053344
40
0.560712447053344
40
1
40
1
40
1
40
1
41
1
10
8.88127457536905
20
-13.3466694193609
30
-6E-16
41
1
10
9.03868846158485
20
-13.4160339629356
30
-4E-16
41
1
10
9.19714329377342
20
-13.4999637643477
30
-3E-16
41
1
10
9.45882896500945
20
-13.6708219155259
30
1E-16
41
1
10
9.56868435827153
20
-13.754661024493
30
2E-16
41
1
10
9.66615499265237
20
-13.8422058060579
30
3E-16
0
SPLINE
5
174
100
AcDbEntity
8
1
62
256
6
ByLayer
370
18
48
1
60
0
100
AcDbSpline
70
4
71
3
72
8
73
4
40
0
40
0
40
0
40
0
40
1
40
1
40
1
40
1
41
1
10
16.400437619574
20
-3.57599531217693
30
1.1E-15
41
1
10
16.231767854992
20
-3.56533488091347
30
9E-16
41
1
10
16.0634925099529
20
-3.55482869877605
30
7E-16
41
1
10
15.8960332940728
20
-3.54461327382708
30
5E-16
0
SPLINE
5
175
100
AcDbEntity
8
1
62
256
6
ByLayer
370
18
48
1
60
0
100
AcDbSpline
70
4
71
3
72
13
73
9
40
0
40
0
40
0
40
0
40
0.250649945521669
40
0.250649945521669
40
0.250649945521669
40
0.653057935862512
40
0.653057935862512
40
1
40
1
40
1
40
1
41
1
10
18.5698161580976
20
-9.70207559790282
30
-3.5E-15
41
1
10
18.6623877649222
20
-9.97632184566277
30
-3.4E-15
41
1
10
18.7261505236663
20
-10.2626347484812
30
-3.3E-15
41
1
10
18.7592134897776
20
-10.5515676953669
30
-3.3E-15
41
1
10
18.8118356490538
20
-11.0114258792943
30
-3.2E-15
41
1
10
18.7866426976506
20
-11.4885273791305
30
-3.2E-15
41
1
10
18.5986396448885
20
-12.3370272674983
30
-3.5E-15
41
1
10
18.4532382903983
20
-12.7228854542746
30
3.5E-15
41
1
10
18.2582142441233
20
-13.076621386627
30
3.3E-15
0
SPLINE
5
176
100
AcDbEntity
8
1
62
256
6
ByLayer
370
18
48
1
60
0
100
AcDbSpline
70
4
71
2
72
6
73
3
40
0
40
0
40
0
40
1
40
1
40
1
41
1.02830968163241
10
14.8458153593311
20
-17.2463752695843
30
-7E-16
41
1.02830968163241
10
14.7133864241712
20
-17.5164125344019
30
-9E-16
41
1.02830968163241
10
14.5809574890114
20
-17.7864497992196
30
-1.1E-15
0
SPLINE
5
177
100
AcDbEntity
8
1
62
256
6
ByLayer
370
18
48
1
60
0
100
AcDbSpline
70
4
71
3
72
8
73
4
40
0
40
0
40
0
40
0
40
1
40
1
40
1
40
1
41
1
10
5.8636415209142
20
-5.79197262656064
30
2.9E-15
41
1
10
5.92520489145426
20
-5.65144055940127
30
3E-15
41
1
10
6.00047276569302
20
-5.51090076248224
30
3.1E-15
41
1
10
6.08830983764233
20
-5.37340795258888
30
3.2E-15
0
SPLINE
5
178
100
AcDbEntity
8
1
62
256
6
ByLayer
370
18
48
1
60
0
100
AcDbSpline
70
4
71
3
72
8
73
4
40
0
40
0
40
0
40
0
40
1
40
1
40
1
40
1
41
1
10
28.8196247881046
20
-14.2007969740546
30
1.4E-15
41
1
10
28.6288243054675
20
-14.2590622982975
30
1.2E-15
41
1
10
28.4335962960052
20
-14.3157225529364
30
1E-15
41
1
10
28.2395378626521
20
-14.369147217297
30
7E-16
0
SPLINE
5
179
100
AcDbEntity
8
1
62
256
6
ByLayer
370
18
48
1
60
0
100
AcDbSpline
70
4
71
1
72
4
73
2
40
0
40
0
40
1
40
1
41
1
10
16.024804118145
20
-4.47831649785434
30
6E-16
41
1
10
15.8960332940728
20
-3.54461327382708
30
5E-16
0
SPLINE
5
17A
100
AcDbEntity
8
1
62
256
6
ByLayer
370
18
48
1
60
0
100
AcDbSpline
70
4
71
3
72
8
73
4
40
0
40
0
40
0
40
0
40
1
40
1
40
1
40
1
41
1
10
4.74013251672403
20
-15.9890196943784
30
1.6E-15
41
1
10
4.88457998729314
20
-16.0840840389742
30
9E-16
41
1
10
5.03147893932953
20
-16.1668968127693
30
5E-16
41
1
10
5.17877333473433
20
-16.2392202620301
30
1E-16
0
SPLINE
5
17B
100
AcDbEntity
8
1
62
256
6
ByLayer
370
18
48
1
60
0
100
AcDbSpline
70
4
71
3
72
8
73
4
40
0
40
0
40
0
40
0
40
1
40
1
40
1
40
1
41
1
10
12.8977130440203
20
-6.74418837952138
30
-3E-15
41
1
10
11.9880857450345
20
-6.66902200506334
30
3E-15
41
1
10
11.0681172998156
20
-6.93704405495174
30
1.9E-15
41
1
10
10.3377420712911
20
-7.46630122636231
30
1.1E-15
0
SPLINE
5
17C
100
AcDbEntity
8
1
62
256
6
ByLayer
370
18
48
1
60
0
100
AcDbSpline
70
4
71
3
72
16
73
12
40
0
40
0
40
0
40
0
40
0.25
40
0.25
40
0.5
40
0.5
40
0.75
40
0.75
40
0.875
40
0.875
40
1
40
1
40
1
40
1
41
1
10
29.3561784907367
20
-13.8851272597378
30
-1.5E-15
41
1
10
28.2358842739119
20
-14.0976602568818
30
7E-16
41
1
10
27.0679967441868
20
-14.3388426500298
30
-6E-16
41
1
10
24.5481162744359
20
-14.9320320140806
30
0
41
1
10
23.2870159257482
20
-15.2296520632382
30
-1.5E-15
41
1
10
20.7239607725656
20
-15.8636603340266
30
-1E-15
41
1
10
19.3675942625668
20
-16.2269447440442
30
-2.6E-15
41
1
10
17.4804969640056
20
-16.8249192421022
30
2.3E-15
41
1
10
16.8691375475912
20
-17.0364575526546
30
1.6E-15
41
1
10
15.8371308082314
20
-17.4434150301797
30
4E-16
41
1
10
15.4151851349349
20
-17.6397733724527
30
-1E-16
41
1
10
15.085361814516
20
-17.8178318375693
30
-5E-16
0
SPLINE
5
17D
100
AcDbEntity
8
1
62
256
6
ByLayer
370
18
48
1
60
0
100
AcDbSpline
70
4
71
3
72
12
73
8
40
0
40
0
40
0
40
0
40
0.323114842069759
40
0.323114842069759
40
0.710369726849214
40
0.710369726849214
40
1
40
1
40
1
40
1
41
1
10
16.0692704203287
20
-7.173491893961
30
7E-16
41
1
10
16.4378599799302
20
-7.31355600322607
30
1.1E-15
41
1
10
16.790743468265
20
-7.50775377943856
30
1.5E-15
41
1
10
17.4872424943988
20
-8.02310829244661
30
2.4E-15
41
1
10
17.8262358568155
20
-8.36950362487235
30
2.7E-15
41
1
10
18.2940103597852
20
-9.04922092597249
30
3.3E-15
41
1
10
18.4580506503508
20
-9.37107665279066
30
3.5E-15
41
1
10
18.5698161580977
20
-9.70207559790282
30
-3.5E-15
0
SPLINE
5
17E
100
AcDbEntity
8
1
62
256
6
ByLayer
370
18
48
1
60
0
100
AcDbSpline
70
4
71
3
72
18
73
14
40
0
40
0
40
0
40
0
40
0.0739908643221336
40
0.0739908643221336
40
0.163840977644152
40
0.163840977644152
40
0.285126848313317
40
0.285126848313317
40
0.443670962440907
40
0.443670962440907
40
0.655194408808949
40
0.655194408808949
40
1
40
1
40
1
40
1
41
1
10
5.23218078528606
20
-14.6450027620911
30
2.2E-15
41
1
10
5.25178558852764
20
-14.7083189062005
30
2.2E-15
41
1
10
5.27185660226223
20
-14.7849307342524
30
2.3E-15
41
1
10
5.31850138697638
20
-14.9641950667018
30
2.3E-15
41
1
10
5.34649739091748
20
-15.0715574000259
30
2.3E-15
41
1
10
5.41915512289216
20
-15.3199575050527
30
2.4E-15
41
1
10
5.46759747075208
20
-15.464273085252
30
2.5E-15
41
1
10
5.59151671063108
20
-15.7746316421664
30
2.6E-15
41
1
10
5.67270721370261
20
-15.939544854621
30
2.7E-15
41
1
10
5.87271040496188
20
-16.2762092802527
30
3E-15
41
1
10
5.99755404238061
20
-16.4380061175508
30
3.1E-15
41
1
10
6.32790659989922
20
-16.7817995075443
30
3.5E-15
41
1
10
6.53903825025998
20
-16.9249483533316
30
2E-16
41
1
10
6.78642508771412
20
-17.0262082529687
30
5E-16
0
SPLINE
5
17F
100
AcDbEntity
8
1
62
256
6
ByLayer
370
18
48
1
60
0
100
AcDbSpline
70
4
71
3
72
12
73
8
40
0
40
0
40
0
40
0
40
0.499999999999994
40
0.499999999999994
40
0.749999999999997
40
0.749999999999997
40
1
40
1
40
1
40
1
41
1
10
8.07337439911322
20
-3.08897236217689
30
-1.6E-15
41
1
10
7.68322212309187
20
-3.25074079695528
30
-2E-15
41
1
10
7.35084319258016
20
-3.5086932234573
30
-2.4E-15
41
1
10
6.81169106675924
20
-4.12983926559394
30
-3.1E-15
41
1
10
6.63506588766217
20
-4.37603537193925
30
-3.3E-15
41
1
10
6.32113639329515
20
-4.91381091621386
30
3.5E-15
41
1
10
6.1907044637141
20
-5.21312796437925
30
3.3E-15
41
1
10
6.08830983764295
20
-5.37340795259078
30
3.2E-15
0
SPLINE
5
180
100
AcDbEntity
8
1
62
256
6
ByLayer
370
18
48
1
60
0
100
AcDbSpline
70
4
71
3
72
14
73
10
40
0
40
0
40
0
40
0
40
0.0829586012802839
40
0.0829586012802839
40
0.459195015075172
40
0.459195015075172
40
0.835474799669039
40
0.835474799669039
40
1
40
1
40
1
40
1
41
1
10
12.4586386349856
20
-11.4428424517499
30
-3.5E-15
41
1
10
12.4607146268674
20
-11.4458791054921
30
-3.5E-15
41
1
10
12.4627822327397
20
-11.4489948033346
30
-3.5E-15
41
1
10
12.4740747717705
20
-11.4665489076805
30
-3.5E-15
41
1
10
12.4831608658396
20
-11.4827575882155
30
-3.5E-15
41
1
10
12.499460371925
20
-11.5168176608468
30
-3.5E-15
41
1
10
12.5068516562715
20
-11.5350546986765
30
-3.5E-15
41
1
10
12.5156856191658
20
-11.5608297685604
30
-3.5E-15
41
1
10
12.5181734287843
20
-11.5687026172217
30
-3.5E-15
41
1
10
12.5204471557418
20
-11.5764904729507
30
-3.5E-15
0
SPLINE
5
181
100
AcDbEntity
8
1
62
256
6
ByLayer
370
18
48
1
60
0
100
AcDbSpline
70
4
71
3
72
12
73
8
40
0
40
0
40
0
40
0
40
0.392678099450018
40
0.392678099450018
40
0.791279335966111
40
0.791279335966111
40
1
40
1
40
1
40
1
41
1
10
13.7305438171114
20
-9.85440211592496
30
-2.1E-15
41
1
10
13.7114725516588
20
-9.85536935398116
30
-2.1E-15
41
1
10
13.6912358728212
20
-9.8554396857036
30
-2.1E-15
41
1
10
13.6510913463314
20
-9.8533438907765
30
-2.1E-15
41
1
10
13.6307070650905
20
-9.8511019216422
30
-2.2E-15
41
1
10
13.6020751848699
20
-9.84628789503438
30
-2.2E-15
41
1
10
13.5924896997045
20
-9.84435958393505
30
-2.2E-15
41
1
10
13.5833679522214
20
-9.84224034793073
30
-2.2E-15
0
SPLINE
5
182
100
AcDbEntity
8
1
62
256
6
ByLayer
370
18
48
1
60
0
100
AcDbSpline
70
4
71
3
72
14
73
10
40
0
40
0
40
0
40
0
40
0.16452520033099
40
0.16452520033099
40
0.540804984924888
40
0.540804984924888
40
0.917041398719664
40
0.917041398719664
40
1
40
1
40
1
40
1
41
1
10
14.4595142745364
20
-11.7367238403013
30
-1.2E-15
41
1
10
14.462500319815
20
-11.7293706219341
30
-1.2E-15
41
1
10
14.4658005602978
20
-11.7219760644826
30
-1.2E-15
41
1
10
14.4776357228302
20
-11.6979089723862
30
-1.2E-15
41
1
10
14.487717108515
20
-11.6811157756327
30
-1.2E-15
41
1
10
14.510295349533
20
-11.6502683366814
30
-1.1E-15
41
1
10
14.5230375434517
20
-11.6358634204688
30
-1.1E-15
41
1
10
14.5390073063783
20
-11.6205621161432
30
-1.1E-15
41
1
10
14.5419362904632
20
-11.6178593077908
30
-1.1E-15
41
1
10
14.5448816186732
20
-11.6152375870951
30
-1.1E-15
0
SPLINE
5
183
100
AcDbEntity
8
1
62
256
6
ByLayer
370
18
48
1
60
0
100
AcDbSpline
70
4
71
3
72
14
73
10
40
0
40
0
40
0
40
0
40
0.164525200330945
40
0.164525200330945
40
0.540804984924837
40
0.540804984924837
40
0.917041398719646
40
0.917041398719646
40
1
40
1
40
1
40
1
41
1
10
12.6396168765533
20
-10.2859217650164
30
-3.3E-15
41
1
10
12.636003011376
20
-10.2926471634849
30
-3.3E-15
41
1
10
12.6321559214512
20
-10.2994948714944
30
-3.3E-15
41
1
10
12.6188549393408
20
-10.3220961440129
30
-3.4E-15
41
1
10
12.6082750337515
20
-10.3383908208619
30
-3.4E-15
41
1
10
12.5859579254288
20
-10.3694993925085
30
-3.4E-15
41
1
10
12.5739749037506
20
-10.3846634809617
30
-3.4E-15
41
1
10
12.559509610645
20
-10.4014692551082
30
-3.4E-15
41
1
10
12.5568773326721
20
-10.4044687695725
30
-3.4E-15
41
1
10
12.5542495324166
20
-10.4074080182229
30
-3.4E-15
0
SPLINE
5
184
100
AcDbEntity
8
1
62
256
6
ByLayer
370
18
48
1
60
0
100
AcDbSpline
70
4
71
3
72
14
73
10
40
0
40
0
40
0
40
0
40
0.0829586012802442
40
0.0829586012802442
40
0.459195015075194
40
0.459195015075194
40
0.835474799669101
40
0.835474799669101
40
1
40
1
40
1
40
1
41
1
10
14.6404925161042
20
-10.579803153568
30
-1E-15
41
1
10
14.6380989962677
20
-10.5764489718712
30
-1E-15
41
1
10
14.6357346842835
20
-10.5730365679167
30
-1E-15
41
1
10
14.622937675432
20
-10.55397799375
30
-1E-15
41
1
10
14.6130924091221
20
-10.5370101409743
30
-1E-15
41
1
10
14.5965317703415
20
-10.5026889356478
30
-1E-15
41
1
10
14.5896390058995
20
-10.4849504177226
30
-1E-15
41
1
10
14.5822708625831
20
-10.4606411674167
30
-1.1E-15
41
1
10
14.5803299024067
20
-10.4533151681974
30
-1.1E-15
41
1
10
14.5786839953478
20
-10.4461551323671
30
-1.1E-15
0
SPLINE
5
185
100
AcDbEntity
8
1
62
256
6
ByLayer
370
18
48
1
60
0
100
AcDbSpline
70
4
71
3
72
12
73
8
40
0
40
0
40
0
40
0
40
0.392678099452608
40
0.392678099452608
40
0.791279335968726
40
0.791279335968726
40
1
40
1
40
1
40
1
41
1
10
13.3685873339787
20
-12.1682434893933
30
-2.5E-15
41
1
10
13.3861679807582
20
-12.1657856326638
30
-2.5E-15
41
1
10
13.4053734253382
20
-12.1646840666836
30
-2.4E-15
41
1
10
13.4447953965975
20
-12.1660573063801
30
-2.4E-15
41
1
10
13.4655108906148
20
-12.1686304882908
30
-2.4E-15
41
1
10
13.4955866421564
20
-12.1748883862197
30
-2.3E-15
41
1
10
13.5058411177098
20
-12.1774856877073
30
-2.3E-15
41
1
10
13.5157631988688
20
-12.1804052573875
30
-2.3E-15
0
SPLINE
5
186
100
AcDbEntity
8
1
62
256
6
ByLayer
370
18
48
1
60
0
100
AcDbSpline
70
4
71
3
72
20
73
16
40
0
40
0
40
0
40
0
40
0.145759110803467
40
0.145759110803467
40
0.31333650824242
40
0.31333650824242
40
0.480869971948572
40
0.480869971948572
40
0.648476953268898
40
0.648476953268898
40
0.816004846956648
40
0.816004846956648
40
0.98357815428142
40
0.98357815428142
40
1
40
1
40
1
40
1
41
1
10
18.7489045678294
20
-12.083698727343
30
3E-16
41
1
10
18.6638858214762
20
-12.1499762402065
30
2E-16
41
1
10
18.5875332325342
20
-12.2291971614424
30
1E-16
41
1
10
18.4527012715332
20
-12.4169182955275
30
-1E-16
41
1
10
18.3965419004099
20
-12.5307236829104
30
-1E-16
41
1
10
18.3249987757795
20
-12.765893309409
30
-2E-16
41
1
10
18.3086042240213
20
-12.8904912705797
30
-2E-16
41
1
10
18.317469301529
20
-13.1333353592488
30
-2E-16
41
1
10
18.3429419316877
20
-13.2549720121619
30
-2E-16
41
1
10
18.4310471911539
20
-13.477898036254
30
-1E-16
41
1
10
18.494849099088
20
-13.5822608630467
30
0
41
1
10
18.6513563452772
20
-13.7595716752308
30
2E-16
41
1
10
18.7463682792215
20
-13.8350355006627
30
3E-16
41
1
10
18.8602338697354
20
-13.8963986389487
30
4E-16
41
1
10
18.8705064992788
20
-13.9017017044099
30
4E-16
41
1
10
18.8808799132332
20
-13.9068280635675
30
4E-16
0
SPLINE
5
187
100
AcDbEntity
8
1
62
256
6
ByLayer
370
18
48
1
60
0
100
AcDbSpline
70
4
71
3
72
58
73
54
40
0
40
0
40
0
40
0
40
0.0272561789497706
40
0.0272561789497706
40
0.0674836585730963
40
0.0674836585730963
40
0.107702268933589
40
0.107702268933589
40
0.14792383754978
40
0.14792383754978
40
0.188147877868233
40
0.188147877868233
40
0.228362321863713
40
0.228362321863713
40
0.268592824573502
40
0.268592824573502
40
0.308808946564322
40
0.308808946564322
40
0.349040039851055
40
0.349040039851055
40
0.389256601623406
40
0.389256601623406
40
0.429476264501019
40
0.429476264501019
40
0.469700045919786
40
0.469700045919786
40
0.509916652584855
40
0.509916652584855
40
0.550148134820826
40
0.550148134820826
40
0.590362503911068
40
0.590362503911068
40
0.630591400289077
40
0.630591400289077
40
0.670809188852868
40
0.670809188852868
40
0.711032310470668
40
0.711032310470668
40
0.751254848321724
40
0.751254848321724
40
0.791469679590475
40
0.791469679590475
40
0.831699169773055
40
0.831699169773055
40
0.871915156103997
40
0.871915156103997
40
0.912147457591469
40
0.912147457591469
40
0.95236318309375
40
0.95236318309375
40
0.99258435554565
40
0.99258435554565
40
1
40
1
40
1
40
1
41
1
10
18.9020800016996
20
-13.9106229884843
30
5E-16
41
1
10
18.826680632843
20
-13.8830931608748
30
4E-16
41
1
10
18.7544104658773
20
-13.8465313483116
30
3E-16
41
1
10
18.5902854159718
20
-13.7367470682151
30
1E-16
41
1
10
18.5026368925576
20
-13.6524689563847
30
0
41
1
10
18.3627988302804
20
-13.4605005986451
30
-2E-16
41
1
10
18.3087479509386
20
-13.3502199293991
30
-2E-16
41
1
10
18.2415037583831
20
-13.1194639457731
30
-3E-16
41
1
10
18.2273104499064
20
-12.9957535125065
30
-3E-16
41
1
10
18.2401042712915
20
-12.7520977155958
30
-3E-16
41
1
10
18.2673954599016
20
-12.6288860153497
30
-3E-16
41
1
10
18.3596214249109
20
-12.4004773110854
30
-2E-16
41
1
10
18.4258075614221
20
-12.2921232156421
30
-1E-16
41
1
10
18.5872076080238
20
-12.1048012570361
30
1E-16
41
1
10
18.6846809587412
20
-12.0232815082553
30
2E-16
41
1
10
18.8974317873468
20
-11.8985108353695
30
4E-16
41
1
10
19.0156343736213
20
-11.8535224378068
30
6E-16
41
1
10
19.2561606234279
20
-11.8056995726718
30
9E-16
41
1
10
19.3817237725225
20
-11.8021647786631
30
1E-15
41
1
10
19.6228990181024
20
-11.8367179678337
30
1.3E-15
41
1
10
19.74188250683
20
-11.8752893925194
30
1.4E-15
41
1
10
19.9571421126334
20
-11.9886884301124
30
1.7E-15
41
1
10
20.0563365300479
20
-12.0650553970122
30
-1.7E-15
41
1
10
20.2213961718857
20
-12.2445067358393
30
-1.6E-15
41
1
10
20.2896210323171
20
-12.3501051353751
30
-1.5E-15
41
1
10
20.3865012819608
20
-12.5756088987517
30
-1.4E-15
41
1
10
20.4165079881672
20
-12.6986155550713
30
-1.3E-15
41
1
10
20.4344252182952
20
-12.9447899490819
30
-1.3E-15
41
1
10
20.4225847022644
20
-13.0713600372418
30
-1.3E-15
41
1
10
20.3599037999886
20
-13.3105203925077
30
-1.4E-15
41
1
10
20.3082360922984
20
-13.4264161510766
30
-1.5E-15
41
1
10
20.1727206079917
20
-13.6317383925592
30
-1.6E-15
41
1
10
20.0868513918513
20
-13.7239557743081
30
-1.7E-15
41
1
10
19.8937604239875
20
-13.872288335156
30
1.6E-15
41
1
10
19.7839503648273
20
-13.9304790329171
30
1.5E-15
41
1
10
19.5561515459278
20
-14.0053867367332
30
1.2E-15
41
1
10
19.4349140841519
20
-14.0231019729959
30
1.1E-15
41
1
10
19.1978856156578
20
-14.0160852283381
30
8E-16
41
1
10
19.0789761470335
20
-13.9913087419196
30
7E-16
41
1
10
18.8605850633539
20
-13.9035784512042
30
4E-16
41
1
10
18.7580767674783
20
-13.8394297408335
30
3E-16
41
1
10
18.5830301016659
20
-13.6809650899613
30
1E-16
41
1
10
18.5081597166623
20
-13.5844763573665
30
0
41
1
10
18.3968568478513
20
-13.3734529650984
30
-1E-16
41
1
10
18.3588752032445
20
-13.2560279413683
30
-2E-16
41
1
10
18.3243879372921
20
-13.0166365304274
30
-2E-16
41
1
10
18.3273182733159
20
-12.8912751358741
30
-2E-16
41
1
10
18.3736263552823
20
-12.6505281044779
30
-2E-16
41
1
10
18.4176617911034
20
-12.5318549004206
30
-1E-16
41
1
10
18.5403242905449
20
-12.3176022355173
30
0
41
1
10
18.6205748224967
20
-12.219003077992
30
1E-16
41
1
10
18.7302069888559
20
-12.1220492882151
30
3E-16
41
1
10
18.7477818962058
20
-12.1074514480457
30
3E-16
41
1
10
18.7658102212411
20
-12.093384165475
30
3E-16
0
LINE
5
72
100
AcDbEntity
8
1
62
256
6
ByLayer
370
18
48
1
60
0
100
AcDbLine
10
5.173441
20
-16.236288
30
0
11
6.668855
21
-16.973288
31
0
39
0
210
0
220
0
230
1
0
LINE
5
74
100
AcDbEntity
8
1
62
256
6
ByLayer
370
18
48
1
60
0
100
AcDbLine
10
9.012742
20
-13.407876
30
0
11
8.491815
21
-13.151142
31
0
39
0
210
0
220
0
230
1
0
LINE
5
75
100
AcDbEntity
8
1
62
256
6
ByLayer
370
18
48
1
60
0
100
AcDbLine
10
13.210212
20
-9.549278
30
0
11
13.394758
21
-9.733823
31
0
39
0
210
0
220
0
230
1
0
LINE
5
76
100
AcDbEntity
8
1
62
256
6
ByLayer
370
18
48
1
60
0
100
AcDbLine
10
12.411793
20
-11.386981
30
0
11
12.19037
21
-11.165557
31
0
39
0
210
0
220
0
230
1
0
LINE
5
77
100
AcDbEntity
8
1
62
256
6
ByLayer
370
18
48
1
60
0
100
AcDbLine
10
14.465915
20
-10.414242
30
0
11
14.687338
21
-10.635665
31
0
39
0
210
0
220
0
230
1
0
LINE
5
78
100
AcDbEntity
8
1
62
256
6
ByLayer
370
18
48
1
60
0
100
AcDbLine
10
13.704373
20
-12.288822
30
0
11
13.48295
21
-12.067399
31
0
39
0
210
0
220
0
230
1
0
LINE
5
79
100
AcDbEntity
8
1
62
256
6
ByLayer
370
18
48
1
60
0
100
AcDbLine
10
10.396385
20
-13.514996
30
0
11
10.635837
21
-13.754449
31
0
39
0
210
0
220
0
230
1
0
LINE
5
7A
100
AcDbEntity
8
1
62
256
6
ByLayer
370
18
48
1
60
0
100
AcDbLine
10
16.292692
20
-8.097595
30
0
11
16.053239
21
-7.858142
31
0
39
0
210
0
220
0
230
1
0
LINE
5
7B
100
AcDbEntity
8
80
62
256
6
ByLayer
370
18
48
1
60
0
100
AcDbLine
10
0
20
0
30
0
11
-5
21
0
31
0
39
0
210
0
220
0
230
1
0
LINE
5
7C
100
AcDbEntity
8
81
62
256
6
ByLayer
370
18
48
1
60
0
100
AcDbLine
10
27.325118
20
-19.9125
30
0
11
37.325118
21
-19.9125
31
0
39
0
210
0
220
0
230
1
0
LINE
5
7D
100
AcDbEntity
8
1
62
256
6
ByLayer
370
18
48
1
60
0
100
AcDbLine
10
7.474716
20
12.448127
30
0
11
7.453136
21
12.447255
31
0
39
0
210
0
220
0
230
1
0
LINE
5
7E
100
AcDbEntity
8
1
62
256
6
ByLayer
370
18
48
1
60
0
100
AcDbLine
10
9.562486
20
-0.874264
30
0
11
9.392629
21
-2.713756
31
0
39
0
210
0
220
0
230
1
0
LINE
5
7F
100
AcDbEntity
8
1
62
256
6
ByLayer
370
18
48
1
60
0
100
AcDbLine
10
23.396957
20
-5.86256
30
0
11
24.155595
21
-5.103923
31
0
39
0
210
0
220
0
230
1
0
LINE
5
80
100
AcDbEntity
8
1
62
256
6
ByLayer
370
18
48
1
60
0
100
AcDbLine
10
6.568061
20
12.444112
30
0
11
1.972367
21
12.446106
31
0
39
0
210
0
220
0
230
1
0
LINE
5
81
100
AcDbEntity
8
1
62
256
6
ByLayer
370
18
48
1
60
0
100
AcDbLine
10
0
20
12.4375
30
0
11
1.972367
21
12.446106
31
0
39
0
210
0
220
0
230
1
0
LINE
5
82
100
AcDbEntity
8
1
62
256
6
ByLayer
370
18
48
1
60
0
100
AcDbLine
10
22.199066
20
-7.164261
30
0
11
20.522544
21
-8.840783
31
0
39
0
210
0
220
0
230
1
0
LINE
5
83
100
AcDbEntity
8
1
62
256
6
ByLayer
370
18
48
1
60
0
100
AcDbLine
10
26.484656
20
-2.75582
30
0
11
23.383972
21
-5.856504
31
0
39
0
210
0
220
0
230
1
0
LINE
5
84
100
AcDbEntity
8
1
62
256
6
ByLayer
370
18
48
1
60
0
100
AcDbLine
10
11.274172
20
12.454664
30
0
11
17.082792
21
6.646043
31
0
39
0
210
0
220
0
230
1
0
LINE
5
85
100
AcDbEntity
8
1
62
256
6
ByLayer
370
18
48
1
60
0
100
AcDbLine
10
0
20
-12.4375
30
0
11
3.5647
21
-16.0022
31
0
39
0
210
0
220
0
230
1
0
LINE
5
86
100
AcDbEntity
8
1
62
256
6
ByLayer
370
18
48
1
60
0
100
AcDbLine
10
4.837362
20
-16.113543
30
0
11
4.968605
21
-16.125025
31
0
39
0
210
0
220
0
230
1
0
LINE
5
87
100
AcDbEntity
8
1
62
256
6
ByLayer
370
18
48
1
60
0
100
AcDbLine
10
7.453136
20
12.447255
30
0
11
6.072614
21
-2.503346
31
0
39
0
210
0
220
0
230
1
0
LINE
5
88
100
AcDbEntity
8
1
62
256
6
ByLayer
370
18
48
1
60
0
100
AcDbLine
10
4.822834
20
-16.038049
30
0
11
4.816035
21
-16.111677
31
0
39
0
210
0
220
0
230
1
0
LINE
5
89
100
AcDbEntity
8
1
62
256
6
ByLayer
370
18
48
1
60
0
100
AcDbLine
10
26.546081
20
-2.817246
30
0
11
26.484656
21
-2.75582
31
0
39
0
210
0
220
0
230
1
0
LINE
5
8A
100
AcDbEntity
8
1
62
256
6
ByLayer
370
18
48
1
60
0
100
AcDbLine
10
26.546081
20
-2.817246
30
0
11
24.801719
21
-4.561608
31
0
39
0
210
0
220
0
230
1
0
LINE
5
8B
100
AcDbEntity
8
1
62
256
6
ByLayer
370
18
48
1
60
0
100
AcDbLine
10
0
20
-12.4375
30
0
11
0
21
-9.373506
31
0
39
0
210
0
220
0
230
1
0
LINE
5
8C
100
AcDbEntity
8
1
62
256
6
ByLayer
370
18
48
1
60
0
100
AcDbLine
10
3.5647
20
-16.0022
30
0
11
3.93834
21
-16.034889
31
0
39
0
210
0
220
0
230
1
0
LINE
5
8D
100
AcDbEntity
8
1
62
256
6
ByLayer
370
18
48
1
60
0
100
AcDbLine
10
24.600899
20
-17.842629
30
0
11
24.352511
21
-17.820897
31
0
39
0
210
0
220
0
230
1
0
LINE
5
8E
100
AcDbEntity
8
1
62
256
6
ByLayer
370
18
48
1
60
0
100
AcDbLine
10
17.082792
20
6.646043
30
0
11
26.484656
21
-2.75582
31
0
39
0
210
0
220
0
230
1
0
LINE
5
8F
100
AcDbEntity
8
1
62
256
6
ByLayer
370
18
48
1
60
0
100
AcDbLine
10
9.315683
20
12.454664
30
0
11
11.274172
21
12.454664
31
0
39
0
210
0
220
0
230
1
0
LINE
5
90
100
AcDbEntity
8
1
62
256
6
ByLayer
370
18
48
1
60
0
100
AcDbLine
10
24.352511
20
-17.820897
30
0
11
18.471639
21
-17.306388
31
0
39
0
210
0
220
0
230
1
0
LINE
5
91
100
AcDbEntity
8
1
62
256
6
ByLayer
370
18
48
1
60
0
100
AcDbLine
10
0
20
-9.373506
30
0
11
0
21
12.4375
31
0
39
0
210
0
220
0
230
1
0
LINE
5
92
100
AcDbEntity
8
1
62
256
6
ByLayer
370
18
48
1
60
0
100
AcDbLine
10
6.568061
20
12.444112
30
0
11
5.131576
21
-3.112542
31
0
39
0
210
0
220
0
230
1
0
LINE
5
93
100
AcDbEntity
8
1
62
256
6
ByLayer
370
18
48
1
60
0
100
AcDbLine
10
4.008603
20
-15.273966
30
0
11
3.93834
21
-16.034889
31
0
39
0
210
0
220
0
230
1
0
LINE
5
94
100
AcDbEntity
8
1
62
256
6
ByLayer
370
18
48
1
60
0
100
AcDbLine
10
9.562486
20
-0.874264
30
0
11
9.315683
21
12.454664
31
0
39
0
210
0
220
0
230
1
0
LINE
5
95
100
AcDbEntity
8
1
62
256
6
ByLayer
370
18
48
1
60
0
100
AcDbLine
10
24.352511
20
-17.820897
30
0
11
22.676999
21
-16.160087
31
0
39
0
210
0
220
0
230
1
0
LINE
5
96
100
AcDbEntity
8
1
62
256
6
ByLayer
370
18
48
1
60
0
100
AcDbLine
10
7.474716
20
12.448127
30
0
11
6.094679
21
-2.497213
31
0
39
0
210
0
220
0
230
1
0
LINE
5
97
100
AcDbEntity
8
1
62
256
6
ByLayer
370
18
48
1
60
0
100
AcDbLine
10
4.843214
20
-16.050172
30
0
11
4.837362
21
-16.113543
31
0
39
0
210
0
220
0
230
1
0
LINE
5
98
100
AcDbEntity
8
1
62
256
6
ByLayer
370
18
48
1
60
0
100
AcDbLine
10
9.315683
20
12.454664
30
0
11
7.474716
21
12.448127
31
0
39
0
210
0
220
0
230
1
0
LINE
5
99
100
AcDbEntity
8
1
62
256
6
ByLayer
370
18
48
1
60
0
100
AcDbLine
10
3.93834
20
-16.034889
30
0
11
4.816035
21
-16.111677
31
0
39
0
210
0
220
0
230
1
0
LINE
5
9A
100
AcDbEntity
8
1
62
256
6
ByLayer
370
18
48
1
60
0
100
AcDbLine
10
1.972367
20
12.446106
30
0
11
0
21
-9.373506
31
0
39
0
210
0
220
0
230
1
0
LINE
5
9B
100
AcDbEntity
8
1
62
256
6
ByLayer
370
18
48
1
60
0
100
AcDbLine
10
17.082792
20
6.646043
30
0
11
9.562486
21
-0.874264
31
0
39
0
210
0
220
0
230
1
0
LINE
5
9C
100
AcDbEntity
8
1
62
256
6
ByLayer
370
18
48
1
60
0
100
AcDbLine
10
4.816035
20
-16.111677
30
0
11
4.837362
21
-16.113543
31
0
39
0
210
0
220
0
230
1
0
LINE
5
9D
100
AcDbEntity
8
SK1
62
256
6
ByLayer
370
18
48
1
60
0
100
AcDbLine
10
-124.024882
20
-12.4375
30
0
11
-124.024882
21
12.4375
31
0
39
0
210
0
220
0
230
1
0
LINE
5
9F
100
AcDbEntity
8
SK1
62
256
6
ByLayer
370
18
48
1
60
0
100
AcDbLine
10
0
20
-9.373506
30
0
11
0
21
12.4375
31
0
39
0
210
0
220
0
230
1
0
LINE
5
A0
100
AcDbEntity
8
SK1
62
256
6
ByLayer
370
18
48
1
60
0
100
AcDbLine
10
-3.063994
20
-12.4375
30
0
11
-124.024882
21
-12.4375
31
0
39
0
210
0
220
0
230
1
0
LINE
5
A1
100
AcDbEntity
8
SK1
62
256
6
ByLayer
370
18
48
1
60
0
100
AcDbLine
10
-3.063994
20
-12.4375
30
0
11
0
21
-12.4375
31
0
39
0
210
0
220
0
230
1
0
LINE
5
A2
100
AcDbEntity
8
SK1
62
256
6
ByLayer
370
18
48
1
60
0
100
AcDbLine
10
0
20
-9.373506
30
0
11
-3.063994
21
-12.4375
31
0
39
0
210
0
220
0
230
1
0
LINE
5
A3
100
AcDbEntity
8
SK1
62
256
6
ByLayer
370
18
48
1
60
0
100
AcDbLine
10
-124.024882
20
12.4375
30
0
11
0
21
12.4375
31
0
39
0
210
0
220
0
230
1
0
LINE
5
A4
100
AcDbEntity
8
SK1
62
256
6
ByLayer
370
18
48
1
60
0
100
AcDbLine
10
0
20
-12.4375
30
0
11
0
21
-9.373506
31
0
39
0
210
0
220
0
230
1
0
LINE
5
A5
100
AcDbEntity
8
1
62
256
6
ByLayer
370
18
48
1
60
0
100
AcDbLine
10
27.559212
20
-19.678407
30
0
11
35.416936
21
-11.820683
31
0
39
0
210
0
220
0
230
1
0
LINE
5
A6
100
AcDbEntity
8
1
62
256
6
ByLayer
370
18
48
1
60
0
100
AcDbLine
10
26.860013
20
-2.141228
30
0
11
27.641145
21
-2.92236
31
0
39
0
210
0
220
0
230
1
0
LINE
5
A7
100
AcDbEntity
8
1
62
256
6
ByLayer
370
18
48
1
60
0
100
AcDbLine
10
26.479782
20
-2.883529
30
0
11
26.524075
21
-2.927822
31
0
39
0
210
0
220
0
230
1
0
LINE
5
A8
100
AcDbEntity
8
1
62
256
6
ByLayer
370
18
48
1
60
0
100
AcDbLine
10
22.866656
20
-16.108383
30
0
11
26.442142
21
-19.683869
31
0
39
0
210
0
220
0
230
1
0
LINE
5
A9
100
AcDbEntity
8
1
62
256
6
ByLayer
370
18
48
1
60
0
100
AcDbLine
10
26.524075
20
-2.927822
30
0
11
23.52844
21
-5.923456
31
0
39
0
210
0
220
0
230
1
0
LINE
5
AA
100
AcDbEntity
8
1
62
256
6
ByLayer
370
18
48
1
60
0
100
AcDbLine
10
35.422398
20
-10.703613
30
0
11
27.641145
21
-2.92236
31
0
39
0
210
0
220
0
230
1
0
LINE
5
AB
100
AcDbEntity
8
1
62
256
6
ByLayer
370
18
48
1
60
0
100
AcDbLine
10
4.108986
20
-11.915165
30
0
11
4.566881
21
-6.956308
31
0
39
0
210
0
220
0
230
1
0
LINE
5
AC
100
AcDbEntity
8
1
62
256
6
ByLayer
370
18
48
1
60
0
100
AcDbLine
10
11.680931
20
-14.750823
30
0
11
12.642851
21
-14.828778
31
0
39
0
210
0
220
0
230
1
0
LINE
5
AD
100
AcDbEntity
8
1
62
256
6
ByLayer
370
18
48
1
60
0
100
AcDbLine
10
13.570492
20
-14.903955
30
0
11
13.708493
21
-14.915139
31
0
39
0
210
0
220
0
230
1
0
LINE
5
AE
100
AcDbEntity
8
1
62
256
6
ByLayer
370
18
48
1
60
0
100
AcDbLine
10
7.824491
20
-13.053627
30
0
11
7.426033
21
-12.857251
31
0
39
0
210
0
220
0
230
1
0
LINE
5
AF
100
AcDbEntity
8
1
62
256
6
ByLayer
370
18
48
1
60
0
100
AcDbLine
10
23.968636
20
-6.127039
30
0
11
18.252559
21
-3.482832
31
0
39
0
210
0
220
0
230
1
0
LINE
5
B0
100
AcDbEntity
8
1
62
256
6
ByLayer
370
18
48
1
60
0
100
AcDbLine
10
8.312742
20
-3.841036
30
0
11
16.024804
21
-4.478316
31
0
39
0
210
0
220
0
230
1
0
LINE
5
B1
100
AcDbEntity
8
1
62
256
6
ByLayer
370
18
48
1
60
0
100
AcDbLine
10
4.693584
20
-6.801786
30
0
11
4.566881
21
-6.956308
31
0
39
0
210
0
220
0
230
1
0
LINE
5
B2
100
AcDbEntity
8
1
62
256
6
ByLayer
370
18
48
1
60
0
100
AcDbLine
10
4.566881
20
-6.956308
30
0
11
5.047449
21
-7.193151
31
0
39
0
210
0
220
0
230
1
0
LINE
5
B3
100
AcDbEntity
8
1
62
256
6
ByLayer
370
18
48
1
60
0
100
AcDbLine
10
6.475361
20
-7.584404
30
0
11
5.99915
21
-12.741615
31
0
39
0
210
0
220
0
230
1
0
LINE
5
B4
100
AcDbEntity
8
1
62
256
6
ByLayer
370
18
48
1
60
0
100
AcDbLine
10
24.438536
20
-15.385622
30
0
11
24.46497
21
-15.380836
31
0
39
0
210
0
220
0
230
1
0
LINE
5
B5
100
AcDbEntity
8
1
62
256
6
ByLayer
370
18
48
1
60
0
100
AcDbLine
10
4.108986
20
-11.915165
30
0
11
4.589554
21
-12.152008
31
0
39
0
210
0
220
0
230
1
0
LINE
5
B6
100
AcDbEntity
8
1
62
256
6
ByLayer
370
18
48
1
60
0
100
AcDbLine
10
29.729659
20
-9.84046
30
0
11
29.306302
21
-9.278495
31
0
39
0
210
0
220
0
230
1
0
LINE
5
B7
100
AcDbEntity
8
1
62
256
6
ByLayer
370
18
48
1
60
0
100
AcDbLine
10
16.937483
20
-17.724668
30
0
11
23.051618
21
-16.058042
31
0
39
0
210
0
220
0
230
1
0
LINE
5
B8
100
AcDbEntity
8
1
62
256
6
ByLayer
370
18
48
1
60
0
100
AcDbLine
10
7.837258
20
-2.425329
30
0
11
8.942443
21
-2.970008
31
0
39
0
210
0
220
0
230
1
0
LINE
5
B9
100
AcDbEntity
8
1
62
256
6
ByLayer
370
18
48
1
60
0
100
AcDbLine
10
5.09804
20
-14.083181
30
0
11
5.863642
21
-5.791973
31
0
39
0
210
0
220
0
230
1
0
LINE
5
BA
100
AcDbEntity
8
1
62
256
6
ByLayer
370
18
48
1
60
0
100
AcDbLine
10
12.137607
20
-14.975891
30
0
11
14.173043
21
-15.144087
31
0
39
0
210
0
220
0
230
1
0
LINE
5
BB
100
AcDbEntity
8
1
62
256
6
ByLayer
370
18
48
1
60
0
100
AcDbLine
10
3.467389
20
-13.279531
30
0
11
5.09804
21
-14.083181
31
0
39
0
210
0
220
0
230
1
0
LINE
5
BC
100
AcDbEntity
8
1
62
256
6
ByLayer
370
18
48
1
60
0
100
AcDbLine
10
4.23299
20
-4.988323
30
0
11
3.467389
21
-13.279531
31
0
39
0
210
0
220
0
230
1
0
LINE
5
BD
100
AcDbEntity
8
1
62
256
6
ByLayer
370
18
48
1
60
0
100
AcDbLine
10
4.589554
20
-12.152008
30
0
11
5.047449
21
-7.193151
31
0
39
0
210
0
220
0
230
1
0
LINE
5
BE
100
AcDbEntity
8
1
62
256
6
ByLayer
370
18
48
1
60
0
100
AcDbLine
10
25.179043
20
-7.366171
30
0
11
24.172566
21
-6.900584
31
0
39
0
210
0
220
0
230
1
0
LINE
5
BF
100
AcDbEntity
8
1
62
256
6
ByLayer
370
18
48
1
60
0
100
AcDbLine
10
7.627367
20
-17.211845
30
0
11
14.580957
21
-17.78645
31
0
39
0
210
0
220
0
230
1
0
LINE
5
C0
100
AcDbEntity
8
1
62
256
6
ByLayer
370
18
48
1
60
0
100
AcDbLine
10
5.239683
20
-7.070926
30
0
11
5.047449
21
-7.193151
31
0
39
0
210
0
220
0
230
1
0
LINE
5
C1
100
AcDbEntity
8
1
62
256
6
ByLayer
370
18
48
1
60
0
100
AcDbLine
10
27.860407
20
-8.5543
30
0
11
25.673576
21
-7.542691
31
0
39
0
210
0
220
0
230
1
0
LINE
5
C2
100
AcDbEntity
8
1
62
256
6
ByLayer
370
18
48
1
60
0
100
AcDbLine
10
4.754314
20
-12.327314
30
0
11
5.239683
21
-7.070926
31
0
39
0
210
0
220
0
230
1
0
LINE
5
C3
100
AcDbEntity
8
1
62
256
6
ByLayer
370
18
48
1
60
0
100
AcDbLine
10
14.173043
20
-15.144087
30
0
11
13.708493
21
-14.915139
31
0
39
0
210
0
220
0
230
1
0
LINE
5
C4
100
AcDbEntity
8
1
62
256
6
ByLayer
370
18
48
1
60
0
100
AcDbLine
10
15.085362
20
-17.817832
30
0
11
16.937483
21
-17.724668
31
0
39
0
210
0
220
0
230
1
0
LINE
5
C5
100
AcDbEntity
8
1
62
256
6
ByLayer
370
18
48
1
60
0
100
AcDbLine
10
15.896033
20
-3.544613
30
0
11
8.942443
21
-2.970008
31
0
39
0
210
0
220
0
230
1
0
LINE
5
C6
100
AcDbEntity
8
1
62
256
6
ByLayer
370
18
48
1
60
0
100
AcDbLine
10
29.356178
20
-13.885127
30
0
11
28.853629
21
-14.180791
31
0
39
0
210
0
220
0
230
1
0
LINE
5
C7
100
AcDbEntity
8
1
62
256
6
ByLayer
370
18
48
1
60
0
100
AcDbLine
10
4.693584
20
-6.801786
30
0
11
5.239683
21
-7.070926
31
0
39
0
210
0
220
0
230
1
0
LINE
5
C8
100
AcDbEntity
8
1
62
256
6
ByLayer
370
18
48
1
60
0
100
AcDbLine
10
14.933149
20
-6.912385
30
0
11
12.897713
21
-6.744188
31
0
39
0
210
0
220
0
230
1
0
LINE
5
C9
100
AcDbEntity
8
1
62
256
6
ByLayer
370
18
48
1
60
0
100
AcDbLine
10
25.204465
20
-7.372349
30
0
11
25.179043
21
-7.366171
31
0
39
0
210
0
220
0
230
1
0
LINE
5
CA
100
AcDbEntity
8
1
62
256
6
ByLayer
370
18
48
1
60
0
100
AcDbLine
10
7.426033
20
-12.857251
30
0
11
5.99915
21
-12.741615
31
0
39
0
210
0
220
0
230
1
0
LINE
5
CB
100
AcDbEntity
8
1
62
256
6
ByLayer
370
18
48
1
60
0
100
AcDbLine
10
7.133753
20
-16.609095
30
0
11
14.845815
21
-17.246375
31
0
39
0
210
0
220
0
230
1
0
LINE
5
CC
100
AcDbEntity
8
1
62
256
6
ByLayer
370
18
48
1
60
0
100
AcDbLine
10
4.23299
20
-4.988323
30
0
11
5.863642
21
-5.791973
31
0
39
0
210
0
220
0
230
1
0
LINE
5
CD
100
AcDbEntity
8
1
62
256
6
ByLayer
370
18
48
1
60
0
100
AcDbLine
10
18.252559
20
-3.482832
30
0
11
9.749748
21
-2.780208
31
0
39
0
210
0
220
0
230
1
0
LINE
5
CE
100
AcDbEntity
8
1
62
256
6
ByLayer
370
18
48
1
60
0
100
AcDbLine
10
16.400438
20
-3.575995
30
0
11
18.252559
21
-3.482832
31
0
39
0
210
0
220
0
230
1
0
LINE
5
CF
100
AcDbEntity
8
1
62
256
6
ByLayer
370
18
48
1
60
0
100
AcDbLine
10
7.908876
20
-2.437636
30
0
11
9.749748
21
-2.780208
31
0
39
0
210
0
220
0
230
1
0
LINE
5
D0
100
AcDbEntity
8
1
62
256
6
ByLayer
370
18
48
1
60
0
100
AcDbLine
10
4.208215
20
-12.058175
30
0
11
4.754314
21
-12.327314
31
0
39
0
210
0
220
0
230
1
0
LINE
5
D1
100
AcDbEntity
8
1
62
256
6
ByLayer
370
18
48
1
60
0
100
AcDbLine
10
24.960413
20
-15.26601
30
0
11
27.299531
21
-14.628399
31
0
39
0
210
0
220
0
230
1
0
LINE
5
D2
100
AcDbEntity
8
1
62
256
6
ByLayer
370
18
48
1
60
0
100
AcDbLine
10
4.754314
20
-12.327314
30
0
11
4.589554
21
-12.152008
31
0
39
0
210
0
220
0
230
1
0
LINE
5
D3
100
AcDbEntity
8
1
62
256
6
ByLayer
370
18
48
1
60
0
100
AcDbLine
10
4.208215
20
-12.058175
30
0
11
4.108986
21
-11.915165
31
0
39
0
210
0
220
0
230
1
0
LINE
5
D4
100
AcDbEntity
8
1
62
256
6
ByLayer
370
18
48
1
60
0
100
AcDbLine
10
12.137607
20
-14.975891
30
0
11
11.680931
21
-14.750823
31
0
39
0
210
0
220
0
230
1
0
LINE
5
D5
100
AcDbEntity
8
1
62
256
6
ByLayer
370
18
48
1
60
0
100
AcDbLine
10
23.361969
20
-15.679079
30
0
11
24.438536
21
-15.385622
31
0
39
0
210
0
220
0
230
1
0
LINE
5
D6
100
AcDbEntity
8
1
62
256
6
ByLayer
370
18
48
1
60
0
100
AcDbLine
10
16.053461
20
-7.858364
30
0
11
16.053239
21
-7.858142
31
0
39
0
210
0
220
0
230
1
0
LINE
5
D7
100
AcDbEntity
8
1
62
256
6
ByLayer
370
18
48
1
60
0
100
AcDbLine
10
14.387919
20
-9.92875
30
0
11
14.609342
21
-10.150173
31
0
39
0
210
0
220
0
230
1
0
LINE
5
D8
100
AcDbEntity
8
1
62
256
6
ByLayer
370
18
48
1
60
0
100
AcDbLine
10
12.878528
20
-12.076764
30
0
11
13.099951
21
-12.298187
31
0
39
0
210
0
220
0
230
1
0
LINE
5
D9
100
AcDbEntity
8
1
62
256
6
ByLayer
370
18
48
1
60
0
100
AcDbLine
10
14.214037
20
-11.811829
30
0
11
14.43546
21
-12.033252
31
0
39
0
210
0
220
0
230
1
0
LINE
5
DA
100
AcDbEntity
8
1
62
256
6
ByLayer
370
18
48
1
60
0
100
AcDbLine
10
13.239111
20
-9.566699
30
0
11
13.342616
21
-9.670204
31
0
39
0
210
0
220
0
230
1
0
LINE
5
DB
100
AcDbEntity
8
1
62
256
6
ByLayer
370
18
48
1
60
0
100
AcDbLine
10
11.992633
20
-11.054835
30
0
11
12.214056
21
-11.276258
31
0
39
0
210
0
220
0
230
1
0
LINE
5
DC
100
AcDbEntity
8
1
62
256
6
ByLayer
370
18
48
1
60
0
100
AcDbLine
10
14.594868
20
-11.269869
30
0
11
14.816291
21
-11.491292
31
0
39
0
210
0
220
0
230
1
0
LINE
5
DD
100
AcDbEntity
8
1
62
256
6
ByLayer
370
18
48
1
60
0
100
AcDbLine
10
30.052533
20
-8.764494
30
0
11
30.79039
21
-10.049778
31
0
39
0
210
0
220
0
230
1
0
LINE
5
DE
100
AcDbEntity
8
1
62
256
6
ByLayer
370
18
48
1
60
0
100
AcDbLine
10
30.79039
20
-10.049778
30
0
11
31.525297
21
-9.09423
31
0
39
0
210
0
220
0
230
1
0
LINE
5
DF
100
AcDbEntity
8
1
62
256
6
ByLayer
370
18
48
1
60
0
100
AcDbLine
10
27.562804
20
-7.317021
30
0
11
26.23422
21
-7.207235
31
0
39
0
210
0
220
0
230
1
0
LINE
5
E0
100
AcDbEntity
8
1
62
256
6
ByLayer
370
18
48
1
60
0
100
AcDbLine
10
29.175909
20
-15.036987
30
0
11
26.768086
21
-15.923559
31
0
39
0
210
0
220
0
230
1
0
LINE
5
E1
100
AcDbEntity
8
1
62
256
6
ByLayer
370
18
48
1
60
0
100
AcDbLine
10
25.194835
20
-6.169107
30
0
11
25.78292
21
-5.952571
31
0
39
0
210
0
220
0
230
1
0
LINE
5
E2
100
AcDbEntity
8
1
62
256
6
ByLayer
370
18
48
1
60
0
100
AcDbLine
10
29.894212
20
-7.463145
30
0
11
27.511777
21
-6.095434
31
0
39
0
210
0
220
0
230
1
0
LINE
5
E3
100
AcDbEntity
8
1
62
256
6
ByLayer
370
18
48
1
60
0
100
AcDbLine
10
29.147222
20
-15.552796
30
0
11
26.550196
21
-16.509033
31
0
39
0
210
0
220
0
230
1
0
LINE
5
E4
100
AcDbEntity
8
1
62
256
6
ByLayer
370
18
48
1
60
0
100
AcDbLine
10
26.550196
20
-16.509033
30
0
11
24.821339
21
-16.36617
31
0
39
0
210
0
220
0
230
1
0
LINE
5
E5
100
AcDbEntity
8
1
62
256
6
ByLayer
370
18
48
1
60
0
100
AcDbLine
10
27.511777
20
-6.095434
30
0
11
25.78292
21
-5.952571
31
0
39
0
210
0
220
0
230
1
0
LINE
5
E6
100
AcDbEntity
8
1
62
256
6
ByLayer
370
18
48
1
60
0
100
AcDbLine
10
25.439502
20
-15.813773
30
0
11
24.821339
21
-16.36617
31
0
39
0
210
0
220
0
230
1
0
LINE
5
E7
100
AcDbEntity
8
1
62
256
6
ByLayer
370
18
48
1
60
0
100
AcDbLine
10
25.439502
20
-15.813773
30
0
11
25.304963
21
-15.736537
31
0
39
0
210
0
220
0
230
1
0
LINE
5
E8
100
AcDbEntity
8
1
62
256
6
ByLayer
370
18
48
1
60
0
100
AcDbLine
10
25.787041
20
-7.264752
30
0
11
26.087564
21
-7.261235
31
0
39
0
210
0
220
0
230
1
0
LINE
5
E9
100
AcDbEntity
8
1
62
256
6
ByLayer
370
18
48
1
60
0
100
AcDbLine
10
25.013878
20
-15.637842
30
0
11
24.281847
21
-16.056458
31
0
39
0
210
0
220
0
230
1
0
LINE
5
EA
100
AcDbEntity
8
1
62
256
6
ByLayer
370
18
48
1
60
0
100
AcDbLine
10
27.86042
20
-8.554306
30
0
11
25.29259
21
-7.283491
31
0
39
0
210
0
220
0
230
1
0
LINE
5
EB
100
AcDbEntity
8
1
62
256
6
ByLayer
370
18
48
1
60
0
100
AcDbLine
10
29.485399
20
-14.906366
30
0
11
30.447647
21
-13.761569
31
0
39
0
210
0
220
0
230
1
0
LINE
5
EC
100
AcDbEntity
8
1
62
256
6
ByLayer
370
18
48
1
60
0
100
AcDbLine
10
25.78292
20
-5.952571
30
0
11
26.23422
21
-7.207235
31
0
39
0
210
0
220
0
230
1
0
LINE
5
ED
100
AcDbEntity
8
1
62
256
6
ByLayer
370
18
48
1
60
0
100
AcDbLine
10
26.23422
20
-7.207235
30
0
11
26.087564
21
-7.261235
31
0
39
0
210
0
220
0
230
1
0
LINE
5
EE
100
AcDbEntity
8
1
62
256
6
ByLayer
370
18
48
1
60
0
100
AcDbLine
10
28.308582
20
-14.833445
30
0
11
28.134273
21
-14.396828
31
0
39
0
210
0
220
0
230
1
0
LINE
5
EF
100
AcDbEntity
8
1
62
256
6
ByLayer
370
18
48
1
60
0
100
AcDbLine
10
27.562804
20
-7.317021
30
0
11
27.511777
21
-6.095434
31
0
39
0
210
0
220
0
230
1
0
LINE
5
F0
100
AcDbEntity
8
1
62
256
6
ByLayer
370
18
48
1
60
0
100
AcDbLine
10
26.768086
20
-15.923559
30
0
11
25.439502
21
-15.813773
31
0
39
0
210
0
220
0
230
1
0
LINE
5
F1
100
AcDbEntity
8
1
62
256
6
ByLayer
370
18
48
1
60
0
100
AcDbLine
10
29.77167
20
-8.58509
30
0
11
27.562804
21
-7.317021
31
0
39
0
210
0
220
0
230
1
0
LINE
5
F2
100
AcDbEntity
8
1
62
256
6
ByLayer
370
18
48
1
60
0
100
AcDbLine
10
29.77167
20
-8.58509
30
0
11
29.894212
21
-7.463145
31
0
39
0
210
0
220
0
230
1
0
LINE
5
F3
100
AcDbEntity
8
1
62
256
6
ByLayer
370
18
48
1
60
0
100
AcDbLine
10
25.787041
20
-7.264752
30
0
11
25.194835
21
-6.169107
31
0
39
0
210
0
220
0
230
1
0
LINE
5
F4
100
AcDbEntity
8
1
62
256
6
ByLayer
370
18
48
1
60
0
100
AcDbLine
10
26.768086
20
-15.923559
30
0
11
26.550196
21
-16.509033
31
0
39
0
210
0
220
0
230
1
0
LINE
5
F5
100
AcDbEntity
8
1
62
256
6
ByLayer
370
18
48
1
60
0
100
AcDbLine
10
25.304963
20
-15.736537
30
0
11
25.013878
21
-15.637842
31
0
39
0
210
0
220
0
230
1
0
LINE
5
F6
100
AcDbEntity
8
1
62
256
6
ByLayer
370
18
48
1
60
0
100
AcDbLine
10
24.281847
20
-16.056458
30
0
11
24.821339
21
-16.36617
31
0
39
0
210
0
220
0
230
1
0
LINE
5
F7
100
AcDbEntity
8
1
62
256
6
ByLayer
370
18
48
1
60
0
100
AcDbLine
10
29.175909
20
-15.036987
30
0
11
29.147222
21
-15.552796
31
0
39
0
210
0
220
0
230
1
0
LINE
5
F8
100
AcDbEntity
8
1
62
256
6
ByLayer
370
18
48
1
60
0
100
AcDbLine
10
27.299545
20
-14.628396
30
0
11
24.537691
21
-15.458796
31
0
39
0
210
0
220
0
230
1
0
LINE
5
F9
100
AcDbEntity
8
1
62
256
6
ByLayer
370
18
48
1
60
0
100
AcDbLine
10
30.447647
20
-13.761569
30
0
11
31.052548
21
-14.21394
31
0
39
0
210
0
220
0
230
1
0
LINE
5
FA
100
AcDbEntity
8
1
62
256
6
ByLayer
370
18
48
1
60
0
100
AcDbLine
10
25.304963
20
-15.736537
30
0
11
28.308582
21
-14.833445
31
0
39
0
210
0
220
0
230
1
0
LINE
5
FB
100
AcDbEntity
8
1
62
256
6
ByLayer
370
18
48
1
60
0
100
AcDbLine
10
26.087564
20
-7.261235
30
0
11
28.880174
21
-8.643293
31
0
39
0
210
0
220
0
230
1
0
LINE
5
FC
100
AcDbEntity
8
1
62
256
6
ByLayer
370
18
48
1
60
0
100
AcDbLine
10
28.880174
20
-8.643293
30
0
11
28.639622
21
-8.924064
31
0
39
0
210
0
220
0
230
1
0
MTEXT
5
188
100
AcDbEntity
8
SK6
62
256
6
ByLayer
370
18
48
1
60
0
100
AcDbMText
10
-62.474882
20
21.571082
30
0
210
0
220
0
230
1
1
\W0.7500;DSSNL 2525M 12-2
40
3.5
41
0
44
1.084337
50
0
71
7
72
5
7
iso_b_vert
0
DIMENSION
5
199
100
AcDbEntity
8
2
62
256
6
ByLayer
370
13
48
1
60
0
100
AcDbDimension
2
DimnDraft3D1
10
81.925118
20
12.4375
30
0
11
81.925118
21
-9.019079
31
0
70
32
71
5
72
1
41
1
210
0
220
0
230
1
3
Standard
100
AcDbAlignedDimension
13
29.325118
23
-19.9125
33
0
14
2
24
12.4375
34
0
50
90
100
AcDbRotatedDimension
1001
ACAD
1000
DSTYLE
1002
{
1070
    74
1070
     0
1070
   279
1070
     0
1070
   172
1070
     1
1070
   173
1070
     1
1070
   340
1005
189
1070
    77
1070
     1
1070
    73
1070
     0
1070
   171
1070
     3
1070
   274
1070
     4
1070
   177
1070
     2
1070
   176
1070
     2
1070
   178
1070
     7
1070
    78
1070
     8
1070
    41
1041
3.175
1070
   147
1041
2.25
1070
    42
1041
2.0
1070
    44
1041
2.0
1070
   140
1041
4.5
1070
   343
1005
19A
1070
   344
1005
19A
1002
}
0
DIMENSION
5
1AF
100
AcDbEntity
8
SK2
62
256
6
ByLayer
370
13
48
1
60
0
100
AcDbDimension
2
DimnDraft3D2
10
-131.774882
20
-12.4375
30
0
11
-131.774882
21
-5.281579
31
0
70
32
71
5
72
1
41
1
210
0
220
0
230
1
3
Standard
100
AcDbAlignedDimension
13
-126.024882
23
12.4375
33
0
14
-126.024882
24
-12.4375
34
0
50
90
100
AcDbRotatedDimension
1001
ACAD
1000
DSTYLE
1002
{
1070
    74
1070
     0
1070
   279
1070
     0
1070
   172
1070
     1
1070
   173
1070
     1
1070
   340
1005
189
1070
    77
1070
     1
1070
    73
1070
     0
1070
   171
1070
     3
1070
   274
1070
     4
1070
   177
1070
     2
1070
   176
1070
     2
1070
   178
1070
     7
1070
    78
1070
     8
1070
    41
1041
3.175
1070
   147
1041
2.25
1070
    42
1041
2.0
1070
    44
1041
2.0
1070
   140
1041
4.5
1070
   343
1005
19A
1070
   344
1005
19A
1002
}
0
DIMENSION
5
1BD
100
AcDbEntity
8
2
62
256
6
ByLayer
370
13
48
1
60
0
100
AcDbDimension
2
DimnDraft3D3
10
71.925118
20
12.4375
30
0
11
71.925118
21
-4.857733
31
0
70
32
71
5
72
1
41
1
210
0
220
0
230
1
3
Standard
100
AcDbAlignedDimension
13
37.64781
23
-11.589808
33
0
14
2
24
12.4375
34
0
50
90
100
AcDbRotatedDimension
1001
ACAD
1000
DSTYLE
1002
{
1070
    74
1070
     0
1070
   279
1070
     0
1070
   172
1070
     1
1070
   173
1070
     1
1070
   340
1005
189
1070
    77
1070
     1
1070
    73
1070
     0
1070
   171
1070
     3
1070
   274
1070
     4
1070
   177
1070
     2
1070
   176
1070
     2
1070
   178
1070
     7
1070
    78
1070
     8
1070
    41
1041
3.175
1070
   147
1041
2.25
1070
    42
1041
2.0
1070
    44
1041
2.0
1070
   140
1041
4.5
1070
   343
1005
19A
1070
   344
1005
19A
1002
}
0
DIMENSION
5
1CB
100
AcDbEntity
8
2
62
256
6
ByLayer
370
13
48
1
60
0
100
AcDbDimension
2
DimnDraft3D4
10
27.325118
20
-34.839808
30
0
11
8.38098
21
-34.839808
31
0
70
32
71
5
72
1
41
1
210
0
220
0
230
1
3
Standard
100
AcDbAlignedDimension
13
0
23
-14.4375
33
0
14
27.325118
24
-21.9125
34
0
50
0
100
AcDbRotatedDimension
1001
ACAD
1000
DSTYLE
1002
{
1070
   279
1070
     0
1070
   172
1070
     1
1070
   173
1070
     1
1070
   340
1005
189
1070
    77
1070
     1
1070
    73
1070
     0
1070
   171
1070
     3
1070
   274
1070
     4
1070
   177
1070
     2
1070
   176
1070
     2
1070
   178
1070
     7
1070
    78
1070
     8
1070
    41
1041
3.175
1070
   147
1041
2.25
1070
    42
1041
2.0
1070
    44
1041
2.0
1070
   140
1041
4.5
1070
   343
1005
19A
1070
   344
1005
19A
1002
}
0
DIMENSION
5
1D9
100
AcDbEntity
8
SK2
62
256
6
ByLayer
370
13
48
1
60
0
100
AcDbDimension
2
DimnDraft3D5
10
27.325118
20
-44.839808
30
0
11
-54.75054
21
-44.839808
31
0
70
32
71
5
72
1
41
1
210
0
220
0
230
1
3
Standard
100
AcDbAlignedDimension
13
-124.024882
23
-14.4375
33
0
14
27.325118
24
-21.9125
34
0
50
0
100
AcDbRotatedDimension
1001
ACAD
1000
DSTYLE
1002
{
1070
   279
1070
     0
1070
   172
1070
     1
1070
   173
1070
     1
1070
   340
1005
189
1070
    77
1070
     1
1070
    73
1070
     0
1070
   171
1070
     3
1070
   274
1070
     4
1070
   177
1070
     2
1070
   176
1070
     2
1070
   178
1070
     7
1070
    78
1070
     8
1070
    41
1041
3.175
1070
   147
1041
2.25
1070
    42
1041
2.0
1070
    44
1041
2.0
1070
   140
1041
4.5
1070
   343
1005
19A
1070
   344
1005
19A
1002
}
0
DIMENSION
5
1E7
100
AcDbEntity
8
SK2
62
256
6
ByLayer
370
13
48
1
60
0
100
AcDbDimension
2
DimnDraft3D6
10
-124.024882
20
-54.839808
30
0
11
-50.589194
21
-54.839808
31
0
70
32
71
5
72
1
41
1
210
0
220
0
230
1
3
Standard
100
AcDbAlignedDimension
13
35.64781
23
-13.589808
33
0
14
-124.024882
24
-14.4375
34
0
50
0
100
AcDbRotatedDimension
1001
ACAD
1000
DSTYLE
1002
{
1070
   279
1070
     0
1070
   172
1070
     1
1070
   173
1070
     1
1070
   340
1005
189
1070
    77
1070
     1
1070
    73
1070
     0
1070
   171
1070
     3
1070
   274
1070
     4
1070
   177
1070
     2
1070
   176
1070
     2
1070
   178
1070
     7
1070
    78
1070
     8
1070
    41
1041
3.175
1070
   147
1041
2.25
1070
    42
1041
2.0
1070
    44
1041
2.0
1070
   140
1041
4.5
1070
   343
1005
19A
1070
   344
1005
19A
1002
}
0
DIMENSION
5
1F5
100
AcDbEntity
8
2
62
256
6
ByLayer
370
13
48
1
60
0
100
AcDbDimension
2
DimnDraft3D7
10
35.415326
20
-11.822292
30
0
11
48.651296
21
19.803383
31
0
70
34
71
5
72
1
41
1
210
0
220
0
230
1
3
Standard
100
AcDb2LineAngularDimension
13
35.64781
23
-11.589808
33
0
14
35.64781
24
-10.796058
34
0
15
35.976592
25
-11.261026
35
0
16
46.92922
26
15.645925
36
0
40
0
0
ENDSEC
0
SECTION
2
OBJECTS
0
DICTIONARY
5
25f
330
0
100
AcDbDictionary
280
0
281
1
3
ACAD_GROUP
350
260
3
ACAD_MLINESTYLE
350
261
0
DICTIONARY
5
260
330
0
100
AcDbDictionary
280
0
281
1
0
DICTIONARY
5
261
330
0
100
AcDbDictionary
280
0
281
1
3
Standard
350
18
0
MLINESTYLE
5
18
330
261
100
AcDbMlineStyle
2
Standard
70
0
3

62
256
51
90
52
90
71
2
49
-0.5
62
256
6
ByLayer
49
0.5
62
256
6
ByLayer
0
RASTERVARIABLES
5
24e
330

100
AcDbRasterVariables
90
0
70
1
71
1
72
1
0
ENDSEC
0
EOF
