0
SECTION
2
HEADER
9
$ACADVER
1
AC1015
9
$DWGCODEPAGE
3
ANSI_1252
9
$HANDSEED
5
21c
9
$ANGBASE
50
0
9
$ANGDIR
70
0
9
$ATTMODE
70
1
9
$AUNITS
70
0
9
$AUPREC
70
0
9
$CECOLOR
62
256
9
$CELTSCALE
40
1
9
$CELTYPE
6
ByLayer
9
$CELWEIGHT
370
18
9
$CLAYER
8
0
9
$CMLJUST
70
0
9
$CMLSCALE
40
1
9
$CMLSTYLE
2
Standard
9
$DIMSTYLE
2
Standard
9
$TEXTSIZE
40
0.2
9
$TEXTSTYLE
7
Standard
9
$LUNITS
70
2
9
$LUPREC
70
4
9
$EXTNAMES
290
1
9
$INSUNITS
70
4
9
$LTSCALE
40
1
9
$LWDISPLAY
290
1
9
$PDMODE
70
0
9
$PDSIZE
40
0
9
$PLINEGEN
70
0
0
ENDSEC
0
SECTION
2
CLASSES
0
CLASS
1
RASTERVARIABLES
2
AcDbRasterVariables
3
ISM
90
0
280
0
281
0
0
ENDSEC
0
SECTION
2
TABLES
0
TABLE
2
VPORT
5
212
100
AcDbSymbolTable
0
VPORT
5
1
100
AcDbSymbolTableRecord
100
AcDbViewportTableRecord
2
*Active
70
0
10
0
20
0
11
1
21
1
12
-1
22
1
13
0
23
0
14
0.5
24
0.5
15
10
25
10
16
0
26
0
36
1
17
0
27
0
37
0
0
ENDTAB
0
TABLE
2
LTYPE
5
213
100
AcDbSymbolTable
0
LTYPE
5
14
100
AcDbSymbolTableRecord
100
AcDbLinetypeTableRecord
70
0
2
ByBlock
3

72
65
73
0
40
0
0
LTYPE
5
15
100
AcDbSymbolTableRecord
100
AcDbLinetypeTableRecord
70
0
2
ByLayer
3

72
65
73
0
40
0
0
LTYPE
5
16
100
AcDbSymbolTableRecord
100
AcDbLinetypeTableRecord
70
0
2
CONTINUOUS
3
Solid line
72
65
73
0
40
0
0
LTYPE
5
6A
100
AcDbSymbolTableRecord
100
AcDbLinetypeTableRecord
70
0
2
CENTER
3
____ _ ____ _ ____ _ ____
72
65
73
4
40
47.5
49
22
74
0
49
-8.5
74
0
49
8.5
74
0
49
-8.5
74
0
0
LTYPE
5
6B
100
AcDbSymbolTableRecord
100
AcDbLinetypeTableRecord
70
0
2
DASHED
3
__ __ __ __ __ __ __ __ __
72
65
73
2
40
25.72
49
12.86
74
0
49
-12.86
74
0
0
ENDTAB
0
TABLE
2
LAYER
5
214
100
AcDbSymbolTable
0
LAYER
5
10
100
AcDbSymbolTableRecord
100
AcDbLayerTableRecord
2
0
70
0
62
7
6
CONTINUOUS
290
1
370
-3
390
0
0
LAYER
5
6D
100
AcDbSymbolTableRecord
100
AcDbLayerTableRecord
2
2
70
0
62
7
6
CONTINUOUS
290
1
370
-3
390
0
0
LAYER
5
6F
100
AcDbSymbolTableRecord
100
AcDbLayerTableRecord
2
80
70
0
62
-6
6
CONTINUOUS
290
1
370
-3
390
0
0
LAYER
5
71
100
AcDbSymbolTableRecord
100
AcDbLayerTableRecord
2
81
70
0
62
-3
6
CONTINUOUS
290
1
370
-3
390
0
0
LAYER
5
73
100
AcDbSymbolTableRecord
100
AcDbLayerTableRecord
2
1
70
0
62
4
6
CONTINUOUS
290
1
370
-3
390
0
0
LAYER
5
1ff
100
AcDbSymbolTableRecord
100
AcDbLayerTableRecord
2
SK1
70
0
62
4
6
CONTINUOUS
290
1
370
-3
390
0
0
LAYER
5
200
100
AcDbSymbolTableRecord
100
AcDbLayerTableRecord
2
SK6
70
0
62
5
6
CONTINUOUS
290
1
370
-3
390
0
0
LAYER
5
201
100
AcDbSymbolTableRecord
100
AcDbLayerTableRecord
2
SK2
70
0
62
7
6
CONTINUOUS
290
1
370
-3
390
0
0
ENDTAB
0
TABLE
2
STYLE
5
215
100
AcDbSymbolTable
0
STYLE
5
11
100
AcDbSymbolTableRecord
100
AcDbTextStyleTableRecord
2
Standard
3
txt
70
0
71
0
40
0
41
1
42
0
50
0
0
STYLE
5
155
100
AcDbSymbolTableRecord
100
AcDbTextStyleTableRecord
2
iso_b_vert
3
simplex.shx
70
0
71
0
40
0
41
1
42
0
50
0
0
STYLE
5
156
100
AcDbSymbolTableRecord
100
AcDbTextStyleTableRecord
2
DWGDirectTextStyle
3
simplex
70
0
71
0
40
0
41
1
42
0
50
0
0
ENDTAB
0
TABLE
2
DIMSTYLE
5
216
100
AcDbSymbolTable
100
AcDbDimStyleTable
0
DIMSTYLE
105
27
100
AcDbSymbolTableRecord
100
AcDbDimStyleTableRecord
2
Standard
70
0
3
<>
41
0.18
42
0.0625
44
0.18
140
0.18
147
0.09
73
0
74
0
77
1
271
2
275
0
278
52
280
0
340
11
0
ENDTAB
0
TABLE
2
VIEW
5
217
100
AcDbSymbolTable
0
ENDTAB
0
TABLE
2
UCS
5
218
100
AcDbSymbolTable
0
ENDTAB
0
TABLE
2
APPID
5
219
100
AcDbSymbolTable
0
APPID
5
12
100
AcDbSymbolTableRecord
100
AcDbRegAppTableRecord
2
ACAD
70
0
0
ENDTAB
0
TABLE
2
BLOCK_RECORD
5
21a
100
AcDbSymbolTable
0
BLOCK_RECORD
5
1F
100
AcDbSymbolTableRecord
100
AcDbBlockTableRecord
2
*Model_Space
340
0
70
0
0
BLOCK_RECORD
5
1B
100
AcDbSymbolTableRecord
100
AcDbBlockTableRecord
2
*Paper_Space
340
0
70
0
0
BLOCK_RECORD
5
23
100
AcDbSymbolTableRecord
100
AcDbBlockTableRecord
2
*Paper_Space0
340
0
70
0
0
BLOCK_RECORD
5
158
100
AcDbSymbolTableRecord
100
AcDbBlockTableRecord
2
DimnDraft3D1
340
0
70
0
0
BLOCK_RECORD
5
166
100
AcDbSymbolTableRecord
100
AcDbBlockTableRecord
2
_CLOSED
340
0
70
0
0
BLOCK_RECORD
5
16D
100
AcDbSymbolTableRecord
100
AcDbBlockTableRecord
2
DimnDraft3D2
340
0
70
0
0
BLOCK_RECORD
5
17C
100
AcDbSymbolTableRecord
100
AcDbBlockTableRecord
2
DimnDraft3D3
340
0
70
0
0
BLOCK_RECORD
5
18A
100
AcDbSymbolTableRecord
100
AcDbBlockTableRecord
2
DimnDraft3D4
340
0
70
0
0
BLOCK_RECORD
5
198
100
AcDbSymbolTableRecord
100
AcDbBlockTableRecord
2
DimnDraft3D5
340
0
70
0
0
ENDTAB
0
ENDSEC
0
SECTION
2
BLOCKS
0
BLOCK
5
20
100
AcDbEntity
8
0
100
AcDbBlockBegin
2
*Model_Space
70
0
10
0
20
0
30
0
3
*Model_Space
0
ENDBLK
5
21
100
AcDbEntity
8
0
100
AcDbBlockEnd
0
BLOCK
5
1C
100
AcDbEntity
8
0
100
AcDbBlockBegin
2
*Paper_Space
70
0
10
0
20
0
30
0
3
*Paper_Space
0
ENDBLK
5
1D
100
AcDbEntity
8
0
100
AcDbBlockEnd
0
BLOCK
5
24
100
AcDbEntity
8
0
100
AcDbBlockBegin
2
*Paper_Space0
70
0
10
0
20
0
30
0
3
*Paper_Space0
0
ENDBLK
5
25
100
AcDbEntity
8
0
100
AcDbBlockEnd
0
BLOCK
5
163
100
AcDbEntity
8
0
100
AcDbBlockBegin
2
DimnDraft3D1
70
0
10
0
20
0
30
0
3
DimnDraft3D1
0
MTEXT
5
159
100
AcDbEntity
8
2
62
256
6
ByLayer
370
18
48
1
60
0
100
AcDbMText
10
40.855101
20
34.165889
30
0
210
0
220
0
230
1
1
\W0.7399;75%%d
40
4.5
41
0
44
1.084337
50
37.5
71
7
72
5
7
iso_b_vert
0
LINE
5
15A
100
AcDbEntity
8
2
62
256
6
ByLayer
370
13
48
1
60
0
100
AcDbLine
10
56.612928
20
20.425
30
0
11
56.612928
21
41.380844
31
0
39
0
210
0
220
0
230
1
0
LINE
5
15B
100
AcDbEntity
8
2
62
256
6
ByLayer
370
13
48
1
60
0
100
AcDbLine
10
51.250025
20
19.861986
30
0
11
34.439286
21
24.36641
31
0
39
0
210
0
220
0
230
1
0
ARC
5
15C
100
AcDbEntity
8
2
62
256
6
ByLayer
370
13
48
1
60
0
100
AcDbCircle
39
0
10
56.612928
20
18.425
30
0
40
20.9558441220057
210
0
220
0
230
1
100
AcDbArc
50
90
51
165
0
LINE
5
15D
100
AcDbEntity
8
2
62
256
6
ByLayer
370
13
48
1
60
0
100
AcDbLine
10
56.612928
20
39.380844
30
0
11
53.455997
21
38.843144
31
0
39
0
210
0
220
0
230
1
0
LINE
5
15E
100
AcDbEntity
8
2
62
256
6
ByLayer
370
13
48
1
60
0
100
AcDbLine
10
56.612928
20
39.380844
30
0
11
53.424397
21
39.67854
31
0
39
0
210
0
220
0
230
1
0
LINE
5
15F
100
AcDbEntity
8
2
62
256
6
ByLayer
370
13
48
1
60
0
100
AcDbLine
10
53.455997
20
38.843144
30
0
11
53.424397
21
39.67854
31
0
39
0
210
0
220
0
230
1
0
LINE
5
160
100
AcDbEntity
8
2
62
256
6
ByLayer
370
13
48
1
60
0
100
AcDbLine
10
36.371137
20
23.848772
30
0
11
36.908837
21
27.005703
31
0
39
0
210
0
220
0
230
1
0
LINE
5
161
100
AcDbEntity
8
2
62
256
6
ByLayer
370
13
48
1
60
0
100
AcDbLine
10
36.371137
20
23.848772
30
0
11
37.707591
21
26.758969
31
0
39
0
210
0
220
0
230
1
0
LINE
5
162
100
AcDbEntity
8
2
62
256
6
ByLayer
370
13
48
1
60
0
100
AcDbLine
10
36.908837
20
27.005703
30
0
11
37.707591
21
26.758969
31
0
39
0
210
0
220
0
230
1
0
ENDBLK
5
164
100
AcDbEntity
8
0
100
AcDbBlockEnd
0
BLOCK
5
167
100
AcDbEntity
8
0
100
AcDbBlockBegin
2
_CLOSED
70
0
10
0
20
0
30
0
3
_CLOSED
0
LINE
5
169
100
AcDbEntity
8
0
62
256
6
ByLayer
370
-2
48
1
60
0
100
AcDbLine
10
-1
20
0.166667
30
0
11
0
21
0
31
0
39
0
210
0
220
0
230
1
0
LINE
5
16A
100
AcDbEntity
8
0
62
256
6
ByLayer
370
-2
48
1
60
0
100
AcDbLine
10
0
20
0
30
0
11
-1
21
-0.166667
31
0
39
0
210
0
220
0
230
1
0
LINE
5
16B
100
AcDbEntity
8
0
62
256
6
ByLayer
370
-2
48
1
60
0
100
AcDbLine
10
-1
20
0.166667
30
0
11
-1
21
-0.166667
31
0
39
0
210
0
220
0
230
1
0
LINE
5
16C
100
AcDbEntity
8
0
62
256
6
ByLayer
370
-2
48
1
60
0
100
AcDbLine
10
0
20
0
30
0
11
-1
21
0
31
0
39
0
210
0
220
0
230
1
0
ENDBLK
5
168
100
AcDbEntity
8
0
100
AcDbBlockEnd
0
BLOCK
5
179
100
AcDbEntity
8
0
100
AcDbBlockBegin
2
DimnDraft3D2
70
0
10
0
20
0
30
0
3
DimnDraft3D2
0
MTEXT
5
16E
100
AcDbEntity
8
SK2
62
256
6
ByLayer
370
18
48
1
60
0
100
AcDbMText
10
-253.612072
20
-4.156579
30
0
210
0
220
0
230
1
1
\W0.7346;50.0
40
4.5
41
0
44
1.084337
50
90
71
7
72
5
7
iso_b_vert
0
LINE
5
170
100
AcDbEntity
8
SK2
62
256
6
ByLayer
370
13
48
1
60
0
100
AcDbLine
10
-246.737072
20
-24.925
30
0
11
-254.487072
21
-24.925
31
0
39
0
210
0
220
0
230
1
0
LINE
5
171
100
AcDbEntity
8
SK2
62
256
6
ByLayer
370
13
48
1
60
0
100
AcDbLine
10
-246.737072
20
24.925
30
0
11
-254.487072
21
24.925
31
0
39
0
210
0
220
0
230
1
0
LINE
5
172
100
AcDbEntity
8
SK2
62
256
6
ByLayer
370
13
48
1
60
0
100
AcDbLine
10
-252.487072
20
-24.925
30
0
11
-252.487072
21
24.925
31
0
39
0
210
0
220
0
230
1
0
LINE
5
173
100
AcDbEntity
8
SK2
62
256
6
ByLayer
370
13
48
1
60
0
100
AcDbLine
10
-252.487072
20
-24.925
30
0
11
-252.905068
21
-21.750002
31
0
39
0
210
0
220
0
230
1
0
LINE
5
174
100
AcDbEntity
8
SK2
62
256
6
ByLayer
370
13
48
1
60
0
100
AcDbLine
10
-252.487072
20
-24.925
30
0
11
-252.069075
21
-21.749998
31
0
39
0
210
0
220
0
230
1
0
LINE
5
175
100
AcDbEntity
8
SK2
62
256
6
ByLayer
370
13
48
1
60
0
100
AcDbLine
10
-252.905068
20
-21.750002
30
0
11
-252.069075
21
-21.749998
31
0
39
0
210
0
220
0
230
1
0
LINE
5
176
100
AcDbEntity
8
SK2
62
256
6
ByLayer
370
13
48
1
60
0
100
AcDbLine
10
-252.487072
20
24.925
30
0
11
-252.069075
21
21.750002
31
0
39
0
210
0
220
0
230
1
0
LINE
5
177
100
AcDbEntity
8
SK2
62
256
6
ByLayer
370
13
48
1
60
0
100
AcDbLine
10
-252.487072
20
24.925
30
0
11
-252.905068
21
21.749998
31
0
39
0
210
0
220
0
230
1
0
LINE
5
178
100
AcDbEntity
8
SK2
62
256
6
ByLayer
370
13
48
1
60
0
100
AcDbLine
10
-252.069075
20
21.750002
30
0
11
-252.905068
21
21.749998
31
0
39
0
210
0
220
0
230
1
0
ENDBLK
5
17A
100
AcDbEntity
8
0
100
AcDbBlockEnd
0
BLOCK
5
187
100
AcDbEntity
8
0
100
AcDbBlockBegin
2
DimnDraft3D3
70
0
10
0
20
0
30
0
3
DimnDraft3D3
0
MTEXT
5
17D
100
AcDbEntity
8
2
62
256
6
ByLayer
370
18
48
1
60
0
100
AcDbMText
10
77.737928
20
-7.643421
30
0
210
0
220
0
230
1
1
\W0.7640;43.0
40
4.5
41
0
44
1.084337
50
90
71
7
72
5
7
iso_b_vert
0
LINE
5
17E
100
AcDbEntity
8
2
62
256
6
ByLayer
370
13
48
1
60
0
100
AcDbLine
10
2
20
-24.925
30
0
11
80.862928
21
-24.925
31
0
39
0
210
0
220
0
230
1
0
LINE
5
17F
100
AcDbEntity
8
2
62
256
6
ByLayer
370
13
48
1
60
0
100
AcDbLine
10
58.612928
20
18.425
30
0
11
80.862928
21
18.425
31
0
39
0
210
0
220
0
230
1
0
LINE
5
180
100
AcDbEntity
8
2
62
256
6
ByLayer
370
13
48
1
60
0
100
AcDbLine
10
78.862928
20
-24.925
30
0
11
78.862928
21
18.425
31
0
39
0
210
0
220
0
230
1
0
LINE
5
181
100
AcDbEntity
8
2
62
256
6
ByLayer
370
13
48
1
60
0
100
AcDbLine
10
78.862928
20
-24.925
30
0
11
78.444932
21
-21.750002
31
0
39
0
210
0
220
0
230
1
0
LINE
5
182
100
AcDbEntity
8
2
62
256
6
ByLayer
370
13
48
1
60
0
100
AcDbLine
10
78.862928
20
-24.925
30
0
11
79.280925
21
-21.749998
31
0
39
0
210
0
220
0
230
1
0
LINE
5
183
100
AcDbEntity
8
2
62
256
6
ByLayer
370
13
48
1
60
0
100
AcDbLine
10
78.444932
20
-21.750002
30
0
11
79.280925
21
-21.749998
31
0
39
0
210
0
220
0
230
1
0
LINE
5
184
100
AcDbEntity
8
2
62
256
6
ByLayer
370
13
48
1
60
0
100
AcDbLine
10
78.862928
20
18.425
30
0
11
79.280925
21
15.250002
31
0
39
0
210
0
220
0
230
1
0
LINE
5
185
100
AcDbEntity
8
2
62
256
6
ByLayer
370
13
48
1
60
0
100
AcDbLine
10
78.862928
20
18.425
30
0
11
78.444932
21
15.249998
31
0
39
0
210
0
220
0
230
1
0
LINE
5
186
100
AcDbEntity
8
2
62
256
6
ByLayer
370
13
48
1
60
0
100
AcDbLine
10
79.280925
20
15.250002
30
0
11
78.444932
21
15.249998
31
0
39
0
210
0
220
0
230
1
0
ENDBLK
5
188
100
AcDbEntity
8
0
100
AcDbBlockEnd
0
BLOCK
5
195
100
AcDbEntity
8
0
100
AcDbBlockBegin
2
DimnDraft3D4
70
0
10
0
20
0
30
0
3
DimnDraft3D4
0
MTEXT
5
18B
100
AcDbEntity
8
2
62
256
6
ByLayer
370
18
48
1
60
0
100
AcDbMText
10
24.149885
20
49.3
30
0
210
0
220
0
230
1
1
\W0.7346;56.6
40
4.5
41
0
44
1.084337
50
0
71
7
72
5
7
iso_b_vert
0
LINE
5
18C
100
AcDbEntity
8
2
62
256
6
ByLayer
370
13
48
1
60
0
100
AcDbLine
10
0
20
26.925
30
0
11
0
21
50.175
31
0
39
0
210
0
220
0
230
1
0
LINE
5
18D
100
AcDbEntity
8
2
62
256
6
ByLayer
370
13
48
1
60
0
100
AcDbLine
10
56.612928
20
20.425
30
0
11
56.612928
21
50.175
31
0
39
0
210
0
220
0
230
1
0
LINE
5
18E
100
AcDbEntity
8
2
62
256
6
ByLayer
370
13
48
1
60
0
100
AcDbLine
10
0
20
48.175
30
0
11
56.612928
21
48.175
31
0
39
0
210
0
220
0
230
1
0
LINE
5
18F
100
AcDbEntity
8
2
62
256
6
ByLayer
370
13
48
1
60
0
100
AcDbLine
10
0
20
48.175
30
0
11
3.174998
21
48.592997
31
0
39
0
210
0
220
0
230
1
0
LINE
5
190
100
AcDbEntity
8
2
62
256
6
ByLayer
370
13
48
1
60
0
100
AcDbLine
10
0
20
48.175
30
0
11
3.175002
21
47.757003
31
0
39
0
210
0
220
0
230
1
0
LINE
5
191
100
AcDbEntity
8
2
62
256
6
ByLayer
370
13
48
1
60
0
100
AcDbLine
10
3.174998
20
48.592997
30
0
11
3.175002
21
47.757003
31
0
39
0
210
0
220
0
230
1
0
LINE
5
192
100
AcDbEntity
8
2
62
256
6
ByLayer
370
13
48
1
60
0
100
AcDbLine
10
56.612928
20
48.175
30
0
11
53.43793
21
47.757003
31
0
39
0
210
0
220
0
230
1
0
LINE
5
193
100
AcDbEntity
8
2
62
256
6
ByLayer
370
13
48
1
60
0
100
AcDbLine
10
56.612928
20
48.175
30
0
11
53.437927
21
48.592997
31
0
39
0
210
0
220
0
230
1
0
LINE
5
194
100
AcDbEntity
8
2
62
256
6
ByLayer
370
13
48
1
60
0
100
AcDbLine
10
53.43793
20
47.757003
30
0
11
53.437927
21
48.592997
31
0
39
0
210
0
220
0
230
1
0
ENDBLK
5
196
100
AcDbEntity
8
0
100
AcDbBlockEnd
0
BLOCK
5
1A3
100
AcDbEntity
8
0
100
AcDbBlockBegin
2
DimnDraft3D5
70
0
10
0
20
0
30
0
3
DimnDraft3D5
0
MTEXT
5
199
100
AcDbEntity
8
SK2
62
256
6
ByLayer
370
18
48
1
60
0
100
AcDbMText
10
-99.90023
20
59.3
30
0
210
0
220
0
230
1
1
\W0.7468;300.0
40
4.5
41
0
44
1.084337
50
0
71
7
72
5
7
iso_b_vert
0
LINE
5
19A
100
AcDbEntity
8
SK2
62
256
6
ByLayer
370
13
48
1
60
0
100
AcDbLine
10
56.612928
20
20.425
30
0
11
56.612928
21
60.175
31
0
39
0
210
0
220
0
230
1
0
LINE
5
19B
100
AcDbEntity
8
SK2
62
256
6
ByLayer
370
13
48
1
60
0
100
AcDbLine
10
-244.737072
20
26.925
30
0
11
-244.737072
21
60.175
31
0
39
0
210
0
220
0
230
1
0
LINE
5
19C
100
AcDbEntity
8
SK2
62
256
6
ByLayer
370
13
48
1
60
0
100
AcDbLine
10
56.612928
20
58.175
30
0
11
-244.737072
21
58.175
31
0
39
0
210
0
220
0
230
1
0
LINE
5
19D
100
AcDbEntity
8
SK2
62
256
6
ByLayer
370
13
48
1
60
0
100
AcDbLine
10
56.612928
20
58.175
30
0
11
53.43793
21
57.757003
31
0
39
0
210
0
220
0
230
1
0
LINE
5
19E
100
AcDbEntity
8
SK2
62
256
6
ByLayer
370
13
48
1
60
0
100
AcDbLine
10
56.612928
20
58.175
30
0
11
53.437927
21
58.592997
31
0
39
0
210
0
220
0
230
1
0
LINE
5
19F
100
AcDbEntity
8
SK2
62
256
6
ByLayer
370
13
48
1
60
0
100
AcDbLine
10
53.43793
20
57.757003
30
0
11
53.437927
21
58.592997
31
0
39
0
210
0
220
0
230
1
0
LINE
5
1A0
100
AcDbEntity
8
SK2
62
256
6
ByLayer
370
13
48
1
60
0
100
AcDbLine
10
-244.737072
20
58.175
30
0
11
-241.562073
21
58.592997
31
0
39
0
210
0
220
0
230
1
0
LINE
5
1A1
100
AcDbEntity
8
SK2
62
256
6
ByLayer
370
13
48
1
60
0
100
AcDbLine
10
-244.737072
20
58.175
30
0
11
-241.56207
21
57.757003
31
0
39
0
210
0
220
0
230
1
0
LINE
5
1A2
100
AcDbEntity
8
SK2
62
256
6
ByLayer
370
13
48
1
60
0
100
AcDbLine
10
-241.562073
20
58.592997
30
0
11
-241.56207
21
57.757003
31
0
39
0
210
0
220
0
230
1
0
ENDBLK
5
1A4
100
AcDbEntity
8
0
100
AcDbBlockEnd
0
ENDSEC
0
SECTION
2
ENTITIES
0
ELLIPSE
5
DB
100
AcDbEntity
8
1
62
256
6
ByLayer
370
18
48
1
60
0
100
AcDbEllipse
10
21.062968
20
6.046795
30
0
11
0.850000000000041
21
-1.47224318643352
31
0
210
0
220
0
230
1
40
0.989133
41
3.10434452892789
42
-0.713083537140161
0
ELLIPSE
5
DC
100
AcDbEntity
8
1
62
256
6
ByLayer
370
18
48
1
60
0
100
AcDbEllipse
10
21.062968
20
6.046795
30
0
11
0.850000000000041
21
-1.47224318643352
31
0
210
0
220
0
230
1
40
0.989133
41
0.0372665531652418
42
3.10434452892789
0
ELLIPSE
5
DD
100
AcDbEntity
8
1
62
256
6
ByLayer
370
18
48
1
60
0
100
AcDbEllipse
10
41.790663
20
9.319852
30
0
11
2.28000000000011
21
-3.94907584125698
31
0
210
0
220
0
230
1
40
0.989133
41
-0.164635455045698
42
-3.93831707631802E-16
0
ELLIPSE
5
DE
100
AcDbEntity
8
1
62
256
6
ByLayer
370
18
48
1
60
0
100
AcDbEllipse
10
41.790663
20
9.319852
30
0
11
2.28000000000011
21
-3.94907584125698
31
0
210
0
220
0
230
1
40
0.989133
41
0
42
2.61901194181615
0
ELLIPSE
5
DF
100
AcDbEntity
8
1
62
256
6
ByLayer
370
18
48
1
60
0
100
AcDbEllipse
10
40.779687
20
8.736165
30
0
11
2.28000000000011
21
-3.94907584125698
31
0
210
0
220
0
230
1
40
0.989133
41
0.56067194113132
42
-2.1086018370556
0
ELLIPSE
5
E0
100
AcDbEntity
8
1
62
256
6
ByLayer
370
18
48
1
60
0
100
AcDbEllipse
10
40.779687
20
8.736165
30
0
11
2.28000000000011
21
-3.94907584125698
31
0
210
0
220
0
230
1
40
0.989133
41
0.129782791638461
42
0.560671941131322
0
ELLIPSE
5
E1
100
AcDbEntity
8
1
62
256
6
ByLayer
370
18
48
1
60
0
100
AcDbEllipse
10
40.450296
20
8.545436
30
0
11
-2.3749999999999
21
4.1136206679752
31
0
210
0
220
0
230
1
40
0.989133
41
-2.58828394990405
42
-2.53281510826822
0
ELLIPSE
5
E2
100
AcDbEntity
8
1
62
256
6
ByLayer
370
18
48
1
60
0
100
AcDbEllipse
10
12.432698
20
12.077769
30
0
11
1.63977731264005
21
-3.09210775442108
31
0
210
0
220
0
230
1
40
0.986566
41
-0.308039714168692
42
-0.119484579459268
0
ELLIPSE
5
E3
100
AcDbEntity
8
1
62
256
6
ByLayer
370
18
48
1
60
0
100
AcDbEllipse
10
19.705139
20
5.760741
30
0
11
2.88132299221037
21
-5.43327505419704
31
0
210
0
220
0
230
1
40
0.986566
41
2.83355293942111
42
2.99468249522356
0
ELLIPSE
5
E4
100
AcDbEntity
8
1
62
256
6
ByLayer
370
18
48
1
60
0
100
AcDbEllipse
10
21.990779
20
6.166352
30
0
11
-2.88132299221035
21
5.43327505419706
31
0
210
0
220
0
230
1
40
0.986566
41
3.0606803097087
42
-0.308039714168691
0
ELLIPSE
5
E5
100
AcDbEntity
8
1
62
256
6
ByLayer
370
18
48
1
60
0
100
AcDbEllipse
10
20.6074
20
4.50632
30
0
11
-0.285000000000037
21
0.493634480157109
31
0
210
0
220
0
230
1
40
0.989133
41
-2.83017860624592
42
-2.72437453597907
0
ELLIPSE
5
E6
100
AcDbEntity
8
1
62
256
6
ByLayer
370
18
48
1
60
0
100
AcDbEllipse
10
21.60464
20
3.773071
30
0
11
0.335000000000016
21
-0.580237020535565
31
0
210
0
220
0
230
1
40
0.989133
41
3.14157219788775
42
-2.72437453597908
0
ELLIPSE
5
E7
100
AcDbEntity
8
1
62
256
6
ByLayer
370
18
48
1
60
0
100
AcDbEllipse
10
20.06777
20
7.414856
30
0
11
-0.285000000000037
21
0.493634480157109
31
0
210
0
220
0
230
1
40
0.989133
41
-1.10442340136533
42
-0.311414179955494
0
ELLIPSE
5
E8
100
AcDbEntity
8
1
62
256
6
ByLayer
370
18
48
1
60
0
100
AcDbEllipse
10
22.274621
20
4.803706
30
0
11
-0.285000000000037
21
0.493634480157109
31
0
210
0
220
0
230
1
40
0.989133
41
-2.83018468234516
42
-1.67717698478241
0
ELLIPSE
5
E9
100
AcDbEntity
8
1
62
256
6
ByLayer
370
18
48
1
60
0
100
AcDbEllipse
10
20.737751
20
8.445491
30
0
11
0.335000000000016
21
-0.580237020535565
31
0
210
0
220
0
230
1
40
0.989133
41
-1.10442340136546
42
-2.04977137962045E-05
0
ELLIPSE
5
EA
100
AcDbEntity
8
1
62
256
6
ByLayer
370
18
48
1
60
0
100
AcDbEllipse
10
23.39665
20
5.299478
30
0
11
0.335000000000016
21
-0.580237020535565
31
0
210
0
220
0
230
1
40
0.989133
41
-3.14159004541581
42
-1.67717698478247
0
ELLIPSE
5
EB
100
AcDbEntity
8
1
62
256
6
ByLayer
370
18
48
1
60
0
100
AcDbEllipse
10
21.734991
20
7.712242
30
0
11
-0.285000000000037
21
0.493634480157109
31
0
210
0
220
0
230
1
40
0.989133
41
-2.15162095256199
42
-0.311448866188276
0
ELLIPSE
5
EC
100
AcDbEntity
8
1
62
256
6
ByLayer
370
18
48
1
60
0
100
AcDbEllipse
10
22.838417
20
6.406667
30
0
11
-0.285000000000037
21
0.493634480157109
31
0
210
0
220
0
230
1
40
0.989133
41
-3.05717161526502
42
-0.629979433585894
0
ELLIPSE
5
ED
100
AcDbEntity
8
1
62
256
6
ByLayer
370
18
48
1
60
0
100
AcDbEllipse
10
20.961106
20
5.987986
30
0
11
3.00000000000014
21
-5.19615242270655
31
0
210
0
220
0
230
1
40
0.989133
41
3.14155259839779
42
-0.528343043247706
0
ELLIPSE
5
EE
100
AcDbEntity
8
1
62
256
6
ByLayer
370
18
48
1
60
0
100
AcDbEllipse
10
20.961106
20
5.987986
30
0
11
3.00000000000014
21
-5.19615242270655
31
0
210
0
220
0
230
1
40
0.989133
41
-0.528343043247694
42
-2.99312097800169E-16
0
ELLIPSE
5
EF
100
AcDbEntity
8
1
62
256
6
ByLayer
370
18
48
1
60
0
100
AcDbEllipse
10
21.171196
20
6.109281
30
0
11
0.850000000000041
21
-1.47224318643352
31
0
210
0
220
0
230
1
40
0.989133
41
-1.04187066892481
42
-0.528342865337053
0
ELLIPSE
5
F0
100
AcDbEntity
8
1
62
256
6
ByLayer
370
18
48
1
60
0
100
AcDbEllipse
10
21.171196
20
6.109281
30
0
11
0.850000000000041
21
-1.47224318643352
31
0
210
0
220
0
230
1
40
0.989133
41
-2.3090123691061
42
-1.68825332658119
0
ELLIPSE
5
F1
100
AcDbEntity
8
1
62
256
6
ByLayer
370
18
48
1
60
0
100
AcDbEllipse
10
21.171196
20
6.109281
30
0
11
0.850000000000041
21
-1.47224318643352
31
0
210
0
220
0
230
1
40
0.989133
41
-0.0371499987124702
42
0
0
ELLIPSE
5
F2
100
AcDbEntity
8
1
62
256
6
ByLayer
370
18
48
1
60
0
100
AcDbEllipse
10
21.171196
20
6.109281
30
0
11
0.850000000000041
21
-1.47224318643352
31
0
210
0
220
0
230
1
40
0.989133
41
0
42
-2.81068570324657
0
ELLIPSE
5
F3
100
AcDbEntity
8
1
62
256
6
ByLayer
370
18
48
1
60
0
100
AcDbEllipse
10
21.171196
20
6.109281
30
0
11
0.850000000000041
21
-1.47224318643352
31
0
210
0
220
0
230
1
40
0.989133
41
-0.528342865337044
42
-0.393622310492953
0
ELLIPSE
5
F4
100
AcDbEntity
8
1
62
256
6
ByLayer
370
18
48
1
60
0
100
AcDbEllipse
10
49.155483
20
-3.278672
30
0
11
-1.19050000000015
21
2.06200648641066
31
0
210
0
220
0
230
1
40
0.989133
41
2.36165769871387
42
-2.35073128167082
0
ELLIPSE
5
F5
100
AcDbEntity
8
1
62
256
6
ByLayer
370
18
48
1
60
0
100
AcDbEllipse
10
54.251415
20
16.60613
30
0
11
-1.19050000000015
21
2.06200648641066
31
0
210
0
220
0
230
1
40
0.989133
41
-2.35073128167082
42
-0.779934954875876
0
ELLIPSE
5
F6
100
AcDbEntity
8
1
62
256
6
ByLayer
370
18
48
1
60
0
100
AcDbEllipse
10
34.425843
20
21.918376
30
0
11
-1.19050000000015
21
2.06200648641066
31
0
210
0
220
0
230
1
40
0.989133
41
-0.779934954875906
42
0.790861371918971
0
ELLIPSE
5
F7
100
AcDbEntity
8
1
62
256
6
ByLayer
370
18
48
1
60
0
100
AcDbEllipse
10
19.803193
20
5.984649
30
0
11
-0.285000000000037
21
0.493634480157109
31
0
210
0
220
0
230
1
40
0.989133
41
-0.0572258501688109
42
2.51161322000388
0
ELLIPSE
5
F8
100
AcDbEntity
8
1
62
256
6
ByLayer
370
18
48
1
60
0
100
AcDbEllipse
10
20.366988
20
7.58761
30
0
11
-0.285000000000037
21
0.493634480157109
31
0
210
0
220
0
230
1
40
0.989133
41
-1.10442340136539
42
1.46441566880738
0
ELLIPSE
5
F9
100
AcDbEntity
8
1
62
256
6
ByLayer
370
18
48
1
60
0
100
AcDbEllipse
10
22.03421
20
7.884995
30
0
11
-0.285000000000037
21
0.493634480157109
31
0
210
0
220
0
230
1
40
0.989133
41
-2.15162095256204
42
0.41721811761081
0
ELLIPSE
5
FA
100
AcDbEntity
8
1
62
256
6
ByLayer
370
18
48
1
60
0
100
AcDbEllipse
10
21.470414
20
6.282035
30
0
11
-1.75000000000023
21
3.03108891324541
31
0
210
0
220
0
230
1
40
0.989133
41
0
42
6.28318530717959
0
ELLIPSE
5
FB
100
AcDbEntity
8
1
62
256
6
ByLayer
370
18
48
1
60
0
100
AcDbEllipse
10
19.678404
20
4.755628
30
0
11
0.335000000000016
21
-0.580237020535565
31
0
210
0
220
0
230
1
40
0.989133
41
1.79714221536779
42
2.51161322000403
0
ELLIPSE
5
FC
100
AcDbEntity
8
1
62
256
6
ByLayer
370
18
48
1
60
0
100
AcDbEllipse
10
23.695868
20
5.472232
30
0
11
0.335000000000016
21
-0.580237020535565
31
0
210
0
220
0
230
1
40
0.989133
41
-2.39164798941857
42
-1.67717698478247
0
ELLIPSE
5
FD
100
AcDbEntity
8
1
62
256
6
ByLayer
370
18
48
1
60
0
100
AcDbEllipse
10
21.279423
20
6.171766
30
0
11
-2.98012977593662
21
5.16173618507019
31
0
210
0
220
0
230
1
40
0.989133
41
0
42
6.28318530717959
0
ELLIPSE
5
FE
100
AcDbEntity
8
1
62
256
6
ByLayer
370
18
48
1
60
0
100
AcDbEllipse
10
21.036969
20
8.618244
30
0
11
0.335000000000016
21
-0.580237020535565
31
0
210
0
220
0
230
1
40
0.989133
41
-1.10442340136539
42
-0.389952396729145
0
ELLIPSE
5
FF
100
AcDbEntity
8
1
62
256
6
ByLayer
370
18
48
1
60
0
100
AcDbEllipse
10
19.24496
20
7.091838
30
0
11
0.335000000000016
21
-0.580237020535565
31
0
210
0
220
0
230
1
40
0.989133
41
-0.0572258501687997
42
0.657245154467566
0
ELLIPSE
5
100
100
AcDbEntity
8
1
62
256
6
ByLayer
370
18
48
1
60
0
100
AcDbEllipse
10
19.678404
20
4.755628
30
0
11
0.335000000000016
21
-0.580237020535565
31
0
210
0
220
0
230
1
40
0.989133
41
0.989971701027773
42
1.70444270566395
0
ELLIPSE
5
101
100
AcDbEntity
8
1
62
256
6
ByLayer
370
18
48
1
60
0
100
AcDbEllipse
10
19.24496
20
7.091838
30
0
11
0.335000000000016
21
-0.580237020535565
31
0
210
0
220
0
230
1
40
0.989133
41
0.749944664170993
42
1.46441566880734
0
ELLIPSE
5
102
100
AcDbEntity
8
1
62
256
6
ByLayer
370
18
48
1
60
0
100
AcDbEllipse
10
22.963205
20
7.635687
30
0
11
0.335000000000016
21
-0.580237020535565
31
0
210
0
220
0
230
1
40
0.989133
41
-2.15162095256203
42
-0.629979433585798
0
ELLIPSE
5
103
100
AcDbEntity
8
1
62
256
6
ByLayer
370
18
48
1
60
0
100
AcDbEllipse
10
23.137635
20
6.57942
30
0
11
-0.285000000000037
21
0.493634480157109
31
0
210
0
220
0
230
1
40
0.989133
41
3.08436680342098
42
-0.629979433585967
0
ELLIPSE
5
104
100
AcDbEntity
8
1
62
256
6
ByLayer
370
18
48
1
60
0
100
AcDbEllipse
10
23.695868
20
5.472232
30
0
11
0.335000000000016
21
-0.580237020535565
31
0
210
0
220
0
230
1
40
0.989133
41
3.08436680342095
42
-2.48434749912252
0
ELLIPSE
5
105
100
AcDbEntity
8
1
62
256
6
ByLayer
370
18
48
1
60
0
100
AcDbEllipse
10
21.903859
20
3.945825
30
0
11
0.335000000000016
21
-0.580237020535565
31
0
210
0
220
0
230
1
40
0.989133
41
2.84433976656433
42
-2.72437453597907
0
ELLIPSE
5
106
100
AcDbEntity
8
1
62
256
6
ByLayer
370
18
48
1
60
0
100
AcDbEllipse
10
21.036969
20
8.618244
30
0
11
0.335000000000016
21
-0.580237020535565
31
0
210
0
220
0
230
1
40
0.989133
41
-0.297252887025549
42
0.417218117610759
0
ELLIPSE
5
107
100
AcDbEntity
8
1
62
256
6
ByLayer
370
18
48
1
60
0
100
AcDbEllipse
10
23.262424
20
7.808441
30
0
11
0.335000000000016
21
-0.580237020535565
31
0
210
0
220
0
230
1
40
0.989133
41
-1.34445043822215
42
-0.629979433585888
0
ELLIPSE
5
108
100
AcDbEntity
8
1
62
256
6
ByLayer
370
18
48
1
60
0
100
AcDbEllipse
10
21.903859
20
3.945825
30
0
11
0.335000000000016
21
-0.580237020535565
31
0
210
0
220
0
230
1
40
0.989133
41
2.03716925222437
42
2.75164025686055
0
ELLIPSE
5
109
100
AcDbEntity
8
1
62
256
6
ByLayer
370
18
48
1
60
0
100
AcDbEllipse
10
20.906618
20
4.679074
30
0
11
-0.285000000000037
21
0.493634480157109
31
0
210
0
220
0
230
1
40
0.989133
41
0.989971701027835
42
-2.724374535979
0
ELLIPSE
5
10A
100
AcDbEntity
8
1
62
256
6
ByLayer
370
18
48
1
60
0
100
AcDbEllipse
10
23.262424
20
7.808441
30
0
11
0.335000000000016
21
-0.580237020535565
31
0
210
0
220
0
230
1
40
0.989133
41
-2.15162095256203
42
-1.43714994792577
0
ELLIPSE
5
10B
100
AcDbEntity
8
1
62
256
6
ByLayer
370
18
48
1
60
0
100
AcDbEllipse
10
21.279423
20
6.171766
30
0
11
-3.00000000000039
21
5.19615242270641
31
0
210
0
220
0
230
1
40
0.989133
41
0
42
6.28318530717959
0
ELLIPSE
5
10C
100
AcDbEntity
8
1
62
256
6
ByLayer
370
18
48
1
60
0
100
AcDbEllipse
10
22.57384
20
4.97646
30
0
11
-0.285000000000037
21
0.493634480157109
31
0
210
0
220
0
230
1
40
0.989133
41
2.03716925222436
42
-1.67717698478239
0
ELLIPSE
5
10D
100
AcDbEntity
8
1
62
256
6
ByLayer
370
18
48
1
60
0
100
AcDbEllipse
10
2.982675
20
7.579722
30
0
11
-2.84094424283431
21
-3.55255091086839
31
0
210
0
220
0
230
1
40
0.672481
41
2.61504111032444
42
2.72638109169083
0
ELLIPSE
5
10E
100
AcDbEntity
8
1
62
256
6
ByLayer
370
18
48
1
60
0
100
AcDbEllipse
10
10.033552
20
10.287327
30
0
11
-2.73831352644556
21
2.18980561050642
31
0
210
0
220
0
230
1
40
0.993026
41
-0.505272191165186
42
0.743195892142113
0
ELLIPSE
5
10F
100
AcDbEntity
8
1
62
256
6
ByLayer
370
18
48
1
60
0
100
AcDbEllipse
10
12.493202
20
-2.969861
30
0
11
-2.73831352645467
21
2.18980561049398
31
0
210
0
220
0
230
1
40
0.993026
41
0.96587585672944
42
2.21434394003701
0
ELLIPSE
5
110
100
AcDbEntity
8
1
62
256
6
ByLayer
370
18
48
1
60
0
100
AcDbEllipse
10
17.90026
20
-3.474527
30
0
11
-5.81219038699498
21
-1.54302784733374
31
0
210
0
220
0
230
1
40
0.470683
41
-0.751363119223602
42
-0.320999860029925
0
ELLIPSE
5
111
100
AcDbEntity
8
1
62
256
6
ByLayer
370
18
48
1
60
0
100
AcDbEllipse
10
10.630373
20
10.585551
30
0
11
-0.26823589281648
21
-0.963353261168999
31
0
210
0
220
0
230
1
40
0.726272
41
-2.61815363012354
42
-1.26347505966849
0
ELLIPSE
5
112
100
AcDbEntity
8
1
62
256
6
ByLayer
370
18
48
1
60
0
100
AcDbEllipse
10
42.329758
20
9.654438
30
0
11
-0.178753265179452
21
-4.35885506625106
31
0
210
0
220
0
230
1
40
0.817299
41
1.309022734378
42
1.70485399890169
0
ELLIPSE
5
113
100
AcDbEntity
8
1
62
256
6
ByLayer
370
18
48
1
60
0
100
AcDbEllipse
10
13.392642
20
11.57725
30
0
11
-4.26611169023281
21
1.59457565168531
31
0
210
0
220
0
230
1
40
0.519679
41
-0.720775765107022
42
0.396911799398916
0
ELLIPSE
5
114
100
AcDbEntity
8
1
62
256
6
ByLayer
370
18
48
1
60
0
100
AcDbEllipse
10
42.329758
20
9.654438
30
0
11
-2.80681803128099
21
3.10118286498571
31
0
210
0
220
0
230
1
40
0.804696
41
-2.08590865894955
42
-1.69007739443647
0
ELLIPSE
5
115
100
AcDbEntity
8
1
62
256
6
ByLayer
370
18
48
1
60
0
100
AcDbEllipse
10
5.442324
20
-5.677466
30
0
11
-2.84094417072244
21
-3.55255088078383
31
0
210
0
220
0
230
1
40
0.672481
41
2.50370111859384
42
2.61504110089233
0
ELLIPSE
5
116
100
AcDbEntity
8
1
62
256
6
ByLayer
370
18
48
1
60
0
100
AcDbEllipse
10
8.47517
20
-6.914775
30
0
11
7.86576539805748
21
1.45936105975239
31
0
210
0
220
0
230
1
40
0.04953
41
-0.917827976421341
42
-0.802273398896411
0
ELLIPSE
5
117
100
AcDbEntity
8
1
62
256
6
ByLayer
370
18
48
1
60
0
100
AcDbEllipse
10
12.93957
20
-1.86072
30
0
11
0.664055746150767
21
-0.747683065211556
31
0
210
0
220
0
230
1
40
0.69282
41
-2.00167466723772
42
-0.646996096782894
0
ELLIPSE
5
118
100
AcDbEntity
8
1
62
256
6
ByLayer
370
18
48
1
60
0
100
AcDbEllipse
10
15.544298
20
8.924887
30
0
11
6.8825447233003
21
1.27694092728334
31
0
210
0
220
0
230
1
40
0.04953
41
1.79987861894546
42
2.46310835861276
0
ELLIPSE
5
119
100
AcDbEntity
8
1
62
256
6
ByLayer
370
18
48
1
60
0
100
AcDbEllipse
10
14.863507
20
12.59429
30
0
11
-6.95334698973486
21
-0.889428719797538
31
0
210
0
220
0
230
1
40
0.312387
41
0.696064553171399
42
0.733094997426538
0
ELLIPSE
5
11A
100
AcDbEntity
8
1
62
256
6
ByLayer
370
18
48
1
60
0
100
AcDbEllipse
10
14.746091
20
13.526032
30
0
11
-5.97268070458876
21
-0.688353968210879
31
0
210
0
220
0
230
1
40
0.372231
41
0.310759650802185
42
0.741122910042396
0
ELLIPSE
5
11B
100
AcDbEntity
8
1
62
256
6
ByLayer
370
18
48
1
60
0
100
AcDbEllipse
10
17.682675
20
-2.600627
30
0
11
-6.80233902094417
21
-1.69719336729399
31
0
210
0
220
0
230
1
40
0.411063
41
-0.740640528765142
42
-0.703610105114562
0
ELLIPSE
5
11C
100
AcDbEntity
8
1
62
256
6
ByLayer
370
18
48
1
60
0
100
AcDbEllipse
10
15.852291
20
-1.679938
30
0
11
-2.97621954916766
21
-3.91196847793465
31
0
210
0
220
0
230
1
40
0.564387
41
-0.567559538893838
42
0.550128025611556
0
ELLIPSE
5
11D
100
AcDbEntity
8
1
62
256
6
ByLayer
370
18
48
1
60
0
100
AcDbEllipse
10
17.001867
20
1.068775
30
0
11
6.8825447233003
21
1.27694092728334
31
0
210
0
220
0
230
1
40
0.04953
41
1.79987861894547
42
2.46310835861276
0
ELLIPSE
5
11E
100
AcDbEntity
8
1
62
256
6
ByLayer
370
18
48
1
60
0
100
AcDbEllipse
10
14.627683
20
-23.012682
30
0
11
-0.780724082174151
21
-0.177473307056542
31
0
210
0
220
0
230
1
40
0.043859
41
1.42998953750359
42
3.00078586430701
0
POINT
5
6C
100
AcDbEntity
8
2
62
256
6
ByLayer
370
18
48
1
60
0
100
AcDbPoint
10
56.612928
20
18.425
30
0
39
0
210
0
220
0
230
1
50
360
0
POINT
5
6E
100
AcDbEntity
8
80
62
256
6
ByLayer
370
18
48
1
60
0
100
AcDbPoint
10
0
20
0
30
0
39
0
210
0
220
0
230
1
50
360
0
POINT
5
70
100
AcDbEntity
8
81
62
256
6
ByLayer
370
18
48
1
60
0
100
AcDbPoint
10
56.612928
20
18.425
30
0
39
0
210
0
220
0
230
1
50
360
0
SPLINE
5
11F
100
AcDbEntity
8
1
62
256
6
ByLayer
370
18
48
1
60
0
100
AcDbSpline
70
4
71
3
72
8
73
4
40
0
40
0
40
0
40
0
40
1
40
1
40
1
40
1
41
1
10
8.77755651563746
20
13.5542006186704
30
0
41
1
10
8.74838008235315
20
13.5430176950529
30
0
41
1
10
8.71918546014189
20
13.5315289336736
30
0
41
1
10
8.68998448319473
20
13.5197255538405
30
0
0
SPLINE
5
120
100
AcDbEntity
8
1
62
256
6
ByLayer
370
18
48
1
60
0
100
AcDbSpline
70
4
71
3
72
9
73
5
40
0
40
0
40
0
40
0
40
0.499999999999628
40
1
40
1
40
1
40
1
41
1
10
22.7783114758769
20
7.35531811244323
30
0
41
1
10
22.7712528821486
20
7.3629239623283
30
0
41
1
10
22.757135694692
20
7.37813566209843
30
0
41
1
10
22.7445441996019
20
7.39452571383637
30
0
41
1
10
22.738248452057
20
7.40272073970539
30
0
0
SPLINE
5
121
100
AcDbEntity
8
1
62
256
6
ByLayer
370
18
48
1
60
0
100
AcDbSpline
70
4
71
1
72
4
73
2
40
0
40
0
40
1
40
1
41
1
10
21.8121847874368
20
4.60846637661066
30
0
41
1
10
21.7516515514163
20
4.59766893695769
30
0
0
SPLINE
5
122
100
AcDbEntity
8
1
62
256
6
ByLayer
370
18
48
1
60
0
100
AcDbSpline
70
4
71
1
72
4
73
2
40
0
40
0
40
1
40
1
41
1
10
20.2025794383715
20
5.16134869411962
30
0
41
1
10
20.1625164145514
20
5.2087513213819
30
0
0
SPLINE
5
123
100
AcDbEntity
8
1
62
256
6
ByLayer
370
18
48
1
60
0
100
AcDbSpline
70
4
71
3
72
8
73
4
40
0
40
0
40
0
40
0
40
1
40
1
40
1
40
1
41
1
10
23.0595490820789
20
5.6709523324883
30
0
41
1
10
23.0663724861458
20
5.69035235479339
30
0
41
1
10
23.0731958902127
20
5.70975237709851
30
0
41
1
10
23.0800192942796
20
5.72915239940363
30
0
0
SPLINE
5
124
100
AcDbEntity
8
1
62
256
6
ByLayer
370
18
48
1
60
0
100
AcDbSpline
70
4
71
3
72
8
73
4
40
0
40
0
40
0
40
0
40
1
40
1
40
1
40
1
41
1
10
21.189176339012
20
7.96640049686735
30
0
41
1
10
21.1689985936719
20
7.96280135031637
30
0
41
1
10
21.1488208483317
20
7.95920220376539
30
0
41
1
10
21.1286431029916
20
7.9556030572144
30
0
0
SPLINE
5
125
100
AcDbEntity
8
1
62
256
6
ByLayer
370
18
48
1
60
0
100
AcDbSpline
70
4
71
3
72
10
73
6
40
0
40
0
40
0
40
0
40
0.499998260768467
40
0.501912286285992
40
1
40
1
40
1
40
1
41
1
10
19.8812788083494
20
6.8931171013366
30
0
41
1
10
19.8780962133253
20
6.88323983899781
30
0
41
1
10
19.8749014351228
20
6.87332476586315
30
0
41
1
10
19.8680643304573
20
6.85389003605638
30
0
41
1
10
19.8644295061808
20
6.84438534307739
30
0
41
1
10
19.8608085961488
20
6.83491703442164
30
0
0
SPLINE
5
126
100
AcDbEntity
8
1
62
256
6
ByLayer
370
18
48
1
60
0
100
AcDbSpline
70
4
71
3
72
10
73
6
40
0
40
0
40
0
40
0
40
0.178235590375234
40
0.965884392516029
40
1
40
1
40
1
40
1
41
1.02426270642939
10
28.2574176920325
20
9.46287102251856
30
0
41
1.02399541235391
10
28.8243283436032
20
9.52057115045207
30
0
41
1.02244297574217
10
32.0154070894169
20
9.82525673588689
30
0
41
1.02043217367667
10
35.6613909180781
20
10.038589369601
30
0
41
1.01956281722762
10
37.5957351677459
20
10.1378560426061
30
0
41
1.01952794425495
10
37.6744459327851
20
10.1418679432043
30
0
0
SPLINE
5
127
100
AcDbEntity
8
1
62
256
6
ByLayer
370
18
48
1
60
0
100
AcDbSpline
70
4
71
3
72
10
73
6
40
0
40
0
40
0
40
0
40
0.634609507784703
40
0.634609507784703
40
1
40
1
40
1
40
1
41
1
10
12.0794184017455
20
-2.42176120812576
30
0
41
1
10
12.0770353753077
20
-2.35550509700809
30
0
41
1
10
12.0722076547966
20
-2.28493263485203
30
0
41
1
10
12.0586116008504
20
-2.17078727655405
30
0
41
1
10
12.0522684334092
20
-2.12783550063409
30
0
41
1
10
12.0444490857898
20
-2.08569023882339
30
0
0
SPLINE
5
128
100
AcDbEntity
8
1
62
256
6
ByLayer
370
18
48
1
60
0
100
AcDbSpline
70
4
71
3
72
22
73
18
40
0
40
0
40
0
40
0
40
0.130530602739825
40
0.130530602739825
40
0.20308754830741
40
0.20308754830741
40
0.26444271137028
40
0.26444271137028
40
0.326069932320054
40
0.326069932320054
40
0.397667682341345
40
0.397667682341345
40
0.506875085108963
40
0.506875085108963
40
0.711100138795157
40
0.711100138795157
40
1
40
1
40
1
40
1
41
1
10
35.4717853142068
20
12.5125550585137
30
0
41
1
10
35.359397233674
20
12.4784554096874
30
0
41
1
10
35.2579752207382
20
12.4288982670298
30
0
41
1
10
35.1494286094596
20
12.3108600681027
30
0
41
1
10
35.1202599833021
20
12.2593548916859
30
0
41
1
10
35.0973382286952
20
12.1462497457744
30
0
41
1
10
35.0989924934236
20
12.0861118946109
30
0
41
1
10
35.1313812500018
20
11.9561864150315
30
0
41
1
10
35.1627682816811
20
11.8847196018338
30
0
41
1
10
35.2548466048415
20
11.7309010133071
30
0
41
1
10
35.3203305044948
20
11.6464453536008
30
0
41
1
10
35.5030738669775
20
11.444415816302
30
0
41
1
10
35.6321342376491
20
11.3284635717552
30
0
41
1
10
36.0118734138222
20
11.023939110522
30
0
41
1
10
36.2794756006647
20
10.8508275772892
30
0
41
1
10
36.9199826020357
20
10.4805810983902
30
0
41
1
10
37.3010434022886
20
10.298077792158
30
0
41
1
10
37.6744459327969
20
10.141867943205
30
0
0
SPLINE
5
129
100
AcDbEntity
8
1
62
256
6
ByLayer
370
18
48
1
60
0
100
AcDbSpline
70
4
71
3
72
8
73
4
40
0
40
0
40
0
40
0
40
1
40
1
40
1
40
1
41
1
10
35.3216869658929
20
15.9483879061906
30
0
41
1
10
35.5821208437023
20
15.9773494018657
30
0
41
1
10
35.842991460993
20
16.0037457488901
30
0
41
1
10
36.1044140724899
20
16.0263567337344
30
0
0
SPLINE
5
12A
100
AcDbEntity
8
1
62
256
6
ByLayer
370
18
48
1
60
0
100
AcDbSpline
70
4
71
3
72
10
73
6
40
0
40
0
40
0
40
0
40
0.363146207408308
40
0.919635117144725
40
1
40
1
40
1
40
1
41
1.01924252060337
10
38.8778550470781
20
1.07965733718812
30
0
41
1.0190261298545
10
39.3928454168605
20
1.41905724004279
30
0
41
1.01859648737407
10
40.5401485860027
20
2.23734001956377
30
0
41
1.01806418111389
10
41.8522321745396
20
3.2598179516647
30
0
41
1.01767843063346
10
42.6471120307512
20
3.93701486859513
30
0
41
1.01762918625356
10
42.7468266476552
20
4.02292143215592
30
0
0
SPLINE
5
12B
100
AcDbEntity
8
1
62
256
6
ByLayer
370
18
48
1
60
0
100
AcDbSpline
70
4
71
3
72
8
73
4
40
0
40
0
40
0
40
0
40
1
40
1
40
1
40
1
41
1
10
16.1308891359997
20
1.17590063871563
30
0
41
1
10
15.090924769014
20
-0.358796487958585
30
0
41
1
10
14.0370862502696
20
-1.82639299608789
30
0
41
1
10
13.1571665092848
20
-2.73462213675319
30
0
0
SPLINE
5
12C
100
AcDbEntity
8
1
62
256
6
ByLayer
370
18
48
1
60
0
100
AcDbSpline
70
4
71
3
72
10
73
6
40
0
40
0
40
0
40
0
40
0.617959141538643
40
0.617959141538643
40
1
40
1
40
1
40
1
41
1
10
15.8863890938047
20
10.0999778855988
30
0
41
1
10
15.7001213156011
20
9.86081796127377
30
0
41
1
10
15.4593957441435
20
9.63999179999132
30
0
41
1
10
15.0190481114336
20
9.35269144292042
30
0
41
1
10
14.8364349789846
20
9.25737879511973
30
0
41
1
10
14.6458855388721
20
9.17987596221076
30
0
0
SPLINE
5
12D
100
AcDbEntity
8
1
62
256
6
ByLayer
370
18
48
1
60
0
100
AcDbSpline
70
4
71
2
72
6
73
3
40
0
40
0
40
0
40
1
40
1
40
1
41
0.949562357290118
10
24.8901755510337
20
0.6934602970932
30
0
41
0.967780772402292
10
24.9366719949011
20
-0.141252307802565
30
0
41
1.02609574526022
10
24.8865693874344
20
-0.642424063958504
30
0
0
SPLINE
5
12E
100
AcDbEntity
8
1
62
256
6
ByLayer
370
18
48
1
60
0
100
AcDbSpline
70
4
71
3
72
10
73
6
40
0
40
0
40
0
40
0
40
0.286413870643359
40
0.286413870643359
40
1
40
1
40
1
40
1
41
1
10
39.8182082347307
20
9.34508528098158
30
0
41
1
10
39.6508386505141
20
9.22451934719896
30
0
41
1
10
39.4836422657371
20
9.10120600474812
30
0
41
1
10
38.9015320048886
20
8.65820870697891
30
0
41
1
10
38.4883756641112
20
8.31777045651904
30
0
41
1
10
38.0794632709263
20
7.958877419635
30
0
0
SPLINE
5
12F
100
AcDbEntity
8
1
62
256
6
ByLayer
370
18
48
1
60
0
100
AcDbSpline
70
4
71
2
72
6
73
3
40
0
40
0
40
0
40
1
40
1
40
1
41
1.02609574526022
10
24.8865693874344
20
-0.642424063958504
30
0
41
1.02609574526022
10
24.7122344370655
20
-2.38628047490126
30
0
41
1.02609574526022
10
24.5378994866966
20
-4.13013688584398
30
0
0
SPLINE
5
130
100
AcDbEntity
8
1
62
256
6
ByLayer
370
18
48
1
60
0
100
AcDbSpline
70
4
71
3
72
12
73
8
40
0
40
0
40
0
40
0
40
0.499842200422128
40
0.499842200422128
40
0.749802242645017
40
0.749802242645017
40
1
40
1
40
1
40
1
41
1
10
36.8854926600916
20
4.89285721175909
30
0
41
1
10
37.8545241361097
20
4.7279957920542
30
0
41
1
10
38.806919548102
20
4.52117697926812
30
0
41
1
10
40.2682988729494
20
4.29349442405177
30
0
41
1
10
40.7571103201334
20
4.22163276699408
30
0
41
1
10
41.7418040343316
20
4.09555085589079
30
0
41
1
10
42.2398104353423
20
4.04623405350208
30
0
41
1
10
42.7467499013239
20
4.02285531351785
30
0
0
SPLINE
5
131
100
AcDbEntity
8
1
62
256
6
ByLayer
370
18
48
1
60
0
100
AcDbSpline
70
4
71
3
72
10
73
6
40
0
40
0
40
0
40
0
40
0.748781644178977
40
0.748781644178977
40
1
40
1
40
1
40
1
41
1
10
15.4592947912325
20
1.12610255299504
30
0
41
1
10
15.6213988672856
20
1.15468259558764
30
0
41
1
10
15.7924566922063
20
1.17352909167235
30
0
41
1
10
16.0177140573964
20
1.17858152395056
30
0
41
1
10
16.0748075030955
20
1.17815398191513
30
0
41
1
10
16.1308891359998
20
1.17590063872322
30
0
0
SPLINE
5
132
100
AcDbEntity
8
1
62
256
6
ByLayer
370
18
48
1
60
0
100
AcDbSpline
70
4
71
3
72
8
73
4
40
0
40
0
40
0
40
0
40
1
40
1
40
1
40
1
41
1
10
15.4592947912249
20
1.12610255299873
30
0
41
1
10
15.431897050105
20
1.12127214634137
30
0
41
1
10
15.4045815209142
20
1.11616491433293
30
0
41
1
10
15.3773580672466
20
1.11078812966557
30
0
0
SPLINE
5
133
100
AcDbEntity
8
1
62
256
6
ByLayer
370
18
48
1
60
0
100
AcDbSpline
70
4
71
3
72
9
73
5
40
0
40
0
40
0
40
0
40
0.557412159345915
40
1
40
1
40
1
40
1
41
1.02609574526022
10
24.8865693874344
20
-0.642424063958504
30
0
41
1.0257992359639
10
26.2164996650269
20
-0.285876670527975
30
0
41
1.02388785778436
10
30.4340882993978
20
1.41352166783054
30
0
41
1.02114228821988
10
35.2053435168021
20
3.98604335302285
30
0
41
1.02025357652616
10
36.8854926463011
20
4.89285720431601
30
0
0
SPLINE
5
134
100
AcDbEntity
8
1
62
256
6
ByLayer
370
18
48
1
60
0
100
AcDbSpline
70
4
71
3
72
10
73
6
40
0
40
0
40
0
40
0
40
0.0803615089464599
40
0.636852329491515
40
1
40
1
40
1
40
1
41
1.01762919296299
10
40.782999952123
20
14.60760574715
30
0
41
1.01767843505497
10
40.6588235128838
20
14.6535732533301
30
0
41
1.01806418305672
10
39.6716397664205
20
15.0128965058482
30
0
41
1.01859648748914
10
38.076370328959
20
15.5167811016593
30
0
41
1.01902613005648
10
36.7086612169521
20
15.8864560092585
30
0
41
1.0192425209898
10
36.1047590381286
20
16.0262768664673
30
0
0
SPLINE
5
135
100
AcDbEntity
8
1
62
256
6
ByLayer
370
18
48
1
60
0
100
AcDbSpline
70
4
71
3
72
8
73
4
40
0
40
0
40
0
40
0
40
1
40
1
40
1
40
1
41
1
10
24.8901755592605
20
0.693460149404586
30
0
41
1
10
24.5060749883833
20
0.541947073772405
30
0
41
1
10
24.1024822856619
20
0.424750357548248
30
0
41
1
10
23.6996127688379
20
0.352889680969639
30
0
0
SPLINE
5
136
100
AcDbEntity
8
1
62
256
6
ByLayer
370
18
48
1
60
0
100
AcDbSpline
70
4
71
3
72
15
73
11
40
0
40
0
40
0
40
0
40
0.147139933659563
40
0.147139933659563
40
0.468348890922568
40
0.468348890922568
40
0.791093030527835
40
0.791093030527835
40
0.791093030527835
40
1
40
1
40
1
40
1
41
1
10
45.141542689748
20
11.5279891716538
30
0
41
1
10
45.0329101573299
20
11.6539839239961
30
0
41
1
10
44.9178392343662
20
11.7785477740537
30
0
41
1
10
44.5353447155522
20
12.163108871137
30
0
41
1
10
44.2412551337161
20
12.4155116049679
30
0
41
1
10
43.6283888714985
20
12.8518869895222
30
0
41
1
10
43.3011946419847
20
13.0410228796825
30
0
41
1
10
42.9842855522568
20
13.1837121470468
30
0
41
1
10
42.7771105628734
20
13.2769933068794
30
0
41
1
10
42.5710336891751
20
13.3524822853022
30
0
41
1
10
42.3728560920273
20
13.4093446441536
30
0
0
SPLINE
5
137
100
AcDbEntity
8
1
62
256
6
ByLayer
370
18
48
1
60
0
100
AcDbSpline
70
4
71
3
72
8
73
4
40
0
40
0
40
0
40
0
40
1
40
1
40
1
40
1
41
1
10
14.0014236744247
20
8.98383735329205
30
0
41
1
10
12.4811910088352
20
9.66198734283924
30
0
41
1
10
11.0090293190925
20
10.243569541009
30
0
41
1
10
9.88235417167891
20
10.4798145974665
30
0
0
SPLINE
5
138
100
AcDbEntity
8
1
62
256
6
ByLayer
370
18
48
1
60
0
100
AcDbSpline
70
4
71
3
72
10
73
6
40
0
40
0
40
0
40
0
40
0.756795694533323
40
0.756795694533323
40
1
40
1
40
1
40
1
41
1
10
14.645885538872
20
9.1798759622107
30
0
41
1
10
14.4921276147239
20
9.11733746985598
30
0
41
1
10
14.3242865781829
20
9.06346036938493
30
0
41
1
10
14.1076244971403
20
9.00791748915591
30
0
41
1
10
14.054365434531
20
8.99535406857612
30
0
41
1
10
14.0014236744269
20
8.98383735328244
30
0
0
SPLINE
5
139
100
AcDbEntity
8
1
62
256
6
ByLayer
370
18
48
1
60
0
100
AcDbSpline
70
4
71
3
72
10
73
6
40
0
40
0
40
0
40
0
40
0.5
40
0.5
40
1
40
1
40
1
40
1
41
1
10
22.6930140840692
20
12.5358733685412
30
0
41
1
10
23.8217388365806
20
12.5232511561933
30
0
41
1
10
24.9161146783804
20
12.2468292458933
30
0
41
1
10
26.8567597841993
20
11.2288217435703
30
0
41
1
10
27.7208999845283
20
10.4572068606554
30
0
41
1
10
28.2574176909753
20
9.46287102241098
30
0
0
SPLINE
5
13A
100
AcDbEntity
8
1
62
256
6
ByLayer
370
18
48
1
60
0
100
AcDbSpline
70
4
71
3
72
10
73
6
40
0
40
0
40
0
40
0
40
0.5
40
0.5
40
1
40
1
40
1
40
1
41
1
10
20.7922076504672
20
16.0586526123486
30
0
41
1
10
22.8492972729007
20
16.3598637112106
30
0
41
1
10
24.9058522297394
20
16.5840251133533
30
0
41
1
10
29.0157934569915
20
16.5757142188062
30
0
41
1
10
31.0693433890135
20
16.3668269020555
30
0
41
1
10
33.1221214325765
20
16.0467041284655
30
0
0
SPLINE
5
13B
100
AcDbEntity
8
1
62
256
6
ByLayer
370
18
48
1
60
0
100
AcDbSpline
70
4
71
3
72
8
73
4
40
0
40
0
40
0
40
0
40
1
40
1
40
1
40
1
41
1
10
14.0014236744274
20
8.98383735328255
30
0
41
1
10
13.974227376977
20
8.97792119155761
30
0
41
1
10
13.9470116151035
20
8.97227622673273
30
0
41
1
10
13.9197881614334
20
8.96689944206489
30
0
0
SPLINE
5
13C
100
AcDbEntity
8
1
62
256
6
ByLayer
370
18
48
1
60
0
100
AcDbSpline
70
4
71
3
72
8
73
4
40
0
40
0
40
0
40
0
40
1
40
1
40
1
40
1
41
1
10
22.6930140840692
20
12.5358733685412
30
0
41
1
10
22.2804826017801
20
12.5375991899753
30
0
41
1
10
21.8614685554741
20
12.5035215003622
30
0
41
1
10
21.45859903865
20
12.4316608237836
30
0
0
SPLINE
5
13D
100
AcDbEntity
8
1
62
256
6
ByLayer
370
18
48
1
60
0
100
AcDbSpline
70
4
71
3
72
10
73
6
40
0
40
0
40
0
40
0
40
0.567800532142478
40
0.567800532142478
40
1
40
1
40
1
40
1
41
1
10
36.0735729406602
20
0.138766205091571
30
0
41
1
10
36.465038140699
20
0.357326642807493
30
0
41
1
10
36.8684811812801
20
0.548723947852665
30
0
41
1
10
37.5491821044549
20
0.800144286616984
30
0
41
1
10
37.8391208594439
20
0.882412566427519
30
0
41
1
10
38.1079048661112
20
0.931037535951361
30
0
0
SPLINE
5
13E
100
AcDbEntity
8
1
62
256
6
ByLayer
370
18
48
1
60
0
100
AcDbSpline
70
4
71
3
72
8
73
4
40
0
40
0
40
0
40
0
40
1
40
1
40
1
40
1
41
1
10
13.3114026636195
20
-6.33759007224714
30
0
41
1
10
13.0218815943446
20
-6.40273233581766
30
0
41
1
10
12.7169810870051
20
-6.44723132483335
30
0
41
1
10
12.3967252215639
20
-6.45912261714039
30
0
0
SPLINE
5
13F
100
AcDbEntity
8
1
62
256
6
ByLayer
370
18
48
1
60
0
100
AcDbSpline
70
4
71
3
72
14
73
10
40
0
40
0
40
0
40
0
40
0.277474514381391
40
0.277474514381391
40
0.535318923390721
40
0.535318923390721
40
0.765023320191398
40
0.765023320191398
40
1
40
1
40
1
40
1
41
1
10
28.2574176909753
20
9.46287102241098
30
0
41
1
10
28.4321307176561
20
9.13908735340667
30
0
41
1
10
28.579338778227
20
8.79848174313184
30
0
41
1
10
28.8040099312901
20
8.1245620169031
30
0
41
1
10
28.8864458129467
20
7.7901118808345
30
0
41
1
10
28.9904382815246
20
7.15210303796678
30
0
41
1
10
29.0179421105756
20
6.8473929680242
30
0
41
1
10
29.0290397217343
20
6.23297409818989
30
0
41
1
10
29.0116418210561
20
5.92155319424614
30
0
41
1
10
28.9713842878098
20
5.61468436893017
30
0
0
SPLINE
5
140
100
AcDbEntity
8
1
62
256
6
ByLayer
370
18
48
1
60
0
100
AcDbSpline
70
4
71
3
72
10
73
6
40
0
40
0
40
0
40
0
40
0.633056393844568
40
0.633056393844568
40
1
40
1
40
1
40
1
41
1
10
9.70586216594484
20
10.5189876450632
30
0
41
1
10
9.69243683852665
20
10.5913484053824
30
0
41
1
10
9.67440389562273
20
10.6625413519188
30
0
41
1
10
9.64385244232045
20
10.7647357889232
30
0
41
1
10
9.63194987835516
20
10.8009266700358
30
0
41
1
10
9.61976918568564
20
10.8354266315481
30
0
0
SPLINE
5
141
100
AcDbEntity
8
1
62
256
6
ByLayer
370
18
48
1
60
0
100
AcDbSpline
70
4
71
3
72
8
73
4
40
0
40
0
40
0
40
0
40
1
40
1
40
1
40
1
41
1
10
38.8775599498131
20
1.07946285860035
30
0
41
1
10
38.621742405427
20
1.0266412945073
30
0
41
1
10
38.3650801541951
20
0.977562404377949
30
0
41
1
10
38.1079048661045
20
0.931037535950196
30
0
0
SPLINE
5
142
100
AcDbEntity
8
1
62
256
6
ByLayer
370
18
48
1
60
0
100
AcDbSpline
70
4
71
3
72
10
73
6
40
0
40
0
40
0
40
0
40
0.5
40
0.5
40
1
40
1
40
1
40
1
41
1
10
12.1558020072408
20
-4.07558191050256
30
0
41
1
10
12.1408713492335
20
-3.87484104491639
30
0
41
1
10
12.1340058889882
20
-3.66267567839336
30
0
41
1
10
12.1114741495262
20
-3.1460644472788
30
0
41
1
10
12.0944331833714
20
-2.83922239278348
30
0
41
1
10
12.0794184017458
20
-2.42176120812812
30
0
0
SPLINE
5
143
100
AcDbEntity
8
1
62
256
6
ByLayer
370
18
48
1
60
0
100
AcDbSpline
70
4
71
3
72
12
73
8
40
0
40
0
40
0
40
0
40
0.241231766725666
40
0.241231766725666
40
0.620546361038365
40
0.620546361038365
40
1
40
1
40
1
40
1
41
1
10
40.7829212944302
20
14.6076348644704
30
0
41
1
10
40.3227585598317
20
14.4760652454744
30
0
41
1
10
39.878816580723
20
14.3256662353737
30
0
41
1
10
38.7616025024345
20
13.9122592463203
30
0
41
1
10
38.0894036819981
20
13.647622090069
30
0
41
1
10
36.7758788593459
20
13.0853140844342
30
0
41
1
10
36.132925800744
20
12.7892995551409
30
0
41
1
10
35.4717853142118
20
12.5125550585129
30
0
0
SPLINE
5
144
100
AcDbEntity
8
1
62
256
6
ByLayer
370
18
48
1
60
0
100
AcDbSpline
70
4
71
3
72
10
73
6
40
0
40
0
40
0
40
0
40
0.178235590382924
40
0.965884392557136
40
1
40
1
40
1
40
1
41
1.02426270642939
10
28.971384288852
20
5.61468436918412
30
0
41
1.02399541235391
10
29.5240181136731
20
5.74933472756264
30
0
41
1.02244297574217
10
32.6291788786104
20
6.51710700189526
30
0
41
1.02043217367675
10
36.1417975760873
20
7.44926026321616
30
0
41
1.01956281722772
10
38.0037014830861
20
7.9389709162069
30
0
41
1.01952794425508
10
38.0794632706394
20
7.95887741955955
30
0
0
SPLINE
5
145
100
AcDbEntity
8
1
62
256
6
ByLayer
370
18
48
1
60
0
100
AcDbSpline
70
4
71
3
72
14
73
10
40
0
40
0
40
0
40
0
40
0.344680425563165
40
0.344680425563165
40
0.662299704488293
40
0.662299704488293
40
0.966309045319179
40
0.966309045319179
40
1
40
1
40
1
40
1
41
1
10
43.804419625824
20
5.69340427832645
30
0
41
1
10
44.0774700829496
20
5.8737191893803
30
0
41
1
10
44.3537071590658
20
6.11519342103577
30
0
41
1
10
44.8368225771944
20
6.66495778463016
30
0
41
1
10
45.0536174105412
20
6.97374918796743
30
0
41
1
10
45.413869485345
20
7.60974865153455
30
0
41
1
10
45.5646737947293
20
7.94272265555728
30
0
41
1
10
45.6987052132712
20
8.31109652291858
30
0
41
1
10
45.7118371402708
20
8.3481804245404
30
0
41
1
10
45.7246207694594
20
8.38527452053111
30
0
0
SPLINE
5
146
100
AcDbEntity
8
1
62
256
6
ByLayer
370
18
48
1
60
0
100
AcDbSpline
70
4
71
3
72
8
73
4
40
0
40
0
40
0
40
0
40
1
40
1
40
1
40
1
41
1
10
12.1915512741829
20
-1.96645601170854
30
0
41
1
10
13.1361774723769
20
-1.22261289379244
30
0
41
1
10
14.2889782002483
20
-0.0816568066352374
30
0
41
1
10
15.4592947912333
20
1.12610255299015
30
0
0
SPLINE
5
147
100
AcDbEntity
8
1
62
256
6
ByLayer
370
18
48
1
60
0
100
AcDbSpline
70
4
71
3
72
12
73
8
40
0
40
0
40
0
40
0
40
0.204202248153563
40
0.204202248153563
40
0.849675991585491
40
0.849675991585491
40
1
40
1
40
1
40
1
41
1
10
16.130889136
20
1.17590063872319
30
0
41
1
10
16.2414768184278
20
1.17145725880712
30
0
41
1
10
16.3516572044939
20
1.16128733320198
30
0
41
1
10
16.8014878753415
20
1.09572409979674
30
0
41
1
10
17.1353851143353
20
0.986987656525912
30
0
41
1
10
17.4964136200828
20
0.793950913490335
30
0
41
1
10
17.5634766069932
20
0.754329032088634
30
0
41
1
10
17.6281096094947
20
0.712331919681191
30
0
0
SPLINE
5
148
100
AcDbEntity
8
1
62
256
6
ByLayer
370
18
48
1
60
0
100
AcDbSpline
70
4
71
3
72
8
73
4
40
0
40
0
40
0
40
0
40
1
40
1
40
1
40
1
41
1
10
21.4038412532057
20
-0.056611875970674
30
0
41
1
10
20.0152429329714
20
-0.304299056610688
30
0
41
1
10
18.7229829954191
20
0.0009071230462041
30
0
41
1
10
17.6281096094947
20
0.712331919681191
30
0
0
SPLINE
5
149
100
AcDbEntity
8
1
62
256
6
ByLayer
370
18
48
1
60
0
100
AcDbSpline
70
4
71
3
72
8
73
4
40
0
40
0
40
0
40
0
40
1
40
1
40
1
40
1
41
1
10
28.9713842878098
20
5.61468436893017
30
0
41
1
10
28.6803580086612
20
3.3960082262337
30
0
41
1
10
26.9823050156259
20
1.51914972662519
30
0
41
1
10
24.8901755592605
20
0.693460149404871
30
0
0
SPLINE
5
14A
100
AcDbEntity
8
1
62
256
6
ByLayer
370
18
48
1
60
0
100
AcDbSpline
70
4
71
3
72
8
73
4
40
0
40
0
40
0
40
0
40
1
40
1
40
1
40
1
41
1
10
22.6930141255421
20
12.5358732449982
30
0
41
1
10
22.5336213051476
20
13.0106854736917
30
0
41
1
10
22.379464187195
20
13.3779469601262
30
0
41
1
10
22.2423648061957
20
13.6094930757394
30
0
0
SPLINE
5
14B
100
AcDbEntity
8
1
62
256
6
ByLayer
370
18
48
1
60
0
100
AcDbSpline
70
4
71
3
72
11
73
7
40
0
40
0
40
0
40
0
40
0.567115805318441
40
0.567115805318441
40
0.567115805318441
40
1
40
1
40
1
40
1
41
1
10
35.321686965893
20
15.9483879061906
30
0
41
1
10
34.9666754992888
20
15.9089089292572
30
0
41
1
10
34.556919186429
20
15.9052568969498
30
0
41
1
10
34.1319259247057
20
15.9328092163318
30
0
41
1
10
33.8050904270422
20
15.9539979664323
30
0
41
1
10
33.4633399232264
20
15.9934924283648
30
0
41
1
10
33.1221214325743
20
16.0467041284658
30
0
0
SPLINE
5
14C
100
AcDbEntity
8
1
62
256
6
ByLayer
370
18
48
1
60
0
100
AcDbSpline
70
4
71
3
72
12
73
8
40
0
40
0
40
0
40
0
40
0.50000000000001
40
0.50000000000001
40
0.750000000000005
40
0.750000000000005
40
1
40
1
40
1
40
1
41
1
10
38.0794632709263
20
7.958877419635
30
0
41
1
10
37.5642081059339
20
7.50680130354411
30
0
41
1
10
37.0466911483628
20
6.98202277730442
30
0
41
1
10
36.4620591174348
20
5.96837626383686
30
0
41
1
10
36.3064801934842
20
5.55095532468951
30
0
41
1
10
36.4268392654736
20
4.99280015408146
30
0
41
1
10
36.6534103606055
20
4.90751070880251
30
0
41
1
10
36.8854926600956
20
4.89285721176122
30
0
0
SPLINE
5
14D
100
AcDbEntity
8
1
62
256
6
ByLayer
370
18
48
1
60
0
100
AcDbSpline
70
4
71
3
72
10
73
6
40
0
40
0
40
0
40
0
40
0.917654486053259
40
0.917654486053259
40
1
40
1
40
1
40
1
41
1
10
37.6744459327969
20
10.141867943205
30
0
41
1
10
38.3372490109629
20
9.86447876582503
30
0
41
1
10
38.9959776911829
20
9.61691300459384
30
0
41
1
10
39.7019574749377
20
9.38302843658263
30
0
41
1
10
39.7601135130332
20
9.36395941798065
30
0
41
1
10
39.8182082347051
20
9.34508528098982
30
0
0
SPLINE
5
14E
100
AcDbEntity
8
1
62
256
6
ByLayer
370
18
48
1
60
0
100
AcDbSpline
70
4
71
3
72
8
73
4
40
0
40
0
40
0
40
0
40
1
40
1
40
1
40
1
41
1
10
15.8863890938047
20
10.0999778855988
30
0
41
1
10
16.6639023982742
20
11.0982719805407
30
0
41
1
10
17.77452935141
20
11.7745256243402
30
0
41
1
10
19.1628275230178
20
12.0221592668433
30
0
0
SPLINE
5
14F
100
AcDbEntity
8
1
62
256
6
ByLayer
370
18
48
1
60
0
100
AcDbSpline
70
4
71
3
72
10
73
6
40
0
40
0
40
0
40
0
40
0.5
40
0.5
40
1
40
1
40
1
40
1
41
1
10
36.0735729406603
20
0.138766205091628
30
0
41
1
10
34.2672932178349
20
-0.869704756871101
30
0
41
1
10
32.4203375271677
20
-1.77433340261143
30
0
41
1
10
28.5766957060071
20
-3.20134150604443
30
0
41
1
10
26.5713851502353
20
-3.70170353318767
30
0
41
1
10
24.5378994866966
20
-4.130136885844
30
0
0
SPLINE
5
150
100
AcDbEntity
8
1
62
256
6
ByLayer
370
18
48
1
60
0
100
AcDbSpline
70
4
71
1
72
4
73
2
40
0
40
0
40
1
40
1
41
1
10
22.2423648061956
20
13.6094930757394
30
0
41
1
10
20.7922076504672
20
16.0586526123486
30
0
0
SPLINE
5
151
100
AcDbEntity
8
1
62
256
6
ByLayer
370
18
48
1
60
0
100
AcDbSpline
70
4
71
3
72
9
73
5
40
0
40
0
40
0
40
0
40
0.557412158884141
40
1
40
1
40
1
40
1
41
1.02609574526022
10
22.2423648061957
20
13.6094930757394
30
0
41
1.0257992359639
10
23.6146407956065
20
13.7378026162081
30
0
41
1.02388785778278
10
28.1632392608335
20
13.6531012437034
30
0
41
1.02114228821533
10
33.5664024162588
20
12.8197217496325
30
0
41
1.02025357652117
10
35.4717853091981
20
12.5125550593212
30
0
0
SPLINE
5
152
100
AcDbEntity
8
1
62
256
6
ByLayer
370
18
48
1
60
0
100
AcDbSpline
70
4
71
3
72
8
73
4
40
0
40
0
40
0
40
0
40
1
40
1
40
1
40
1
41
1
10
10.5129619280461
20
11.5172950029449
30
0
41
1
10
11.636312961843
20
11.1228131201085
30
0
41
1
10
13.1285698386712
20
10.2114869583902
30
0
41
1
10
14.645885538872
20
9.1798759622107
30
0
0
SPLINE
5
153
100
AcDbEntity
8
1
62
256
6
ByLayer
370
18
48
1
60
0
100
AcDbSpline
70
4
71
3
72
10
73
6
40
0
40
0
40
0
40
0
40
0.5
40
0.5
40
1
40
1
40
1
40
1
41
1
10
9.61976918568564
20
10.8354266315481
30
0
41
1
10
9.48872003087456
20
11.2066034537436
30
0
41
1
10
9.40144428342597
20
11.4621768685614
30
0
41
1
10
9.25102354474649
20
11.8775476876241
30
0
41
1
10
9.18836790302521
20
12.0388894917019
30
0
41
1
10
9.13784176615536
20
12.1908293921745
30
0
0
LINE
5
72
100
AcDbEntity
8
1
62
256
6
ByLayer
370
18
48
1
60
0
100
AcDbLine
10
33.235343
20
23.980383
30
0
11
32.320331
21
23.4521
31
0
39
0
210
0
220
0
230
1
0
LINE
5
74
100
AcDbEntity
8
1
62
256
6
ByLayer
370
18
48
1
60
0
100
AcDbLine
10
10.133795
20
14.075012
30
0
11
8.775738
21
13.553505
31
0
39
0
210
0
220
0
230
1
0
LINE
5
75
100
AcDbEntity
8
1
62
256
6
ByLayer
370
18
48
1
60
0
100
AcDbLine
10
23.961106
20
0.791833
30
0
11
24.279423
21
0.975614
31
0
39
0
210
0
220
0
230
1
0
LINE
5
76
100
AcDbEntity
8
1
62
256
6
ByLayer
370
18
48
1
60
0
100
AcDbLine
10
18.279423
20
11.367919
30
0
11
17.961106
21
11.184138
31
0
39
0
210
0
220
0
230
1
0
LINE
5
77
100
AcDbEntity
8
1
62
256
6
ByLayer
370
18
48
1
60
0
100
AcDbLine
10
13.697495
20
8.815002
30
0
11
14.582362
21
9.154799
31
0
39
0
210
0
220
0
230
1
0
LINE
5
78
100
AcDbEntity
8
1
62
256
6
ByLayer
370
18
48
1
60
0
100
AcDbLine
10
49.504188
20
-5.82669
30
0
11
50.345983
21
-5.340679
31
0
39
0
210
0
220
0
230
1
0
LINE
5
79
100
AcDbEntity
8
1
62
256
6
ByLayer
370
18
48
1
60
0
100
AcDbLine
10
19.478034
20
6.452754
30
0
11
19.57996
21
6.511601
31
0
39
0
210
0
220
0
230
1
0
LINE
5
7A
100
AcDbEntity
8
1
62
256
6
ByLayer
370
18
48
1
60
0
100
AcDbLine
10
21.568859
20
4.526062
30
0
11
21.26964
21
4.353308
31
0
39
0
210
0
220
0
230
1
0
LINE
5
7B
100
AcDbEntity
8
1
62
256
6
ByLayer
370
18
48
1
60
0
100
AcDbLine
10
21.072751
20
7.865254
30
0
11
21.371969
21
8.038007
31
0
39
0
210
0
220
0
230
1
0
LINE
5
7C
100
AcDbEntity
8
1
62
256
6
ByLayer
370
18
48
1
60
0
100
AcDbLine
10
23.360868
20
6.052469
30
0
11
23.06165
21
5.879715
31
0
39
0
210
0
220
0
230
1
0
LINE
5
7D
100
AcDbEntity
8
80
62
256
6
ByLayer
370
18
48
1
60
0
100
AcDbLine
10
0
20
0
30
0
11
-5
21
0
31
0
39
0
210
0
220
0
230
1
0
LINE
5
7E
100
AcDbEntity
8
81
62
256
6
ByLayer
370
18
48
1
60
0
100
AcDbLine
10
56.612928
20
18.425
30
0
11
66.612928
21
18.425
31
0
39
0
210
0
220
0
230
1
0
LINE
5
7F
100
AcDbEntity
8
1
62
256
6
ByLayer
370
18
48
1
60
0
100
AcDbLine
10
33.038568
20
-1.411793
30
0
11
48.567567
21
-5.572776
31
0
39
0
210
0
220
0
230
1
0
LINE
5
80
100
AcDbEntity
8
1
62
256
6
ByLayer
370
18
48
1
60
0
100
AcDbLine
10
32.138573
20
22.531248
30
0
11
32.074897
21
22.494485
31
0
39
0
210
0
220
0
230
1
0
LINE
5
81
100
AcDbEntity
8
1
62
256
6
ByLayer
370
18
48
1
60
0
100
AcDbLine
10
48.523842
20
-5.59802
30
0
11
48.567567
21
-5.572776
31
0
39
0
210
0
220
0
230
1
0
LINE
5
82
100
AcDbEntity
8
1
62
256
6
ByLayer
370
18
48
1
60
0
100
AcDbLine
10
16.610736
20
15.286567
30
0
11
16.606026
21
15.311955
31
0
39
0
210
0
220
0
230
1
0
LINE
5
83
100
AcDbEntity
8
1
62
256
6
ByLayer
370
18
48
1
60
0
100
AcDbLine
10
15.427238
20
-22.827068
30
0
11
12.390333
21
-6.458545
31
0
39
0
210
0
220
0
230
1
0
LINE
5
84
100
AcDbEntity
8
1
62
256
6
ByLayer
370
18
48
1
60
0
100
AcDbLine
10
8.6842
20
13.51703
30
0
11
6.327897
21
26.217196
31
0
39
0
210
0
220
0
230
1
0
LINE
5
85
100
AcDbEntity
8
1
62
256
6
ByLayer
370
18
48
1
60
0
100
AcDbLine
10
13.621765
20
14.753485
30
0
11
11.494865
21
26.217196
31
0
39
0
210
0
220
0
230
1
0
LINE
5
86
100
AcDbEntity
8
1
62
256
6
ByLayer
370
18
48
1
60
0
100
AcDbLine
10
18.722502
20
-12.738821
30
0
11
17.358734
21
-5.388289
31
0
39
0
210
0
220
0
230
1
0
LINE
5
87
100
AcDbEntity
8
1
62
256
6
ByLayer
370
18
48
1
60
0
100
AcDbLine
10
32.75743
20
-1.539783
30
0
11
49.976027
21
-6.073052
31
0
39
0
210
0
220
0
230
1
0
LINE
5
88
100
AcDbEntity
8
1
62
256
6
ByLayer
370
18
48
1
60
0
100
AcDbLine
10
32.440597
20
23.921442
30
0
11
30.505179
21
16.369259
31
0
39
0
210
0
220
0
230
1
0
LINE
5
89
100
AcDbEntity
8
1
62
256
6
ByLayer
370
18
48
1
60
0
100
AcDbLine
10
32.927278
20
-1.462372
30
0
11
38.617997
21
-2.96061
31
0
39
0
210
0
220
0
230
1
0
LINE
5
8A
100
AcDbEntity
8
1
62
256
6
ByLayer
370
18
48
1
60
0
100
AcDbLine
10
48.967426
20
-5.685382
30
0
11
49.939287
21
-5.941251
31
0
39
0
210
0
220
0
230
1
0
LINE
5
8B
100
AcDbEntity
8
1
62
256
6
ByLayer
370
18
48
1
60
0
100
AcDbLine
10
14.525822
20
-23.071492
30
0
11
11.410769
21
-6.281763
31
0
39
0
210
0
220
0
230
1
0
LINE
5
8C
100
AcDbEntity
8
1
62
256
6
ByLayer
370
18
48
1
60
0
100
AcDbLine
10
7.830908
20
13.013218
30
0
11
5.381131
21
26.217196
31
0
39
0
210
0
220
0
230
1
0
LINE
5
8D
100
AcDbEntity
8
1
62
256
6
ByLayer
370
18
48
1
60
0
100
AcDbLine
10
15.401773
20
-22.841771
30
0
11
12.361966
21
-6.457609
31
0
39
0
210
0
220
0
230
1
0
LINE
5
8E
100
AcDbEntity
8
1
62
256
6
ByLayer
370
18
48
1
60
0
100
AcDbLine
10
8.657993
20
13.506324
30
0
11
6.299703
21
26.217196
31
0
39
0
210
0
220
0
230
1
0
LINE
5
8F
100
AcDbEntity
8
1
62
256
6
ByLayer
370
18
48
1
60
0
100
AcDbLine
10
19.49073
20
6.46135
30
0
11
19.546586
21
6.493599
31
0
39
0
210
0
220
0
230
1
0
LINE
5
90
100
AcDbEntity
8
1
62
256
6
ByLayer
370
18
48
1
60
0
100
AcDbLine
10
30.387968
20
16.383361
30
0
11
32.344313
21
24.017201
31
0
39
0
210
0
220
0
230
1
0
LINE
5
91
100
AcDbEntity
8
1
62
256
6
ByLayer
370
18
48
1
60
0
100
AcDbLine
10
23.961106
20
0.791833
30
0
11
23.961405
21
0.792006
31
0
39
0
210
0
220
0
230
1
0
LINE
5
92
100
AcDbEntity
8
1
62
256
6
ByLayer
370
18
48
1
60
0
100
AcDbLine
10
32.138573
20
22.531248
30
0
11
30.557719
21
16.36261
31
0
39
0
210
0
220
0
230
1
0
LINE
5
93
100
AcDbEntity
8
1
62
256
6
ByLayer
370
18
48
1
60
0
100
AcDbLine
10
54.839332
20
18.900234
30
0
11
35.013759
21
24.21248
31
0
39
0
210
0
220
0
230
1
0
LINE
5
94
100
AcDbEntity
8
1
62
256
6
ByLayer
370
18
48
1
60
0
100
AcDbLine
10
51.442754
20
-3.891544
30
0
11
56.538686
21
15.993258
31
0
39
0
210
0
220
0
230
1
0
LINE
5
95
100
AcDbEntity
8
1
62
256
6
ByLayer
370
18
48
1
60
0
100
AcDbLine
10
22.895779
20
6.97162
30
0
11
23.194998
21
7.144374
31
0
39
0
210
0
220
0
230
1
0
LINE
5
96
100
AcDbEntity
8
1
62
256
6
ByLayer
370
18
48
1
60
0
100
AcDbLine
10
20.375745
20
7.888615
30
0
11
20.674963
21
8.061369
31
0
39
0
210
0
220
0
230
1
0
LINE
5
97
100
AcDbEntity
8
1
62
256
6
ByLayer
370
18
48
1
60
0
100
AcDbLine
10
21.065809
20
4.169262
30
0
11
21.365027
21
4.342016
31
0
39
0
210
0
220
0
230
1
0
LINE
5
98
100
AcDbEntity
8
1
62
256
6
ByLayer
370
18
48
1
60
0
100
AcDbLine
10
22.299573
20
7.677051
30
0
11
22.598792
21
7.849805
31
0
39
0
210
0
220
0
230
1
0
LINE
5
99
100
AcDbEntity
8
1
62
256
6
ByLayer
370
18
48
1
60
0
100
AcDbLine
10
22.790392
20
5.031601
30
0
11
23.089611
21
5.204355
31
0
39
0
210
0
220
0
230
1
0
LINE
5
9A
100
AcDbEntity
8
1
62
256
6
ByLayer
370
18
48
1
60
0
100
AcDbLine
10
23.699613
20
0.35289
30
0
11
21.403841
21
-0.056612
31
0
39
0
210
0
220
0
230
1
0
LINE
5
9B
100
AcDbEntity
8
1
62
256
6
ByLayer
370
18
48
1
60
0
100
AcDbLine
10
9.705862
20
10.518988
30
0
11
10.146371
21
8.144704
31
0
39
0
210
0
220
0
230
1
0
LINE
5
9C
100
AcDbEntity
8
1
62
256
6
ByLayer
370
18
48
1
60
0
100
AcDbLine
10
19.162828
20
12.022159
30
0
11
21.458599
21
12.431661
31
0
39
0
210
0
220
0
230
1
0
LINE
5
9D
100
AcDbEntity
8
1
62
256
6
ByLayer
370
18
48
1
60
0
100
AcDbLine
10
20.363285
20
-4.841592
30
0
11
20.351718
21
-4.876835
31
0
39
0
210
0
220
0
230
1
0
LINE
5
9E
100
AcDbEntity
8
1
62
256
6
ByLayer
370
18
48
1
60
0
100
AcDbLine
10
13.070385
20
8.64072
30
0
11
10.035592
21
8.102164
31
0
39
0
210
0
220
0
230
1
0
LINE
5
9F
100
AcDbEntity
8
1
62
256
6
ByLayer
370
18
48
1
60
0
100
AcDbLine
10
42.372856
20
13.409345
30
0
11
40.783062
21
14.607529
31
0
39
0
210
0
220
0
230
1
0
LINE
5
A0
100
AcDbEntity
8
1
62
256
6
ByLayer
370
18
48
1
60
0
100
AcDbLine
10
9.619769
20
10.835427
30
0
11
6.639414
21
9.690941
31
0
39
0
210
0
220
0
230
1
0
LINE
5
A1
100
AcDbEntity
8
1
62
256
6
ByLayer
370
18
48
1
60
0
100
AcDbLine
10
20.346383
20
-4.848083
30
0
11
20.351718
21
-4.876835
31
0
39
0
210
0
220
0
230
1
0
LINE
5
A2
100
AcDbEntity
8
1
62
256
6
ByLayer
370
18
48
1
60
0
100
AcDbLine
10
19.162828
20
12.022159
30
0
11
18.584632
21
11.800127
31
0
39
0
210
0
220
0
230
1
0
LINE
5
A3
100
AcDbEntity
8
1
62
256
6
ByLayer
370
18
48
1
60
0
100
AcDbLine
10
17.484275
20
-5.358603
30
0
11
13.994426
21
-6.180502
31
0
39
0
210
0
220
0
230
1
0
LINE
5
A4
100
AcDbEntity
8
1
62
256
6
ByLayer
370
18
48
1
60
0
100
AcDbLine
10
16.606026
20
15.311955
30
0
11
16.628263
21
15.289693
31
0
39
0
210
0
220
0
230
1
0
LINE
5
A5
100
AcDbEntity
8
1
62
256
6
ByLayer
370
18
48
1
60
0
100
AcDbLine
10
11.603941
20
0.288593
30
0
11
11.493162
21
0.246053
31
0
39
0
210
0
220
0
230
1
0
LINE
5
A6
100
AcDbEntity
8
1
62
256
6
ByLayer
370
18
48
1
60
0
100
AcDbLine
10
21.458599
20
12.431661
30
0
11
20.870272
21
12.205737
31
0
39
0
210
0
220
0
230
1
0
LINE
5
A7
100
AcDbEntity
8
1
62
256
6
ByLayer
370
18
48
1
60
0
100
AcDbLine
10
10.146371
20
8.144704
30
0
11
10.035592
21
8.102164
31
0
39
0
210
0
220
0
230
1
0
LINE
5
A8
100
AcDbEntity
8
1
62
256
6
ByLayer
370
18
48
1
60
0
100
AcDbLine
10
39.818208
20
9.345085
30
0
11
45.884174
21
10.092244
31
0
39
0
210
0
220
0
230
1
0
LINE
5
A9
100
AcDbEntity
8
1
62
256
6
ByLayer
370
18
48
1
60
0
100
AcDbLine
10
6.545919
20
10.05976
30
0
11
9.147275
21
-3.96121
31
0
39
0
210
0
220
0
230
1
0
LINE
5
AA
100
AcDbEntity
8
1
62
256
6
ByLayer
370
18
48
1
60
0
100
AcDbLine
10
16.628263
20
15.289693
30
0
11
10.734431
21
14.238398
31
0
39
0
210
0
220
0
230
1
0
LINE
5
AB
100
AcDbEntity
8
1
62
256
6
ByLayer
370
18
48
1
60
0
100
AcDbLine
10
18.584632
20
11.800127
30
0
11
20.870272
21
12.205737
31
0
39
0
210
0
220
0
230
1
0
LINE
5
AC
100
AcDbEntity
8
1
62
256
6
ByLayer
370
18
48
1
60
0
100
AcDbLine
10
10.035592
20
8.102164
30
0
11
11.493162
21
0.246053
31
0
39
0
210
0
220
0
230
1
0
LINE
5
AD
100
AcDbEntity
8
1
62
256
6
ByLayer
370
18
48
1
60
0
100
AcDbLine
10
9.099064
20
-3.566246
30
0
11
6.639414
21
9.690941
31
0
39
0
210
0
220
0
230
1
0
LINE
5
AE
100
AcDbEntity
8
1
62
256
6
ByLayer
370
18
48
1
60
0
100
AcDbLine
10
42.746863
20
4.023034
30
0
11
43.80442
21
5.693404
31
0
39
0
210
0
220
0
230
1
0
LINE
5
AF
100
AcDbEntity
8
1
62
256
6
ByLayer
370
18
48
1
60
0
100
AcDbLine
10
20.363285
20
-4.841592
30
0
11
20.346383
21
-4.848083
31
0
39
0
210
0
220
0
230
1
0
LINE
5
B0
100
AcDbEntity
8
1
62
256
6
ByLayer
370
18
48
1
60
0
100
AcDbLine
10
14.469454
20
-5.892887
30
0
11
13.311403
21
-6.33759
31
0
39
0
210
0
220
0
230
1
0
LINE
5
B1
100
AcDbEntity
8
1
62
256
6
ByLayer
370
18
48
1
60
0
100
AcDbLine
10
20.792208
20
16.058653
30
0
11
16.606026
21
15.311955
31
0
39
0
210
0
220
0
230
1
0
LINE
5
B2
100
AcDbEntity
8
1
62
256
6
ByLayer
370
18
48
1
60
0
100
AcDbLine
10
14.469454
20
-5.892887
30
0
11
20.363285
21
-4.841592
31
0
39
0
210
0
220
0
230
1
0
LINE
5
B3
100
AcDbEntity
8
1
62
256
6
ByLayer
370
18
48
1
60
0
100
AcDbLine
10
17.484275
20
-5.358603
30
0
11
20.346383
21
-4.848083
31
0
39
0
210
0
220
0
230
1
0
LINE
5
B4
100
AcDbEntity
8
1
62
256
6
ByLayer
370
18
48
1
60
0
100
AcDbLine
10
11.603941
20
0.288593
30
0
11
12.044449
21
-2.08569
31
0
39
0
210
0
220
0
230
1
0
LINE
5
B5
100
AcDbEntity
8
1
62
256
6
ByLayer
370
18
48
1
60
0
100
AcDbLine
10
24.537899
20
-4.130137
30
0
11
20.351718
21
-4.876835
31
0
39
0
210
0
220
0
230
1
0
LINE
5
B6
100
AcDbEntity
8
1
62
256
6
ByLayer
370
18
48
1
60
0
100
AcDbLine
10
13.157167
20
-2.734622
30
0
11
24.886569
21
-0.642424
31
0
39
0
210
0
220
0
230
1
0
LINE
5
B7
100
AcDbEntity
8
1
62
256
6
ByLayer
370
18
48
1
60
0
100
AcDbLine
10
12.079418
20
-2.421761
30
0
11
9.099064
21
-3.566246
31
0
39
0
210
0
220
0
230
1
0
LINE
5
B8
100
AcDbEntity
8
1
62
256
6
ByLayer
370
18
48
1
60
0
100
AcDbLine
10
10.512962
20
11.517295
30
0
11
22.242365
21
13.609493
31
0
39
0
210
0
220
0
230
1
0
LINE
5
B9
100
AcDbEntity
8
1
62
256
6
ByLayer
370
18
48
1
60
0
100
AcDbLine
10
13.919788
20
8.966899
30
0
11
13.070385
21
8.64072
31
0
39
0
210
0
220
0
230
1
0
LINE
5
BA
100
AcDbEntity
8
1
62
256
6
ByLayer
370
18
48
1
60
0
100
AcDbLine
10
32.344313
20
24.017201
30
0
11
32.440597
21
23.921442
31
0
39
0
210
0
220
0
230
1
0
LINE
5
BB
100
AcDbEntity
8
1
62
256
6
ByLayer
370
18
48
1
60
0
100
AcDbLine
10
40.621722
20
-19.531322
30
0
11
47.552513
21
-15.529828
31
0
39
0
210
0
220
0
230
1
0
LINE
5
BC
100
AcDbEntity
8
1
62
256
6
ByLayer
370
18
48
1
60
0
100
AcDbLine
10
15.427238
20
-22.827068
30
0
11
19.782098
21
-21.684992
31
0
39
0
210
0
220
0
230
1
0
LINE
5
BD
100
AcDbEntity
8
1
62
256
6
ByLayer
370
18
48
1
60
0
100
AcDbLine
10
32.344313
20
24.017201
30
0
11
24.13382
21
26.217196
31
0
39
0
210
0
220
0
230
1
0
LINE
5
BE
100
AcDbEntity
8
1
62
256
6
ByLayer
370
18
48
1
60
0
100
AcDbLine
10
24.13382
20
26.217196
30
0
11
11.494865
21
26.217196
31
0
39
0
210
0
220
0
230
1
0
LINE
5
BF
100
AcDbEntity
8
1
62
256
6
ByLayer
370
18
48
1
60
0
100
AcDbLine
10
6.042512
20
-24.944522
30
0
11
14.525822
21
-23.071492
31
0
39
0
210
0
220
0
230
1
0
LINE
5
C0
100
AcDbEntity
8
1
62
256
6
ByLayer
370
18
48
1
60
0
100
AcDbLine
10
0.729304
20
26.217196
30
0
11
0.712268
21
26.217196
31
0
39
0
210
0
220
0
230
1
0
LINE
5
C1
100
AcDbEntity
8
1
62
256
6
ByLayer
370
18
48
1
60
0
100
AcDbLine
10
47.552513
20
-15.529828
30
0
11
23.411254
21
-20.859978
31
0
39
0
210
0
220
0
230
1
0
LINE
5
C2
100
AcDbEntity
8
1
62
256
6
ByLayer
370
18
48
1
60
0
100
AcDbLine
10
6.327897
20
26.217196
30
0
11
11.494865
21
26.217196
31
0
39
0
210
0
220
0
230
1
0
LINE
5
C3
100
AcDbEntity
8
1
62
256
6
ByLayer
370
18
48
1
60
0
100
AcDbLine
10
0.5
20
-24.927182
30
0
11
1.714214
21
-24.946954
31
0
39
0
210
0
220
0
230
1
0
LINE
5
C4
100
AcDbEntity
8
1
62
256
6
ByLayer
370
18
48
1
60
0
100
AcDbLine
10
17.852272
20
-24.707487
30
0
11
40.621722
21
-19.531322
31
0
39
0
210
0
220
0
230
1
0
LINE
5
C5
100
AcDbEntity
8
1
62
256
6
ByLayer
370
18
48
1
60
0
100
AcDbLine
10
6.042512
20
-24.944522
30
0
11
1.714214
21
-24.946954
31
0
39
0
210
0
220
0
230
1
0
LINE
5
C6
100
AcDbEntity
8
1
62
256
6
ByLayer
370
18
48
1
60
0
100
AcDbLine
10
0.712268
20
26.217196
30
0
11
0.5
21
25.425
31
0
39
0
210
0
220
0
230
1
0
LINE
5
C7
100
AcDbEntity
8
1
62
256
6
ByLayer
370
18
48
1
60
0
100
AcDbLine
10
5.381131
20
26.217196
30
0
11
6.299703
21
26.217196
31
0
39
0
210
0
220
0
230
1
0
LINE
5
C8
100
AcDbEntity
8
1
62
256
6
ByLayer
370
18
48
1
60
0
100
AcDbLine
10
49.976027
20
-6.073052
30
0
11
49.939287
21
-5.941251
31
0
39
0
210
0
220
0
230
1
0
LINE
5
C9
100
AcDbEntity
8
1
62
256
6
ByLayer
370
18
48
1
60
0
100
AcDbLine
10
0.5
20
25.425
30
0
11
0.5
21
-24.927182
31
0
39
0
210
0
220
0
230
1
0
LINE
5
CA
100
AcDbEntity
8
1
62
256
6
ByLayer
370
18
48
1
60
0
100
AcDbLine
10
47.552513
20
-15.529828
30
0
11
49.976027
21
-6.073052
31
0
39
0
210
0
220
0
230
1
0
LINE
5
CB
100
AcDbEntity
8
1
62
256
6
ByLayer
370
18
48
1
60
0
100
AcDbLine
10
0
20
-24.925
30
0
11
0
21
24.925
31
0
39
0
210
0
220
0
230
1
0
LINE
5
CC
100
AcDbEntity
8
1
62
256
6
ByLayer
370
18
48
1
60
0
100
AcDbLine
10
18.722502
20
-12.738821
30
0
11
19.782098
21
-21.684992
31
0
39
0
210
0
220
0
230
1
0
LINE
5
CD
100
AcDbEntity
8
1
62
256
6
ByLayer
370
18
48
1
60
0
100
AcDbLine
10
23.411254
20
-20.859978
30
0
11
19.782098
21
-21.684992
31
0
39
0
210
0
220
0
230
1
0
LINE
5
CE
100
AcDbEntity
8
1
62
256
6
ByLayer
370
18
48
1
60
0
100
AcDbLine
10
0.729304
20
26.217196
30
0
11
5.381131
21
26.217196
31
0
39
0
210
0
220
0
230
1
0
LINE
5
CF
100
AcDbEntity
8
1
62
256
6
ByLayer
370
18
48
1
60
0
100
AcDbLine
10
0.5
20
25.425
30
0
11
0
21
24.925
31
0
39
0
210
0
220
0
230
1
0
LINE
5
D0
100
AcDbEntity
8
1
62
256
6
ByLayer
370
18
48
1
60
0
100
AcDbLine
10
15.401773
20
-22.841771
30
0
11
15.427238
21
-22.827068
31
0
39
0
210
0
220
0
230
1
0
LINE
5
D1
100
AcDbEntity
8
1
62
256
6
ByLayer
370
18
48
1
60
0
100
AcDbLine
10
1.714214
20
-24.946954
30
0
11
0.729304
21
26.217196
31
0
39
0
210
0
220
0
230
1
0
LINE
5
D2
100
AcDbEntity
8
1
62
256
6
ByLayer
370
18
48
1
60
0
100
AcDbLine
10
6.299703
20
26.217196
30
0
11
6.327897
21
26.217196
31
0
39
0
210
0
220
0
230
1
0
LINE
5
D3
100
AcDbEntity
8
1
62
256
6
ByLayer
370
18
48
1
60
0
100
AcDbLine
10
0.5
20
-24.927182
30
0
11
0
21
-24.925
31
0
39
0
210
0
220
0
230
1
0
LINE
5
D4
100
AcDbEntity
8
1
62
256
6
ByLayer
370
18
48
1
60
0
100
AcDbLine
10
6.042512
20
-24.944522
30
0
11
17.852272
21
-24.707487
31
0
39
0
210
0
220
0
230
1
0
LINE
5
D5
100
AcDbEntity
8
1
62
256
6
ByLayer
370
18
48
1
60
0
100
AcDbLine
10
23.411254
20
-20.859978
30
0
11
18.722502
21
-12.738821
31
0
39
0
210
0
220
0
230
1
0
LINE
5
D6
100
AcDbEntity
8
SK1
62
256
6
ByLayer
370
18
48
1
60
0
100
AcDbLine
10
-244.737072
20
24.925
30
0
11
-244.737072
21
-24.925
31
0
39
0
210
0
220
0
230
1
0
LINE
5
D8
100
AcDbEntity
8
SK1
62
256
6
ByLayer
370
18
48
1
60
0
100
AcDbLine
10
0
20
24.925
30
0
11
0
21
-24.925
31
0
39
0
210
0
220
0
230
1
0
LINE
5
D9
100
AcDbEntity
8
SK1
62
256
6
ByLayer
370
18
48
1
60
0
100
AcDbLine
10
-244.737072
20
-24.925
30
0
11
0
21
-24.925
31
0
39
0
210
0
220
0
230
1
0
LINE
5
DA
100
AcDbEntity
8
SK1
62
256
6
ByLayer
370
18
48
1
60
0
100
AcDbLine
10
0
20
24.925
30
0
11
-244.737072
21
24.925
31
0
39
0
210
0
220
0
230
1
0
MTEXT
5
154
100
AcDbEntity
8
SK6
62
256
6
ByLayer
370
18
48
1
60
0
100
AcDbMText
10
-108.187072
20
-35.164879
30
0
210
0
220
0
230
1
1
\W0.7875;DSBNR 5050T 25
40
3.5
41
0
44
1.084337
50
0
71
7
72
5
7
iso_b_vert
0
DIMENSION
5
165
100
AcDbEntity
8
2
62
256
6
ByLayer
370
13
48
1
60
0
100
AcDbDimension
2
DimnDraft3D1
10
53.181877
20
19.344347
30
0
11
41.116392
21
38.620479
31
0
70
34
71
5
72
1
41
1
210
0
220
0
230
1
3
Standard
100
AcDb2LineAngularDimension
13
56.612928
23
18.425
33
0
14
56.612928
24
13.662
34
0
15
56.612928
25
18.425
35
0
16
43.855819
26
35.050389
36
0
40
0
0
DIMENSION
5
17B
100
AcDbEntity
8
SK2
62
256
6
ByLayer
370
13
48
1
60
0
100
AcDbDimension
2
DimnDraft3D2
10
-252.487072
20
24.925
30
0
11
-252.487072
21
-5.281579
31
0
70
32
71
5
72
1
41
1
210
0
220
0
230
1
3
Standard
100
AcDbAlignedDimension
13
-246.737072
23
-24.925
33
0
14
-246.737072
24
24.925
34
0
50
90
100
AcDbRotatedDimension
1001
ACAD
1000
DSTYLE
1002
{
1070
    74
1070
     0
1070
   279
1070
     0
1070
   172
1070
     1
1070
   173
1070
     1
1070
   340
1005
155
1070
    77
1070
     1
1070
    73
1070
     0
1070
   171
1070
     3
1070
   274
1070
     4
1070
   177
1070
     2
1070
   176
1070
     2
1070
   178
1070
     7
1070
    78
1070
     8
1070
    41
1041
3.175
1070
   147
1041
2.25
1070
    42
1041
2.0
1070
    44
1041
2.0
1070
   140
1041
4.5
1070
   343
1005
166
1070
   344
1005
166
1002
}
0
DIMENSION
5
189
100
AcDbEntity
8
2
62
256
6
ByLayer
370
13
48
1
60
0
100
AcDbDimension
2
DimnDraft3D3
10
78.862928
20
18.425
30
0
11
78.862928
21
-8.768421
31
0
70
32
71
5
72
1
41
1
210
0
220
0
230
1
3
Standard
100
AcDbAlignedDimension
13
2
23
-24.925
33
0
14
58.612928
24
18.425
34
0
50
90
100
AcDbRotatedDimension
1001
ACAD
1000
DSTYLE
1002
{
1070
    74
1070
     0
1070
   279
1070
     0
1070
   172
1070
     1
1070
   173
1070
     1
1070
   340
1005
155
1070
    77
1070
     1
1070
    73
1070
     0
1070
   171
1070
     3
1070
   274
1070
     4
1070
   177
1070
     2
1070
   176
1070
     2
1070
   178
1070
     7
1070
    78
1070
     8
1070
    41
1041
3.175
1070
   147
1041
2.25
1070
    42
1041
2.0
1070
    44
1041
2.0
1070
   140
1041
4.5
1070
   343
1005
166
1070
   344
1005
166
1002
}
0
DIMENSION
5
197
100
AcDbEntity
8
2
62
256
6
ByLayer
370
13
48
1
60
0
100
AcDbDimension
2
DimnDraft3D4
10
56.612928
20
48.175
30
0
11
23.024885
21
48.175
31
0
70
32
71
5
72
1
41
1
210
0
220
0
230
1
3
Standard
100
AcDbAlignedDimension
13
0
23
26.925
33
0
14
56.612928
24
20.425
34
0
50
0
100
AcDbRotatedDimension
1001
ACAD
1000
DSTYLE
1002
{
1070
   279
1070
     0
1070
   172
1070
     1
1070
   173
1070
     1
1070
   340
1005
155
1070
    77
1070
     1
1070
    73
1070
     0
1070
   171
1070
     3
1070
   274
1070
     4
1070
   177
1070
     2
1070
   176
1070
     2
1070
   178
1070
     7
1070
    78
1070
     8
1070
    41
1041
3.175
1070
   147
1041
2.25
1070
    42
1041
2.0
1070
    44
1041
2.0
1070
   140
1041
4.5
1070
   343
1005
166
1070
   344
1005
166
1002
}
0
DIMENSION
5
1A5
100
AcDbEntity
8
SK2
62
256
6
ByLayer
370
13
48
1
60
0
100
AcDbDimension
2
DimnDraft3D5
10
-244.737072
20
58.175
30
0
11
-101.02523
21
58.175
31
0
70
32
71
5
72
1
41
1
210
0
220
0
230
1
3
Standard
100
AcDbAlignedDimension
13
56.612928
23
20.425
33
0
14
-244.737072
24
26.925
34
0
50
0
100
AcDbRotatedDimension
1001
ACAD
1000
DSTYLE
1002
{
1070
   279
1070
     0
1070
   172
1070
     1
1070
   173
1070
     1
1070
   340
1005
155
1070
    77
1070
     1
1070
    73
1070
     0
1070
   171
1070
     3
1070
   274
1070
     4
1070
   177
1070
     2
1070
   176
1070
     2
1070
   178
1070
     7
1070
    78
1070
     8
1070
    41
1041
3.175
1070
   147
1041
2.25
1070
    42
1041
2.0
1070
    44
1041
2.0
1070
   140
1041
4.5
1070
   343
1005
166
1070
   344
1005
166
1002
}
0
ENDSEC
0
SECTION
2
OBJECTS
0
DICTIONARY
5
20f
330
0
100
AcDbDictionary
280
0
281
1
3
ACAD_GROUP
350
210
3
ACAD_MLINESTYLE
350
211
0
DICTIONARY
5
210
330
0
100
AcDbDictionary
280
0
281
1
0
DICTIONARY
5
211
330
0
100
AcDbDictionary
280
0
281
1
3
Standard
350
18
0
MLINESTYLE
5
18
330
211
100
AcDbMlineStyle
2
Standard
70
0
3

62
256
51
90
52
90
71
2
49
-0.5
62
256
6
ByLayer
49
0.5
62
256
6
ByLayer
0
RASTERVARIABLES
5
1fe
330

100
AcDbRasterVariables
90
0
70
1
71
1
72
1
0
ENDSEC
0
EOF
