0
SECTION
2
HEADER
9
$ACADVER
1
AC1015
9
$DWGCODEPAGE
3
ANSI_1252
9
$HANDSEED
5
218
9
$ANGBASE
50
0
9
$ANGDIR
70
0
9
$ATTMODE
70
1
9
$AUNITS
70
0
9
$AUPREC
70
0
9
$CECOLOR
62
256
9
$CELTSCALE
40
1
9
$CELTYPE
6
ByLayer
9
$CELWEIGHT
370
18
9
$CLAYER
8
0
9
$CMLJUST
70
0
9
$CMLSCALE
40
1
9
$CMLSTYLE
2
Standard
9
$DIMSTYLE
2
Standard
9
$TEXTSIZE
40
0.2
9
$TEXTSTYLE
7
Standard
9
$LUNITS
70
2
9
$LUPREC
70
4
9
$EXTNAMES
290
1
9
$INSUNITS
70
4
9
$LTSCALE
40
1
9
$LWDISPLAY
290
1
9
$PDMODE
70
0
9
$PDSIZE
40
0
9
$PLINEGEN
70
0
0
ENDSEC
0
SECTION
2
CLASSES
0
CLASS
1
RASTERVARIABLES
2
AcDbRasterVariables
3
ISM
90
0
280
0
281
0
0
ENDSEC
0
SECTION
2
TABLES
0
TABLE
2
VPORT
5
20e
100
AcDbSymbolTable
0
VPORT
5
1
100
AcDbSymbolTableRecord
100
AcDbViewportTableRecord
2
*Active
70
0
10
0
20
0
11
1
21
1
12
-1
22
1
13
0
23
0
14
0.5
24
0.5
15
10
25
10
16
0
26
0
36
1
17
0
27
0
37
0
0
ENDTAB
0
TABLE
2
LTYPE
5
20f
100
AcDbSymbolTable
0
LTYPE
5
14
100
AcDbSymbolTableRecord
100
AcDbLinetypeTableRecord
70
0
2
ByBlock
3

72
65
73
0
40
0
0
LTYPE
5
15
100
AcDbSymbolTableRecord
100
AcDbLinetypeTableRecord
70
0
2
ByLayer
3

72
65
73
0
40
0
0
LTYPE
5
16
100
AcDbSymbolTableRecord
100
AcDbLinetypeTableRecord
70
0
2
CONTINUOUS
3
Solid line
72
65
73
0
40
0
0
LTYPE
5
6A
100
AcDbSymbolTableRecord
100
AcDbLinetypeTableRecord
70
0
2
CENTER
3
____ _ ____ _ ____ _ ____
72
65
73
4
40
47.5
49
22
74
0
49
-8.5
74
0
49
8.5
74
0
49
-8.5
74
0
0
LTYPE
5
6B
100
AcDbSymbolTableRecord
100
AcDbLinetypeTableRecord
70
0
2
DASHED
3
__ __ __ __ __ __ __ __ __
72
65
73
2
40
25.72
49
12.86
74
0
49
-12.86
74
0
0
ENDTAB
0
TABLE
2
LAYER
5
210
100
AcDbSymbolTable
0
LAYER
5
10
100
AcDbSymbolTableRecord
100
AcDbLayerTableRecord
2
0
70
0
62
7
6
CONTINUOUS
290
1
370
-3
390
0
0
LAYER
5
6D
100
AcDbSymbolTableRecord
100
AcDbLayerTableRecord
2
2
70
0
62
7
6
CONTINUOUS
290
1
370
-3
390
0
0
LAYER
5
6F
100
AcDbSymbolTableRecord
100
AcDbLayerTableRecord
2
80
70
0
62
-6
6
CONTINUOUS
290
1
370
-3
390
0
0
LAYER
5
71
100
AcDbSymbolTableRecord
100
AcDbLayerTableRecord
2
81
70
0
62
-3
6
CONTINUOUS
290
1
370
-3
390
0
0
LAYER
5
73
100
AcDbSymbolTableRecord
100
AcDbLayerTableRecord
2
1
70
0
62
4
6
CONTINUOUS
290
1
370
-3
390
0
0
LAYER
5
1fb
100
AcDbSymbolTableRecord
100
AcDbLayerTableRecord
2
SK1
70
0
62
4
6
CONTINUOUS
290
1
370
-3
390
0
0
LAYER
5
1fc
100
AcDbSymbolTableRecord
100
AcDbLayerTableRecord
2
SK6
70
0
62
5
6
CONTINUOUS
290
1
370
-3
390
0
0
LAYER
5
1fd
100
AcDbSymbolTableRecord
100
AcDbLayerTableRecord
2
SK2
70
0
62
7
6
CONTINUOUS
290
1
370
-3
390
0
0
ENDTAB
0
TABLE
2
STYLE
5
211
100
AcDbSymbolTable
0
STYLE
5
11
100
AcDbSymbolTableRecord
100
AcDbTextStyleTableRecord
2
Standard
3
txt
70
0
71
0
40
0
41
1
42
0
50
0
0
STYLE
5
151
100
AcDbSymbolTableRecord
100
AcDbTextStyleTableRecord
2
iso_b_vert
3
simplex.shx
70
0
71
0
40
0
41
1
42
0
50
0
0
STYLE
5
152
100
AcDbSymbolTableRecord
100
AcDbTextStyleTableRecord
2
DWGDirectTextStyle
3
simplex
70
0
71
0
40
0
41
1
42
0
50
0
0
ENDTAB
0
TABLE
2
DIMSTYLE
5
212
100
AcDbSymbolTable
100
AcDbDimStyleTable
0
DIMSTYLE
105
27
100
AcDbSymbolTableRecord
100
AcDbDimStyleTableRecord
2
Standard
70
0
3
<>
41
0.18
42
0.0625
44
0.18
140
0.18
147
0.09
73
0
74
0
77
1
271
2
275
0
278
52
280
0
340
11
0
ENDTAB
0
TABLE
2
VIEW
5
213
100
AcDbSymbolTable
0
ENDTAB
0
TABLE
2
UCS
5
214
100
AcDbSymbolTable
0
ENDTAB
0
TABLE
2
APPID
5
215
100
AcDbSymbolTable
0
APPID
5
12
100
AcDbSymbolTableRecord
100
AcDbRegAppTableRecord
2
ACAD
70
0
0
ENDTAB
0
TABLE
2
BLOCK_RECORD
5
216
100
AcDbSymbolTable
0
BLOCK_RECORD
5
1F
100
AcDbSymbolTableRecord
100
AcDbBlockTableRecord
2
*Model_Space
340
0
70
0
0
BLOCK_RECORD
5
1B
100
AcDbSymbolTableRecord
100
AcDbBlockTableRecord
2
*Paper_Space
340
0
70
0
0
BLOCK_RECORD
5
23
100
AcDbSymbolTableRecord
100
AcDbBlockTableRecord
2
*Paper_Space0
340
0
70
0
0
BLOCK_RECORD
5
154
100
AcDbSymbolTableRecord
100
AcDbBlockTableRecord
2
DimnDraft3D1
340
0
70
0
0
BLOCK_RECORD
5
162
100
AcDbSymbolTableRecord
100
AcDbBlockTableRecord
2
_CLOSED
340
0
70
0
0
BLOCK_RECORD
5
169
100
AcDbSymbolTableRecord
100
AcDbBlockTableRecord
2
DimnDraft3D2
340
0
70
0
0
BLOCK_RECORD
5
178
100
AcDbSymbolTableRecord
100
AcDbBlockTableRecord
2
DimnDraft3D3
340
0
70
0
0
BLOCK_RECORD
5
186
100
AcDbSymbolTableRecord
100
AcDbBlockTableRecord
2
DimnDraft3D4
340
0
70
0
0
BLOCK_RECORD
5
194
100
AcDbSymbolTableRecord
100
AcDbBlockTableRecord
2
DimnDraft3D5
340
0
70
0
0
ENDTAB
0
ENDSEC
0
SECTION
2
BLOCKS
0
BLOCK
5
20
100
AcDbEntity
8
0
100
AcDbBlockBegin
2
*Model_Space
70
0
10
0
20
0
30
0
3
*Model_Space
0
ENDBLK
5
21
100
AcDbEntity
8
0
100
AcDbBlockEnd
0
BLOCK
5
1C
100
AcDbEntity
8
0
100
AcDbBlockBegin
2
*Paper_Space
70
0
10
0
20
0
30
0
3
*Paper_Space
0
ENDBLK
5
1D
100
AcDbEntity
8
0
100
AcDbBlockEnd
0
BLOCK
5
24
100
AcDbEntity
8
0
100
AcDbBlockBegin
2
*Paper_Space0
70
0
10
0
20
0
30
0
3
*Paper_Space0
0
ENDBLK
5
25
100
AcDbEntity
8
0
100
AcDbBlockEnd
0
BLOCK
5
15F
100
AcDbEntity
8
0
100
AcDbBlockBegin
2
DimnDraft3D1
70
0
10
0
20
0
30
0
3
DimnDraft3D1
0
MTEXT
5
155
100
AcDbEntity
8
2
62
256
6
ByLayer
370
18
48
1
60
0
100
AcDbMText
10
40.855101
20
31.165889
30
0
210
0
220
0
230
1
1
\W0.7399;75%%d
40
4.5
41
0
44
1.084337
50
37.5000000000003
71
7
72
5
7
iso_b_vert
0
LINE
5
156
100
AcDbEntity
8
2
62
256
6
ByLayer
370
13
48
1
60
0
100
AcDbLine
10
56.612928
20
17.425
30
0
11
56.612928
21
38.380844
31
0
39
0
210
0
220
0
230
1
0
LINE
5
157
100
AcDbEntity
8
2
62
256
6
ByLayer
370
13
48
1
60
0
100
AcDbLine
10
51.250025
20
16.861986
30
0
11
34.439286
21
21.36641
31
0
39
0
210
0
220
0
230
1
0
ARC
5
158
100
AcDbEntity
8
2
62
256
6
ByLayer
370
13
48
1
60
0
100
AcDbCircle
39
0
10
56.612928
20
15.425
30
0
40
20.9558441220057
210
0
220
0
230
1
100
AcDbArc
50
90
51
165
0
LINE
5
159
100
AcDbEntity
8
2
62
256
6
ByLayer
370
13
48
1
60
0
100
AcDbLine
10
56.612928
20
36.380844
30
0
11
53.455997
21
35.843144
31
0
39
0
210
0
220
0
230
1
0
LINE
5
15A
100
AcDbEntity
8
2
62
256
6
ByLayer
370
13
48
1
60
0
100
AcDbLine
10
56.612928
20
36.380844
30
0
11
53.424397
21
36.67854
31
0
39
0
210
0
220
0
230
1
0
LINE
5
15B
100
AcDbEntity
8
2
62
256
6
ByLayer
370
13
48
1
60
0
100
AcDbLine
10
53.455997
20
35.843144
30
0
11
53.424397
21
36.67854
31
0
39
0
210
0
220
0
230
1
0
LINE
5
15C
100
AcDbEntity
8
2
62
256
6
ByLayer
370
13
48
1
60
0
100
AcDbLine
10
36.371137
20
20.848772
30
0
11
36.908837
21
24.005703
31
0
39
0
210
0
220
0
230
1
0
LINE
5
15D
100
AcDbEntity
8
2
62
256
6
ByLayer
370
13
48
1
60
0
100
AcDbLine
10
36.371137
20
20.848772
30
0
11
37.707591
21
23.758969
31
0
39
0
210
0
220
0
230
1
0
LINE
5
15E
100
AcDbEntity
8
2
62
256
6
ByLayer
370
13
48
1
60
0
100
AcDbLine
10
36.908837
20
24.005703
30
0
11
37.707591
21
23.758969
31
0
39
0
210
0
220
0
230
1
0
ENDBLK
5
160
100
AcDbEntity
8
0
100
AcDbBlockEnd
0
BLOCK
5
163
100
AcDbEntity
8
0
100
AcDbBlockBegin
2
_CLOSED
70
0
10
0
20
0
30
0
3
_CLOSED
0
LINE
5
165
100
AcDbEntity
8
0
62
256
6
ByLayer
370
-2
48
1
60
0
100
AcDbLine
10
-1
20
0.166667
30
0
11
0
21
0
31
0
39
0
210
0
220
0
230
1
0
LINE
5
166
100
AcDbEntity
8
0
62
256
6
ByLayer
370
-2
48
1
60
0
100
AcDbLine
10
0
20
0
30
0
11
-1
21
-0.166667
31
0
39
0
210
0
220
0
230
1
0
LINE
5
167
100
AcDbEntity
8
0
62
256
6
ByLayer
370
-2
48
1
60
0
100
AcDbLine
10
-1
20
0.166667
30
0
11
-1
21
-0.166667
31
0
39
0
210
0
220
0
230
1
0
LINE
5
168
100
AcDbEntity
8
0
62
256
6
ByLayer
370
-2
48
1
60
0
100
AcDbLine
10
0
20
0
30
0
11
-1
21
0
31
0
39
0
210
0
220
0
230
1
0
ENDBLK
5
164
100
AcDbEntity
8
0
100
AcDbBlockEnd
0
BLOCK
5
175
100
AcDbEntity
8
0
100
AcDbBlockBegin
2
DimnDraft3D2
70
0
10
0
20
0
30
0
3
DimnDraft3D2
0
MTEXT
5
16A
100
AcDbEntity
8
SK2
62
256
6
ByLayer
370
18
48
1
60
0
100
AcDbMText
10
-203.612072
20
-4.393421
30
0
210
0
220
0
230
1
1
\W0.7640;40.0
40
4.5
41
0
44
1.084337
50
90
71
7
72
5
7
iso_b_vert
0
LINE
5
16C
100
AcDbEntity
8
SK2
62
256
6
ByLayer
370
13
48
1
60
0
100
AcDbLine
10
-196.737072
20
-19.925
30
0
11
-204.487072
21
-19.925
31
0
39
0
210
0
220
0
230
1
0
LINE
5
16D
100
AcDbEntity
8
SK2
62
256
6
ByLayer
370
13
48
1
60
0
100
AcDbLine
10
-196.737072
20
19.925
30
0
11
-204.487072
21
19.925
31
0
39
0
210
0
220
0
230
1
0
LINE
5
16E
100
AcDbEntity
8
SK2
62
256
6
ByLayer
370
13
48
1
60
0
100
AcDbLine
10
-202.487072
20
-19.925
30
0
11
-202.487072
21
19.925
31
0
39
0
210
0
220
0
230
1
0
LINE
5
16F
100
AcDbEntity
8
SK2
62
256
6
ByLayer
370
13
48
1
60
0
100
AcDbLine
10
-202.487072
20
-19.925
30
0
11
-202.905068
21
-16.750002
31
0
39
0
210
0
220
0
230
1
0
LINE
5
170
100
AcDbEntity
8
SK2
62
256
6
ByLayer
370
13
48
1
60
0
100
AcDbLine
10
-202.487072
20
-19.925
30
0
11
-202.069075
21
-16.749998
31
0
39
0
210
0
220
0
230
1
0
LINE
5
171
100
AcDbEntity
8
SK2
62
256
6
ByLayer
370
13
48
1
60
0
100
AcDbLine
10
-202.905068
20
-16.750002
30
0
11
-202.069075
21
-16.749998
31
0
39
0
210
0
220
0
230
1
0
LINE
5
172
100
AcDbEntity
8
SK2
62
256
6
ByLayer
370
13
48
1
60
0
100
AcDbLine
10
-202.487072
20
19.925
30
0
11
-202.069075
21
16.750002
31
0
39
0
210
0
220
0
230
1
0
LINE
5
173
100
AcDbEntity
8
SK2
62
256
6
ByLayer
370
13
48
1
60
0
100
AcDbLine
10
-202.487072
20
19.925
30
0
11
-202.905068
21
16.749998
31
0
39
0
210
0
220
0
230
1
0
LINE
5
174
100
AcDbEntity
8
SK2
62
256
6
ByLayer
370
13
48
1
60
0
100
AcDbLine
10
-202.069075
20
16.750002
30
0
11
-202.905068
21
16.749998
31
0
39
0
210
0
220
0
230
1
0
ENDBLK
5
176
100
AcDbEntity
8
0
100
AcDbBlockEnd
0
BLOCK
5
183
100
AcDbEntity
8
0
100
AcDbBlockBegin
2
DimnDraft3D3
70
0
10
0
20
0
30
0
3
DimnDraft3D3
0
MTEXT
5
179
100
AcDbEntity
8
2
62
256
6
ByLayer
370
18
48
1
60
0
100
AcDbMText
10
77.737928
20
-6.406579
30
0
210
0
220
0
230
1
1
\W0.7346;35.0
40
4.5
41
0
44
1.084337
50
90
71
7
72
5
7
iso_b_vert
0
LINE
5
17A
100
AcDbEntity
8
2
62
256
6
ByLayer
370
13
48
1
60
0
100
AcDbLine
10
2
20
-19.925
30
0
11
80.862928
21
-19.925
31
0
39
0
210
0
220
0
230
1
0
LINE
5
17B
100
AcDbEntity
8
2
62
256
6
ByLayer
370
13
48
1
60
0
100
AcDbLine
10
58.612928
20
15.425
30
0
11
80.862928
21
15.425
31
0
39
0
210
0
220
0
230
1
0
LINE
5
17C
100
AcDbEntity
8
2
62
256
6
ByLayer
370
13
48
1
60
0
100
AcDbLine
10
78.862928
20
-19.925
30
0
11
78.862928
21
15.425
31
0
39
0
210
0
220
0
230
1
0
LINE
5
17D
100
AcDbEntity
8
2
62
256
6
ByLayer
370
13
48
1
60
0
100
AcDbLine
10
78.862928
20
-19.925
30
0
11
78.444932
21
-16.750002
31
0
39
0
210
0
220
0
230
1
0
LINE
5
17E
100
AcDbEntity
8
2
62
256
6
ByLayer
370
13
48
1
60
0
100
AcDbLine
10
78.862928
20
-19.925
30
0
11
79.280925
21
-16.749998
31
0
39
0
210
0
220
0
230
1
0
LINE
5
17F
100
AcDbEntity
8
2
62
256
6
ByLayer
370
13
48
1
60
0
100
AcDbLine
10
78.444932
20
-16.750002
30
0
11
79.280925
21
-16.749998
31
0
39
0
210
0
220
0
230
1
0
LINE
5
180
100
AcDbEntity
8
2
62
256
6
ByLayer
370
13
48
1
60
0
100
AcDbLine
10
78.862928
20
15.425
30
0
11
79.280925
21
12.250002
31
0
39
0
210
0
220
0
230
1
0
LINE
5
181
100
AcDbEntity
8
2
62
256
6
ByLayer
370
13
48
1
60
0
100
AcDbLine
10
78.862928
20
15.425
30
0
11
78.444932
21
12.249998
31
0
39
0
210
0
220
0
230
1
0
LINE
5
182
100
AcDbEntity
8
2
62
256
6
ByLayer
370
13
48
1
60
0
100
AcDbLine
10
79.280925
20
12.250002
30
0
11
78.444932
21
12.249998
31
0
39
0
210
0
220
0
230
1
0
ENDBLK
5
184
100
AcDbEntity
8
0
100
AcDbBlockEnd
0
BLOCK
5
191
100
AcDbEntity
8
0
100
AcDbBlockBegin
2
DimnDraft3D4
70
0
10
0
20
0
30
0
3
DimnDraft3D4
0
MTEXT
5
187
100
AcDbEntity
8
2
62
256
6
ByLayer
370
18
48
1
60
0
100
AcDbMText
10
24.149885
20
46.3
30
0
210
0
220
0
230
1
1
\W0.7346;56.6
40
4.5
41
0
44
1.084337
50
0
71
7
72
5
7
iso_b_vert
0
LINE
5
188
100
AcDbEntity
8
2
62
256
6
ByLayer
370
13
48
1
60
0
100
AcDbLine
10
0
20
21.925
30
0
11
0
21
47.175
31
0
39
0
210
0
220
0
230
1
0
LINE
5
189
100
AcDbEntity
8
2
62
256
6
ByLayer
370
13
48
1
60
0
100
AcDbLine
10
56.612928
20
17.425
30
0
11
56.612928
21
47.175
31
0
39
0
210
0
220
0
230
1
0
LINE
5
18A
100
AcDbEntity
8
2
62
256
6
ByLayer
370
13
48
1
60
0
100
AcDbLine
10
0
20
45.175
30
0
11
56.612928
21
45.175
31
0
39
0
210
0
220
0
230
1
0
LINE
5
18B
100
AcDbEntity
8
2
62
256
6
ByLayer
370
13
48
1
60
0
100
AcDbLine
10
0
20
45.175
30
0
11
3.174998
21
45.592997
31
0
39
0
210
0
220
0
230
1
0
LINE
5
18C
100
AcDbEntity
8
2
62
256
6
ByLayer
370
13
48
1
60
0
100
AcDbLine
10
0
20
45.175
30
0
11
3.175002
21
44.757003
31
0
39
0
210
0
220
0
230
1
0
LINE
5
18D
100
AcDbEntity
8
2
62
256
6
ByLayer
370
13
48
1
60
0
100
AcDbLine
10
3.174998
20
45.592997
30
0
11
3.175002
21
44.757003
31
0
39
0
210
0
220
0
230
1
0
LINE
5
18E
100
AcDbEntity
8
2
62
256
6
ByLayer
370
13
48
1
60
0
100
AcDbLine
10
56.612928
20
45.175
30
0
11
53.43793
21
44.757003
31
0
39
0
210
0
220
0
230
1
0
LINE
5
18F
100
AcDbEntity
8
2
62
256
6
ByLayer
370
13
48
1
60
0
100
AcDbLine
10
56.612928
20
45.175
30
0
11
53.437927
21
45.592997
31
0
39
0
210
0
220
0
230
1
0
LINE
5
190
100
AcDbEntity
8
2
62
256
6
ByLayer
370
13
48
1
60
0
100
AcDbLine
10
53.43793
20
44.757003
30
0
11
53.437927
21
45.592997
31
0
39
0
210
0
220
0
230
1
0
ENDBLK
5
192
100
AcDbEntity
8
0
100
AcDbBlockEnd
0
BLOCK
5
19F
100
AcDbEntity
8
0
100
AcDbBlockBegin
2
DimnDraft3D5
70
0
10
0
20
0
30
0
3
DimnDraft3D5
0
MTEXT
5
195
100
AcDbEntity
8
SK2
62
256
6
ByLayer
370
18
48
1
60
0
100
AcDbMText
10
-74.90023
20
56.3
30
0
210
0
220
0
230
1
1
\W0.7468;250.0
40
4.5
41
0
44
1.084337
50
0
71
7
72
5
7
iso_b_vert
0
LINE
5
196
100
AcDbEntity
8
SK2
62
256
6
ByLayer
370
13
48
1
60
0
100
AcDbLine
10
56.612928
20
17.425
30
0
11
56.612928
21
57.175
31
0
39
0
210
0
220
0
230
1
0
LINE
5
197
100
AcDbEntity
8
SK2
62
256
6
ByLayer
370
13
48
1
60
0
100
AcDbLine
10
-194.737072
20
21.925
30
0
11
-194.737072
21
57.175
31
0
39
0
210
0
220
0
230
1
0
LINE
5
198
100
AcDbEntity
8
SK2
62
256
6
ByLayer
370
13
48
1
60
0
100
AcDbLine
10
56.612928
20
55.175
30
0
11
-194.737072
21
55.175
31
0
39
0
210
0
220
0
230
1
0
LINE
5
199
100
AcDbEntity
8
SK2
62
256
6
ByLayer
370
13
48
1
60
0
100
AcDbLine
10
56.612928
20
55.175
30
0
11
53.43793
21
54.757003
31
0
39
0
210
0
220
0
230
1
0
LINE
5
19A
100
AcDbEntity
8
SK2
62
256
6
ByLayer
370
13
48
1
60
0
100
AcDbLine
10
56.612928
20
55.175
30
0
11
53.437927
21
55.592997
31
0
39
0
210
0
220
0
230
1
0
LINE
5
19B
100
AcDbEntity
8
SK2
62
256
6
ByLayer
370
13
48
1
60
0
100
AcDbLine
10
53.43793
20
54.757003
30
0
11
53.437927
21
55.592997
31
0
39
0
210
0
220
0
230
1
0
LINE
5
19C
100
AcDbEntity
8
SK2
62
256
6
ByLayer
370
13
48
1
60
0
100
AcDbLine
10
-194.737072
20
55.175
30
0
11
-191.562073
21
55.592997
31
0
39
0
210
0
220
0
230
1
0
LINE
5
19D
100
AcDbEntity
8
SK2
62
256
6
ByLayer
370
13
48
1
60
0
100
AcDbLine
10
-194.737072
20
55.175
30
0
11
-191.56207
21
54.757003
31
0
39
0
210
0
220
0
230
1
0
LINE
5
19E
100
AcDbEntity
8
SK2
62
256
6
ByLayer
370
13
48
1
60
0
100
AcDbLine
10
-191.562073
20
55.592997
30
0
11
-191.56207
21
54.757003
31
0
39
0
210
0
220
0
230
1
0
ENDBLK
5
1A0
100
AcDbEntity
8
0
100
AcDbBlockEnd
0
ENDSEC
0
SECTION
2
ENTITIES
0
ELLIPSE
5
D7
100
AcDbEntity
8
1
62
256
6
ByLayer
370
18
48
1
60
0
100
AcDbEllipse
10
21.062968
20
3.046795
30
0
11
0.850000000000002
21
-1.47224318643354
31
0
210
0
220
0
230
1
40
0.989133
41
3.10434452892789
42
-0.713083537140166
0
ELLIPSE
5
D8
100
AcDbEntity
8
1
62
256
6
ByLayer
370
18
48
1
60
0
100
AcDbEllipse
10
21.062968
20
3.046795
30
0
11
0.850000000000002
21
-1.47224318643354
31
0
210
0
220
0
230
1
40
0.989133
41
0.0372665531652417
42
3.10434452892789
0
ELLIPSE
5
D9
100
AcDbEntity
8
1
62
256
6
ByLayer
370
18
48
1
60
0
100
AcDbEllipse
10
41.790663
20
6.319852
30
0
11
2.28
21
-3.94907584125704
31
0
210
0
220
0
230
1
40
0.989133
41
-0.164635455045696
42
-1.96915853815901E-16
0
ELLIPSE
5
DA
100
AcDbEntity
8
1
62
256
6
ByLayer
370
18
48
1
60
0
100
AcDbEllipse
10
41.790663
20
6.319852
30
0
11
2.28
21
-3.94907584125704
31
0
210
0
220
0
230
1
40
0.989133
41
0
42
2.61901194181615
0
ELLIPSE
5
DB
100
AcDbEntity
8
1
62
256
6
ByLayer
370
18
48
1
60
0
100
AcDbEllipse
10
40.779687
20
5.736165
30
0
11
2.28
21
-3.94907584125704
31
0
210
0
220
0
230
1
40
0.989133
41
0.56067194113132
42
-2.1086018370556
0
ELLIPSE
5
DC
100
AcDbEntity
8
1
62
256
6
ByLayer
370
18
48
1
60
0
100
AcDbEllipse
10
40.779687
20
5.736165
30
0
11
2.28
21
-3.94907584125704
31
0
210
0
220
0
230
1
40
0.989133
41
0.129782791638461
42
0.560671941131322
0
ELLIPSE
5
DD
100
AcDbEntity
8
1
62
256
6
ByLayer
370
18
48
1
60
0
100
AcDbEllipse
10
40.450296
20
5.545436
30
0
11
-2.37499999999996
21
4.11362066797626
31
0
210
0
220
0
230
1
40
0.989133
41
-2.58828394990354
42
-2.53281510826772
0
ELLIPSE
5
DE
100
AcDbEntity
8
1
62
256
6
ByLayer
370
18
48
1
60
0
100
AcDbEllipse
10
12.432698
20
9.077769
30
0
11
1.63977731264001
21
-3.0921077544211
31
0
210
0
220
0
230
1
40
0.986566
41
-0.308039714168673
42
-0.119484579459247
0
ELLIPSE
5
DF
100
AcDbEntity
8
1
62
256
6
ByLayer
370
18
48
1
60
0
100
AcDbEllipse
10
19.705139
20
2.760741
30
0
11
2.88132299221031
21
-5.43327505419707
31
0
210
0
220
0
230
1
40
0.986566
41
2.83355293942111
42
2.99468249522356
0
ELLIPSE
5
E0
100
AcDbEntity
8
1
62
256
6
ByLayer
370
18
48
1
60
0
100
AcDbEllipse
10
21.990779
20
3.166352
30
0
11
-2.88132299221034
21
5.43327505419706
31
0
210
0
220
0
230
1
40
0.986566
41
3.06068030970872
42
-0.308039714168675
0
ELLIPSE
5
E1
100
AcDbEntity
8
1
62
256
6
ByLayer
370
18
48
1
60
0
100
AcDbEllipse
10
20.6074
20
1.50632
30
0
11
-0.284999999999987
21
0.493634480157138
31
0
210
0
220
0
230
1
40
0.989133
41
-2.83017860624586
42
-2.72437453597901
0
ELLIPSE
5
E2
100
AcDbEntity
8
1
62
256
6
ByLayer
370
18
48
1
60
0
100
AcDbEllipse
10
21.60464
20
0.773071
30
0
11
0.335000000000001
21
-0.580237020535573
31
0
210
0
220
0
230
1
40
0.989133
41
3.14157219788772
42
-2.72437453597911
0
ELLIPSE
5
E3
100
AcDbEntity
8
1
62
256
6
ByLayer
370
18
48
1
60
0
100
AcDbEllipse
10
20.06777
20
4.414856
30
0
11
-0.284999999999987
21
0.493634480157138
31
0
210
0
220
0
230
1
40
0.989133
41
-1.10442340136544
42
-0.311414179955607
0
ELLIPSE
5
E4
100
AcDbEntity
8
1
62
256
6
ByLayer
370
18
48
1
60
0
100
AcDbEllipse
10
22.274621
20
1.803706
30
0
11
-0.284999999999987
21
0.493634480157138
31
0
210
0
220
0
230
1
40
0.989133
41
-2.83018468234512
42
-1.67717698478236
0
ELLIPSE
5
E5
100
AcDbEntity
8
1
62
256
6
ByLayer
370
18
48
1
60
0
100
AcDbEllipse
10
20.737751
20
5.445491
30
0
11
0.335000000000001
21
-0.580237020535573
31
0
210
0
220
0
230
1
40
0.989133
41
-1.10442340136543
42
-2.04977137546582E-05
0
ELLIPSE
5
E6
100
AcDbEntity
8
1
62
256
6
ByLayer
370
18
48
1
60
0
100
AcDbEllipse
10
23.39665
20
2.299478
30
0
11
0.335000000000001
21
-0.580237020535573
31
0
210
0
220
0
230
1
40
0.989133
41
-3.1415900454158
42
-1.67717698478247
0
ELLIPSE
5
E7
100
AcDbEntity
8
1
62
256
6
ByLayer
370
18
48
1
60
0
100
AcDbEllipse
10
21.734991
20
4.712242
30
0
11
-0.284999999999987
21
0.493634480157138
31
0
210
0
220
0
230
1
40
0.989133
41
-2.15162095256201
42
-0.311448866188313
0
ELLIPSE
5
E8
100
AcDbEntity
8
1
62
256
6
ByLayer
370
18
48
1
60
0
100
AcDbEllipse
10
22.838417
20
3.406667
30
0
11
-0.284999999999987
21
0.493634480157138
31
0
210
0
220
0
230
1
40
0.989133
41
-3.05717161526493
42
-0.6299794335858
0
ELLIPSE
5
E9
100
AcDbEntity
8
1
62
256
6
ByLayer
370
18
48
1
60
0
100
AcDbEllipse
10
20.961106
20
2.987986
30
0
11
3
21
-5.19615242270663
31
0
210
0
220
0
230
1
40
0.989133
41
3.14155259839779
42
-0.528343043247708
0
ELLIPSE
5
EA
100
AcDbEntity
8
1
62
256
6
ByLayer
370
18
48
1
60
0
100
AcDbEllipse
10
20.961106
20
2.987986
30
0
11
3
21
-5.19615242270663
31
0
210
0
220
0
230
1
40
0.989133
41
-0.528343043247704
42
-2.24484073350127E-16
0
ELLIPSE
5
EB
100
AcDbEntity
8
1
62
256
6
ByLayer
370
18
48
1
60
0
100
AcDbEllipse
10
21.171196
20
3.109281
30
0
11
0.850000000000002
21
-1.47224318643354
31
0
210
0
220
0
230
1
40
0.989133
41
-1.0418706689248
42
-0.528342865337046
0
ELLIPSE
5
EC
100
AcDbEntity
8
1
62
256
6
ByLayer
370
18
48
1
60
0
100
AcDbEllipse
10
21.171196
20
3.109281
30
0
11
0.850000000000002
21
-1.47224318643354
31
0
210
0
220
0
230
1
40
0.989133
41
-2.3090123691061
42
-1.68825332658119
0
ELLIPSE
5
ED
100
AcDbEntity
8
1
62
256
6
ByLayer
370
18
48
1
60
0
100
AcDbEllipse
10
21.171196
20
3.109281
30
0
11
0.850000000000002
21
-1.47224318643354
31
0
210
0
220
0
230
1
40
0.989133
41
-0.037149998712463
42
-2.6409890982368E-16
0
ELLIPSE
5
EE
100
AcDbEntity
8
1
62
256
6
ByLayer
370
18
48
1
60
0
100
AcDbEllipse
10
21.171196
20
3.109281
30
0
11
0.850000000000002
21
-1.47224318643354
31
0
210
0
220
0
230
1
40
0.989133
41
0
42
-2.81068570324657
0
ELLIPSE
5
EF
100
AcDbEntity
8
1
62
256
6
ByLayer
370
18
48
1
60
0
100
AcDbEllipse
10
21.171196
20
3.109281
30
0
11
0.850000000000002
21
-1.47224318643354
31
0
210
0
220
0
230
1
40
0.989133
41
-0.528342865337044
42
-0.393622310492951
0
ELLIPSE
5
F0
100
AcDbEntity
8
1
62
256
6
ByLayer
370
18
48
1
60
0
100
AcDbEllipse
10
13.501234
20
-19.941267
30
0
11
-0.813658759149946
21
3.49109764265795E-05
31
0
210
0
220
0
230
1
40
0.004296
41
-3.00174707553201
42
-1.43095074873784
0
ELLIPSE
5
F1
100
AcDbEntity
8
1
62
256
6
ByLayer
370
18
48
1
60
0
100
AcDbEllipse
10
54.251415
20
13.60613
30
0
11
-1.19049999999995
21
2.06200648641078
31
0
210
0
220
0
230
1
40
0.989133
41
-2.35073128167081
42
-0.779934954875919
0
ELLIPSE
5
F2
100
AcDbEntity
8
1
62
256
6
ByLayer
370
18
48
1
60
0
100
AcDbEllipse
10
49.155483
20
-6.278672
30
0
11
-1.19049999999995
21
2.06200648641078
31
0
210
0
220
0
230
1
40
0.989133
41
2.36165769871388
42
-2.35073128167081
0
ELLIPSE
5
F3
100
AcDbEntity
8
1
62
256
6
ByLayer
370
18
48
1
60
0
100
AcDbEllipse
10
34.425843
20
18.918376
30
0
11
-1.19049999999995
21
2.06200648641078
31
0
210
0
220
0
230
1
40
0.989133
41
-0.779934954875919
42
0.790861371918988
0
ELLIPSE
5
F4
100
AcDbEntity
8
1
62
256
6
ByLayer
370
18
48
1
60
0
100
AcDbEllipse
10
10.033552
20
7.287327
30
0
11
-2.73831352644641
21
2.18980561050746
31
0
210
0
220
0
230
1
40
0.993026
41
-0.505272191165009
42
0.743195892142038
0
ELLIPSE
5
F5
100
AcDbEntity
8
1
62
256
6
ByLayer
370
18
48
1
60
0
100
AcDbEllipse
10
17.682652
20
-5.600624
30
0
11
-6.8023147104646
21
-1.69719481641925
31
0
210
0
220
0
230
1
40
0.411064
41
-0.740642048120219
42
-0.703611545979966
0
ELLIPSE
5
F6
100
AcDbEntity
8
1
62
256
6
ByLayer
370
18
48
1
60
0
100
AcDbEllipse
10
42.329758
20
6.654438
30
0
11
-0.178753265067597
21
-4.35885506644227
31
0
210
0
220
0
230
1
40
0.817299
41
1.30902273435569
42
1.70485399886245
0
ELLIPSE
5
F7
100
AcDbEntity
8
1
62
256
6
ByLayer
370
18
48
1
60
0
100
AcDbEllipse
10
14.863498
20
9.594286
30
0
11
-6.95333785606634
21
-0.889425468285914
31
0
210
0
220
0
230
1
40
0.312387
41
0.696065055449892
42
0.733095531557742
0
ELLIPSE
5
F8
100
AcDbEntity
8
1
62
256
6
ByLayer
370
18
48
1
60
0
100
AcDbEllipse
10
12.493202
20
-5.969861
30
0
11
-2.73831352644741
21
2.18980561050366
31
0
210
0
220
0
230
1
40
0.993026
41
0.965875856732983
42
2.21434394004042
0
ELLIPSE
5
F9
100
AcDbEntity
8
1
62
256
6
ByLayer
370
18
48
1
60
0
100
AcDbEllipse
10
10.630373
20
7.585551
30
0
11
-0.26823589281649
21
-0.963353261168997
31
0
210
0
220
0
230
1
40
0.726272
41
-2.61815363012351
42
-1.26347505966849
0
ELLIPSE
5
FA
100
AcDbEntity
8
1
62
256
6
ByLayer
370
18
48
1
60
0
100
AcDbEllipse
10
13.392642
20
8.57725
30
0
11
-4.26611169024066
21
1.59457565168923
31
0
210
0
220
0
230
1
40
0.519679
41
-0.720775765106194
42
0.396911799398646
0
ELLIPSE
5
FB
100
AcDbEntity
8
1
62
256
6
ByLayer
370
18
48
1
60
0
100
AcDbEllipse
10
15.544298
20
5.924887
30
0
11
6.8825447233003
21
1.27694092728332
31
0
210
0
220
0
230
1
40
0.04953
41
1.79987861894547
42
2.46310835861274
0
ELLIPSE
5
FC
100
AcDbEntity
8
1
62
256
6
ByLayer
370
18
48
1
60
0
100
AcDbEllipse
10
17.90026
20
-6.474527
30
0
11
-5.81219038711647
21
-1.54302784732933
31
0
210
0
220
0
230
1
40
0.470683
41
-0.751363119213456
42
-0.320999860024588
0
ELLIPSE
5
FD
100
AcDbEntity
8
1
62
256
6
ByLayer
370
18
48
1
60
0
100
AcDbEllipse
10
12.93957
20
-4.86072
30
0
11
0.664055746150771
21
-0.747683065211552
31
0
210
0
220
0
230
1
40
0.69282
41
-2.00167466723769
42
-0.646996096782887
0
ELLIPSE
5
FE
100
AcDbEntity
8
1
62
256
6
ByLayer
370
18
48
1
60
0
100
AcDbEllipse
10
5.442324
20
-8.677466
30
0
11
-2.84094411841232
21
-3.55255086459474
31
0
210
0
220
0
230
1
40
0.672481
41
2.5037011110516
42
2.61504109400868
0
ELLIPSE
5
FF
100
AcDbEntity
8
1
62
256
6
ByLayer
370
18
48
1
60
0
100
AcDbEllipse
10
8.47517
20
-9.914775
30
0
11
7.86576539805749
21
1.45936105975237
31
0
210
0
220
0
230
1
40
0.04953
41
-0.917827976421353
42
-0.802273398896383
0
ELLIPSE
5
100
100
AcDbEntity
8
1
62
256
6
ByLayer
370
18
48
1
60
0
100
AcDbEllipse
10
17.001867
20
-1.931225
30
0
11
6.8825447233003
21
1.27694092728332
31
0
210
0
220
0
230
1
40
0.04953
41
1.79987861894547
42
2.46310835861274
0
ELLIPSE
5
101
100
AcDbEntity
8
1
62
256
6
ByLayer
370
18
48
1
60
0
100
AcDbEllipse
10
15.852291
20
-4.679938
30
0
11
-2.97621954916931
21
-3.91196847793596
31
0
210
0
220
0
230
1
40
0.564387
41
-0.567559538893661
42
0.550128025611498
0
ELLIPSE
5
102
100
AcDbEntity
8
1
62
256
6
ByLayer
370
18
48
1
60
0
100
AcDbEllipse
10
14.746091
20
10.526032
30
0
11
-5.97268070522755
21
-0.688353968428678
31
0
210
0
220
0
230
1
40
0.372231
41
0.310759650779224
42
0.741122909992309
0
ELLIPSE
5
103
100
AcDbEntity
8
1
62
256
6
ByLayer
370
18
48
1
60
0
100
AcDbEllipse
10
42.329758
20
6.654438
30
0
11
-2.80681803082886
21
3.10118286502633
31
0
210
0
220
0
230
1
40
0.804696
41
-2.08590865887112
42
-1.69007739433454
0
ELLIPSE
5
104
100
AcDbEntity
8
1
62
256
6
ByLayer
370
18
48
1
60
0
100
AcDbEllipse
10
2.982675
20
4.579722
30
0
11
-2.8409441770332
21
-3.55255088336942
31
0
210
0
220
0
230
1
40
0.672481
41
2.61504110172655
42
2.72638108394434
0
ELLIPSE
5
105
100
AcDbEntity
8
1
62
256
6
ByLayer
370
18
48
1
60
0
100
AcDbEllipse
10
22.03421
20
4.884995
30
0
11
-0.284999999999987
21
0.493634480157138
31
0
210
0
220
0
230
1
40
0.989133
41
-2.15162095256206
42
0.417218117610787
0
ELLIPSE
5
106
100
AcDbEntity
8
1
62
256
6
ByLayer
370
18
48
1
60
0
100
AcDbEllipse
10
19.803193
20
2.984649
30
0
11
-0.284999999999987
21
0.493634480157138
31
0
210
0
220
0
230
1
40
0.989133
41
-0.0572258501689665
42
2.51161322000405
0
ELLIPSE
5
107
100
AcDbEntity
8
1
62
256
6
ByLayer
370
18
48
1
60
0
100
AcDbEllipse
10
20.906618
20
1.679074
30
0
11
-0.284999999999987
21
0.493634480157138
31
0
210
0
220
0
230
1
40
0.989133
41
0.989971701027805
42
-2.72437453597896
0
ELLIPSE
5
108
100
AcDbEntity
8
1
62
256
6
ByLayer
370
18
48
1
60
0
100
AcDbEllipse
10
19.678404
20
1.755628
30
0
11
0.335000000000001
21
-0.580237020535573
31
0
210
0
220
0
230
1
40
0.989133
41
1.79714221536779
42
2.51161322000395
0
ELLIPSE
5
109
100
AcDbEntity
8
1
62
256
6
ByLayer
370
18
48
1
60
0
100
AcDbEllipse
10
19.24496
20
4.091838
30
0
11
0.335000000000001
21
-0.580237020535573
31
0
210
0
220
0
230
1
40
0.989133
41
0.749944664170946
42
1.46441566880734
0
ELLIPSE
5
10A
100
AcDbEntity
8
1
62
256
6
ByLayer
370
18
48
1
60
0
100
AcDbEllipse
10
23.137635
20
3.57942
30
0
11
-0.284999999999987
21
0.493634480157138
31
0
210
0
220
0
230
1
40
0.989133
41
3.08436680342098
42
-0.629979433585768
0
ELLIPSE
5
10B
100
AcDbEntity
8
1
62
256
6
ByLayer
370
18
48
1
60
0
100
AcDbEllipse
10
21.036969
20
5.618244
30
0
11
0.335000000000001
21
-0.580237020535573
31
0
210
0
220
0
230
1
40
0.989133
41
-0.297252887025555
42
0.417218117610779
0
ELLIPSE
5
10C
100
AcDbEntity
8
1
62
256
6
ByLayer
370
18
48
1
60
0
100
AcDbEllipse
10
23.262424
20
4.808441
30
0
11
0.335000000000001
21
-0.580237020535573
31
0
210
0
220
0
230
1
40
0.989133
41
-1.34445043822209
42
-0.629979433585842
0
ELLIPSE
5
10D
100
AcDbEntity
8
1
62
256
6
ByLayer
370
18
48
1
60
0
100
AcDbEllipse
10
23.695868
20
2.472232
30
0
11
0.335000000000001
21
-0.580237020535573
31
0
210
0
220
0
230
1
40
0.989133
41
3.08436680342095
42
-2.48434749912252
0
ELLIPSE
5
10E
100
AcDbEntity
8
1
62
256
6
ByLayer
370
18
48
1
60
0
100
AcDbEllipse
10
21.279423
20
3.171766
30
0
11
-2.9801297759361
21
5.16173618507049
31
0
210
0
220
0
230
1
40
0.989133
41
0
42
6.28318530717959
0
ELLIPSE
5
10F
100
AcDbEntity
8
1
62
256
6
ByLayer
370
18
48
1
60
0
100
AcDbEllipse
10
23.262424
20
4.808441
30
0
11
0.335000000000001
21
-0.580237020535573
31
0
210
0
220
0
230
1
40
0.989133
41
-2.15162095256203
42
-1.4371499479258
0
ELLIPSE
5
110
100
AcDbEntity
8
1
62
256
6
ByLayer
370
18
48
1
60
0
100
AcDbEllipse
10
21.903859
20
0.945825
30
0
11
0.335000000000001
21
-0.580237020535573
31
0
210
0
220
0
230
1
40
0.989133
41
2.03716925222431
42
2.75164025686054
0
ELLIPSE
5
111
100
AcDbEntity
8
1
62
256
6
ByLayer
370
18
48
1
60
0
100
AcDbEllipse
10
21.279423
20
3.171766
30
0
11
-2.99999999999986
21
5.19615242270671
31
0
210
0
220
0
230
1
40
0.989133
41
0
42
6.28318530717959
0
ELLIPSE
5
112
100
AcDbEntity
8
1
62
256
6
ByLayer
370
18
48
1
60
0
100
AcDbEllipse
10
23.695868
20
2.472232
30
0
11
0.335000000000001
21
-0.580237020535573
31
0
210
0
220
0
230
1
40
0.989133
41
-2.39164798941861
42
-1.67717698478247
0
ELLIPSE
5
113
100
AcDbEntity
8
1
62
256
6
ByLayer
370
18
48
1
60
0
100
AcDbEllipse
10
22.963205
20
4.635687
30
0
11
0.335000000000001
21
-0.580237020535573
31
0
210
0
220
0
230
1
40
0.989133
41
-2.15162095256201
42
-0.629979433585887
0
ELLIPSE
5
114
100
AcDbEntity
8
1
62
256
6
ByLayer
370
18
48
1
60
0
100
AcDbEllipse
10
21.470414
20
3.282035
30
0
11
-1.74999999999992
21
3.03108891324558
31
0
210
0
220
0
230
1
40
0.989133
41
0
42
6.28318530717959
0
ELLIPSE
5
115
100
AcDbEntity
8
1
62
256
6
ByLayer
370
18
48
1
60
0
100
AcDbEllipse
10
20.366988
20
4.58761
30
0
11
-0.284999999999987
21
0.493634480157138
31
0
210
0
220
0
230
1
40
0.989133
41
-1.10442340136539
42
1.46441566880729
0
ELLIPSE
5
116
100
AcDbEntity
8
1
62
256
6
ByLayer
370
18
48
1
60
0
100
AcDbEllipse
10
19.24496
20
4.091838
30
0
11
0.335000000000001
21
-0.580237020535573
31
0
210
0
220
0
230
1
40
0.989133
41
-0.0572258501688414
42
0.65724515446755
0
ELLIPSE
5
117
100
AcDbEntity
8
1
62
256
6
ByLayer
370
18
48
1
60
0
100
AcDbEllipse
10
19.678404
20
1.755628
30
0
11
0.335000000000001
21
-0.580237020535573
31
0
210
0
220
0
230
1
40
0.989133
41
0.989971701027778
42
1.7044427056639
0
ELLIPSE
5
118
100
AcDbEntity
8
1
62
256
6
ByLayer
370
18
48
1
60
0
100
AcDbEllipse
10
21.903859
20
0.945825
30
0
11
0.335000000000001
21
-0.580237020535573
31
0
210
0
220
0
230
1
40
0.989133
41
2.84433976656428
42
-2.72437453597904
0
ELLIPSE
5
119
100
AcDbEntity
8
1
62
256
6
ByLayer
370
18
48
1
60
0
100
AcDbEllipse
10
22.57384
20
1.97646
30
0
11
-0.284999999999987
21
0.493634480157138
31
0
210
0
220
0
230
1
40
0.989133
41
2.03716925222438
42
-1.67717698478241
0
ELLIPSE
5
11A
100
AcDbEntity
8
1
62
256
6
ByLayer
370
18
48
1
60
0
100
AcDbEllipse
10
21.036969
20
5.618244
30
0
11
0.335000000000001
21
-0.580237020535573
31
0
210
0
220
0
230
1
40
0.989133
41
-1.10442340136541
42
-0.389952396729161
0
POINT
5
6C
100
AcDbEntity
8
2
62
256
6
ByLayer
370
18
48
1
60
0
100
AcDbPoint
10
56.612928
20
15.425
30
0
39
0
210
0
220
0
230
1
50
360
0
POINT
5
6E
100
AcDbEntity
8
80
62
256
6
ByLayer
370
18
48
1
60
0
100
AcDbPoint
10
0
20
0
30
0
39
0
210
0
220
0
230
1
50
360
0
POINT
5
70
100
AcDbEntity
8
81
62
256
6
ByLayer
370
18
48
1
60
0
100
AcDbPoint
10
56.612928
20
15.425
30
0
39
0
210
0
220
0
230
1
50
360
0
SPLINE
5
11B
100
AcDbEntity
8
1
62
256
6
ByLayer
370
18
48
1
60
0
100
AcDbSpline
70
4
71
3
72
8
73
4
40
0
40
0
40
0
40
0
40
1
40
1
40
1
40
1
41
1
10
8.77755651563734
20
10.5542006186704
30
0
41
1
10
8.74838008235304
20
10.5430176950529
30
0
41
1
10
8.71918546014177
20
10.5315289336736
30
0
41
1
10
8.68998448319468
20
10.5197255538405
30
0
0
SPLINE
5
11C
100
AcDbEntity
8
1
62
256
6
ByLayer
370
18
48
1
60
0
100
AcDbSpline
70
4
71
3
72
14
73
10
40
0
40
0
40
0
40
0
40
0.277474514381387
40
0.277474514381387
40
0.53531892339072
40
0.53531892339072
40
0.765023320191397
40
0.765023320191397
40
1
40
1
40
1
40
1
41
1
10
28.2574176909753
20
6.46287102241098
30
0
41
1
10
28.4321307176561
20
6.13908735340669
30
0
41
1
10
28.5793387782269
20
5.79848174313184
30
0
41
1
10
28.8040099312901
20
5.1245620169031
30
0
41
1
10
28.8864458129467
20
4.7901118808345
30
0
41
1
10
28.9904382815246
20
4.15210303796678
30
0
41
1
10
29.0179421105756
20
3.8473929680242
30
0
41
1
10
29.0290397217343
20
3.23297409818989
30
0
41
1
10
29.0116418210561
20
2.92155319424614
30
0
41
1
10
28.9713842878098
20
2.61468436893017
30
0
0
SPLINE
5
11D
100
AcDbEntity
8
1
62
256
6
ByLayer
370
18
48
1
60
0
100
AcDbSpline
70
4
71
3
72
10
73
6
40
0
40
0
40
0
40
0
40
0.917654486053267
40
0.917654486053267
40
1
40
1
40
1
40
1
41
1
10
37.6744459327969
20
7.14186794320497
30
0
41
1
10
38.3372490109629
20
6.86447876582503
30
0
41
1
10
38.995977691183
20
6.61691300459381
30
0
41
1
10
39.7019574749377
20
6.38302843658263
30
0
41
1
10
39.7601135130331
20
6.3639594179806
30
0
41
1
10
39.8182082347051
20
6.34508528098976
30
0
0
SPLINE
5
11E
100
AcDbEntity
8
1
62
256
6
ByLayer
370
18
48
1
60
0
100
AcDbSpline
70
4
71
3
72
12
73
8
40
0
40
0
40
0
40
0
40
0.241231766725667
40
0.241231766725667
40
0.620546361038364
40
0.620546361038364
40
1
40
1
40
1
40
1
41
1
10
40.7829212944302
20
11.6076348644704
30
0
41
1
10
40.3227585598317
20
11.4760652454743
30
0
41
1
10
39.878816580723
20
11.3256662353737
30
0
41
1
10
38.7616025024345
20
10.9122592463202
30
0
41
1
10
38.0894036819981
20
10.6476220900691
30
0
41
1
10
36.7758788593459
20
10.0853140844342
30
0
41
1
10
36.132925800744
20
9.78929955514096
30
0
41
1
10
35.4717853142118
20
9.51255505851293
30
0
0
SPLINE
5
11F
100
AcDbEntity
8
1
62
256
6
ByLayer
370
18
48
1
60
0
100
AcDbSpline
70
4
71
3
72
8
73
4
40
0
40
0
40
0
40
0
40
1
40
1
40
1
40
1
41
1
10
22.6930141255421
20
9.53587324499824
30
0
41
1
10
22.5336213051476
20
10.0106854736917
30
0
41
1
10
22.3794641871949
20
10.3779469601262
30
0
41
1
10
22.2423648061956
20
10.6094930757394
30
0
0
SPLINE
5
120
100
AcDbEntity
8
1
62
256
6
ByLayer
370
18
48
1
60
0
100
AcDbSpline
70
4
71
3
72
12
73
8
40
0
40
0
40
0
40
0
40
0.500000000000001
40
0.500000000000001
40
0.75
40
0.75
40
1
40
1
40
1
40
1
41
1
10
38.0794632709263
20
4.958877419635
30
0
41
1
10
37.5642081059338
20
4.50680130354408
30
0
41
1
10
37.0466911483627
20
3.98202277730434
30
0
41
1
10
36.4620591174348
20
2.96837626383677
30
0
41
1
10
36.3064801934841
20
2.55095532468945
30
0
41
1
10
36.4268392654736
20
1.99280015408147
30
0
41
1
10
36.6534103606055
20
1.90751070880253
30
0
41
1
10
36.8854926600956
20
1.89285721176123
30
0
0
SPLINE
5
121
100
AcDbEntity
8
1
62
256
6
ByLayer
370
18
48
1
60
0
100
AcDbSpline
70
4
71
3
72
8
73
4
40
0
40
0
40
0
40
0
40
1
40
1
40
1
40
1
41
1
10
22.6930140840692
20
9.53587336854127
30
0
41
1
10
22.2804826017802
20
9.53759918997534
30
0
41
1
10
21.8614685554741
20
9.50352150036221
30
0
41
1
10
21.45859903865
20
9.43166082378357
30
0
0
SPLINE
5
122
100
AcDbEntity
8
1
62
256
6
ByLayer
370
18
48
1
60
0
100
AcDbSpline
70
4
71
3
72
8
73
4
40
0
40
0
40
0
40
0
40
1
40
1
40
1
40
1
41
1
10
24.8901755592605
20
-2.30653985059541
30
0
41
1
10
24.5060749883833
20
-2.4580529262276
30
0
41
1
10
24.1024822856619
20
-2.57524964245175
30
0
41
1
10
23.6996127688378
20
-2.64711031903036
30
0
0
SPLINE
5
123
100
AcDbEntity
8
1
62
256
6
ByLayer
370
18
48
1
60
0
100
AcDbSpline
70
4
71
3
72
8
73
4
40
0
40
0
40
0
40
0
40
1
40
1
40
1
40
1
41
1
10
12.1915512741829
20
-4.96645601170854
30
0
41
1
10
13.1361774723769
20
-4.22261289379247
30
0
41
1
10
14.2889782002482
20
-3.08165680663524
30
0
41
1
10
15.4592947912333
20
-1.87389744700988
30
0
0
SPLINE
5
124
100
AcDbEntity
8
1
62
256
6
ByLayer
370
18
48
1
60
0
100
AcDbSpline
70
4
71
3
72
8
73
4
40
0
40
0
40
0
40
0
40
1
40
1
40
1
40
1
41
1
10
38.877559949813
20
-1.92053714139965
30
0
41
1
10
38.621742405427
20
-1.97335870549267
30
0
41
1
10
38.3650801541951
20
-2.02243759562211
30
0
41
1
10
38.1079048661046
20
-2.06896246404983
30
0
0
SPLINE
5
125
100
AcDbEntity
8
1
62
256
6
ByLayer
370
18
48
1
60
0
100
AcDbSpline
70
4
71
3
72
11
73
7
40
0
40
0
40
0
40
0
40
0.567115805318447
40
0.567115805318447
40
0.567115805318447
40
1
40
1
40
1
40
1
41
1
10
35.321686965893
20
12.9483879061906
30
0
41
1
10
34.9666754992888
20
12.9089089292573
30
0
41
1
10
34.556919186429
20
12.9052568969498
30
0
41
1
10
34.1319259247057
20
12.9328092163319
30
0
41
1
10
33.8050904270422
20
12.9539979664323
30
0
41
1
10
33.4633399232264
20
12.9934924283648
30
0
41
1
10
33.1221214325743
20
13.0467041284658
30
0
0
SPLINE
5
126
100
AcDbEntity
8
1
62
256
6
ByLayer
370
18
48
1
60
0
100
AcDbSpline
70
4
71
3
72
10
73
6
40
0
40
0
40
0
40
0
40
0.748781644178986
40
0.748781644178986
40
1
40
1
40
1
40
1
41
1
10
15.4592947912325
20
-1.87389744700496
30
0
41
1
10
15.6213988672857
20
-1.84531740441236
30
0
41
1
10
15.7924566922063
20
-1.82647090832768
30
0
41
1
10
16.0177140573964
20
-1.82141847604947
30
0
41
1
10
16.0748075030954
20
-1.82184601808487
30
0
41
1
10
16.1308891359998
20
-1.82409936127681
30
0
0
SPLINE
5
127
100
AcDbEntity
8
1
62
256
6
ByLayer
370
18
48
1
60
0
100
AcDbSpline
70
4
71
3
72
10
73
6
40
0
40
0
40
0
40
0
40
0.633056393844558
40
0.633056393844558
40
1
40
1
40
1
40
1
41
1
10
9.70586216594489
20
7.51898764506322
30
0
41
1
10
9.6924368385267
20
7.59134840538238
30
0
41
1
10
9.67440389562273
20
7.6625413519188
30
0
41
1
10
9.64385244232045
20
7.76473578892319
30
0
41
1
10
9.6319498783551
20
7.80092667003584
30
0
41
1
10
9.61976918568564
20
7.83542663154816
30
0
0
SPLINE
5
128
100
AcDbEntity
8
1
62
256
6
ByLayer
370
18
48
1
60
0
100
AcDbSpline
70
4
71
3
72
14
73
10
40
0
40
0
40
0
40
0
40
0.344680425563156
40
0.344680425563156
40
0.662299704488286
40
0.662299704488286
40
0.96630904531918
40
0.96630904531918
40
1
40
1
40
1
40
1
41
1
10
43.804419625824
20
2.69340427832645
30
0
41
1
10
44.0774700829496
20
2.87371918938032
30
0
41
1
10
44.3537071590657
20
3.1151934210358
30
0
41
1
10
44.8368225771944
20
3.66495778463016
30
0
41
1
10
45.0536174105411
20
3.97374918796743
30
0
41
1
10
45.4138694853449
20
4.60974865153457
30
0
41
1
10
45.5646737947292
20
4.94272265555728
30
0
41
1
10
45.6987052132711
20
5.31109652291858
30
0
41
1
10
45.7118371402708
20
5.3481804245404
30
0
41
1
10
45.7246207694595
20
5.38527452053108
30
0
0
SPLINE
5
129
100
AcDbEntity
8
1
62
256
6
ByLayer
370
18
48
1
60
0
100
AcDbSpline
70
4
71
3
72
10
73
6
40
0
40
0
40
0
40
0
40
0.17823559037523
40
0.965884392516036
40
1
40
1
40
1
40
1
41
1.02426270642939
10
28.2574176920325
20
6.46287102251858
30
0
41
1.02399541235391
10
28.8243283436033
20
6.5205711504521
30
0
41
1.02244297574217
10
32.0154070894169
20
6.82525673588691
30
0
41
1.02043217367667
10
35.6613909180781
20
7.03858936960099
30
0
41
1.01956281722762
10
37.5957351677459
20
7.13785604260603
30
0
41
1.01952794425495
10
37.674445932785
20
7.14186794320434
30
0
0
SPLINE
5
12A
100
AcDbEntity
8
1
62
256
6
ByLayer
370
18
48
1
60
0
100
AcDbSpline
70
4
71
3
72
15
73
11
40
0
40
0
40
0
40
0
40
0.14713993365957
40
0.14713993365957
40
0.468348890922564
40
0.468348890922564
40
0.791093030527836
40
0.791093030527836
40
0.791093030527836
40
1
40
1
40
1
40
1
41
1
10
45.1415426897477
20
8.52798917165376
30
0
41
1
10
45.0329101573296
20
8.65398392399601
30
0
41
1
10
44.9178392343661
20
8.77854777405369
30
0
41
1
10
44.5353447155522
20
9.16310887113696
30
0
41
1
10
44.2412551337161
20
9.41551160496789
30
0
41
1
10
43.6283888714985
20
9.85188698952223
30
0
41
1
10
43.3011946419847
20
10.0410228796825
30
0
41
1
10
42.9842855522568
20
10.1837121470468
30
0
41
1
10
42.7771105628734
20
10.2769933068794
30
0
41
1
10
42.5710336891751
20
10.3524822853022
30
0
41
1
10
42.3728560920272
20
10.4093446441536
30
0
0
SPLINE
5
12B
100
AcDbEntity
8
1
62
256
6
ByLayer
370
18
48
1
60
0
100
AcDbSpline
70
4
71
1
72
4
73
2
40
0
40
0
40
1
40
1
41
1
10
22.2423648061957
20
10.6094930757394
30
0
41
1
10
20.7922076504672
20
13.0586526123486
30
0
0
SPLINE
5
12C
100
AcDbEntity
8
1
62
256
6
ByLayer
370
18
48
1
60
0
100
AcDbSpline
70
4
71
3
72
8
73
4
40
0
40
0
40
0
40
0
40
1
40
1
40
1
40
1
41
1
10
13.3114026636194
20
-9.33759007224714
30
0
41
1
10
13.0218815943446
20
-9.40273233581763
30
0
41
1
10
12.7169810870051
20
-9.44723132483335
30
0
41
1
10
12.3967252215639
20
-9.45912261714039
30
0
0
SPLINE
5
12D
100
AcDbEntity
8
1
62
256
6
ByLayer
370
18
48
1
60
0
100
AcDbSpline
70
4
71
3
72
8
73
4
40
0
40
0
40
0
40
0
40
1
40
1
40
1
40
1
41
1
10
15.8863890938047
20
7.09997788559878
30
0
41
1
10
16.6639023982742
20
8.09827198054066
30
0
41
1
10
17.77452935141
20
8.77452562434024
30
0
41
1
10
19.1628275230178
20
9.02215926684329
30
0
0
SPLINE
5
12E
100
AcDbEntity
8
1
62
256
6
ByLayer
370
18
48
1
60
0
100
AcDbSpline
70
4
71
3
72
10
73
6
40
0
40
0
40
0
40
0
40
0.363146207408303
40
0.919635117144728
40
1
40
1
40
1
40
1
41
1.01924252060337
10
38.8778550470782
20
-1.92034266281188
30
0
41
1.0190261298545
10
39.3928454168604
20
-1.58094275995719
30
0
41
1.01859648737407
10
40.5401485860027
20
-0.762659980436251
30
0
41
1.01806418111389
10
41.8522321745397
20
0.259817951664712
30
0
41
1.01767843063346
10
42.6471120307512
20
0.93701486859511
30
0
41
1.01762918625356
10
42.7468266476551
20
1.02292143215591
30
0
0
SPLINE
5
12F
100
AcDbEntity
8
1
62
256
6
ByLayer
370
18
48
1
60
0
100
AcDbSpline
70
4
71
3
72
8
73
4
40
0
40
0
40
0
40
0
40
1
40
1
40
1
40
1
41
1
10
28.9713842878098
20
2.61468436893017
30
0
41
1
10
28.6803580086612
20
0.396008226233732
30
0
41
1
10
26.9823050156259
20
-1.48085027337484
30
0
41
1
10
24.8901755592604
20
-2.30653985059513
30
0
0
SPLINE
5
130
100
AcDbEntity
8
1
62
256
6
ByLayer
370
18
48
1
60
0
100
AcDbSpline
70
4
71
3
72
10
73
6
40
0
40
0
40
0
40
0
40
0.0803615089464586
40
0.636852329491508
40
1
40
1
40
1
40
1
41
1.01762919296299
10
40.782999952123
20
11.60760574715
30
0
41
1.01767843505497
10
40.6588235128836
20
11.6535732533301
30
0
41
1.01806418305672
10
39.6716397664204
20
12.0128965058482
30
0
41
1.01859648748914
10
38.076370328959
20
12.5167811016593
30
0
41
1.01902613005648
10
36.7086612169521
20
12.8864560092585
30
0
41
1.0192425209898
10
36.1047590381287
20
13.0262768664673
30
0
0
SPLINE
5
131
100
AcDbEntity
8
1
62
256
6
ByLayer
370
18
48
1
60
0
100
AcDbSpline
70
4
71
3
72
10
73
6
40
0
40
0
40
0
40
0
40
0.5
40
0.5
40
1
40
1
40
1
40
1
41
1
10
9.61976918568564
20
7.83542663154813
30
0
41
1
10
9.48872003087462
20
8.20660345374358
30
0
41
1
10
9.40144428342597
20
8.46217686856139
30
0
41
1
10
9.25102354474649
20
8.87754768762409
30
0
41
1
10
9.18836790302515
20
9.03888949170187
30
0
41
1
10
9.1378417661553
20
9.19082939217446
30
0
0
SPLINE
5
132
100
AcDbEntity
8
1
62
256
6
ByLayer
370
18
48
1
60
0
100
AcDbSpline
70
4
71
3
72
10
73
6
40
0
40
0
40
0
40
0
40
0.634609507784706
40
0.634609507784706
40
1
40
1
40
1
40
1
41
1
10
12.0794184017455
20
-5.42176120812576
30
0
41
1
10
12.0770353753077
20
-5.35550509700809
30
0
41
1
10
12.0722076547966
20
-5.28493263485203
30
0
41
1
10
12.0586116008504
20
-5.17078727655405
30
0
41
1
10
12.0522684334092
20
-5.12783550063409
30
0
41
1
10
12.0444490857898
20
-5.08569023882339
30
0
0
SPLINE
5
133
100
AcDbEntity
8
1
62
256
6
ByLayer
370
18
48
1
60
0
100
AcDbSpline
70
4
71
2
72
6
73
3
40
0
40
0
40
0
40
1
40
1
40
1
41
0.949562357290119
10
24.8901755510337
20
-2.3065397029068
30
0
41
0.967780772402292
10
24.9366719949011
20
-3.14125230780252
30
0
41
1.02609574526022
10
24.8865693874343
20
-3.64242406395854
30
0
0
SPLINE
5
134
100
AcDbEntity
8
1
62
256
6
ByLayer
370
18
48
1
60
0
100
AcDbSpline
70
4
71
3
72
8
73
4
40
0
40
0
40
0
40
0
40
1
40
1
40
1
40
1
41
1
10
35.321686965893
20
12.9483879061906
30
0
41
1
10
35.5821208437024
20
12.9773494018657
30
0
41
1
10
35.842991460993
20
13.0037457488902
30
0
41
1
10
36.1044140724899
20
13.0263567337345
30
0
0
SPLINE
5
135
100
AcDbEntity
8
1
62
256
6
ByLayer
370
18
48
1
60
0
100
AcDbSpline
70
4
71
3
72
9
73
5
40
0
40
0
40
0
40
0
40
0.557412158884142
40
1
40
1
40
1
40
1
41
1.02609574526022
10
22.2423648061957
20
10.6094930757394
30
0
41
1.0257992359639
10
23.6146407956065
20
10.7378026162081
30
0
41
1.02388785778278
10
28.1632392608335
20
10.6531012437034
30
0
41
1.02114228821533
10
33.5664024162587
20
9.81972174963259
30
0
41
1.02025357652117
10
35.4717853091979
20
9.51255505932123
30
0
0
SPLINE
5
136
100
AcDbEntity
8
1
62
256
6
ByLayer
370
18
48
1
60
0
100
AcDbSpline
70
4
71
3
72
10
73
6
40
0
40
0
40
0
40
0
40
0.567800532142492
40
0.567800532142492
40
1
40
1
40
1
40
1
41
1
10
36.0735729406602
20
-2.86123379490843
30
0
41
1
10
36.4650381406991
20
-2.64267335719251
30
0
41
1
10
36.8684811812801
20
-2.45127605214731
30
0
41
1
10
37.5491821044549
20
-2.19985571338302
30
0
41
1
10
37.8391208594439
20
-2.11758743357248
30
0
41
1
10
38.1079048661111
20
-2.06896246404864
30
0
0
SPLINE
5
137
100
AcDbEntity
8
1
62
256
6
ByLayer
370
18
48
1
60
0
100
AcDbSpline
70
4
71
3
72
12
73
8
40
0
40
0
40
0
40
0
40
0.499842200422129
40
0.499842200422129
40
0.749802242645017
40
0.749802242645017
40
1
40
1
40
1
40
1
41
1
10
36.8854926600916
20
1.89285721175909
30
0
41
1
10
37.8545241361097
20
1.72799579205423
30
0
41
1
10
38.8069195481021
20
1.52117697926837
30
0
41
1
10
40.2682988729493
20
1.29349442405166
30
0
41
1
10
40.7571103201334
20
1.22163276699445
30
0
41
1
10
41.7418040343314
20
1.09555085589045
30
0
41
1
10
42.2398104353422
20
1.04623405350208
30
0
41
1
10
42.7467499013239
20
1.02285531351788
30
0
0
SPLINE
5
138
100
AcDbEntity
8
1
62
256
6
ByLayer
370
18
48
1
60
0
100
AcDbSpline
70
4
71
3
72
10
73
6
40
0
40
0
40
0
40
0
40
0.178235590382927
40
0.965884392557149
40
1
40
1
40
1
40
1
41
1.02426270642939
10
28.9713842888521
20
2.61468436918415
30
0
41
1.02399541235391
10
29.5240181136731
20
2.74933472756264
30
0
41
1.02244297574217
10
32.6291788786104
20
3.51710700189524
30
0
41
1.02043217367675
10
36.1417975760871
20
4.44926026321612
30
0
41
1.01956281722772
10
38.0037014830859
20
4.93897091620686
30
0
41
1.01952794425508
10
38.0794632706392
20
4.95887741955953
30
0
0
SPLINE
5
139
100
AcDbEntity
8
1
62
256
6
ByLayer
370
18
48
1
60
0
100
AcDbSpline
70
4
71
3
72
8
73
4
40
0
40
0
40
0
40
0
40
1
40
1
40
1
40
1
41
1
10
16.1308891359997
20
-1.82409936128437
30
0
41
1
10
15.090924769014
20
-3.35879648795859
30
0
41
1
10
14.0370862502696
20
-4.82639299608786
30
0
41
1
10
13.1571665092848
20
-5.73462213675319
30
0
0
SPLINE
5
13A
100
AcDbEntity
8
1
62
256
6
ByLayer
370
18
48
1
60
0
100
AcDbSpline
70
4
71
3
72
10
73
6
40
0
40
0
40
0
40
0
40
0.5
40
0.5
40
1
40
1
40
1
40
1
41
1
10
22.6930140840692
20
9.53587336854125
30
0
41
1
10
23.8217388365804
20
9.52325115619328
30
0
41
1
10
24.9161146783804
20
9.24682924589334
30
0
41
1
10
26.8567597841993
20
8.22882174357028
30
0
41
1
10
27.7208999845283
20
7.45720686065542
30
0
41
1
10
28.2574176909753
20
6.46287102241098
30
0
0
SPLINE
5
13B
100
AcDbEntity
8
1
62
256
6
ByLayer
370
18
48
1
60
0
100
AcDbSpline
70
4
71
3
72
10
73
6
40
0
40
0
40
0
40
0
40
0.5
40
0.5
40
1
40
1
40
1
40
1
41
1
10
20.7922076504672
20
13.0586526123486
30
0
41
1
10
22.8492972729006
20
13.3598637112106
30
0
41
1
10
24.9058522297395
20
13.5840251133533
30
0
41
1
10
29.0157934569915
20
13.5757142188062
30
0
41
1
10
31.0693433890135
20
13.3668269020555
30
0
41
1
10
33.1221214325765
20
13.0467041284655
30
0
0
SPLINE
5
13C
100
AcDbEntity
8
1
62
256
6
ByLayer
370
18
48
1
60
0
100
AcDbSpline
70
4
71
3
72
9
73
5
40
0
40
0
40
0
40
0
40
0.55741215934592
40
1
40
1
40
1
40
1
41
1.02609574526022
10
24.8865693874343
20
-3.64242406395854
30
0
41
1.0257992359639
10
26.2164996650269
20
-3.28587667052798
30
0
41
1.02388785778436
10
30.4340882993978
20
-1.58647833216943
30
0
41
1.02114228821988
10
35.2053435168018
20
0.986043353022786
30
0
41
1.02025357652616
10
36.885492646301
20
1.89285720431595
30
0
0
SPLINE
5
13D
100
AcDbEntity
8
1
62
256
6
ByLayer
370
18
48
1
60
0
100
AcDbSpline
70
4
71
3
72
8
73
4
40
0
40
0
40
0
40
0
40
1
40
1
40
1
40
1
41
1
10
10.5129619280461
20
8.51729500294491
30
0
41
1
10
11.636312961843
20
8.12281312010848
30
0
41
1
10
13.1285698386712
20
7.21148695839022
30
0
41
1
10
14.6458855388721
20
6.1798759622107
30
0
0
SPLINE
5
13E
100
AcDbEntity
8
1
62
256
6
ByLayer
370
18
48
1
60
0
100
AcDbSpline
70
4
71
3
72
12
73
8
40
0
40
0
40
0
40
0
40
0.204202248153563
40
0.204202248153563
40
0.849675991585488
40
0.849675991585488
40
1
40
1
40
1
40
1
41
1
10
16.1308891359999
20
-1.82409936127681
30
0
41
1
10
16.2414768184277
20
-1.82854274119288
30
0
41
1
10
16.3516572044939
20
-1.83871266679802
30
0
41
1
10
16.8014878753415
20
-1.90427590020326
30
0
41
1
10
17.1353851143353
20
-2.01301234347409
30
0
41
1
10
17.4964136200828
20
-2.20604908650966
30
0
41
1
10
17.5634766069931
20
-2.24567096791137
30
0
41
1
10
17.6281096094947
20
-2.28766808031881
30
0
0
SPLINE
5
13F
100
AcDbEntity
8
1
62
256
6
ByLayer
370
18
48
1
60
0
100
AcDbSpline
70
4
71
3
72
10
73
6
40
0
40
0
40
0
40
0
40
0.286413870643359
40
0.286413870643359
40
1
40
1
40
1
40
1
41
1
10
39.8182082347308
20
6.34508528098138
30
0
41
1
10
39.6508386505142
20
6.22451934719876
30
0
41
1
10
39.483642265737
20
6.10120600474812
30
0
41
1
10
38.9015320048886
20
5.65820870697894
30
0
41
1
10
38.4883756641112
20
5.31777045651904
30
0
41
1
10
38.0794632709263
20
4.958877419635
30
0
0
SPLINE
5
140
100
AcDbEntity
8
1
62
256
6
ByLayer
370
18
48
1
60
0
100
AcDbSpline
70
4
71
2
72
6
73
3
40
0
40
0
40
0
40
1
40
1
40
1
41
1.02609574526022
10
24.8865693874343
20
-3.64242406395854
30
0
41
1.02609574526022
10
24.7122344370654
20
-5.38628047490129
30
0
41
1.02609574526022
10
24.5378994866966
20
-7.13013688584401
30
0
0
SPLINE
5
141
100
AcDbEntity
8
1
62
256
6
ByLayer
370
18
48
1
60
0
100
AcDbSpline
70
4
71
3
72
10
73
6
40
0
40
0
40
0
40
0
40
0.5
40
0.5
40
1
40
1
40
1
40
1
41
1
10
36.0735729406601
20
-2.86123379490843
30
0
41
1
10
34.2672932178347
20
-3.86970475687116
30
0
41
1
10
32.4203375271678
20
-4.7743334026114
30
0
41
1
10
28.5766957060071
20
-6.2013415060444
30
0
41
1
10
26.5713851502352
20
-6.70170353318767
30
0
41
1
10
24.5378994866966
20
-7.130136885844
30
0
0
SPLINE
5
142
100
AcDbEntity
8
1
62
256
6
ByLayer
370
18
48
1
60
0
100
AcDbSpline
70
4
71
3
72
10
73
6
40
0
40
0
40
0
40
0
40
0.617959141538634
40
0.617959141538634
40
1
40
1
40
1
40
1
41
1
10
15.8863890938047
20
7.09997788559878
30
0
41
1
10
15.7001213156011
20
6.86081796127377
30
0
41
1
10
15.4593957441436
20
6.63999179999132
30
0
41
1
10
15.0190481114336
20
6.35269144292042
30
0
41
1
10
14.8364349789846
20
6.25737879511973
30
0
41
1
10
14.6458855388721
20
6.17987596221076
30
0
0
SPLINE
5
143
100
AcDbEntity
8
1
62
256
6
ByLayer
370
18
48
1
60
0
100
AcDbSpline
70
4
71
3
72
10
73
6
40
0
40
0
40
0
40
0
40
0.5
40
0.5
40
1
40
1
40
1
40
1
41
1
10
12.1558020072408
20
-7.07558191050256
30
0
41
1
10
12.1408713492335
20
-6.87484104491639
30
0
41
1
10
12.1340058889882
20
-6.66267567839333
30
0
41
1
10
12.1114741495263
20
-6.1460644472788
30
0
41
1
10
12.0944331833713
20
-5.83922239278348
30
0
41
1
10
12.0794184017458
20
-5.42176120812812
30
0
0
SPLINE
5
144
100
AcDbEntity
8
1
62
256
6
ByLayer
370
18
48
1
60
0
100
AcDbSpline
70
4
71
3
72
8
73
4
40
0
40
0
40
0
40
0
40
1
40
1
40
1
40
1
41
1
10
14.0014236744274
20
5.98383735328255
30
0
41
1
10
13.974227376977
20
5.97792119155761
30
0
41
1
10
13.9470116151036
20
5.97227622673273
30
0
41
1
10
13.9197881614334
20
5.96689944206489
30
0
0
SPLINE
5
145
100
AcDbEntity
8
1
62
256
6
ByLayer
370
18
48
1
60
0
100
AcDbSpline
70
4
71
3
72
8
73
4
40
0
40
0
40
0
40
0
40
1
40
1
40
1
40
1
41
1
10
15.4592947912248
20
-1.87389744700124
30
0
41
1
10
15.431897050105
20
-1.87872785365863
30
0
41
1
10
15.4045815209142
20
-1.8838350856671
30
0
41
1
10
15.3773580672466
20
-1.88921187033443
30
0
0
SPLINE
5
146
100
AcDbEntity
8
1
62
256
6
ByLayer
370
18
48
1
60
0
100
AcDbSpline
70
4
71
3
72
8
73
4
40
0
40
0
40
0
40
0
40
1
40
1
40
1
40
1
41
1
10
14.0014236744246
20
5.98383735329207
30
0
41
1
10
12.4811910088352
20
6.66198734283921
30
0
41
1
10
11.0090293190924
20
7.24356954100898
30
0
41
1
10
9.88235417167891
20
7.47981459746654
30
0
0
SPLINE
5
147
100
AcDbEntity
8
1
62
256
6
ByLayer
370
18
48
1
60
0
100
AcDbSpline
70
4
71
3
72
10
73
6
40
0
40
0
40
0
40
0
40
0.756795694533325
40
0.756795694533325
40
1
40
1
40
1
40
1
41
1
10
14.6458855388721
20
6.1798759622107
30
0
41
1
10
14.492127614724
20
6.11733746985595
30
0
41
1
10
14.3242865781828
20
6.06346036938493
30
0
41
1
10
14.1076244971402
20
6.00791748915591
30
0
41
1
10
14.054365434531
20
5.99535406857612
30
0
41
1
10
14.0014236744268
20
5.98383735328244
30
0
0
SPLINE
5
148
100
AcDbEntity
8
1
62
256
6
ByLayer
370
18
48
1
60
0
100
AcDbSpline
70
4
71
3
72
8
73
4
40
0
40
0
40
0
40
0
40
1
40
1
40
1
40
1
41
1
10
21.4038412532056
20
-3.05661187597067
30
0
41
1
10
20.0152429329713
20
-3.30429905661069
30
0
41
1
10
18.7229829954191
20
-2.9990928769538
30
0
41
1
10
17.6281096094947
20
-2.28766808031881
30
0
0
SPLINE
5
149
100
AcDbEntity
8
1
62
256
6
ByLayer
370
18
48
1
60
0
100
AcDbSpline
70
4
71
3
72
22
73
18
40
0
40
0
40
0
40
0
40
0.130530602739821
40
0.130530602739821
40
0.203087548307401
40
0.203087548307401
40
0.264442711370269
40
0.264442711370269
40
0.32606993232004
40
0.32606993232004
40
0.397667682341329
40
0.397667682341329
40
0.506875085108942
40
0.506875085108942
40
0.711100138795149
40
0.711100138795149
40
1
40
1
40
1
40
1
41
1
10
35.4717853142069
20
9.51255505851373
30
0
41
1
10
35.359397233674
20
9.4784554096874
30
0
41
1
10
35.2579752207382
20
9.42889826702981
30
0
41
1
10
35.1494286094596
20
9.3108600681027
30
0
41
1
10
35.120259983302
20
9.25935489168586
30
0
41
1
10
35.0973382286952
20
9.14624974577436
30
0
41
1
10
35.0989924934236
20
9.08611189461087
30
0
41
1
10
35.1313812500018
20
8.95618641503151
30
0
41
1
10
35.1627682816812
20
8.88471960183384
30
0
41
1
10
35.2548466048415
20
8.73090101330706
30
0
41
1
10
35.3203305044948
20
8.6464453536008
30
0
41
1
10
35.5030738669775
20
8.44441581630201
30
0
41
1
10
35.632134237649
20
8.32846357175524
30
0
41
1
10
36.0118734138221
20
8.02393911052198
30
0
41
1
10
36.2794756006647
20
7.85082757728924
30
0
41
1
10
36.9199826020357
20
7.48058109839019
30
0
41
1
10
37.3010434022886
20
7.29807779215798
30
0
41
1
10
37.6744459327969
20
7.14186794320497
30
0
0
SPLINE
5
14A
100
AcDbEntity
8
1
62
256
6
ByLayer
370
18
48
1
60
0
100
AcDbSpline
70
4
71
3
72
9
73
5
40
0
40
0
40
0
40
0
40
0.49999999999989
40
1
40
1
40
1
40
1
41
1
10
22.7783114758769
20
4.35531811244323
30
0
41
1
10
22.7712528821486
20
4.3629239623283
30
0
41
1
10
22.757135694692
20
4.37813566209843
30
0
41
1
10
22.744544199602
20
4.3945257138364
30
0
41
1
10
22.738248452057
20
4.40272073970539
30
0
0
SPLINE
5
14B
100
AcDbEntity
8
1
62
256
6
ByLayer
370
18
48
1
60
0
100
AcDbSpline
70
4
71
3
72
8
73
4
40
0
40
0
40
0
40
0
40
1
40
1
40
1
40
1
41
1
10
21.189176339012
20
4.96640049686738
30
0
41
1
10
21.1689985936719
20
4.9628013503164
30
0
41
1
10
21.1488208483317
20
4.95920220376541
30
0
41
1
10
21.1286431029916
20
4.95560305721443
30
0
0
SPLINE
5
14C
100
AcDbEntity
8
1
62
256
6
ByLayer
370
18
48
1
60
0
100
AcDbSpline
70
4
71
1
72
4
73
2
40
0
40
0
40
1
40
1
41
1
10
21.8121847874367
20
1.60846637661066
30
0
41
1
10
21.7516515514163
20
1.59766893695769
30
0
0
SPLINE
5
14D
100
AcDbEntity
8
1
62
256
6
ByLayer
370
18
48
1
60
0
100
AcDbSpline
70
4
71
3
72
8
73
4
40
0
40
0
40
0
40
0
40
1
40
1
40
1
40
1
41
1
10
23.0595490820791
20
2.6709523324883
30
0
41
1
10
23.0663724861458
20
2.69035235479342
30
0
41
1
10
23.0731958902127
20
2.70975237709851
30
0
41
1
10
23.0800192942796
20
2.72915239940363
30
0
0
SPLINE
5
14E
100
AcDbEntity
8
1
62
256
6
ByLayer
370
18
48
1
60
0
100
AcDbSpline
70
4
71
1
72
4
73
2
40
0
40
0
40
1
40
1
41
1
10
20.2025794383714
20
2.16134869411962
30
0
41
1
10
20.1625164145514
20
2.2087513213819
30
0
0
SPLINE
5
14F
100
AcDbEntity
8
1
62
256
6
ByLayer
370
18
48
1
60
0
100
AcDbSpline
70
4
71
3
72
10
73
6
40
0
40
0
40
0
40
0
40
0.499998260768424
40
0.501912286286226
40
1
40
1
40
1
40
1
41
1
10
19.8812788083492
20
3.8931171013366
30
0
41
1
10
19.8780962133241
20
3.88323983899716
30
0
41
1
10
19.8749014351205
20
3.87332476586184
30
0
41
1
10
19.8680643304594
20
3.85389003605772
30
0
41
1
10
19.8644295061819
20
3.84438534307805
30
0
41
1
10
19.8608085961488
20
3.83491703442164
30
0
0
LINE
5
72
100
AcDbEntity
8
1
62
256
6
ByLayer
370
18
48
1
60
0
100
AcDbLine
10
33.235343
20
20.980383
30
0
11
32.320331
21
20.4521
31
0
39
0
210
0
220
0
230
1
0
LINE
5
74
100
AcDbEntity
8
1
62
256
6
ByLayer
370
18
48
1
60
0
100
AcDbLine
10
10.133795
20
11.075012
30
0
11
8.775738
21
10.553505
31
0
39
0
210
0
220
0
230
1
0
LINE
5
75
100
AcDbEntity
8
1
62
256
6
ByLayer
370
18
48
1
60
0
100
AcDbLine
10
23.961106
20
-2.208167
30
0
11
24.279423
21
-2.024386
31
0
39
0
210
0
220
0
230
1
0
LINE
5
76
100
AcDbEntity
8
1
62
256
6
ByLayer
370
18
48
1
60
0
100
AcDbLine
10
19.478034
20
3.452754
30
0
11
19.57996
21
3.511601
31
0
39
0
210
0
220
0
230
1
0
LINE
5
77
100
AcDbEntity
8
1
62
256
6
ByLayer
370
18
48
1
60
0
100
AcDbLine
10
21.568859
20
1.526062
30
0
11
21.26964
21
1.353308
31
0
39
0
210
0
220
0
230
1
0
LINE
5
78
100
AcDbEntity
8
1
62
256
6
ByLayer
370
18
48
1
60
0
100
AcDbLine
10
21.072751
20
4.865254
30
0
11
21.371969
21
5.038007
31
0
39
0
210
0
220
0
230
1
0
LINE
5
79
100
AcDbEntity
8
1
62
256
6
ByLayer
370
18
48
1
60
0
100
AcDbLine
10
23.360868
20
3.052469
30
0
11
23.06165
21
2.879715
31
0
39
0
210
0
220
0
230
1
0
LINE
5
7A
100
AcDbEntity
8
1
62
256
6
ByLayer
370
18
48
1
60
0
100
AcDbLine
10
18.279423
20
8.367919
30
0
11
17.961106
21
8.184138
31
0
39
0
210
0
220
0
230
1
0
LINE
5
7B
100
AcDbEntity
8
1
62
256
6
ByLayer
370
18
48
1
60
0
100
AcDbLine
10
49.504188
20
-8.82669
30
0
11
50.345983
21
-8.340679
31
0
39
0
210
0
220
0
230
1
0
LINE
5
7C
100
AcDbEntity
8
1
62
256
6
ByLayer
370
18
48
1
60
0
100
AcDbLine
10
13.697495
20
5.815002
30
0
11
14.582362
21
6.154799
31
0
39
0
210
0
220
0
230
1
0
LINE
5
7D
100
AcDbEntity
8
80
62
256
6
ByLayer
370
18
48
1
60
0
100
AcDbLine
10
0
20
0
30
0
11
-5
21
0
31
0
39
0
210
0
220
0
230
1
0
LINE
5
7E
100
AcDbEntity
8
81
62
256
6
ByLayer
370
18
48
1
60
0
100
AcDbLine
10
56.612928
20
15.425
30
0
11
66.612928
21
15.425
31
0
39
0
210
0
220
0
230
1
0
LINE
5
7F
100
AcDbEntity
8
1
62
256
6
ByLayer
370
18
48
1
60
0
100
AcDbLine
10
32.75743
20
-4.539783
30
0
11
49.976027
21
-9.073052
31
0
39
0
210
0
220
0
230
1
0
LINE
5
80
100
AcDbEntity
8
1
62
256
6
ByLayer
370
18
48
1
60
0
100
AcDbLine
10
32.138573
20
19.531248
30
0
11
32.074897
21
19.494485
31
0
39
0
210
0
220
0
230
1
0
LINE
5
81
100
AcDbEntity
8
1
62
256
6
ByLayer
370
18
48
1
60
0
100
AcDbLine
10
48.523842
20
-8.59802
30
0
11
48.567567
21
-8.572776
31
0
39
0
210
0
220
0
230
1
0
LINE
5
82
100
AcDbEntity
8
1
62
256
6
ByLayer
370
18
48
1
60
0
100
AcDbLine
10
33.038568
20
-4.411793
30
0
11
48.567567
21
-8.572776
31
0
39
0
210
0
220
0
230
1
0
LINE
5
83
100
AcDbEntity
8
1
62
256
6
ByLayer
370
18
48
1
60
0
100
AcDbLine
10
16.610736
20
12.286567
30
0
11
16.606026
21
12.311955
31
0
39
0
210
0
220
0
230
1
0
LINE
5
84
100
AcDbEntity
8
1
62
256
6
ByLayer
370
18
48
1
60
0
100
AcDbLine
10
14.335303
20
-19.941681
30
0
11
12.390379
21
-9.458794
31
0
39
0
210
0
220
0
230
1
0
LINE
5
85
100
AcDbEntity
8
1
62
256
6
ByLayer
370
18
48
1
60
0
100
AcDbLine
10
8.684201
20
10.517022
30
0
11
6.327897
21
23.217196
31
0
39
0
210
0
220
0
230
1
0
LINE
5
86
100
AcDbEntity
8
1
62
256
6
ByLayer
370
18
48
1
60
0
100
AcDbLine
10
13.621765
20
11.753485
30
0
11
11.494865
21
23.217196
31
0
39
0
210
0
220
0
230
1
0
LINE
5
87
100
AcDbEntity
8
1
62
256
6
ByLayer
370
18
48
1
60
0
100
AcDbLine
10
18.722502
20
-15.738821
30
0
11
17.358734
21
-8.388289
31
0
39
0
210
0
220
0
230
1
0
LINE
5
88
100
AcDbEntity
8
1
62
256
6
ByLayer
370
18
48
1
60
0
100
AcDbLine
10
32.138573
20
19.531248
30
0
11
30.557719
21
13.36261
31
0
39
0
210
0
220
0
230
1
0
LINE
5
89
100
AcDbEntity
8
1
62
256
6
ByLayer
370
18
48
1
60
0
100
AcDbLine
10
32.927278
20
-4.462372
30
0
11
38.617997
21
-5.96061
31
0
39
0
210
0
220
0
230
1
0
LINE
5
8A
100
AcDbEntity
8
1
62
256
6
ByLayer
370
18
48
1
60
0
100
AcDbLine
10
48.967426
20
-8.685382
30
0
11
49.939287
21
-8.941251
31
0
39
0
210
0
220
0
230
1
0
LINE
5
8B
100
AcDbEntity
8
1
62
256
6
ByLayer
370
18
48
1
60
0
100
AcDbLine
10
13.387818
20
-19.9378
30
0
11
11.410792
21
-9.281888
31
0
39
0
210
0
220
0
230
1
0
LINE
5
8C
100
AcDbEntity
8
1
62
256
6
ByLayer
370
18
48
1
60
0
100
AcDbLine
10
7.830927
20
10.013116
30
0
11
5.381131
21
23.217196
31
0
39
0
210
0
220
0
230
1
0
LINE
5
8D
100
AcDbEntity
8
1
62
256
6
ByLayer
370
18
48
1
60
0
100
AcDbLine
10
14.306949
20
-19.940814
30
0
11
12.361939
21
-9.457464
31
0
39
0
210
0
220
0
230
1
0
LINE
5
8E
100
AcDbEntity
8
1
62
256
6
ByLayer
370
18
48
1
60
0
100
AcDbLine
10
8.658087
20
10.505813
30
0
11
6.299703
21
23.217196
31
0
39
0
210
0
220
0
230
1
0
LINE
5
8F
100
AcDbEntity
8
1
62
256
6
ByLayer
370
18
48
1
60
0
100
AcDbLine
10
19.49073
20
3.46135
30
0
11
19.546586
21
3.493599
31
0
39
0
210
0
220
0
230
1
0
LINE
5
90
100
AcDbEntity
8
1
62
256
6
ByLayer
370
18
48
1
60
0
100
AcDbLine
10
30.387968
20
13.383361
30
0
11
32.344313
21
21.017201
31
0
39
0
210
0
220
0
230
1
0
LINE
5
91
100
AcDbEntity
8
1
62
256
6
ByLayer
370
18
48
1
60
0
100
AcDbLine
10
23.961106
20
-2.208167
30
0
11
23.961405
21
-2.207994
31
0
39
0
210
0
220
0
230
1
0
LINE
5
92
100
AcDbEntity
8
1
62
256
6
ByLayer
370
18
48
1
60
0
100
AcDbLine
10
32.440597
20
20.921442
30
0
11
30.505179
21
13.369259
31
0
39
0
210
0
220
0
230
1
0
LINE
5
93
100
AcDbEntity
8
1
62
256
6
ByLayer
370
18
48
1
60
0
100
AcDbLine
10
32.344313
20
21.017201
30
0
11
24.13382
21
23.217196
31
0
39
0
210
0
220
0
230
1
0
LINE
5
94
100
AcDbEntity
8
1
62
256
6
ByLayer
370
18
48
1
60
0
100
AcDbLine
10
5.381131
20
23.217196
30
0
11
6.299703
21
23.217196
31
0
39
0
210
0
220
0
230
1
0
LINE
5
95
100
AcDbEntity
8
1
62
256
6
ByLayer
370
18
48
1
60
0
100
AcDbLine
10
47.190336
20
-19.943078
30
0
11
49.976027
21
-9.073052
31
0
39
0
210
0
220
0
230
1
0
LINE
5
96
100
AcDbEntity
8
1
62
256
6
ByLayer
370
18
48
1
60
0
100
AcDbLine
10
6.299703
20
23.217196
30
0
11
6.327897
21
23.217196
31
0
39
0
210
0
220
0
230
1
0
LINE
5
97
100
AcDbEntity
8
1
62
256
6
ByLayer
370
18
48
1
60
0
100
AcDbLine
10
19.222192
20
-19.957704
30
0
11
21.158275
21
-19.957704
31
0
39
0
210
0
220
0
230
1
0
LINE
5
98
100
AcDbEntity
8
1
62
256
6
ByLayer
370
18
48
1
60
0
100
AcDbLine
10
0.764082
20
21.410567
30
0
11
1.248167
21
23.217196
31
0
39
0
210
0
220
0
230
1
0
LINE
5
99
100
AcDbEntity
8
1
62
256
6
ByLayer
370
18
48
1
60
0
100
AcDbLine
10
32.344313
20
21.017201
30
0
11
32.440597
21
20.921442
31
0
39
0
210
0
220
0
230
1
0
LINE
5
9A
100
AcDbEntity
8
1
62
256
6
ByLayer
370
18
48
1
60
0
100
AcDbLine
10
0.5
20
20.425
30
0
11
0
21
19.925
31
0
39
0
210
0
220
0
230
1
0
LINE
5
9B
100
AcDbEntity
8
1
62
256
6
ByLayer
370
18
48
1
60
0
100
AcDbLine
10
18.722502
20
-15.738821
30
0
11
19.222192
21
-19.957704
31
0
39
0
210
0
220
0
230
1
0
LINE
5
9C
100
AcDbEntity
8
1
62
256
6
ByLayer
370
18
48
1
60
0
100
AcDbLine
10
24.13382
20
23.217196
30
0
11
11.494865
21
23.217196
31
0
39
0
210
0
220
0
230
1
0
LINE
5
9D
100
AcDbEntity
8
1
62
256
6
ByLayer
370
18
48
1
60
0
100
AcDbLine
10
0.5
20
-19.927182
30
0
11
0
21
-19.925
31
0
39
0
210
0
220
0
230
1
0
LINE
5
9E
100
AcDbEntity
8
1
62
256
6
ByLayer
370
18
48
1
60
0
100
AcDbLine
10
0.5
20
-19.927182
30
0
11
1.560165
21
-19.944446
31
0
39
0
210
0
220
0
230
1
0
LINE
5
9F
100
AcDbEntity
8
1
62
256
6
ByLayer
370
18
48
1
60
0
100
AcDbLine
10
6.327897
20
23.217196
30
0
11
11.494865
21
23.217196
31
0
39
0
210
0
220
0
230
1
0
LINE
5
A0
100
AcDbEntity
8
1
62
256
6
ByLayer
370
18
48
1
60
0
100
AcDbLine
10
14.335303
20
-19.941681
30
0
11
14.306949
21
-19.940814
31
0
39
0
210
0
220
0
230
1
0
LINE
5
A1
100
AcDbEntity
8
1
62
256
6
ByLayer
370
18
48
1
60
0
100
AcDbLine
10
13.387818
20
-19.9378
30
0
11
1.560165
21
-19.944446
31
0
39
0
210
0
220
0
230
1
0
LINE
5
A2
100
AcDbEntity
8
1
62
256
6
ByLayer
370
18
48
1
60
0
100
AcDbLine
10
19.222192
20
-19.957704
30
0
11
14.335303
21
-19.941681
31
0
39
0
210
0
220
0
230
1
0
LINE
5
A3
100
AcDbEntity
8
1
62
256
6
ByLayer
370
18
48
1
60
0
100
AcDbLine
10
21.158275
20
-19.957704
30
0
11
18.722502
21
-15.738821
31
0
39
0
210
0
220
0
230
1
0
LINE
5
A4
100
AcDbEntity
8
1
62
256
6
ByLayer
370
18
48
1
60
0
100
AcDbLine
10
1.560165
20
-19.944446
30
0
11
0.764082
21
21.410567
31
0
39
0
210
0
220
0
230
1
0
LINE
5
A5
100
AcDbEntity
8
1
62
256
6
ByLayer
370
18
48
1
60
0
100
AcDbLine
10
0.764082
20
21.410567
30
0
11
0.5
21
20.425
31
0
39
0
210
0
220
0
230
1
0
LINE
5
A6
100
AcDbEntity
8
1
62
256
6
ByLayer
370
18
48
1
60
0
100
AcDbLine
10
0.5
20
20.425
30
0
11
0.5
21
-19.927182
31
0
39
0
210
0
220
0
230
1
0
LINE
5
A7
100
AcDbEntity
8
1
62
256
6
ByLayer
370
18
48
1
60
0
100
AcDbLine
10
49.976027
20
-9.073052
30
0
11
49.939287
21
-8.941251
31
0
39
0
210
0
220
0
230
1
0
LINE
5
A8
100
AcDbEntity
8
1
62
256
6
ByLayer
370
18
48
1
60
0
100
AcDbLine
10
47.190336
20
-19.943078
30
0
11
21.158275
21
-19.957704
31
0
39
0
210
0
220
0
230
1
0
LINE
5
A9
100
AcDbEntity
8
1
62
256
6
ByLayer
370
18
48
1
60
0
100
AcDbLine
10
0
20
-19.925
30
0
11
0
21
19.925
31
0
39
0
210
0
220
0
230
1
0
LINE
5
AA
100
AcDbEntity
8
1
62
256
6
ByLayer
370
18
48
1
60
0
100
AcDbLine
10
1.248167
20
23.217196
30
0
11
5.381131
21
23.217196
31
0
39
0
210
0
220
0
230
1
0
LINE
5
AB
100
AcDbEntity
8
SK1
62
256
6
ByLayer
370
18
48
1
60
0
100
AcDbLine
10
-194.737072
20
19.925
30
0
11
-194.737072
21
-19.925
31
0
39
0
210
0
220
0
230
1
0
LINE
5
AD
100
AcDbEntity
8
SK1
62
256
6
ByLayer
370
18
48
1
60
0
100
AcDbLine
10
0
20
19.925
30
0
11
0
21
-19.925
31
0
39
0
210
0
220
0
230
1
0
LINE
5
AE
100
AcDbEntity
8
SK1
62
256
6
ByLayer
370
18
48
1
60
0
100
AcDbLine
10
0
20
19.925
30
0
11
-194.737072
21
19.925
31
0
39
0
210
0
220
0
230
1
0
LINE
5
AF
100
AcDbEntity
8
SK1
62
256
6
ByLayer
370
18
48
1
60
0
100
AcDbLine
10
-194.737072
20
-19.925
30
0
11
0
21
-19.925
31
0
39
0
210
0
220
0
230
1
0
LINE
5
B0
100
AcDbEntity
8
1
62
256
6
ByLayer
370
18
48
1
60
0
100
AcDbLine
10
54.839332
20
15.900234
30
0
11
35.013759
21
21.21248
31
0
39
0
210
0
220
0
230
1
0
LINE
5
B1
100
AcDbEntity
8
1
62
256
6
ByLayer
370
18
48
1
60
0
100
AcDbLine
10
51.442754
20
-6.891544
30
0
11
56.538686
21
12.993258
31
0
39
0
210
0
220
0
230
1
0
LINE
5
B2
100
AcDbEntity
8
1
62
256
6
ByLayer
370
18
48
1
60
0
100
AcDbLine
10
9.619769
20
7.835427
30
0
11
6.639414
21
6.690941
31
0
39
0
210
0
220
0
230
1
0
LINE
5
B3
100
AcDbEntity
8
1
62
256
6
ByLayer
370
18
48
1
60
0
100
AcDbLine
10
10.512962
20
8.517295
30
0
11
22.242365
21
10.609493
31
0
39
0
210
0
220
0
230
1
0
LINE
5
B4
100
AcDbEntity
8
1
62
256
6
ByLayer
370
18
48
1
60
0
100
AcDbLine
10
24.537899
20
-7.130137
30
0
11
20.351718
21
-7.876835
31
0
39
0
210
0
220
0
230
1
0
LINE
5
B5
100
AcDbEntity
8
1
62
256
6
ByLayer
370
18
48
1
60
0
100
AcDbLine
10
16.628263
20
12.289693
30
0
11
10.734431
21
11.238398
31
0
39
0
210
0
220
0
230
1
0
LINE
5
B6
100
AcDbEntity
8
1
62
256
6
ByLayer
370
18
48
1
60
0
100
AcDbLine
10
21.458599
20
9.431661
30
0
11
20.870272
21
9.205737
31
0
39
0
210
0
220
0
230
1
0
LINE
5
B7
100
AcDbEntity
8
1
62
256
6
ByLayer
370
18
48
1
60
0
100
AcDbLine
10
11.603941
20
-2.711407
30
0
11
11.493162
21
-2.753947
31
0
39
0
210
0
220
0
230
1
0
LINE
5
B8
100
AcDbEntity
8
1
62
256
6
ByLayer
370
18
48
1
60
0
100
AcDbLine
10
14.469454
20
-8.892887
30
0
11
20.363285
21
-7.841592
31
0
39
0
210
0
220
0
230
1
0
LINE
5
B9
100
AcDbEntity
8
1
62
256
6
ByLayer
370
18
48
1
60
0
100
AcDbLine
10
13.919788
20
5.966899
30
0
11
13.070385
21
5.64072
31
0
39
0
210
0
220
0
230
1
0
LINE
5
BA
100
AcDbEntity
8
1
62
256
6
ByLayer
370
18
48
1
60
0
100
AcDbLine
10
9.099064
20
-6.566246
30
0
11
6.639414
21
6.690941
31
0
39
0
210
0
220
0
230
1
0
LINE
5
BB
100
AcDbEntity
8
1
62
256
6
ByLayer
370
18
48
1
60
0
100
AcDbLine
10
18.584632
20
8.800127
30
0
11
20.870272
21
9.205737
31
0
39
0
210
0
220
0
230
1
0
LINE
5
BC
100
AcDbEntity
8
1
62
256
6
ByLayer
370
18
48
1
60
0
100
AcDbLine
10
13.070385
20
5.64072
30
0
11
10.035592
21
5.102164
31
0
39
0
210
0
220
0
230
1
0
LINE
5
BD
100
AcDbEntity
8
1
62
256
6
ByLayer
370
18
48
1
60
0
100
AcDbLine
10
20.363285
20
-7.841592
30
0
11
20.351718
21
-7.876835
31
0
39
0
210
0
220
0
230
1
0
LINE
5
BE
100
AcDbEntity
8
1
62
256
6
ByLayer
370
18
48
1
60
0
100
AcDbLine
10
10.146371
20
5.144704
30
0
11
10.035592
21
5.102164
31
0
39
0
210
0
220
0
230
1
0
LINE
5
BF
100
AcDbEntity
8
1
62
256
6
ByLayer
370
18
48
1
60
0
100
AcDbLine
10
11.603941
20
-2.711407
30
0
11
12.044449
21
-5.08569
31
0
39
0
210
0
220
0
230
1
0
LINE
5
C0
100
AcDbEntity
8
1
62
256
6
ByLayer
370
18
48
1
60
0
100
AcDbLine
10
6.545919
20
7.05976
30
0
11
9.147275
21
-6.96121
31
0
39
0
210
0
220
0
230
1
0
LINE
5
C1
100
AcDbEntity
8
1
62
256
6
ByLayer
370
18
48
1
60
0
100
AcDbLine
10
20.792208
20
13.058653
30
0
11
16.606026
21
12.311955
31
0
39
0
210
0
220
0
230
1
0
LINE
5
C2
100
AcDbEntity
8
1
62
256
6
ByLayer
370
18
48
1
60
0
100
AcDbLine
10
42.746863
20
1.023034
30
0
11
43.80442
21
2.693404
31
0
39
0
210
0
220
0
230
1
0
LINE
5
C3
100
AcDbEntity
8
1
62
256
6
ByLayer
370
18
48
1
60
0
100
AcDbLine
10
39.818208
20
6.345085
30
0
11
45.884174
21
7.092244
31
0
39
0
210
0
220
0
230
1
0
LINE
5
C4
100
AcDbEntity
8
1
62
256
6
ByLayer
370
18
48
1
60
0
100
AcDbLine
10
23.699613
20
-2.64711
30
0
11
21.403841
21
-3.056612
31
0
39
0
210
0
220
0
230
1
0
LINE
5
C5
100
AcDbEntity
8
1
62
256
6
ByLayer
370
18
48
1
60
0
100
AcDbLine
10
17.484275
20
-8.358603
30
0
11
13.994426
21
-9.180502
31
0
39
0
210
0
220
0
230
1
0
LINE
5
C6
100
AcDbEntity
8
1
62
256
6
ByLayer
370
18
48
1
60
0
100
AcDbLine
10
17.484275
20
-8.358603
30
0
11
20.346383
21
-7.848083
31
0
39
0
210
0
220
0
230
1
0
LINE
5
C7
100
AcDbEntity
8
1
62
256
6
ByLayer
370
18
48
1
60
0
100
AcDbLine
10
20.363285
20
-7.841592
30
0
11
20.346383
21
-7.848083
31
0
39
0
210
0
220
0
230
1
0
LINE
5
C8
100
AcDbEntity
8
1
62
256
6
ByLayer
370
18
48
1
60
0
100
AcDbLine
10
12.079418
20
-5.421761
30
0
11
9.099064
21
-6.566246
31
0
39
0
210
0
220
0
230
1
0
LINE
5
C9
100
AcDbEntity
8
1
62
256
6
ByLayer
370
18
48
1
60
0
100
AcDbLine
10
9.705862
20
7.518988
30
0
11
10.146371
21
5.144704
31
0
39
0
210
0
220
0
230
1
0
LINE
5
CA
100
AcDbEntity
8
1
62
256
6
ByLayer
370
18
48
1
60
0
100
AcDbLine
10
14.469454
20
-8.892887
30
0
11
13.311403
21
-9.33759
31
0
39
0
210
0
220
0
230
1
0
LINE
5
CB
100
AcDbEntity
8
1
62
256
6
ByLayer
370
18
48
1
60
0
100
AcDbLine
10
10.035592
20
5.102164
30
0
11
11.493162
21
-2.753947
31
0
39
0
210
0
220
0
230
1
0
LINE
5
CC
100
AcDbEntity
8
1
62
256
6
ByLayer
370
18
48
1
60
0
100
AcDbLine
10
16.606026
20
12.311955
30
0
11
16.628263
21
12.289693
31
0
39
0
210
0
220
0
230
1
0
LINE
5
CD
100
AcDbEntity
8
1
62
256
6
ByLayer
370
18
48
1
60
0
100
AcDbLine
10
20.346383
20
-7.848083
30
0
11
20.351718
21
-7.876835
31
0
39
0
210
0
220
0
230
1
0
LINE
5
CE
100
AcDbEntity
8
1
62
256
6
ByLayer
370
18
48
1
60
0
100
AcDbLine
10
42.372856
20
10.409345
30
0
11
40.783062
21
11.607529
31
0
39
0
210
0
220
0
230
1
0
LINE
5
CF
100
AcDbEntity
8
1
62
256
6
ByLayer
370
18
48
1
60
0
100
AcDbLine
10
13.157167
20
-5.734622
30
0
11
24.886569
21
-3.642424
31
0
39
0
210
0
220
0
230
1
0
LINE
5
D0
100
AcDbEntity
8
1
62
256
6
ByLayer
370
18
48
1
60
0
100
AcDbLine
10
19.162828
20
9.022159
30
0
11
18.584632
21
8.800127
31
0
39
0
210
0
220
0
230
1
0
LINE
5
D1
100
AcDbEntity
8
1
62
256
6
ByLayer
370
18
48
1
60
0
100
AcDbLine
10
19.162828
20
9.022159
30
0
11
21.458599
21
9.431661
31
0
39
0
210
0
220
0
230
1
0
LINE
5
D2
100
AcDbEntity
8
1
62
256
6
ByLayer
370
18
48
1
60
0
100
AcDbLine
10
22.895779
20
3.97162
30
0
11
23.194998
21
4.144374
31
0
39
0
210
0
220
0
230
1
0
LINE
5
D3
100
AcDbEntity
8
1
62
256
6
ByLayer
370
18
48
1
60
0
100
AcDbLine
10
22.790392
20
2.031601
30
0
11
23.089611
21
2.204355
31
0
39
0
210
0
220
0
230
1
0
LINE
5
D4
100
AcDbEntity
8
1
62
256
6
ByLayer
370
18
48
1
60
0
100
AcDbLine
10
22.299573
20
4.677051
30
0
11
22.598792
21
4.849805
31
0
39
0
210
0
220
0
230
1
0
LINE
5
D5
100
AcDbEntity
8
1
62
256
6
ByLayer
370
18
48
1
60
0
100
AcDbLine
10
20.375745
20
4.888615
30
0
11
20.674963
21
5.061369
31
0
39
0
210
0
220
0
230
1
0
LINE
5
D6
100
AcDbEntity
8
1
62
256
6
ByLayer
370
18
48
1
60
0
100
AcDbLine
10
21.065809
20
1.169262
30
0
11
21.365027
21
1.342016
31
0
39
0
210
0
220
0
230
1
0
MTEXT
5
150
100
AcDbEntity
8
SK6
62
256
6
ByLayer
370
18
48
1
60
0
100
AcDbMText
10
-83.187072
20
-29.170254
30
0
210
0
220
0
230
1
1
\W0.7914;DSBNR 4040S 25
40
3.5
41
0
44
1.084337
50
0
71
7
72
5
7
iso_b_vert
0
DIMENSION
5
161
100
AcDbEntity
8
2
62
256
6
ByLayer
370
13
48
1
60
0
100
AcDbDimension
2
DimnDraft3D1
10
53.181877
20
16.344347
30
0
11
41.116392
21
35.620479
31
0
70
34
71
5
72
1
41
1
210
0
220
0
230
1
3
Standard
100
AcDb2LineAngularDimension
13
56.612928
23
15.425
33
0
14
56.612928
24
10.662
34
0
15
56.612928
25
15.425
35
0
16
43.855819
26
32.050389
36
0
40
0
0
DIMENSION
5
177
100
AcDbEntity
8
SK2
62
256
6
ByLayer
370
13
48
1
60
0
100
AcDbDimension
2
DimnDraft3D2
10
-202.487072
20
19.925
30
0
11
-202.487072
21
-5.518421
31
0
70
32
71
5
72
1
41
1
210
0
220
0
230
1
3
Standard
100
AcDbAlignedDimension
13
-196.737072
23
-19.925
33
0
14
-196.737072
24
19.925
34
0
50
90
100
AcDbRotatedDimension
1001
ACAD
1000
DSTYLE
1002
{
1070
    74
1070
     0
1070
   279
1070
     0
1070
   172
1070
     1
1070
   173
1070
     1
1070
   340
1005
151
1070
    77
1070
     1
1070
    73
1070
     0
1070
   171
1070
     3
1070
   274
1070
     4
1070
   177
1070
     2
1070
   176
1070
     2
1070
   178
1070
     7
1070
    78
1070
     8
1070
    41
1041
3.175
1070
   147
1041
2.25
1070
    42
1041
2.0
1070
    44
1041
2.0
1070
   140
1041
4.5
1070
   343
1005
162
1070
   344
1005
162
1002
}
0
DIMENSION
5
185
100
AcDbEntity
8
2
62
256
6
ByLayer
370
13
48
1
60
0
100
AcDbDimension
2
DimnDraft3D3
10
78.862928
20
15.425
30
0
11
78.862928
21
-7.531579
31
0
70
32
71
5
72
1
41
1
210
0
220
0
230
1
3
Standard
100
AcDbAlignedDimension
13
2
23
-19.925
33
0
14
58.612928
24
15.425
34
0
50
90
100
AcDbRotatedDimension
1001
ACAD
1000
DSTYLE
1002
{
1070
    74
1070
     0
1070
   279
1070
     0
1070
   172
1070
     1
1070
   173
1070
     1
1070
   340
1005
151
1070
    77
1070
     1
1070
    73
1070
     0
1070
   171
1070
     3
1070
   274
1070
     4
1070
   177
1070
     2
1070
   176
1070
     2
1070
   178
1070
     7
1070
    78
1070
     8
1070
    41
1041
3.175
1070
   147
1041
2.25
1070
    42
1041
2.0
1070
    44
1041
2.0
1070
   140
1041
4.5
1070
   343
1005
162
1070
   344
1005
162
1002
}
0
DIMENSION
5
193
100
AcDbEntity
8
2
62
256
6
ByLayer
370
13
48
1
60
0
100
AcDbDimension
2
DimnDraft3D4
10
56.612928
20
45.175
30
0
11
23.024885
21
45.175
31
0
70
32
71
5
72
1
41
1
210
0
220
0
230
1
3
Standard
100
AcDbAlignedDimension
13
0
23
21.925
33
0
14
56.612928
24
17.425
34
0
50
0
100
AcDbRotatedDimension
1001
ACAD
1000
DSTYLE
1002
{
1070
   279
1070
     0
1070
   172
1070
     1
1070
   173
1070
     1
1070
   340
1005
151
1070
    77
1070
     1
1070
    73
1070
     0
1070
   171
1070
     3
1070
   274
1070
     4
1070
   177
1070
     2
1070
   176
1070
     2
1070
   178
1070
     7
1070
    78
1070
     8
1070
    41
1041
3.175
1070
   147
1041
2.25
1070
    42
1041
2.0
1070
    44
1041
2.0
1070
   140
1041
4.5
1070
   343
1005
162
1070
   344
1005
162
1002
}
0
DIMENSION
5
1A1
100
AcDbEntity
8
SK2
62
256
6
ByLayer
370
13
48
1
60
0
100
AcDbDimension
2
DimnDraft3D5
10
-194.737072
20
55.175
30
0
11
-76.02523
21
55.175
31
0
70
32
71
5
72
1
41
1
210
0
220
0
230
1
3
Standard
100
AcDbAlignedDimension
13
56.612928
23
17.425
33
0
14
-194.737072
24
21.925
34
0
50
0
100
AcDbRotatedDimension
1001
ACAD
1000
DSTYLE
1002
{
1070
   279
1070
     0
1070
   172
1070
     1
1070
   173
1070
     1
1070
   340
1005
151
1070
    77
1070
     1
1070
    73
1070
     0
1070
   171
1070
     3
1070
   274
1070
     4
1070
   177
1070
     2
1070
   176
1070
     2
1070
   178
1070
     7
1070
    78
1070
     8
1070
    41
1041
3.175
1070
   147
1041
2.25
1070
    42
1041
2.0
1070
    44
1041
2.0
1070
   140
1041
4.5
1070
   343
1005
162
1070
   344
1005
162
1002
}
0
ENDSEC
0
SECTION
2
OBJECTS
0
DICTIONARY
5
20b
330
0
100
AcDbDictionary
280
0
281
1
3
ACAD_GROUP
350
20c
3
ACAD_MLINESTYLE
350
20d
0
DICTIONARY
5
20c
330
0
100
AcDbDictionary
280
0
281
1
0
DICTIONARY
5
20d
330
0
100
AcDbDictionary
280
0
281
1
3
Standard
350
18
0
MLINESTYLE
5
18
330
20d
100
AcDbMlineStyle
2
Standard
70
0
3

62
256
51
90
52
90
71
2
49
-0.5
62
256
6
ByLayer
49
0.5
62
256
6
ByLayer
0
RASTERVARIABLES
5
1fa
330

100
AcDbRasterVariables
90
0
70
1
71
1
72
1
0
ENDSEC
0
EOF
