0
SECTION
2
HEADER
9
$ACADVER
1
AC1015
9
$DWGCODEPAGE
3
ANSI_1252
9
$HANDSEED
5
215
9
$ANGBASE
50
0
9
$ANGDIR
70
0
9
$ATTMODE
70
1
9
$AUNITS
70
0
9
$AUPREC
70
0
9
$CECOLOR
62
256
9
$CELTSCALE
40
1
9
$CELTYPE
6
ByLayer
9
$CELWEIGHT
370
18
9
$CLAYER
8
0
9
$CMLJUST
70
0
9
$CMLSCALE
40
1
9
$CMLSTYLE
2
Standard
9
$DIMSTYLE
2
Standard
9
$TEXTSIZE
40
0.2
9
$TEXTSTYLE
7
Standard
9
$LUNITS
70
2
9
$LUPREC
70
4
9
$EXTNAMES
290
1
9
$INSUNITS
70
4
9
$LTSCALE
40
1
9
$LWDISPLAY
290
1
9
$PDMODE
70
0
9
$PDSIZE
40
0
9
$PLINEGEN
70
0
0
ENDSEC
0
SECTION
2
CLASSES
0
CLASS
1
RASTERVARIABLES
2
AcDbRasterVariables
3
ISM
90
0
280
0
281
0
0
ENDSEC
0
SECTION
2
TABLES
0
TABLE
2
VPORT
5
20b
100
AcDbSymbolTable
0
VPORT
5
1
100
AcDbSymbolTableRecord
100
AcDbViewportTableRecord
2
*Active
70
0
10
0
20
0
11
1
21
1
12
-1
22
1
13
0
23
0
14
0.5
24
0.5
15
10
25
10
16
0
26
0
36
1
17
0
27
0
37
0
0
ENDTAB
0
TABLE
2
LTYPE
5
20c
100
AcDbSymbolTable
0
LTYPE
5
14
100
AcDbSymbolTableRecord
100
AcDbLinetypeTableRecord
70
0
2
ByBlock
3

72
65
73
0
40
0
0
LTYPE
5
15
100
AcDbSymbolTableRecord
100
AcDbLinetypeTableRecord
70
0
2
ByLayer
3

72
65
73
0
40
0
0
LTYPE
5
16
100
AcDbSymbolTableRecord
100
AcDbLinetypeTableRecord
70
0
2
CONTINUOUS
3
Solid line
72
65
73
0
40
0
0
LTYPE
5
6A
100
AcDbSymbolTableRecord
100
AcDbLinetypeTableRecord
70
0
2
CENTER
3
____ _ ____ _ ____ _ ____
72
65
73
4
40
47.5
49
22
74
0
49
-8.5
74
0
49
8.5
74
0
49
-8.5
74
0
0
LTYPE
5
6B
100
AcDbSymbolTableRecord
100
AcDbLinetypeTableRecord
70
0
2
DASHED
3
__ __ __ __ __ __ __ __ __
72
65
73
2
40
25.72
49
12.86
74
0
49
-12.86
74
0
0
ENDTAB
0
TABLE
2
LAYER
5
20d
100
AcDbSymbolTable
0
LAYER
5
10
100
AcDbSymbolTableRecord
100
AcDbLayerTableRecord
2
0
70
0
62
7
6
CONTINUOUS
290
1
370
-3
390
0
0
LAYER
5
6D
100
AcDbSymbolTableRecord
100
AcDbLayerTableRecord
2
2
70
0
62
7
6
CONTINUOUS
290
1
370
-3
390
0
0
LAYER
5
6F
100
AcDbSymbolTableRecord
100
AcDbLayerTableRecord
2
80
70
0
62
-6
6
CONTINUOUS
290
1
370
-3
390
0
0
LAYER
5
71
100
AcDbSymbolTableRecord
100
AcDbLayerTableRecord
2
81
70
0
62
-3
6
CONTINUOUS
290
1
370
-3
390
0
0
LAYER
5
73
100
AcDbSymbolTableRecord
100
AcDbLayerTableRecord
2
1
70
0
62
4
6
CONTINUOUS
290
1
370
-3
390
0
0
LAYER
5
1f8
100
AcDbSymbolTableRecord
100
AcDbLayerTableRecord
2
SK1
70
0
62
4
6
CONTINUOUS
290
1
370
-3
390
0
0
LAYER
5
1f9
100
AcDbSymbolTableRecord
100
AcDbLayerTableRecord
2
SK6
70
0
62
5
6
CONTINUOUS
290
1
370
-3
390
0
0
LAYER
5
1fa
100
AcDbSymbolTableRecord
100
AcDbLayerTableRecord
2
SK2
70
0
62
7
6
CONTINUOUS
290
1
370
-3
390
0
0
ENDTAB
0
TABLE
2
STYLE
5
20e
100
AcDbSymbolTable
0
STYLE
5
11
100
AcDbSymbolTableRecord
100
AcDbTextStyleTableRecord
2
Standard
3
txt
70
0
71
0
40
0
41
1
42
0
50
0
0
STYLE
5
14E
100
AcDbSymbolTableRecord
100
AcDbTextStyleTableRecord
2
iso_b_vert
3
simplex.shx
70
0
71
0
40
0
41
1
42
0
50
0
0
STYLE
5
14F
100
AcDbSymbolTableRecord
100
AcDbTextStyleTableRecord
2
DWGDirectTextStyle
3
simplex
70
0
71
0
40
0
41
1
42
0
50
0
0
ENDTAB
0
TABLE
2
DIMSTYLE
5
20f
100
AcDbSymbolTable
100
AcDbDimStyleTable
0
DIMSTYLE
105
27
100
AcDbSymbolTableRecord
100
AcDbDimStyleTableRecord
2
Standard
70
0
3
<>
41
0.18
42
0.0625
44
0.18
140
0.18
147
0.09
73
0
74
0
77
1
271
2
275
0
278
52
280
0
340
11
0
ENDTAB
0
TABLE
2
VIEW
5
210
100
AcDbSymbolTable
0
ENDTAB
0
TABLE
2
UCS
5
211
100
AcDbSymbolTable
0
ENDTAB
0
TABLE
2
APPID
5
212
100
AcDbSymbolTable
0
APPID
5
12
100
AcDbSymbolTableRecord
100
AcDbRegAppTableRecord
2
ACAD
70
0
0
ENDTAB
0
TABLE
2
BLOCK_RECORD
5
213
100
AcDbSymbolTable
0
BLOCK_RECORD
5
1F
100
AcDbSymbolTableRecord
100
AcDbBlockTableRecord
2
*Model_Space
340
0
70
0
0
BLOCK_RECORD
5
1B
100
AcDbSymbolTableRecord
100
AcDbBlockTableRecord
2
*Paper_Space
340
0
70
0
0
BLOCK_RECORD
5
23
100
AcDbSymbolTableRecord
100
AcDbBlockTableRecord
2
*Paper_Space0
340
0
70
0
0
BLOCK_RECORD
5
151
100
AcDbSymbolTableRecord
100
AcDbBlockTableRecord
2
DimnDraft3D11
340
0
70
0
0
BLOCK_RECORD
5
160
100
AcDbSymbolTableRecord
100
AcDbBlockTableRecord
2
DimnDraft3D2
340
0
70
0
0
BLOCK_RECORD
5
16E
100
AcDbSymbolTableRecord
100
AcDbBlockTableRecord
2
_CLOSED
340
0
70
0
0
BLOCK_RECORD
5
175
100
AcDbSymbolTableRecord
100
AcDbBlockTableRecord
2
DimnDraft3D3
340
0
70
0
0
BLOCK_RECORD
5
183
100
AcDbSymbolTableRecord
100
AcDbBlockTableRecord
2
DimnDraft3D4
340
0
70
0
0
BLOCK_RECORD
5
191
100
AcDbSymbolTableRecord
100
AcDbBlockTableRecord
2
DimnDraft3D5
340
0
70
0
0
ENDTAB
0
ENDSEC
0
SECTION
2
BLOCKS
0
BLOCK
5
20
100
AcDbEntity
8
0
100
AcDbBlockBegin
2
*Model_Space
70
0
10
0
20
0
30
0
3
*Model_Space
0
ENDBLK
5
21
100
AcDbEntity
8
0
100
AcDbBlockEnd
0
BLOCK
5
1C
100
AcDbEntity
8
0
100
AcDbBlockBegin
2
*Paper_Space
70
0
10
0
20
0
30
0
3
*Paper_Space
0
ENDBLK
5
1D
100
AcDbEntity
8
0
100
AcDbBlockEnd
0
BLOCK
5
24
100
AcDbEntity
8
0
100
AcDbBlockBegin
2
*Paper_Space0
70
0
10
0
20
0
30
0
3
*Paper_Space0
0
ENDBLK
5
25
100
AcDbEntity
8
0
100
AcDbBlockEnd
0
BLOCK
5
152
100
AcDbEntity
8
0
100
AcDbBlockBegin
2
DimnDraft3D11
70
0
10
0
20
0
30
0
3
DimnDraft3D11
0
LINE
5
154
100
AcDbEntity
8
SK2
62
256
6
ByLayer
370
25
48
1
60
0
100
AcDbLine
10
41.660724
20
-13.425
30
0
11
41.660724
21
-51.675
31
0
39
0
210
0
220
0
230
1
0
LINE
5
156
100
AcDbEntity
8
SK2
62
256
6
ByLayer
370
25
48
1
60
0
100
AcDbLine
10
-129.689276
20
-17.925
30
0
11
-129.689276
21
-51.675
31
0
39
0
210
0
220
0
230
1
0
LINE
5
157
100
AcDbEntity
8
SK2
62
256
6
ByLayer
370
25
48
1
60
0
100
AcDbLine
10
41.660724
20
-49.675
30
0
11
-129.689276
21
-49.675
31
0
39
0
210
0
220
0
230
1
0
LINE
5
158
100
AcDbEntity
8
SK2
62
256
6
ByLayer
370
25
48
1
60
0
100
AcDbLine
10
41.660724
20
-49.675
30
0
11
38.485726
21
-50.092997
31
0
39
0
210
0
220
0
230
1
0
LINE
5
159
100
AcDbEntity
8
SK2
62
256
6
ByLayer
370
25
48
1
60
0
100
AcDbLine
10
41.660724
20
-49.675
30
0
11
38.485723
21
-49.257003
31
0
39
0
210
0
220
0
230
1
0
LINE
5
15A
100
AcDbEntity
8
SK2
62
256
6
ByLayer
370
25
48
1
60
0
100
AcDbLine
10
38.485726
20
-50.092997
30
0
11
38.485723
21
-49.257003
31
0
39
0
210
0
220
0
230
1
0
LINE
5
15B
100
AcDbEntity
8
SK2
62
256
6
ByLayer
370
25
48
1
60
0
100
AcDbLine
10
-129.689276
20
-49.675
30
0
11
-126.514277
21
-49.257003
31
0
39
0
210
0
220
0
230
1
0
LINE
5
15C
100
AcDbEntity
8
SK2
62
256
6
ByLayer
370
25
48
1
60
0
100
AcDbLine
10
-129.689276
20
-49.675
30
0
11
-126.514274
21
-50.092997
31
0
39
0
210
0
220
0
230
1
0
LINE
5
15D
100
AcDbEntity
8
SK2
62
256
6
ByLayer
370
25
48
1
60
0
100
AcDbLine
10
-126.514277
20
-49.257003
30
0
11
-126.514274
21
-50.092997
31
0
39
0
210
0
220
0
230
1
0
MTEXT
5
15E
100
AcDbEntity
8
SK2
62
256
6
ByLayer
370
18
48
1
60
0
100
AcDbMText
10
-49.289934
20
-48.55
30
0
210
0
220
0
230
1
1
\W0.6864;170.0
40
4.5
41
0
44
1.084337
50
0
71
7
72
5
7
iso_b_vert
0
ENDBLK
5
153
100
AcDbEntity
8
0
100
AcDbBlockEnd
0
BLOCK
5
16B
100
AcDbEntity
8
0
100
AcDbBlockBegin
2
DimnDraft3D2
70
0
10
0
20
0
30
0
3
DimnDraft3D2
0
MTEXT
5
161
100
AcDbEntity
8
2
62
256
6
ByLayer
370
18
48
1
60
0
100
AcDbMText
10
26.959269
20
-25.789197
30
0
210
0
220
0
230
1
1
\W0.7399;75%%d
40
4.5
41
0
44
1.084337
50
322.5
71
7
72
5
7
iso_b_vert
0
LINE
5
162
100
AcDbEntity
8
2
62
256
6
ByLayer
370
13
48
1
60
0
100
AcDbLine
10
36.734503
20
-12.744977
30
0
11
18.989902
21
-17.499629
31
0
39
0
210
0
220
0
230
1
0
LINE
5
163
100
AcDbEntity
8
2
62
256
6
ByLayer
370
13
48
1
60
0
100
AcDbLine
10
41.660724
20
-13.425
30
0
11
41.660724
21
-34.895563
31
0
39
0
210
0
220
0
230
1
0
ARC
5
164
100
AcDbEntity
8
2
62
256
6
ByLayer
370
13
48
1
60
0
100
AcDbCircle
39
0
10
41.660724
20
-11.425
30
0
40
21.4705627491871
210
0
220
0
230
1
100
AcDbArc
50
195
51
270
0
LINE
5
165
100
AcDbEntity
8
2
62
256
6
ByLayer
370
13
48
1
60
0
100
AcDbLine
10
20.921753
20
-16.981991
30
0
11
22.255578
21
-19.89339
31
0
39
0
210
0
220
0
230
1
0
LINE
5
166
100
AcDbEntity
8
2
62
256
6
ByLayer
370
13
48
1
60
0
100
AcDbLine
10
20.921753
20
-16.981991
30
0
11
21.456603
21
-20.139409
31
0
39
0
210
0
220
0
230
1
0
LINE
5
167
100
AcDbEntity
8
2
62
256
6
ByLayer
370
13
48
1
60
0
100
AcDbLine
10
22.255578
20
-19.89339
30
0
11
21.456603
21
-20.139409
31
0
39
0
210
0
220
0
230
1
0
LINE
5
168
100
AcDbEntity
8
2
62
256
6
ByLayer
370
13
48
1
60
0
100
AcDbLine
10
41.660724
20
-32.895563
30
0
11
38.472466
21
-33.196137
31
0
39
0
210
0
220
0
230
1
0
LINE
5
169
100
AcDbEntity
8
2
62
256
6
ByLayer
370
13
48
1
60
0
100
AcDbLine
10
41.660724
20
-32.895563
30
0
11
38.503306
21
-32.360713
31
0
39
0
210
0
220
0
230
1
0
LINE
5
16A
100
AcDbEntity
8
2
62
256
6
ByLayer
370
13
48
1
60
0
100
AcDbLine
10
38.472466
20
-33.196137
30
0
11
38.503306
21
-32.360713
31
0
39
0
210
0
220
0
230
1
0
ENDBLK
5
16C
100
AcDbEntity
8
0
100
AcDbBlockEnd
0
BLOCK
5
16F
100
AcDbEntity
8
0
100
AcDbBlockBegin
2
_CLOSED
70
0
10
0
20
0
30
0
3
_CLOSED
0
LINE
5
171
100
AcDbEntity
8
0
62
256
6
ByLayer
370
-2
48
1
60
0
100
AcDbLine
10
-1
20
0.166667
30
0
11
0
21
0
31
0
39
0
210
0
220
0
230
1
0
LINE
5
172
100
AcDbEntity
8
0
62
256
6
ByLayer
370
-2
48
1
60
0
100
AcDbLine
10
0
20
0
30
0
11
-1
21
-0.166667
31
0
39
0
210
0
220
0
230
1
0
LINE
5
173
100
AcDbEntity
8
0
62
256
6
ByLayer
370
-2
48
1
60
0
100
AcDbLine
10
-1
20
0.166667
30
0
11
-1
21
-0.166667
31
0
39
0
210
0
220
0
230
1
0
LINE
5
174
100
AcDbEntity
8
0
62
256
6
ByLayer
370
-2
48
1
60
0
100
AcDbLine
10
0
20
0
30
0
11
-1
21
0
31
0
39
0
210
0
220
0
230
1
0
ENDBLK
5
170
100
AcDbEntity
8
0
100
AcDbBlockEnd
0
BLOCK
5
180
100
AcDbEntity
8
0
100
AcDbBlockBegin
2
DimnDraft3D3
70
0
10
0
20
0
30
0
3
DimnDraft3D3
0
MTEXT
5
176
100
AcDbEntity
8
2
62
256
6
ByLayer
370
18
48
1
60
0
100
AcDbMText
10
16.999441
20
-38.55
30
0
210
0
220
0
230
1
1
\W0.6856;41.7
40
4.5
41
0
44
1.084337
50
0
71
7
72
5
7
iso_b_vert
0
LINE
5
177
100
AcDbEntity
8
2
62
256
6
ByLayer
370
13
48
1
60
0
100
AcDbLine
10
0
20
-17.925
30
0
11
0
21
-41.675
31
0
39
0
210
0
220
0
230
1
0
LINE
5
178
100
AcDbEntity
8
2
62
256
6
ByLayer
370
13
48
1
60
0
100
AcDbLine
10
41.660724
20
-13.425
30
0
11
41.660724
21
-41.675
31
0
39
0
210
0
220
0
230
1
0
LINE
5
179
100
AcDbEntity
8
2
62
256
6
ByLayer
370
13
48
1
60
0
100
AcDbLine
10
0
20
-39.675
30
0
11
41.660724
21
-39.675
31
0
39
0
210
0
220
0
230
1
0
LINE
5
17A
100
AcDbEntity
8
2
62
256
6
ByLayer
370
13
48
1
60
0
100
AcDbLine
10
0
20
-39.675
30
0
11
3.174998
21
-39.257003
31
0
39
0
210
0
220
0
230
1
0
LINE
5
17B
100
AcDbEntity
8
2
62
256
6
ByLayer
370
13
48
1
60
0
100
AcDbLine
10
0
20
-39.675
30
0
11
3.175002
21
-40.092997
31
0
39
0
210
0
220
0
230
1
0
LINE
5
17C
100
AcDbEntity
8
2
62
256
6
ByLayer
370
13
48
1
60
0
100
AcDbLine
10
3.174998
20
-39.257003
30
0
11
3.175002
21
-40.092997
31
0
39
0
210
0
220
0
230
1
0
LINE
5
17D
100
AcDbEntity
8
2
62
256
6
ByLayer
370
13
48
1
60
0
100
AcDbLine
10
41.660724
20
-39.675
30
0
11
38.485726
21
-40.092997
31
0
39
0
210
0
220
0
230
1
0
LINE
5
17E
100
AcDbEntity
8
2
62
256
6
ByLayer
370
13
48
1
60
0
100
AcDbLine
10
41.660724
20
-39.675
30
0
11
38.485723
21
-39.257003
31
0
39
0
210
0
220
0
230
1
0
LINE
5
17F
100
AcDbEntity
8
2
62
256
6
ByLayer
370
13
48
1
60
0
100
AcDbLine
10
38.485726
20
-40.092997
30
0
11
38.485723
21
-39.257003
31
0
39
0
210
0
220
0
230
1
0
ENDBLK
5
181
100
AcDbEntity
8
0
100
AcDbBlockEnd
0
BLOCK
5
18E
100
AcDbEntity
8
0
100
AcDbBlockBegin
2
DimnDraft3D4
70
0
10
0
20
0
30
0
3
DimnDraft3D4
0
MTEXT
5
184
100
AcDbEntity
8
2
62
256
6
ByLayer
370
18
48
1
60
0
100
AcDbMText
10
62.785724
20
-1.906579
30
0
210
0
220
0
230
1
1
\W0.7346;27.0
40
4.5
41
0
44
1.084337
50
90
71
7
72
5
7
iso_b_vert
0
LINE
5
185
100
AcDbEntity
8
2
62
256
6
ByLayer
370
13
48
1
60
0
100
AcDbLine
10
2
20
15.925
30
0
11
65.910724
21
15.925
31
0
39
0
210
0
220
0
230
1
0
LINE
5
186
100
AcDbEntity
8
2
62
256
6
ByLayer
370
13
48
1
60
0
100
AcDbLine
10
43.660724
20
-11.425
30
0
11
65.910724
21
-11.425
31
0
39
0
210
0
220
0
230
1
0
LINE
5
187
100
AcDbEntity
8
2
62
256
6
ByLayer
370
13
48
1
60
0
100
AcDbLine
10
63.910724
20
15.925
30
0
11
63.910724
21
-11.425
31
0
39
0
210
0
220
0
230
1
0
LINE
5
188
100
AcDbEntity
8
2
62
256
6
ByLayer
370
13
48
1
60
0
100
AcDbLine
10
63.910724
20
15.925
30
0
11
64.328721
21
12.750002
31
0
39
0
210
0
220
0
230
1
0
LINE
5
189
100
AcDbEntity
8
2
62
256
6
ByLayer
370
13
48
1
60
0
100
AcDbLine
10
63.910724
20
15.925
30
0
11
63.492728
21
12.749998
31
0
39
0
210
0
220
0
230
1
0
LINE
5
18A
100
AcDbEntity
8
2
62
256
6
ByLayer
370
13
48
1
60
0
100
AcDbLine
10
64.328721
20
12.750002
30
0
11
63.492728
21
12.749998
31
0
39
0
210
0
220
0
230
1
0
LINE
5
18B
100
AcDbEntity
8
2
62
256
6
ByLayer
370
13
48
1
60
0
100
AcDbLine
10
63.910724
20
-11.425
30
0
11
63.492728
21
-8.250002
31
0
39
0
210
0
220
0
230
1
0
LINE
5
18C
100
AcDbEntity
8
2
62
256
6
ByLayer
370
13
48
1
60
0
100
AcDbLine
10
63.910724
20
-11.425
30
0
11
64.328721
21
-8.249998
31
0
39
0
210
0
220
0
230
1
0
LINE
5
18D
100
AcDbEntity
8
2
62
256
6
ByLayer
370
13
48
1
60
0
100
AcDbLine
10
63.492728
20
-8.250002
30
0
11
64.328721
21
-8.249998
31
0
39
0
210
0
220
0
230
1
0
ENDBLK
5
18F
100
AcDbEntity
8
0
100
AcDbBlockEnd
0
BLOCK
5
19C
100
AcDbEntity
8
0
100
AcDbBlockBegin
2
DimnDraft3D5
70
0
10
0
20
0
30
0
3
DimnDraft3D5
0
MTEXT
5
192
100
AcDbEntity
8
SK2
62
256
6
ByLayer
370
18
48
1
60
0
100
AcDbMText
10
-138.564276
20
-4.156579
30
0
210
0
220
0
230
1
1
\W0.7346;32.0
40
4.5
41
0
44
1.084337
50
90
71
7
72
5
7
iso_b_vert
0
LINE
5
193
100
AcDbEntity
8
SK2
62
256
6
ByLayer
370
13
48
1
60
0
100
AcDbLine
10
-131.689276
20
15.925
30
0
11
-139.439276
21
15.925
31
0
39
0
210
0
220
0
230
1
0
LINE
5
194
100
AcDbEntity
8
SK2
62
256
6
ByLayer
370
13
48
1
60
0
100
AcDbLine
10
-131.689276
20
-15.925
30
0
11
-139.439276
21
-15.925
31
0
39
0
210
0
220
0
230
1
0
LINE
5
195
100
AcDbEntity
8
SK2
62
256
6
ByLayer
370
13
48
1
60
0
100
AcDbLine
10
-137.439276
20
15.925
30
0
11
-137.439276
21
-15.925
31
0
39
0
210
0
220
0
230
1
0
LINE
5
196
100
AcDbEntity
8
SK2
62
256
6
ByLayer
370
13
48
1
60
0
100
AcDbLine
10
-137.439276
20
15.925
30
0
11
-137.021279
21
12.750002
31
0
39
0
210
0
220
0
230
1
0
LINE
5
197
100
AcDbEntity
8
SK2
62
256
6
ByLayer
370
13
48
1
60
0
100
AcDbLine
10
-137.439276
20
15.925
30
0
11
-137.857272
21
12.749998
31
0
39
0
210
0
220
0
230
1
0
LINE
5
198
100
AcDbEntity
8
SK2
62
256
6
ByLayer
370
13
48
1
60
0
100
AcDbLine
10
-137.021279
20
12.750002
30
0
11
-137.857272
21
12.749998
31
0
39
0
210
0
220
0
230
1
0
LINE
5
199
100
AcDbEntity
8
SK2
62
256
6
ByLayer
370
13
48
1
60
0
100
AcDbLine
10
-137.439276
20
-15.925
30
0
11
-137.857272
21
-12.750002
31
0
39
0
210
0
220
0
230
1
0
LINE
5
19A
100
AcDbEntity
8
SK2
62
256
6
ByLayer
370
13
48
1
60
0
100
AcDbLine
10
-137.439276
20
-15.925
30
0
11
-137.021279
21
-12.749998
31
0
39
0
210
0
220
0
230
1
0
LINE
5
19B
100
AcDbEntity
8
SK2
62
256
6
ByLayer
370
13
48
1
60
0
100
AcDbLine
10
-137.857272
20
-12.750002
30
0
11
-137.021279
21
-12.749998
31
0
39
0
210
0
220
0
230
1
0
ENDBLK
5
19D
100
AcDbEntity
8
0
100
AcDbBlockEnd
0
ENDSEC
0
SECTION
2
ENTITIES
0
ELLIPSE
5
CB
100
AcDbEntity
8
1
62
256
6
ByLayer
370
18
48
1
60
0
100
AcDbEllipse
10
17.201821
20
2.700561
30
0
11
-0.224999999999993
21
-0.389711431703001
31
0
210
0
220
0
230
1
40
0.989133
41
2.33041044405881
42
2.79620028821684
0
ELLIPSE
5
CC
100
AcDbEntity
8
1
62
256
6
ByLayer
370
18
48
1
60
0
100
AcDbEllipse
10
16.103819
20
0.384391
30
0
11
-0.224999999999993
21
-0.389711431703001
31
0
210
0
220
0
230
1
40
0.989133
41
0.34538330047762
42
0.974788717687332
0
ELLIPSE
5
CD
100
AcDbEntity
8
1
62
256
6
ByLayer
370
18
48
1
60
0
100
AcDbEllipse
10
17.244798
20
1.270518
30
0
11
0.699999999999987
21
1.21243556529822
31
0
210
0
220
0
230
1
40
0.989133
41
-3.11243067028358
42
-0.136065937423043
0
ELLIPSE
5
CE
100
AcDbEntity
8
1
62
256
6
ByLayer
370
18
48
1
60
0
100
AcDbEllipse
10
17.314828
20
1.230086
30
0
11
0.699999999999987
21
1.21243556529822
31
0
210
0
220
0
230
1
40
0.989133
41
2.57463896385616
42
3.13179474849287
0
ELLIPSE
5
CF
100
AcDbEntity
8
1
62
256
6
ByLayer
370
18
48
1
60
0
100
AcDbEllipse
10
17.314828
20
1.230086
30
0
11
0.699999999999987
21
1.21243556529822
31
0
210
0
220
0
230
1
40
0.989133
41
1.36823719243135
42
1.97929811046075
0
ELLIPSE
5
D0
100
AcDbEntity
8
1
62
256
6
ByLayer
370
18
48
1
60
0
100
AcDbEllipse
10
17.314828
20
1.230086
30
0
11
0.699999999999987
21
1.21243556529822
31
0
210
0
220
0
230
1
40
0.989133
41
0.173404413253289
42
0.743155178182571
0
ELLIPSE
5
D1
100
AcDbEntity
8
1
62
256
6
ByLayer
370
18
48
1
60
0
100
AcDbEllipse
10
17.314828
20
1.230086
30
0
11
0.699999999999987
21
1.21243556529822
31
0
210
0
220
0
230
1
40
0.989133
41
-0.873793137943305
42
-0.106740703067578
0
ELLIPSE
5
D2
100
AcDbEntity
8
1
62
256
6
ByLayer
370
18
48
1
60
0
100
AcDbEllipse
10
18.525838
20
2.075782
30
0
11
-0.224999999999993
21
-0.389711431703001
31
0
210
0
220
0
230
1
40
0.989133
41
1.2832128928621
42
2.79616888446556
0
ELLIPSE
5
D3
100
AcDbEntity
8
1
62
256
6
ByLayer
370
18
48
1
60
0
100
AcDbEllipse
10
17.427835
20
-0.240388
30
0
11
-0.224999999999993
21
-0.389711431703001
31
0
210
0
220
0
230
1
40
0.989133
41
0.345414377018513
42
2.02198626888401
0
ELLIPSE
5
D4
100
AcDbEntity
8
1
62
256
6
ByLayer
370
18
48
1
60
0
100
AcDbEllipse
10
17.193868
20
1.299923
30
0
11
2.49999999999995
21
4.33012701892222
31
0
210
0
220
0
230
1
40
0.989133
41
0
42
0.121442227583236
0
ELLIPSE
5
D5
100
AcDbEntity
8
1
62
256
6
ByLayer
370
18
48
1
60
0
100
AcDbEllipse
10
32.332573
20
-5.751495
30
0
11
1.58749999999997
21
2.74963065701561
31
0
210
0
220
0
230
1
40
0.989133
41
-2.78374135523398
42
-0.19330193521731
0
ELLIPSE
5
D6
100
AcDbEntity
8
1
62
256
6
ByLayer
370
18
48
1
60
0
100
AcDbEllipse
10
8.549233
20
-1.256364
30
0
11
1.47738106167382
21
2.61100463396899
31
0
210
0
220
0
230
1
40
0.986425
41
0.0284948362109301
42
0.0732243651094526
0
ELLIPSE
5
D7
100
AcDbEntity
8
1
62
256
6
ByLayer
370
18
48
1
60
0
100
AcDbEllipse
10
17.99458
20
0.922339
30
0
11
-2.53617082254003
21
-4.48222462164678
31
0
210
0
220
0
230
1
40
0.986425
41
0.0732243651094564
42
-3.11313592358349
0
ELLIPSE
5
D8
100
AcDbEntity
8
1
62
256
6
ByLayer
370
18
48
1
60
0
100
AcDbEllipse
10
13.315808
20
15.934787
30
0
11
-0.885351962205569
21
-2.64091208006335E-05
31
0
210
0
220
0
230
1
40
0.003943
41
1.42185378617129
42
2.992650112966
0
ELLIPSE
5
D9
100
AcDbEntity
8
1
62
256
6
ByLayer
370
18
48
1
60
0
100
AcDbEllipse
10
1.923575
20
-8.09645
30
0
11
-0.598414804344108
21
-2.579128856625
31
0
210
0
220
0
230
1
40
0.219299
41
-0.929623698915546
42
0.641172627879422
0
ELLIPSE
5
DA
100
AcDbEntity
8
1
62
256
6
ByLayer
370
18
48
1
60
0
100
AcDbEllipse
10
27.178841
20
-9.024872
30
0
11
-0.124934144267884
21
-3.86966597215352
31
0
210
0
220
0
230
1
40
0.523705
41
-1.06367112878442
42
-0.776249033221255
0
ELLIPSE
5
DB
100
AcDbEntity
8
1
62
256
6
ByLayer
370
18
48
1
60
0
100
AcDbEllipse
10
27.517498
20
-13.988334
30
0
11
-0.595499999999983
21
-1.03143625590728
31
0
210
0
220
0
230
1
40
0.989133
41
-0.790861371918986
42
0.779934954875873
0
ELLIPSE
5
DC
100
AcDbEntity
8
1
62
256
6
ByLayer
370
18
48
1
60
0
100
AcDbEllipse
10
40.479337
20
-10.515219
30
0
11
-0.595499999999983
21
-1.03143625590728
31
0
210
0
220
0
230
1
40
0.989133
41
0.779934954875897
42
2.3507312816708
0
ELLIPSE
5
DD
100
AcDbEntity
8
1
62
256
6
ByLayer
370
18
48
1
60
0
100
AcDbEllipse
10
37.147648
20
2.485345
30
0
11
-0.595499999999983
21
-1.03143625590728
31
0
210
0
220
0
230
1
40
0.989133
41
2.35073128167081
42
-2.3616576987139
0
ELLIPSE
5
DE
100
AcDbEntity
8
1
62
256
6
ByLayer
370
18
48
1
60
0
100
AcDbEllipse
10
15.392681
20
8.058514
30
0
11
-2.14788716670225
21
4.26747308661387
31
0
210
0
220
0
230
1
40
0.549774
41
-0.612828368777181
42
0.505144305392679
0
ELLIPSE
5
DF
100
AcDbEntity
8
1
62
256
6
ByLayer
370
18
48
1
60
0
100
AcDbEllipse
10
12.460703
20
9.608073
30
0
11
-2.22594881316216
21
-2.70164223106692
31
0
210
0
220
0
230
1
40
0.996259
41
-2.49566367455836
42
-1.32342884384681
0
ELLIPSE
5
E0
100
AcDbEntity
8
1
62
256
6
ByLayer
370
18
48
1
60
0
100
AcDbEllipse
10
7.860415
20
-0.095962
30
0
11
-2.22594881350575
21
-2.70164223078826
31
0
210
0
220
0
230
1
40
0.996259
41
-1.32342884371987
42
-0.151194013009058
0
ELLIPSE
5
E1
100
AcDbEntity
8
1
62
256
6
ByLayer
370
18
48
1
60
0
100
AcDbEllipse
10
32.928023
20
-6.082068
30
0
11
-2.17302594870288
21
-1.86016831919941
31
0
210
0
220
0
230
1
40
0.788795
41
1.47434859512144
42
1.92405857114218
0
ELLIPSE
5
E2
100
AcDbEntity
8
1
62
256
6
ByLayer
370
18
48
1
60
0
100
AcDbEllipse
10
11.905143
20
0.522497
30
0
11
4.96983653858025
21
-2.3559976188003
31
0
210
0
220
0
230
1
40
0.012014
41
-2.32535076975192
42
-1.91993159773863
0
ELLIPSE
5
E3
100
AcDbEntity
8
1
62
256
6
ByLayer
370
18
48
1
60
0
100
AcDbEllipse
10
10.041438
20
14.540942
30
0
11
6.32524650364759
21
-2.99854242392765
31
0
210
0
220
0
230
1
40
0.012014
41
0.810298218555953
42
0.840977275713207
0
ELLIPSE
5
E4
100
AcDbEntity
8
1
62
256
6
ByLayer
370
18
48
1
60
0
100
AcDbEllipse
10
14.475137
20
5.943745
30
0
11
4.96983653858025
21
-2.3559976188003
31
0
210
0
220
0
230
1
40
0.012014
41
-2.32535076975197
42
-1.91993159773866
0
ELLIPSE
5
E5
100
AcDbEntity
8
1
62
256
6
ByLayer
370
18
48
1
60
0
100
AcDbEllipse
10
32.928023
20
-6.082068
30
0
11
-0.286888803950753
21
-2.87848496943746
31
0
210
0
220
0
230
1
40
0.792245
41
1.30894773720582
42
1.75865771322595
0
ELLIPSE
5
E6
100
AcDbEntity
8
1
62
256
6
ByLayer
370
18
48
1
60
0
100
AcDbEllipse
10
10.792392
20
-1.645521
30
0
11
-4.62200857478687
21
-0.805997110920367
31
0
210
0
220
0
230
1
40
0.539114
41
-0.46458983309557
42
0.653382841074734
0
ELLIPSE
5
E7
100
AcDbEntity
8
1
62
256
6
ByLayer
370
18
48
1
60
0
100
AcDbEllipse
10
16.251832
20
1.704165
30
0
11
-0.224999999999993
21
-0.389711431703001
31
0
210
0
220
0
230
1
40
0.989133
41
-2.90557731192417
42
-0.0724088335091374
0
ELLIPSE
5
E8
100
AcDbEntity
8
1
62
256
6
ByLayer
370
18
48
1
60
0
100
AcDbEllipse
10
17.688856
20
-0.391088
30
0
11
-0.224999999999993
21
-0.389711431703001
31
0
210
0
220
0
230
1
40
0.989133
41
-0.811182209531026
42
2.021986268884
0
ELLIPSE
5
E9
100
AcDbEntity
8
1
62
256
6
ByLayer
370
18
48
1
60
0
100
AcDbEllipse
10
17.570335
20
1.082569
30
0
11
0.699999999999987
21
1.21243556529822
31
0
210
0
220
0
230
1
40
0.989133
41
-1.05699545629355
42
-0.873793137943312
0
ELLIPSE
5
EA
100
AcDbEntity
8
1
62
256
6
ByLayer
370
18
48
1
60
0
100
AcDbEllipse
10
18.638845
20
0.605308
30
0
11
-0.224999999999993
21
-0.389711431703001
31
0
210
0
220
0
230
1
40
0.989133
41
0.236015341665559
42
3.06918382008059
0
ELLIPSE
5
EB
100
AcDbEntity
8
1
62
256
6
ByLayer
370
18
48
1
60
0
100
AcDbEllipse
10
17.570335
20
1.082569
30
0
11
0.699999999999987
21
1.21243556529822
31
0
210
0
220
0
230
1
40
0.989133
41
3.13179474849243
42
-2.96818824033606
0
ELLIPSE
5
EC
100
AcDbEntity
8
1
62
256
6
ByLayer
370
18
48
1
60
0
100
AcDbEllipse
10
15.719203
20
0.917587
30
0
11
0.249999999999995
21
0.433012701892222
31
0
210
0
220
0
230
1
40
0.989133
41
-1.8583797607277
42
-1.34441810870093
0
ELLIPSE
5
ED
100
AcDbEntity
8
1
62
256
6
ByLayer
370
18
48
1
60
0
100
AcDbEllipse
10
15.719203
20
0.917587
30
0
11
0.249999999999995
21
0.433012701892222
31
0
210
0
220
0
230
1
40
0.989133
41
-0.586370485535886
42
-0.0724088335092075
0
ELLIPSE
5
EE
100
AcDbEntity
8
1
62
256
6
ByLayer
370
18
48
1
60
0
100
AcDbEllipse
10
18.899865
20
0.454607
30
0
11
-0.224999999999993
21
-0.389711431703001
31
0
210
0
220
0
230
1
40
0.989133
41
0.236015341665564
42
3.06918382008059
0
ELLIPSE
5
EF
100
AcDbEntity
8
1
62
256
6
ByLayer
370
18
48
1
60
0
100
AcDbEllipse
10
17.314828
20
1.230086
30
0
11
0.699999999999987
21
1.21243556529822
31
0
210
0
220
0
230
1
40
0.989133
41
-2.9681882403365
42
-2.10419300749012
0
ELLIPSE
5
F0
100
AcDbEntity
8
1
62
256
6
ByLayer
370
18
48
1
60
0
100
AcDbEllipse
10
19.171474
20
1.391885
30
0
11
0.249999999999995
21
0.433012701892222
31
0
210
0
220
0
230
1
40
0.989133
41
2.43520940552916
42
3.06918382008059
0
ELLIPSE
5
F1
100
AcDbEntity
8
1
62
256
6
ByLayer
370
18
48
1
60
0
100
AcDbEllipse
10
17.575849
20
1.079386
30
0
11
0.712499999999986
21
1.23408620039283
31
0
210
0
220
0
230
1
40
0.989133
41
-0.0483936501796387
42
0.212000158335997
0
ELLIPSE
5
F2
100
AcDbEntity
8
1
62
256
6
ByLayer
370
18
48
1
60
0
100
AcDbEllipse
10
16.523377
20
2.613944
30
0
11
0.249999999999995
21
0.433012701892222
31
0
210
0
220
0
230
1
40
0.989133
41
-2.90557731192421
42
-2.39161565989753
0
ELLIPSE
5
F3
100
AcDbEntity
8
1
62
256
6
ByLayer
370
18
48
1
60
0
100
AcDbEllipse
10
19.432494
20
1.241185
30
0
11
0.249999999999995
21
0.433012701892222
31
0
210
0
220
0
230
1
40
0.989133
41
1.28321289286215
42
1.79717454488886
0
ELLIPSE
5
F4
100
AcDbEntity
8
1
62
256
6
ByLayer
370
18
48
1
60
0
100
AcDbEllipse
10
19.171474
20
1.391885
30
0
11
0.249999999999995
21
0.433012701892222
31
0
210
0
220
0
230
1
40
0.989133
41
1.28321289286215
42
1.91718730741361
0
ELLIPSE
5
F5
100
AcDbEntity
8
1
62
256
6
ByLayer
370
18
48
1
60
0
100
AcDbEllipse
10
18.3673
20
-0.304471
30
0
11
0.249999999999995
21
0.433012701892222
31
0
210
0
220
0
230
1
40
0.989133
41
0.236015341665527
42
0.869989756217037
0
ELLIPSE
5
F6
100
AcDbEntity
8
1
62
256
6
ByLayer
370
18
48
1
60
0
100
AcDbEllipse
10
16.364839
20
0.233691
30
0
11
-0.224999999999993
21
-0.389711431703001
31
0
210
0
220
0
230
1
40
0.989133
41
-1.85837976072757
42
0.974788717687408
0
ELLIPSE
5
F7
100
AcDbEntity
8
1
62
256
6
ByLayer
370
18
48
1
60
0
100
AcDbEllipse
10
18.62832
20
-0.455171
30
0
11
0.249999999999995
21
0.433012701892222
31
0
210
0
220
0
230
1
40
0.989133
41
0.236015341665524
42
0.749976993692273
0
ELLIPSE
5
F8
100
AcDbEntity
8
1
62
256
6
ByLayer
370
18
48
1
60
0
100
AcDbEllipse
10
16.771675
20
-0.61697
30
0
11
0.249999999999995
21
0.433012701892222
31
0
210
0
220
0
230
1
40
0.989133
41
-0.811182209531048
42
-0.297220557504395
0
ELLIPSE
5
F9
100
AcDbEntity
8
1
62
256
6
ByLayer
370
18
48
1
60
0
100
AcDbEllipse
10
16.510655
20
-0.46627
30
0
11
0.249999999999995
21
0.433012701892222
31
0
210
0
220
0
230
1
40
0.989133
41
0.340814303135946
42
0.974788717687486
0
ELLIPSE
5
FA
100
AcDbEntity
8
1
62
256
6
ByLayer
370
18
48
1
60
0
100
AcDbEllipse
10
18.380022
20
2.775742
30
0
11
0.249999999999995
21
0.433012701892222
31
0
210
0
220
0
230
1
40
0.989133
41
2.33041044405874
42
2.8443720960854
0
ELLIPSE
5
FB
100
AcDbEntity
8
1
62
256
6
ByLayer
370
18
48
1
60
0
100
AcDbEllipse
10
18.786858
20
1.925082
30
0
11
-0.224999999999993
21
-0.389711431703001
31
0
210
0
220
0
230
1
40
0.989133
41
1.28321289286214
42
-2.16680393590234
0
ELLIPSE
5
FC
100
AcDbEntity
8
1
62
256
6
ByLayer
370
18
48
1
60
0
100
AcDbEllipse
10
17.575849
20
1.079386
30
0
11
-1.24999999999996
21
-2.16506350946112
31
0
210
0
220
0
230
1
40
0.989133
41
0
42
6.28318530717959
0
ELLIPSE
5
FD
100
AcDbEntity
8
1
62
256
6
ByLayer
370
18
48
1
60
0
100
AcDbEllipse
10
17.575849
20
1.079386
30
0
11
0.712499999999986
21
1.23408620039283
31
0
210
0
220
0
230
1
40
0.989133
41
2.04600145221358
42
2.30639526072919
0
ELLIPSE
5
FE
100
AcDbEntity
8
1
62
256
6
ByLayer
370
18
48
1
60
0
100
AcDbEllipse
10
19.432494
20
1.241185
30
0
11
0.249999999999995
21
0.433012701892222
31
0
210
0
220
0
230
1
40
0.989133
41
2.55522216805392
42
3.06918382008059
0
ELLIPSE
5
FF
100
AcDbEntity
8
1
62
256
6
ByLayer
370
18
48
1
60
0
100
AcDbEllipse
10
17.575849
20
1.079386
30
0
11
0.712499999999986
21
1.23408620039283
31
0
210
0
220
0
230
1
40
0.989133
41
3.09319900341016
42
-2.92959249525382
0
ELLIPSE
5
100
100
AcDbEntity
8
1
62
256
6
ByLayer
370
18
48
1
60
0
100
AcDbEllipse
10
18.3673
20
-0.304471
30
0
11
0.249999999999995
21
0.433012701892222
31
0
210
0
220
0
230
1
40
0.989133
41
1.38801185433249
42
2.02198626888403
0
ELLIPSE
5
101
100
AcDbEntity
8
1
62
256
6
ByLayer
370
18
48
1
60
0
100
AcDbEllipse
10
18.380022
20
2.775742
30
0
11
0.249999999999995
21
0.433012701892222
31
0
210
0
220
0
230
1
40
0.989133
41
-2.68076558792916
42
-2.16680393590245
0
ELLIPSE
5
102
100
AcDbEntity
8
1
62
256
6
ByLayer
370
18
48
1
60
0
100
AcDbEllipse
10
17.570335
20
1.082569
30
0
11
0.699999999999987
21
1.21243556529822
31
0
210
0
220
0
230
1
40
0.989133
41
2.08459719729625
42
2.26779951564648
0
ELLIPSE
5
103
100
AcDbEntity
8
1
62
256
6
ByLayer
370
18
48
1
60
0
100
AcDbEllipse
10
17.462841
20
2.549861
30
0
11
-0.224999999999993
21
-0.389711431703001
31
0
210
0
220
0
230
1
40
0.989133
41
2.33041044405872
42
-1.11960638470578
0
ELLIPSE
5
104
100
AcDbEntity
8
1
62
256
6
ByLayer
370
18
48
1
60
0
100
AcDbEllipse
10
17.575849
20
1.079386
30
0
11
0.712499999999986
21
1.23408620039283
31
0
210
0
220
0
230
1
40
0.989133
41
0.998803901016956
42
1.25919770953259
0
ELLIPSE
5
105
100
AcDbEntity
8
1
62
256
6
ByLayer
370
18
48
1
60
0
100
AcDbEllipse
10
17.403404
20
1.178947
30
0
11
-2.49999999999992
21
-4.33012701892223
31
0
210
0
220
0
230
1
40
0.989133
41
0
42
6.28318530717959
0
ELLIPSE
5
106
100
AcDbEntity
8
1
62
256
6
ByLayer
370
18
48
1
60
0
100
AcDbEllipse
10
16.523377
20
2.613944
30
0
11
0.249999999999995
21
0.433012701892222
31
0
210
0
220
0
230
1
40
0.989133
41
-1.63356803673245
42
-1.11960638470582
0
ELLIPSE
5
107
100
AcDbEntity
8
1
62
256
6
ByLayer
370
18
48
1
60
0
100
AcDbEllipse
10
18.119002
20
2.926442
30
0
11
0.249999999999995
21
0.433012701892222
31
0
210
0
220
0
230
1
40
0.989133
41
2.33041044405875
42
2.96438485861019
0
ELLIPSE
5
108
100
AcDbEntity
8
1
62
256
6
ByLayer
370
18
48
1
60
0
100
AcDbEllipse
10
17.570335
20
1.082569
30
0
11
0.699999999999987
21
1.21243556529822
31
0
210
0
220
0
230
1
40
0.989133
41
-0.00979790509696791
42
0.173404413253685
0
ELLIPSE
5
109
100
AcDbEntity
8
1
62
256
6
ByLayer
370
18
48
1
60
0
100
AcDbEllipse
10
17.570335
20
1.082569
30
0
11
0.699999999999987
21
1.21243556529822
31
0
210
0
220
0
230
1
40
0.989133
41
-2.10419300749012
42
-1.9209906891399
0
ELLIPSE
5
10A
100
AcDbEntity
8
1
62
256
6
ByLayer
370
18
48
1
60
0
100
AcDbEllipse
10
16.771675
20
-0.61697
30
0
11
0.249999999999995
21
0.433012701892222
31
0
210
0
220
0
230
1
40
0.989133
41
0.460827065660743
42
0.974788717687418
0
ELLIPSE
5
10B
100
AcDbEntity
8
1
62
256
6
ByLayer
370
18
48
1
60
0
100
AcDbEllipse
10
17.575849
20
1.079386
30
0
11
0.712499999999986
21
1.23408620039283
31
0
210
0
220
0
230
1
40
0.989133
41
-2.14278875257284
42
-1.88239494405722
0
ELLIPSE
5
10C
100
AcDbEntity
8
1
62
256
6
ByLayer
370
18
48
1
60
0
100
AcDbEllipse
10
17.314828
20
1.230086
30
0
11
0.699999999999987
21
1.21243556529822
31
0
210
0
220
0
230
1
40
0.989133
41
-1.92099068913991
42
-1.05699545629355
0
ELLIPSE
5
10D
100
AcDbEntity
8
1
62
256
6
ByLayer
370
18
48
1
60
0
100
AcDbEllipse
10
18.62832
20
-0.455171
30
0
11
0.249999999999995
21
0.433012701892222
31
0
210
0
220
0
230
1
40
0.989133
41
1.50802461685728
42
2.02198626888403
0
ELLIPSE
5
10E
100
AcDbEntity
8
1
62
256
6
ByLayer
370
18
48
1
60
0
100
AcDbEllipse
10
17.575849
20
1.079386
30
0
11
0.712499999999986
21
1.23408620039283
31
0
210
0
220
0
230
1
40
0.989133
41
-1.09559120137624
42
-0.835197392860622
0
ELLIPSE
5
10F
100
AcDbEntity
8
1
62
256
6
ByLayer
370
18
48
1
60
0
100
AcDbEllipse
10
17.570335
20
1.082569
30
0
11
0.699999999999987
21
1.21243556529822
31
0
210
0
220
0
230
1
40
0.989133
41
1.03739964609963
42
1.22060196445053
0
POINT
5
6C
100
AcDbEntity
8
2
62
256
6
ByLayer
370
18
48
1
60
0
100
AcDbPoint
10
41.660724
20
43.275
30
0
39
0
210
0
220
0
230
1
50
360
0
POINT
5
6E
100
AcDbEntity
8
80
62
256
6
ByLayer
370
18
48
1
60
0
100
AcDbPoint
10
0
20
0
30
0
39
0
210
0
220
0
230
1
50
360
0
POINT
5
70
100
AcDbEntity
8
81
62
256
6
ByLayer
370
18
48
1
60
0
100
AcDbPoint
10
41.660724
20
-11.425
30
0
39
0
210
0
220
0
230
1
50
360
0
SPLINE
5
110
100
AcDbEntity
8
1
62
256
6
ByLayer
370
18
48
1
60
0
100
AcDbSpline
70
4
71
3
72
8
73
4
40
0
40
0
40
0
40
0
40
1
40
1
40
1
40
1
41
1
10
6.50636249452174
20
-3.33922297202966
30
0
41
1
10
6.08873031833127
20
-3.12019206222658
30
0
41
1
10
5.65358835616939
20
-2.83382238273168
30
0
41
1
10
5.25446430153124
20
-2.43276830791564
30
0
0
SPLINE
5
111
100
AcDbEntity
8
1
62
256
6
ByLayer
370
18
48
1
60
0
100
AcDbSpline
70
4
71
3
72
8
73
4
40
0
40
0
40
0
40
0
40
1
40
1
40
1
40
1
41
1
10
11.6987973014131
20
-0.322349977937591
30
0
41
1
10
12.0765100336298
20
-1.43684995888796
30
0
41
1
10
12.8896051008477
20
-2.37541293198763
30
0
41
1
10
14.0468326222156
20
-2.92148720354012
30
0
0
SPLINE
5
112
100
AcDbEntity
8
1
62
256
6
ByLayer
370
18
48
1
60
0
100
AcDbSpline
70
4
71
3
72
10
73
6
40
0
40
0
40
0
40
0
40
0.731297369966768
40
0.731297369966768
40
1
40
1
40
1
40
1
41
1
10
13.5267129369427
20
6.42229087467135
30
0
41
1
10
13.6093774761034
20
6.40398938351376
30
0
41
1
10
13.696471031393
20
6.38894867539867
30
0
41
1
10
13.813309557307
20
6.37595016061613
30
0
41
1
10
13.8449080781047
20
6.37315644192498
30
0
41
1
10
13.8759596836802
20
6.37116560446248
30
0
0
SPLINE
5
113
100
AcDbEntity
8
1
62
256
6
ByLayer
370
18
48
1
60
0
100
AcDbSpline
70
4
71
3
72
10
73
6
40
0
40
0
40
0
40
0
40
0.5
40
0.5
40
1
40
1
40
1
40
1
41
1
10
16.2162599442901
20
-3.93973161240447
30
0
41
1
10
17.2541417170729
20
-4.37469039435393
30
0
41
1
10
18.4267382553427
20
-4.46357458201297
30
0
41
1
10
20.6183312651801
20
-4.0083498570265
30
0
41
1
10
21.6559162027289
20
-3.45132982395421
30
0
41
1
10
22.3692144113105
20
-2.56725916586993
30
0
0
SPLINE
5
114
100
AcDbEntity
8
1
62
256
6
ByLayer
370
18
48
1
60
0
100
AcDbSpline
70
4
71
3
72
8
73
4
40
0
40
0
40
0
40
0
40
1
40
1
40
1
40
1
41
1
10
13.8759596836801
20
6.37116560446245
30
0
41
1
10
14.2494378430915
20
6.34722048802129
30
0
41
1
10
14.6162521723259
20
6.40249742541545
30
0
41
1
10
14.9467648486736
20
6.52904395543874
30
0
0
SPLINE
5
115
100
AcDbEntity
8
1
62
256
6
ByLayer
370
18
48
1
60
0
100
AcDbSpline
70
4
71
3
72
11
73
7
40
0
40
0
40
0
40
0
40
0.425230898249525
40
0.744154071936669
40
0.956769521061432
40
1
40
1
40
1
40
1
41
1.0258173342201
10
21.0841412240508
20
7.11312475504119
30
0
41
1.02559001729416
10
22.0663639772278
20
6.5321991590931
30
0
41
1.0228008665691
10
25.1038769976474
20
3.80203721489253
30
0
41
1.01953314781965
10
28.9469097650654
20
-0.481561760744058
30
0
41
1.01775466813744
10
30.2706393478947
20
-1.96470855178034
30
0
41
1.01823166218986
10
30.78694203759
20
-2.37151268413091
30
0
41
1.01834276704995
10
30.8737373166965
20
-2.43615055454178
30
0
0
SPLINE
5
116
100
AcDbEntity
8
1
62
256
6
ByLayer
370
18
48
1
60
0
100
AcDbSpline
70
4
71
3
72
8
73
4
40
0
40
0
40
0
40
0
40
1
40
1
40
1
40
1
41
1
10
13.7615237463484
20
-6.79575798138902
30
0
41
1
10
17.1488238724472
20
-8.36941023241553
30
0
41
1
10
20.8095380928942
20
-9.09928378151756
30
0
41
1
10
24.5325687194684
20
-9.21211643091377
30
0
0
SPLINE
5
117
100
AcDbEntity
8
1
62
256
6
ByLayer
370
18
48
1
60
0
100
AcDbSpline
70
4
71
3
72
10
73
6
40
0
40
0
40
0
40
0
40
0.5
40
0.5
40
1
40
1
40
1
40
1
41
1
10
30.8737373166966
20
-2.43615055454177
30
0
41
1
10
31.4114880568869
20
-2.23644148374467
30
0
41
1
10
31.9622182553784
20
-2.05414442101235
30
0
41
1
10
33.1317857603606
20
-2.20554713322414
30
0
41
1
10
33.7590987444837
20
-2.43162000033556
30
0
41
1
10
34.3451072381238
20
-3.1143262643171
30
0
0
SPLINE
5
118
100
AcDbEntity
8
1
62
256
6
ByLayer
370
18
48
1
60
0
100
AcDbSpline
70
4
71
3
72
8
73
4
40
0
40
0
40
0
40
0
40
1
40
1
40
1
40
1
41
1
10
11.6987973014132
20
-0.322349977937591
30
0
41
1
10
11.5855695754794
20
0.0117459834446265
30
0
41
1
10
11.3923680690685
20
0.330112023166947
30
0
41
1
10
11.1394993469643
20
0.598765641380282
30
0
0
SPLINE
5
119
100
AcDbEntity
8
1
62
256
6
ByLayer
370
18
48
1
60
0
100
AcDbSpline
70
4
71
2
72
6
73
3
40
0
40
0
40
0
40
1
40
1
40
1
41
0.943993461863076
10
16.2162599442901
20
-3.93973161240448
30
0
41
0.955129617927099
10
15.60013013748
20
-4.92173623874799
30
0
41
1.0258173342201
10
15.1720657648985
20
-5.35804601409581
30
0
0
SPLINE
5
11A
100
AcDbEntity
8
1
62
256
6
ByLayer
370
18
48
1
60
0
100
AcDbSpline
70
4
71
2
72
8
73
5
40
0
40
0
40
0
40
0.210534309729082
40
0.210534309729082
40
1
40
1
40
1
41
1
10
31.5682095925629
20
-8.97669961898799
30
0
41
1
10
31.0780476769119
20
-9.09101071244788
30
0
41
1
10
30.5833281285985
20
-9.18331091368819
30
0
41
1
10
28.7920799289593
20
-9.51750544847388
30
0
41
1
10
27.2116349068365
20
-9.63618447306146
30
0
0
SPLINE
5
11B
100
AcDbEntity
8
1
62
256
6
ByLayer
370
18
48
1
60
0
100
AcDbSpline
70
4
71
3
72
12
73
8
40
0
40
0
40
0
40
0
40
0.500000000000005
40
0.500000000000005
40
0.750000000000002
40
0.750000000000002
40
1
40
1
40
1
40
1
41
1
10
31.3456519415864
20
-4.56994107080243
30
0
41
1
10
31.1334122573593
20
-4.24940107794845
30
0
41
1
10
30.9273663225101
20
-3.90273803618857
30
0
41
1
10
30.7085588574207
20
-3.26134104091628
30
0
41
1
10
30.6513865406845
20
-3.01837528064098
30
0
41
1
10
30.6740479171074
20
-2.60146878697466
30
0
41
1
10
30.7664903943594
20
-2.47775590653339
30
0
41
1
10
30.8737373166966
20
-2.43615055454177
30
0
0
SPLINE
5
11C
100
AcDbEntity
8
1
62
256
6
ByLayer
370
18
48
1
60
0
100
AcDbSpline
70
4
71
3
72
8
73
4
40
0
40
0
40
0
40
0
40
1
40
1
40
1
40
1
41
1
10
11.6222425064732
20
9.87258187232166
30
0
41
1
10
11.6808708898479
20
9.99625495228082
30
0
41
1
10
11.7490846335837
20
10.1108511378489
30
0
41
1
10
11.8254414396307
20
10.2179115383964
30
0
0
SPLINE
5
11D
100
AcDbEntity
8
1
62
256
6
ByLayer
370
18
48
1
60
0
100
AcDbSpline
70
4
71
3
72
8
73
4
40
0
40
0
40
0
40
0
40
1
40
1
40
1
40
1
41
1
10
26.7554839882468
20
-9.51260806875158
30
0
41
1
10
26.906203664741
20
-9.55770973920966
30
0
41
1
10
27.0580284872557
20
-9.5999405318704
30
0
41
1
10
27.2112782980781
20
-9.63788138278858
30
0
0
SPLINE
5
11E
100
AcDbEntity
8
1
62
256
6
ByLayer
370
18
48
1
60
0
100
AcDbSpline
70
4
71
3
72
8
73
4
40
0
40
0
40
0
40
0
40
1
40
1
40
1
40
1
41
1
10
16.2162599444339
20
-3.93973161246507
30
0
41
1
10
16.146587643805
20
-3.9104946734453
30
0
41
1
10
16.0778042781017
20
-3.87986517766652
30
0
41
1
10
16.0099189378366
20
-3.84783134071583
30
0
0
SPLINE
5
11F
100
AcDbEntity
8
1
62
256
6
ByLayer
370
18
48
1
60
0
100
AcDbSpline
70
4
71
3
72
8
73
4
40
0
40
0
40
0
40
0
40
1
40
1
40
1
40
1
41
1
10
10.8787752345166
20
0.83662413189171
30
0
41
1
10
9.4076138131224
20
0.413308740806968
30
0
41
1
10
7.98152657227399
20
0.040259701727706
30
0
41
1
10
6.88280054600733
20
-0.208294801624646
30
0
0
SPLINE
5
120
100
AcDbEntity
8
1
62
256
6
ByLayer
370
18
48
1
60
0
100
AcDbSpline
70
4
71
3
72
20
73
16
40
0
40
0
40
0
40
0
40
0.11896205633978
40
0.11896205633978
40
0.191173230286448
40
0.191173230286448
40
0.26371216412632
40
0.26371216412632
40
0.333306822588762
40
0.333306822588762
40
0.45147982200441
40
0.45147982200441
40
0.654414534009067
40
0.654414534009067
40
1
40
1
40
1
40
1
41
1
10
28.7829871990338
20
-6.8464633005153
30
0
41
1
10
28.7653740532703
20
-6.79752772437936
30
0
41
1
10
28.7601998240736
20
-6.7414257759369
30
0
41
1
10
28.7892744888143
20
-6.64183639985043
30
0
41
1
10
28.8095418190436
20
-6.60111356059443
30
0
41
1
10
28.869173762812
20
-6.51942131388512
30
0
41
1
10
28.9094103193747
20
-6.47747956211805
30
0
41
1
10
29.0004365931607
20
-6.40024005110882
30
0
41
1
10
29.0515590493958
20
-6.36385357703892
30
0
41
1
10
29.1954304430429
20
-6.27400832654774
30
0
41
1
10
29.2947202414006
20
-6.22438519029868
30
0
41
1
10
29.5630421908249
20
-6.10884174447202
30
0
41
1
10
29.7370952890956
20
-6.05340834251734
30
0
41
1
10
30.1907706841052
20
-5.93525822460074
30
0
41
1
10
30.4677362957403
20
-5.89165439644913
30
0
41
1
10
30.7334484907453
20
-5.8613477575924
30
0
0
SPLINE
5
121
100
AcDbEntity
8
1
62
256
6
ByLayer
370
18
48
1
60
0
100
AcDbSpline
70
4
71
2
72
10
73
7
40
0
40
0
40
0
40
0.030364284240822
40
0.030364284240822
40
0.440077053271163
40
0.440077053271163
40
1
40
1
40
1
41
1
10
32.0937881753324
20
0.661497709656629
30
0
41
1
10
32.1176936712798
20
0.627568282394151
30
0
41
1
10
32.1408753735514
20
0.594335712507444
30
0
41
1
10
32.5330421024469
20
0.0321376447130035
30
0
41
1
10
32.9963825491515
20
-0.717626270594053
30
0
41
1
10
33.795146206495
20
-2.01016218321348
30
0
41
1
10
34.3454833314015
20
-3.11799358090744
30
0
0
SPLINE
5
122
100
AcDbEntity
8
1
62
256
6
ByLayer
370
18
48
1
60
0
100
AcDbSpline
70
4
71
3
72
8
73
4
40
0
40
0
40
0
40
0
40
1
40
1
40
1
40
1
41
1
10
20.6238042004164
20
5.3577202673051
30
0
41
1
10
20.5572732184963
20
5.39281018098274
30
0
41
1
10
20.4899286320488
20
5.42646918266308
30
0
41
1
10
20.4217415228653
20
5.458645418787
30
0
0
SPLINE
5
123
100
AcDbEntity
8
1
62
256
6
ByLayer
370
18
48
1
60
0
100
AcDbSpline
70
4
71
3
72
12
73
8
40
0
40
0
40
0
40
0
40
0.274077856982872
40
0.274077856982872
40
0.548155363965168
40
0.548155363965168
40
1
40
1
40
1
40
1
41
1
10
22.3692144113104
20
-2.56725916586993
30
0
41
1
10
22.5157804563943
20
-2.38558372501748
30
0
41
1
10
22.6509677252338
20
-2.19368212313341
30
0
41
1
10
22.8949837158711
20
-1.79476494023913
30
0
41
1
10
23.0043718921123
20
-1.58683553738342
30
0
41
1
10
23.2561127738337
20
-1.02264856717724
30
0
41
1
10
23.3758025397967
20
-0.653287739065945
30
0
41
1
10
23.4541131514034
20
-0.27872994319813
30
0
0
SPLINE
5
124
100
AcDbEntity
8
1
62
256
6
ByLayer
370
18
48
1
60
0
100
AcDbSpline
70
4
71
3
72
10
73
6
40
0
40
0
40
0
40
0
40
0.5
40
0.5
40
1
40
1
40
1
40
1
41
1
10
23.4541131514033
20
-0.278729943198073
30
0
41
1
10
23.6864199139121
20
0.832675647632385
30
0
41
1
10
23.460157555085
20
1.99709897807898
30
0
41
1
10
22.4276730458046
20
3.98330756745014
30
0
41
1
10
21.620724331415
20
4.83192820365943
30
0
41
1
10
20.6238042004164
20
5.35772026730513
30
0
0
SPLINE
5
125
100
AcDbEntity
8
1
62
256
6
ByLayer
370
18
48
1
60
0
100
AcDbSpline
70
4
71
3
72
8
73
4
40
0
40
0
40
0
40
0
40
1
40
1
40
1
40
1
41
1
10
20.6238042220786
20
5.35772033112676
30
0
41
1
10
20.871900843428
20
6.08866771555333
30
0
41
1
10
21.0314140641804
20
6.69693994259967
30
0
41
1
10
21.0841412240508
20
7.11312475504118
30
0
0
SPLINE
5
126
100
AcDbEntity
8
1
62
256
6
ByLayer
370
18
48
1
60
0
100
AcDbSpline
70
4
71
3
72
10
73
6
40
0
40
0
40
0
40
0
40
0.5
40
0.5
40
1
40
1
40
1
40
1
41
1
10
31.5649897363986
20
-8.97881841261781
30
0
41
1
10
30.656548822959
20
-8.97370539286584
30
0
41
1
10
30.0760322413498
20
-8.65358744701598
30
0
41
1
10
29.1970012211259
20
-7.88621385589994
30
0
41
1
10
28.9792993452099
20
-7.36726396714877
30
0
41
1
10
28.7829871990338
20
-6.8464633005153
30
0
0
SPLINE
5
127
100
AcDbEntity
8
1
62
256
6
ByLayer
370
18
48
1
60
0
100
AcDbSpline
70
4
71
3
72
10
73
6
40
0
40
0
40
0
40
0
40
0.914968234315966
40
0.914968234315966
40
1
40
1
40
1
40
1
41
1
10
30.7334484907453
20
-5.86134775759237
30
0
41
1
10
31.1690185259292
20
-5.81159443927527
30
0
41
1
10
31.5997619255973
20
-5.7699326932686
30
0
41
1
10
32.0647844728821
20
-5.73272426284976
30
0
41
1
10
32.1042883117126
20
-5.72963042923485
30
0
41
1
10
32.1437421522291
20
-5.72660987487126
30
0
0
SPLINE
5
128
100
AcDbEntity
8
1
62
256
6
ByLayer
370
18
48
1
60
0
100
AcDbSpline
70
4
71
3
72
11
73
7
40
0
40
0
40
0
40
0
40
0.425230898251464
40
0.744154071940063
40
0.956769521065795
40
1
40
1
40
1
40
1
41
1.0258173342201
10
15.1720657648985
20
-5.35804601409581
30
0
41
1.02559001729416
10
16.244366906362
20
-5.74895661919533
30
0
41
1.0228008665691
10
20.2797339314047
20
-6.37420502122939
30
0
41
1.01953314781965
10
26.0388479500276
20
-6.61594481322913
30
0
41
1.01775466813745
10
28.0321521223246
20
-6.6866639204394
30
0
41
1.01823166218985
10
28.6773969636869
20
-6.82147226996601
30
0
41
1.01834276704992
10
28.7829871990339
20
-6.8464633005153
30
0
0
SPLINE
5
129
100
AcDbEntity
8
1
62
256
6
ByLayer
370
18
48
1
60
0
100
AcDbSpline
70
4
71
3
72
8
73
4
40
0
40
0
40
0
40
0
40
1
40
1
40
1
40
1
41
1
10
18.4586552072443
20
6.3849895559627
30
0
41
1
10
17.314202921086
20
6.925035430219
30
0
41
1
10
16.0507595111296
20
6.9517408856801
30
0
41
1
10
14.9467648486735
20
6.52904395543871
30
0
0
SPLINE
5
12A
100
AcDbEntity
8
1
62
256
6
ByLayer
370
18
48
1
60
0
100
AcDbSpline
70
4
71
3
72
10
73
6
40
0
40
0
40
0
40
0
40
0.731096563947381
40
0.731096563947381
40
1
40
1
40
1
40
1
41
1
10
11.1394993469643
20
0.598765641380311
30
0
41
1
10
11.0823252901418
20
0.659508690601541
30
0
41
1
10
11.0178043802455
20
0.720234899447917
30
0
41
1
10
10.9281045696761
20
0.796727091623467
30
0
41
1
10
10.9034592762068
20
0.816988832501835
30
0
41
1
10
10.8787752345166
20
0.83662413189171
30
0
0
SPLINE
5
12B
100
AcDbEntity
8
1
62
256
6
ByLayer
370
18
48
1
60
0
100
AcDbSpline
70
4
71
1
72
4
73
2
40
0
40
0
40
1
40
1
41
1
10
21.0841412240508
20
7.11312475504118
30
0
41
1
10
21.3500147258011
20
9.21171139864168
30
0
0
SPLINE
5
12C
100
AcDbEntity
8
1
62
256
6
ByLayer
370
18
48
1
60
0
100
AcDbSpline
70
4
71
3
72
16
73
12
40
0
40
0
40
0
40
0
40
0.107738294188996
40
0.107738294188996
40
0.260376815889412
40
0.260376815889412
40
0.501548994683957
40
0.501548994683957
40
0.879664328740045
40
0.879664328740045
40
1
40
1
40
1
40
1
41
1
10
6.88280054600733
20
-0.208294801624646
30
0
41
1
10
6.86874502006856
20
-0.259738749031385
30
0
41
1
10
6.85215453725959
20
-0.313278780769167
30
0
41
1
10
6.81208253333841
20
-0.436733549755417
30
0
41
1
10
6.78778833488855
20
-0.506898914830913
30
0
41
1
10
6.72862345457327
20
-0.673564736924334
30
0
41
1
10
6.69433402112452
20
-0.765615241272371
30
0
41
1
10
6.61353894874594
20
-0.970697227305806
30
0
41
1
10
6.56901092867304
20
-1.07049188194665
30
0
41
1
10
6.5134646765016
20
-1.17277503653622
30
0
41
1
10
6.50015236253535
20
-1.19551301883351
30
0
41
1
10
6.48697658277115
20
-1.21630258681358
30
0
0
SPLINE
5
12D
100
AcDbEntity
8
1
62
256
6
ByLayer
370
18
48
1
60
0
100
AcDbSpline
70
4
71
3
72
11
73
7
40
0
40
0
40
0
40
0
40
0.0598016998855001
40
0.468392215040456
40
0.740785891810426
40
1
40
1
40
1
40
1
41
1.02298250505371
10
23.4541131513297
20
-0.278729943159543
30
0
41
1.02281639303115
10
23.6682655865842
20
-0.390724515188822
30
0
41
1.02150796927554
10
25.3599751736734
20
-1.27955830455335
30
0
41
1.01953314781965
10
28.07740745638
20
-2.76357654764432
30
0
41
1.0172623798868
10
30.0537235632759
20
-3.90228646086955
30
0
41
1.01931548101
10
30.8166680645518
20
-4.28500249457444
30
0
41
1.02052415826788
10
31.3456519414304
20
-4.56994107071837
30
0
0
SPLINE
5
12E
100
AcDbEntity
8
1
62
256
6
ByLayer
370
18
48
1
60
0
100
AcDbSpline
70
4
71
3
72
8
73
4
40
0
40
0
40
0
40
0
40
1
40
1
40
1
40
1
41
1
10
32.0938061190291
20
0.661520013680075
30
0
41
1
10
31.9661623513573
20
0.753475286284072
30
0
41
1
10
31.8360950929651
20
0.841602363524856
30
0
41
1
10
31.7045030435543
20
0.927052623147603
30
0
0
SPLINE
5
12F
100
AcDbEntity
8
1
62
256
6
ByLayer
370
18
48
1
60
0
100
AcDbSpline
70
4
71
3
72
8
73
4
40
0
40
0
40
0
40
0
40
1
40
1
40
1
40
1
41
1
10
13.5267129369427
20
6.42229087467135
30
0
41
1
10
13.2521770302942
20
6.48307167039081
30
0
41
1
10
12.9906550296162
20
6.5774654303315
30
0
41
1
10
12.7484315872171
20
6.69359387737853
30
0
0
SPLINE
5
130
100
AcDbEntity
8
1
62
256
6
ByLayer
370
18
48
1
60
0
100
AcDbSpline
70
4
71
3
72
10
73
6
40
0
40
0
40
0
40
0
40
0.311681797709783
40
0.311681797709783
40
1
40
1
40
1
40
1
41
1
10
32.1437421522484
20
-5.72660987486978
30
0
41
1
10
32.0597464343124
20
-5.60985640828554
30
0
41
1
10
31.9760945538873
20
-5.49194095147743
30
0
41
1
10
31.7087715850799
20
-5.11032518137912
30
0
41
1
10
31.5262507642289
20
-4.84279705441352
30
0
41
1
10
31.3456519415864
20
-4.56994107080243
30
0
0
SPLINE
5
131
100
AcDbEntity
8
1
62
256
6
ByLayer
370
18
48
1
60
0
100
AcDbSpline
70
4
71
3
72
16
73
12
40
0
40
0
40
0
40
0
40
0.474320436274421
40
0.474320436274421
40
0.658954025821056
40
0.658954025821056
40
0.845504004041765
40
0.845504004041765
40
0.957858191960713
40
0.957858191960713
40
1
40
1
40
1
40
1
41
1
10
12.3644745200637
20
11.1819289611039
30
0
41
1
10
12.3321024201812
20
11.0863995870004
30
0
41
1
10
12.2769053985418
20
10.9690003849259
30
0
41
1
10
12.1641147395842
20
10.7642951752864
30
0
41
1
10
12.127925861766
20
10.7011041729103
30
0
41
1
10
12.0476195397334
20
10.5648733585662
30
0
41
1
10
12.002626380348
20
10.4901826095212
30
0
41
1
10
11.9249071903904
20
10.3661630404267
30
0
41
1
10
11.893721819778
20
10.3174901517935
30
0
41
1
10
11.8498761910641
20
10.2527062596484
30
0
41
1
10
11.8376563443732
20
10.2350381399673
30
0
41
1
10
11.8254414396307
20
10.2179115383965
30
0
0
SPLINE
5
132
100
AcDbEntity
8
1
62
256
6
ByLayer
370
18
48
1
60
0
100
AcDbSpline
70
4
71
3
72
8
73
4
40
0
40
0
40
0
40
0
40
1
40
1
40
1
40
1
41
1
10
12.3776757647111
20
11.2215448329584
30
0
41
1
10
12.3734255189512
20
11.2085530947147
30
0
41
1
10
12.369016765549
20
11.1953330303435
30
0
41
1
10
12.3644745200635
20
11.181928961104
30
0
0
SPLINE
5
133
100
AcDbEntity
8
1
62
256
6
ByLayer
370
18
48
1
60
0
100
AcDbSpline
70
4
71
3
72
10
73
6
40
0
40
0
40
0
40
0
40
0.5
40
0.5
40
1
40
1
40
1
40
1
41
1
10
30.0552200787134
20
2.43758741258676
30
0
41
1
10
28.8345074449685
20
3.83298562713208
30
0
41
1
10
27.5044233882875
20
5.104842113122
30
0
41
1
10
24.6074427790714
20
7.3810608503565
30
0
41
1
10
23.033930294101
20
8.40472781997514
30
0
41
1
10
21.3500147258011
20
9.21171139864168
30
0
0
SPLINE
5
134
100
AcDbEntity
8
1
62
256
6
ByLayer
370
18
48
1
60
0
100
AcDbSpline
70
4
71
3
72
8
73
4
40
0
40
0
40
0
40
0
40
1
40
1
40
1
40
1
41
1
10
10.8787752345167
20
0.83662413189171
30
0
41
1
10
10.6584934122261
20
1.01185068454143
30
0
41
1
10
10.4206612907645
20
1.1562168325629
30
0
41
1
10
10.1784378483654
20
1.27234527960991
30
0
0
SPLINE
5
135
100
AcDbEntity
8
1
62
256
6
ByLayer
370
18
48
1
60
0
100
AcDbSpline
70
4
71
3
72
11
73
7
40
0
40
0
40
0
40
0
40
0.0598016998824419
40
0.468392215028712
40
0.740785891792892
40
1
40
1
40
1
40
1
41
1.0229825050537
10
22.369214411234
20
-2.56725916583798
30
0
41
1.02281639303114
10
22.5922559382318
20
-2.66050272868706
30
0
41
1.02150796927553
10
24.357673314585
20
-3.39385433022261
30
0
41
1.01953314781965
10
27.2412633520769
20
-4.52737269408984
30
0
41
1.01726237988674
10
29.3882841203388
20
-5.30599129979805
30
0
41
1.01931548101018
10
30.1734223318184
20
-5.64189102483527
30
0
41
1.02052415826821
10
30.7334484907454
20
-5.86134775759237
30
0
0
SPLINE
5
136
100
AcDbEntity
8
1
62
256
6
ByLayer
370
18
48
1
60
0
100
AcDbSpline
70
4
71
3
72
14
73
10
40
0
40
0
40
0
40
0
40
0.056061740082462
40
0.056061740082462
40
0.43269996514783
40
0.43269996514783
40
0.811345304670924
40
0.811345304670924
40
1
40
1
40
1
40
1
41
1
10
34.1792368283278
20
-7.96730589020112
30
0
41
1
10
34.1474754215619
20
-7.98743590904849
30
0
41
1
10
34.1153716107205
20
-8.00730300898573
30
0
41
1
10
33.8672827624546
20
-8.15706821095048
30
0
41
1
10
33.633790132928
20
-8.27562916116989
30
0
41
1
10
33.164802079847
20
-8.46500142790882
30
0
41
1
10
32.9230112786947
20
-8.53782401834104
30
0
41
1
10
32.5836234800593
20
-8.60430759140033
30
0
41
1
10
32.4727133936405
20
-8.61985422031552
30
0
41
1
10
32.3665301456838
20
-8.62888262780163
30
0
0
SPLINE
5
137
100
AcDbEntity
8
1
62
256
6
ByLayer
370
18
48
1
60
0
100
AcDbSpline
70
4
71
3
72
8
73
4
40
0
40
0
40
0
40
0
40
1
40
1
40
1
40
1
41
1
10
6.48697658276967
20
-1.21630258680082
30
0
41
1
10
6.47978104621865
20
-1.22765615364523
30
0
41
1
10
6.47265863905625
20
-1.2387652166297
30
0
41
1
10
6.46560030555872
20
-1.24962593617858
30
0
0
SPLINE
5
138
100
AcDbEntity
8
1
62
256
6
ByLayer
370
18
48
1
60
0
100
AcDbSpline
70
4
71
3
72
8
73
4
40
0
40
0
40
0
40
0
40
1
40
1
40
1
40
1
41
1
10
26.7554839882467
20
-9.51260806875158
30
0
41
1
10
26.1313987521805
20
-9.32585550060966
30
0
41
1
10
25.3506593364525
20
-9.23691003081103
30
0
41
1
10
24.5325687194684
20
-9.21211643091377
30
0
0
SPLINE
5
139
100
AcDbEntity
8
1
62
256
6
ByLayer
370
18
48
1
60
0
100
AcDbSpline
70
4
71
3
72
8
73
4
40
0
40
0
40
0
40
0
40
1
40
1
40
1
40
1
41
1
10
14.2855483616254
20
12.5983444654823
30
0
41
1
10
13.8140957370384
20
12.8280783285054
30
0
41
1
10
13.2545475413037
20
13.0316641843519
30
0
41
1
10
12.6180709901835
20
13.1003210657624
30
0
0
SPLINE
5
13A
100
AcDbEntity
8
1
62
256
6
ByLayer
370
18
48
1
60
0
100
AcDbSpline
70
4
71
3
72
8
73
4
40
0
40
0
40
0
40
0
40
1
40
1
40
1
40
1
41
1
10
11.8254414396307
20
10.2179115383965
30
0
41
1
10
12.317865925473
20
9.18631581151232
30
0
41
1
10
12.9253264393358
20
7.83442226413166
30
0
41
1
10
13.5267129369427
20
6.42229087467135
30
0
0
SPLINE
5
13B
100
AcDbEntity
8
1
62
256
6
ByLayer
370
18
48
1
60
0
100
AcDbSpline
70
4
71
3
72
14
73
10
40
0
40
0
40
0
40
0
40
0.264998964150946
40
0.264998964150946
40
0.633007150607449
40
0.633007150607449
40
0.984533813617861
40
0.984533813617861
40
1
40
1
40
1
40
1
41
1
10
34.5824654861513
20
-3.95449911641461
30
0
41
1
10
34.667677255181
20
-4.07516467872674
30
0
41
1
10
34.7488996239086
20
-4.21178462238839
30
0
41
1
10
34.9233954290488
20
-4.56477294579483
30
0
41
1
10
35.0112511143789
20
-4.79704407499162
30
0
41
1
10
35.1422396396443
20
-5.26379655255587
30
0
41
1
10
35.1889678051981
20
-5.50304425191439
30
0
41
1
10
35.2194497091121
20
-5.74702894380022
30
0
41
1
10
35.2207137608991
20
-5.75740479748845
30
0
41
1
10
35.221945157188
20
-5.76777482510101
30
0
0
SPLINE
5
13C
100
AcDbEntity
8
1
62
256
6
ByLayer
370
18
48
1
60
0
100
AcDbSpline
70
4
71
3
72
8
73
4
40
0
40
0
40
0
40
0
40
1
40
1
40
1
40
1
41
1
10
7.02195371392878
20
0.16854688231578
30
0
41
1
10
6.96332533055408
20
0.0448738023566193
30
0
41
1
10
6.91763180279486
20
-0.0808106114139946
30
0
41
1
10
6.88280054600733
20
-0.208294801624618
30
0
0
SPLINE
5
13D
100
AcDbEntity
8
1
62
256
6
ByLayer
370
18
48
1
60
0
100
AcDbSpline
70
4
71
3
72
8
73
4
40
0
40
0
40
0
40
0
40
1
40
1
40
1
40
1
41
1
10
13.8759596836801
20
6.37116560446245
30
0
41
1
10
13.3452848210596
20
8.25416941526373
30
0
41
1
10
12.7627749827796
20
10.1021495268138
30
0
41
1
10
12.3644745200637
20
11.1819289611039
30
0
0
SPLINE
5
13E
100
AcDbEntity
8
1
62
256
6
ByLayer
370
18
48
1
60
0
100
AcDbSpline
70
4
71
3
72
10
73
6
40
0
40
0
40
0
40
0
40
0.579529299651686
40
0.579529299651686
40
1
40
1
40
1
40
1
41
1
10
30.0552200787134
20
2.43758741258676
30
0
41
1
10
30.3631863601915
20
2.08555075184012
30
0
41
1
10
30.6866087714946
20
1.75016357870314
30
0
41
1
10
31.2406008064672
20
1.25714528162879
30
0
41
1
10
31.4777372599027
20
1.07430464310892
30
0
41
1
10
31.7045030435543
20
0.927052623147603
30
0
0
SPLINE
5
13F
100
AcDbEntity
8
1
62
256
6
ByLayer
370
18
48
1
60
0
100
AcDbSpline
70
4
71
3
72
8
73
4
40
0
40
0
40
0
40
0
40
1
40
1
40
1
40
1
41
1
10
6.48697658276967
20
-1.21630258680082
30
0
41
1
10
7.56103552178769
20
-0.875504489675762
30
0
41
1
10
9.34647799670813
20
-0.177355008870762
30
0
41
1
10
11.1394993469643
20
0.598765641380311
30
0
0
SPLINE
5
140
100
AcDbEntity
8
1
62
256
6
ByLayer
370
18
48
1
60
0
100
AcDbSpline
70
4
71
2
72
6
73
3
40
0
40
0
40
0
40
1
40
1
40
1
41
1.0258173342201
10
15.1720657648985
20
-5.35804601409581
30
0
41
1.0258173342201
10
14.4667947556234
20
-6.07690199774241
30
0
41
1.0258173342201
10
13.7615237463483
20
-6.79575798138901
30
0
0
SPLINE
5
141
100
AcDbEntity
8
1
62
256
6
ByLayer
370
18
48
1
60
0
100
AcDbSpline
70
4
71
3
72
10
73
6
40
0
40
0
40
0
40
0
40
0.355593196477836
40
0.355593196477836
40
1
40
1
40
1
40
1
41
1
10
16.1644419726653
20
1.14143532672168
30
0
41
1
10
16.1666556660716
20
1.13586250872061
30
0
41
1
10
16.168827363918
20
1.13009730225019
30
0
41
1
10
16.1747746267932
20
1.11335113824143
30
0
41
1
10
16.1784458002754
20
1.10187369909556
30
0
41
1
10
16.1818769001462
20
1.08966143121299
30
0
0
SPLINE
5
142
100
AcDbEntity
8
1
62
256
6
ByLayer
370
18
48
1
60
0
100
AcDbSpline
70
4
71
3
72
10
73
6
40
0
40
0
40
0
40
0
40
0.53761684249529
40
0.53761684249529
40
1
40
1
40
1
40
1
41
1
10
16.2014336064253
20
0.83518519479216
30
0
41
1
10
16.2002508784974
20
0.823483989875598
30
0
41
1
10
16.1988328193905
20
0.812154618962296
30
0
41
1
10
16.1958498759802
20
0.791811932442783
30
0
41
1
10
16.1943300650308
20
0.782674404469532
30
0
41
1
10
16.1926948106687
20
0.773803079178293
30
0
0
SPLINE
5
143
100
AcDbEntity
8
1
62
256
6
ByLayer
370
18
48
1
60
0
100
AcDbSpline
70
4
71
3
72
10
73
6
40
0
40
0
40
0
40
0
40
0.769561481283327
40
0.769561481283327
40
1
40
1
40
1
40
1
41
1
10
18.3465643280281
20
2.27793516222323
30
0
41
1
10
18.3306522640221
20
2.27967465391998
30
0
41
1
10
18.3142192262069
20
2.28202776851992
30
0
41
1
10
18.2922954020339
20
2.28607932834183
30
0
41
1
10
18.2871921983235
20
2.28708416536148
30
0
41
1
10
18.2820516362203
20
2.28816287332222
30
0
0
SPLINE
5
144
100
AcDbEntity
8
1
62
256
6
ByLayer
370
18
48
1
60
0
100
AcDbSpline
70
4
71
3
72
10
73
6
40
0
40
0
40
0
40
0
40
0.201157530231476
40
0.201157530231476
40
1
40
1
40
1
40
1
41
1
10
18.2165395288375
20
-0.181211824811953
30
0
41
1
10
18.2182346120396
20
-0.177803053786789
30
0
41
1
10
18.219995518362
20
-0.17438602064729
30
0
41
1
10
18.2290583616419
20
-0.157434399587231
30
0
41
1
10
18.237403841025
20
-0.143745847302995
30
0
41
1
10
18.2470770321044
20
-0.130116116235712
30
0
0
SPLINE
5
145
100
AcDbEntity
8
1
62
256
6
ByLayer
370
18
48
1
60
0
100
AcDbSpline
70
4
71
3
72
10
73
6
40
0
40
0
40
0
40
0
40
0.769561481283141
40
0.769561481283141
40
1
40
1
40
1
40
1
41
1
10
16.8051328916575
20
-0.119162719472655
30
0
41
1
10
16.8179263636496
20
-0.119101691230696
30
0
41
1
10
16.8314153155653
20
-0.119755037044115
30
0
41
1
10
16.8498876380291
20
-0.121813871425076
30
0
41
1
10
16.8542197194431
20
-0.122373500779247
30
0
41
1
10
16.85861874276
20
-0.123024081122054
30
0
0
SPLINE
5
146
100
AcDbEntity
8
1
62
256
6
ByLayer
370
18
48
1
60
0
100
AcDbSpline
70
4
71
3
72
10
73
6
40
0
40
0
40
0
40
0
40
0.201157530231772
40
0.201157530231772
40
1
40
1
40
1
40
1
41
1
10
16.9351576908488
20
2.33998426756213
30
0
41
1
10
16.9326439924161
20
2.33704812426072
30
0
41
1
10
16.9300771175675
20
2.33409641726678
30
0
41
1
10
16.9170945264178
20
2.31940786369446
30
0
41
1
10
16.9058301956395
20
2.30740451104902
30
0
41
1
10
16.8935933468761
20
2.29525490843571
30
0
0
SPLINE
5
147
100
AcDbEntity
8
1
62
256
6
ByLayer
370
18
48
1
60
0
100
AcDbSpline
70
4
71
3
72
10
73
6
40
0
40
0
40
0
40
0
40
0.230438518716681
40
0.230438518716681
40
1
40
1
40
1
40
1
41
1
10
18.0529210172938
20
2.39628537603696
30
0
41
1
10
18.0495959652928
20
2.3992014348527
30
0
41
1
10
18.0463826402132
20
2.40212101400618
30
0
41
1
10
18.0329278246733
20
2.41476398015524
30
0
41
1
10
18.0237440984281
20
2.4244989428914
30
0
41
1
10
18.0155479407967
20
2.43413567525255
30
0
0
SPLINE
5
148
100
AcDbEntity
8
1
62
256
6
ByLayer
370
18
48
1
60
0
100
AcDbSpline
70
4
71
3
72
10
73
6
40
0
40
0
40
0
40
0
40
0.276054056492384
40
0.276054056492384
40
1
40
1
40
1
40
1
41
1
10
18.4566509447511
20
0.0162376174718872
30
0
41
1
10
18.462588131735
20
0.0179963867439881
30
0
41
1
10
18.4684909322891
20
0.0196127178117251
30
0
41
1
10
18.4896305645977
20
0.0249682877964972
30
0
41
1
10
18.5046467264685
20
0.0279521046782065
30
0
41
1
10
18.519303078058
20
0.0302199096948073
30
0
0
SPLINE
5
149
100
AcDbEntity
8
1
62
256
6
ByLayer
370
18
48
1
60
0
100
AcDbSpline
70
4
71
3
72
10
73
6
40
0
40
0
40
0
40
0
40
0.276054056491859
40
0.276054056491859
40
1
40
1
40
1
40
1
41
1
10
16.684019434229
20
2.14890117472831
30
0
41
1
10
16.6789725563382
20
2.14662838526166
30
0
41
1
10
16.6740027552521
20
2.14447338669993
30
0
41
1
10
16.6563591559795
20
2.13709938110065
30
0
41
1
10
16.644119223356
20
2.1325127075157
30
0
41
1
10
16.6323941416292
20
2.1285525330548
30
0
0
SPLINE
5
14A
100
AcDbEntity
8
1
62
256
6
ByLayer
370
18
48
1
60
0
100
AcDbSpline
70
4
71
3
72
10
73
6
40
0
40
0
40
0
40
0
40
0.537616842494917
40
0.537616842494917
40
1
40
1
40
1
40
1
41
1
10
18.9392367725552
20
1.32995359740784
30
0
41
1
10
18.942146889095
20
1.34065749404431
30
0
41
1
10
18.9454536258436
20
1.35089643641271
30
0
41
1
10
18.952161252355
20
1.36908867614119
30
0
41
1
10
18.955491521271
20
1.37718093572008
30
0
41
1
10
18.9590024090186
20
1.38496936357134
30
0
0
SPLINE
5
14B
100
AcDbEntity
8
1
62
256
6
ByLayer
370
18
48
1
60
0
100
AcDbSpline
70
4
71
3
72
10
73
6
40
0
40
0
40
0
40
0
40
0.230438518716679
40
0.230438518716679
40
1
40
1
40
1
40
1
41
1
10
17.0877493616865
20
-0.231146583836818
30
0
41
1
10
17.0918159524737
20
-0.234490770270469
30
0
41
1
10
17.0958003998499
20
-0.237855557089404
30
0
41
1
10
17.1127067170991
20
-0.252491248679434
30
0
41
1
10
17.1248345292436
20
-0.263925980202089
30
0
41
1
10
17.136149278889
20
-0.275363232502002
30
0
0
SPLINE
5
14C
100
AcDbEntity
8
1
62
256
6
ByLayer
370
18
48
1
60
0
100
AcDbSpline
70
4
71
3
72
10
73
6
40
0
40
0
40
0
40
0
40
0.355593196477915
40
0.355593196477915
40
1
40
1
40
1
40
1
41
1
10
18.9872552470191
20
1.01733711602952
30
0
41
1
10
18.9835962553531
20
1.02374437736992
30
0
41
1
10
18.9800182850232
20
1.03032149563728
30
0
41
1
10
18.9702631357531
20
1.0492661438812
30
0
41
1
10
18.964292638697
20
1.06207109811132
30
0
41
1
10
18.9587934788342
20
1.07547736098695
30
0
0
INSERT
5
15F
100
AcDbEntity
8
SK2
62
256
6
ByLayer
370
25
48
1
60
0
100
AcDbBlockReference
2
DimnDraft3D11
10
0
20
0
30
0
41
1
42
1
43
1
50
0
210
0
220
0
230
1
0
LINE
5
72
100
AcDbEntity
8
1
62
256
6
ByLayer
370
18
48
1
60
0
100
AcDbLine
10
26.434115
20
-14.738091
30
0
11
26.921998
21
-15.01977
31
0
39
0
210
0
220
0
230
1
0
LINE
5
74
100
AcDbEntity
8
1
62
256
6
ByLayer
370
18
48
1
60
0
100
AcDbLine
10
6.500362
20
-3.335909
30
0
11
7.247636
21
-3.730845
31
0
39
0
210
0
220
0
230
1
0
LINE
5
75
100
AcDbEntity
8
1
62
256
6
ByLayer
370
18
48
1
60
0
100
AcDbLine
10
14.694336
20
-3.030474
30
0
11
14.903404
21
-3.15118
31
0
39
0
210
0
220
0
230
1
0
LINE
5
76
100
AcDbEntity
8
1
62
256
6
ByLayer
370
18
48
1
60
0
100
AcDbLine
10
19.903404
20
5.509074
30
0
11
19.693868
21
5.63005
31
0
39
0
210
0
220
0
230
1
0
LINE
5
77
100
AcDbEntity
8
1
62
256
6
ByLayer
370
18
48
1
60
0
100
AcDbLine
10
37.743148
20
3.516781
30
0
11
37.281643
21
3.78323
31
0
39
0
210
0
220
0
230
1
0
LINE
5
78
100
AcDbEntity
8
1
62
256
6
ByLayer
370
18
48
1
60
0
100
AcDbLine
10
10.313233
20
1.204524
30
0
11
9.953007
21
1.394904
31
0
39
0
210
0
220
0
230
1
0
LINE
5
79
100
AcDbEntity
8
80
62
256
6
ByLayer
370
18
48
1
60
0
100
AcDbLine
10
0
20
0
30
0
11
-5
21
0
31
0
39
0
210
0
220
0
230
1
0
LINE
5
7A
100
AcDbEntity
8
81
62
256
6
ByLayer
370
18
48
1
60
0
100
AcDbLine
10
41.660724
20
-11.425
30
0
11
51.660724
21
-11.425
31
0
39
0
210
0
220
0
230
1
0
LINE
5
7B
100
AcDbEntity
8
1
62
256
6
ByLayer
370
18
48
1
60
0
100
AcDbLine
10
18.282052
20
2.288163
30
0
11
18.258549
21
2.301732
31
0
39
0
210
0
220
0
230
1
0
LINE
5
7C
100
AcDbEntity
8
1
62
256
6
ByLayer
370
18
48
1
60
0
100
AcDbLine
10
30.517859
20
1.935231
30
0
11
36.853566
21
3.632878
31
0
39
0
210
0
220
0
230
1
0
LINE
5
7D
100
AcDbEntity
8
1
62
256
6
ByLayer
370
18
48
1
60
0
100
AcDbLine
10
26.373382
20
-14.294898
30
0
11
25.080166
21
-9.248648
31
0
39
0
210
0
220
0
230
1
0
LINE
5
7E
100
AcDbEntity
8
1
62
256
6
ByLayer
370
18
48
1
60
0
100
AcDbLine
10
26.373382
20
-14.294898
30
0
11
26.316078
21
-14.261814
31
0
39
0
210
0
220
0
230
1
0
LINE
5
7F
100
AcDbEntity
8
1
62
256
6
ByLayer
370
18
48
1
60
0
100
AcDbLine
10
36.809299
20
3.658436
30
0
11
36.853566
21
3.632878
31
0
39
0
210
0
220
0
230
1
0
LINE
5
80
100
AcDbEntity
8
1
62
256
6
ByLayer
370
18
48
1
60
0
100
AcDbLine
10
24.917078
20
-9.237965
30
0
11
26.348444
21
-14.823291
31
0
39
0
210
0
220
0
230
1
0
LINE
5
81
100
AcDbEntity
8
1
62
256
6
ByLayer
370
18
48
1
60
0
100
AcDbLine
10
8.923673
20
-4.525773
30
0
11
4.916101
21
-12.979508
31
0
39
0
210
0
220
0
230
1
0
LINE
5
82
100
AcDbEntity
8
1
62
256
6
ByLayer
370
18
48
1
60
0
100
AcDbLine
10
18.629519
20
15.948129
30
0
11
16.523583
21
11.505784
31
0
39
0
210
0
220
0
230
1
0
LINE
5
83
100
AcDbEntity
8
1
62
256
6
ByLayer
370
18
48
1
60
0
100
AcDbLine
10
30.399095
20
2.064261
30
0
11
37.309633
21
3.883651
31
0
39
0
210
0
220
0
230
1
0
LINE
5
84
100
AcDbEntity
8
1
62
256
6
ByLayer
370
18
48
1
60
0
100
AcDbLine
10
14.224203
20
15.93516
30
0
11
12.863752
21
13.065369
31
0
39
0
210
0
220
0
230
1
0
LINE
5
85
100
AcDbEntity
8
1
62
256
6
ByLayer
370
18
48
1
60
0
100
AcDbLine
10
5.435772
20
-2.603512
30
0
11
1.985113
21
-9.88247
31
0
39
0
210
0
220
0
230
1
0
LINE
5
86
100
AcDbEntity
8
1
62
256
6
ByLayer
370
18
48
1
60
0
100
AcDbLine
10
24.934579
20
-9.239083
30
0
11
25.346655
21
-10.847044
31
0
39
0
210
0
220
0
230
1
0
LINE
5
87
100
AcDbEntity
8
1
62
256
6
ByLayer
370
18
48
1
60
0
100
AcDbLine
10
37.061094
20
3.705482
30
0
11
37.275719
21
3.761988
31
0
39
0
210
0
220
0
230
1
0
LINE
5
88
100
AcDbEntity
8
1
62
256
6
ByLayer
370
18
48
1
60
0
100
AcDbLine
10
13.184429
20
15.931331
30
0
11
11.813873
21
13.040226
31
0
39
0
210
0
220
0
230
1
0
LINE
5
89
100
AcDbEntity
8
1
62
256
6
ByLayer
370
18
48
1
60
0
100
AcDbLine
10
4.790766
20
-1.7746
30
0
11
1.112373
21
-9.533951
31
0
39
0
210
0
220
0
230
1
0
LINE
5
8A
100
AcDbEntity
8
1
62
256
6
ByLayer
370
18
48
1
60
0
100
AcDbLine
10
14.191358
20
15.934295
30
0
11
12.833343
21
13.069644
31
0
39
0
210
0
220
0
230
1
0
LINE
5
8B
100
AcDbEntity
8
1
62
256
6
ByLayer
370
18
48
1
60
0
100
AcDbLine
10
5.41351
20
-2.582052
30
0
11
1.782313
21
-10.241845
31
0
39
0
210
0
220
0
230
1
0
LINE
5
8C
100
AcDbEntity
8
1
62
256
6
ByLayer
370
18
48
1
60
0
100
AcDbLine
10
0
20
15.925
30
0
11
2.789496
21
15.937172
31
0
39
0
210
0
220
0
230
1
0
LINE
5
8D
100
AcDbEntity
8
1
62
256
6
ByLayer
370
18
48
1
60
0
100
AcDbLine
10
4.916101
20
-12.979508
30
0
11
4.684979
21
-16.489651
31
0
39
0
210
0
220
0
230
1
0
LINE
5
8E
100
AcDbEntity
8
1
62
256
6
ByLayer
370
18
48
1
60
0
100
AcDbLine
10
2.789496
20
15.937172
30
0
11
1.112373
21
-9.533951
31
0
39
0
210
0
220
0
230
1
0
LINE
5
8F
100
AcDbEntity
8
1
62
256
6
ByLayer
370
18
48
1
60
0
100
AcDbLine
10
0.564651
20
-16.489651
30
0
11
0
21
-15.925
31
0
39
0
210
0
220
0
230
1
0
LINE
5
90
100
AcDbEntity
8
1
62
256
6
ByLayer
370
18
48
1
60
0
100
AcDbLine
10
0
20
-15.925
30
0
11
0
21
15.925
31
0
39
0
210
0
220
0
230
1
0
LINE
5
91
100
AcDbEntity
8
1
62
256
6
ByLayer
370
18
48
1
60
0
100
AcDbLine
10
1.985113
20
-9.88247
30
0
11
4.916101
21
-12.979508
31
0
39
0
210
0
220
0
230
1
0
LINE
5
92
100
AcDbEntity
8
1
62
256
6
ByLayer
370
18
48
1
60
0
100
AcDbLine
10
26.348444
20
-14.823291
30
0
11
20.129503
21
-16.489651
31
0
39
0
210
0
220
0
230
1
0
LINE
5
93
100
AcDbEntity
8
1
62
256
6
ByLayer
370
18
48
1
60
0
100
AcDbLine
10
37.309633
20
3.883651
30
0
11
37.275719
21
3.761988
31
0
39
0
210
0
220
0
230
1
0
LINE
5
94
100
AcDbEntity
8
1
62
256
6
ByLayer
370
18
48
1
60
0
100
AcDbLine
10
26.348444
20
-14.823291
30
0
11
26.437322
21
-14.734899
31
0
39
0
210
0
220
0
230
1
0
LINE
5
95
100
AcDbEntity
8
1
62
256
6
ByLayer
370
18
48
1
60
0
100
AcDbLine
10
18.629519
20
15.948129
30
0
11
14.224203
21
15.93516
31
0
39
0
210
0
220
0
230
1
0
LINE
5
96
100
AcDbEntity
8
1
62
256
6
ByLayer
370
18
48
1
60
0
100
AcDbLine
10
26.437322
20
-14.734899
30
0
11
25.669868
21
-11.740219
31
0
39
0
210
0
220
0
230
1
0
LINE
5
97
100
AcDbEntity
8
1
62
256
6
ByLayer
370
18
48
1
60
0
100
AcDbLine
10
13.184429
20
15.931331
30
0
11
2.789496
21
15.937172
31
0
39
0
210
0
220
0
230
1
0
LINE
5
98
100
AcDbEntity
8
1
62
256
6
ByLayer
370
18
48
1
60
0
100
AcDbLine
10
1.782313
20
-10.241845
30
0
11
1.985113
21
-9.88247
31
0
39
0
210
0
220
0
230
1
0
LINE
5
99
100
AcDbEntity
8
1
62
256
6
ByLayer
370
18
48
1
60
0
100
AcDbLine
10
14.224203
20
15.93516
30
0
11
14.191358
21
15.934295
31
0
39
0
210
0
220
0
230
1
0
LINE
5
9A
100
AcDbEntity
8
1
62
256
6
ByLayer
370
18
48
1
60
0
100
AcDbLine
10
34.220082
20
15.939369
30
0
11
37.309633
21
3.883651
31
0
39
0
210
0
220
0
230
1
0
LINE
5
9B
100
AcDbEntity
8
1
62
256
6
ByLayer
370
18
48
1
60
0
100
AcDbLine
10
20.129503
20
-16.489651
30
0
11
4.684979
21
-16.489651
31
0
39
0
210
0
220
0
230
1
0
LINE
5
9C
100
AcDbEntity
8
1
62
256
6
ByLayer
370
18
48
1
60
0
100
AcDbLine
10
34.220082
20
15.939369
30
0
11
18.629519
21
15.948129
31
0
39
0
210
0
220
0
230
1
0
LINE
5
9D
100
AcDbEntity
8
1
62
256
6
ByLayer
370
18
48
1
60
0
100
AcDbLine
10
4.684979
20
-16.489651
30
0
11
0.564651
21
-16.489651
31
0
39
0
210
0
220
0
230
1
0
LINE
5
9E
100
AcDbEntity
8
SK1
62
256
6
ByLayer
370
18
48
1
60
0
100
AcDbLine
10
0
20
-15.925
30
0
11
-129.689276
21
-15.925
31
0
39
0
210
0
220
0
230
1
0
LINE
5
A0
100
AcDbEntity
8
SK1
62
256
6
ByLayer
370
18
48
1
60
0
100
AcDbLine
10
-129.689276
20
-15.925
30
0
11
-129.689276
21
15.925
31
0
39
0
210
0
220
0
230
1
0
LINE
5
A1
100
AcDbEntity
8
SK1
62
256
6
ByLayer
370
18
48
1
60
0
100
AcDbLine
10
0
20
-15.925
30
0
11
0
21
15.925
31
0
39
0
210
0
220
0
230
1
0
LINE
5
A2
100
AcDbEntity
8
SK1
62
256
6
ByLayer
370
18
48
1
60
0
100
AcDbLine
10
-129.689276
20
15.925
30
0
11
0
21
15.925
31
0
39
0
210
0
220
0
230
1
0
LINE
5
A3
100
AcDbEntity
8
1
62
256
6
ByLayer
370
18
48
1
60
0
100
AcDbLine
10
38.291763
20
2.791909
30
0
11
41.623453
21
-10.208654
31
0
39
0
210
0
220
0
230
1
0
LINE
5
A4
100
AcDbEntity
8
1
62
256
6
ByLayer
370
18
48
1
60
0
100
AcDbLine
10
40.773419
20
-11.662753
30
0
11
27.811579
21
-15.135867
31
0
39
0
210
0
220
0
230
1
0
LINE
5
A5
100
AcDbEntity
8
1
62
256
6
ByLayer
370
18
48
1
60
0
100
AcDbLine
10
20.421742
20
5.458645
30
0
11
18.458655
21
6.38499
31
0
39
0
210
0
220
0
230
1
0
LINE
5
A6
100
AcDbEntity
8
1
62
256
6
ByLayer
370
18
48
1
60
0
100
AcDbLine
10
16.009919
20
-3.847831
30
0
11
15.788668
21
-3.7309
31
0
39
0
210
0
220
0
230
1
0
LINE
5
A7
100
AcDbEntity
8
1
62
256
6
ByLayer
370
18
48
1
60
0
100
AcDbLine
10
11.622243
20
9.872582
30
0
11
9.306069
21
11.096687
31
0
39
0
210
0
220
0
230
1
0
LINE
5
A8
100
AcDbEntity
8
1
62
256
6
ByLayer
370
18
48
1
60
0
100
AcDbLine
10
8.480361
20
2.09277
30
0
11
11.050355
21
7.514019
31
0
39
0
210
0
220
0
230
1
0
LINE
5
A9
100
AcDbEntity
8
1
62
256
6
ByLayer
370
18
48
1
60
0
100
AcDbLine
10
32.143742
20
-5.72661
30
0
11
35.056489
21
-7.046751
31
0
39
0
210
0
220
0
230
1
0
LINE
5
AA
100
AcDbEntity
8
1
62
256
6
ByLayer
370
18
48
1
60
0
100
AcDbLine
10
12.377676
20
11.221545
30
0
11
21.084141
21
7.113125
31
0
39
0
210
0
220
0
230
1
0
LINE
5
AB
100
AcDbEntity
8
1
62
256
6
ByLayer
370
18
48
1
60
0
100
AcDbLine
10
16.726501
20
11.406893
30
0
11
16.743868
21
11.385267
31
0
39
0
210
0
220
0
230
1
0
LINE
5
AC
100
AcDbEntity
8
1
62
256
6
ByLayer
370
18
48
1
60
0
100
AcDbLine
10
6.4656
20
-1.249626
30
0
11
15.172066
21
-5.358046
31
0
39
0
210
0
220
0
230
1
0
LINE
5
AD
100
AcDbEntity
8
1
62
256
6
ByLayer
370
18
48
1
60
0
100
AcDbLine
10
7.021954
20
0.168547
30
0
11
4.705781
21
1.392652
31
0
39
0
210
0
220
0
230
1
0
LINE
5
AE
100
AcDbEntity
8
1
62
256
6
ByLayer
370
18
48
1
60
0
100
AcDbLine
10
16.726501
20
11.406893
30
0
11
14.427418
21
12.529154
31
0
39
0
210
0
220
0
230
1
0
LINE
5
AF
100
AcDbEntity
8
1
62
256
6
ByLayer
370
18
48
1
60
0
100
AcDbLine
10
32.36653
20
-8.628883
30
0
11
31.571717
21
-8.975881
31
0
39
0
210
0
220
0
230
1
0
LINE
5
B0
100
AcDbEntity
8
1
62
256
6
ByLayer
370
18
48
1
60
0
100
AcDbLine
10
9.306069
20
11.096687
30
0
11
4.705781
21
1.392652
31
0
39
0
210
0
220
0
230
1
0
LINE
5
B1
100
AcDbEntity
8
1
62
256
6
ByLayer
370
18
48
1
60
0
100
AcDbLine
10
21.350015
20
9.211711
30
0
11
16.743868
21
11.385267
31
0
39
0
210
0
220
0
230
1
0
LINE
5
B2
100
AcDbEntity
8
1
62
256
6
ByLayer
370
18
48
1
60
0
100
AcDbLine
10
14.046833
20
-2.921487
30
0
11
16.009919
21
-3.847831
31
0
39
0
210
0
220
0
230
1
0
LINE
5
B3
100
AcDbEntity
8
1
62
256
6
ByLayer
370
18
48
1
60
0
100
AcDbLine
10
14.985121
20
12.228618
30
0
11
14.285548
21
12.598344
31
0
39
0
210
0
220
0
230
1
0
LINE
5
B4
100
AcDbEntity
8
1
62
256
6
ByLayer
370
18
48
1
60
0
100
AcDbLine
10
7.021954
20
0.168547
30
0
11
11.622243
21
9.872582
31
0
39
0
210
0
220
0
230
1
0
LINE
5
B5
100
AcDbEntity
8
1
62
256
6
ByLayer
370
18
48
1
60
0
100
AcDbLine
10
13.834647
20
-2.809346
30
0
11
15.788668
21
-3.7309
31
0
39
0
210
0
220
0
230
1
0
LINE
5
B6
100
AcDbEntity
8
1
62
256
6
ByLayer
370
18
48
1
60
0
100
AcDbLine
10
34.347014
20
-3.121075
30
0
11
34.582465
21
-3.954499
31
0
39
0
210
0
220
0
230
1
0
LINE
5
B7
100
AcDbEntity
8
1
62
256
6
ByLayer
370
18
48
1
60
0
100
AcDbLine
10
13.761524
20
-6.795758
30
0
11
9.155377
21
-4.622203
31
0
39
0
210
0
220
0
230
1
0
LINE
5
B8
100
AcDbEntity
8
1
62
256
6
ByLayer
370
18
48
1
60
0
100
AcDbLine
10
9.834229
20
1.454261
30
0
11
8.480361
21
2.09277
31
0
39
0
210
0
220
0
230
1
0
LINE
5
B9
100
AcDbEntity
8
1
62
256
6
ByLayer
370
18
48
1
60
0
100
AcDbLine
10
14.046833
20
-2.921487
30
0
11
13.834647
21
-2.809346
31
0
39
0
210
0
220
0
230
1
0
LINE
5
BA
100
AcDbEntity
8
1
62
256
6
ByLayer
370
18
48
1
60
0
100
AcDbLine
10
9.127886
20
-4.621932
30
0
11
7.386506
21
-3.800207
31
0
39
0
210
0
220
0
230
1
0
LINE
5
BB
100
AcDbEntity
8
1
62
256
6
ByLayer
370
18
48
1
60
0
100
AcDbLine
10
9.127886
20
-4.621932
30
0
11
9.155377
21
-4.622203
31
0
39
0
210
0
220
0
230
1
0
LINE
5
BC
100
AcDbEntity
8
1
62
256
6
ByLayer
370
18
48
1
60
0
100
AcDbLine
10
14.985121
20
12.228618
30
0
11
16.726501
21
11.406893
31
0
39
0
210
0
220
0
230
1
0
LINE
5
BD
100
AcDbEntity
8
1
62
256
6
ByLayer
370
18
48
1
60
0
100
AcDbLine
10
10.178438
20
1.272345
30
0
11
9.834229
21
1.454261
31
0
39
0
210
0
220
0
230
1
0
LINE
5
BE
100
AcDbEntity
8
1
62
256
6
ByLayer
370
18
48
1
60
0
100
AcDbLine
10
18.68373
20
1.477471
30
0
11
18.939237
21
1.329954
31
0
39
0
210
0
220
0
230
1
0
LINE
5
BF
100
AcDbEntity
8
1
62
256
6
ByLayer
370
18
48
1
60
0
100
AcDbLine
10
16.832242
20
-0.08363
30
0
11
17.087749
21
-0.231147
31
0
39
0
210
0
220
0
230
1
0
LINE
5
C0
100
AcDbEntity
8
1
62
256
6
ByLayer
370
18
48
1
60
0
100
AcDbLine
10
17.872845
20
-0.270743
30
0
11
18.133865
21
-0.421443
31
0
39
0
210
0
220
0
230
1
0
LINE
5
C1
100
AcDbEntity
8
1
62
256
6
ByLayer
370
18
48
1
60
0
100
AcDbLine
10
16.296531
20
-0.018554
30
0
11
16.557551
21
-0.169254
31
0
39
0
210
0
220
0
230
1
0
LINE
5
C2
100
AcDbEntity
8
1
62
256
6
ByLayer
370
18
48
1
60
0
100
AcDbLine
10
17.636275
20
2.807557
30
0
11
17.897295
21
2.656857
31
0
39
0
210
0
220
0
230
1
0
LINE
5
C3
100
AcDbEntity
8
1
62
256
6
ByLayer
370
18
48
1
60
0
100
AcDbLine
10
16.858619
20
-0.123024
30
0
11
16.603112
21
0.024493
31
0
39
0
210
0
220
0
230
1
0
LINE
5
C4
100
AcDbEntity
8
1
62
256
6
ByLayer
370
18
48
1
60
0
100
AcDbLine
10
18.201144
20
0.163755
30
0
11
18.456651
21
0.016238
31
0
39
0
210
0
220
0
230
1
0
LINE
5
C5
100
AcDbEntity
8
1
62
256
6
ByLayer
370
18
48
1
60
0
100
AcDbLine
10
18.831665
20
1.751831
30
0
11
19.092685
21
1.601131
31
0
39
0
210
0
220
0
230
1
0
LINE
5
C6
100
AcDbEntity
8
1
62
256
6
ByLayer
370
18
48
1
60
0
100
AcDbLine
10
18.891143
20
0.977897
30
0
11
19.152163
21
0.827197
31
0
39
0
210
0
220
0
230
1
0
LINE
5
C7
100
AcDbEntity
8
1
62
256
6
ByLayer
370
18
48
1
60
0
100
AcDbLine
10
17.797414
20
2.543802
30
0
11
18.052921
21
2.396285
31
0
39
0
210
0
220
0
230
1
0
LINE
5
C8
100
AcDbEntity
8
1
62
256
6
ByLayer
370
18
48
1
60
0
100
AcDbLine
10
18.247077
20
-0.130116
30
0
11
17.99157
21
0.017401
31
0
39
0
210
0
220
0
230
1
0
LINE
5
C9
100
AcDbEntity
8
1
62
256
6
ByLayer
370
18
48
1
60
0
100
AcDbLine
10
18.510218
20
0.17436
30
0
11
18.771239
21
0.02366
31
0
39
0
210
0
220
0
230
1
0
LINE
5
CA
100
AcDbEntity
8
1
62
256
6
ByLayer
370
18
48
1
60
0
100
AcDbLine
10
18.958793
20
1.075477
30
0
11
18.703287
21
1.222994
31
0
39
0
210
0
220
0
230
1
0
MTEXT
5
14D
100
AcDbEntity
8
SK6
62
256
6
ByLayer
370
18
48
1
60
0
100
AcDbMText
10
-58.139276
20
24.779239
30
0
210
0
220
0
230
1
1
\W0.7578;DSBNL 3232P 15
40
3.5
41
0
44
1.084337
50
0
71
7
72
5
7
iso_b_vert
0
DIMENSION
5
16D
100
AcDbEntity
8
2
62
256
6
ByLayer
370
13
48
1
60
0
100
AcDbDimension
2
DimnDraft3D2
10
41.660724
20
-9.04375
30
0
11
31.3297
21
-24.888653
31
0
70
34
71
5
72
1
41
1
210
0
220
0
230
1
3
Standard
100
AcDb2LineAngularDimension
13
41.660724
23
-11.425
33
0
14
38.666354
24
-12.227339
34
0
15
41.660724
25
-11.425
35
0
16
28.590274
26
-28.458743
36
0
40
0
0
DIMENSION
5
182
100
AcDbEntity
8
2
62
256
6
ByLayer
370
13
48
1
60
0
100
AcDbDimension
2
DimnDraft3D3
10
41.660724
20
-39.675
30
0
11
15.874441
21
-39.675
31
0
70
32
71
5
72
1
41
1
210
0
220
0
230
1
3
Standard
100
AcDbAlignedDimension
13
0
23
-17.925
33
0
14
41.660724
24
-13.425
34
0
50
0
100
AcDbRotatedDimension
1001
ACAD
1000
DSTYLE
1002
{
1070
   279
1070
     0
1070
   172
1070
     1
1070
   173
1070
     1
1070
   340
1005
14E
1070
    77
1070
     1
1070
    73
1070
     0
1070
   171
1070
     3
1070
   274
1070
     4
1070
   177
1070
     2
1070
   176
1070
     2
1070
   178
1070
     7
1070
    78
1070
     8
1070
    41
1041
3.175
1070
   147
1041
2.25
1070
    42
1041
2.0
1070
    44
1041
2.0
1070
   140
1041
4.5
1070
   343
1005
16E
1070
   344
1005
16E
1002
}
0
DIMENSION
5
190
100
AcDbEntity
8
2
62
256
6
ByLayer
370
13
48
1
60
0
100
AcDbDimension
2
DimnDraft3D4
10
63.910724
20
-11.425
30
0
11
63.910724
21
-3.031579
31
0
70
32
71
5
72
1
41
1
210
0
220
0
230
1
3
Standard
100
AcDbAlignedDimension
13
2
23
15.925
33
0
14
43.660724
24
-11.425
34
0
50
90
100
AcDbRotatedDimension
1001
ACAD
1000
DSTYLE
1002
{
1070
    74
1070
     0
1070
   279
1070
     0
1070
   172
1070
     1
1070
   173
1070
     1
1070
   340
1005
14E
1070
    77
1070
     1
1070
    73
1070
     0
1070
   171
1070
     3
1070
   274
1070
     4
1070
   177
1070
     2
1070
   176
1070
     2
1070
   178
1070
     7
1070
    78
1070
     8
1070
    41
1041
3.175
1070
   147
1041
2.25
1070
    42
1041
2.0
1070
    44
1041
2.0
1070
   140
1041
4.5
1070
   343
1005
16E
1070
   344
1005
16E
1002
}
0
DIMENSION
5
19E
100
AcDbEntity
8
SK2
62
256
6
ByLayer
370
13
48
1
60
0
100
AcDbDimension
2
DimnDraft3D5
10
-137.439276
20
-15.925
30
0
11
-137.439276
21
-5.281579
31
0
70
32
71
5
72
1
41
1
210
0
220
0
230
1
3
Standard
100
AcDbAlignedDimension
13
-131.689276
23
15.925
33
0
14
-131.689276
24
-15.925
34
0
50
90
100
AcDbRotatedDimension
1001
ACAD
1000
DSTYLE
1002
{
1070
    74
1070
     0
1070
   279
1070
     0
1070
   172
1070
     1
1070
   173
1070
     1
1070
   340
1005
14E
1070
    77
1070
     1
1070
    73
1070
     0
1070
   171
1070
     3
1070
   274
1070
     4
1070
   177
1070
     2
1070
   176
1070
     2
1070
   178
1070
     7
1070
    78
1070
     8
1070
    41
1041
3.175
1070
   147
1041
2.25
1070
    42
1041
2.0
1070
    44
1041
2.0
1070
   140
1041
4.5
1070
   343
1005
16E
1070
   344
1005
16E
1002
}
0
ENDSEC
0
SECTION
2
OBJECTS
0
DICTIONARY
5
208
330
0
100
AcDbDictionary
280
0
281
1
3
ACAD_GROUP
350
209
3
ACAD_MLINESTYLE
350
20a
0
DICTIONARY
5
209
330
0
100
AcDbDictionary
280
0
281
1
0
DICTIONARY
5
20a
330
0
100
AcDbDictionary
280
0
281
1
3
Standard
350
18
0
MLINESTYLE
5
18
330
20a
100
AcDbMlineStyle
2
Standard
70
0
3

62
256
51
90
52
90
71
2
49
-0.5
62
256
6
ByLayer
49
0.5
62
256
6
ByLayer
0
RASTERVARIABLES
5
1f7
330

100
AcDbRasterVariables
90
0
70
1
71
1
72
1
0
ENDSEC
0
EOF
