0
SECTION
2
HEADER
9
$ACADVER
1
AC1015
9
$DWGCODEPAGE
3
ANSI_1252
9
$HANDSEED
5
202
9
$ANGBASE
50
0
9
$ANGDIR
70
0
9
$ATTMODE
70
1
9
$AUNITS
70
0
9
$AUPREC
70
0
9
$CECOLOR
62
256
9
$CELTSCALE
40
1
9
$CELTYPE
6
ByLayer
9
$CELWEIGHT
370
18
9
$CLAYER
8
0
9
$CMLJUST
70
0
9
$CMLSCALE
40
1
9
$CMLSTYLE
2
Standard
9
$DIMSTYLE
2
Standard
9
$TEXTSIZE
40
0.2
9
$TEXTSTYLE
7
Standard
9
$LUNITS
70
2
9
$LUPREC
70
4
9
$EXTNAMES
290
1
9
$INSUNITS
70
4
9
$LTSCALE
40
1
9
$LWDISPLAY
290
1
9
$PDMODE
70
0
9
$PDSIZE
40
0
9
$PLINEGEN
70
0
0
ENDSEC
0
SECTION
2
CLASSES
0
CLASS
1
RASTERVARIABLES
2
AcDbRasterVariables
3
ISM
90
0
280
0
281
0
0
ENDSEC
0
SECTION
2
TABLES
0
TABLE
2
VPORT
5
1f8
100
AcDbSymbolTable
0
VPORT
5
1
100
AcDbSymbolTableRecord
100
AcDbViewportTableRecord
2
*Active
70
0
10
0
20
0
11
1
21
1
12
-1
22
1
13
0
23
0
14
0.5
24
0.5
15
10
25
10
16
0
26
0
36
1
17
0
27
0
37
0
0
ENDTAB
0
TABLE
2
LTYPE
5
1f9
100
AcDbSymbolTable
0
LTYPE
5
14
100
AcDbSymbolTableRecord
100
AcDbLinetypeTableRecord
70
0
2
ByBlock
3

72
65
73
0
40
0
0
LTYPE
5
15
100
AcDbSymbolTableRecord
100
AcDbLinetypeTableRecord
70
0
2
ByLayer
3

72
65
73
0
40
0
0
LTYPE
5
16
100
AcDbSymbolTableRecord
100
AcDbLinetypeTableRecord
70
0
2
CONTINUOUS
3
Solid line
72
65
73
0
40
0
0
LTYPE
5
6A
100
AcDbSymbolTableRecord
100
AcDbLinetypeTableRecord
70
0
2
CENTER
3
____ _ ____ _ ____ _ ____
72
65
73
4
40
47.5
49
22
74
0
49
-8.5
74
0
49
8.5
74
0
49
-8.5
74
0
0
LTYPE
5
6B
100
AcDbSymbolTableRecord
100
AcDbLinetypeTableRecord
70
0
2
DASHED
3
__ __ __ __ __ __ __ __ __
72
65
73
2
40
25.72
49
12.86
74
0
49
-12.86
74
0
0
ENDTAB
0
TABLE
2
LAYER
5
1fa
100
AcDbSymbolTable
0
LAYER
5
10
100
AcDbSymbolTableRecord
100
AcDbLayerTableRecord
2
0
70
0
62
7
6
CONTINUOUS
290
1
370
-3
390
0
0
LAYER
5
6D
100
AcDbSymbolTableRecord
100
AcDbLayerTableRecord
2
2
70
0
62
7
6
CONTINUOUS
290
1
370
-3
390
0
0
LAYER
5
6F
100
AcDbSymbolTableRecord
100
AcDbLayerTableRecord
2
80
70
0
62
-6
6
CONTINUOUS
290
1
370
-3
390
0
0
LAYER
5
71
100
AcDbSymbolTableRecord
100
AcDbLayerTableRecord
2
81
70
0
62
-3
6
CONTINUOUS
290
1
370
-3
390
0
0
LAYER
5
73
100
AcDbSymbolTableRecord
100
AcDbLayerTableRecord
2
1
70
0
62
4
6
CONTINUOUS
290
1
370
-3
390
0
0
LAYER
5
1e5
100
AcDbSymbolTableRecord
100
AcDbLayerTableRecord
2
SK1
70
0
62
4
6
CONTINUOUS
290
1
370
-3
390
0
0
LAYER
5
1e6
100
AcDbSymbolTableRecord
100
AcDbLayerTableRecord
2
SK6
70
0
62
5
6
CONTINUOUS
290
1
370
-3
390
0
0
LAYER
5
1e7
100
AcDbSymbolTableRecord
100
AcDbLayerTableRecord
2
SK2
70
0
62
7
6
CONTINUOUS
290
1
370
-3
390
0
0
ENDTAB
0
TABLE
2
STYLE
5
1fb
100
AcDbSymbolTable
0
STYLE
5
11
100
AcDbSymbolTableRecord
100
AcDbTextStyleTableRecord
2
Standard
3
txt
70
0
71
0
40
0
41
1
42
0
50
0
0
STYLE
5
149
100
AcDbSymbolTableRecord
100
AcDbTextStyleTableRecord
2
iso_b_vert
3
simplex.shx
70
0
71
0
40
0
41
1
42
0
50
0
0
STYLE
5
14A
100
AcDbSymbolTableRecord
100
AcDbTextStyleTableRecord
2
DWGDirectTextStyle
3
simplex
70
0
71
0
40
0
41
1
42
0
50
0
0
ENDTAB
0
TABLE
2
DIMSTYLE
5
1fc
100
AcDbSymbolTable
100
AcDbDimStyleTable
0
DIMSTYLE
105
27
100
AcDbSymbolTableRecord
100
AcDbDimStyleTableRecord
2
Standard
70
0
3
<>
41
0.18
42
0.0625
44
0.18
140
0.18
147
0.09
73
0
74
0
77
1
271
2
275
0
278
52
280
0
340
11
0
ENDTAB
0
TABLE
2
VIEW
5
1fd
100
AcDbSymbolTable
0
ENDTAB
0
TABLE
2
UCS
5
1fe
100
AcDbSymbolTable
0
ENDTAB
0
TABLE
2
APPID
5
1ff
100
AcDbSymbolTable
0
APPID
5
12
100
AcDbSymbolTableRecord
100
AcDbRegAppTableRecord
2
ACAD
70
0
0
ENDTAB
0
TABLE
2
BLOCK_RECORD
5
200
100
AcDbSymbolTable
0
BLOCK_RECORD
5
1F
100
AcDbSymbolTableRecord
100
AcDbBlockTableRecord
2
*Model_Space
340
0
70
0
0
BLOCK_RECORD
5
1B
100
AcDbSymbolTableRecord
100
AcDbBlockTableRecord
2
*Paper_Space
340
0
70
0
0
BLOCK_RECORD
5
23
100
AcDbSymbolTableRecord
100
AcDbBlockTableRecord
2
*Paper_Space0
340
0
70
0
0
BLOCK_RECORD
5
14C
100
AcDbSymbolTableRecord
100
AcDbBlockTableRecord
2
DimnDraft3D1
340
0
70
0
0
BLOCK_RECORD
5
15B
100
AcDbSymbolTableRecord
100
AcDbBlockTableRecord
2
_CLOSED
340
0
70
0
0
BLOCK_RECORD
5
162
100
AcDbSymbolTableRecord
100
AcDbBlockTableRecord
2
DimnDraft3D2
340
0
70
0
0
BLOCK_RECORD
5
170
100
AcDbSymbolTableRecord
100
AcDbBlockTableRecord
2
DimnDraft3D3
340
0
70
0
0
BLOCK_RECORD
5
17E
100
AcDbSymbolTableRecord
100
AcDbBlockTableRecord
2
DimnDraft3D4
340
0
70
0
0
ENDTAB
0
ENDSEC
0
SECTION
2
BLOCKS
0
BLOCK
5
20
100
AcDbEntity
8
0
100
AcDbBlockBegin
2
*Model_Space
70
0
10
0
20
0
30
0
3
*Model_Space
0
ENDBLK
5
21
100
AcDbEntity
8
0
100
AcDbBlockEnd
0
BLOCK
5
1C
100
AcDbEntity
8
0
100
AcDbBlockBegin
2
*Paper_Space
70
0
10
0
20
0
30
0
3
*Paper_Space
0
ENDBLK
5
1D
100
AcDbEntity
8
0
100
AcDbBlockEnd
0
BLOCK
5
24
100
AcDbEntity
8
0
100
AcDbBlockBegin
2
*Paper_Space0
70
0
10
0
20
0
30
0
3
*Paper_Space0
0
ENDBLK
5
25
100
AcDbEntity
8
0
100
AcDbBlockEnd
0
BLOCK
5
158
100
AcDbEntity
8
0
100
AcDbBlockBegin
2
DimnDraft3D1
70
0
10
0
20
0
30
0
3
DimnDraft3D1
0
MTEXT
5
14D
100
AcDbEntity
8
SK2
62
256
6
ByLayer
370
18
48
1
60
0
100
AcDbMText
10
-128.644292
20
-4.156579
30
0
210
0
220
0
230
1
1
\W0.7346;25.0
40
4.5
41
0
44
1.084337
50
90
71
7
72
5
7
iso_b_vert
0
LINE
5
14F
100
AcDbEntity
8
SK2
62
256
6
ByLayer
370
13
48
1
60
0
100
AcDbLine
10
-121.769292
20
-12.4375
30
0
11
-129.519292
21
-12.4375
31
0
39
0
210
0
220
0
230
1
0
LINE
5
150
100
AcDbEntity
8
SK2
62
256
6
ByLayer
370
13
48
1
60
0
100
AcDbLine
10
-121.769292
20
12.4375
30
0
11
-129.519292
21
12.4375
31
0
39
0
210
0
220
0
230
1
0
LINE
5
151
100
AcDbEntity
8
SK2
62
256
6
ByLayer
370
13
48
1
60
0
100
AcDbLine
10
-127.519292
20
-12.4375
30
0
11
-127.519292
21
12.4375
31
0
39
0
210
0
220
0
230
1
0
LINE
5
152
100
AcDbEntity
8
SK2
62
256
6
ByLayer
370
13
48
1
60
0
100
AcDbLine
10
-127.519292
20
-12.4375
30
0
11
-127.937289
21
-9.262502
31
0
39
0
210
0
220
0
230
1
0
LINE
5
153
100
AcDbEntity
8
SK2
62
256
6
ByLayer
370
13
48
1
60
0
100
AcDbLine
10
-127.519292
20
-12.4375
30
0
11
-127.101295
21
-9.262498
31
0
39
0
210
0
220
0
230
1
0
LINE
5
154
100
AcDbEntity
8
SK2
62
256
6
ByLayer
370
13
48
1
60
0
100
AcDbLine
10
-127.937289
20
-9.262502
30
0
11
-127.101295
21
-9.262498
31
0
39
0
210
0
220
0
230
1
0
LINE
5
155
100
AcDbEntity
8
SK2
62
256
6
ByLayer
370
13
48
1
60
0
100
AcDbLine
10
-127.519292
20
12.4375
30
0
11
-127.101295
21
9.262502
31
0
39
0
210
0
220
0
230
1
0
LINE
5
156
100
AcDbEntity
8
SK2
62
256
6
ByLayer
370
13
48
1
60
0
100
AcDbLine
10
-127.519292
20
12.4375
30
0
11
-127.937289
21
9.262498
31
0
39
0
210
0
220
0
230
1
0
LINE
5
157
100
AcDbEntity
8
SK2
62
256
6
ByLayer
370
13
48
1
60
0
100
AcDbLine
10
-127.101295
20
9.262502
30
0
11
-127.937289
21
9.262498
31
0
39
0
210
0
220
0
230
1
0
ENDBLK
5
159
100
AcDbEntity
8
0
100
AcDbBlockEnd
0
BLOCK
5
15C
100
AcDbEntity
8
0
100
AcDbBlockBegin
2
_CLOSED
70
0
10
0
20
0
30
0
3
_CLOSED
0
LINE
5
15E
100
AcDbEntity
8
0
62
256
6
ByLayer
370
-2
48
1
60
0
100
AcDbLine
10
-1
20
0.166667
30
0
11
0
21
0
31
0
39
0
210
0
220
0
230
1
0
LINE
5
15F
100
AcDbEntity
8
0
62
256
6
ByLayer
370
-2
48
1
60
0
100
AcDbLine
10
0
20
0
30
0
11
-1
21
-0.166667
31
0
39
0
210
0
220
0
230
1
0
LINE
5
160
100
AcDbEntity
8
0
62
256
6
ByLayer
370
-2
48
1
60
0
100
AcDbLine
10
-1
20
0.166667
30
0
11
-1
21
-0.166667
31
0
39
0
210
0
220
0
230
1
0
LINE
5
161
100
AcDbEntity
8
0
62
256
6
ByLayer
370
-2
48
1
60
0
100
AcDbLine
10
0
20
0
30
0
11
-1
21
0
31
0
39
0
210
0
220
0
230
1
0
ENDBLK
5
15D
100
AcDbEntity
8
0
100
AcDbBlockEnd
0
BLOCK
5
16D
100
AcDbEntity
8
0
100
AcDbBlockBegin
2
DimnDraft3D2
70
0
10
0
20
0
30
0
3
DimnDraft3D2
0
MTEXT
5
163
100
AcDbEntity
8
2
62
256
6
ByLayer
370
18
48
1
60
0
100
AcDbMText
10
52.705708
20
-0.419079
30
0
210
0
220
0
230
1
1
\W0.7346;32.0
40
4.5
41
0
44
1.084337
50
90
71
7
72
5
7
iso_b_vert
0
LINE
5
164
100
AcDbEntity
8
2
62
256
6
ByLayer
370
13
48
1
60
0
100
AcDbLine
10
2
20
-12.4375
30
0
11
55.830708
21
-12.4375
31
0
39
0
210
0
220
0
230
1
0
LINE
5
165
100
AcDbEntity
8
2
62
256
6
ByLayer
370
13
48
1
60
0
100
AcDbLine
10
33.580708
20
19.9125
30
0
11
55.830708
21
19.9125
31
0
39
0
210
0
220
0
230
1
0
LINE
5
166
100
AcDbEntity
8
2
62
256
6
ByLayer
370
13
48
1
60
0
100
AcDbLine
10
53.830708
20
-12.4375
30
0
11
53.830708
21
19.9125
31
0
39
0
210
0
220
0
230
1
0
LINE
5
167
100
AcDbEntity
8
2
62
256
6
ByLayer
370
13
48
1
60
0
100
AcDbLine
10
53.830708
20
-12.4375
30
0
11
53.412711
21
-9.262502
31
0
39
0
210
0
220
0
230
1
0
LINE
5
168
100
AcDbEntity
8
2
62
256
6
ByLayer
370
13
48
1
60
0
100
AcDbLine
10
53.830708
20
-12.4375
30
0
11
54.248705
21
-9.262498
31
0
39
0
210
0
220
0
230
1
0
LINE
5
169
100
AcDbEntity
8
2
62
256
6
ByLayer
370
13
48
1
60
0
100
AcDbLine
10
53.412711
20
-9.262502
30
0
11
54.248705
21
-9.262498
31
0
39
0
210
0
220
0
230
1
0
LINE
5
16A
100
AcDbEntity
8
2
62
256
6
ByLayer
370
13
48
1
60
0
100
AcDbLine
10
53.830708
20
19.9125
30
0
11
54.248705
21
16.737502
31
0
39
0
210
0
220
0
230
1
0
LINE
5
16B
100
AcDbEntity
8
2
62
256
6
ByLayer
370
13
48
1
60
0
100
AcDbLine
10
53.830708
20
19.9125
30
0
11
53.412711
21
16.737498
31
0
39
0
210
0
220
0
230
1
0
LINE
5
16C
100
AcDbEntity
8
2
62
256
6
ByLayer
370
13
48
1
60
0
100
AcDbLine
10
54.248705
20
16.737502
30
0
11
53.412711
21
16.737498
31
0
39
0
210
0
220
0
230
1
0
ENDBLK
5
16E
100
AcDbEntity
8
0
100
AcDbBlockEnd
0
BLOCK
5
17B
100
AcDbEntity
8
0
100
AcDbBlockBegin
2
DimnDraft3D3
70
0
10
0
20
0
30
0
3
DimnDraft3D3
0
MTEXT
5
171
100
AcDbEntity
8
2
62
256
6
ByLayer
370
18
48
1
60
0
100
AcDbMText
10
12.196275
20
50.7875
30
0
210
0
220
0
230
1
1
\W0.6563;31.6
40
4.5
41
0
44
1.084337
50
0
71
7
72
5
7
iso_b_vert
0
LINE
5
172
100
AcDbEntity
8
2
62
256
6
ByLayer
370
13
48
1
60
0
100
AcDbLine
10
0
20
14.4375
30
0
11
0
21
51.6625
31
0
39
0
210
0
220
0
230
1
0
LINE
5
173
100
AcDbEntity
8
2
62
256
6
ByLayer
370
13
48
1
60
0
100
AcDbLine
10
31.580708
20
21.9125
30
0
11
31.580708
21
51.6625
31
0
39
0
210
0
220
0
230
1
0
LINE
5
174
100
AcDbEntity
8
2
62
256
6
ByLayer
370
13
48
1
60
0
100
AcDbLine
10
0
20
49.6625
30
0
11
31.580708
21
49.6625
31
0
39
0
210
0
220
0
230
1
0
LINE
5
175
100
AcDbEntity
8
2
62
256
6
ByLayer
370
13
48
1
60
0
100
AcDbLine
10
0
20
49.6625
30
0
11
3.174998
21
50.080497
31
0
39
0
210
0
220
0
230
1
0
LINE
5
176
100
AcDbEntity
8
2
62
256
6
ByLayer
370
13
48
1
60
0
100
AcDbLine
10
0
20
49.6625
30
0
11
3.175002
21
49.244503
31
0
39
0
210
0
220
0
230
1
0
LINE
5
177
100
AcDbEntity
8
2
62
256
6
ByLayer
370
13
48
1
60
0
100
AcDbLine
10
3.174998
20
50.080497
30
0
11
3.175002
21
49.244503
31
0
39
0
210
0
220
0
230
1
0
LINE
5
178
100
AcDbEntity
8
2
62
256
6
ByLayer
370
13
48
1
60
0
100
AcDbLine
10
31.580708
20
49.6625
30
0
11
28.40571
21
49.244503
31
0
39
0
210
0
220
0
230
1
0
LINE
5
179
100
AcDbEntity
8
2
62
256
6
ByLayer
370
13
48
1
60
0
100
AcDbLine
10
31.580708
20
49.6625
30
0
11
28.405707
21
50.080497
31
0
39
0
210
0
220
0
230
1
0
LINE
5
17A
100
AcDbEntity
8
2
62
256
6
ByLayer
370
13
48
1
60
0
100
AcDbLine
10
28.40571
20
49.244503
30
0
11
28.405707
21
50.080497
31
0
39
0
210
0
220
0
230
1
0
ENDBLK
5
17C
100
AcDbEntity
8
0
100
AcDbBlockEnd
0
BLOCK
5
189
100
AcDbEntity
8
0
100
AcDbBlockBegin
2
DimnDraft3D4
70
0
10
0
20
0
30
0
3
DimnDraft3D4
0
MTEXT
5
17F
100
AcDbEntity
8
SK2
62
256
6
ByLayer
370
18
48
1
60
0
100
AcDbMText
10
-49.36995
20
60.7875
30
0
210
0
220
0
230
1
1
\W0.6864;150.0
40
4.5
41
0
44
1.084337
50
0
71
7
72
5
7
iso_b_vert
0
LINE
5
180
100
AcDbEntity
8
SK2
62
256
6
ByLayer
370
13
48
1
60
0
100
AcDbLine
10
31.580708
20
21.9125
30
0
11
31.580708
21
61.6625
31
0
39
0
210
0
220
0
230
1
0
LINE
5
181
100
AcDbEntity
8
SK2
62
256
6
ByLayer
370
13
48
1
60
0
100
AcDbLine
10
-119.769292
20
14.4375
30
0
11
-119.769292
21
61.6625
31
0
39
0
210
0
220
0
230
1
0
LINE
5
182
100
AcDbEntity
8
SK2
62
256
6
ByLayer
370
13
48
1
60
0
100
AcDbLine
10
31.580708
20
59.6625
30
0
11
-119.769292
21
59.6625
31
0
39
0
210
0
220
0
230
1
0
LINE
5
183
100
AcDbEntity
8
SK2
62
256
6
ByLayer
370
13
48
1
60
0
100
AcDbLine
10
31.580708
20
59.6625
30
0
11
28.40571
21
59.244503
31
0
39
0
210
0
220
0
230
1
0
LINE
5
184
100
AcDbEntity
8
SK2
62
256
6
ByLayer
370
13
48
1
60
0
100
AcDbLine
10
31.580708
20
59.6625
30
0
11
28.405707
21
60.080497
31
0
39
0
210
0
220
0
230
1
0
LINE
5
185
100
AcDbEntity
8
SK2
62
256
6
ByLayer
370
13
48
1
60
0
100
AcDbLine
10
28.40571
20
59.244503
30
0
11
28.405707
21
60.080497
31
0
39
0
210
0
220
0
230
1
0
LINE
5
186
100
AcDbEntity
8
SK2
62
256
6
ByLayer
370
13
48
1
60
0
100
AcDbLine
10
-119.769292
20
59.6625
30
0
11
-116.594293
21
60.080497
31
0
39
0
210
0
220
0
230
1
0
LINE
5
187
100
AcDbEntity
8
SK2
62
256
6
ByLayer
370
13
48
1
60
0
100
AcDbLine
10
-119.769292
20
59.6625
30
0
11
-116.59429
21
59.244503
31
0
39
0
210
0
220
0
230
1
0
LINE
5
188
100
AcDbEntity
8
SK2
62
256
6
ByLayer
370
13
48
1
60
0
100
AcDbLine
10
-116.594293
20
60.080497
30
0
11
-116.59429
21
59.244503
31
0
39
0
210
0
220
0
230
1
0
ENDBLK
5
18A
100
AcDbEntity
8
0
100
AcDbBlockEnd
0
ENDSEC
0
SECTION
2
ENTITIES
0
ELLIPSE
5
D6
100
AcDbEntity
8
1
62
256
6
ByLayer
370
18
48
1
60
0
100
AcDbEllipse
10
13.349972
20
5.654859
30
0
11
-0.268700576850887
21
0.268700576850889
31
0
210
0
220
0
230
1
40
0.989133
41
-2.82334085438497
42
-2.50405666387315
0
ELLIPSE
5
D7
100
AcDbEntity
8
1
62
256
6
ByLayer
370
18
48
1
60
0
100
AcDbEllipse
10
12.248606
20
7.527159
30
0
11
-0.268700576850887
21
0.268700576850889
31
0
210
0
220
0
230
1
40
0.989133
41
-1.15020834827193
42
-0.318242469491444
0
ELLIPSE
5
D8
100
AcDbEntity
8
1
62
256
6
ByLayer
370
18
48
1
60
0
100
AcDbEllipse
10
14.142506
20
5.532582
30
0
11
0.300520382004275
21
-0.30052038200429
31
0
210
0
220
0
230
1
40
0.989133
41
3.14157508544018
42
-2.50405666387323
0
ELLIPSE
5
D9
100
AcDbEntity
8
1
62
256
6
ByLayer
370
18
48
1
60
0
100
AcDbEllipse
10
14.42406
20
6.278959
30
0
11
-0.268700576850887
21
0.268700576850889
31
0
210
0
220
0
230
1
40
0.989133
41
-2.82334436917111
42
-1.45685911267664
0
ELLIPSE
5
DA
100
AcDbEntity
8
1
62
256
6
ByLayer
370
18
48
1
60
0
100
AcDbEllipse
10
12.530161
20
8.273536
30
0
11
0.300520382004275
21
-0.30052038200429
31
0
210
0
220
0
230
1
40
0.989133
41
-1.15020834827182
42
-1.93219937679008E-05
0
ELLIPSE
5
DB
100
AcDbEntity
8
1
62
256
6
ByLayer
370
18
48
1
60
0
100
AcDbEllipse
10
13.322695
20
8.151258
30
0
11
-0.268700576850887
21
0.268700576850889
31
0
210
0
220
0
230
1
40
0.989133
41
-2.19740589946846
42
-0.318282348964275
0
ELLIPSE
5
DC
100
AcDbEntity
8
1
62
256
6
ByLayer
370
18
48
1
60
0
100
AcDbEllipse
10
14.91873
20
6.903059
30
0
11
0.300520382004275
21
-0.30052038200429
31
0
210
0
220
0
230
1
40
0.989133
41
-3.1415853826217
42
-1.45685911267654
0
ELLIPSE
5
DD
100
AcDbEntity
8
1
62
256
6
ByLayer
370
18
48
1
60
0
100
AcDbEllipse
10
13.253164
20
6.819889
30
0
11
2.82842712474612
21
-2.82842712474626
31
0
210
0
220
0
230
1
40
0.989133
41
3.14156548847628
42
-0.790861410485955
0
ELLIPSE
5
DE
100
AcDbEntity
8
1
62
256
6
ByLayer
370
18
48
1
60
0
100
AcDbEllipse
10
13.253164
20
6.819889
30
0
11
2.82842712474612
21
-2.82842712474626
31
0
210
0
220
0
230
1
40
0.989133
41
-0.790861410485939
42
-2.24484073350127E-16
0
ELLIPSE
5
DF
100
AcDbEntity
8
1
62
256
6
ByLayer
370
18
48
1
60
0
100
AcDbEllipse
10
14.410422
20
7.527159
30
0
11
-0.268700576850887
21
0.268700576850889
31
0
210
0
220
0
230
1
40
0.989133
41
-2.99158584164615
42
-0.409661561480089
0
ELLIPSE
5
E0
100
AcDbEntity
8
1
62
256
6
ByLayer
370
18
48
1
60
0
100
AcDbEllipse
10
13.336333
20
6.903059
30
0
11
0.813172798364509
21
-0.813172798364551
31
0
210
0
220
0
230
1
40
0.989133
41
-0.96263092861202
42
-0.790861825755006
0
ELLIPSE
5
E1
100
AcDbEntity
8
1
62
256
6
ByLayer
370
18
48
1
60
0
100
AcDbEllipse
10
13.336333
20
6.903059
30
0
11
0.813172798364509
21
-0.813172798364551
31
0
210
0
220
0
230
1
40
0.989133
41
-2.21858046175308
42
-1.55364249899881
0
ELLIPSE
5
E2
100
AcDbEntity
8
1
62
256
6
ByLayer
370
18
48
1
60
0
100
AcDbEllipse
10
13.336333
20
6.903059
30
0
11
0.813172798364509
21
-0.813172798364551
31
0
210
0
220
0
230
1
40
0.989133
41
7.07903472931424E-05
42
-2.71642493702837
0
ELLIPSE
5
E3
100
AcDbEntity
8
1
62
256
6
ByLayer
370
18
48
1
60
0
100
AcDbEllipse
10
13.336333
20
6.903059
30
0
11
0.813172798364509
21
-0.813172798364551
31
0
210
0
220
0
230
1
40
0.989133
41
-0.790860951504347
42
-0.256262624010902
0
ELLIPSE
5
E4
100
AcDbEntity
8
1
62
256
6
ByLayer
370
18
48
1
60
0
100
AcDbEllipse
10
13.284352
20
6.851078
30
0
11
0.813172798364509
21
-0.813172798364551
31
0
210
0
220
0
230
1
40
0.989133
41
0.0644740429902251
42
3.10926649371959
0
ELLIPSE
5
E5
100
AcDbEntity
8
1
62
256
6
ByLayer
370
18
48
1
60
0
100
AcDbEllipse
10
25.265117
20
13.596909
30
0
11
2.41749824055105
21
-2.41749824055118
31
0
210
0
220
0
230
1
40
0.989133
41
-0.377545589204394
42
0
0
ELLIPSE
5
E6
100
AcDbEntity
8
1
62
256
6
ByLayer
370
18
48
1
60
0
100
AcDbEllipse
10
25.265117
20
13.596909
30
0
11
2.41749824055105
21
-2.41749824055118
31
0
210
0
220
0
230
1
40
0.989133
41
0
42
2.99799751955799
0
ELLIPSE
5
E7
100
AcDbEntity
8
1
62
256
6
ByLayer
370
18
48
1
60
0
100
AcDbEllipse
10
25.265117
20
13.596909
30
0
11
4.49012806053446
21
-4.49012806053469
31
0
210
0
220
0
230
1
40
0.989133
41
-0.909387266536335
42
-0.79086129569753
0
ELLIPSE
5
E8
100
AcDbEntity
8
1
62
256
6
ByLayer
370
18
48
1
60
0
100
AcDbEllipse
10
25.265117
20
13.596909
30
0
11
4.49012806053446
21
-4.49012806053469
31
0
210
0
220
0
230
1
40
0.989133
41
-0.790861295697527
42
-2.82814580598585E-16
0
ELLIPSE
5
E9
100
AcDbEntity
8
1
62
256
6
ByLayer
370
18
48
1
60
0
100
AcDbEllipse
10
25.265117
20
13.596909
30
0
11
4.49012806053446
21
-4.49012806053469
31
0
210
0
220
0
230
1
40
0.989133
41
0
42
-2.75202962824608
0
ELLIPSE
5
EA
100
AcDbEntity
8
1
62
256
6
ByLayer
370
18
48
1
60
0
100
AcDbEllipse
10
24.770258
20
13.10205
30
0
11
-4.49012806053456
21
4.49012806053459
31
0
210
0
220
0
230
1
40
0.989133
41
-0.0163895882344659
42
-2.82814580598585E-16
0
ELLIPSE
5
EB
100
AcDbEntity
8
1
62
256
6
ByLayer
370
18
48
1
60
0
100
AcDbEllipse
10
24.770258
20
13.10205
30
0
11
-4.49012806053456
21
4.49012806053459
31
0
210
0
220
0
230
1
40
0.989133
41
0
42
0.147065865723232
0
ELLIPSE
5
EC
100
AcDbEntity
8
1
62
256
6
ByLayer
370
18
48
1
60
0
100
AcDbEllipse
10
24.770258
20
13.10205
30
0
11
-4.49012806053456
21
4.49012806053459
31
0
210
0
220
0
230
1
40
0.989133
41
2.56815939550109
42
3.14150004699861
0
ELLIPSE
5
ED
100
AcDbEntity
8
1
62
256
6
ByLayer
370
18
48
1
60
0
100
AcDbEllipse
10
25.226651
20
13.558443
30
0
11
1.96434263813617
21
-1.96434263813628
31
0
210
0
220
0
230
1
40
0.989133
41
-0.126905519504131
42
0
0
ELLIPSE
5
EE
100
AcDbEntity
8
1
62
256
6
ByLayer
370
18
48
1
60
0
100
AcDbEllipse
10
25.226651
20
13.558443
30
0
11
1.96434263813617
21
-1.96434263813628
31
0
210
0
220
0
230
1
40
0.989133
41
0
42
2.7329255684415
0
ELLIPSE
5
EF
100
AcDbEntity
8
1
62
256
6
ByLayer
370
18
48
1
60
0
100
AcDbEllipse
10
25.226651
20
13.558443
30
0
11
1.82292128189886
21
-1.82292128189896
31
0
210
0
220
0
230
1
40
0.989133
41
3.47287466044693E-05
42
2.60264776031253
0
ELLIPSE
5
F0
100
AcDbEntity
8
1
62
256
6
ByLayer
370
18
48
1
60
0
100
AcDbEllipse
10
24.808724
20
13.140516
30
0
11
1.82292128189887
21
-1.82292128189896
31
0
210
0
220
0
230
1
40
0.989133
41
0.379676225630106
42
0.581131007246264
0
ELLIPSE
5
F1
100
AcDbEntity
8
1
62
256
6
ByLayer
370
18
48
1
60
0
100
AcDbEllipse
10
5.482303
20
8.774481
30
0
11
2.0632272466306
21
-2.17786439632065
31
0
210
0
220
0
230
1
40
0.9865
41
-0.229639942064435
42
-0.0891024469650726
0
ELLIPSE
5
F2
100
AcDbEntity
8
1
62
256
6
ByLayer
370
18
48
1
60
0
100
AcDbEllipse
10
13.866196
20
7.168894
30
0
11
-2.85413102450566
21
3.01271241491024
31
0
210
0
220
0
230
1
40
0.9865
41
3.05273537020985
42
-0.229639942064428
0
ELLIPSE
5
F3
100
AcDbEntity
8
1
62
256
6
ByLayer
370
18
48
1
60
0
100
AcDbEllipse
10
12.047383
20
6.113691
30
0
11
-1.78813028041318
21
1.88748247681123
31
0
210
0
220
0
230
1
40
0.9865
41
1.24028196674937
42
1.44654714262634
0
ELLIPSE
5
F4
100
AcDbEntity
8
1
62
256
6
ByLayer
370
18
48
1
60
0
100
AcDbEllipse
10
24.710323
20
13.067224
30
0
11
4.49012806053446
21
-4.49012806053469
31
0
210
0
220
0
230
1
40
0.989133
41
3.06688727060854
42
-3.01808322950598
0
ELLIPSE
5
F5
100
AcDbEntity
8
1
62
256
6
ByLayer
370
18
48
1
60
0
100
AcDbEllipse
10
24.710323
20
13.067224
30
0
11
4.49012806053446
21
-4.49012806053469
31
0
210
0
220
0
230
1
40
0.989133
41
-0.561946761988157
42
-0.250830959365004
0
ELLIPSE
5
F6
100
AcDbEntity
8
1
62
256
6
ByLayer
370
18
48
1
60
0
100
AcDbEllipse
10
24.091749
20
12.44865
30
0
11
-4.49012806053456
21
4.49012806053459
31
0
210
0
220
0
230
1
40
0.989133
41
0.769008461919408
42
2.67929307665076
0
ELLIPSE
5
F7
100
AcDbEntity
8
1
62
256
6
ByLayer
370
18
48
1
60
0
100
AcDbEllipse
10
24.091749
20
12.44865
30
0
11
-4.49012806053456
21
4.49012806053459
31
0
210
0
220
0
230
1
40
0.989133
41
2.67929323551253
42
-3.14158702731482
0
ELLIPSE
5
F8
100
AcDbEntity
8
1
62
256
6
ByLayer
370
18
48
1
60
0
100
AcDbEllipse
10
11.863683
20
-7.98467
30
0
11
-0.582040941644813
21
-0.588374915078943
31
0
210
0
220
0
230
1
40
0.000777
41
-2.99899422085082
42
-1.42819789449756
0
ELLIPSE
5
F9
100
AcDbEntity
8
1
62
256
6
ByLayer
370
18
48
1
60
0
100
AcDbEllipse
10
12.312256
20
1.601499
30
0
11
-1.47813184910944
21
-4.10391311723999
31
0
210
0
220
0
230
1
40
0.518425
41
0.193284479695124
42
0.552900213024033
0
ELLIPSE
5
FA
100
AcDbEntity
8
1
62
256
6
ByLayer
370
18
48
1
60
0
100
AcDbEllipse
10
9.879355
20
-0.319033
30
0
11
-2.71967146855223
21
1.27437045679041
31
0
210
0
220
0
230
1
40
0.994282
41
0.967245154818152
42
2.01893421788242
0
ELLIPSE
5
FB
100
AcDbEntity
8
1
62
256
6
ByLayer
370
18
48
1
60
0
100
AcDbEllipse
10
13.063665
20
1.034452
30
0
11
-4.6372835442119
21
-2.9637511788062
31
0
210
0
220
0
230
1
40
0.274646
41
-0.614900885324012
42
-0.561908577082117
0
ELLIPSE
5
FC
100
AcDbEntity
8
1
62
256
6
ByLayer
370
18
48
1
60
0
100
AcDbEllipse
10
10.245843
20
0.145955
30
0
11
1.78854165072352
21
-0.895052380381831
31
0
210
0
220
0
230
1
40
0.766835
41
-2.05467562946533
42
-0.642000135205713
0
ELLIPSE
5
FD
100
AcDbEntity
8
1
62
256
6
ByLayer
370
18
48
1
60
0
100
AcDbEllipse
10
25.667712
20
13.960063
30
0
11
-1.91390274119555
21
1.13589051589859
31
0
210
0
220
0
230
1
40
0.791036
41
-2.02625426823232
42
-1.17104293475217
0
ELLIPSE
5
FE
100
AcDbEntity
8
1
62
256
6
ByLayer
370
18
48
1
60
0
100
AcDbEllipse
10
7.3295
20
10.980763
30
0
11
-3.12354062219068
21
-1.5916415088377
31
0
210
0
220
0
230
1
40
0.335188
41
-0.0981836150458096
42
0.625034491352398
0
ELLIPSE
5
FF
100
AcDbEntity
8
1
62
256
6
ByLayer
370
18
48
1
60
0
100
AcDbEllipse
10
7.505464
20
-4.908613
30
0
11
6.03352181046385
21
3.54917096836107
31
0
210
0
220
0
230
1
40
0.037276
41
-0.820810513393139
42
-0.806029476653118
0
ELLIPSE
5
100
100
AcDbEntity
8
1
62
256
6
ByLayer
370
18
48
1
60
0
100
AcDbEllipse
10
11.951196
20
2.925628
30
0
11
4.74062427965016
21
2.7886343322837
31
0
210
0
220
0
230
1
40
0.037276
41
1.97471476035272
42
2.41648249963874
0
ELLIPSE
5
101
100
AcDbEntity
8
1
62
256
6
ByLayer
370
18
48
1
60
0
100
AcDbEllipse
10
25.667712
20
13.960063
30
0
11
-0.614274611226173
21
2.21884577988194
31
0
210
0
220
0
230
1
40
0.801371
41
-2.25627953468904
42
-1.40106820120788
0
ELLIPSE
5
102
100
AcDbEntity
8
1
62
256
6
ByLayer
370
18
48
1
60
0
100
AcDbEllipse
10
9.316502
20
7.404558
30
0
11
4.74062427965016
21
2.7886343322837
31
0
210
0
220
0
230
1
40
0.037276
41
1.97471476035273
42
2.41648249963876
0
ELLIPSE
5
103
100
AcDbEntity
8
1
62
256
6
ByLayer
370
18
48
1
60
0
100
AcDbEllipse
10
8.056211
20
8.836694
30
0
11
-4.09968384597268
21
0.0510822591197607
31
0
210
0
220
0
230
1
40
0.480311
41
-0.67681861625142
42
-0.317202882907976
0
ELLIPSE
5
104
100
AcDbEntity
8
1
62
256
6
ByLayer
370
18
48
1
60
0
100
AcDbEllipse
10
5.62331
20
6.916162
30
0
11
-2.71967146847641
21
1.27437045694313
31
0
210
0
220
0
230
1
40
0.994282
41
-0.0844439081898426
42
0.967245154875225
0
ELLIPSE
5
105
100
AcDbEntity
8
1
62
256
6
ByLayer
370
18
48
1
60
0
100
AcDbEllipse
10
5.983183
20
7.392393
30
0
11
0.0727510281395571
21
-1.99867638398632
31
0
210
0
220
0
230
1
40
0.790712
41
-2.6018924340568
42
-1.1892169397972
0
ELLIPSE
5
106
100
AcDbEntity
8
1
62
256
6
ByLayer
370
18
48
1
60
0
100
AcDbEllipse
10
14.085118
20
-0.503656
30
0
11
-2.9011594809512
21
-1.96869474378121
31
0
210
0
220
0
230
1
40
0.409411
41
-0.631177168676461
42
0.0920409377179617
0
ELLIPSE
5
107
100
AcDbEntity
8
1
62
256
6
ByLayer
370
18
48
1
60
0
100
AcDbEllipse
10
8.204032
20
9.295733
30
0
11
-4.83979948242014
21
-2.61976094933956
31
0
210
0
220
0
230
1
40
0.200196
41
0.55888333158035
42
0.611875641639217
0
ELLIPSE
5
108
100
AcDbEntity
8
1
62
256
6
ByLayer
370
18
48
1
60
0
100
AcDbEllipse
10
14.278897
20
8.439875
30
0
11
0.300520382004275
21
-0.30052038200429
31
0
210
0
220
0
230
1
40
0.989133
41
-2.19740589946847
42
-0.409661561480004
0
ELLIPSE
5
109
100
AcDbEntity
8
1
62
256
6
ByLayer
370
18
48
1
60
0
100
AcDbEllipse
10
15.085069
20
7.069398
30
0
11
0.300520382004275
21
-0.30052038200429
31
0
210
0
220
0
230
1
40
0.989133
41
3.03858185651454
42
-1.45685911267665
0
ELLIPSE
5
10A
100
AcDbEntity
8
1
62
256
6
ByLayer
370
18
48
1
60
0
100
AcDbEllipse
10
12.726449
20
5.698921
30
0
11
0.300520382004275
21
-0.30052038200429
31
0
210
0
220
0
230
1
40
0.989133
41
0.944186754121327
42
2.73193109210982
0
ELLIPSE
5
10B
100
AcDbEntity
8
1
62
256
6
ByLayer
370
18
48
1
60
0
100
AcDbEllipse
10
12.6965
20
8.439875
30
0
11
0.300520382004275
21
-0.30052038200429
31
0
210
0
220
0
230
1
40
0.989133
41
-1.15020834827183
42
0.637535989716537
0
ELLIPSE
5
10C
100
AcDbEntity
8
1
62
256
6
ByLayer
370
18
48
1
60
0
100
AcDbEllipse
10
11.920276
20
7.069398
30
0
11
0.300520382004275
21
-0.30052038200429
31
0
210
0
220
0
230
1
40
0.989133
41
-0.103010797075347
42
1.68473354091318
0
ELLIPSE
5
10D
100
AcDbEntity
8
1
62
256
6
ByLayer
370
18
48
1
60
0
100
AcDbEllipse
10
14.112557
20
8.273536
30
0
11
0.300520382004275
21
-0.30052038200429
31
0
210
0
220
0
230
1
40
0.989133
41
-2.19740589946846
42
-0.409661561480138
0
ELLIPSE
5
10E
100
AcDbEntity
8
1
62
256
6
ByLayer
370
18
48
1
60
0
100
AcDbEllipse
10
12.428584
20
6.445298
30
0
11
-0.268700576850887
21
0.268700576850889
31
0
210
0
220
0
230
1
40
0.989133
41
-0.10301079707517
42
2.73193109210968
0
ELLIPSE
5
10F
100
AcDbEntity
8
1
62
256
6
ByLayer
370
18
48
1
60
0
100
AcDbEllipse
10
13.502673
20
7.069398
30
0
11
-1.62634559672905
21
1.62634559672906
31
0
210
0
220
0
230
1
40
0.989133
41
0
42
6.28318530717959
0
ELLIPSE
5
110
100
AcDbEntity
8
1
62
256
6
ByLayer
370
18
48
1
60
0
100
AcDbEllipse
10
13.489035
20
8.317598
30
0
11
-0.268700576850887
21
0.268700576850889
31
0
210
0
220
0
230
1
40
0.989133
41
-2.19740589946842
42
0.637535989716551
0
ELLIPSE
5
111
100
AcDbEntity
8
1
62
256
6
ByLayer
370
18
48
1
60
0
100
AcDbEllipse
10
13.42636
20
6.993086
30
0
11
-2.82842712474618
21
2.8284271247462
31
0
210
0
220
0
230
1
40
0.989133
41
0
42
6.28318530717959
0
ELLIPSE
5
112
100
AcDbEntity
8
1
62
256
6
ByLayer
370
18
48
1
60
0
100
AcDbEllipse
10
13.516311
20
5.821199
30
0
11
-0.268700576850887
21
0.268700576850889
31
0
210
0
220
0
230
1
40
0.989133
41
0.944186754121348
42
-2.50405666387323
0
ELLIPSE
5
113
100
AcDbEntity
8
1
62
256
6
ByLayer
370
18
48
1
60
0
100
AcDbEllipse
10
12.414946
20
7.693498
30
0
11
-0.268700576850887
21
0.268700576850889
31
0
210
0
220
0
230
1
40
0.989133
41
-1.15020834827175
42
1.68473354091303
0
ELLIPSE
5
114
100
AcDbEntity
8
1
62
256
6
ByLayer
370
18
48
1
60
0
100
AcDbEllipse
10
14.576762
20
7.693498
30
0
11
-0.268700576850887
21
0.268700576850889
31
0
210
0
220
0
230
1
40
0.989133
41
3.03858185651463
42
-0.409661561480125
0
ELLIPSE
5
115
100
AcDbEntity
8
1
62
256
6
ByLayer
370
18
48
1
60
0
100
AcDbEllipse
10
14.5904
20
6.445298
30
0
11
-0.268700576850887
21
0.268700576850889
31
0
210
0
220
0
230
1
40
0.989133
41
1.99138430531801
42
-1.45685911267673
0
ELLIPSE
5
116
100
AcDbEntity
8
1
62
256
6
ByLayer
370
18
48
1
60
0
100
AcDbEllipse
10
14.308845
20
5.698921
30
0
11
0.300520382004275
21
-0.30052038200429
31
0
210
0
220
0
230
1
40
0.989133
41
1.99138430531792
42
-2.50405666387331
0
POINT
5
6C
100
AcDbEntity
8
2
62
256
6
ByLayer
370
18
48
1
60
0
100
AcDbPoint
10
31.580708
20
19.9125
30
0
39
0
210
0
220
0
230
1
50
360
0
POINT
5
6E
100
AcDbEntity
8
80
62
256
6
ByLayer
370
18
48
1
60
0
100
AcDbPoint
10
0
20
0
30
0
39
0
210
0
220
0
230
1
50
360
0
POINT
5
70
100
AcDbEntity
8
81
62
256
6
ByLayer
370
18
48
1
60
0
100
AcDbPoint
10
31.580708
20
19.9125
30
0
39
0
210
0
220
0
230
1
50
360
0
SPLINE
5
117
100
AcDbEntity
8
1
62
256
6
ByLayer
370
18
48
1
60
0
100
AcDbSpline
70
4
71
3
72
10
73
6
40
0
40
0
40
0
40
0
40
0.496184326218752
40
0.496184326218752
40
1
40
1
40
1
40
1
41
1
10
3.95536663000939
20
9.42158842937269
30
0
41
1
10
3.79012927565822
20
9.29124481371414
30
0
41
1
10
3.62576403145999
20
9.1449161367519
30
0
41
1
10
3.30884959591469
20
8.81186475961582
30
0
41
1
10
3.15527888210386
20
8.62238481808777
30
0
41
1
10
3.02019963871328
20
8.4140661837298
30
0
0
SPLINE
5
118
100
AcDbEntity
8
1
62
256
6
ByLayer
370
18
48
1
60
0
100
AcDbSpline
70
4
71
3
72
8
73
4
40
0
40
0
40
0
40
0
40
1
40
1
40
1
40
1
41
1
10
25.5263266523128
20
15.8452501249274
30
0
41
1
10
25.4416242411921
20
15.8586488022307
30
0
41
1
10
25.3582182197985
20
15.8680543731386
30
0
41
1
10
25.2775731103411
20
15.8734561812937
30
0
0
SPLINE
5
119
100
AcDbEntity
8
1
62
256
6
ByLayer
370
18
48
1
60
0
100
AcDbSpline
70
4
71
3
72
8
73
4
40
0
40
0
40
0
40
0
40
1
40
1
40
1
40
1
41
1
10
20.4745765016621
20
16.3746968503531
30
0
41
1
10
20.5730871768677
20
16.4114365636799
30
0
41
1
10
20.672698195771
20
16.4458809133809
30
0
41
1
10
20.7732175367297
20
16.4781934868291
30
0
0
SPLINE
5
11A
100
AcDbEntity
8
1
62
256
6
ByLayer
370
18
48
1
60
0
100
AcDbSpline
70
4
71
3
72
8
73
4
40
0
40
0
40
0
40
0
40
1
40
1
40
1
40
1
41
1
10
17.0357161067124
20
4.39521186548168
30
0
41
1
10
16.8242921738896
20
4.20561333275205
30
0
41
1
10
16.5908797145197
20
4.03378418553851
30
0
41
1
10
16.3433048729794
20
3.88993073441662
30
0
0
SPLINE
5
11B
100
AcDbEntity
8
1
62
256
6
ByLayer
370
18
48
1
60
0
100
AcDbSpline
70
4
71
3
72
10
73
6
40
0
40
0
40
0
40
0
40
0.5
40
0.5
40
1
40
1
40
1
40
1
41
1
10
23.9939090441437
20
16.1768086563008
30
0
41
1
10
23.2521121859173
20
16.1506915465506
30
0
41
1
10
22.7571098431602
20
15.8752675974892
30
0
41
1
10
22.2097392931471
20
15.1689059745296
30
0
41
1
10
22.1150229541129
20
14.7364774868961
30
0
41
1
10
22.0854424698
20
14.2893495550901
30
0
0
SPLINE
5
11C
100
AcDbEntity
8
1
62
256
6
ByLayer
370
18
48
1
60
0
100
AcDbSpline
70
4
71
3
72
20
73
16
40
0
40
0
40
0
40
0
40
0.332873226652407
40
0.332873226652407
40
0.501657261698233
40
0.501657261698233
40
0.631212321676533
40
0.631212321676533
40
0.72254232363769
40
0.72254232363769
40
0.814765347404205
40
0.814765347404205
40
0.896421359038802
40
0.896421359038802
40
1
40
1
40
1
40
1
41
1
10
24.3735316771102
20
12.5565069084683
30
0
41
1
10
24.2735756828868
20
12.375985988539
30
0
41
1
10
24.1777845025199
20
12.1833052948464
30
0
41
1
10
24.0560962928142
20
11.8657949849837
30
0
41
1
10
24.0187187668532
20
11.7528766697326
30
0
41
1
10
23.9684469114791
20
11.5446671751276
30
0
41
1
10
23.9516211179162
20
11.4496199636556
30
0
41
1
10
23.9394789640805
20
11.2890329352571
30
0
41
1
10
23.9393565993953
20
11.2217093428341
30
0
41
1
10
23.9519099670412
20
11.0961690252942
30
0
41
1
10
23.9650420344739
20
11.0364653982009
30
0
41
1
10
24.0004780402177
20
10.9416758567636
30
0
41
1
10
24.0218704392311
20
10.9033547525629
30
0
41
1
10
24.0760487064975
20
10.8331642021121
30
0
41
1
10
24.1109032929537
20
10.8045731287934
30
0
41
1
10
24.1471849103165
20
10.784427393479
30
0
0
SPLINE
5
11D
100
AcDbEntity
8
1
62
256
6
ByLayer
370
18
48
1
60
0
100
AcDbSpline
70
4
71
3
72
10
73
6
40
0
40
0
40
0
40
0
40
0.5
40
0.5
40
1
40
1
40
1
40
1
41
1
10
24.1471849103165
20
10.784427393479
30
0
41
1
10
24.5812413848456
20
10.5433669289501
30
0
41
1
10
25.0253652270638
20
10.366245497839
30
0
41
1
10
25.9743493698493
20
10.3977470089168
30
0
41
1
10
26.4821668519053
20
10.6373111251902
30
0
41
1
10
26.892501920525
20
11.2492569851127
30
0
0
SPLINE
5
11E
100
AcDbEntity
8
1
62
256
6
ByLayer
370
18
48
1
60
0
100
AcDbSpline
70
4
71
3
72
12
73
8
40
0
40
0
40
0
40
0
40
0.108853988607127
40
0.502629237162301
40
0.699516861439888
40
0.896404485717475
40
1
40
1
40
1
40
1
41
1.02441262532206
10
18.3845811339664
20
8.50461009547305
30
0
41
1.02394775682001
10
18.6637344722137
20
8.69669701368333
30
0
41
1.02173322384668
10
19.9819731511136
20
9.60977844191246
30
0
41
1.01876555595691
10
21.8173754058358
20
10.9147653722604
30
0
41
1.01610930227499
10
23.034999025708
20
11.8030082538126
30
0
41
1.01814069306376
10
23.6454848740647
20
12.1329826889444
30
0
41
1.02005196006971
10
24.1794727931041
20
12.4418276066427
30
0
41
1.02076673234773
10
24.3735316771012
20
12.5565069084629
30
0
0
SPLINE
5
11F
100
AcDbEntity
8
1
62
256
6
ByLayer
370
18
48
1
60
0
100
AcDbSpline
70
4
71
3
72
8
73
4
40
0
40
0
40
0
40
0
40
1
40
1
40
1
40
1
41
1.02417048357497
10
22.7814513568771
20
16.3883658481015
30
0
41
1.02233815524058
10
22.0592872667219
20
16.4561808185204
30
0
41
1.02059845272928
10
21.3458610514217
20
16.4783005327455
30
0
41
1.01923193651505
10
20.7732703742857
20
16.4781934967693
30
0
0
SPLINE
5
120
100
AcDbEntity
8
1
62
256
6
ByLayer
370
18
48
1
60
0
100
AcDbSpline
70
4
71
3
72
8
73
4
40
0
40
0
40
0
40
0
40
1
40
1
40
1
40
1
41
1
10
10.6598865299842
20
2.3133808390738
30
0
41
1
10
10.4200303905744
20
2.22728298941388
30
0
41
1
10
10.1986080109942
20
2.1178654307659
30
0
41
1
10
9.99243016088906
20
1.9921194787311
30
0
0
SPLINE
5
121
100
AcDbEntity
8
1
62
256
6
ByLayer
370
18
48
1
60
0
100
AcDbSpline
70
4
71
3
72
10
73
6
40
0
40
0
40
0
40
0
40
0.499999999999999
40
0.499999999999999
40
1
40
1
40
1
40
1
41
1
10
4.37871194946013
20
6.56082036244024
30
0
41
1
10
4.03740990137294
20
7.20290586238445
30
0
41
1
10
3.88371738273054
20
7.86045010035062
30
0
41
1
10
3.85659608034484
20
8.82379563319989
30
0
41
1
10
3.92782713332304
20
9.15624939027663
30
0
41
1
10
4.16870640901311
20
9.49941759634194
30
0
0
SPLINE
5
122
100
AcDbEntity
8
1
62
256
6
ByLayer
370
18
48
1
60
0
100
AcDbSpline
70
4
71
3
72
10
73
6
40
0
40
0
40
0
40
0
40
0.655488757716274
40
0.655488757716274
40
1
40
1
40
1
40
1
41
1
10
11.7148877672819
20
-2.65396171770794
30
0
41
1
10
11.4026980570027
20
-2.85250133550275
30
0
41
1
10
11.0332043518248
20
-3.04184139820654
30
0
41
1
10
10.395465495286
20
-3.23524482524059
30
0
41
1
10
10.1596950470846
20
-3.28498681255869
30
0
41
1
10
9.91579051532841
20
-3.30830456734879
30
0
0
SPLINE
5
123
100
AcDbEntity
8
1
62
256
6
ByLayer
370
18
48
1
60
0
100
AcDbSpline
70
4
71
3
72
10
73
6
40
0
40
0
40
0
40
0
40
0.264715639145578
40
0.264715639145578
40
1
40
1
40
1
40
1
41
1
10
24.9976121059618
20
13.6105529340724
30
0
41
1
10
24.9407379611031
20
13.5216960111122
30
0
41
1
10
24.8843962802616
20
13.4315125364435
30
0
41
1
10
24.6734161811547
20
13.0866744758675
30
0
41
1
10
24.5219002286482
20
12.8245938339279
30
0
41
1
10
24.3735316771102
20
12.5565069084683
30
0
0
SPLINE
5
124
100
AcDbEntity
8
1
62
256
6
ByLayer
370
18
48
1
60
0
100
AcDbSpline
70
4
71
3
72
8
73
4
40
0
40
0
40
0
40
0
40
1
40
1
40
1
40
1
41
1
10
14.5853245773953
20
2.86845564853709
30
0
41
1
10
13.7891820637422
20
2.40585675334518
30
0
41
1
10
12.876183095671
20
2.26359928502325
30
0
41
1
10
12.0148778655841
20
2.43508948473001
30
0
0
SPLINE
5
125
100
AcDbEntity
8
1
62
256
6
ByLayer
370
18
48
1
60
0
100
AcDbSpline
70
4
71
3
72
10
73
6
40
0
40
0
40
0
40
0
40
0.967465556419482
40
0.967465556419482
40
1
40
1
40
1
40
1
41
1
10
23.7430924564501
20
13.6282413562976
30
0
41
1
10
24.1553775187837
20
13.6118647950291
30
0
41
1
10
24.5619686785316
20
13.6043614831807
30
0
41
1
10
24.9710108601125
20
13.6101307290566
30
0
41
1
10
24.9843179274671
20
13.6103339871716
30
0
41
1
10
24.997612105978
20
13.6105529340728
30
0
0
SPLINE
5
126
100
AcDbEntity
8
1
62
256
6
ByLayer
370
18
48
1
60
0
100
AcDbSpline
70
4
71
3
72
8
73
4
40
0
40
0
40
0
40
0
40
1
40
1
40
1
40
1
41
1
10
27.2634770192541
20
12.4974580525128
30
0
41
1
10
27.2995943305443
20
12.5677526376308
30
0
41
1
10
27.333365582056
20
12.6427252128609
30
0
41
1
10
27.3640528495516
20
12.7211512321031
30
0
0
SPLINE
5
127
100
AcDbEntity
8
1
62
256
6
ByLayer
370
18
48
1
60
0
100
AcDbSpline
70
4
71
3
72
8
73
4
40
0
40
0
40
0
40
0
40
1
40
1
40
1
40
1
41
1
10
22.7815426088486
20
16.3883572788271
30
0
41
1
10
23.1844851972381
20
16.3201680208371
30
0
41
1
10
23.589310992299
20
16.2495386406227
30
0
41
1
10
23.9939090441677
20
16.1768086563016
30
0
0
SPLINE
5
128
100
AcDbEntity
8
1
62
256
6
ByLayer
370
18
48
1
60
0
100
AcDbSpline
70
4
71
2
72
6
73
3
40
0
40
0
40
0
40
1
40
1
40
1
41
1.02805999725224
10
11.6414729955466
20
12.8733206383585
30
0
41
0.93055444607248
10
12.1053876106995
20
12.5256295766053
30
0
41
0.937301687719828
10
12.9184706996579
20
11.3944492204091
30
0
0
SPLINE
5
129
100
AcDbEntity
8
1
62
256
6
ByLayer
370
18
48
1
60
0
100
AcDbSpline
70
4
71
3
72
10
73
6
40
0
40
0
40
0
40
0
40
0.5
40
0.5
40
1
40
1
40
1
40
1
41
1
10
10.7654292679706
20
13.5298909722824
30
0
41
1
10
11.9236922763618
20
14.188303815453
30
0
41
1
10
13.1544585985768
20
14.6478274742264
30
0
41
1
10
15.6675569551268
20
15.4254210859277
30
0
41
1
10
16.9734999469627
20
15.6990562835721
30
0
41
1
10
18.289257364502
20
15.8664401716234
30
0
0
SPLINE
5
12A
100
AcDbEntity
8
1
62
256
6
ByLayer
370
18
48
1
60
0
100
AcDbSpline
70
4
71
3
72
8
73
4
40
0
40
0
40
0
40
0
40
1
40
1
40
1
40
1
41
1
10
25.5841552013129
20
8.29969276461378
30
0
41
1
10
25.5040125725218
20
8.2327401756811
30
0
41
1
10
25.4224391376891
20
8.16763228289344
30
0
41
1
10
25.3393876633838
20
8.10461222786168
30
0
0
SPLINE
5
12B
100
AcDbEntity
8
1
62
256
6
ByLayer
370
18
48
1
60
0
100
AcDbSpline
70
4
71
1
72
4
73
2
40
0
40
0
40
1
40
1
41
1
10
11.6414729955466
20
12.8733206383585
30
0
41
1
10
10.7654292679706
20
13.5298909722824
30
0
0
SPLINE
5
12C
100
AcDbEntity
8
1
62
256
6
ByLayer
370
18
48
1
60
0
100
AcDbSpline
70
4
71
3
72
8
73
4
40
0
40
0
40
0
40
0
40
1
40
1
40
1
40
1
41
1
10
11.7990277360283
20
2.46822303808389
30
0
41
1
10
11.683973671813
20
0.900511944561202
30
0
41
1
10
11.510574120072
20
-0.556808062451779
30
0
41
1
10
11.2672955800849
20
-1.39215435558026
30
0
0
SPLINE
5
12D
100
AcDbEntity
8
1
62
256
6
ByLayer
370
18
48
1
60
0
100
AcDbSpline
70
4
71
3
72
8
73
4
40
0
40
0
40
0
40
0
40
1
40
1
40
1
40
1
41
1
10
7.95316971226731
20
6.91474693274083
30
0
41
1
10
7.7639179705061
20
6.74262258854469
30
0
41
1
10
7.5639134026132
20
6.5967951654242
30
0
41
1
10
7.35773555250807
20
6.47104921338939
30
0
0
SPLINE
5
12E
100
AcDbEntity
8
1
62
256
6
ByLayer
370
18
48
1
60
0
100
AcDbSpline
70
4
71
3
72
11
73
7
40
0
40
0
40
0
40
0
40
0.564783939443779
40
0.564783939443779
40
0.564783939443779
40
1
40
1
40
1
40
1
41
1
10
20.4745765016621
20
16.3746968503531
30
0
41
1
10
20.1344052112752
20
16.2478294254296
30
0
41
1
10
19.7391258268168
20
16.1210417674554
30
0
41
1
10
19.3161585896343
20
16.0330692979192
30
0
41
1
10
18.9875360194623
20
15.9647194672421
30
0
41
1
10
18.6397513252437
20
15.9110282097414
30
0
41
1
10
18.2892573645023
20
15.8664401716234
30
0
0
SPLINE
5
12F
100
AcDbEntity
8
1
62
256
6
ByLayer
370
18
48
1
60
0
100
AcDbSpline
70
4
71
3
72
15
73
11
40
0
40
0
40
0
40
0
40
0.322163720426459
40
0.322163720426459
40
0.644833452600229
40
0.644833452600229
40
0.912233455904558
40
0.912233455904558
40
0.912233455904558
40
1
40
1
40
1
40
1
41
1
10
12.9184706996598
20
11.3944492204064
30
0
41
1
10
13.3766997452454
20
11.5514290256798
30
0
41
1
10
13.868528286603
20
11.6310027325893
30
0
41
1
10
14.8370516053307
20
11.6338626504251
30
0
41
1
10
15.3274609749193
20
11.5572247070552
30
0
41
1
10
16.1649975746352
20
11.2717598089054
30
0
41
1
10
16.5320326608011
20
11.0832749880988
30
0
41
1
10
16.8546126126849
20
10.8415596018657
30
0
41
1
10
16.9618136164372
20
10.7612318199462
30
0
41
1
10
17.0647541319411
20
10.6747159346754
30
0
41
1
10
17.162079437755
20
10.5828392687567
30
0
0
SPLINE
5
130
100
AcDbEntity
8
1
62
256
6
ByLayer
370
18
48
1
60
0
100
AcDbSpline
70
4
71
3
72
8
73
4
40
0
40
0
40
0
40
0
40
1
40
1
40
1
40
1
41
1
10
26.4905450213893
20
10.0831251142702
30
0
41
1
10
26.6253467968822
20
10.4707700375307
30
0
41
1
10
26.7595711919871
20
10.8601577888426
30
0
41
1
10
26.8925019205251
20
11.2492569851127
30
0
0
SPLINE
5
131
100
AcDbEntity
8
1
62
256
6
ByLayer
370
18
48
1
60
0
100
AcDbSpline
70
4
71
2
72
6
73
3
40
0
40
0
40
0
40
1
40
1
40
1
41
0.937301687603846
10
17.0357161237402
20
4.39521184867161
30
0
41
0.930554446910518
10
17.6628385153547
20
3.0780708206055
30
0
41
1.02805999725225
10
17.8001176077475
20
2.40374424379871
30
0
0
SPLINE
5
132
100
AcDbEntity
8
1
62
256
6
ByLayer
370
18
48
1
60
0
100
AcDbSpline
70
4
71
3
72
8
73
4
40
0
40
0
40
0
40
0
40
1
40
1
40
1
40
1
41
1.01923193622652
10
25.5841810693844
20
8.29973841626435
30
0
41
1.02059843499303
10
25.8651482916515
20
8.79558726334835
30
0
41
1.02233811057541
10
26.1957109770223
20
9.42431022490137
30
0
41
1.02417041321379
10
26.4904964725208
20
10.0830166294765
30
0
0
SPLINE
5
133
100
AcDbEntity
8
1
62
256
6
ByLayer
370
18
48
1
60
0
100
AcDbSpline
70
4
71
3
72
11
73
7
40
0
40
0
40
0
40
0
40
0.423407924946043
40
0.740963868655575
40
0.899741840510342
40
1
40
1
40
1
40
1
41
1.02805999725224
10
11.6414729955466
20
12.8733206383585
30
0
41
1.02767136955277
10
12.4350118006521
20
13.2134990423406
30
0
41
1.02349884684923
10
15.6648715856503
20
13.6922723224527
30
0
41
1.01876555595691
10
19.872442957471
20
13.9190934637481
30
0
41
1.01635405201144
10
21.4583676495026
20
14.0022411357232
30
0
41
1.01722454828215
10
21.9045357361164
20
14.2000216146195
30
0
41
1.0177432798788
10
22.085442469726
20
14.2893495550535
30
0
0
SPLINE
5
134
100
AcDbEntity
8
1
62
256
6
ByLayer
370
18
48
1
60
0
100
AcDbSpline
70
4
71
2
72
6
73
3
40
0
40
0
40
0
40
1
40
1
40
1
41
1.02805999725224
10
17.8001176077475
20
2.40374424379874
30
0
41
1.02805999725224
10
17.9297346590667
20
1.76705426436794
30
0
41
1.02805999725224
10
18.0593517103858
20
1.13036428493715
30
0
0
SPLINE
5
135
100
AcDbEntity
8
1
62
256
6
ByLayer
370
18
48
1
60
0
100
AcDbSpline
70
4
71
3
72
12
73
8
40
0
40
0
40
0
40
0
40
0.471343086678518
40
0.471343086678518
40
0.892619726108227
40
0.892619726108227
40
1
40
1
40
1
40
1
41
1
10
10.6598865299842
20
2.3133808390738
30
0
41
1
10
10.8268835817295
20
2.37332546709212
30
0
41
1
10
11.0057809618582
20
2.42150111588427
30
0
41
1
10
11.3492270384518
20
2.47571802837715
30
0
41
1
10
11.5169292959577
20
2.48590280243678
30
0
41
1
10
11.7178635868522
20
2.47584916234945
30
0
41
1
10
11.7587597112083
20
2.47260926245232
30
0
41
1
10
11.7990277360283
20
2.46822303808389
30
0
0
SPLINE
5
136
100
AcDbEntity
8
1
62
256
6
ByLayer
370
18
48
1
60
0
100
AcDbSpline
70
4
71
3
72
8
73
4
40
0
40
0
40
0
40
0
40
1
40
1
40
1
40
1
41
1
10
12.9184706852396
20
11.3944492154452
30
0
41
1
10
12.644479511985
20
11.3001834198338
30
0
41
1
10
12.3840361307272
20
11.1819934910161
30
0
41
1
10
12.1379269403711
20
11.0389916570444
30
0
0
SPLINE
5
137
100
AcDbEntity
8
1
62
256
6
ByLayer
370
18
48
1
60
0
100
AcDbSpline
70
4
71
3
72
20
73
16
40
0
40
0
40
0
40
0
40
0.110576036200126
40
0.110576036200126
40
0.19717936912281
40
0.19717936912281
40
0.284291117387368
40
0.284291117387368
40
0.365904217918081
40
0.365904217918081
40
0.497270233392073
40
0.497270233392073
40
0.733496364826702
40
0.733496364826702
40
1
40
1
40
1
40
1
41
1
10
22.0854424698012
20
14.2893495550907
30
0
41
1
10
22.0828058076575
20
14.2495505325017
30
0
41
1
10
22.0893898875411
20
14.2064022967254
30
0
41
1
10
22.1253826146206
20
14.1266293368318
30
0
41
1
10
22.1501643876729
20
14.0898593926353
30
0
41
1
10
22.2176781280401
20
14.0183039997774
30
0
41
1
10
22.2614640948515
20
13.9826541193952
30
0
41
1
10
22.3571869431659
20
13.9200690130996
30
0
41
1
10
22.4093756620668
20
13.8919744784722
30
0
41
1
10
22.5496505823633
20
13.8274305005074
30
0
41
1
10
22.6425235364684
20
13.79491908024
30
0
41
1
10
22.8978545972576
20
13.7216161201591
30
0
41
1
10
23.062561806296
20
13.6921221438913
30
0
41
1
10
23.3996322576398
20
13.6476387637233
30
0
41
1
10
23.5738377733272
20
13.6349330806499
30
0
41
1
10
23.7430924564501
20
13.6282413562976
30
0
0
SPLINE
5
138
100
AcDbEntity
8
1
62
256
6
ByLayer
370
18
48
1
60
0
100
AcDbSpline
70
4
71
3
72
12
73
8
40
0
40
0
40
0
40
0
40
0.466938972358624
40
0.466938972358624
40
0.928803236876559
40
0.928803236876559
40
1
40
1
40
1
40
1
41
1
10
8.64235293334639
20
7.83450897936507
30
0
41
1
10
8.57283926009666
20
7.67840503873703
30
0
41
1
10
8.47849603496513
20
7.51916573615043
30
0
41
1
10
8.26352624647564
20
7.22828290527903
30
0
41
1
10
8.14068405957789
20
7.0921189796025
30
0
41
1
10
7.99331908439797
20
6.95168317578006
30
0
41
1
10
7.97330630005519
20
6.93306114710458
30
0
41
1
10
7.95316971226731
20
6.91474693274083
30
0
0
SPLINE
5
139
100
AcDbEntity
8
1
62
256
6
ByLayer
370
18
48
1
60
0
100
AcDbSpline
70
4
71
3
72
8
73
4
40
0
40
0
40
0
40
0
40
1
40
1
40
1
40
1
41
1
10
23.7987464832702
20
6.50041552560589
30
0
41
1
10
24.2861073245362
20
7.15096013431517
30
0
41
1
10
24.8234746348212
20
7.71313371741249
30
0
41
1
10
25.3393876633839
20
8.10461222786174
30
0
0
SPLINE
5
13A
100
AcDbEntity
8
1
62
256
6
ByLayer
370
18
48
1
60
0
100
AcDbSpline
70
4
71
3
72
8
73
4
40
0
40
0
40
0
40
0
40
1
40
1
40
1
40
1
41
1
10
7.95316971226731
20
6.91474693274083
30
0
41
1
10
6.59272146426196
20
6.8692138813025
30
0
41
1
10
5.34622971505132
20
6.77271923434876
30
0
41
1
10
4.5435628305147
20
6.59472460288822
30
0
0
SPLINE
5
13B
100
AcDbEntity
8
1
62
256
6
ByLayer
370
18
48
1
60
0
100
AcDbSpline
70
4
71
3
72
11
73
7
40
0
40
0
40
0
40
0
40
0.423407924939466
40
0.740963868644065
40
0.899741840496365
40
1
40
1
40
1
40
1
41
1.02805999725225
10
17.8001176077475
20
2.40374424379871
30
0
41
1.02767136955277
10
18.4841754793115
20
2.93003811149077
30
0
41
1.02349884684923
10
20.460953826055
20
5.539025533349
30
0
41
1.01876555595691
10
22.7187653475741
20
9.080400604699
30
0
41
1.01635405201137
10
23.5768831287586
20
10.4008059094198
30
0
41
1.01722454828226
10
23.9766014656738
20
10.6775500619517
30
0
41
1.01774327987904
10
24.1471849103169
20
10.7844273934793
30
0
0
SPLINE
5
13C
100
AcDbEntity
8
1
62
256
6
ByLayer
370
18
48
1
60
0
100
AcDbSpline
70
4
71
3
72
12
73
8
40
0
40
0
40
0
40
0
40
0.108854002841678
40
0.502629245107337
40
0.699516866240166
40
0.896404487372996
40
1
40
1
40
1
40
1
41
1.0244126255267
10
17.1620793026086
20
10.5828392051498
30
0
41
1.02394775696077
10
17.469198248278
20
10.7273852264332
30
0
41
1.02173322391444
10
18.9261686315364
20
11.4046255472193
30
0
41
1.01876555595691
10
20.9960706513289
20
12.310967525808
30
0
41
1.01610930227499
10
22.3964526805669
20
12.8885246560224
30
0
41
1.01814069306376
10
22.9974471335347
20
13.2346342792289
30
0
41
1.0200519600697
10
23.542604050655
20
13.5244921168035
30
0
41
1.02076673234771
10
23.7430924564341
20
13.6282413562893
30
0
0
SPLINE
5
13D
100
AcDbEntity
8
1
62
256
6
ByLayer
370
18
48
1
60
0
100
AcDbSpline
70
4
71
3
72
8
73
4
40
0
40
0
40
0
40
0
40
1
40
1
40
1
40
1
41
1
10
5.10865096788393
20
9.07742203897948
30
0
41
1
10
5.90410623844474
20
8.97235385108601
30
0
41
1
10
7.23050644988473
20
8.47293093885938
30
0
41
1
10
8.64235293334195
20
7.83450897935762
30
0
0
SPLINE
5
13E
100
AcDbEntity
8
1
62
256
6
ByLayer
370
18
48
1
60
0
100
AcDbSpline
70
4
71
3
72
10
73
6
40
0
40
0
40
0
40
0
40
0.5
40
0.5
40
1
40
1
40
1
40
1
41
1
10
11.2703193740309
20
-2.57318670924715
30
0
41
1
10
10.8295882545268
20
-2.57992481229866
30
0
41
1
10
10.4790675571727
20
-2.43758094169172
30
0
41
1
10
9.61827839412405
20
-1.88394449748313
30
0
41
1
10
9.0982393494894
20
-1.40055398523575
30
0
41
1
10
8.70572024973387
20
-0.795009826212294
30
0
0
SPLINE
5
13F
100
AcDbEntity
8
1
62
256
6
ByLayer
370
18
48
1
60
0
100
AcDbSpline
70
4
71
3
72
8
73
4
40
0
40
0
40
0
40
0
40
1
40
1
40
1
40
1
41
1
10
4.41293379874901
20
6.49965478691217
30
0
41
1
10
4.40101643519859
20
6.51991407381203
30
0
41
1
10
4.38961719206219
20
6.54030452262219
30
0
41
1
10
4.37871194946018
20
6.56082036244024
30
0
0
SPLINE
5
140
100
AcDbEntity
8
1
62
256
6
ByLayer
370
18
48
1
60
0
100
AcDbSpline
70
4
71
3
72
10
73
6
40
0
40
0
40
0
40
0
40
0.5
40
0.5
40
1
40
1
40
1
40
1
41
1
10
23.7987464832701
20
6.50041552560569
30
0
41
1
10
23.0102990517446
20
5.44797104833242
30
0
41
1
10
22.1431124649621
20
4.46384627955314
30
0
41
1
10
20.2210735498289
20
2.65842892778909
30
0
41
1
10
19.2014127843084
20
1.80851220535558
30
0
41
1
10
18.0593517103858
20
1.13036428493714
30
0
0
SPLINE
5
141
100
AcDbEntity
8
1
62
256
6
ByLayer
370
18
48
1
60
0
100
AcDbSpline
70
4
71
3
72
15
73
11
40
0
40
0
40
0
40
0
40
0.227604479949749
40
0.227604479949749
40
0.479423709218441
40
0.479423709218441
40
0.785574270382836
40
0.785574270382836
40
0.785574270382836
40
1
40
1
40
1
40
1
41
1
10
18.3845811339663
20
8.504610095473
30
0
41
1
10
18.4681683676787
20
8.17399372537415
30
0
41
1
10
18.5033184236838
20
7.82485264476023
30
0
41
1
10
18.480078024719
20
7.10195994468441
30
0
41
1
10
18.4119911085155
20
6.72104911293764
30
0
41
1
10
18.1589145935973
20
5.92033194376558
30
0
41
1
10
17.948691179784
20
5.49812331294225
30
0
41
1
10
17.6825819866174
20
5.12226711792505
30
0
41
1
10
17.4950529384695
20
4.85739857410158
30
0
41
1
10
17.277123365196
20
4.61180713113725
30
0
41
1
10
17.0357161130363
20
4.39521187115281
30
0
0
SPLINE
5
142
100
AcDbEntity
8
1
62
256
6
ByLayer
370
18
48
1
60
0
100
AcDbSpline
70
4
71
3
72
8
73
4
40
0
40
0
40
0
40
0
40
1
40
1
40
1
40
1
41
1
10
8.72115528899593
20
8.03435398357132
30
0
41
1
10
8.69810776609199
20
7.967451414506
30
0
41
1
10
8.67187334612004
20
7.9008017322509
30
0
41
1
10
8.64235293334639
20
7.8345089793651
30
0
0
SPLINE
5
143
100
AcDbEntity
8
1
62
256
6
ByLayer
370
18
48
1
60
0
100
AcDbSpline
70
4
71
3
72
8
73
4
40
0
40
0
40
0
40
0
40
1
40
1
40
1
40
1
41
1
10
8.72115528899587
20
8.03435398357124
30
0
41
1
10
9.00305879998405
20
8.85266618103483
30
0
41
1
10
9.58136683677185
20
9.55350148520313
30
0
41
1
10
10.3799466447872
20
10.0175165711647
30
0
0
SPLINE
5
144
100
AcDbEntity
8
1
62
256
6
ByLayer
370
18
48
1
60
0
100
AcDbSpline
70
4
71
3
72
8
73
4
40
0
40
0
40
0
40
0
40
1
40
1
40
1
40
1
41
1
10
8.80622228271727
20
-0.651713792081694
30
0
41
1
10
9.30432678371028
20
0.0296953020375952
30
0
41
1
10
9.97184886403772
20
1.12691039206968
30
0
41
1
10
10.6598865299842
20
2.3133808390738
30
0
0
SPLINE
5
145
100
AcDbEntity
8
1
62
256
6
ByLayer
370
18
48
1
60
0
100
AcDbSpline
70
4
71
3
72
8
73
4
40
0
40
0
40
0
40
0
40
1
40
1
40
1
40
1
41
1
10
8.66897893536452
20
-0.735539399843532
30
0
41
1
10
8.68089629891495
20
-0.755798686743418
30
0
41
1
10
8.69314846923828
20
-0.775615182098477
30
0
41
1
10
8.70572024973387
20
-0.795009826212322
30
0
0
SPLINE
5
146
100
AcDbEntity
8
1
62
256
6
ByLayer
370
18
48
1
60
0
100
AcDbSpline
70
4
71
3
72
8
73
4
40
0
40
0
40
0
40
0
40
1
40
1
40
1
40
1
41
1
10
11.7990277360283
20
2.46822303808389
30
0
41
1
10
11.8717627274331
20
2.46030032538141
30
0
41
1
10
11.943880308529
20
2.44922545513026
30
0
41
1
10
12.0148778655841
20
2.43508948473001
30
0
0
SPLINE
5
147
100
AcDbEntity
8
1
62
256
6
ByLayer
370
18
48
1
60
0
100
AcDbSpline
70
4
71
3
72
12
73
8
40
0
40
0
40
0
40
0
40
0.2869783638583
40
0.2869783638583
40
0.569998995185623
40
0.569998995185623
40
1
40
1
40
1
40
1
41
1
10
17.1620794377541
20
10.5828392687566
30
0
41
1
10
17.3321937876457
20
10.4222316905945
30
0
41
1
10
17.4898814576954
20
10.2469420786022
30
0
41
1
10
17.7719581319623
20
9.87711360333023
30
0
41
1
10
17.8977454726807
20
9.68160433765598
30
0
41
1
10
18.1714536643483
20
9.1707047054436
30
0
41
1
10
18.299499364884
20
8.84106896146309
30
0
41
1
10
18.3845811339663
20
8.504610095473
30
0
0
LINE
5
72
100
AcDbEntity
8
1
62
256
6
ByLayer
370
18
48
1
60
0
100
AcDbLine
10
12.123184
20
6.671265
30
0
11
12.220797
21
6.768878
31
0
39
0
210
0
220
0
230
1
0
LINE
5
74
100
AcDbEntity
8
1
62
256
6
ByLayer
370
18
48
1
60
0
100
AcDbLine
10
16.081591
20
3.991462
30
0
11
16.254787
21
4.164659
31
0
39
0
210
0
220
0
230
1
0
LINE
5
75
100
AcDbEntity
8
1
62
256
6
ByLayer
370
18
48
1
60
0
100
AcDbLine
10
4.542596
20
9.885136
30
0
11
3.964982
21
9.429167
31
0
39
0
210
0
220
0
230
1
0
LINE
5
76
100
AcDbEntity
8
1
62
256
6
ByLayer
370
18
48
1
60
0
100
AcDbLine
10
28.581877
20
7.958522
30
0
11
28.915926
21
8.292572
31
0
39
0
210
0
220
0
230
1
0
LINE
5
77
100
AcDbEntity
8
1
62
256
6
ByLayer
370
18
48
1
60
0
100
AcDbLine
10
29.260386
20
8.611922
30
0
11
29.755245
21
9.106781
31
0
39
0
210
0
220
0
230
1
0
LINE
5
78
100
AcDbEntity
8
1
62
256
6
ByLayer
370
18
48
1
60
0
100
AcDbLine
10
20.774989
20
18.087037
30
0
11
20.28013
21
17.592178
31
0
39
0
210
0
220
0
230
1
0
LINE
5
79
100
AcDbEntity
8
1
62
256
6
ByLayer
370
18
48
1
60
0
100
AcDbLine
10
7.346508
20
6.42441
30
0
11
7.751752
21
6.74431
31
0
39
0
210
0
220
0
230
1
0
LINE
5
7A
100
AcDbEntity
8
1
62
256
6
ByLayer
370
18
48
1
60
0
100
AcDbLine
10
14.008325
20
5.999441
30
0
11
13.841985
21
5.833102
31
0
39
0
210
0
220
0
230
1
0
LINE
5
7B
100
AcDbEntity
8
1
62
256
6
ByLayer
370
18
48
1
60
0
100
AcDbLine
10
12.830682
20
7.973016
30
0
11
12.997021
21
8.139355
31
0
39
0
210
0
220
0
230
1
0
LINE
5
7C
100
AcDbEntity
8
1
62
256
6
ByLayer
370
18
48
1
60
0
100
AcDbLine
10
14.784549
20
7.369919
30
0
11
14.618209
21
7.203579
31
0
39
0
210
0
220
0
230
1
0
LINE
5
7D
100
AcDbEntity
8
1
62
256
6
ByLayer
370
18
48
1
60
0
100
AcDbLine
10
10.597933
20
9.821513
30
0
11
10.424737
21
9.648316
31
0
39
0
210
0
220
0
230
1
0
LINE
5
7E
100
AcDbEntity
8
1
62
256
6
ByLayer
370
18
48
1
60
0
100
AcDbLine
10
20.220195
20
17.557352
30
0
11
19.744559
21
17.081717
31
0
39
0
210
0
220
0
230
1
0
LINE
5
7F
100
AcDbEntity
8
80
62
256
6
ByLayer
370
18
48
1
60
0
100
AcDbLine
10
0
20
0
30
0
11
-5
21
0
31
0
39
0
210
0
220
0
230
1
0
LINE
5
80
100
AcDbEntity
8
81
62
256
6
ByLayer
370
18
48
1
60
0
100
AcDbLine
10
31.580708
20
19.9125
30
0
11
41.580708
21
19.9125
31
0
39
0
210
0
220
0
230
1
0
LINE
5
81
100
AcDbEntity
8
1
62
256
6
ByLayer
370
18
48
1
60
0
100
AcDbLine
10
12.133977
20
6.685244
30
0
11
12.188637
21
6.739905
31
0
39
0
210
0
220
0
230
1
0
LINE
5
82
100
AcDbEntity
8
1
62
256
6
ByLayer
370
18
48
1
60
0
100
AcDbLine
10
16.081591
20
3.991462
30
0
11
16.08179
21
3.991661
31
0
39
0
210
0
220
0
230
1
0
LINE
5
83
100
AcDbEntity
8
1
62
256
6
ByLayer
370
18
48
1
60
0
100
AcDbLine
10
14.932685
20
-4.885272
30
0
11
13.100475
21
-1.77055
31
0
39
0
210
0
220
0
230
1
0
LINE
5
84
100
AcDbEntity
8
1
62
256
6
ByLayer
370
18
48
1
60
0
100
AcDbLine
10
5.797169
20
10.644928
30
0
11
3.090487
21
15.246236
31
0
39
0
210
0
220
0
230
1
0
LINE
5
85
100
AcDbEntity
8
1
62
256
6
ByLayer
370
18
48
1
60
0
100
AcDbLine
10
12.460543
20
-7.38141
30
0
11
10.048855
21
-3.281587
31
0
39
0
210
0
220
0
230
1
0
LINE
5
86
100
AcDbEntity
8
1
62
256
6
ByLayer
370
18
48
1
60
0
100
AcDbLine
10
3.105689
20
8.521661
30
0
11
0.576647
21
12.820983
31
0
39
0
210
0
220
0
230
1
0
LINE
5
87
100
AcDbEntity
8
1
62
256
6
ByLayer
370
18
48
1
60
0
100
AcDbLine
10
26.043499
20
6.904146
30
0
11
24.370096
21
7.198663
31
0
39
0
210
0
220
0
230
1
0
LINE
5
88
100
AcDbEntity
8
1
62
256
6
ByLayer
370
18
48
1
60
0
100
AcDbLine
10
19.773023
20
17.563834
30
0
11
19.226896
21
16.016829
31
0
39
0
210
0
220
0
230
1
0
LINE
5
89
100
AcDbEntity
8
1
62
256
6
ByLayer
370
18
48
1
60
0
100
AcDbLine
10
20.116203
20
17.453345
30
0
11
19.859761
21
17.408037
31
0
39
0
210
0
220
0
230
1
0
LINE
5
8A
100
AcDbEntity
8
1
62
256
6
ByLayer
370
18
48
1
60
0
100
AcDbLine
10
26.087719
20
6.996429
30
0
11
24.449758
21
7.284707
31
0
39
0
210
0
220
0
230
1
0
LINE
5
8B
100
AcDbEntity
8
1
62
256
6
ByLayer
370
18
48
1
60
0
100
AcDbLine
10
12.439751
20
-7.402203
30
0
11
10.019335
21
-3.287542
31
0
39
0
210
0
220
0
230
1
0
LINE
5
8C
100
AcDbEntity
8
1
62
256
6
ByLayer
370
18
48
1
60
0
100
AcDbLine
10
3.086675
20
8.497845
30
0
11
0.484312
21
12.921812
31
0
39
0
210
0
220
0
230
1
0
LINE
5
8D
100
AcDbEntity
8
1
62
256
6
ByLayer
370
18
48
1
60
0
100
AcDbLine
10
19.898541
20
17.517912
30
0
11
19.380121
21
16.049393
31
0
39
0
210
0
220
0
230
1
0
LINE
5
8E
100
AcDbEntity
8
1
62
256
6
ByLayer
370
18
48
1
60
0
100
AcDbLine
10
11.780513
20
-8.06784
30
0
11
8.877169
21
-3.132211
31
0
39
0
210
0
220
0
230
1
0
LINE
5
8F
100
AcDbEntity
8
1
62
256
6
ByLayer
370
18
48
1
60
0
100
AcDbLine
10
2.665157
20
7.428089
30
0
11
0
21
11.958804
31
0
39
0
210
0
220
0
230
1
0
LINE
5
90
100
AcDbEntity
8
1
62
256
6
ByLayer
370
18
48
1
60
0
100
AcDbLine
10
11.780513
20
-8.06784
30
0
11
7.452391
21
-12.444038
31
0
39
0
210
0
220
0
230
1
0
LINE
5
91
100
AcDbEntity
8
1
62
256
6
ByLayer
370
18
48
1
60
0
100
AcDbLine
10
0
20
12.4375
30
0
11
0.484312
21
12.921812
31
0
39
0
210
0
220
0
230
1
0
LINE
5
92
100
AcDbEntity
8
1
62
256
6
ByLayer
370
18
48
1
60
0
100
AcDbLine
10
2.928997
20
15.366497
30
0
11
0.49732
21
12.93482
31
0
39
0
210
0
220
0
230
1
0
LINE
5
93
100
AcDbEntity
8
1
62
256
6
ByLayer
370
18
48
1
60
0
100
AcDbLine
10
0
20
9.265164
30
0
11
0
21
-12.4375
31
0
39
0
210
0
220
0
230
1
0
LINE
5
94
100
AcDbEntity
8
1
62
256
6
ByLayer
370
18
48
1
60
0
100
AcDbLine
10
3.075256
20
15.406377
30
0
11
2.928997
21
15.366497
31
0
39
0
210
0
220
0
230
1
0
LINE
5
95
100
AcDbEntity
8
1
62
256
6
ByLayer
370
18
48
1
60
0
100
AcDbLine
10
26.309794
20
6.618906
30
0
11
26.248283
21
6.556018
31
0
39
0
210
0
220
0
230
1
0
LINE
5
96
100
AcDbEntity
8
1
62
256
6
ByLayer
370
18
48
1
60
0
100
AcDbLine
10
7.452391
20
-12.444038
30
0
11
2.064953
21
-12.44651
31
0
39
0
210
0
220
0
230
1
0
LINE
5
97
100
AcDbEntity
8
1
62
256
6
ByLayer
370
18
48
1
60
0
100
AcDbLine
10
19.350639
20
18.281878
30
0
11
3.075256
21
15.406377
31
0
39
0
210
0
220
0
230
1
0
LINE
5
98
100
AcDbEntity
8
1
62
256
6
ByLayer
370
18
48
1
60
0
100
AcDbLine
10
0
20
9.265164
30
0
11
0
21
11.958804
31
0
39
0
210
0
220
0
230
1
0
LINE
5
99
100
AcDbEntity
8
1
62
256
6
ByLayer
370
18
48
1
60
0
100
AcDbLine
10
19.350639
20
18.281878
30
0
11
19.467236
21
18.251121
31
0
39
0
210
0
220
0
230
1
0
LINE
5
9A
100
AcDbEntity
8
1
62
256
6
ByLayer
370
18
48
1
60
0
100
AcDbLine
10
19.898541
20
17.517912
30
0
11
19.773023
21
17.563834
31
0
39
0
210
0
220
0
230
1
0
LINE
5
9B
100
AcDbEntity
8
1
62
256
6
ByLayer
370
18
48
1
60
0
100
AcDbLine
10
0
20
-12.4375
30
0
11
2.064953
21
-12.44651
31
0
39
0
210
0
220
0
230
1
0
LINE
5
9C
100
AcDbEntity
8
1
62
256
6
ByLayer
370
18
48
1
60
0
100
AcDbLine
10
0.484312
20
12.921812
30
0
11
0.49732
21
12.93482
31
0
39
0
210
0
220
0
230
1
0
LINE
5
9D
100
AcDbEntity
8
1
62
256
6
ByLayer
370
18
48
1
60
0
100
AcDbLine
10
26.087719
20
6.996429
30
0
11
26.043499
21
6.904146
31
0
39
0
210
0
220
0
230
1
0
LINE
5
9E
100
AcDbEntity
8
1
62
256
6
ByLayer
370
18
48
1
60
0
100
AcDbLine
10
0.49732
20
12.93482
30
0
11
0.576647
21
12.820983
31
0
39
0
210
0
220
0
230
1
0
LINE
5
9F
100
AcDbEntity
8
1
62
256
6
ByLayer
370
18
48
1
60
0
100
AcDbLine
10
3.090487
20
15.246236
30
0
11
3.075256
21
15.406377
31
0
39
0
210
0
220
0
230
1
0
LINE
5
A0
100
AcDbEntity
8
1
62
256
6
ByLayer
370
18
48
1
60
0
100
AcDbLine
10
19.773023
20
17.563834
30
0
11
19.350639
21
18.281878
31
0
39
0
210
0
220
0
230
1
0
LINE
5
A1
100
AcDbEntity
8
1
62
256
6
ByLayer
370
18
48
1
60
0
100
AcDbLine
10
2.064953
20
-12.44651
30
0
11
0
21
9.265164
31
0
39
0
210
0
220
0
230
1
0
LINE
5
A2
100
AcDbEntity
8
1
62
256
6
ByLayer
370
18
48
1
60
0
100
AcDbLine
10
12.460543
20
-7.38141
30
0
11
12.439751
21
-7.402203
31
0
39
0
210
0
220
0
230
1
0
LINE
5
A3
100
AcDbEntity
8
1
62
256
6
ByLayer
370
18
48
1
60
0
100
AcDbLine
10
14.932685
20
-4.885272
30
0
11
26.248283
21
6.556018
31
0
39
0
210
0
220
0
230
1
0
LINE
5
A4
100
AcDbEntity
8
1
62
256
6
ByLayer
370
18
48
1
60
0
100
AcDbLine
10
19.898541
20
17.517912
30
0
11
19.467236
21
18.251121
31
0
39
0
210
0
220
0
230
1
0
LINE
5
A5
100
AcDbEntity
8
1
62
256
6
ByLayer
370
18
48
1
60
0
100
AcDbLine
10
26.309794
20
6.618906
30
0
11
26.087719
21
6.996429
31
0
39
0
210
0
220
0
230
1
0
LINE
5
A6
100
AcDbEntity
8
1
62
256
6
ByLayer
370
18
48
1
60
0
100
AcDbLine
10
26.248283
20
6.556018
30
0
11
26.043499
21
6.904146
31
0
39
0
210
0
220
0
230
1
0
LINE
5
A7
100
AcDbEntity
8
1
62
256
6
ByLayer
370
18
48
1
60
0
100
AcDbLine
10
14.932685
20
-4.885272
30
0
11
12.460543
21
-7.38141
31
0
39
0
210
0
220
0
230
1
0
LINE
5
A8
100
AcDbEntity
8
1
62
256
6
ByLayer
370
18
48
1
60
0
100
AcDbLine
10
0.576647
20
12.820983
30
0
11
3.090487
21
15.246236
31
0
39
0
210
0
220
0
230
1
0
LINE
5
A9
100
AcDbEntity
8
1
62
256
6
ByLayer
370
18
48
1
60
0
100
AcDbLine
10
0
20
11.958804
30
0
11
0
21
12.4375
31
0
39
0
210
0
220
0
230
1
0
LINE
5
AA
100
AcDbEntity
8
SK1
62
256
6
ByLayer
370
18
48
1
60
0
100
AcDbLine
10
0
20
11.958804
30
0
11
-0.281589
21
12.4375
31
0
39
0
210
0
220
0
230
1
0
LINE
5
AC
100
AcDbEntity
8
SK1
62
256
6
ByLayer
370
18
48
1
60
0
100
AcDbLine
10
-119.769292
20
12.4375
30
0
11
-119.769292
21
-12.4375
31
0
39
0
210
0
220
0
230
1
0
LINE
5
AD
100
AcDbEntity
8
SK1
62
256
6
ByLayer
370
18
48
1
60
0
100
AcDbLine
10
-3.172336
20
12.4375
30
0
11
-119.769292
21
12.4375
31
0
39
0
210
0
220
0
230
1
0
LINE
5
AE
100
AcDbEntity
8
SK1
62
256
6
ByLayer
370
18
48
1
60
0
100
AcDbLine
10
-119.769292
20
-12.4375
30
0
11
0
21
-12.4375
31
0
39
0
210
0
220
0
230
1
0
LINE
5
AF
100
AcDbEntity
8
SK1
62
256
6
ByLayer
370
18
48
1
60
0
100
AcDbLine
10
-0.281589
20
12.4375
30
0
11
0
21
12.4375
31
0
39
0
210
0
220
0
230
1
0
LINE
5
B0
100
AcDbEntity
8
SK1
62
256
6
ByLayer
370
18
48
1
60
0
100
AcDbLine
10
-3.172336
20
12.4375
30
0
11
-0.281589
21
12.4375
31
0
39
0
210
0
220
0
230
1
0
LINE
5
B1
100
AcDbEntity
8
SK1
62
256
6
ByLayer
370
18
48
1
60
0
100
AcDbLine
10
0
20
11.958804
30
0
11
0
21
12.4375
31
0
39
0
210
0
220
0
230
1
0
LINE
5
B2
100
AcDbEntity
8
SK1
62
256
6
ByLayer
370
18
48
1
60
0
100
AcDbLine
10
0
20
9.265164
30
0
11
0
21
-12.4375
31
0
39
0
210
0
220
0
230
1
0
LINE
5
B3
100
AcDbEntity
8
SK1
62
256
6
ByLayer
370
18
48
1
60
0
100
AcDbLine
10
0
20
9.265164
30
0
11
-3.172336
21
12.4375
31
0
39
0
210
0
220
0
230
1
0
LINE
5
B4
100
AcDbEntity
8
SK1
62
256
6
ByLayer
370
18
48
1
60
0
100
AcDbLine
10
0
20
9.265164
30
0
11
0
21
11.958804
31
0
39
0
210
0
220
0
230
1
0
LINE
5
B5
100
AcDbEntity
8
1
62
256
6
ByLayer
370
18
48
1
60
0
100
AcDbLine
10
7.002319
20
6.190483
30
0
11
5.699552
21
5.43467
31
0
39
0
210
0
220
0
230
1
0
LINE
5
B6
100
AcDbEntity
8
1
62
256
6
ByLayer
370
18
48
1
60
0
100
AcDbLine
10
25.049441
20
15.948431
30
0
11
23.993909
21
16.176809
31
0
39
0
210
0
220
0
230
1
0
LINE
5
B7
100
AcDbEntity
8
1
62
256
6
ByLayer
370
18
48
1
60
0
100
AcDbLine
10
10.379947
20
10.017517
30
0
11
12.137927
21
11.038992
31
0
39
0
210
0
220
0
230
1
0
LINE
5
B8
100
AcDbEntity
8
1
62
256
6
ByLayer
370
18
48
1
60
0
100
AcDbLine
10
12.171668
20
-2.29338
30
0
11
13.403946
21
-1.577364
31
0
39
0
210
0
220
0
230
1
0
LINE
5
B9
100
AcDbEntity
8
1
62
256
6
ByLayer
370
18
48
1
60
0
100
AcDbLine
10
4.412934
20
6.499655
30
0
11
3.036485
21
5.413086
31
0
39
0
210
0
220
0
230
1
0
LINE
5
BA
100
AcDbEntity
8
1
62
256
6
ByLayer
370
18
48
1
60
0
100
AcDbLine
10
10.013006
20
9.727854
30
0
11
11.763507
21
10.743425
31
0
39
0
210
0
220
0
230
1
0
LINE
5
BB
100
AcDbEntity
8
1
62
256
6
ByLayer
370
18
48
1
60
0
100
AcDbLine
10
5.108651
20
9.077422
30
0
11
11.641473
21
12.873321
31
0
39
0
210
0
220
0
230
1
0
LINE
5
BC
100
AcDbEntity
8
1
62
256
6
ByLayer
370
18
48
1
60
0
100
AcDbLine
10
25.750526
20
15.796742
30
0
11
25.526327
21
15.84525
31
0
39
0
210
0
220
0
230
1
0
LINE
5
BD
100
AcDbEntity
8
1
62
256
6
ByLayer
370
18
48
1
60
0
100
AcDbLine
10
24.997612
20
13.610553
30
0
11
27.316521
21
14.820046
31
0
39
0
210
0
220
0
230
1
0
LINE
5
BE
100
AcDbEntity
8
1
62
256
6
ByLayer
370
18
48
1
60
0
100
AcDbLine
10
10.765429
20
13.529891
30
0
11
6.113297
21
10.826768
31
0
39
0
210
0
220
0
230
1
0
LINE
5
BF
100
AcDbEntity
8
1
62
256
6
ByLayer
370
18
48
1
60
0
100
AcDbLine
10
6.107869
20
10.825826
30
0
11
6.113297
21
10.826768
31
0
39
0
210
0
220
0
230
1
0
LINE
5
C0
100
AcDbEntity
8
1
62
256
6
ByLayer
370
18
48
1
60
0
100
AcDbLine
10
18.059352
20
1.130364
30
0
11
13.407219
21
-1.572759
31
0
39
0
210
0
220
0
230
1
0
LINE
5
C1
100
AcDbEntity
8
1
62
256
6
ByLayer
370
18
48
1
60
0
100
AcDbLine
10
8.668979
20
-0.735539
30
0
11
7.29253
21
-1.822108
31
0
39
0
210
0
220
0
230
1
0
LINE
5
C2
100
AcDbEntity
8
1
62
256
6
ByLayer
370
18
48
1
60
0
100
AcDbLine
10
12.137927
20
11.038992
30
0
11
11.763507
21
10.743425
31
0
39
0
210
0
220
0
230
1
0
LINE
5
C3
100
AcDbEntity
8
1
62
256
6
ByLayer
370
18
48
1
60
0
100
AcDbLine
10
27.217307
20
12.2631
30
0
11
27.263477
21
12.497458
31
0
39
0
210
0
220
0
230
1
0
LINE
5
C4
100
AcDbEntity
8
1
62
256
6
ByLayer
370
18
48
1
60
0
100
AcDbLine
10
5.699552
20
5.43467
30
0
11
8.334247
21
0.95574
31
0
39
0
210
0
220
0
230
1
0
LINE
5
C5
100
AcDbEntity
8
1
62
256
6
ByLayer
370
18
48
1
60
0
100
AcDbLine
10
27.433043
20
12.936495
30
0
11
27.364053
21
12.721151
31
0
39
0
210
0
220
0
230
1
0
LINE
5
C6
100
AcDbEntity
8
1
62
256
6
ByLayer
370
18
48
1
60
0
100
AcDbLine
10
4.412934
20
6.499655
30
0
11
8.668979
21
-0.735539
31
0
39
0
210
0
220
0
230
1
0
LINE
5
C7
100
AcDbEntity
8
1
62
256
6
ByLayer
370
18
48
1
60
0
100
AcDbLine
10
13.403946
20
-1.577364
30
0
11
13.407219
21
-1.572759
31
0
39
0
210
0
220
0
230
1
0
LINE
5
C8
100
AcDbEntity
8
1
62
256
6
ByLayer
370
18
48
1
60
0
100
AcDbLine
10
6.107869
20
10.825826
30
0
11
4.87559
21
10.10981
31
0
39
0
210
0
220
0
230
1
0
LINE
5
C9
100
AcDbEntity
8
1
62
256
6
ByLayer
370
18
48
1
60
0
100
AcDbLine
10
16.343305
20
3.889931
30
0
11
14.585325
21
2.868456
31
0
39
0
210
0
220
0
230
1
0
LINE
5
CA
100
AcDbEntity
8
1
62
256
6
ByLayer
370
18
48
1
60
0
100
AcDbLine
10
25.277573
20
15.873456
30
0
11
25.049441
21
15.948431
31
0
39
0
210
0
220
0
230
1
0
LINE
5
CB
100
AcDbEntity
8
1
62
256
6
ByLayer
370
18
48
1
60
0
100
AcDbLine
10
7.29253
20
-1.822108
30
0
11
3.036485
21
5.413086
31
0
39
0
210
0
220
0
230
1
0
LINE
5
CC
100
AcDbEntity
8
1
62
256
6
ByLayer
370
18
48
1
60
0
100
AcDbLine
10
27.217307
20
12.2631
30
0
11
26.892502
21
11.249257
31
0
39
0
210
0
220
0
230
1
0
LINE
5
CD
100
AcDbEntity
8
1
62
256
6
ByLayer
370
18
48
1
60
0
100
AcDbLine
10
7.357736
20
6.471049
30
0
11
7.002319
21
6.190483
31
0
39
0
210
0
220
0
230
1
0
LINE
5
CE
100
AcDbEntity
8
1
62
256
6
ByLayer
370
18
48
1
60
0
100
AcDbLine
10
13.403946
20
-1.577364
30
0
11
11.778347
21
-2.613558
31
0
39
0
210
0
220
0
230
1
0
LINE
5
CF
100
AcDbEntity
8
1
62
256
6
ByLayer
370
18
48
1
60
0
100
AcDbLine
10
12.171668
20
-2.29338
30
0
11
11.714888
21
-2.653962
31
0
39
0
210
0
220
0
230
1
0
LINE
5
D0
100
AcDbEntity
8
1
62
256
6
ByLayer
370
18
48
1
60
0
100
AcDbLine
10
11.267296
20
-1.392154
30
0
11
17.800118
21
2.403744
31
0
39
0
210
0
220
0
230
1
0
LINE
5
D1
100
AcDbEntity
8
1
62
256
6
ByLayer
370
18
48
1
60
0
100
AcDbLine
10
13.724087
20
5.597138
30
0
11
13.890426
21
5.763478
31
0
39
0
210
0
220
0
230
1
0
LINE
5
D2
100
AcDbEntity
8
1
62
256
6
ByLayer
370
18
48
1
60
0
100
AcDbLine
10
14.657569
20
6.573565
30
0
11
14.823908
21
6.739905
31
0
39
0
210
0
220
0
230
1
0
LINE
5
D3
100
AcDbEntity
8
1
62
256
6
ByLayer
370
18
48
1
60
0
100
AcDbLine
10
12.381514
20
7.879486
30
0
11
12.547854
21
8.045825
31
0
39
0
210
0
220
0
230
1
0
LINE
5
D4
100
AcDbEntity
8
1
62
256
6
ByLayer
370
18
48
1
60
0
100
AcDbLine
10
14.269815
20
7.879486
30
0
11
14.436155
21
8.045825
31
0
39
0
210
0
220
0
230
1
0
LINE
5
D5
100
AcDbEntity
8
1
62
256
6
ByLayer
370
18
48
1
60
0
100
AcDbLine
10
13.69555
20
8.20898
30
0
11
13.861889
21
8.375319
31
0
39
0
210
0
220
0
230
1
0
MTEXT
5
148
100
AcDbEntity
8
SK6
62
256
6
ByLayer
370
18
48
1
60
0
100
AcDbMText
10
-58.219292
20
-23.317005
30
0
210
0
220
0
230
1
1
\W0.7554;DRSNR 2525M 12
40
3.5
41
0
44
1.084337
50
0
71
7
72
5
7
iso_b_vert
0
DIMENSION
5
15A
100
AcDbEntity
8
SK2
62
256
6
ByLayer
370
13
48
1
60
0
100
AcDbDimension
2
DimnDraft3D1
10
-127.519292
20
12.4375
30
0
11
-127.519292
21
-5.281579
31
0
70
32
71
5
72
1
41
1
210
0
220
0
230
1
3
Standard
100
AcDbAlignedDimension
13
-121.769292
23
-12.4375
33
0
14
-121.769292
24
12.4375
34
0
50
90
100
AcDbRotatedDimension
1001
ACAD
1000
DSTYLE
1002
{
1070
    74
1070
     0
1070
   279
1070
     0
1070
   172
1070
     1
1070
   173
1070
     1
1070
   340
1005
149
1070
    77
1070
     1
1070
    73
1070
     0
1070
   171
1070
     3
1070
   274
1070
     4
1070
   177
1070
     2
1070
   176
1070
     2
1070
   178
1070
     7
1070
    78
1070
     8
1070
    41
1041
3.175
1070
   147
1041
2.25
1070
    42
1041
2.0
1070
    44
1041
2.0
1070
   140
1041
4.5
1070
   343
1005
15B
1070
   344
1005
15B
1002
}
0
DIMENSION
5
16F
100
AcDbEntity
8
2
62
256
6
ByLayer
370
13
48
1
60
0
100
AcDbDimension
2
DimnDraft3D2
10
53.830708
20
19.9125
30
0
11
53.830708
21
-1.544079
31
0
70
32
71
5
72
1
41
1
210
0
220
0
230
1
3
Standard
100
AcDbAlignedDimension
13
2
23
-12.4375
33
0
14
33.580708
24
19.9125
34
0
50
90
100
AcDbRotatedDimension
1001
ACAD
1000
DSTYLE
1002
{
1070
    74
1070
     0
1070
   279
1070
     0
1070
   172
1070
     1
1070
   173
1070
     1
1070
   340
1005
149
1070
    77
1070
     1
1070
    73
1070
     0
1070
   171
1070
     3
1070
   274
1070
     4
1070
   177
1070
     2
1070
   176
1070
     2
1070
   178
1070
     7
1070
    78
1070
     8
1070
    41
1041
3.175
1070
   147
1041
2.25
1070
    42
1041
2.0
1070
    44
1041
2.0
1070
   140
1041
4.5
1070
   343
1005
15B
1070
   344
1005
15B
1002
}
0
DIMENSION
5
17D
100
AcDbEntity
8
2
62
256
6
ByLayer
370
13
48
1
60
0
100
AcDbDimension
2
DimnDraft3D3
10
31.580708
20
49.6625
30
0
11
11.071275
21
49.6625
31
0
70
32
71
5
72
1
41
1
210
0
220
0
230
1
3
Standard
100
AcDbAlignedDimension
13
0
23
14.4375
33
0
14
31.580708
24
21.9125
34
0
50
0
100
AcDbRotatedDimension
1001
ACAD
1000
DSTYLE
1002
{
1070
   279
1070
     0
1070
   172
1070
     1
1070
   173
1070
     1
1070
   340
1005
149
1070
    77
1070
     1
1070
    73
1070
     0
1070
   171
1070
     3
1070
   274
1070
     4
1070
   177
1070
     2
1070
   176
1070
     2
1070
   178
1070
     7
1070
    78
1070
     8
1070
    41
1041
3.175
1070
   147
1041
2.25
1070
    42
1041
2.0
1070
    44
1041
2.0
1070
   140
1041
4.5
1070
   343
1005
15B
1070
   344
1005
15B
1002
}
0
DIMENSION
5
18B
100
AcDbEntity
8
SK2
62
256
6
ByLayer
370
13
48
1
60
0
100
AcDbDimension
2
DimnDraft3D4
10
-119.769292
20
59.6625
30
0
11
-50.49495
21
59.6625
31
0
70
32
71
5
72
1
41
1
210
0
220
0
230
1
3
Standard
100
AcDbAlignedDimension
13
31.580708
23
21.9125
33
0
14
-119.769292
24
14.4375
34
0
50
0
100
AcDbRotatedDimension
1001
ACAD
1000
DSTYLE
1002
{
1070
   279
1070
     0
1070
   172
1070
     1
1070
   173
1070
     1
1070
   340
1005
149
1070
    77
1070
     1
1070
    73
1070
     0
1070
   171
1070
     3
1070
   274
1070
     4
1070
   177
1070
     2
1070
   176
1070
     2
1070
   178
1070
     7
1070
    78
1070
     8
1070
    41
1041
3.175
1070
   147
1041
2.25
1070
    42
1041
2.0
1070
    44
1041
2.0
1070
   140
1041
4.5
1070
   343
1005
15B
1070
   344
1005
15B
1002
}
0
ENDSEC
0
SECTION
2
OBJECTS
0
DICTIONARY
5
1f5
330
0
100
AcDbDictionary
280
0
281
1
3
ACAD_GROUP
350
1f6
3
ACAD_MLINESTYLE
350
1f7
0
DICTIONARY
5
1f6
330
0
100
AcDbDictionary
280
0
281
1
0
DICTIONARY
5
1f7
330
0
100
AcDbDictionary
280
0
281
1
3
Standard
350
18
0
MLINESTYLE
5
18
330
1f7
100
AcDbMlineStyle
2
Standard
70
0
3

62
256
51
90
52
90
71
2
49
-0.5
62
256
6
ByLayer
49
0.5
62
256
6
ByLayer
0
RASTERVARIABLES
5
1e4
330

100
AcDbRasterVariables
90
0
70
1
71
1
72
1
0
ENDSEC
0
EOF
