0
SECTION
2
HEADER
9
$ACADVER
1
AC1015
9
$DWGCODEPAGE
3
ANSI_1252
9
$HANDSEED
5
212
9
$ANGBASE
50
0
9
$ANGDIR
70
0
9
$ATTMODE
70
1
9
$AUNITS
70
0
9
$AUPREC
70
0
9
$CECOLOR
62
256
9
$CELTSCALE
40
1
9
$CELTYPE
6
ByLayer
9
$CELWEIGHT
370
18
9
$CLAYER
8
0
9
$CMLJUST
70
0
9
$CMLSCALE
40
1
9
$CMLSTYLE
2
Standard
9
$DIMSTYLE
2
Standard
9
$TEXTSIZE
40
0.2
9
$TEXTSTYLE
7
Standard
9
$LUNITS
70
2
9
$LUPREC
70
4
9
$EXTNAMES
290
1
9
$INSUNITS
70
4
9
$LTSCALE
40
1
9
$LWDISPLAY
290
1
9
$PDMODE
70
0
9
$PDSIZE
40
0
9
$PLINEGEN
70
0
0
ENDSEC
0
SECTION
2
CLASSES
0
CLASS
1
RASTERVARIABLES
2
AcDbRasterVariables
3
ISM
90
0
280
0
281
0
0
ENDSEC
0
SECTION
2
TABLES
0
TABLE
2
VPORT
5
208
100
AcDbSymbolTable
0
VPORT
5
1
100
AcDbSymbolTableRecord
100
AcDbViewportTableRecord
2
*Active
70
0
10
0
20
0
11
1
21
1
12
-1
22
1
13
0
23
0
14
0.5
24
0.5
15
10
25
10
16
0
26
0
36
1
17
0
27
0
37
0
0
ENDTAB
0
TABLE
2
LTYPE
5
209
100
AcDbSymbolTable
0
LTYPE
5
14
100
AcDbSymbolTableRecord
100
AcDbLinetypeTableRecord
70
0
2
ByBlock
3

72
65
73
0
40
0
0
LTYPE
5
15
100
AcDbSymbolTableRecord
100
AcDbLinetypeTableRecord
70
0
2
ByLayer
3

72
65
73
0
40
0
0
LTYPE
5
16
100
AcDbSymbolTableRecord
100
AcDbLinetypeTableRecord
70
0
2
CONTINUOUS
3
Solid line
72
65
73
0
40
0
0
LTYPE
5
6A
100
AcDbSymbolTableRecord
100
AcDbLinetypeTableRecord
70
0
2
CENTER
3
____ _ ____ _ ____ _ ____
72
65
73
4
40
47.5
49
22
74
0
49
-8.5
74
0
49
8.5
74
0
49
-8.5
74
0
0
LTYPE
5
6B
100
AcDbSymbolTableRecord
100
AcDbLinetypeTableRecord
70
0
2
DASHED
3
__ __ __ __ __ __ __ __ __
72
65
73
2
40
25.72
49
12.86
74
0
49
-12.86
74
0
0
ENDTAB
0
TABLE
2
LAYER
5
20a
100
AcDbSymbolTable
0
LAYER
5
10
100
AcDbSymbolTableRecord
100
AcDbLayerTableRecord
2
0
70
0
62
7
6
CONTINUOUS
290
1
370
-3
390
0
0
LAYER
5
6D
100
AcDbSymbolTableRecord
100
AcDbLayerTableRecord
2
2
70
0
62
7
6
CONTINUOUS
290
1
370
-3
390
0
0
LAYER
5
6F
100
AcDbSymbolTableRecord
100
AcDbLayerTableRecord
2
80
70
0
62
-6
6
CONTINUOUS
290
1
370
-3
390
0
0
LAYER
5
71
100
AcDbSymbolTableRecord
100
AcDbLayerTableRecord
2
81
70
0
62
-3
6
CONTINUOUS
290
1
370
-3
390
0
0
LAYER
5
73
100
AcDbSymbolTableRecord
100
AcDbLayerTableRecord
2
1
70
0
62
4
6
CONTINUOUS
290
1
370
-3
390
0
0
LAYER
5
1f5
100
AcDbSymbolTableRecord
100
AcDbLayerTableRecord
2
SK1
70
0
62
4
6
CONTINUOUS
290
1
370
-3
390
0
0
LAYER
5
1f6
100
AcDbSymbolTableRecord
100
AcDbLayerTableRecord
2
SK6
70
0
62
5
6
CONTINUOUS
290
1
370
-3
390
0
0
LAYER
5
1f7
100
AcDbSymbolTableRecord
100
AcDbLayerTableRecord
2
SK2
70
0
62
7
6
CONTINUOUS
290
1
370
-3
390
0
0
ENDTAB
0
TABLE
2
STYLE
5
20b
100
AcDbSymbolTable
0
STYLE
5
11
100
AcDbSymbolTableRecord
100
AcDbTextStyleTableRecord
2
Standard
3
txt
70
0
71
0
40
0
41
1
42
0
50
0
0
STYLE
5
14B
100
AcDbSymbolTableRecord
100
AcDbTextStyleTableRecord
2
iso_b_vert
3
simplex.shx
70
0
71
0
40
0
41
1
42
0
50
0
0
STYLE
5
14C
100
AcDbSymbolTableRecord
100
AcDbTextStyleTableRecord
2
DWGDirectTextStyle
3
simplex
70
0
71
0
40
0
41
1
42
0
50
0
0
ENDTAB
0
TABLE
2
DIMSTYLE
5
20c
100
AcDbSymbolTable
100
AcDbDimStyleTable
0
DIMSTYLE
105
27
100
AcDbSymbolTableRecord
100
AcDbDimStyleTableRecord
2
Standard
70
0
3
<>
41
0.18
42
0.0625
44
0.18
140
0.18
147
0.09
73
0
74
0
77
1
271
2
275
0
278
52
280
0
340
11
0
ENDTAB
0
TABLE
2
VIEW
5
20d
100
AcDbSymbolTable
0
ENDTAB
0
TABLE
2
UCS
5
20e
100
AcDbSymbolTable
0
ENDTAB
0
TABLE
2
APPID
5
20f
100
AcDbSymbolTable
0
APPID
5
12
100
AcDbSymbolTableRecord
100
AcDbRegAppTableRecord
2
ACAD
70
0
0
ENDTAB
0
TABLE
2
BLOCK_RECORD
5
210
100
AcDbSymbolTable
0
BLOCK_RECORD
5
1F
100
AcDbSymbolTableRecord
100
AcDbBlockTableRecord
2
*Model_Space
340
0
70
0
0
BLOCK_RECORD
5
1B
100
AcDbSymbolTableRecord
100
AcDbBlockTableRecord
2
*Paper_Space
340
0
70
0
0
BLOCK_RECORD
5
23
100
AcDbSymbolTableRecord
100
AcDbBlockTableRecord
2
*Paper_Space0
340
0
70
0
0
BLOCK_RECORD
5
14E
100
AcDbSymbolTableRecord
100
AcDbBlockTableRecord
2
DimnDraft3D1
340
0
70
0
0
BLOCK_RECORD
5
15C
100
AcDbSymbolTableRecord
100
AcDbBlockTableRecord
2
_CLOSED
340
0
70
0
0
BLOCK_RECORD
5
163
100
AcDbSymbolTableRecord
100
AcDbBlockTableRecord
2
DimnDraft3D2
340
0
70
0
0
BLOCK_RECORD
5
172
100
AcDbSymbolTableRecord
100
AcDbBlockTableRecord
2
DimnDraft3D3
340
0
70
0
0
BLOCK_RECORD
5
180
100
AcDbSymbolTableRecord
100
AcDbBlockTableRecord
2
DimnDraft3D4
340
0
70
0
0
BLOCK_RECORD
5
18E
100
AcDbSymbolTableRecord
100
AcDbBlockTableRecord
2
DimnDraft3D5
340
0
70
0
0
ENDTAB
0
ENDSEC
0
SECTION
2
BLOCKS
0
BLOCK
5
20
100
AcDbEntity
8
0
100
AcDbBlockBegin
2
*Model_Space
70
0
10
0
20
0
30
0
3
*Model_Space
0
ENDBLK
5
21
100
AcDbEntity
8
0
100
AcDbBlockEnd
0
BLOCK
5
1C
100
AcDbEntity
8
0
100
AcDbBlockBegin
2
*Paper_Space
70
0
10
0
20
0
30
0
3
*Paper_Space
0
ENDBLK
5
1D
100
AcDbEntity
8
0
100
AcDbBlockEnd
0
BLOCK
5
24
100
AcDbEntity
8
0
100
AcDbBlockBegin
2
*Paper_Space0
70
0
10
0
20
0
30
0
3
*Paper_Space0
0
ENDBLK
5
25
100
AcDbEntity
8
0
100
AcDbBlockEnd
0
BLOCK
5
159
100
AcDbEntity
8
0
100
AcDbBlockBegin
2
DimnDraft3D1
70
0
10
0
20
0
30
0
3
DimnDraft3D1
0
MTEXT
5
14F
100
AcDbEntity
8
2
62
256
6
ByLayer
370
18
48
1
60
0
100
AcDbMText
10
23.32532
20
15.818255
30
0
210
0
220
0
230
1
1
\W0.7645;62%%d30'
40
4.5
41
0
44
1.084337
50
31.0695878149999
71
7
72
5
7
iso_b_vert
0
LINE
5
150
100
AcDbEntity
8
2
62
256
6
ByLayer
370
13
48
1
60
0
100
AcDbLine
10
40.781367
20
2.5567
30
0
11
40.781367
21
23.512544
31
0
39
0
210
0
220
0
230
1
0
LINE
5
151
100
AcDbEntity
8
2
62
256
6
ByLayer
370
13
48
1
60
0
100
AcDbLine
10
35.872849
20
3.151331
30
0
11
20.486441
21
11.28455
31
0
39
0
210
0
220
0
230
1
0
ARC
5
152
100
AcDbEntity
8
2
62
256
6
ByLayer
370
13
48
1
60
0
100
AcDbCircle
39
0
10
40.781367
20
0.5567
30
0
40
20.9558441220057
210
0
220
0
230
1
100
AcDbArc
50
90
51
152.139176
0
LINE
5
153
100
AcDbEntity
8
2
62
256
6
ByLayer
370
13
48
1
60
0
100
AcDbLine
10
40.781367
20
21.512544
30
0
11
37.624436
21
20.974844
31
0
39
0
210
0
220
0
230
1
0
LINE
5
154
100
AcDbEntity
8
2
62
256
6
ByLayer
370
13
48
1
60
0
100
AcDbLine
10
40.781367
20
21.512544
30
0
11
37.592835
21
21.81024
31
0
39
0
210
0
220
0
230
1
0
LINE
5
155
100
AcDbEntity
8
2
62
256
6
ByLayer
370
13
48
1
60
0
100
AcDbLine
10
37.624436
20
20.974844
30
0
11
37.592835
21
21.81024
31
0
39
0
210
0
220
0
230
1
0
LINE
5
156
100
AcDbEntity
8
2
62
256
6
ByLayer
370
13
48
1
60
0
100
AcDbLine
10
22.254612
20
10.349899
30
0
11
23.481504
21
13.307951
31
0
39
0
210
0
220
0
230
1
0
LINE
5
157
100
AcDbEntity
8
2
62
256
6
ByLayer
370
13
48
1
60
0
100
AcDbLine
10
22.254612
20
10.349899
30
0
11
24.205301
21
12.889617
31
0
39
0
210
0
220
0
230
1
0
LINE
5
158
100
AcDbEntity
8
2
62
256
6
ByLayer
370
13
48
1
60
0
100
AcDbLine
10
23.481504
20
13.307951
30
0
11
24.205301
21
12.889617
31
0
39
0
210
0
220
0
230
1
0
ENDBLK
5
15A
100
AcDbEntity
8
0
100
AcDbBlockEnd
0
BLOCK
5
15D
100
AcDbEntity
8
0
100
AcDbBlockBegin
2
_CLOSED
70
0
10
0
20
0
30
0
3
_CLOSED
0
LINE
5
15F
100
AcDbEntity
8
0
62
256
6
ByLayer
370
-2
48
1
60
0
100
AcDbLine
10
-1
20
0.166667
30
0
11
0
21
0
31
0
39
0
210
0
220
0
230
1
0
LINE
5
160
100
AcDbEntity
8
0
62
256
6
ByLayer
370
-2
48
1
60
0
100
AcDbLine
10
0
20
0
30
0
11
-1
21
-0.166667
31
0
39
0
210
0
220
0
230
1
0
LINE
5
161
100
AcDbEntity
8
0
62
256
6
ByLayer
370
-2
48
1
60
0
100
AcDbLine
10
-1
20
0.166667
30
0
11
-1
21
-0.166667
31
0
39
0
210
0
220
0
230
1
0
LINE
5
162
100
AcDbEntity
8
0
62
256
6
ByLayer
370
-2
48
1
60
0
100
AcDbLine
10
0
20
0
30
0
11
-1
21
0
31
0
39
0
210
0
220
0
230
1
0
ENDBLK
5
15E
100
AcDbEntity
8
0
100
AcDbBlockEnd
0
BLOCK
5
16F
100
AcDbEntity
8
0
100
AcDbBlockBegin
2
DimnDraft3D2
70
0
10
0
20
0
30
0
3
DimnDraft3D2
0
MTEXT
5
164
100
AcDbEntity
8
SK2
62
256
6
ByLayer
370
18
48
1
60
0
100
AcDbMText
10
-219.443633
20
-4.393421
30
0
210
0
220
0
230
1
1
\W0.7640;40.0
40
4.5
41
0
44
1.084337
50
90
71
7
72
5
7
iso_b_vert
0
LINE
5
166
100
AcDbEntity
8
SK2
62
256
6
ByLayer
370
13
48
1
60
0
100
AcDbLine
10
-212.568633
20
-19.925
30
0
11
-220.318633
21
-19.925
31
0
39
0
210
0
220
0
230
1
0
LINE
5
167
100
AcDbEntity
8
SK2
62
256
6
ByLayer
370
13
48
1
60
0
100
AcDbLine
10
-212.568633
20
19.925
30
0
11
-220.318633
21
19.925
31
0
39
0
210
0
220
0
230
1
0
LINE
5
168
100
AcDbEntity
8
SK2
62
256
6
ByLayer
370
13
48
1
60
0
100
AcDbLine
10
-218.318633
20
-19.925
30
0
11
-218.318633
21
19.925
31
0
39
0
210
0
220
0
230
1
0
LINE
5
169
100
AcDbEntity
8
SK2
62
256
6
ByLayer
370
13
48
1
60
0
100
AcDbLine
10
-218.318633
20
-19.925
30
0
11
-218.73663
21
-16.750002
31
0
39
0
210
0
220
0
230
1
0
LINE
5
16A
100
AcDbEntity
8
SK2
62
256
6
ByLayer
370
13
48
1
60
0
100
AcDbLine
10
-218.318633
20
-19.925
30
0
11
-217.900636
21
-16.749998
31
0
39
0
210
0
220
0
230
1
0
LINE
5
16B
100
AcDbEntity
8
SK2
62
256
6
ByLayer
370
13
48
1
60
0
100
AcDbLine
10
-218.73663
20
-16.750002
30
0
11
-217.900636
21
-16.749998
31
0
39
0
210
0
220
0
230
1
0
LINE
5
16C
100
AcDbEntity
8
SK2
62
256
6
ByLayer
370
13
48
1
60
0
100
AcDbLine
10
-218.318633
20
19.925
30
0
11
-217.900636
21
16.750002
31
0
39
0
210
0
220
0
230
1
0
LINE
5
16D
100
AcDbEntity
8
SK2
62
256
6
ByLayer
370
13
48
1
60
0
100
AcDbLine
10
-218.318633
20
19.925
30
0
11
-218.73663
21
16.749998
31
0
39
0
210
0
220
0
230
1
0
LINE
5
16E
100
AcDbEntity
8
SK2
62
256
6
ByLayer
370
13
48
1
60
0
100
AcDbLine
10
-217.900636
20
16.750002
30
0
11
-218.73663
21
16.749998
31
0
39
0
210
0
220
0
230
1
0
ENDBLK
5
170
100
AcDbEntity
8
0
100
AcDbBlockEnd
0
BLOCK
5
17D
100
AcDbEntity
8
0
100
AcDbBlockBegin
2
DimnDraft3D3
70
0
10
0
20
0
30
0
3
DimnDraft3D3
0
MTEXT
5
173
100
AcDbEntity
8
2
62
256
6
ByLayer
370
18
48
1
60
0
100
AcDbMText
10
61.906367
20
-13.840729
30
0
210
0
220
0
230
1
1
\W0.7346;20.5
40
4.5
41
0
44
1.084337
50
90
71
7
72
5
7
iso_b_vert
0
LINE
5
174
100
AcDbEntity
8
2
62
256
6
ByLayer
370
13
48
1
60
0
100
AcDbLine
10
2
20
-19.925
30
0
11
65.031367
21
-19.925
31
0
39
0
210
0
220
0
230
1
0
LINE
5
175
100
AcDbEntity
8
2
62
256
6
ByLayer
370
13
48
1
60
0
100
AcDbLine
10
42.781367
20
0.5567
30
0
11
65.031367
21
0.5567
31
0
39
0
210
0
220
0
230
1
0
LINE
5
176
100
AcDbEntity
8
2
62
256
6
ByLayer
370
13
48
1
60
0
100
AcDbLine
10
63.031367
20
-31.175
30
0
11
63.031367
21
11.8067
31
0
39
0
210
0
220
0
230
1
0
LINE
5
177
100
AcDbEntity
8
2
62
256
6
ByLayer
370
13
48
1
60
0
100
AcDbLine
10
63.031367
20
-19.925
30
0
11
63.449364
21
-23.099998
31
0
39
0
210
0
220
0
230
1
0
LINE
5
178
100
AcDbEntity
8
2
62
256
6
ByLayer
370
13
48
1
60
0
100
AcDbLine
10
63.031367
20
-19.925
30
0
11
62.61337
21
-23.100002
31
0
39
0
210
0
220
0
230
1
0
LINE
5
179
100
AcDbEntity
8
2
62
256
6
ByLayer
370
13
48
1
60
0
100
AcDbLine
10
63.449364
20
-23.099998
30
0
11
62.61337
21
-23.100002
31
0
39
0
210
0
220
0
230
1
0
LINE
5
17A
100
AcDbEntity
8
2
62
256
6
ByLayer
370
13
48
1
60
0
100
AcDbLine
10
63.031367
20
0.5567
30
0
11
62.61337
21
3.731698
31
0
39
0
210
0
220
0
230
1
0
LINE
5
17B
100
AcDbEntity
8
2
62
256
6
ByLayer
370
13
48
1
60
0
100
AcDbLine
10
63.031367
20
0.5567
30
0
11
63.449364
21
3.731702
31
0
39
0
210
0
220
0
230
1
0
LINE
5
17C
100
AcDbEntity
8
2
62
256
6
ByLayer
370
13
48
1
60
0
100
AcDbLine
10
62.61337
20
3.731698
30
0
11
63.449364
21
3.731702
31
0
39
0
210
0
220
0
230
1
0
ENDBLK
5
17E
100
AcDbEntity
8
0
100
AcDbBlockEnd
0
BLOCK
5
18B
100
AcDbEntity
8
0
100
AcDbBlockBegin
2
DimnDraft3D4
70
0
10
0
20
0
30
0
3
DimnDraft3D4
0
MTEXT
5
181
100
AcDbEntity
8
2
62
256
6
ByLayer
370
18
48
1
60
0
100
AcDbMText
10
15.997262
20
31.4317
30
0
210
0
220
0
230
1
1
\W0.7640;40.8
40
4.5
41
0
44
1.084337
50
0
71
7
72
5
7
iso_b_vert
0
LINE
5
182
100
AcDbEntity
8
2
62
256
6
ByLayer
370
13
48
1
60
0
100
AcDbLine
10
0
20
21.925
30
0
11
0
21
32.3067
31
0
39
0
210
0
220
0
230
1
0
LINE
5
183
100
AcDbEntity
8
2
62
256
6
ByLayer
370
13
48
1
60
0
100
AcDbLine
10
40.781367
20
2.5567
30
0
11
40.781367
21
32.3067
31
0
39
0
210
0
220
0
230
1
0
LINE
5
184
100
AcDbEntity
8
2
62
256
6
ByLayer
370
13
48
1
60
0
100
AcDbLine
10
0
20
30.3067
30
0
11
40.781367
21
30.3067
31
0
39
0
210
0
220
0
230
1
0
LINE
5
185
100
AcDbEntity
8
2
62
256
6
ByLayer
370
13
48
1
60
0
100
AcDbLine
10
0
20
30.3067
30
0
11
3.174998
21
30.724697
31
0
39
0
210
0
220
0
230
1
0
LINE
5
186
100
AcDbEntity
8
2
62
256
6
ByLayer
370
13
48
1
60
0
100
AcDbLine
10
0
20
30.3067
30
0
11
3.175002
21
29.888703
31
0
39
0
210
0
220
0
230
1
0
LINE
5
187
100
AcDbEntity
8
2
62
256
6
ByLayer
370
13
48
1
60
0
100
AcDbLine
10
3.174998
20
30.724697
30
0
11
3.175002
21
29.888703
31
0
39
0
210
0
220
0
230
1
0
LINE
5
188
100
AcDbEntity
8
2
62
256
6
ByLayer
370
13
48
1
60
0
100
AcDbLine
10
40.781367
20
30.3067
30
0
11
37.606368
21
29.888703
31
0
39
0
210
0
220
0
230
1
0
LINE
5
189
100
AcDbEntity
8
2
62
256
6
ByLayer
370
13
48
1
60
0
100
AcDbLine
10
40.781367
20
30.3067
30
0
11
37.606365
21
30.724697
31
0
39
0
210
0
220
0
230
1
0
LINE
5
18A
100
AcDbEntity
8
2
62
256
6
ByLayer
370
13
48
1
60
0
100
AcDbLine
10
37.606368
20
29.888703
30
0
11
37.606365
21
30.724697
31
0
39
0
210
0
220
0
230
1
0
ENDBLK
5
18C
100
AcDbEntity
8
0
100
AcDbBlockEnd
0
BLOCK
5
199
100
AcDbEntity
8
0
100
AcDbBlockBegin
2
DimnDraft3D5
70
0
10
0
20
0
30
0
3
DimnDraft3D5
0
MTEXT
5
18F
100
AcDbEntity
8
SK2
62
256
6
ByLayer
370
18
48
1
60
0
100
AcDbMText
10
-90.731791
20
41.4317
30
0
210
0
220
0
230
1
1
\W0.7468;250.0
40
4.5
41
0
44
1.084337
50
0
71
7
72
5
7
iso_b_vert
0
LINE
5
190
100
AcDbEntity
8
SK2
62
256
6
ByLayer
370
13
48
1
60
0
100
AcDbLine
10
40.781367
20
2.5567
30
0
11
40.781367
21
42.3067
31
0
39
0
210
0
220
0
230
1
0
LINE
5
191
100
AcDbEntity
8
SK2
62
256
6
ByLayer
370
13
48
1
60
0
100
AcDbLine
10
-210.568633
20
21.925
30
0
11
-210.568633
21
42.3067
31
0
39
0
210
0
220
0
230
1
0
LINE
5
192
100
AcDbEntity
8
SK2
62
256
6
ByLayer
370
13
48
1
60
0
100
AcDbLine
10
40.781367
20
40.3067
30
0
11
-210.568633
21
40.3067
31
0
39
0
210
0
220
0
230
1
0
LINE
5
193
100
AcDbEntity
8
SK2
62
256
6
ByLayer
370
13
48
1
60
0
100
AcDbLine
10
40.781367
20
40.3067
30
0
11
37.606368
21
39.888703
31
0
39
0
210
0
220
0
230
1
0
LINE
5
194
100
AcDbEntity
8
SK2
62
256
6
ByLayer
370
13
48
1
60
0
100
AcDbLine
10
40.781367
20
40.3067
30
0
11
37.606365
21
40.724697
31
0
39
0
210
0
220
0
230
1
0
LINE
5
195
100
AcDbEntity
8
SK2
62
256
6
ByLayer
370
13
48
1
60
0
100
AcDbLine
10
37.606368
20
39.888703
30
0
11
37.606365
21
40.724697
31
0
39
0
210
0
220
0
230
1
0
LINE
5
196
100
AcDbEntity
8
SK2
62
256
6
ByLayer
370
13
48
1
60
0
100
AcDbLine
10
-210.568633
20
40.3067
30
0
11
-207.393635
21
40.724697
31
0
39
0
210
0
220
0
230
1
0
LINE
5
197
100
AcDbEntity
8
SK2
62
256
6
ByLayer
370
13
48
1
60
0
100
AcDbLine
10
-210.568633
20
40.3067
30
0
11
-207.393632
21
39.888703
31
0
39
0
210
0
220
0
230
1
0
LINE
5
198
100
AcDbEntity
8
SK2
62
256
6
ByLayer
370
13
48
1
60
0
100
AcDbLine
10
-207.393635
20
40.724697
30
0
11
-207.393632
21
39.888703
31
0
39
0
210
0
220
0
230
1
0
ENDBLK
5
19A
100
AcDbEntity
8
0
100
AcDbBlockEnd
0
ENDSEC
0
SECTION
2
ENTITIES
0
ELLIPSE
5
DA
100
AcDbEntity
8
1
62
256
6
ByLayer
370
18
48
1
60
0
100
AcDbEllipse
10
27.046756
20
5.430105
30
0
11
9.79685083057902E-17
21
1.6
31
0
210
0
220
0
230
1
40
0.984808
41
-0.479965544296825
42
-1.86886443500482E-07
0
ELLIPSE
5
DB
100
AcDbEntity
8
1
62
256
6
ByLayer
370
18
48
1
60
0
100
AcDbEllipse
10
27.046756
20
-5.280024
30
0
11
9.79685083057902E-17
21
1.6
31
0
210
0
220
0
230
1
40
0.984808
41
-3.14159246670015
42
-2.66162710928978
0
ELLIPSE
5
DC
100
AcDbEntity
8
1
62
256
6
ByLayer
370
18
48
1
60
0
100
AcDbEllipse
10
15.644262
20
-2.119251
30
0
11
-4.35154490004312E-16
21
-2.36894894780438
31
0
210
0
220
0
230
1
40
0.984808
41
-1.44037015596519
42
-1.09083078249489
0
ELLIPSE
5
DD
100
AcDbEntity
8
1
62
256
6
ByLayer
370
18
48
1
60
0
100
AcDbEllipse
10
13.725707
20
4.707689
30
0
11
1.53075794227797E-16
21
2.5
31
0
210
0
220
0
230
1
40
0.984808
41
1.07395866939392
42
1.08672143480283
0
ELLIPSE
5
DE
100
AcDbEntity
8
1
62
256
6
ByLayer
370
18
48
1
60
0
100
AcDbEllipse
10
13.725707
20
4.707689
30
0
11
1.53075794227797E-16
21
2.5
31
0
210
0
220
0
230
1
40
0.984808
41
-2.78126657851324
42
-3.60751910910604E-16
0
ELLIPSE
5
DF
100
AcDbEntity
8
1
62
256
6
ByLayer
370
18
48
1
60
0
100
AcDbEllipse
10
13.824969
20
-2.385355
30
0
11
-4.31353124059626E-16
21
-2.34825459197964
31
0
210
0
220
0
230
1
40
0.984808
41
0.425036931573761
42
0.479965544300043
0
ELLIPSE
5
E0
100
AcDbEntity
8
1
62
256
6
ByLayer
370
18
48
1
60
0
100
AcDbEllipse
10
11.684971
20
11.84539
30
0
11
-0.0874371315969338
21
-2.99872552062007
31
0
210
0
220
0
230
1
40
0.981784
41
-0.294220949637215
42
-0.103433765127583
0
ELLIPSE
5
E1
100
AcDbEntity
8
1
62
256
6
ByLayer
370
18
48
1
60
0
100
AcDbEllipse
10
14.072684
20
5.124413
30
0
11
-0.120954698709092
21
-4.1482369701911
31
0
210
0
220
0
230
1
40
0.981784
41
2.84737170395258
42
2.97833733328053
0
ELLIPSE
5
E2
100
AcDbEntity
8
1
62
256
6
ByLayer
370
18
48
1
60
0
100
AcDbEllipse
10
15.980709
20
4.474038
30
0
11
0.120954698709084
21
4.1482369701911
31
0
210
0
220
0
230
1
40
0.981784
41
3.10429512080529
42
-0.294220949637218
0
ELLIPSE
5
E3
100
AcDbEntity
8
1
62
256
6
ByLayer
370
18
48
1
60
0
100
AcDbEllipse
10
13.998225
20
5.149794
30
0
11
0.0757788473840044
21
2.59889545120406
31
0
210
0
220
0
230
1
40
0.981784
41
1.15768586032816
42
1.40209205360694
0
ELLIPSE
5
E4
100
AcDbEntity
8
1
62
256
6
ByLayer
370
18
48
1
60
0
100
AcDbEllipse
10
14.534965
20
3.8761
30
0
11
2.32675207226252E-17
21
0.38
31
0
210
0
220
0
230
1
40
0.984808
41
-2.7613004137901
42
-2.57060639621298
0
ELLIPSE
5
E5
100
AcDbEntity
8
1
62
256
6
ByLayer
370
18
48
1
60
0
100
AcDbEllipse
10
14.963427
20
3.198799
30
0
11
-7.80686550561765E-17
21
-0.425
31
0
210
0
220
0
230
1
40
0.984808
41
3.14159065697692
42
-2.57060639621302
0
ELLIPSE
5
E6
100
AcDbEntity
8
1
62
256
6
ByLayer
370
18
48
1
60
0
100
AcDbEllipse
10
15.214219
20
5.937494
30
0
11
2.32675207226252E-17
21
0.38
31
0
210
0
220
0
230
1
40
0.984808
41
-1.21675808061155
42
-0.38027396662469
0
ELLIPSE
5
E7
100
AcDbEntity
8
1
62
256
6
ByLayer
370
18
48
1
60
0
100
AcDbEllipse
10
15.70703
20
3.477883
30
0
11
2.32675207226252E-17
21
0.38
31
0
210
0
220
0
230
1
40
0.984808
41
-2.76130300633606
42
-1.5234088450164
0
ELLIPSE
5
E8
100
AcDbEntity
8
1
62
256
6
ByLayer
370
18
48
1
60
0
100
AcDbEllipse
10
15.957822
20
6.216578
30
0
11
-7.80686550561765E-17
21
-0.425
31
0
210
0
220
0
230
1
40
0.984808
41
-1.21675808061156
42
-3.08050918389569E-06
0
ELLIPSE
5
E9
100
AcDbEntity
8
1
62
256
6
ByLayer
370
18
48
1
60
0
100
AcDbEllipse
10
15.321706
20
4.707689
30
0
11
-7.34763812293426E-16
21
-4
31
0
210
0
220
0
230
1
40
0.984808
41
-3.1415054353455
42
-2.25469944319128E-16
0
ELLIPSE
5
EA
100
AcDbEntity
8
1
62
256
6
ByLayer
370
18
48
1
60
0
100
AcDbEllipse
10
16.49891
20
3.516016
30
0
11
-7.80686550561765E-17
21
-0.425
31
0
210
0
220
0
230
1
40
0.984808
41
-3.14156992923294
42
-1.52340884501642
0
ELLIPSE
5
EB
100
AcDbEntity
8
1
62
256
6
ByLayer
370
18
48
1
60
0
100
AcDbEllipse
10
16.386284
20
5.539277
30
0
11
2.32675207226252E-17
21
0.38
31
0
210
0
220
0
230
1
40
0.984808
41
-2.26395563180808
42
-0.380358348151592
0
ELLIPSE
5
EC
100
AcDbEntity
8
1
62
256
6
ByLayer
370
18
48
1
60
0
100
AcDbEllipse
10
16.632689
20
4.309471
30
0
11
2.32675207226252E-17
21
0.38
31
0
210
0
220
0
230
1
40
0.984808
41
-2.89446096032376
42
-0.476211293819796
0
ELLIPSE
5
ED
100
AcDbEntity
8
1
62
256
6
ByLayer
370
18
48
1
60
0
100
AcDbEllipse
10
15.460624
20
4.707689
30
0
11
-2.1124459603436E-16
21
-1.15
31
0
210
0
220
0
230
1
40
0.984808
41
-1.00532087102657
42
-0.322907939023668
0
ELLIPSE
5
EE
100
AcDbEntity
8
1
62
256
6
ByLayer
370
18
48
1
60
0
100
AcDbEllipse
10
15.460624
20
4.707689
30
0
11
-2.1124459603436E-16
21
-1.15
31
0
210
0
220
0
230
1
40
0.984808
41
-2.3005402022213
42
-1.65926216958503
0
ELLIPSE
5
EF
100
AcDbEntity
8
1
62
256
6
ByLayer
370
18
48
1
60
0
100
AcDbEllipse
10
15.460624
20
4.707689
30
0
11
-2.1124459603436E-16
21
-1.15
31
0
210
0
220
0
230
1
40
0.984808
41
0
42
-2.82420416317839
0
ELLIPSE
5
F0
100
AcDbEntity
8
1
62
256
6
ByLayer
370
18
48
1
60
0
100
AcDbEllipse
10
15.3738
20
4.707689
30
0
11
-2.1124459603436E-16
21
-1.15
31
0
210
0
220
0
230
1
40
0.984808
41
0.0762704620299189
42
3.10329330634056
0
ELLIPSE
5
F1
100
AcDbEntity
8
1
62
256
6
ByLayer
370
18
48
1
60
0
100
AcDbEllipse
10
28.149422
20
0.075041
30
0
11
-4.7392265892926E-16
21
-2.58
31
0
210
0
220
0
230
1
40
0.984808
41
-0.089633649021207
42
-2.5125042244864E-16
0
ELLIPSE
5
F2
100
AcDbEntity
8
1
62
256
6
ByLayer
370
18
48
1
60
0
100
AcDbEllipse
10
28.149422
20
0.075041
30
0
11
-4.7392265892926E-16
21
-2.58
31
0
210
0
220
0
230
1
40
0.984808
41
0
42
2.57208078375601
0
ELLIPSE
5
F3
100
AcDbEntity
8
1
62
256
6
ByLayer
370
18
48
1
60
0
100
AcDbEllipse
10
29.392643
20
-5.083959
30
0
11
7.29253083701226E-17
21
1.191
31
0
210
0
220
0
230
1
40
0.984808
41
-3.14159265358824
42
-2.66162710928978
0
ELLIPSE
5
F4
100
AcDbEntity
8
1
62
256
6
ByLayer
370
18
48
1
60
0
100
AcDbEllipse
10
39.999143
20
0.075041
30
0
11
4.86168722467484E-17
21
0.794
31
0
210
0
220
0
230
1
40
0.984808
41
-2.66162710928976
42
-0.479965544296836
0
ELLIPSE
5
F5
100
AcDbEntity
8
1
62
256
6
ByLayer
370
18
48
1
60
0
100
AcDbEllipse
10
29.392643
20
5.234041
30
0
11
7.29253083701226E-17
21
1.191
31
0
210
0
220
0
230
1
40
0.984808
41
-0.479965544296875
42
1.55083944908673E-12
0
ELLIPSE
5
F6
100
AcDbEntity
8
1
62
256
6
ByLayer
370
18
48
1
60
0
100
AcDbEllipse
10
26.906202
20
-5.083959
30
0
11
7.29253083701226E-17
21
1.191
31
0
210
0
220
0
230
1
40
0.984808
41
2.66162710929292
42
-3.14159265358824
0
ELLIPSE
5
F7
100
AcDbEntity
8
1
62
256
6
ByLayer
370
18
48
1
60
0
100
AcDbEllipse
10
26.906202
20
5.234041
30
0
11
7.29253083701226E-17
21
1.191
31
0
210
0
220
0
230
1
40
0.984808
41
0
42
0.479965544300041
0
ELLIPSE
5
F8
100
AcDbEntity
8
1
62
256
6
ByLayer
370
18
48
1
60
0
100
AcDbEllipse
10
14.485768
20
11.883387
30
0
11
-3.24772553323094
21
1.32473365362508
31
0
210
0
220
0
230
1
40
0.315466
41
-0.073799058006255
42
0.649419048389989
0
ELLIPSE
5
F9
100
AcDbEntity
8
1
62
256
6
ByLayer
370
18
48
1
60
0
100
AcDbEllipse
10
10.31932
20
-0.760911
30
0
11
-3.40563304173937
21
0.842346813535897
31
0
210
0
220
0
230
1
40
0.425012
41
-0.659906163774023
42
0.0633119426209203
0
ELLIPSE
5
FA
100
AcDbEntity
8
1
62
256
6
ByLayer
370
18
48
1
60
0
100
AcDbEllipse
10
13.5374
20
9.989875
30
0
11
-2.8285917130074
21
3.05430993331557
31
0
210
0
220
0
230
1
40
0.43895
41
-0.681260415661866
42
-0.321644682341895
0
ELLIPSE
5
FB
100
AcDbEntity
8
1
62
256
6
ByLayer
370
18
48
1
60
0
100
AcDbEllipse
10
13.092302
20
8.02688
30
0
11
5.22371557769876
21
-1.72127730575505
31
0
210
0
220
0
230
1
40
0.055099
41
1.95183693222475
42
2.39360467151126
0
ELLIPSE
5
FC
100
AcDbEntity
8
1
62
256
6
ByLayer
370
18
48
1
60
0
100
AcDbEllipse
10
10.781282
20
1.01342
30
0
11
-5.29774327629709
21
1.49522340499062
31
0
210
0
220
0
230
1
40
0.291278
41
-0.64022249210219
42
-0.58723018578061
0
ELLIPSE
5
FD
100
AcDbEntity
8
1
62
256
6
ByLayer
370
18
48
1
60
0
100
AcDbEllipse
10
7.557063
20
2.477376
30
0
11
-0.669391738728143
21
2.92827033532516
31
0
210
0
220
0
230
1
40
0.989691
41
1.02315838605402
42
2.07484744911902
0
ELLIPSE
5
FE
100
AcDbEntity
8
1
62
256
6
ByLayer
370
18
48
1
60
0
100
AcDbEllipse
10
13.778404
20
10.109056
30
0
11
-5.15313390287546
21
1.93499410558779
31
0
210
0
220
0
230
1
40
0.181284
41
0.582051098335078
42
0.635043403415239
0
ELLIPSE
5
FF
100
AcDbEntity
8
1
62
256
6
ByLayer
370
18
48
1
60
0
100
AcDbEllipse
10
28.767361
20
0.040137
30
0
11
-0.479797139528364
21
2.17034109676226
31
0
210
0
220
0
230
1
40
0.750374
41
-2.05807031594827
42
-1.20285898246818
0
ELLIPSE
5
100
100
AcDbEntity
8
1
62
256
6
ByLayer
370
18
48
1
60
0
100
AcDbEllipse
10
10.939082
20
10.544553
30
0
11
-1.40807995611109
21
-1.42032068111332
31
0
210
0
220
0
230
1
40
0.783271
41
-2.6446327019783
42
-1.2319572077187
0
ELLIPSE
5
101
100
AcDbEntity
8
1
62
256
6
ByLayer
370
18
48
1
60
0
100
AcDbEllipse
10
28.767361
20
0.040137
30
0
11
-1.22942882660933
21
-1.98690016582161
31
0
210
0
220
0
230
1
40
0.768306
41
0.836476084509375
42
1.69168741799099
0
ELLIPSE
5
102
100
AcDbEntity
8
1
62
256
6
ByLayer
370
18
48
1
60
0
100
AcDbEllipse
10
11.467385
20
3.095597
30
0
11
5.22371557769876
21
-1.72127730575505
31
0
210
0
220
0
230
1
40
0.055099
41
1.95183693222478
42
2.39360467151122
0
ELLIPSE
5
103
100
AcDbEntity
8
1
62
256
6
ByLayer
370
18
48
1
60
0
100
AcDbEllipse
10
10.181929
20
10.443295
30
0
11
-0.669391738793729
21
2.92827033531555
31
0
210
0
220
0
230
1
40
0.989691
41
-0.0285306770314526
42
1.02315838603212
0
ELLIPSE
5
104
100
AcDbEntity
8
1
62
256
6
ByLayer
370
18
48
1
60
0
100
AcDbEllipse
10
8.310137
20
2.566255
30
0
11
0.511501247168572
21
-1.93348557639952
31
0
210
0
220
0
230
1
40
0.747978
41
-2.05852772702365
42
-0.645852232764069
0
ELLIPSE
5
105
100
AcDbEntity
8
1
62
256
6
ByLayer
370
18
48
1
60
0
100
AcDbEllipse
10
2.725707
20
1.303476
30
0
11
6.64836528070751
21
-2.19071657096097
31
0
210
0
220
0
230
1
40
0.055099
41
-0.843688341520611
42
-0.828907304780625
0
ELLIPSE
5
106
100
AcDbEntity
8
1
62
256
6
ByLayer
370
18
48
1
60
0
100
AcDbEllipse
10
10.912533
20
2.023956
30
0
11
-4.2009279042315
21
-1.73061023037146
31
0
210
0
220
0
230
1
40
0.496675
41
0.157125829234907
42
0.516741562589045
0
ELLIPSE
5
107
100
AcDbEntity
8
1
62
256
6
ByLayer
370
18
48
1
60
0
100
AcDbEllipse
10
14.566396
20
5.105906
30
0
11
2.32675207226252E-17
21
0.38
31
0
210
0
220
0
230
1
40
0.984808
41
-0.169560529414891
42
2.66538135977
0
ELLIPSE
5
108
100
AcDbEntity
8
1
62
256
6
ByLayer
370
18
48
1
60
0
100
AcDbEllipse
10
15.984867
20
3.477883
30
0
11
2.32675207226252E-17
21
0.38
31
0
210
0
220
0
230
1
40
0.984808
41
1.92483457297827
42
-1.52340884501635
0
ELLIPSE
5
109
100
AcDbEntity
8
1
62
256
6
ByLayer
370
18
48
1
60
0
100
AcDbEllipse
10
16.910526
20
4.309471
30
0
11
2.32675207226252E-17
21
0.38
31
0
210
0
220
0
230
1
40
0.984808
41
2.97203212417489
42
-0.476211293819712
0
ELLIPSE
5
10A
100
AcDbEntity
8
1
62
256
6
ByLayer
370
18
48
1
60
0
100
AcDbEllipse
10
14.700175
20
5.899362
30
0
11
-7.80686550561765E-17
21
-0.425
31
0
210
0
220
0
230
1
40
0.984808
41
-0.169560529414839
42
1.61818380857337
0
ELLIPSE
5
10B
100
AcDbEntity
8
1
62
256
6
ByLayer
370
18
48
1
60
0
100
AcDbEllipse
10
15.610996
20
4.707689
30
0
11
2.44921270764475E-16
21
4
31
0
210
0
220
0
230
1
40
0.984808
41
0
42
6.28318530717959
0
ELLIPSE
5
10C
100
AcDbEntity
8
1
62
256
6
ByLayer
370
18
48
1
60
0
100
AcDbEllipse
10
15.241264
20
3.198799
30
0
11
-7.80686550561765E-17
21
-0.425
31
0
210
0
220
0
230
1
40
0.984808
41
1.92483457297824
42
-2.57060639621302
0
ELLIPSE
5
10D
100
AcDbEntity
8
1
62
256
6
ByLayer
370
18
48
1
60
0
100
AcDbEllipse
10
16.235659
20
6.216578
30
0
11
-7.80686550561765E-17
21
-0.425
31
0
210
0
220
0
230
1
40
0.984808
41
-1.21675808061156
42
0.570986257376845
0
ELLIPSE
5
10E
100
AcDbEntity
8
1
62
256
6
ByLayer
370
18
48
1
60
0
100
AcDbEllipse
10
15.492056
20
5.937494
30
0
11
2.32675207226252E-17
21
0.38
31
0
210
0
220
0
230
1
40
0.984808
41
-1.21675808061156
42
1.61818380857341
0
ELLIPSE
5
10F
100
AcDbEntity
8
1
62
256
6
ByLayer
370
18
48
1
60
0
100
AcDbEllipse
10
14.812802
20
3.8761
30
0
11
2.32675207226252E-17
21
0.38
31
0
210
0
220
0
230
1
40
0.984808
41
0.877637021781642
42
-2.57060639621293
0
ELLIPSE
5
110
100
AcDbEntity
8
1
62
256
6
ByLayer
370
18
48
1
60
0
100
AcDbEllipse
10
15.738461
20
4.707689
30
0
11
1.40829730689573E-16
21
2.3
31
0
210
0
220
0
230
1
40
0.984808
41
0
42
6.28318530717959
0
ELLIPSE
5
111
100
AcDbEntity
8
1
62
256
6
ByLayer
370
18
48
1
60
0
100
AcDbEllipse
10
16.776747
20
3.516016
30
0
11
-7.80686550561765E-17
21
-0.425
31
0
210
0
220
0
230
1
40
0.984808
41
2.97203212417489
42
-1.52340884501644
0
ELLIPSE
5
112
100
AcDbEntity
8
1
62
256
6
ByLayer
370
18
48
1
60
0
100
AcDbEllipse
10
14.202978
20
4.390472
30
0
11
-7.80686550561765E-17
21
-0.425
31
0
210
0
220
0
230
1
40
0.984808
41
0.877637021781641
42
2.66538135977004
0
ELLIPSE
5
113
100
AcDbEntity
8
1
62
256
6
ByLayer
370
18
48
1
60
0
100
AcDbEllipse
10
16.996107
20
5.024905
30
0
11
-7.80686550561765E-17
21
-0.425
31
0
210
0
220
0
230
1
40
0.984808
41
-2.26395563180821
42
-0.476211293819739
0
ELLIPSE
5
114
100
AcDbEntity
8
1
62
256
6
ByLayer
370
18
48
1
60
0
100
AcDbEllipse
10
17.273944
20
5.024905
30
0
11
-7.80686550561765E-17
21
-0.425
31
0
210
0
220
0
230
1
40
0.984808
41
-2.26395563180822
42
-0.476211293819683
0
ELLIPSE
5
115
100
AcDbEntity
8
1
62
256
6
ByLayer
370
18
48
1
60
0
100
AcDbEllipse
10
16.664121
20
5.539277
30
0
11
2.32675207226252E-17
21
0.38
31
0
210
0
220
0
230
1
40
0.984808
41
-2.26395563180808
42
0.570986257376876
0
ELLIPSE
5
116
100
AcDbEntity
8
1
62
256
6
ByLayer
370
18
48
1
60
0
100
AcDbEllipse
10
9.69681
20
15.918796
30
0
11
-0.720452694079719
21
0.369620644360304
31
0
210
0
220
0
230
1
40
0.079241
41
1.41755338008901
42
2.98834970688548
0
ELLIPSE
5
117
100
AcDbEntity
8
1
62
256
6
ByLayer
370
18
48
1
60
0
100
AcDbEllipse
10
15.780682
20
-2.385355
30
0
11
-4.35154490004312E-16
21
-2.36894894780438
31
0
210
0
220
0
230
1
40
0.984808
41
-1.09083078249489
42
0.479965544300004
0
ELLIPSE
5
118
100
AcDbEntity
8
1
62
256
6
ByLayer
370
18
48
1
60
0
100
AcDbEllipse
10
1.435335
20
-9.153048
30
0
11
-0.0173014136225591
21
-2.52989857793601
31
0
210
0
220
0
230
1
40
0.081871
41
-1.48745845143861
42
0.0833378753590219
0
POINT
5
6C
100
AcDbEntity
8
2
62
256
6
ByLayer
370
18
48
1
60
0
100
AcDbPoint
10
40.781367
20
0.5567
30
0
39
0
210
0
220
0
230
1
50
360
0
POINT
5
6E
100
AcDbEntity
8
80
62
256
6
ByLayer
370
18
48
1
60
0
100
AcDbPoint
10
0
20
0
30
0
39
0
210
0
220
0
230
1
50
360
0
POINT
5
70
100
AcDbEntity
8
81
62
256
6
ByLayer
370
18
48
1
60
0
100
AcDbPoint
10
40.781367
20
0.5567
30
0
39
0
210
0
220
0
230
1
50
360
0
SPLINE
5
119
100
AcDbEntity
8
1
62
256
6
ByLayer
370
18
48
1
60
0
100
AcDbSpline
70
4
71
3
72
10
73
6
40
0
40
0
40
0
40
0
40
0.411670475231704
40
0.411670475231704
40
1
40
1
40
1
40
1
41
1
10
10.8039093943605
20
13.3865174465848
30
0
41
1
10
10.6495260672503
20
13.4077473804396
30
0
41
1
10
10.4899717999563
20
13.4224211002297
30
0
41
1
10
10.0904733670923
20
13.4364188466407
30
0
41
1
10
9.84371632750617
20
13.4259173076901
30
0
41
1
10
9.5954831099159
20
13.3892721511197
30
0
0
SPLINE
5
11A
100
AcDbEntity
8
1
62
256
6
ByLayer
370
18
48
1
60
0
100
AcDbSpline
70
4
71
3
72
8
73
4
40
0
40
0
40
0
40
0
40
1
40
1
40
1
40
1
41
1
10
30.0046802853574
20
1.3578797897714
30
0
41
1
10
29.9597752070055
20
1.43071313779953
30
0
41
1
10
29.912888909374
20
1.49999935320892
30
0
41
1
10
29.8649535018608
20
1.5646210486033
30
0
0
SPLINE
5
11B
100
AcDbEntity
8
1
62
256
6
ByLayer
370
18
48
1
60
0
100
AcDbSpline
70
4
71
3
72
10
73
6
40
0
40
0
40
0
40
0
40
0.5
40
0.5
40
1
40
1
40
1
40
1
41
1
10
6.8978589735101
20
-0.0118302525098386
30
0
41
1
10
6.61796078832242
20
0.320776921577192
30
0
41
1
10
6.51106098357997
20
0.684325418137462
30
0
41
1
10
6.3871293202414
20
1.70629623662276
30
0
41
1
10
6.41798240489607
20
2.41962876158837
30
0
41
1
10
6.61233061551212
20
3.11313514641461
30
0
0
SPLINE
5
11C
100
AcDbEntity
8
1
62
256
6
ByLayer
370
18
48
1
60
0
100
AcDbSpline
70
4
71
3
72
8
73
4
40
0
40
0
40
0
40
0
40
1
40
1
40
1
40
1
41
1
10
6.63267903039434
20
3.1799097532309
30
0
41
1
10
6.62532913508062
20
3.15760436262568
30
0
41
1
10
6.61855528851561
20
3.13534708475791
30
0
41
1
10
6.61233061551218
20
3.11313514641461
30
0
0
SPLINE
5
11D
100
AcDbEntity
8
1
62
256
6
ByLayer
370
18
48
1
60
0
100
AcDbSpline
70
4
71
3
72
10
73
6
40
0
40
0
40
0
40
0
40
0.5
40
0.5
40
1
40
1
40
1
40
1
41
1
10
21.8984912330614
20
-3.48127290567339
30
0
41
1
10
20.5931194703636
20
-3.58001840635441
30
0
41
1
10
19.2872385979579
20
-3.57451243609486
30
0
41
1
10
16.6742634485748
20
-3.31502907700775
30
0
41
1
10
15.3688272813276
20
-3.106388528721
30
0
41
1
10
14.111692906829
20
-2.69254642109894
30
0
0
SPLINE
5
11E
100
AcDbEntity
8
1
62
256
6
ByLayer
370
18
48
1
60
0
100
AcDbSpline
70
4
71
2
72
6
73
3
40
0
40
0
40
0
40
1
40
1
40
1
41
1.02805999725224
10
18.7751796502213
20
9.89684726174842
30
0
41
0.93055444607248
10
18.8625802645311
20
9.334228673815
30
0
41
0.937301687719828
10
18.5737706685101
20
7.98643283501067
30
0
0
SPLINE
5
11F
100
AcDbEntity
8
1
62
256
6
ByLayer
370
18
48
1
60
0
100
AcDbSpline
70
4
71
3
72
15
73
11
40
0
40
0
40
0
40
0
40
0.322163720426459
40
0.322163720426459
40
0.644833452600231
40
0.644833452600231
40
0.912233455904557
40
0.912233455904557
40
0.912233455904557
40
1
40
1
40
1
40
1
41
1
10
18.5737706685093
20
7.98643283500746
30
0
41
1
10
18.9934550144617
20
7.74517145094154
30
0
41
1
10
19.3772282519192
20
7.42767415078464
30
0
41
1
10
20.0191072784488
20
6.70169946525391
30
0
41
1
10
20.2861050302406
20
6.2828851637322
30
0
41
1
10
20.6257218703979
20
5.46568251949194
30
0
41
1
10
20.7268052575535
20
5.06574812707089
30
0
41
1
10
20.7578051150106
20
4.66388749402375
30
0
41
1
10
20.7681071062415
20
4.53033963099145
30
0
41
1
10
20.770865749128
20
4.39588749194752
30
0
41
1
10
20.7657917020086
20
4.26208853736847
30
0
0
SPLINE
5
120
100
AcDbEntity
8
1
62
256
6
ByLayer
370
18
48
1
60
0
100
AcDbSpline
70
4
71
3
72
12
73
8
40
0
40
0
40
0
40
0
40
0.286978363858296
40
0.286978363858296
40
0.569998995185617
40
0.569998995185617
40
1
40
1
40
1
40
1
41
1
10
20.765791702008
20
4.26208853736907
30
0
41
1
10
20.7569088695483
20
4.02821053459016
30
0
41
1
10
20.7289397381397
20
3.79405181965814
30
0
41
1
10
20.6368894501116
20
3.33819868059214
30
0
41
1
10
20.5729964935129
20
3.11481169739193
30
0
41
1
10
20.370137835771
20
2.57254731081738
30
0
41
1
10
20.2075640048736
20
2.25929961700871
30
0
41
1
10
20.0118280044193
20
1.97396686229084
30
0
0
SPLINE
5
121
100
AcDbEntity
8
1
62
256
6
ByLayer
370
18
48
1
60
0
100
AcDbSpline
70
4
71
3
72
8
73
4
40
0
40
0
40
0
40
0
40
1
40
1
40
1
40
1
41
1
10
6.79286008326261
20
3.13434981707158
30
0
41
1
10
7.66356495914761
20
3.21966400068348
30
0
41
1
10
8.9478870397395
20
3.44781031307477
30
0
41
1
10
10.3011612799529
20
3.71517408401564
30
0
0
SPLINE
5
122
100
AcDbEntity
8
1
62
256
6
ByLayer
370
18
48
1
60
0
100
AcDbSpline
70
4
71
3
72
11
73
7
40
0
40
0
40
0
40
0
40
0.423407924946041
40
0.740963868655572
40
0.899741840510338
40
1
40
1
40
1
40
1
41
1.02805999725224
10
18.7751796502213
20
9.89684726174842
30
0
41
1.02767136955277
10
19.5530788055448
20
9.52398419554232
30
0
41
1.02349884684923
10
22.0506103252269
20
7.41375676975345
30
0
41
1.01876555595691
10
24.9848719065417
20
4.39566572800803
30
0
41
1.01635405201144
10
26.0824862734141
20
3.25416803243684
30
0
41
1.01722454828215
10
26.5179521167212
20
3.0463806166386
30
0
41
1.0177432798788
10
26.7009965134843
20
2.96801012114621
30
0
0
SPLINE
5
123
100
AcDbEntity
8
1
62
256
6
ByLayer
370
18
48
1
60
0
100
AcDbSpline
70
4
71
3
72
10
73
6
40
0
40
0
40
0
40
0
40
0.5
40
0.5
40
1
40
1
40
1
40
1
41
1
10
25.4294408513206
20
-0.890894599574693
30
0
41
1
10
25.5135292841241
20
-1.38363632841944
30
0
41
1
10
25.652204904942
20
-1.84184955609499
30
0
41
1
10
26.2588808095456
20
-2.54996546415688
30
0
41
1
10
26.7521208892573
20
-2.781688581906
30
0
41
1
10
27.4673979256378
20
-2.69240170499523
30
0
0
SPLINE
5
124
100
AcDbEntity
8
1
62
256
6
ByLayer
370
18
48
1
60
0
100
AcDbSpline
70
4
71
3
72
11
73
7
40
0
40
0
40
0
40
0
40
0.564783939443777
40
0.564783939443777
40
0.564783939443777
40
1
40
1
40
1
40
1
41
1
10
27.0942278285145
20
5.51343308974552
30
0
41
1
10
26.7823059619985
20
5.68837866371615
30
0
41
1
10
26.4326176840532
20
5.90428034063203
30
0
41
1
10
26.0918927258496
20
6.16588123036837
30
0
41
1
10
25.8271679395222
20
6.36913091305561
30
0
41
1
10
25.559766356536
20
6.59606987718831
30
0
41
1
10
25.2964045453203
20
6.83068127019942
30
0
0
SPLINE
5
125
100
AcDbEntity
8
1
62
256
6
ByLayer
370
18
48
1
60
0
100
AcDbSpline
70
4
71
3
72
8
73
4
40
0
40
0
40
0
40
0
40
1
40
1
40
1
40
1
41
1
10
24.3951468371216
20
-3.64981055348295
30
0
41
1
10
24.2942377487258
20
-3.63286380830812
30
0
41
1
10
24.1937763132801
20
-3.61362386316409
30
0
41
1
10
24.0939121455723
20
-3.59189567895299
30
0
0
SPLINE
5
126
100
AcDbEntity
8
1
62
256
6
ByLayer
370
18
48
1
60
0
100
AcDbSpline
70
4
71
3
72
8
73
4
40
0
40
0
40
0
40
0
40
1
40
1
40
1
40
1
41
1
10
16.0345074546644
20
0.280301628883251
30
0
41
1
10
15.7528377871035
20
0.314413890911339
30
0
41
1
10
15.4704596743393
20
0.376925972821482
30
0
41
1
10
15.2003015391709
20
0.468714088091474
30
0
0
SPLINE
5
127
100
AcDbEntity
8
1
62
256
6
ByLayer
370
18
48
1
60
0
100
AcDbSpline
70
4
71
3
72
8
73
4
40
0
40
0
40
0
40
0
40
1
40
1
40
1
40
1
41
1
10
11.6464463532535
20
12.3188842408805
30
0
41
1
10
12.1295445333248
20
11.6649775528016
30
0
41
1
10
12.6540243218549
20
10.3475420804038
30
0
41
1
10
13.1152709590279
20
8.8688439303217
30
0
0
SPLINE
5
128
100
AcDbEntity
8
1
62
256
6
ByLayer
370
18
48
1
60
0
100
AcDbSpline
70
4
71
3
72
10
73
6
40
0
40
0
40
0
40
0
40
0.5
40
0.5
40
1
40
1
40
1
40
1
41
1
10
18.6101347099426
20
10.9592808839663
30
0
41
1
10
19.86312301084
20
10.5202516869486
30
0
41
1
10
21.0147629191963
20
9.89575215606976
30
0
41
1
10
23.2459618645939
20
8.51484312581078
30
0
41
1
10
24.3077419849988
20
7.71141450720222
30
0
41
1
10
25.2964045453201
20
6.8306812701997
30
0
0
SPLINE
5
129
100
AcDbEntity
8
1
62
256
6
ByLayer
370
18
48
1
60
0
100
AcDbSpline
70
4
71
3
72
10
73
6
40
0
40
0
40
0
40
0
40
0.655488757716282
40
0.655488757716282
40
1
40
1
40
1
40
1
41
1
10
7.05477317465295
20
-0.426397763607952
30
0
41
1
10
6.69041236448516
20
-0.325823255810576
30
0
41
1
10
6.29615427509418
20
-0.175749129090889
30
0
41
1
10
5.71988546243324
20
0.172601305483539
30
0
41
1
10
5.52382415265595
20
0.315950672856985
30
0
41
1
10
5.34270766550594
20
0.482990715151715
30
0
0
SPLINE
5
12A
100
AcDbEntity
8
1
62
256
6
ByLayer
370
18
48
1
60
0
100
AcDbSpline
70
4
71
3
72
20
73
16
40
0
40
0
40
0
40
0
40
0.110576036200126
40
0.110576036200126
40
0.197179369122809
40
0.197179369122809
40
0.28429111738737
40
0.28429111738737
40
0.365904217918082
40
0.365904217918082
40
0.497270233392077
40
0.497270233392077
40
0.733496364826724
40
0.733496364826724
40
1
40
1
40
1
40
1
41
1
10
26.7009965135603
20
2.96801012111365
30
0
41
1
10
26.6712682441014
20
2.94445345951422
30
0
41
1
10
26.6450964993525
20
2.91175410404185
30
0
41
1
10
26.6119924441524
20
2.83323648794354
30
0
41
1
10
26.601989296967
20
2.79083352820561
30
0
41
1
10
26.5948975763305
20
2.69369030617292
30
0
41
1
10
26.5978762804044
20
2.63759572269711
30
0
41
1
10
26.6152022807614
20
2.52482164856144
30
0
41
1
10
26.6288944713319
20
2.46720676629218
30
0
41
1
10
26.6734245012295
20
2.31939108808896
30
0
41
1
10
26.7101076125422
20
2.22808921787797
30
0
41
1
10
26.8222856927064
20
1.9874022859847
30
0
41
1
10
26.907182279619
20
1.84356620757615
30
0
41
1
10
27.0921052741533
20
1.5594022755094
30
0
41
1
10
27.1949224366208
20
1.41914386856416
30
0
41
1
10
27.2987997803184
20
1.28650139631961
30
0
0
SPLINE
5
12B
100
AcDbEntity
8
1
62
256
6
ByLayer
370
18
48
1
60
0
100
AcDbSpline
70
4
71
3
72
12
73
8
40
0
40
0
40
0
40
0
40
0.108854002841677
40
0.502629245107341
40
0.699516866240173
40
0.896404487373004
40
1
40
1
40
1
40
1
41
1.0244126255267
10
20.7657915662666
20
4.262088597492
30
0
41
1.02394775696077
10
21.0742644926725
20
4.12545839891229
30
0
41
1.02173322391444
10
22.5303102776578
20
3.4713460622068
30
0
41
1.01876555595691
10
24.5487863287625
20
2.50235212867701
30
0
41
1.01610930227499
10
25.8825537143281
20
1.8214987968651
30
0
41
1.01814069306376
10
26.5272296444079
20
1.59348206513418
30
0
41
1.0200519600697
10
27.0929940417434
20
1.37044640646261
30
0
41
1.02076673234771
10
27.2987997803019
20
1.28650139632633
30
0
0
SPLINE
5
12C
100
AcDbEntity
8
1
62
256
6
ByLayer
370
18
48
1
60
0
100
AcDbSpline
70
4
71
3
72
8
73
4
40
0
40
0
40
0
40
0
40
1
40
1
40
1
40
1
41
1
10
11.1684285016853
20
2.96058543087318
30
0
41
1
10
11.2097895894909
20
2.90044230437797
30
0
41
1
10
11.248343232115
20
2.83867492705517
30
0
41
1
10
11.2838246565248
20
2.77572058997885
30
0
0
SPLINE
5
12D
100
AcDbEntity
8
1
62
256
6
ByLayer
370
18
48
1
60
0
100
AcDbSpline
70
4
71
3
72
12
73
8
40
0
40
0
40
0
40
0
40
0.471343086678526
40
0.471343086678526
40
0.892619726108219
40
0.892619726108219
40
1
40
1
40
1
40
1
41
1
10
10.3011612799529
20
3.71517408401564
30
0
41
1
10
10.4575806732503
20
3.62955768820933
30
0
41
1
10
10.6125312978958
20
3.52706879791998
30
0
41
1
10
10.8799424758257
20
3.30462536617688
30
0
41
1
10
10.9977235185537
20
3.18507567384597
30
0
41
1
10
11.1213156909459
20
3.02688164492616
30
0
41
1
10
11.1455299039378
20
2.99388226453851
30
0
41
1
10
11.1684285016853
20
2.96058543087318
30
0
0
SPLINE
5
12E
100
AcDbEntity
8
1
62
256
6
ByLayer
370
18
48
1
60
0
100
AcDbSpline
70
4
71
3
72
8
73
4
40
0
40
0
40
0
40
0
40
1
40
1
40
1
40
1
41
1
10
26.3252444573537
20
-3.1588938675807
30
0
41
1
10
26.7061661925407
20
-3.00454525480996
30
0
41
1
10
27.0875528718065
20
-2.84878026608794
30
0
41
1
10
27.4673979256379
20
-2.69240170499523
30
0
0
SPLINE
5
12F
100
AcDbEntity
8
1
62
256
6
ByLayer
370
18
48
1
60
0
100
AcDbSpline
70
4
71
3
72
8
73
4
40
0
40
0
40
0
40
0
40
1
40
1
40
1
40
1
41
1
10
21.8984912330616
20
-3.48127290567336
30
0
41
1
10
22.7053770887264
20
-3.42023562105692
30
0
41
1
10
23.4735592182098
20
-3.45692091281782
30
0
41
1
10
24.0939121455723
20
-3.59189567895299
30
0
0
SPLINE
5
130
100
AcDbEntity
8
1
62
256
6
ByLayer
370
18
48
1
60
0
100
AcDbSpline
70
4
71
3
72
8
73
4
40
0
40
0
40
0
40
0
40
1
40
1
40
1
40
1
41
1
10
13.2819617136749
20
1.12048345613195
30
0
41
1
10
12.4131966344827
20
1.41565246587413
30
0
41
1
10
11.7142667404873
20
2.01199149802787
30
0
41
1
10
11.2838246565248
20
2.77572058997885
30
0
0
SPLINE
5
131
100
AcDbEntity
8
1
62
256
6
ByLayer
370
18
48
1
60
0
100
AcDbSpline
70
4
71
3
72
8
73
4
40
0
40
0
40
0
40
0
40
1
40
1
40
1
40
1
41
1
10
27.0942278285144
20
5.51343308974555
30
0
41
1
10
27.1845577139286
20
5.46277035863591
30
0
41
1
10
27.2738946792598
20
5.40976998010473
30
0
41
1
10
27.3622366675024
20
5.35468472197331
30
0
0
SPLINE
5
132
100
AcDbEntity
8
1
62
256
6
ByLayer
370
18
48
1
60
0
100
AcDbSpline
70
4
71
3
72
8
73
4
40
0
40
0
40
0
40
0
40
1
40
1
40
1
40
1
41
1
10
13.3151897338696
20
8.94048751221769
30
0
41
1
10
13.2504894718013
20
8.91400724175867
30
0
41
1
10
13.1838440448311
20
8.89007779980608
30
0
41
1
10
13.1152709590365
20
8.86884393032324
30
0
0
SPLINE
5
133
100
AcDbEntity
8
1
62
256
6
ByLayer
370
18
48
1
60
0
100
AcDbSpline
70
4
71
3
72
8
73
4
40
0
40
0
40
0
40
0
40
1
40
1
40
1
40
1
41
1
10
18.5737706552802
20
7.9864328425837
30
0
41
1
10
18.3224097776157
20
8.13038538319819
30
0
41
1
10
18.0624782405686
20
8.24855569969097
30
0
41
1
10
17.7939194504236
20
8.33980042630719
30
0
0
SPLINE
5
134
100
AcDbEntity
8
1
62
256
6
ByLayer
370
18
48
1
60
0
100
AcDbSpline
70
4
71
3
72
8
73
4
40
0
40
0
40
0
40
0
40
1
40
1
40
1
40
1
41
1
10
11.9704973852017
20
8.7812590130666
30
0
41
1
10
11.0303042925283
20
9.77100953538539
30
0
41
1
10
10.1157250885524
20
10.6374678034796
30
0
41
1
10
9.42180570526682
20
11.1126483472798
30
0
0
SPLINE
5
135
100
AcDbEntity
8
1
62
256
6
ByLayer
370
18
48
1
60
0
100
AcDbSpline
70
4
71
3
72
8
73
4
40
0
40
0
40
0
40
0
40
1
40
1
40
1
40
1
41
1.01923193622652
10
24.3951979927633
20
-3.64979999536988
30
0
41
1.02059843499303
10
24.9508283382603
20
-3.53512165953352
30
0
41
1.02233811057541
10
25.6384921396427
20
-3.37036131929568
30
0
41
1.02417041321379
10
26.3251313724911
20
-3.15892868953735
30
0
0
SPLINE
5
136
100
AcDbEntity
8
1
62
256
6
ByLayer
370
18
48
1
60
0
100
AcDbSpline
70
4
71
3
72
11
73
7
40
0
40
0
40
0
40
0
40
0.423407924939469
40
0.74096386864407
40
0.899741840496371
40
1
40
1
40
1
40
1
41
1.02805999725225
10
14.9769072401748
20
-1.63011279887943
30
0
41
1.02767136955277
10
15.8223274875167
20
-1.79806351374239
30
0
41
1.02349884684923
10
19.0926824049639
20
-1.56293403045098
30
0
41
1.01876555595691
10
23.2294356888357
20
-0.931714982550242
30
0
41
1.01635405201137
10
24.775916500119
20
-0.710997171043384
30
0
41
1.01722454828226
10
25.2400296861456
20
-0.831845910645949
30
0
41
1.01774327987904
10
25.429440851321
20
-0.890894599574825
30
0
0
SPLINE
5
137
100
AcDbEntity
8
1
62
256
6
ByLayer
370
18
48
1
60
0
100
AcDbSpline
70
4
71
3
72
8
73
4
40
0
40
0
40
0
40
0
40
1
40
1
40
1
40
1
41
1
10
13.3151897338695
20
8.94048751221763
30
0
41
1
10
14.1065646297698
20
9.26437833751018
30
0
41
1
10
15.0041549261406
20
9.28764242844215
30
0
41
1
10
15.8755796249276
20
8.99156979434756
30
0
0
SPLINE
5
138
100
AcDbEntity
8
1
62
256
6
ByLayer
370
18
48
1
60
0
100
AcDbSpline
70
4
71
2
72
6
73
3
40
0
40
0
40
0
40
1
40
1
40
1
41
0.937301687603847
10
16.0345074528585
20
0.280301604858479
30
0
41
0.930554446910518
10
15.435087075305
20
-1.06749421628739
30
0
41
1.02805999725225
10
14.9769072401748
20
-1.63011279887943
30
0
0
SPLINE
5
139
100
AcDbEntity
8
1
62
256
6
ByLayer
370
18
48
1
60
0
100
AcDbSpline
70
4
71
3
72
12
73
8
40
0
40
0
40
0
40
0
40
0.46693897235863
40
0.46693897235863
40
0.92880323687657
40
0.92880323687657
40
1
40
1
40
1
40
1
41
1
10
13.1152709590365
20
8.86884393032324
30
0
41
1
10
12.9537973673151
20
8.81884312998289
30
0
41
1
10
12.7728313702672
20
8.78517236242317
30
0
41
1
10
12.4128344805332
20
8.75525147929037
30
0
41
1
10
12.2289829875768
20
8.75770188828764
30
0
41
1
10
12.0250857937501
20
8.77553802095409
30
0
41
1
10
11.9977225707583
20
8.7782526368199
30
0
41
1
10
11.9704973852017
20
8.7812590130666
30
0
0
SPLINE
5
13A
100
AcDbEntity
8
1
62
256
6
ByLayer
370
18
48
1
60
0
100
AcDbSpline
70
4
71
3
72
10
73
6
40
0
40
0
40
0
40
0
40
0.5
40
0.5
40
1
40
1
40
1
40
1
41
1
10
29.2550713570383
20
2.73281218844147
30
0
41
1
10
28.7607468618355
20
3.27854495470692
30
0
41
1
10
28.2491366893573
20
3.4770471451821
30
0
41
1
10
27.4003515816109
20
3.43854322219855
30
0
41
1
10
27.0349564845135
20
3.23269233167292
30
0
41
1
10
26.7009965135592
20
2.96801012111413
30
0
0
SPLINE
5
13B
100
AcDbEntity
8
1
62
256
6
ByLayer
370
18
48
1
60
0
100
AcDbSpline
70
4
71
3
72
8
73
4
40
0
40
0
40
0
40
0
40
1
40
1
40
1
40
1
41
1
10
28.6401703716114
20
-2.15233884821112
30
0
41
1
10
28.7155677805728
20
-2.1336191294825
30
0
41
1
10
28.7930657450383
20
-2.1100053569773
30
0
41
1
10
28.8712840347662
20
-2.08174009606751
30
0
0
SPLINE
5
13C
100
AcDbEntity
8
1
62
256
6
ByLayer
370
18
48
1
60
0
100
AcDbSpline
70
4
71
3
72
8
73
4
40
0
40
0
40
0
40
0
40
1
40
1
40
1
40
1
41
1
10
11.9704973852017
20
8.7812590130666
30
0
41
1
10
11.7146241538163
20
8.80951414482351
30
0
41
1
10
11.4709150948574
20
8.86300185194625
30
0
41
1
10
11.2377110258534
20
8.93417995996884
30
0
0
SPLINE
5
13D
100
AcDbEntity
8
1
62
256
6
ByLayer
370
18
48
1
60
0
100
AcDbSpline
70
4
71
3
72
15
73
11
40
0
40
0
40
0
40
0
40
0.227604479949747
40
0.227604479949747
40
0.479423709218444
40
0.479423709218444
40
0.785574270382837
40
0.785574270382837
40
0.785574270382837
40
1
40
1
40
1
40
1
41
1
10
20.0118280044193
20
1.97396686229084
30
0
41
1
10
19.8194777660835
20
1.69360102833988
30
0
41
1
10
19.5805744534976
20
1.43720042350029
30
0
41
1
10
19.0218456140349
20
0.978248387449923
30
0
41
1
10
18.690181155761
20
0.778246826981331
30
0
41
1
10
17.9205514332163
20
0.44051858392902
30
0
41
1
10
17.4642006892783
20
0.320203689562049
30
0
41
1
10
17.0064435753558
20
0.27267446133709
30
0
41
1
10
16.6838588692983
20
0.239180274901173
30
0
41
1
10
16.356074934092
20
0.241377009894023
30
0
41
1
10
16.0345074630895
20
0.280301627862912
30
0
0
SPLINE
5
13E
100
AcDbEntity
8
1
62
256
6
ByLayer
370
18
48
1
60
0
100
AcDbSpline
70
4
71
3
72
8
73
4
40
0
40
0
40
0
40
0
40
1
40
1
40
1
40
1
41
1
10
28.6127285410053
20
3.78314051851964
30
0
41
1
10
28.8282775496867
20
3.43561759379418
30
0
41
1
10
29.0427739640081
20
3.08490563416495
30
0
41
1
10
29.2550713570542
20
2.73281218842391
30
0
0
SPLINE
5
13F
100
AcDbEntity
8
1
62
256
6
ByLayer
370
18
48
1
60
0
100
AcDbSpline
70
4
71
3
72
20
73
16
40
0
40
0
40
0
40
0
40
0.332873226652405
40
0.332873226652405
40
0.501657261698235
40
0.501657261698235
40
0.63121232167653
40
0.63121232167653
40
0.722542323637681
40
0.722542323637681
40
0.814765347404185
40
0.814765347404185
40
0.896421359038793
40
0.896421359038793
40
1
40
1
40
1
40
1
41
1
10
26.9099837260027
20
0.10652622730106
30
0
41
1
10
26.7119337389623
20
0.0639867322946088
30
0
41
1
10
26.507236215421
20
0.0102109554033802
30
0
41
1
10
26.1921331353492
20
-0.106180748353751
30
0
41
1
10
26.0836940125021
20
-0.152105275156998
30
0
41
1
10
25.8951967605905
20
-0.251109528824429
30
0
41
1
10
25.812908776239
20
-0.301008150148164
30
0
41
1
10
25.6838812301668
20
-0.39782393510373
30
0
41
1
10
25.6328396287685
20
-0.442228506120785
30
0
41
1
10
25.5455107405912
20
-0.5348488474053
30
0
41
1
10
25.5083780767756
20
-0.584397930224156
30
0
41
1
10
25.4583822645192
20
-0.674269772991806
30
0
41
1
10
25.4425101267111
20
-0.716030706318008
30
0
41
1
10
25.4226474078231
20
-0.804039845578586
30
0
41
1
10
25.4224092002853
20
-0.849710192289109
30
0
41
1
10
25.4294408513206
20
-0.890894599574693
30
0
0
SPLINE
5
140
100
AcDbEntity
8
1
62
256
6
ByLayer
370
18
48
1
60
0
100
AcDbSpline
70
4
71
1
72
4
73
2
40
0
40
0
40
1
40
1
41
1
10
18.7751796502213
20
9.89684726174841
30
0
41
1
10
18.6101347099426
20
10.9592808839663
30
0
0
SPLINE
5
141
100
AcDbEntity
8
1
62
256
6
ByLayer
370
18
48
1
60
0
100
AcDbSpline
70
4
71
2
72
6
73
3
40
0
40
0
40
0
40
1
40
1
40
1
41
1.02805999725224
10
14.9769072401748
20
-1.6301127988794
30
0
41
1.02805999725224
10
14.5443000735018
20
-2.16132960998916
30
0
41
1.02805999725224
10
14.111692906829
20
-2.69254642109892
30
0
0
SPLINE
5
142
100
AcDbEntity
8
1
62
256
6
ByLayer
370
18
48
1
60
0
100
AcDbSpline
70
4
71
3
72
8
73
4
40
0
40
0
40
0
40
0
40
1
40
1
40
1
40
1
41
1
10
9.25754535021639
20
11.1458284569672
30
0
41
1
10
9.26489524553011
20
11.1681338475724
30
0
41
1
10
9.27270813303716
20
11.1901442479837
30
0
41
1
10
9.28096264087895
20
11.2118735864357
30
0
0
SPLINE
5
143
100
AcDbEntity
8
1
62
256
6
ByLayer
370
18
48
1
60
0
100
AcDbSpline
70
4
71
3
72
10
73
6
40
0
40
0
40
0
40
0
40
0.967465556419482
40
0.967465556419482
40
1
40
1
40
1
40
1
41
1
10
27.2987997803184
20
1.28650139631961
30
0
41
1
10
27.5517793766334
20
0.963350509852489
30
0
41
1
10
27.8073566531322
20
0.650215055344631
30
0
41
1
10
28.0738563910693
20
0.343743666550097
30
0
41
1
10
28.0825371997452
20
0.333783457966717
30
0
41
1
10
28.0912207911704
20
0.323843097168862
30
0
0
SPLINE
5
144
100
AcDbEntity
8
1
62
256
6
ByLayer
370
18
48
1
60
0
100
AcDbSpline
70
4
71
3
72
8
73
4
40
0
40
0
40
0
40
0
40
1
40
1
40
1
40
1
41
1.02417048357497
10
28.6126750825982
20
3.78321487726025
30
0
41
1.02233815524058
10
28.1896061825436
20
4.37168543771674
30
0
41
1.02059845272928
10
27.7380556061808
20
4.92350810560729
30
0
41
1.01923193651505
10
27.3622713441919
20
5.354644937545
30
0
0
SPLINE
5
145
100
AcDbEntity
8
1
62
256
6
ByLayer
370
18
48
1
60
0
100
AcDbSpline
70
4
71
3
72
10
73
6
40
0
40
0
40
0
40
0
40
0.264715639145584
40
0.264715639145584
40
1
40
1
40
1
40
1
41
1
10
28.09122079116
20
0.323843097180969
30
0
41
1
10
27.9890229890132
20
0.308798134296694
30
0
41
1
10
27.8861479562488
20
0.292467368400281
30
0
41
1
10
27.4955172517205
20
0.226600194463884
30
0
41
1
10
27.2040574743864
20
0.169756980357562
30
0
41
1
10
26.9099837260027
20
0.10652622730106
30
0
0
SPLINE
5
146
100
AcDbEntity
8
1
62
256
6
ByLayer
370
18
48
1
60
0
100
AcDbSpline
70
4
71
3
72
8
73
4
40
0
40
0
40
0
40
0
40
1
40
1
40
1
40
1
41
1
10
10.3011612799529
20
3.71517408401564
30
0
41
1
10
10.0764977220458
20
3.83814402841676
30
0
41
1
10
9.84599784925331
20
3.93171884487143
30
0
41
1
10
9.61279378024926
20
4.00289695289402
30
0
0
SPLINE
5
147
100
AcDbEntity
8
1
62
256
6
ByLayer
370
18
48
1
60
0
100
AcDbSpline
70
4
71
3
72
8
73
4
40
0
40
0
40
0
40
0
40
1
40
1
40
1
40
1
41
1
10
11.1684285016853
20
2.96058543087318
30
0
41
1
10
9.90618210633238
20
2.01104974535207
30
0
41
1
10
8.67316721468376
20
1.17266560594513
30
0
41
1
10
7.84817394320692
20
0.791924180252636
30
0
0
SPLINE
5
148
100
AcDbEntity
8
1
62
256
6
ByLayer
370
18
48
1
60
0
100
AcDbSpline
70
4
71
3
72
12
73
8
40
0
40
0
40
0
40
0
40
0.108853988607129
40
0.502629237162306
40
0.699516861439894
40
0.896404485717483
40
1
40
1
40
1
40
1
41
1.02441262532206
10
20.0118280044194
20
1.9739668622908
30
0
41
1.02394775682001
10
20.3375483240826
20
1.88967903484678
30
0
41
1.02173322384668
10
21.8791551993076
20
1.49522682041085
30
0
41
1.01876555595691
10
24.042256177132
20
0.965139365331922
30
0
41
1.01610930227499
10
25.4887376853136
20
0.626349753401611
30
0
41
1.01814069306376
10
26.1275599077192
20
0.380568246716245
30
0
41
1.02005196006971
10
26.7002126546777
20
0.178437284277991
30
0
41
1.02076673234773
10
26.9099837259929
20
0.106526227304421
30
0
0
SPLINE
5
149
100
AcDbEntity
8
1
62
256
6
ByLayer
370
18
48
1
60
0
100
AcDbSpline
70
4
71
3
72
10
73
6
40
0
40
0
40
0
40
0
40
0.5
40
0.5
40
1
40
1
40
1
40
1
41
1
10
9.2809626408789
20
11.2118735864357
30
0
41
1
10
9.53930448022925
20
11.8919380277241
30
0
41
1
10
9.92079409692877
20
12.4367595406519
30
0
41
1
10
10.5977724260004
20
13.081556951793
30
0
41
1
10
10.8769603530066
20
13.2407652396737
30
0
41
1
10
11.277696143919
20
13.2800568701249
30
0
0
LINE
5
72
100
AcDbEntity
8
1
62
256
6
ByLayer
370
18
48
1
60
0
100
AcDbLine
10
11.670785
20
13.269373
30
0
11
10.805474
21
13.386302
31
0
39
0
210
0
220
0
230
1
0
LINE
5
74
100
AcDbEntity
8
1
62
256
6
ByLayer
370
18
48
1
60
0
100
AcDbLine
10
15.241264
20
3.623799
30
0
11
14.963427
21
3.623799
31
0
39
0
210
0
220
0
230
1
0
LINE
5
75
100
AcDbEntity
8
1
62
256
6
ByLayer
370
18
48
1
60
0
100
AcDbLine
10
15.957822
20
5.791578
30
0
11
16.235659
21
5.791578
31
0
39
0
210
0
220
0
230
1
0
LINE
5
76
100
AcDbEntity
8
1
62
256
6
ByLayer
370
18
48
1
60
0
100
AcDbLine
10
16.776747
20
3.941016
30
0
11
16.49891
21
3.941016
31
0
39
0
210
0
220
0
230
1
0
LINE
5
77
100
AcDbEntity
8
1
62
256
6
ByLayer
370
18
48
1
60
0
100
AcDbLine
10
14.474854
20
5.474362
30
0
11
14.700175
21
5.474362
31
0
39
0
210
0
220
0
230
1
0
LINE
5
78
100
AcDbEntity
8
1
62
256
6
ByLayer
370
18
48
1
60
0
100
AcDbLine
10
11.294329
20
8.871513
30
0
11
11.877867
21
8.792661
31
0
39
0
210
0
220
0
230
1
0
LINE
5
79
100
AcDbEntity
8
1
62
256
6
ByLayer
370
18
48
1
60
0
100
AcDbLine
10
15.321706
20
0.707689
30
0
11
15.610996
21
0.707689
31
0
39
0
210
0
220
0
230
1
0
LINE
5
7A
100
AcDbEntity
8
1
62
256
6
ByLayer
370
18
48
1
60
0
100
AcDbLine
10
15.610996
20
8.707689
30
0
11
15.321706
21
8.707689
31
0
39
0
210
0
220
0
230
1
0
LINE
5
7B
100
AcDbEntity
8
80
62
256
6
ByLayer
370
18
48
1
60
0
100
AcDbLine
10
0
20
0
30
0
11
-5
21
0
31
0
39
0
210
0
220
0
230
1
0
LINE
5
7C
100
AcDbEntity
8
81
62
256
6
ByLayer
370
18
48
1
60
0
100
AcDbLine
10
40.781367
20
0.5567
30
0
11
50.781367
21
0.5567
31
0
39
0
210
0
220
0
230
1
0
LINE
5
7D
100
AcDbEntity
8
1
62
256
6
ByLayer
370
18
48
1
60
0
100
AcDbLine
10
27.77433
20
6.849322
30
0
11
28.57703
21
6.425017
31
0
39
0
210
0
220
0
230
1
0
LINE
5
7E
100
AcDbEntity
8
1
62
256
6
ByLayer
370
18
48
1
60
0
100
AcDbLine
10
28.57703
20
-6.274936
30
0
11
27.77433
21
-6.699241
31
0
39
0
210
0
220
0
230
1
0
LINE
5
7F
100
AcDbEntity
8
1
62
256
6
ByLayer
370
18
48
1
60
0
100
AcDbLine
10
7.247254
20
-5.177317
30
0
11
8.666981
21
-0.868745
31
0
39
0
210
0
220
0
230
1
0
LINE
5
80
100
AcDbEntity
8
1
62
256
6
ByLayer
370
18
48
1
60
0
100
AcDbLine
10
13.17364
20
12.80802
30
0
11
13.613295
21
14.14228
31
0
39
0
210
0
220
0
230
1
0
LINE
5
81
100
AcDbEntity
8
1
62
256
6
ByLayer
370
18
48
1
60
0
100
AcDbLine
10
25.971488
20
6.26286
30
0
11
27.245528
21
6.936314
31
0
39
0
210
0
220
0
230
1
0
LINE
5
82
100
AcDbEntity
8
1
62
256
6
ByLayer
370
18
48
1
60
0
100
AcDbLine
10
16.857923
20
-4.486638
30
0
11
18.727362
21
-3.498457
31
0
39
0
210
0
220
0
230
1
0
LINE
5
83
100
AcDbEntity
8
1
62
256
6
ByLayer
370
18
48
1
60
0
100
AcDbLine
10
20.992918
20
-3.50488
30
0
11
27.256339
21
-6.780518
31
0
39
0
210
0
220
0
230
1
0
LINE
5
84
100
AcDbEntity
8
1
62
256
6
ByLayer
370
18
48
1
60
0
100
AcDbLine
10
1.487296
20
-11.621989
30
0
11
5.449719
21
0.403132
31
0
39
0
210
0
220
0
230
1
0
LINE
5
85
100
AcDbEntity
8
1
62
256
6
ByLayer
370
18
48
1
60
0
100
AcDbLine
10
9.731049
20
13.39607
30
0
11
10.439079
21
15.544793
31
0
39
0
210
0
220
0
230
1
0
LINE
5
86
100
AcDbEntity
8
1
62
256
6
ByLayer
370
18
48
1
60
0
100
AcDbLine
10
27.324808
20
6.839332
30
0
11
26.075547
21
6.178976
31
0
39
0
210
0
220
0
230
1
0
LINE
5
87
100
AcDbEntity
8
1
62
256
6
ByLayer
370
18
48
1
60
0
100
AcDbLine
10
14.987057
20
-4.601334
30
0
11
17.320788
21
-3.367729
31
0
39
0
210
0
220
0
230
1
0
LINE
5
88
100
AcDbEntity
8
1
62
256
6
ByLayer
370
18
48
1
60
0
100
AcDbLine
10
1.435335
20
-11.674285
30
0
11
5.421921
21
0.42417
31
0
39
0
210
0
220
0
230
1
0
LINE
5
89
100
AcDbEntity
8
1
62
256
6
ByLayer
370
18
48
1
60
0
100
AcDbLine
10
9.695797
20
13.394486
30
0
11
10.404349
21
15.544793
31
0
39
0
210
0
220
0
230
1
0
LINE
5
8A
100
AcDbEntity
8
1
62
256
6
ByLayer
370
18
48
1
60
0
100
AcDbLine
10
21.246189
20
-3.498299
30
0
11
25.195712
21
-5.563816
31
0
39
0
210
0
220
0
230
1
0
LINE
5
8B
100
AcDbEntity
8
1
62
256
6
ByLayer
370
18
48
1
60
0
100
AcDbLine
10
26.39315
20
-6.190051
30
0
11
27.336183
21
-6.683238
31
0
39
0
210
0
220
0
230
1
0
LINE
5
8C
100
AcDbEntity
8
1
62
256
6
ByLayer
370
18
48
1
60
0
100
AcDbLine
10
1.227488
20
-9.362229
30
0
11
4.779364
21
1.416968
31
0
39
0
210
0
220
0
230
1
0
LINE
5
8D
100
AcDbEntity
8
1
62
256
6
ByLayer
370
18
48
1
60
0
100
AcDbLine
10
8.592085
20
12.987778
30
0
11
9.557891
21
15.918796
31
0
39
0
210
0
220
0
230
1
0
LINE
5
8E
100
AcDbEntity
8
1
62
256
6
ByLayer
370
18
48
1
60
0
100
AcDbLine
10
14.8928
20
-4.468282
30
0
11
17.058036
21
-3.323743
31
0
39
0
210
0
220
0
230
1
0
LINE
5
8F
100
AcDbEntity
8
1
62
256
6
ByLayer
370
18
48
1
60
0
100
AcDbLine
10
14.503244
20
5.480456
30
0
11
14.629547
21
5.480456
31
0
39
0
210
0
220
0
230
1
0
LINE
5
90
100
AcDbEntity
8
1
62
256
6
ByLayer
370
18
48
1
60
0
100
AcDbLine
10
21.360474
20
-3.495213
30
0
11
26.364614
21
-6.140389
31
0
39
0
210
0
220
0
230
1
0
LINE
5
91
100
AcDbEntity
8
1
62
256
6
ByLayer
370
18
48
1
60
0
100
AcDbLine
10
26.364614
20
6.290471
30
0
11
26.107712
21
6.154673
31
0
39
0
210
0
220
0
230
1
0
LINE
5
92
100
AcDbEntity
8
1
62
256
6
ByLayer
370
18
48
1
60
0
100
AcDbLine
10
26.364614
20
6.290471
30
0
11
26.286463
21
6.290471
31
0
39
0
210
0
220
0
230
1
0
LINE
5
93
100
AcDbEntity
8
1
62
256
6
ByLayer
370
18
48
1
60
0
100
AcDbLine
10
26.289771
20
-6.140389
30
0
11
26.364614
21
-6.140389
31
0
39
0
210
0
220
0
230
1
0
LINE
5
94
100
AcDbEntity
8
1
62
256
6
ByLayer
370
18
48
1
60
0
100
AcDbLine
10
26.906202
20
-6.274959
30
0
11
26.555502
21
-6.274959
31
0
39
0
210
0
220
0
230
1
0
LINE
5
95
100
AcDbEntity
8
1
62
256
6
ByLayer
370
18
48
1
60
0
100
AcDbLine
10
26.541047
20
6.425041
30
0
11
26.906202
21
6.425041
31
0
39
0
210
0
220
0
230
1
0
LINE
5
96
100
AcDbEntity
8
1
62
256
6
ByLayer
370
18
48
1
60
0
100
AcDbLine
10
26.906202
20
6.425041
30
0
11
29.392643
21
6.425041
31
0
39
0
210
0
220
0
230
1
0
LINE
5
97
100
AcDbEntity
8
1
62
256
6
ByLayer
370
18
48
1
60
0
100
AcDbLine
10
40.360201
20
0.779327
30
0
11
29.934231
21
6.290471
31
0
39
0
210
0
220
0
230
1
0
LINE
5
98
100
AcDbEntity
8
1
62
256
6
ByLayer
370
18
48
1
60
0
100
AcDbLine
10
29.392643
20
-6.274959
30
0
11
26.906202
21
-6.274959
31
0
39
0
210
0
220
0
230
1
0
LINE
5
99
100
AcDbEntity
8
1
62
256
6
ByLayer
370
18
48
1
60
0
100
AcDbLine
10
29.934231
20
-6.140389
30
0
11
40.360201
21
-0.629246
31
0
39
0
210
0
220
0
230
1
0
LINE
5
9A
100
AcDbEntity
8
1
62
256
6
ByLayer
370
18
48
1
60
0
100
AcDbLine
10
11.646446
20
12.318884
30
0
11
18.77518
21
9.896847
31
0
39
0
210
0
220
0
230
1
0
LINE
5
9B
100
AcDbEntity
8
1
62
256
6
ByLayer
370
18
48
1
60
0
100
AcDbLine
10
7.848174
20
0.791924
30
0
11
14.976907
21
-1.630113
31
0
39
0
210
0
220
0
230
1
0
LINE
5
9C
100
AcDbEntity
8
1
62
256
6
ByLayer
370
18
48
1
60
0
100
AcDbLine
10
29.864954
20
1.564621
30
0
11
29.771403
21
1.785757
31
0
39
0
210
0
220
0
230
1
0
LINE
5
9D
100
AcDbEntity
8
1
62
256
6
ByLayer
370
18
48
1
60
0
100
AcDbLine
10
28.091221
20
0.323843
30
0
11
30.431033
21
-0.657933
31
0
39
0
210
0
220
0
230
1
0
LINE
5
9E
100
AcDbEntity
8
1
62
256
6
ByLayer
370
18
48
1
60
0
100
AcDbLine
10
13.529222
20
12.687467
30
0
11
12.184537
21
13.144333
31
0
39
0
210
0
220
0
230
1
0
LINE
5
9F
100
AcDbEntity
8
1
62
256
6
ByLayer
370
18
48
1
60
0
100
AcDbLine
10
30.114351
20
1.156722
30
0
11
30.00468
21
1.35788
31
0
39
0
210
0
220
0
230
1
0
LINE
5
A0
100
AcDbEntity
8
1
62
256
6
ByLayer
370
18
48
1
60
0
100
AcDbLine
10
9.257545
20
11.145828
30
0
11
6.632679
21
3.17991
31
0
39
0
210
0
220
0
230
1
0
LINE
5
A1
100
AcDbEntity
8
1
62
256
6
ByLayer
370
18
48
1
60
0
100
AcDbLine
10
14.111693
20
-2.692546
30
0
11
9.035202
21
-0.967773
31
0
39
0
210
0
220
0
230
1
0
LINE
5
A2
100
AcDbEntity
8
1
62
256
6
ByLayer
370
18
48
1
60
0
100
AcDbLine
10
9.029451
20
-0.968394
30
0
11
9.035202
21
-0.967773
31
0
39
0
210
0
220
0
230
1
0
LINE
5
A3
100
AcDbEntity
8
1
62
256
6
ByLayer
370
18
48
1
60
0
100
AcDbLine
10
15.87558
20
8.99157
30
0
11
17.793919
21
8.3398
31
0
39
0
210
0
220
0
230
1
0
LINE
5
A4
100
AcDbEntity
8
1
62
256
6
ByLayer
370
18
48
1
60
0
100
AcDbLine
10
18.610135
20
10.959281
30
0
11
13.533644
21
12.684054
31
0
39
0
210
0
220
0
230
1
0
LINE
5
A5
100
AcDbEntity
8
1
62
256
6
ByLayer
370
18
48
1
60
0
100
AcDbLine
10
10.747519
20
9.000419
30
0
11
9.327519
21
9.484445
31
0
39
0
210
0
220
0
230
1
0
LINE
5
A6
100
AcDbEntity
8
1
62
256
6
ByLayer
370
18
48
1
60
0
100
AcDbLine
10
28.434397
20
-2.271777
30
0
11
27.467398
21
-2.692402
31
0
39
0
210
0
220
0
230
1
0
LINE
5
A7
100
AcDbEntity
8
1
62
256
6
ByLayer
370
18
48
1
60
0
100
AcDbLine
10
15.87558
20
8.99157
30
0
11
15.369493
21
9.059957
31
0
39
0
210
0
220
0
230
1
0
LINE
5
A8
100
AcDbEntity
8
1
62
256
6
ByLayer
370
18
48
1
60
0
100
AcDbLine
10
7.684767
20
-0.511528
30
0
11
7.054773
21
-0.426398
31
0
39
0
210
0
220
0
230
1
0
LINE
5
A9
100
AcDbEntity
8
1
62
256
6
ByLayer
370
18
48
1
60
0
100
AcDbLine
10
17.793919
20
8.3398
30
0
11
17.277517
21
8.409581
31
0
39
0
210
0
220
0
230
1
0
LINE
5
AA
100
AcDbEntity
8
1
62
256
6
ByLayer
370
18
48
1
60
0
100
AcDbLine
10
29.076678
20
-1.992398
30
0
11
28.871284
21
-2.08174
31
0
39
0
210
0
220
0
230
1
0
LINE
5
AB
100
AcDbEntity
8
1
62
256
6
ByLayer
370
18
48
1
60
0
100
AcDbLine
10
7.684767
20
-0.511528
30
0
11
9.029451
21
-0.968394
31
0
39
0
210
0
220
0
230
1
0
LINE
5
AC
100
AcDbEntity
8
1
62
256
6
ByLayer
370
18
48
1
60
0
100
AcDbLine
10
28.434397
20
-2.271777
30
0
11
28.64017
21
-2.152339
31
0
39
0
210
0
220
0
230
1
0
LINE
5
AD
100
AcDbEntity
8
1
62
256
6
ByLayer
370
18
48
1
60
0
100
AcDbLine
10
6.632679
20
3.17991
30
0
11
4.734273
21
3.436439
31
0
39
0
210
0
220
0
230
1
0
LINE
5
AE
100
AcDbEntity
8
1
62
256
6
ByLayer
370
18
48
1
60
0
100
AcDbLine
10
9.257545
20
11.145828
30
0
11
7.359139
21
11.402357
31
0
39
0
210
0
220
0
230
1
0
LINE
5
AF
100
AcDbEntity
8
1
62
256
6
ByLayer
370
18
48
1
60
0
100
AcDbLine
10
4.734273
20
3.436439
30
0
11
7.359139
21
11.402357
31
0
39
0
210
0
220
0
230
1
0
LINE
5
B0
100
AcDbEntity
8
1
62
256
6
ByLayer
370
18
48
1
60
0
100
AcDbLine
10
11.237711
20
8.93418
30
0
11
10.747519
21
9.000419
31
0
39
0
210
0
220
0
230
1
0
LINE
5
B1
100
AcDbEntity
8
1
62
256
6
ByLayer
370
18
48
1
60
0
100
AcDbLine
10
15.200302
20
0.468714
30
0
11
13.281962
21
1.120483
31
0
39
0
210
0
220
0
230
1
0
LINE
5
B2
100
AcDbEntity
8
1
62
256
6
ByLayer
370
18
48
1
60
0
100
AcDbLine
10
9.327519
20
9.484445
30
0
11
7.702602
21
4.553162
31
0
39
0
210
0
220
0
230
1
0
LINE
5
B3
100
AcDbEntity
8
1
62
256
6
ByLayer
370
18
48
1
60
0
100
AcDbLine
10
9.029451
20
-0.968394
30
0
11
7.128901
21
-0.446801
31
0
39
0
210
0
220
0
230
1
0
LINE
5
B4
100
AcDbEntity
8
1
62
256
6
ByLayer
370
18
48
1
60
0
100
AcDbLine
10
29.771403
20
1.785757
30
0
11
29.255071
21
2.732812
31
0
39
0
210
0
220
0
230
1
0
LINE
5
B5
100
AcDbEntity
8
1
62
256
6
ByLayer
370
18
48
1
60
0
100
AcDbLine
10
13.529222
20
12.687467
30
0
11
13.533644
21
12.684054
31
0
39
0
210
0
220
0
230
1
0
LINE
5
B6
100
AcDbEntity
8
1
62
256
6
ByLayer
370
18
48
1
60
0
100
AcDbLine
10
15.369493
20
9.059957
30
0
11
17.277517
21
8.409581
31
0
39
0
210
0
220
0
230
1
0
LINE
5
B7
100
AcDbEntity
8
1
62
256
6
ByLayer
370
18
48
1
60
0
100
AcDbLine
10
16.674151
20
5.296468
30
0
11
16.951988
21
5.296468
31
0
39
0
210
0
220
0
230
1
0
LINE
5
B8
100
AcDbEntity
8
1
62
256
6
ByLayer
370
18
48
1
60
0
100
AcDbLine
10
16.080837
20
3.495884
30
0
11
16.358674
21
3.495884
31
0
39
0
210
0
220
0
230
1
0
LINE
5
B9
100
AcDbEntity
8
1
62
256
6
ByLayer
370
18
48
1
60
0
100
AcDbLine
10
16.804241
20
4.647192
30
0
11
17.082078
21
4.647192
31
0
39
0
210
0
220
0
230
1
0
LINE
5
BA
100
AcDbEntity
8
1
62
256
6
ByLayer
370
18
48
1
60
0
100
AcDbLine
10
14.73722
20
3.556381
30
0
11
15.015057
21
3.556381
31
0
39
0
210
0
220
0
230
1
0
LINE
5
BB
100
AcDbEntity
8
1
62
256
6
ByLayer
370
18
48
1
60
0
100
AcDbLine
10
15.565236
20
6.069236
30
0
11
15.843073
21
6.069236
31
0
39
0
210
0
220
0
230
1
0
LINE
5
BC
100
AcDbEntity
8
1
62
256
6
ByLayer
370
18
48
1
60
0
100
AcDbLine
10
0.5
20
19.925
30
0
11
0.5
21
-19.927182
31
0
39
0
210
0
220
0
230
1
0
LINE
5
BD
100
AcDbEntity
8
1
62
256
6
ByLayer
370
18
48
1
60
0
100
AcDbLine
10
27.245528
20
6.936314
30
0
11
13.613295
21
14.14228
31
0
39
0
210
0
220
0
230
1
0
LINE
5
BE
100
AcDbEntity
8
1
62
256
6
ByLayer
370
18
48
1
60
0
100
AcDbLine
10
1.227488
20
19.925
30
0
11
0.5
21
19.925
31
0
39
0
210
0
220
0
230
1
0
LINE
5
BF
100
AcDbEntity
8
1
62
256
6
ByLayer
370
18
48
1
60
0
100
AcDbLine
10
2.031405
20
-17.674596
30
0
11
1.487296
21
-11.621989
31
0
39
0
210
0
220
0
230
1
0
LINE
5
C0
100
AcDbEntity
8
1
62
256
6
ByLayer
370
18
48
1
60
0
100
AcDbLine
10
0
20
19.925
30
0
11
0
21
-19.925
31
0
39
0
210
0
220
0
230
1
0
LINE
5
C1
100
AcDbEntity
8
1
62
256
6
ByLayer
370
18
48
1
60
0
100
AcDbLine
10
10.404349
20
15.544793
30
0
11
10.439079
21
15.544793
31
0
39
0
210
0
220
0
230
1
0
LINE
5
C2
100
AcDbEntity
8
1
62
256
6
ByLayer
370
18
48
1
60
0
100
AcDbLine
10
2.031405
20
-17.674596
30
0
11
2.031405
21
-19.952119
31
0
39
0
210
0
220
0
230
1
0
LINE
5
C3
100
AcDbEntity
8
1
62
256
6
ByLayer
370
18
48
1
60
0
100
AcDbLine
10
27.245528
20
6.936314
30
0
11
27.324808
21
6.839332
31
0
39
0
210
0
220
0
230
1
0
LINE
5
C4
100
AcDbEntity
8
1
62
256
6
ByLayer
370
18
48
1
60
0
100
AcDbLine
10
2.031405
20
-19.952119
30
0
11
2.185703
21
-19.952119
31
0
39
0
210
0
220
0
230
1
0
LINE
5
C5
100
AcDbEntity
8
1
62
256
6
ByLayer
370
18
48
1
60
0
100
AcDbLine
10
14.8928
20
-4.468282
30
0
11
14.987057
21
-4.601334
31
0
39
0
210
0
220
0
230
1
0
LINE
5
C6
100
AcDbEntity
8
1
62
256
6
ByLayer
370
18
48
1
60
0
100
AcDbLine
10
2.185703
20
-19.952119
30
0
11
7.247254
21
-17.357272
31
0
39
0
210
0
220
0
230
1
0
LINE
5
C7
100
AcDbEntity
8
1
62
256
6
ByLayer
370
18
48
1
60
0
100
AcDbLine
10
7.247254
20
-17.357272
30
0
11
7.247254
21
-5.177317
31
0
39
0
210
0
220
0
230
1
0
LINE
5
C8
100
AcDbEntity
8
1
62
256
6
ByLayer
370
18
48
1
60
0
100
AcDbLine
10
13.711322
20
-3.479214
30
0
11
13.574902
21
-3.21311
31
0
39
0
210
0
220
0
230
1
0
LINE
5
C9
100
AcDbEntity
8
1
62
256
6
ByLayer
370
18
48
1
60
0
100
AcDbLine
10
1.227488
20
-9.362229
30
0
11
1.227488
21
19.925
31
0
39
0
210
0
220
0
230
1
0
LINE
5
CA
100
AcDbEntity
8
1
62
256
6
ByLayer
370
18
48
1
60
0
100
AcDbLine
10
27.256339
20
-6.780518
30
0
11
27.336183
21
-6.683238
31
0
39
0
210
0
220
0
230
1
0
LINE
5
CB
100
AcDbEntity
8
1
62
256
6
ByLayer
370
18
48
1
60
0
100
AcDbLine
10
7.247254
20
-5.177317
30
0
11
2.031405
21
-17.674596
31
0
39
0
210
0
220
0
230
1
0
LINE
5
CC
100
AcDbEntity
8
1
62
256
6
ByLayer
370
18
48
1
60
0
100
AcDbLine
10
14.987057
20
-4.601334
30
0
11
16.857923
21
-4.486638
31
0
39
0
210
0
220
0
230
1
0
LINE
5
CD
100
AcDbEntity
8
1
62
256
6
ByLayer
370
18
48
1
60
0
100
AcDbLine
10
10.439079
20
15.544793
30
0
11
13.613295
21
14.14228
31
0
39
0
210
0
220
0
230
1
0
LINE
5
CE
100
AcDbEntity
8
1
62
256
6
ByLayer
370
18
48
1
60
0
100
AcDbLine
10
0.5
20
-19.927182
30
0
11
0
21
-19.925
31
0
39
0
210
0
220
0
230
1
0
LINE
5
CF
100
AcDbEntity
8
1
62
256
6
ByLayer
370
18
48
1
60
0
100
AcDbLine
10
0
20
19.925
30
0
11
0.5
21
19.925
31
0
39
0
210
0
220
0
230
1
0
LINE
5
D0
100
AcDbEntity
8
1
62
256
6
ByLayer
370
18
48
1
60
0
100
AcDbLine
10
7.247254
20
-17.357272
30
0
11
27.256339
21
-6.780518
31
0
39
0
210
0
220
0
230
1
0
LINE
5
D1
100
AcDbEntity
8
1
62
256
6
ByLayer
370
18
48
1
60
0
100
AcDbLine
10
0.5
20
-19.927182
30
0
11
2.031405
21
-19.952119
31
0
39
0
210
0
220
0
230
1
0
LINE
5
D2
100
AcDbEntity
8
1
62
256
6
ByLayer
370
18
48
1
60
0
100
AcDbLine
10
1.978963
20
19.925
30
0
11
9.557891
21
15.918796
31
0
39
0
210
0
220
0
230
1
0
LINE
5
D3
100
AcDbEntity
8
1
62
256
6
ByLayer
370
18
48
1
60
0
100
AcDbLine
10
1.487296
20
-11.621989
30
0
11
1.435335
21
-11.674285
31
0
39
0
210
0
220
0
230
1
0
LINE
5
D4
100
AcDbEntity
8
1
62
256
6
ByLayer
370
18
48
1
60
0
100
AcDbLine
10
1.227488
20
19.925
30
0
11
1.978963
21
19.925
31
0
39
0
210
0
220
0
230
1
0
LINE
5
D5
100
AcDbEntity
8
SK1
62
256
6
ByLayer
370
18
48
1
60
0
100
AcDbLine
10
-210.568633
20
19.925
30
0
11
-210.568633
21
-19.925
31
0
39
0
210
0
220
0
230
1
0
LINE
5
D7
100
AcDbEntity
8
SK1
62
256
6
ByLayer
370
18
48
1
60
0
100
AcDbLine
10
-210.568633
20
-19.925
30
0
11
0
21
-19.925
31
0
39
0
210
0
220
0
230
1
0
LINE
5
D8
100
AcDbEntity
8
SK1
62
256
6
ByLayer
370
18
48
1
60
0
100
AcDbLine
10
0
20
19.925
30
0
11
-210.568633
21
19.925
31
0
39
0
210
0
220
0
230
1
0
LINE
5
D9
100
AcDbEntity
8
SK1
62
256
6
ByLayer
370
18
48
1
60
0
100
AcDbLine
10
0
20
19.925
30
0
11
0
21
-19.925
31
0
39
0
210
0
220
0
230
1
0
MTEXT
5
14A
100
AcDbEntity
8
SK6
62
256
6
ByLayer
370
18
48
1
60
0
100
AcDbMText
10
-99.018633
20
-30.81356
30
0
210
0
220
0
230
1
1
\W0.7649;DDNNN 4040S 15
40
3.5
41
0
44
1.084337
50
0
71
7
72
5
7
iso_b_vert
0
DIMENSION
5
15B
100
AcDbEntity
8
2
62
256
6
ByLayer
370
13
48
1
60
0
100
AcDbDimension
2
DimnDraft3D1
10
37.64102
20
2.21668
30
0
11
27.644147
21
22.360678
31
0
70
34
71
5
72
1
41
1
210
0
220
0
230
1
3
Standard
100
AcDb2LineAngularDimension
13
40.781367
23
0.5567
33
0
14
40.781367
24
-1.0308
34
0
15
40.781367
25
0.5567
35
0
16
29.966501
26
18.506243
36
0
40
0
0
DIMENSION
5
171
100
AcDbEntity
8
SK2
62
256
6
ByLayer
370
13
48
1
60
0
100
AcDbDimension
2
DimnDraft3D2
10
-218.318633
20
19.925
30
0
11
-218.318633
21
-5.518421
31
0
70
32
71
5
72
1
41
1
210
0
220
0
230
1
3
Standard
100
AcDbAlignedDimension
13
-212.568633
23
-19.925
33
0
14
-212.568633
24
19.925
34
0
50
90
100
AcDbRotatedDimension
1001
ACAD
1000
DSTYLE
1002
{
1070
    74
1070
     0
1070
   279
1070
     0
1070
   172
1070
     1
1070
   173
1070
     1
1070
   340
1005
14B
1070
    77
1070
     1
1070
    73
1070
     0
1070
   171
1070
     3
1070
   274
1070
     4
1070
   177
1070
     2
1070
   176
1070
     2
1070
   178
1070
     7
1070
    78
1070
     8
1070
    41
1041
3.175
1070
   147
1041
2.25
1070
    42
1041
2.0
1070
    44
1041
2.0
1070
   140
1041
4.5
1070
   343
1005
15C
1070
   344
1005
15C
1002
}
0
DIMENSION
5
17F
100
AcDbEntity
8
2
62
256
6
ByLayer
370
13
48
1
60
0
100
AcDbDimension
2
DimnDraft3D3
10
63.031367
20
0.5567
30
0
11
63.031367
21
-14.965729
31
0
70
32
71
5
72
1
41
1
210
0
220
0
230
1
3
Standard
100
AcDbAlignedDimension
13
2
23
-19.925
33
0
14
42.781367
24
0.5567
34
0
50
90
100
AcDbRotatedDimension
1001
ACAD
1000
DSTYLE
1002
{
1070
    74
1070
     0
1070
   279
1070
     0
1070
   172
1070
     1
1070
   173
1070
     1
1070
   340
1005
14B
1070
    77
1070
     1
1070
    73
1070
     0
1070
   171
1070
     3
1070
   274
1070
     4
1070
   177
1070
     2
1070
   176
1070
     2
1070
   178
1070
     7
1070
    78
1070
     8
1070
    41
1041
3.175
1070
   147
1041
2.25
1070
    42
1041
2.0
1070
    44
1041
2.0
1070
   140
1041
4.5
1070
   343
1005
15C
1070
   344
1005
15C
1002
}
0
DIMENSION
5
18D
100
AcDbEntity
8
2
62
256
6
ByLayer
370
13
48
1
60
0
100
AcDbDimension
2
DimnDraft3D4
10
40.781367
20
30.3067
30
0
11
14.872262
21
30.3067
31
0
70
32
71
5
72
1
41
1
210
0
220
0
230
1
3
Standard
100
AcDbAlignedDimension
13
0
23
21.925
33
0
14
40.781367
24
2.5567
34
0
50
0
100
AcDbRotatedDimension
1001
ACAD
1000
DSTYLE
1002
{
1070
   279
1070
     0
1070
   172
1070
     1
1070
   173
1070
     1
1070
   340
1005
14B
1070
    77
1070
     1
1070
    73
1070
     0
1070
   171
1070
     3
1070
   274
1070
     4
1070
   177
1070
     2
1070
   176
1070
     2
1070
   178
1070
     7
1070
    78
1070
     8
1070
    41
1041
3.175
1070
   147
1041
2.25
1070
    42
1041
2.0
1070
    44
1041
2.0
1070
   140
1041
4.5
1070
   343
1005
15C
1070
   344
1005
15C
1002
}
0
DIMENSION
5
19B
100
AcDbEntity
8
SK2
62
256
6
ByLayer
370
13
48
1
60
0
100
AcDbDimension
2
DimnDraft3D5
10
-210.568633
20
40.3067
30
0
11
-91.856791
21
40.3067
31
0
70
32
71
5
72
1
41
1
210
0
220
0
230
1
3
Standard
100
AcDbAlignedDimension
13
40.781367
23
2.5567
33
0
14
-210.568633
24
21.925
34
0
50
0
100
AcDbRotatedDimension
1001
ACAD
1000
DSTYLE
1002
{
1070
   279
1070
     0
1070
   172
1070
     1
1070
   173
1070
     1
1070
   340
1005
14B
1070
    77
1070
     1
1070
    73
1070
     0
1070
   171
1070
     3
1070
   274
1070
     4
1070
   177
1070
     2
1070
   176
1070
     2
1070
   178
1070
     7
1070
    78
1070
     8
1070
    41
1041
3.175
1070
   147
1041
2.25
1070
    42
1041
2.0
1070
    44
1041
2.0
1070
   140
1041
4.5
1070
   343
1005
15C
1070
   344
1005
15C
1002
}
0
ENDSEC
0
SECTION
2
OBJECTS
0
DICTIONARY
5
205
330
0
100
AcDbDictionary
280
0
281
1
3
ACAD_GROUP
350
206
3
ACAD_MLINESTYLE
350
207
0
DICTIONARY
5
206
330
0
100
AcDbDictionary
280
0
281
1
0
DICTIONARY
5
207
330
0
100
AcDbDictionary
280
0
281
1
3
Standard
350
18
0
MLINESTYLE
5
18
330
207
100
AcDbMlineStyle
2
Standard
70
0
3

62
256
51
90
52
90
71
2
49
-0.5
62
256
6
ByLayer
49
0.5
62
256
6
ByLayer
0
RASTERVARIABLES
5
1f4
330

100
AcDbRasterVariables
90
0
70
1
71
1
72
1
0
ENDSEC
0
EOF
