0
SECTION
2
HEADER
9
$ACADVER
1
AC1015
9
$DWGCODEPAGE
3
ANSI_1252
9
$HANDSEED
5
20b
9
$ANGBASE
50
0
9
$ANGDIR
70
0
9
$ATTMODE
70
1
9
$AUNITS
70
0
9
$AUPREC
70
0
9
$CECOLOR
62
256
9
$CELTSCALE
40
1
9
$CELTYPE
6
ByLayer
9
$CELWEIGHT
370
18
9
$CLAYER
8
0
9
$CMLJUST
70
0
9
$CMLSCALE
40
1
9
$CMLSTYLE
2
Standard
9
$DIMSTYLE
2
Standard
9
$TEXTSIZE
40
0.2
9
$TEXTSTYLE
7
Standard
9
$LUNITS
70
2
9
$LUPREC
70
4
9
$EXTNAMES
290
1
9
$INSUNITS
70
4
9
$LTSCALE
40
1
9
$LWDISPLAY
290
1
9
$PDMODE
70
0
9
$PDSIZE
40
0
9
$PLINEGEN
70
0
0
ENDSEC
0
SECTION
2
CLASSES
0
CLASS
1
RASTERVARIABLES
2
AcDbRasterVariables
3
ISM
90
0
280
0
281
0
0
ENDSEC
0
SECTION
2
TABLES
0
TABLE
2
VPORT
5
201
100
AcDbSymbolTable
0
VPORT
5
1
100
AcDbSymbolTableRecord
100
AcDbViewportTableRecord
2
*Active
70
0
10
0
20
0
11
1
21
1
12
-1
22
1
13
0
23
0
14
0.5
24
0.5
15
10
25
10
16
0
26
0
36
1
17
0
27
0
37
0
0
ENDTAB
0
TABLE
2
LTYPE
5
202
100
AcDbSymbolTable
0
LTYPE
5
14
100
AcDbSymbolTableRecord
100
AcDbLinetypeTableRecord
70
0
2
ByBlock
3

72
65
73
0
40
0
0
LTYPE
5
15
100
AcDbSymbolTableRecord
100
AcDbLinetypeTableRecord
70
0
2
ByLayer
3

72
65
73
0
40
0
0
LTYPE
5
16
100
AcDbSymbolTableRecord
100
AcDbLinetypeTableRecord
70
0
2
CONTINUOUS
3
Solid line
72
65
73
0
40
0
0
LTYPE
5
6A
100
AcDbSymbolTableRecord
100
AcDbLinetypeTableRecord
70
0
2
CENTER
3
____ _ ____ _ ____ _ ____
72
65
73
4
40
47.5
49
22
74
0
49
-8.5
74
0
49
8.5
74
0
49
-8.5
74
0
0
LTYPE
5
6B
100
AcDbSymbolTableRecord
100
AcDbLinetypeTableRecord
70
0
2
DASHED
3
__ __ __ __ __ __ __ __ __
72
65
73
2
40
25.72
49
12.86
74
0
49
-12.86
74
0
0
ENDTAB
0
TABLE
2
LAYER
5
203
100
AcDbSymbolTable
0
LAYER
5
10
100
AcDbSymbolTableRecord
100
AcDbLayerTableRecord
2
0
70
0
62
7
6
CONTINUOUS
290
1
370
-3
390
0
0
LAYER
5
6D
100
AcDbSymbolTableRecord
100
AcDbLayerTableRecord
2
2
70
0
62
7
6
CONTINUOUS
290
1
370
-3
390
0
0
LAYER
5
6F
100
AcDbSymbolTableRecord
100
AcDbLayerTableRecord
2
80
70
0
62
-6
6
CONTINUOUS
290
1
370
-3
390
0
0
LAYER
5
71
100
AcDbSymbolTableRecord
100
AcDbLayerTableRecord
2
81
70
0
62
-3
6
CONTINUOUS
290
1
370
-3
390
0
0
LAYER
5
73
100
AcDbSymbolTableRecord
100
AcDbLayerTableRecord
2
1
70
0
62
4
6
CONTINUOUS
290
1
370
-3
390
0
0
LAYER
5
1ee
100
AcDbSymbolTableRecord
100
AcDbLayerTableRecord
2
SK1
70
0
62
4
6
CONTINUOUS
290
1
370
-3
390
0
0
LAYER
5
1ef
100
AcDbSymbolTableRecord
100
AcDbLayerTableRecord
2
SK6
70
0
62
5
6
CONTINUOUS
290
1
370
-3
390
0
0
LAYER
5
1f0
100
AcDbSymbolTableRecord
100
AcDbLayerTableRecord
2
SK2
70
0
62
7
6
CONTINUOUS
290
1
370
-3
390
0
0
ENDTAB
0
TABLE
2
STYLE
5
204
100
AcDbSymbolTable
0
STYLE
5
11
100
AcDbSymbolTableRecord
100
AcDbTextStyleTableRecord
2
Standard
3
txt
70
0
71
0
40
0
41
1
42
0
50
0
0
STYLE
5
144
100
AcDbSymbolTableRecord
100
AcDbTextStyleTableRecord
2
iso_b_vert
3
simplex.shx
70
0
71
0
40
0
41
1
42
0
50
0
0
STYLE
5
145
100
AcDbSymbolTableRecord
100
AcDbTextStyleTableRecord
2
DWGDirectTextStyle
3
simplex
70
0
71
0
40
0
41
1
42
0
50
0
0
ENDTAB
0
TABLE
2
DIMSTYLE
5
205
100
AcDbSymbolTable
100
AcDbDimStyleTable
0
DIMSTYLE
105
27
100
AcDbSymbolTableRecord
100
AcDbDimStyleTableRecord
2
Standard
70
0
3
<>
41
0.18
42
0.0625
44
0.18
140
0.18
147
0.09
73
0
74
0
77
1
271
2
275
0
278
52
280
0
340
11
0
ENDTAB
0
TABLE
2
VIEW
5
206
100
AcDbSymbolTable
0
ENDTAB
0
TABLE
2
UCS
5
207
100
AcDbSymbolTable
0
ENDTAB
0
TABLE
2
APPID
5
208
100
AcDbSymbolTable
0
APPID
5
12
100
AcDbSymbolTableRecord
100
AcDbRegAppTableRecord
2
ACAD
70
0
0
ENDTAB
0
TABLE
2
BLOCK_RECORD
5
209
100
AcDbSymbolTable
0
BLOCK_RECORD
5
1F
100
AcDbSymbolTableRecord
100
AcDbBlockTableRecord
2
*Model_Space
340
0
70
0
0
BLOCK_RECORD
5
1B
100
AcDbSymbolTableRecord
100
AcDbBlockTableRecord
2
*Paper_Space
340
0
70
0
0
BLOCK_RECORD
5
23
100
AcDbSymbolTableRecord
100
AcDbBlockTableRecord
2
*Paper_Space0
340
0
70
0
0
BLOCK_RECORD
5
147
100
AcDbSymbolTableRecord
100
AcDbBlockTableRecord
2
DimnDraft3D1
340
0
70
0
0
BLOCK_RECORD
5
155
100
AcDbSymbolTableRecord
100
AcDbBlockTableRecord
2
_CLOSED
340
0
70
0
0
BLOCK_RECORD
5
15C
100
AcDbSymbolTableRecord
100
AcDbBlockTableRecord
2
DimnDraft3D2
340
0
70
0
0
BLOCK_RECORD
5
16B
100
AcDbSymbolTableRecord
100
AcDbBlockTableRecord
2
DimnDraft3D3
340
0
70
0
0
BLOCK_RECORD
5
179
100
AcDbSymbolTableRecord
100
AcDbBlockTableRecord
2
DimnDraft3D4
340
0
70
0
0
BLOCK_RECORD
5
187
100
AcDbSymbolTableRecord
100
AcDbBlockTableRecord
2
DimnDraft3D5
340
0
70
0
0
ENDTAB
0
ENDSEC
0
SECTION
2
BLOCKS
0
BLOCK
5
20
100
AcDbEntity
8
0
100
AcDbBlockBegin
2
*Model_Space
70
0
10
0
20
0
30
0
3
*Model_Space
0
ENDBLK
5
21
100
AcDbEntity
8
0
100
AcDbBlockEnd
0
BLOCK
5
1C
100
AcDbEntity
8
0
100
AcDbBlockBegin
2
*Paper_Space
70
0
10
0
20
0
30
0
3
*Paper_Space
0
ENDBLK
5
1D
100
AcDbEntity
8
0
100
AcDbBlockEnd
0
BLOCK
5
24
100
AcDbEntity
8
0
100
AcDbBlockBegin
2
*Paper_Space0
70
0
10
0
20
0
30
0
3
*Paper_Space0
0
ENDBLK
5
25
100
AcDbEntity
8
0
100
AcDbBlockEnd
0
BLOCK
5
152
100
AcDbEntity
8
0
100
AcDbBlockBegin
2
DimnDraft3D1
70
0
10
0
20
0
30
0
3
DimnDraft3D1
0
MTEXT
5
148
100
AcDbEntity
8
2
62
256
6
ByLayer
370
18
48
1
60
0
100
AcDbMText
10
23.32532
20
15.805755
30
0
210
0
220
0
230
1
1
\W0.7645;62%%d30'
40
4.5
41
0
44
1.084337
50
31.0695878150001
71
7
72
5
7
iso_b_vert
0
LINE
5
149
100
AcDbEntity
8
2
62
256
6
ByLayer
370
13
48
1
60
0
100
AcDbLine
10
40.781367
20
2.5442
30
0
11
40.781367
21
23.500044
31
0
39
0
210
0
220
0
230
1
0
LINE
5
14A
100
AcDbEntity
8
2
62
256
6
ByLayer
370
13
48
1
60
0
100
AcDbLine
10
35.872849
20
3.138831
30
0
11
20.486441
21
11.27205
31
0
39
0
210
0
220
0
230
1
0
ARC
5
14B
100
AcDbEntity
8
2
62
256
6
ByLayer
370
13
48
1
60
0
100
AcDbCircle
39
0
10
40.781367
20
0.5442
30
0
40
20.9558441220058
210
0
220
0
230
1
100
AcDbArc
50
90
51
152.139176
0
LINE
5
14C
100
AcDbEntity
8
2
62
256
6
ByLayer
370
13
48
1
60
0
100
AcDbLine
10
40.781367
20
21.500044
30
0
11
37.624436
21
20.962344
31
0
39
0
210
0
220
0
230
1
0
LINE
5
14D
100
AcDbEntity
8
2
62
256
6
ByLayer
370
13
48
1
60
0
100
AcDbLine
10
40.781367
20
21.500044
30
0
11
37.592835
21
21.79774
31
0
39
0
210
0
220
0
230
1
0
LINE
5
14E
100
AcDbEntity
8
2
62
256
6
ByLayer
370
13
48
1
60
0
100
AcDbLine
10
37.624436
20
20.962344
30
0
11
37.592835
21
21.79774
31
0
39
0
210
0
220
0
230
1
0
LINE
5
14F
100
AcDbEntity
8
2
62
256
6
ByLayer
370
13
48
1
60
0
100
AcDbLine
10
22.254612
20
10.337399
30
0
11
23.481504
21
13.295451
31
0
39
0
210
0
220
0
230
1
0
LINE
5
150
100
AcDbEntity
8
2
62
256
6
ByLayer
370
13
48
1
60
0
100
AcDbLine
10
22.254612
20
10.337399
30
0
11
24.205301
21
12.877117
31
0
39
0
210
0
220
0
230
1
0
LINE
5
151
100
AcDbEntity
8
2
62
256
6
ByLayer
370
13
48
1
60
0
100
AcDbLine
10
23.481504
20
13.295451
30
0
11
24.205301
21
12.877117
31
0
39
0
210
0
220
0
230
1
0
ENDBLK
5
153
100
AcDbEntity
8
0
100
AcDbBlockEnd
0
BLOCK
5
156
100
AcDbEntity
8
0
100
AcDbBlockBegin
2
_CLOSED
70
0
10
0
20
0
30
0
3
_CLOSED
0
LINE
5
158
100
AcDbEntity
8
0
62
256
6
ByLayer
370
-2
48
1
60
0
100
AcDbLine
10
-1
20
0.166667
30
0
11
0
21
0
31
0
39
0
210
0
220
0
230
1
0
LINE
5
159
100
AcDbEntity
8
0
62
256
6
ByLayer
370
-2
48
1
60
0
100
AcDbLine
10
0
20
0
30
0
11
-1
21
-0.166667
31
0
39
0
210
0
220
0
230
1
0
LINE
5
15A
100
AcDbEntity
8
0
62
256
6
ByLayer
370
-2
48
1
60
0
100
AcDbLine
10
-1
20
0.166667
30
0
11
-1
21
-0.166667
31
0
39
0
210
0
220
0
230
1
0
LINE
5
15B
100
AcDbEntity
8
0
62
256
6
ByLayer
370
-2
48
1
60
0
100
AcDbLine
10
0
20
0
30
0
11
-1
21
0
31
0
39
0
210
0
220
0
230
1
0
ENDBLK
5
157
100
AcDbEntity
8
0
100
AcDbBlockEnd
0
BLOCK
5
168
100
AcDbEntity
8
0
100
AcDbBlockBegin
2
DimnDraft3D2
70
0
10
0
20
0
30
0
3
DimnDraft3D2
0
MTEXT
5
15D
100
AcDbEntity
8
SK2
62
256
6
ByLayer
370
18
48
1
60
0
100
AcDbMText
10
-139.443633
20
-4.156579
30
0
210
0
220
0
230
1
1
\W0.7346;25.0
40
4.5
41
0
44
1.084337
50
90
71
7
72
5
7
iso_b_vert
0
LINE
5
15F
100
AcDbEntity
8
SK2
62
256
6
ByLayer
370
13
48
1
60
0
100
AcDbLine
10
-132.568633
20
-12.4375
30
0
11
-140.318633
21
-12.4375
31
0
39
0
210
0
220
0
230
1
0
LINE
5
160
100
AcDbEntity
8
SK2
62
256
6
ByLayer
370
13
48
1
60
0
100
AcDbLine
10
-132.568633
20
12.4375
30
0
11
-140.318633
21
12.4375
31
0
39
0
210
0
220
0
230
1
0
LINE
5
161
100
AcDbEntity
8
SK2
62
256
6
ByLayer
370
13
48
1
60
0
100
AcDbLine
10
-138.318633
20
-12.4375
30
0
11
-138.318633
21
12.4375
31
0
39
0
210
0
220
0
230
1
0
LINE
5
162
100
AcDbEntity
8
SK2
62
256
6
ByLayer
370
13
48
1
60
0
100
AcDbLine
10
-138.318633
20
-12.4375
30
0
11
-138.73663
21
-9.262502
31
0
39
0
210
0
220
0
230
1
0
LINE
5
163
100
AcDbEntity
8
SK2
62
256
6
ByLayer
370
13
48
1
60
0
100
AcDbLine
10
-138.318633
20
-12.4375
30
0
11
-137.900636
21
-9.262498
31
0
39
0
210
0
220
0
230
1
0
LINE
5
164
100
AcDbEntity
8
SK2
62
256
6
ByLayer
370
13
48
1
60
0
100
AcDbLine
10
-138.73663
20
-9.262502
30
0
11
-137.900636
21
-9.262498
31
0
39
0
210
0
220
0
230
1
0
LINE
5
165
100
AcDbEntity
8
SK2
62
256
6
ByLayer
370
13
48
1
60
0
100
AcDbLine
10
-138.318633
20
12.4375
30
0
11
-137.900636
21
9.262502
31
0
39
0
210
0
220
0
230
1
0
LINE
5
166
100
AcDbEntity
8
SK2
62
256
6
ByLayer
370
13
48
1
60
0
100
AcDbLine
10
-138.318633
20
12.4375
30
0
11
-138.73663
21
9.262498
31
0
39
0
210
0
220
0
230
1
0
LINE
5
167
100
AcDbEntity
8
SK2
62
256
6
ByLayer
370
13
48
1
60
0
100
AcDbLine
10
-137.900636
20
9.262502
30
0
11
-138.73663
21
9.262498
31
0
39
0
210
0
220
0
230
1
0
ENDBLK
5
169
100
AcDbEntity
8
0
100
AcDbBlockEnd
0
BLOCK
5
176
100
AcDbEntity
8
0
100
AcDbBlockBegin
2
DimnDraft3D3
70
0
10
0
20
0
30
0
3
DimnDraft3D3
0
MTEXT
5
16C
100
AcDbEntity
8
2
62
256
6
ByLayer
370
18
48
1
60
0
100
AcDbMText
10
61.906367
20
11.9242
30
0
210
0
220
0
230
1
1
\W0.6563;13.0
40
4.5
41
0
44
1.084337
50
90
71
7
72
5
7
iso_b_vert
0
LINE
5
16D
100
AcDbEntity
8
2
62
256
6
ByLayer
370
13
48
1
60
0
100
AcDbLine
10
2
20
-12.4375
30
0
11
65.031367
21
-12.4375
31
0
39
0
210
0
220
0
230
1
0
LINE
5
16E
100
AcDbEntity
8
2
62
256
6
ByLayer
370
13
48
1
60
0
100
AcDbLine
10
42.781367
20
0.5442
30
0
11
65.031367
21
0.5442
31
0
39
0
210
0
220
0
230
1
0
LINE
5
16F
100
AcDbEntity
8
2
62
256
6
ByLayer
370
13
48
1
60
0
100
AcDbLine
10
63.031367
20
-12.4375
30
0
11
63.031367
21
20.237358
31
0
39
0
210
0
220
0
230
1
0
LINE
5
170
100
AcDbEntity
8
2
62
256
6
ByLayer
370
13
48
1
60
0
100
AcDbLine
10
63.031367
20
-12.4375
30
0
11
62.61337
21
-9.262502
31
0
39
0
210
0
220
0
230
1
0
LINE
5
171
100
AcDbEntity
8
2
62
256
6
ByLayer
370
13
48
1
60
0
100
AcDbLine
10
63.031367
20
-12.4375
30
0
11
63.449364
21
-9.262498
31
0
39
0
210
0
220
0
230
1
0
LINE
5
172
100
AcDbEntity
8
2
62
256
6
ByLayer
370
13
48
1
60
0
100
AcDbLine
10
62.61337
20
-9.262502
30
0
11
63.449364
21
-9.262498
31
0
39
0
210
0
220
0
230
1
0
LINE
5
173
100
AcDbEntity
8
2
62
256
6
ByLayer
370
13
48
1
60
0
100
AcDbLine
10
63.031367
20
0.5442
30
0
11
63.449364
21
-2.630798
31
0
39
0
210
0
220
0
230
1
0
LINE
5
174
100
AcDbEntity
8
2
62
256
6
ByLayer
370
13
48
1
60
0
100
AcDbLine
10
63.031367
20
0.5442
30
0
11
62.61337
21
-2.630802
31
0
39
0
210
0
220
0
230
1
0
LINE
5
175
100
AcDbEntity
8
2
62
256
6
ByLayer
370
13
48
1
60
0
100
AcDbLine
10
63.449364
20
-2.630798
30
0
11
62.61337
21
-2.630802
31
0
39
0
210
0
220
0
230
1
0
ENDBLK
5
177
100
AcDbEntity
8
0
100
AcDbBlockEnd
0
BLOCK
5
184
100
AcDbEntity
8
0
100
AcDbBlockBegin
2
DimnDraft3D4
70
0
10
0
20
0
30
0
3
DimnDraft3D4
0
MTEXT
5
17A
100
AcDbEntity
8
2
62
256
6
ByLayer
370
18
48
1
60
0
100
AcDbMText
10
15.997262
20
31.4192
30
0
210
0
220
0
230
1
1
\W0.7640;40.8
40
4.5
41
0
44
1.084337
50
0
71
7
72
5
7
iso_b_vert
0
LINE
5
17B
100
AcDbEntity
8
2
62
256
6
ByLayer
370
13
48
1
60
0
100
AcDbLine
10
0
20
14.4375
30
0
11
0
21
32.2942
31
0
39
0
210
0
220
0
230
1
0
LINE
5
17C
100
AcDbEntity
8
2
62
256
6
ByLayer
370
13
48
1
60
0
100
AcDbLine
10
40.781367
20
2.5442
30
0
11
40.781367
21
32.2942
31
0
39
0
210
0
220
0
230
1
0
LINE
5
17D
100
AcDbEntity
8
2
62
256
6
ByLayer
370
13
48
1
60
0
100
AcDbLine
10
0
20
30.2942
30
0
11
40.781367
21
30.2942
31
0
39
0
210
0
220
0
230
1
0
LINE
5
17E
100
AcDbEntity
8
2
62
256
6
ByLayer
370
13
48
1
60
0
100
AcDbLine
10
0
20
30.2942
30
0
11
3.174998
21
30.712197
31
0
39
0
210
0
220
0
230
1
0
LINE
5
17F
100
AcDbEntity
8
2
62
256
6
ByLayer
370
13
48
1
60
0
100
AcDbLine
10
0
20
30.2942
30
0
11
3.175002
21
29.876203
31
0
39
0
210
0
220
0
230
1
0
LINE
5
180
100
AcDbEntity
8
2
62
256
6
ByLayer
370
13
48
1
60
0
100
AcDbLine
10
3.174998
20
30.712197
30
0
11
3.175002
21
29.876203
31
0
39
0
210
0
220
0
230
1
0
LINE
5
181
100
AcDbEntity
8
2
62
256
6
ByLayer
370
13
48
1
60
0
100
AcDbLine
10
40.781367
20
30.2942
30
0
11
37.606368
21
29.876203
31
0
39
0
210
0
220
0
230
1
0
LINE
5
182
100
AcDbEntity
8
2
62
256
6
ByLayer
370
13
48
1
60
0
100
AcDbLine
10
40.781367
20
30.2942
30
0
11
37.606365
21
30.712197
31
0
39
0
210
0
220
0
230
1
0
LINE
5
183
100
AcDbEntity
8
2
62
256
6
ByLayer
370
13
48
1
60
0
100
AcDbLine
10
37.606368
20
29.876203
30
0
11
37.606365
21
30.712197
31
0
39
0
210
0
220
0
230
1
0
ENDBLK
5
185
100
AcDbEntity
8
0
100
AcDbBlockEnd
0
BLOCK
5
192
100
AcDbEntity
8
0
100
AcDbBlockBegin
2
DimnDraft3D5
70
0
10
0
20
0
30
0
3
DimnDraft3D5
0
MTEXT
5
188
100
AcDbEntity
8
SK2
62
256
6
ByLayer
370
18
48
1
60
0
100
AcDbMText
10
-50.169291
20
41.4192
30
0
210
0
220
0
230
1
1
\W0.6864;170.0
40
4.5
41
0
44
1.084337
50
0
71
7
72
5
7
iso_b_vert
0
LINE
5
189
100
AcDbEntity
8
SK2
62
256
6
ByLayer
370
13
48
1
60
0
100
AcDbLine
10
40.781367
20
2.5442
30
0
11
40.781367
21
42.2942
31
0
39
0
210
0
220
0
230
1
0
LINE
5
18A
100
AcDbEntity
8
SK2
62
256
6
ByLayer
370
13
48
1
60
0
100
AcDbLine
10
-130.568633
20
14.4375
30
0
11
-130.568633
21
42.2942
31
0
39
0
210
0
220
0
230
1
0
LINE
5
18B
100
AcDbEntity
8
SK2
62
256
6
ByLayer
370
13
48
1
60
0
100
AcDbLine
10
40.781367
20
40.2942
30
0
11
-130.568633
21
40.2942
31
0
39
0
210
0
220
0
230
1
0
LINE
5
18C
100
AcDbEntity
8
SK2
62
256
6
ByLayer
370
13
48
1
60
0
100
AcDbLine
10
40.781367
20
40.2942
30
0
11
37.606368
21
39.876203
31
0
39
0
210
0
220
0
230
1
0
LINE
5
18D
100
AcDbEntity
8
SK2
62
256
6
ByLayer
370
13
48
1
60
0
100
AcDbLine
10
40.781367
20
40.2942
30
0
11
37.606365
21
40.712197
31
0
39
0
210
0
220
0
230
1
0
LINE
5
18E
100
AcDbEntity
8
SK2
62
256
6
ByLayer
370
13
48
1
60
0
100
AcDbLine
10
37.606368
20
39.876203
30
0
11
37.606365
21
40.712197
31
0
39
0
210
0
220
0
230
1
0
LINE
5
18F
100
AcDbEntity
8
SK2
62
256
6
ByLayer
370
13
48
1
60
0
100
AcDbLine
10
-130.568633
20
40.2942
30
0
11
-127.393635
21
40.712197
31
0
39
0
210
0
220
0
230
1
0
LINE
5
190
100
AcDbEntity
8
SK2
62
256
6
ByLayer
370
13
48
1
60
0
100
AcDbLine
10
-130.568633
20
40.2942
30
0
11
-127.393632
21
39.876203
31
0
39
0
210
0
220
0
230
1
0
LINE
5
191
100
AcDbEntity
8
SK2
62
256
6
ByLayer
370
13
48
1
60
0
100
AcDbLine
10
-127.393635
20
40.712197
30
0
11
-127.393632
21
39.876203
31
0
39
0
210
0
220
0
230
1
0
ENDBLK
5
193
100
AcDbEntity
8
0
100
AcDbBlockEnd
0
ENDSEC
0
SECTION
2
ENTITIES
0
ELLIPSE
5
D4
100
AcDbEntity
8
1
62
256
6
ByLayer
370
18
48
1
60
0
100
AcDbEllipse
10
27.046756
20
5.417605
30
0
11
9.79685083057902E-17
21
1.6
31
0
210
0
220
0
230
1
40
0.984808
41
-0.479965544296825
42
-1.86886443500482E-07
0
ELLIPSE
5
D5
100
AcDbEntity
8
1
62
256
6
ByLayer
370
18
48
1
60
0
100
AcDbEllipse
10
27.046756
20
-5.292524
30
0
11
9.79685083057902E-17
21
1.6
31
0
210
0
220
0
230
1
40
0.984808
41
-3.14159246670013
42
-2.66162710928976
0
ELLIPSE
5
D6
100
AcDbEntity
8
1
62
256
6
ByLayer
370
18
48
1
60
0
100
AcDbEllipse
10
14.534965
20
3.8636
30
0
11
2.32675207226252E-17
21
0.38
31
0
210
0
220
0
230
1
40
0.984808
41
-2.76130041379016
42
-2.57060639621305
0
ELLIPSE
5
D7
100
AcDbEntity
8
1
62
256
6
ByLayer
370
18
48
1
60
0
100
AcDbEllipse
10
14.963427
20
3.186299
30
0
11
-7.80686550561765E-17
21
-0.425
31
0
210
0
220
0
230
1
40
0.984808
41
3.14159065697692
42
-2.57060639621303
0
ELLIPSE
5
D8
100
AcDbEntity
8
1
62
256
6
ByLayer
370
18
48
1
60
0
100
AcDbEllipse
10
15.214219
20
5.924994
30
0
11
2.32675207226252E-17
21
0.38
31
0
210
0
220
0
230
1
40
0.984808
41
-1.21675808061153
42
-0.380273966624673
0
ELLIPSE
5
D9
100
AcDbEntity
8
1
62
256
6
ByLayer
370
18
48
1
60
0
100
AcDbEllipse
10
15.70703
20
3.465383
30
0
11
2.32675207226252E-17
21
0.38
31
0
210
0
220
0
230
1
40
0.984808
41
-2.76130300633603
42
-1.52340884501638
0
ELLIPSE
5
DA
100
AcDbEntity
8
1
62
256
6
ByLayer
370
18
48
1
60
0
100
AcDbEllipse
10
15.957822
20
6.204078
30
0
11
-7.80686550561765E-17
21
-0.425
31
0
210
0
220
0
230
1
40
0.984808
41
-1.21675808061158
42
-3.0805092051164E-06
0
ELLIPSE
5
DB
100
AcDbEntity
8
1
62
256
6
ByLayer
370
18
48
1
60
0
100
AcDbEllipse
10
15.321706
20
4.695189
30
0
11
-7.34763812293426E-16
21
-4
31
0
210
0
220
0
230
1
40
0.984808
41
-3.1415054353455
42
-2.25469944319128E-16
0
ELLIPSE
5
DC
100
AcDbEntity
8
1
62
256
6
ByLayer
370
18
48
1
60
0
100
AcDbEllipse
10
16.49891
20
3.503516
30
0
11
-7.80686550561765E-17
21
-0.425
31
0
210
0
220
0
230
1
40
0.984808
41
-3.1415699292329
42
-1.52340884501637
0
ELLIPSE
5
DD
100
AcDbEntity
8
1
62
256
6
ByLayer
370
18
48
1
60
0
100
AcDbEllipse
10
16.386284
20
5.526777
30
0
11
2.32675207226252E-17
21
0.38
31
0
210
0
220
0
230
1
40
0.984808
41
-2.26395563180805
42
-0.380358348151557
0
ELLIPSE
5
DE
100
AcDbEntity
8
1
62
256
6
ByLayer
370
18
48
1
60
0
100
AcDbEllipse
10
16.632689
20
4.296971
30
0
11
2.32675207226252E-17
21
0.38
31
0
210
0
220
0
230
1
40
0.984808
41
-2.89446096032377
42
-0.476211293819801
0
ELLIPSE
5
DF
100
AcDbEntity
8
1
62
256
6
ByLayer
370
18
48
1
60
0
100
AcDbEllipse
10
15.460624
20
4.695189
30
0
11
-2.1124459603436E-16
21
-1.15
31
0
210
0
220
0
230
1
40
0.984808
41
-1.00532087102657
42
-0.322907939023668
0
ELLIPSE
5
E0
100
AcDbEntity
8
1
62
256
6
ByLayer
370
18
48
1
60
0
100
AcDbEllipse
10
15.460624
20
4.695189
30
0
11
-2.1124459603436E-16
21
-1.15
31
0
210
0
220
0
230
1
40
0.984808
41
-2.3005402022213
42
-1.65926216958503
0
ELLIPSE
5
E1
100
AcDbEntity
8
1
62
256
6
ByLayer
370
18
48
1
60
0
100
AcDbEllipse
10
15.460624
20
4.695189
30
0
11
-2.1124459603436E-16
21
-1.15
31
0
210
0
220
0
230
1
40
0.984808
41
0
42
-2.82420416317839
0
ELLIPSE
5
E2
100
AcDbEntity
8
1
62
256
6
ByLayer
370
18
48
1
60
0
100
AcDbEllipse
10
15.3738
20
4.695189
30
0
11
-2.1124459603436E-16
21
-1.15
31
0
210
0
220
0
230
1
40
0.984808
41
0.0762704620299189
42
3.10329330634056
0
ELLIPSE
5
E3
100
AcDbEntity
8
1
62
256
6
ByLayer
370
18
48
1
60
0
100
AcDbEllipse
10
15.644262
20
-2.131751
30
0
11
-4.35154490004312E-16
21
-2.36894894780438
31
0
210
0
220
0
230
1
40
0.984808
41
-1.44037015596519
42
-1.09083078249489
0
ELLIPSE
5
E4
100
AcDbEntity
8
1
62
256
6
ByLayer
370
18
48
1
60
0
100
AcDbEllipse
10
13.725707
20
4.695189
30
0
11
1.53075794227797E-16
21
2.5
31
0
210
0
220
0
230
1
40
0.984808
41
1.07395866939392
42
1.08672143480283
0
ELLIPSE
5
E5
100
AcDbEntity
8
1
62
256
6
ByLayer
370
18
48
1
60
0
100
AcDbEllipse
10
13.725707
20
4.695189
30
0
11
1.53075794227797E-16
21
2.5
31
0
210
0
220
0
230
1
40
0.984808
41
-2.78126657851324
42
-3.60751910910604E-16
0
ELLIPSE
5
E6
100
AcDbEntity
8
1
62
256
6
ByLayer
370
18
48
1
60
0
100
AcDbEllipse
10
13.824969
20
-2.397855
30
0
11
-4.31353124059626E-16
21
-2.34825459197964
31
0
210
0
220
0
230
1
40
0.984808
41
0.425036931573757
42
0.479965544300045
0
ELLIPSE
5
E7
100
AcDbEntity
8
1
62
256
6
ByLayer
370
18
48
1
60
0
100
AcDbEllipse
10
11.684971
20
11.83289
30
0
11
-0.0874371315969338
21
-2.99872552062007
31
0
210
0
220
0
230
1
40
0.981784
41
-0.294220949637223
42
-0.103433765127592
0
ELLIPSE
5
E8
100
AcDbEntity
8
1
62
256
6
ByLayer
370
18
48
1
60
0
100
AcDbEllipse
10
14.072684
20
5.111913
30
0
11
-0.120954698709092
21
-4.1482369701911
31
0
210
0
220
0
230
1
40
0.981784
41
2.84737170395258
42
2.97833733328053
0
ELLIPSE
5
E9
100
AcDbEntity
8
1
62
256
6
ByLayer
370
18
48
1
60
0
100
AcDbEllipse
10
15.980709
20
4.461538
30
0
11
0.120954698709084
21
4.1482369701911
31
0
210
0
220
0
230
1
40
0.981784
41
3.10429512080529
42
-0.294220949637218
0
ELLIPSE
5
EA
100
AcDbEntity
8
1
62
256
6
ByLayer
370
18
48
1
60
0
100
AcDbEllipse
10
13.998225
20
5.137294
30
0
11
0.0757788473840044
21
2.59889545120406
31
0
210
0
220
0
230
1
40
0.981784
41
1.15768586032815
42
1.40209205360693
0
ELLIPSE
5
EB
100
AcDbEntity
8
1
62
256
6
ByLayer
370
18
48
1
60
0
100
AcDbEllipse
10
28.149422
20
0.062541
30
0
11
-4.7392265892926E-16
21
-2.58
31
0
210
0
220
0
230
1
40
0.984808
41
-0.089633649021207
42
-2.5125042244864E-16
0
ELLIPSE
5
EC
100
AcDbEntity
8
1
62
256
6
ByLayer
370
18
48
1
60
0
100
AcDbEllipse
10
28.149422
20
0.062541
30
0
11
-4.7392265892926E-16
21
-2.58
31
0
210
0
220
0
230
1
40
0.984808
41
0
42
2.57208078375601
0
ELLIPSE
5
ED
100
AcDbEntity
8
1
62
256
6
ByLayer
370
18
48
1
60
0
100
AcDbEllipse
10
29.392643
20
5.221541
30
0
11
7.29253083701226E-17
21
1.191
31
0
210
0
220
0
230
1
40
0.984808
41
-0.479965544296851
42
1.57431406965396E-12
0
ELLIPSE
5
EE
100
AcDbEntity
8
1
62
256
6
ByLayer
370
18
48
1
60
0
100
AcDbEllipse
10
39.999143
20
0.062541
30
0
11
4.86168722467484E-17
21
0.794
31
0
210
0
220
0
230
1
40
0.984808
41
-2.66162710928976
42
-0.479965544296875
0
ELLIPSE
5
EF
100
AcDbEntity
8
1
62
256
6
ByLayer
370
18
48
1
60
0
100
AcDbEllipse
10
26.906202
20
-5.096459
30
0
11
7.29253083701226E-17
21
1.191
31
0
210
0
220
0
230
1
40
0.984808
41
2.66162710929294
42
-3.14159265358824
0
ELLIPSE
5
F0
100
AcDbEntity
8
1
62
256
6
ByLayer
370
18
48
1
60
0
100
AcDbEllipse
10
26.906202
20
5.221541
30
0
11
7.29253083701226E-17
21
1.191
31
0
210
0
220
0
230
1
40
0.984808
41
0
42
0.479965544300019
0
ELLIPSE
5
F1
100
AcDbEntity
8
1
62
256
6
ByLayer
370
18
48
1
60
0
100
AcDbEllipse
10
29.392643
20
-5.096459
30
0
11
7.29253083701226E-17
21
1.191
31
0
210
0
220
0
230
1
40
0.984808
41
-3.14159265358824
42
-2.66162710928978
0
ELLIPSE
5
F2
100
AcDbEntity
8
1
62
256
6
ByLayer
370
18
48
1
60
0
100
AcDbEllipse
10
28.767361
20
0.027637
30
0
11
-1.22942882660318
21
-1.98690016583856
31
0
210
0
220
0
230
1
40
0.768306
41
0.836476084504603
42
1.69168741798244
0
ELLIPSE
5
F3
100
AcDbEntity
8
1
62
256
6
ByLayer
370
18
48
1
60
0
100
AcDbEllipse
10
13.5374
20
9.977375
30
0
11
-2.82859171267065
21
3.05430993268992
31
0
210
0
220
0
230
1
40
0.43895
41
-0.681260415737384
42
-0.321644682383858
0
ELLIPSE
5
F4
100
AcDbEntity
8
1
62
256
6
ByLayer
370
18
48
1
60
0
100
AcDbEllipse
10
11.467385
20
3.083097
30
0
11
5.22371557769875
21
-1.72127730575505
31
0
210
0
220
0
230
1
40
0.055099
41
1.95183693222474
42
2.39360467151123
0
ELLIPSE
5
F5
100
AcDbEntity
8
1
62
256
6
ByLayer
370
18
48
1
60
0
100
AcDbEllipse
10
8.310137
20
2.553755
30
0
11
0.511501247168572
21
-1.93348557639952
31
0
210
0
220
0
230
1
40
0.747978
41
-2.05852772702365
42
-0.645852232764033
0
ELLIPSE
5
F6
100
AcDbEntity
8
1
62
256
6
ByLayer
370
18
48
1
60
0
100
AcDbEllipse
10
2.725707
20
1.290976
30
0
11
6.64836528070751
21
-2.19071657096097
31
0
210
0
220
0
230
1
40
0.055099
41
-0.843688341520597
42
-0.828907304780618
0
ELLIPSE
5
F7
100
AcDbEntity
8
1
62
256
6
ByLayer
370
18
48
1
60
0
100
AcDbEllipse
10
13.778402
20
10.096557
30
0
11
-5.15313131272712
21
1.93499343250013
31
0
210
0
220
0
230
1
40
0.181284
41
0.582051235279303
42
0.63504355568929
0
ELLIPSE
5
F8
100
AcDbEntity
8
1
62
256
6
ByLayer
370
18
48
1
60
0
100
AcDbEllipse
10
7.557063
20
2.464876
30
0
11
-0.669391738687887
21
2.92827033533164
31
0
210
0
220
0
230
1
40
0.989691
41
1.02315838606718
42
2.07484744913321
0
ELLIPSE
5
F9
100
AcDbEntity
8
1
62
256
6
ByLayer
370
18
48
1
60
0
100
AcDbEllipse
10
13.092302
20
8.01438
30
0
11
5.22371557769875
21
-1.72127730575505
31
0
210
0
220
0
230
1
40
0.055099
41
1.95183693222475
42
2.39360467151126
0
ELLIPSE
5
FA
100
AcDbEntity
8
1
62
256
6
ByLayer
370
18
48
1
60
0
100
AcDbEllipse
10
28.767361
20
0.027637
30
0
11
-0.479797139534927
21
2.17034109676875
31
0
210
0
220
0
230
1
40
0.750374
41
-2.0580703159495
42
-1.20285898247254
0
ELLIPSE
5
FB
100
AcDbEntity
8
1
62
256
6
ByLayer
370
18
48
1
60
0
100
AcDbEllipse
10
10.31932
20
-0.773411
30
0
11
-3.4056330416951
21
0.842346813515991
31
0
210
0
220
0
230
1
40
0.425012
41
-0.659906163779746
42
0.0633119426204985
0
ELLIPSE
5
FC
100
AcDbEntity
8
1
62
256
6
ByLayer
370
18
48
1
60
0
100
AcDbEllipse
10
10.912533
20
2.011456
30
0
11
-4.2009279045043
21
-1.73061023056422
31
0
210
0
220
0
230
1
40
0.496675
41
0.157125829221779
42
0.516741562562183
0
ELLIPSE
5
FD
100
AcDbEntity
8
1
62
256
6
ByLayer
370
18
48
1
60
0
100
AcDbEllipse
10
10.781283
20
1.00092
30
0
11
-5.2977439641505
21
1.49522373958615
31
0
210
0
220
0
230
1
40
0.291278
41
-0.640222444151719
42
-0.587230142173365
0
ELLIPSE
5
FE
100
AcDbEntity
8
1
62
256
6
ByLayer
370
18
48
1
60
0
100
AcDbEllipse
10
14.485768
20
11.870887
30
0
11
-3.24772553319071
21
1.32473365361136
31
0
210
0
220
0
230
1
40
0.315466
41
-0.0737990580064169
42
0.649419048394291
0
ELLIPSE
5
FF
100
AcDbEntity
8
1
62
256
6
ByLayer
370
18
48
1
60
0
100
AcDbEllipse
10
10.181929
20
10.430795
30
0
11
-0.669391738710564
21
2.92827033533077
31
0
210
0
220
0
230
1
40
0.989691
41
-0.0285306770036973
42
1.02315838606064
0
ELLIPSE
5
100
100
AcDbEntity
8
1
62
256
6
ByLayer
370
18
48
1
60
0
100
AcDbEllipse
10
10.939082
20
10.532053
30
0
11
-1.40807995611109
21
-1.42032068111332
31
0
210
0
220
0
230
1
40
0.783271
41
-2.64463270197828
42
-1.2319572077187
0
ELLIPSE
5
101
100
AcDbEntity
8
1
62
256
6
ByLayer
370
18
48
1
60
0
100
AcDbEllipse
10
14.812802
20
3.8636
30
0
11
2.32675207226252E-17
21
0.38
31
0
210
0
220
0
230
1
40
0.984808
41
0.877637021781653
42
-2.57060639621292
0
ELLIPSE
5
102
100
AcDbEntity
8
1
62
256
6
ByLayer
370
18
48
1
60
0
100
AcDbEllipse
10
15.610996
20
4.695189
30
0
11
2.44921270764475E-16
21
4
31
0
210
0
220
0
230
1
40
0.984808
41
0
42
6.28318530717959
0
ELLIPSE
5
103
100
AcDbEntity
8
1
62
256
6
ByLayer
370
18
48
1
60
0
100
AcDbEllipse
10
15.241264
20
3.186299
30
0
11
-7.80686550561765E-17
21
-0.425
31
0
210
0
220
0
230
1
40
0.984808
41
1.92483457297822
42
-2.57060639621291
0
ELLIPSE
5
104
100
AcDbEntity
8
1
62
256
6
ByLayer
370
18
48
1
60
0
100
AcDbEllipse
10
17.273944
20
5.012405
30
0
11
-7.80686550561765E-17
21
-0.425
31
0
210
0
220
0
230
1
40
0.984808
41
-2.26395563180816
42
-0.476211293819755
0
ELLIPSE
5
105
100
AcDbEntity
8
1
62
256
6
ByLayer
370
18
48
1
60
0
100
AcDbEllipse
10
14.202978
20
4.377972
30
0
11
-7.80686550561765E-17
21
-0.425
31
0
210
0
220
0
230
1
40
0.984808
41
0.877637021781641
42
2.66538135977004
0
ELLIPSE
5
106
100
AcDbEntity
8
1
62
256
6
ByLayer
370
18
48
1
60
0
100
AcDbEllipse
10
16.776747
20
3.503516
30
0
11
-7.80686550561765E-17
21
-0.425
31
0
210
0
220
0
230
1
40
0.984808
41
2.97203212417488
42
-1.52340884501642
0
ELLIPSE
5
107
100
AcDbEntity
8
1
62
256
6
ByLayer
370
18
48
1
60
0
100
AcDbEllipse
10
15.984867
20
3.465383
30
0
11
2.32675207226252E-17
21
0.38
31
0
210
0
220
0
230
1
40
0.984808
41
1.92483457297827
42
-1.52340884501636
0
ELLIPSE
5
108
100
AcDbEntity
8
1
62
256
6
ByLayer
370
18
48
1
60
0
100
AcDbEllipse
10
15.738461
20
4.695189
30
0
11
1.40829730689573E-16
21
2.3
31
0
210
0
220
0
230
1
40
0.984808
41
0
42
6.28318530717959
0
ELLIPSE
5
109
100
AcDbEntity
8
1
62
256
6
ByLayer
370
18
48
1
60
0
100
AcDbEllipse
10
14.700175
20
5.886862
30
0
11
-7.80686550561765E-17
21
-0.425
31
0
210
0
220
0
230
1
40
0.984808
41
-0.169560529414977
42
1.61818380857337
0
ELLIPSE
5
10A
100
AcDbEntity
8
1
62
256
6
ByLayer
370
18
48
1
60
0
100
AcDbEllipse
10
16.910526
20
4.296971
30
0
11
2.32675207226252E-17
21
0.38
31
0
210
0
220
0
230
1
40
0.984808
41
2.9720321241749
42
-0.476211293819794
0
ELLIPSE
5
10B
100
AcDbEntity
8
1
62
256
6
ByLayer
370
18
48
1
60
0
100
AcDbEllipse
10
16.235659
20
6.204078
30
0
11
-7.80686550561765E-17
21
-0.425
31
0
210
0
220
0
230
1
40
0.984808
41
-1.21675808061157
42
0.570986257376887
0
ELLIPSE
5
10C
100
AcDbEntity
8
1
62
256
6
ByLayer
370
18
48
1
60
0
100
AcDbEllipse
10
14.566396
20
5.093406
30
0
11
2.32675207226252E-17
21
0.38
31
0
210
0
220
0
230
1
40
0.984808
41
-0.169560529414895
42
2.66538135977
0
ELLIPSE
5
10D
100
AcDbEntity
8
1
62
256
6
ByLayer
370
18
48
1
60
0
100
AcDbEllipse
10
16.664121
20
5.526777
30
0
11
2.32675207226252E-17
21
0.38
31
0
210
0
220
0
230
1
40
0.984808
41
-2.26395563180811
42
0.57098625737688
0
ELLIPSE
5
10E
100
AcDbEntity
8
1
62
256
6
ByLayer
370
18
48
1
60
0
100
AcDbEllipse
10
16.996107
20
5.012405
30
0
11
-7.80686550561765E-17
21
-0.425
31
0
210
0
220
0
230
1
40
0.984808
41
-2.2639556318082
42
-0.476211293819751
0
ELLIPSE
5
10F
100
AcDbEntity
8
1
62
256
6
ByLayer
370
18
48
1
60
0
100
AcDbEllipse
10
15.492056
20
5.924994
30
0
11
2.32675207226252E-17
21
0.38
31
0
210
0
220
0
230
1
40
0.984808
41
-1.21675808061157
42
1.61818380857343
0
ELLIPSE
5
110
100
AcDbEntity
8
1
62
256
6
ByLayer
370
18
48
1
60
0
100
AcDbEllipse
10
15.780682
20
-2.397855
30
0
11
-4.35154490004312E-16
21
-2.36894894780438
31
0
210
0
220
0
230
1
40
0.984808
41
-1.09083078249489
42
0.479965544300004
0
ELLIPSE
5
111
100
AcDbEntity
8
1
62
256
6
ByLayer
370
18
48
1
60
0
100
AcDbEllipse
10
1.435335
20
-9.165548
30
0
11
-0.0173014136225613
21
-2.529898577936
31
0
210
0
220
0
230
1
40
0.081871
41
-1.48745845143861
42
0.0833378753590222
0
POINT
5
6C
100
AcDbEntity
8
2
62
256
6
ByLayer
370
18
48
1
60
0
100
AcDbPoint
10
40.781367
20
0.5442
30
0
39
0
210
0
220
0
230
1
50
360
0
POINT
5
6E
100
AcDbEntity
8
80
62
256
6
ByLayer
370
18
48
1
60
0
100
AcDbPoint
10
0
20
0
30
0
39
0
210
0
220
0
230
1
50
360
0
POINT
5
70
100
AcDbEntity
8
81
62
256
6
ByLayer
370
18
48
1
60
0
100
AcDbPoint
10
40.781367
20
0.5442
30
0
39
0
210
0
220
0
230
1
50
360
0
SPLINE
5
112
100
AcDbEntity
8
1
62
256
6
ByLayer
370
18
48
1
60
0
100
AcDbSpline
70
4
71
3
72
10
73
6
40
0
40
0
40
0
40
0
40
0.411670475231649
40
0.411670475231649
40
1
40
1
40
1
40
1
41
1
10
10.8039093943605
20
13.3740174465848
30
0
41
1
10
10.6495260672502
20
13.3952473804396
30
0
41
1
10
10.4899717999562
20
13.4099211002297
30
0
41
1
10
10.0904733670924
20
13.4239188466407
30
0
41
1
10
9.84371632750623
20
13.4134173076901
30
0
41
1
10
9.59548310991596
20
13.3767721511196
30
0
0
SPLINE
5
113
100
AcDbEntity
8
1
62
256
6
ByLayer
370
18
48
1
60
0
100
AcDbSpline
70
4
71
3
72
8
73
4
40
0
40
0
40
0
40
0
40
1
40
1
40
1
40
1
41
1
10
30.0046802853573
20
1.34537978977139
30
0
41
1
10
29.9597752070054
20
1.41821313779951
30
0
41
1
10
29.9128889093741
20
1.4874993532089
30
0
41
1
10
29.8649535018609
20
1.55212104860328
30
0
0
SPLINE
5
114
100
AcDbEntity
8
1
62
256
6
ByLayer
370
18
48
1
60
0
100
AcDbSpline
70
4
71
3
72
8
73
4
40
0
40
0
40
0
40
0
40
1
40
1
40
1
40
1
41
1
10
11.9704973852018
20
8.76875901306659
30
0
41
1
10
11.0303042925283
20
9.7585095353854
30
0
41
1
10
10.1157250885524
20
10.6249678034796
30
0
41
1
10
9.42180570526682
20
11.1001483472797
30
0
0
SPLINE
5
115
100
AcDbEntity
8
1
62
256
6
ByLayer
370
18
48
1
60
0
100
AcDbSpline
70
4
71
3
72
8
73
4
40
0
40
0
40
0
40
0
40
1
40
1
40
1
40
1
41
1
10
10.301161279953
20
3.70267408401565
30
0
41
1
10
10.0764977220458
20
3.82564402841678
30
0
41
1
10
9.84599784925337
20
3.91921884487141
30
0
41
1
10
9.61279378024932
20
3.990396952894
30
0
0
SPLINE
5
116
100
AcDbEntity
8
1
62
256
6
ByLayer
370
18
48
1
60
0
100
AcDbSpline
70
4
71
3
72
8
73
4
40
0
40
0
40
0
40
0
40
1
40
1
40
1
40
1
41
1
10
18.5737706552803
20
7.97393284258368
30
0
41
1
10
18.3224097776158
20
8.1178853831982
30
0
41
1
10
18.0624782405686
20
8.23605569969095
30
0
41
1
10
17.7939194504236
20
8.3273004263072
30
0
0
SPLINE
5
117
100
AcDbEntity
8
1
62
256
6
ByLayer
370
18
48
1
60
0
100
AcDbSpline
70
4
71
3
72
12
73
8
40
0
40
0
40
0
40
0
40
0.108854002841682
40
0.502629245107341
40
0.69951686624017
40
0.896404487373
40
1
40
1
40
1
40
1
41
1.0244126255267
10
20.7657915662665
20
4.24958859749199
30
0
41
1.02394775696077
10
21.0742644926724
20
4.11295839891227
30
0
41
1.02173322391444
10
22.5303102776578
20
3.45884606220679
30
0
41
1.01876555595691
10
24.5487863287626
20
2.48985212867698
30
0
41
1.01610930227499
10
25.882553714328
20
1.8089987968651
30
0
41
1.01814069306376
10
26.5272296444079
20
1.58098206513419
30
0
41
1.0200519600697
10
27.0929940417434
20
1.35794640646261
30
0
41
1.02076673234771
10
27.298799780302
20
1.27400139632631
30
0
0
SPLINE
5
118
100
AcDbEntity
8
1
62
256
6
ByLayer
370
18
48
1
60
0
100
AcDbSpline
70
4
71
3
72
10
73
6
40
0
40
0
40
0
40
0
40
0.655488757716282
40
0.655488757716282
40
1
40
1
40
1
40
1
41
1
10
7.05477317465295
20
-0.438897763607969
30
0
41
1
10
6.69041236448521
20
-0.338323255810593
30
0
41
1
10
6.29615427509424
20
-0.188249129090906
30
0
41
1
10
5.7198854624333
20
0.160101305483522
30
0
41
1
10
5.52382415265595
20
0.303450672856968
30
0
41
1
10
5.342707665506
20
0.470490715151698
30
0
0
SPLINE
5
119
100
AcDbEntity
8
1
62
256
6
ByLayer
370
18
48
1
60
0
100
AcDbSpline
70
4
71
3
72
12
73
8
40
0
40
0
40
0
40
0
40
0.108853988607132
40
0.502629237162306
40
0.699516861439892
40
0.896404485717479
40
1
40
1
40
1
40
1
41
1.02441262532206
10
20.0118280044194
20
1.96146686229082
30
0
41
1.02394775682001
10
20.3375483240826
20
1.87717903484679
30
0
41
1.02173322384668
10
21.8791551993076
20
1.48272682041084
30
0
41
1.01876555595691
10
24.0422561771321
20
0.95263936533192
30
0
41
1.01610930227499
10
25.4887376853137
20
0.613849753401614
30
0
41
1.01814069306376
10
26.1275599077192
20
0.368068246716222
30
0
41
1.02005196006971
10
26.7002126546777
20
0.165937284277989
30
0
41
1.02076673234773
10
26.9099837259929
20
0.0940262273043732
30
0
0
SPLINE
5
11A
100
AcDbEntity
8
1
62
256
6
ByLayer
370
18
48
1
60
0
100
AcDbSpline
70
4
71
3
72
20
73
16
40
0
40
0
40
0
40
0
40
0.110576036200126
40
0.110576036200126
40
0.197179369122806
40
0.197179369122806
40
0.284291117387374
40
0.284291117387374
40
0.365904217918093
40
0.365904217918093
40
0.497270233392092
40
0.497270233392092
40
0.733496364826727
40
0.733496364826727
40
1
40
1
40
1
40
1
41
1
10
26.7009965135604
20
2.95551012111363
30
0
41
1
10
26.6712682441014
20
2.93195345951423
30
0
41
1
10
26.6450964993526
20
2.89925410404183
30
0
41
1
10
26.6119924441525
20
2.82073648794352
30
0
41
1
10
26.601989296967
20
2.77833352820559
30
0
41
1
10
26.5948975763305
20
2.68119030617291
30
0
41
1
10
26.5978762804045
20
2.62509572269713
30
0
41
1
10
26.6152022807615
20
2.51232164856143
30
0
41
1
10
26.6288944713319
20
2.45470676629219
30
0
41
1
10
26.6734245012296
20
2.30689108808895
30
0
41
1
10
26.7101076125423
20
2.21558921787795
30
0
41
1
10
26.8222856927064
20
1.97490228598471
30
0
41
1
10
26.9071822796191
20
1.83106620757616
30
0
41
1
10
27.0921052741533
20
1.54690227550941
30
0
41
1
10
27.1949224366208
20
1.40664386856417
30
0
41
1
10
27.2987997803185
20
1.27400139631959
30
0
0
SPLINE
5
11B
100
AcDbEntity
8
1
62
256
6
ByLayer
370
18
48
1
60
0
100
AcDbSpline
70
4
71
3
72
10
73
6
40
0
40
0
40
0
40
0
40
0.5
40
0.5
40
1
40
1
40
1
40
1
41
1
10
29.2550713570383
20
2.72031218844145
30
0
41
1
10
28.7607468618355
20
3.26604495470699
30
0
41
1
10
28.2491366893575
20
3.46454714518197
30
0
41
1
10
27.400351581611
20
3.42604322219864
30
0
41
1
10
27.0349564845135
20
3.22019233167293
30
0
41
1
10
26.7009965135592
20
2.95551012111412
30
0
0
SPLINE
5
11C
100
AcDbEntity
8
1
62
256
6
ByLayer
370
18
48
1
60
0
100
AcDbSpline
70
4
71
3
72
8
73
4
40
0
40
0
40
0
40
0
40
1
40
1
40
1
40
1
41
1
10
11.1684285016854
20
2.94808543087316
30
0
41
1
10
9.90618210633244
20
1.99854974535205
30
0
41
1
10
8.67316721468382
20
1.16016560594511
30
0
41
1
10
7.84817394320697
20
0.779424180252647
30
0
0
SPLINE
5
11D
100
AcDbEntity
8
1
62
256
6
ByLayer
370
18
48
1
60
0
100
AcDbSpline
70
4
71
3
72
8
73
4
40
0
40
0
40
0
40
0
40
1
40
1
40
1
40
1
41
1
10
11.9704973852018
20
8.76875901306659
30
0
41
1
10
11.7146241538164
20
8.79701414482352
30
0
41
1
10
11.4709150948575
20
8.85050185194623
30
0
41
1
10
11.2377110258535
20
8.92167995996883
30
0
0
SPLINE
5
11E
100
AcDbEntity
8
1
62
256
6
ByLayer
370
18
48
1
60
0
100
AcDbSpline
70
4
71
2
72
6
73
3
40
0
40
0
40
0
40
1
40
1
40
1
41
1.02805999725224
10
14.9769072401749
20
-1.64261279887943
30
0
41
1.02805999725224
10
14.5443000735019
20
-2.17382960998919
30
0
41
1.02805999725224
10
14.1116929068291
20
-2.70504642109897
30
0
0
SPLINE
5
11F
100
AcDbEntity
8
1
62
256
6
ByLayer
370
18
48
1
60
0
100
AcDbSpline
70
4
71
3
72
10
73
6
40
0
40
0
40
0
40
0
40
0.5
40
0.5
40
1
40
1
40
1
40
1
41
1
10
9.28096264087895
20
11.1993735864357
30
0
41
1
10
9.5393044802293
20
11.879438027724
30
0
41
1
10
9.92079409692872
20
12.4242595406518
30
0
41
1
10
10.5977724260004
20
13.069056951793
30
0
41
1
10
10.8769603530066
20
13.2282652396737
30
0
41
1
10
11.2776961439191
20
13.2675568701248
30
0
0
SPLINE
5
120
100
AcDbEntity
8
1
62
256
6
ByLayer
370
18
48
1
60
0
100
AcDbSpline
70
4
71
2
72
6
73
3
40
0
40
0
40
0
40
1
40
1
40
1
41
0.937301687603847
10
16.0345074528586
20
0.267801604858473
30
0
41
0.930554446910519
10
15.435087075305
20
-1.07999421628743
30
0
41
1.02805999725225
10
14.9769072401749
20
-1.6426127988794
30
0
0
SPLINE
5
121
100
AcDbEntity
8
1
62
256
6
ByLayer
370
18
48
1
60
0
100
AcDbSpline
70
4
71
3
72
8
73
4
40
0
40
0
40
0
40
0
40
1
40
1
40
1
40
1
41
1
10
13.3151897338695
20
8.92798751221764
30
0
41
1
10
14.1065646297699
20
9.25187833751016
30
0
41
1
10
15.0041549261406
20
9.27514242844217
30
0
41
1
10
15.8755796249276
20
8.97906979434754
30
0
0
SPLINE
5
122
100
AcDbEntity
8
1
62
256
6
ByLayer
370
18
48
1
60
0
100
AcDbSpline
70
4
71
3
72
15
73
11
40
0
40
0
40
0
40
0
40
0.322163720426459
40
0.322163720426459
40
0.644833452600231
40
0.644833452600231
40
0.912233455904558
40
0.912233455904558
40
0.912233455904558
40
1
40
1
40
1
40
1
41
1
10
18.5737706685094
20
7.97393283500745
30
0
41
1
10
18.9934550144617
20
7.73267145094152
30
0
41
1
10
19.3772282519192
20
7.41517415078462
30
0
41
1
10
20.0191072784489
20
6.68919946525389
30
0
41
1
10
20.2861050302406
20
6.27038516373219
30
0
41
1
10
20.625721870398
20
5.45318251949192
30
0
41
1
10
20.7268052575535
20
5.05324812707087
30
0
41
1
10
20.7578051150106
20
4.65138749402374
30
0
41
1
10
20.7681071062416
20
4.51783963099143
30
0
41
1
10
20.770865749128
20
4.3833874919475
30
0
41
1
10
20.7657917020087
20
4.24958853736848
30
0
0
SPLINE
5
123
100
AcDbEntity
8
1
62
256
6
ByLayer
370
18
48
1
60
0
100
AcDbSpline
70
4
71
3
72
10
73
6
40
0
40
0
40
0
40
0
40
0.5
40
0.5
40
1
40
1
40
1
40
1
41
1
10
25.4294408513206
20
-0.90339459957471
30
0
41
1
10
25.5135292841241
20
-1.39613632841943
30
0
41
1
10
25.6522049049421
20
-1.85434955609492
30
0
41
1
10
26.2588808095455
20
-2.56246546415693
30
0
41
1
10
26.7521208892573
20
-2.79418858190604
30
0
41
1
10
27.4673979256379
20
-2.70490170499528
30
0
0
SPLINE
5
124
100
AcDbEntity
8
1
62
256
6
ByLayer
370
18
48
1
60
0
100
AcDbSpline
70
4
71
3
72
20
73
16
40
0
40
0
40
0
40
0
40
0.332873226652387
40
0.332873226652387
40
0.501657261698206
40
0.501657261698206
40
0.631212321676506
40
0.631212321676506
40
0.722542323637664
40
0.722542323637664
40
0.81476534740418
40
0.81476534740418
40
0.896421359038799
40
0.896421359038799
40
1
40
1
40
1
40
1
41
1
10
26.9099837260027
20
0.0940262273010433
30
0
41
1
10
26.7119337389624
20
0.0514867322946202
30
0
41
1
10
26.5072362154211
20
-0.0022890445966368
30
0
41
1
10
26.1921331353492
20
-0.118680748353768
30
0
41
1
10
26.0836940125021
20
-0.164605275157044
30
0
41
1
10
25.8951967605905
20
-0.263609528824418
30
0
41
1
10
25.8129087762391
20
-0.313508150148181
30
0
41
1
10
25.6838812301668
20
-0.410323935103747
30
0
41
1
10
25.6328396287685
20
-0.454728506120802
30
0
41
1
10
25.5455107405912
20
-0.547348847405317
30
0
41
1
10
25.5083780767756
20
-0.596897930224173
30
0
41
1
10
25.4583822645192
20
-0.686769772991795
30
0
41
1
10
25.4425101267111
20
-0.728530706317997
30
0
41
1
10
25.4226474078231
20
-0.816539845578603
30
0
41
1
10
25.4224092002854
20
-0.862210192289126
30
0
41
1
10
25.4294408513206
20
-0.90339459957471
30
0
0
SPLINE
5
125
100
AcDbEntity
8
1
62
256
6
ByLayer
370
18
48
1
60
0
100
AcDbSpline
70
4
71
2
72
6
73
3
40
0
40
0
40
0
40
1
40
1
40
1
41
1.02805999725224
10
18.7751796502214
20
9.88434726174837
30
0
41
0.93055444607248
10
18.8625802645311
20
9.32172867381501
30
0
41
0.937301687719829
10
18.57377066851
20
7.97393283501063
30
0
0
SPLINE
5
126
100
AcDbEntity
8
1
62
256
6
ByLayer
370
18
48
1
60
0
100
AcDbSpline
70
4
71
3
72
8
73
4
40
0
40
0
40
0
40
0
40
1
40
1
40
1
40
1
41
1
10
13.281961713675
20
1.10798345613193
30
0
41
1
10
12.4131966344827
20
1.40315246587414
30
0
41
1
10
11.7142667404873
20
1.99949149802785
30
0
41
1
10
11.2838246565248
20
2.76322058997886
30
0
0
SPLINE
5
127
100
AcDbEntity
8
1
62
256
6
ByLayer
370
18
48
1
60
0
100
AcDbSpline
70
4
71
1
72
4
73
2
40
0
40
0
40
1
40
1
41
1
10
18.7751796502213
20
9.88434726174839
30
0
41
1
10
18.6101347099427
20
10.9467808839663
30
0
0
SPLINE
5
128
100
AcDbEntity
8
1
62
256
6
ByLayer
370
18
48
1
60
0
100
AcDbSpline
70
4
71
3
72
11
73
7
40
0
40
0
40
0
40
0
40
0.423407924939467
40
0.740963868644067
40
0.899741840496367
40
1
40
1
40
1
40
1
41
1.02805999725225
10
14.9769072401749
20
-1.6426127988794
30
0
41
1.02767136955277
10
15.8223274875168
20
-1.81056351374241
30
0
41
1.02349884684923
10
19.0926824049639
20
-1.57543403045099
30
0
41
1.01876555595691
10
23.2294356888358
20
-0.944214982550272
30
0
41
1.01635405201137
10
24.7759165001191
20
-0.723497171043398
30
0
41
1.01722454828226
10
25.2400296861456
20
-0.844345910645943
30
0
41
1.01774327987904
10
25.4294408513211
20
-0.903394599574821
30
0
0
SPLINE
5
129
100
AcDbEntity
8
1
62
256
6
ByLayer
370
18
48
1
60
0
100
AcDbSpline
70
4
71
3
72
8
73
4
40
0
40
0
40
0
40
0
40
1
40
1
40
1
40
1
41
1
10
21.8984912330616
20
-3.49377290567338
30
0
41
1
10
22.7053770887264
20
-3.43273562105691
30
0
41
1
10
23.4735592182099
20
-3.46942091281781
30
0
41
1
10
24.0939121455724
20
-3.60439567895298
30
0
0
SPLINE
5
12A
100
AcDbEntity
8
1
62
256
6
ByLayer
370
18
48
1
60
0
100
AcDbSpline
70
4
71
3
72
8
73
4
40
0
40
0
40
0
40
0
40
1
40
1
40
1
40
1
41
1.02417048357497
10
28.6126750825982
20
3.7707148772602
30
0
41
1.02233815524058
10
28.1896061825436
20
4.35918543771675
30
0
41
1.02059845272928
10
27.7380556061808
20
4.9110081056073
30
0
41
1.01923193651505
10
27.3622713441919
20
5.34214493754502
30
0
0
SPLINE
5
12B
100
AcDbEntity
8
1
62
256
6
ByLayer
370
18
48
1
60
0
100
AcDbSpline
70
4
71
3
72
8
73
4
40
0
40
0
40
0
40
0
40
1
40
1
40
1
40
1
41
1
10
16.0345074546645
20
0.267801628883234
30
0
41
1
10
15.7528377871036
20
0.301913890911322
30
0
41
1
10
15.4704596743393
20
0.364425972821465
30
0
41
1
10
15.200301539171
20
0.456214088091457
30
0
0
SPLINE
5
12C
100
AcDbEntity
8
1
62
256
6
ByLayer
370
18
48
1
60
0
100
AcDbSpline
70
4
71
3
72
8
73
4
40
0
40
0
40
0
40
0
40
1
40
1
40
1
40
1
41
1
10
28.6127285410054
20
3.77064051851963
30
0
41
1
10
28.8282775496868
20
3.42311759379416
30
0
41
1
10
29.0427739640082
20
3.07240563416491
30
0
41
1
10
29.2550713570543
20
2.72031218842389
30
0
0
SPLINE
5
12D
100
AcDbEntity
8
1
62
256
6
ByLayer
370
18
48
1
60
0
100
AcDbSpline
70
4
71
3
72
8
73
4
40
0
40
0
40
0
40
0
40
1
40
1
40
1
40
1
41
1
10
6.79286008326267
20
3.12184981707156
30
0
41
1
10
7.66356495914766
20
3.20716400068346
30
0
41
1
10
8.94788703973956
20
3.43531031307475
30
0
41
1
10
10.301161279953
20
3.70267408401565
30
0
0
SPLINE
5
12E
100
AcDbEntity
8
1
62
256
6
ByLayer
370
18
48
1
60
0
100
AcDbSpline
70
4
71
3
72
8
73
4
40
0
40
0
40
0
40
0
40
1
40
1
40
1
40
1
41
1
10
28.6401703716114
20
-2.16483884821113
30
0
41
1
10
28.7155677805728
20
-2.14611912948251
30
0
41
1
10
28.7930657450383
20
-2.12250535697728
30
0
41
1
10
28.8712840347662
20
-2.09424009606752
30
0
0
SPLINE
5
12F
100
AcDbEntity
8
1
62
256
6
ByLayer
370
18
48
1
60
0
100
AcDbSpline
70
4
71
3
72
8
73
4
40
0
40
0
40
0
40
0
40
1
40
1
40
1
40
1
41
1
10
24.3951468371216
20
-3.66231055348294
30
0
41
1
10
24.2942377487258
20
-3.64536380830813
30
0
41
1
10
24.1937763132801
20
-3.62612386316411
30
0
41
1
10
24.0939121455723
20
-3.60439567895298
30
0
0
SPLINE
5
130
100
AcDbEntity
8
1
62
256
6
ByLayer
370
18
48
1
60
0
100
AcDbSpline
70
4
71
3
72
12
73
8
40
0
40
0
40
0
40
0
40
0.46693897235863
40
0.46693897235863
40
0.928803236876569
40
0.928803236876569
40
1
40
1
40
1
40
1
41
1
10
13.1152709590365
20
8.85634393032325
30
0
41
1
10
12.9537973673152
20
8.80634312998291
30
0
41
1
10
12.7728313702673
20
8.77267236242318
30
0
41
1
10
12.4128344805333
20
8.74275147929035
30
0
41
1
10
12.2289829875769
20
8.74520188828762
30
0
41
1
10
12.0250857937502
20
8.76303802095407
30
0
41
1
10
11.9977225707584
20
8.76575263681988
30
0
41
1
10
11.9704973852018
20
8.76875901306659
30
0
0
SPLINE
5
131
100
AcDbEntity
8
1
62
256
6
ByLayer
370
18
48
1
60
0
100
AcDbSpline
70
4
71
3
72
8
73
4
40
0
40
0
40
0
40
0
40
1
40
1
40
1
40
1
41
1
10
6.6326790303944
20
3.16740975323088
30
0
41
1
10
6.62532913508068
20
3.14510436262569
30
0
41
1
10
6.61855528851567
20
3.12284708475789
30
0
41
1
10
6.61233061551224
20
3.10063514641462
30
0
0
SPLINE
5
132
100
AcDbEntity
8
1
62
256
6
ByLayer
370
18
48
1
60
0
100
AcDbSpline
70
4
71
3
72
8
73
4
40
0
40
0
40
0
40
0
40
1
40
1
40
1
40
1
41
1
10
27.0942278285145
20
5.50093308974556
30
0
41
1
10
27.1845577139288
20
5.45027035863592
30
0
41
1
10
27.2738946792599
20
5.39726998010471
30
0
41
1
10
27.3622366675025
20
5.3421847219733
30
0
0
SPLINE
5
133
100
AcDbEntity
8
1
62
256
6
ByLayer
370
18
48
1
60
0
100
AcDbSpline
70
4
71
3
72
8
73
4
40
0
40
0
40
0
40
0
40
1
40
1
40
1
40
1
41
1
10
9.25754535021639
20
11.1333284569672
30
0
41
1
10
9.26489524553011
20
11.1556338475724
30
0
41
1
10
9.27270813303716
20
11.1776442479837
30
0
41
1
10
9.28096264087901
20
11.1993735864357
30
0
0
SPLINE
5
134
100
AcDbEntity
8
1
62
256
6
ByLayer
370
18
48
1
60
0
100
AcDbSpline
70
4
71
3
72
10
73
6
40
0
40
0
40
0
40
0
40
0.5
40
0.5
40
1
40
1
40
1
40
1
41
1
10
21.8984912330614
20
-3.49377290567338
30
0
41
1
10
20.5931194703635
20
-3.59251840635443
30
0
41
1
10
19.2872385979579
20
-3.58701243609488
30
0
41
1
10
16.6742634485748
20
-3.32752907700774
30
0
41
1
10
15.3688272813277
20
-3.11888852872102
30
0
41
1
10
14.111692906829
20
-2.70504642109896
30
0
0
SPLINE
5
135
100
AcDbEntity
8
1
62
256
6
ByLayer
370
18
48
1
60
0
100
AcDbSpline
70
4
71
3
72
8
73
4
40
0
40
0
40
0
40
0
40
1
40
1
40
1
40
1
41
1
10
11.1684285016854
20
2.94808543087316
30
0
41
1
10
11.209789589491
20
2.88794230437799
30
0
41
1
10
11.248343232115
20
2.82617492705515
30
0
41
1
10
11.2838246565248
20
2.76322058997886
30
0
0
SPLINE
5
136
100
AcDbEntity
8
1
62
256
6
ByLayer
370
18
48
1
60
0
100
AcDbSpline
70
4
71
3
72
11
73
7
40
0
40
0
40
0
40
0
40
0.564783939443777
40
0.564783939443777
40
0.564783939443777
40
1
40
1
40
1
40
1
41
1
10
27.0942278285145
20
5.5009330897455
30
0
41
1
10
26.7823059619986
20
5.67587866371611
30
0
41
1
10
26.4326176840532
20
5.89178034063201
30
0
41
1
10
26.0918927258496
20
6.15338123036835
30
0
41
1
10
25.8271679395222
20
6.3566309130556
30
0
41
1
10
25.559766356536
20
6.5835698771883
30
0
41
1
10
25.2964045453203
20
6.8181812701994
30
0
0
SPLINE
5
137
100
AcDbEntity
8
1
62
256
6
ByLayer
370
18
48
1
60
0
100
AcDbSpline
70
4
71
3
72
15
73
11
40
0
40
0
40
0
40
0
40
0.227604479949747
40
0.227604479949747
40
0.479423709218444
40
0.479423709218444
40
0.785574270382838
40
0.785574270382838
40
0.785574270382838
40
1
40
1
40
1
40
1
41
1
10
20.0118280044193
20
1.96146686229082
30
0
41
1
10
19.8194777660835
20
1.68110102833987
30
0
41
1
10
19.5805744534977
20
1.42470042350027
30
0
41
1
10
19.0218456140349
20
0.965748387449906
30
0
41
1
10
18.6901811557611
20
0.765746826981342
30
0
41
1
10
17.9205514332163
20
0.428018583929003
30
0
41
1
10
17.4642006892784
20
0.307703689562032
30
0
41
1
10
17.0064435753558
20
0.260174461337073
30
0
41
1
10
16.6838588692983
20
0.226680274901156
30
0
41
1
10
16.3560749340921
20
0.228877009894006
30
0
41
1
10
16.0345074630896
20
0.267801627862895
30
0
0
SPLINE
5
138
100
AcDbEntity
8
1
62
256
6
ByLayer
370
18
48
1
60
0
100
AcDbSpline
70
4
71
3
72
8
73
4
40
0
40
0
40
0
40
0
40
1
40
1
40
1
40
1
41
1.01923193622652
10
24.3951979927634
20
-3.66229999536989
30
0
41
1.02059843499303
10
24.9508283382604
20
-3.54762165953355
30
0
41
1.02233811057541
10
25.6384921396428
20
-3.3828613192957
30
0
41
1.02417041321379
10
26.3251313724912
20
-3.17142868953738
30
0
0
SPLINE
5
139
100
AcDbEntity
8
1
62
256
6
ByLayer
370
18
48
1
60
0
100
AcDbSpline
70
4
71
3
72
11
73
7
40
0
40
0
40
0
40
0
40
0.423407924946043
40
0.740963868655575
40
0.899741840510341
40
1
40
1
40
1
40
1
41
1.02805999725224
10
18.7751796502214
20
9.88434726174837
30
0
41
1.02767136955277
10
19.5530788055449
20
9.51148419554229
30
0
41
1.02349884684923
10
22.0506103252269
20
7.4012567697534
30
0
41
1.01876555595691
10
24.9848719065417
20
4.383165728008
30
0
41
1.01635405201144
10
26.0824862734141
20
3.24166803243686
30
0
41
1.01722454828215
10
26.5179521167211
20
3.0338806166386
30
0
41
1.0177432798788
10
26.7009965134842
20
2.95551012114621
30
0
0
SPLINE
5
13A
100
AcDbEntity
8
1
62
256
6
ByLayer
370
18
48
1
60
0
100
AcDbSpline
70
4
71
3
72
8
73
4
40
0
40
0
40
0
40
0
40
1
40
1
40
1
40
1
41
1
10
11.6464463532535
20
12.3063842408804
30
0
41
1
10
12.1295445333248
20
11.6524775528017
30
0
41
1
10
12.654024321855
20
10.3350420804038
30
0
41
1
10
13.115270959028
20
8.85634393032171
30
0
0
SPLINE
5
13B
100
AcDbEntity
8
1
62
256
6
ByLayer
370
18
48
1
60
0
100
AcDbSpline
70
4
71
3
72
12
73
8
40
0
40
0
40
0
40
0
40
0.471343086678527
40
0.471343086678527
40
0.892619726108221
40
0.892619726108221
40
1
40
1
40
1
40
1
41
1
10
10.301161279953
20
3.70267408401565
30
0
41
1
10
10.4575806732503
20
3.61705768820931
30
0
41
1
10
10.6125312978958
20
3.51456879791999
30
0
41
1
10
10.8799424758258
20
3.29212536617686
30
0
41
1
10
10.9977235185538
20
3.17257567384596
30
0
41
1
10
11.121315690946
20
3.01438164492615
30
0
41
1
10
11.1455299039379
20
2.9813822645385
30
0
41
1
10
11.1684285016854
20
2.94808543087316
30
0
0
SPLINE
5
13C
100
AcDbEntity
8
1
62
256
6
ByLayer
370
18
48
1
60
0
100
AcDbSpline
70
4
71
3
72
12
73
8
40
0
40
0
40
0
40
0
40
0.286978363858296
40
0.286978363858296
40
0.569998995185617
40
0.569998995185617
40
1
40
1
40
1
40
1
41
1
10
20.765791702008
20
4.24958853736905
30
0
41
1
10
20.7569088695483
20
4.01571053459014
30
0
41
1
10
20.7289397381397
20
3.78155181965812
30
0
41
1
10
20.6368894501117
20
3.32569868059215
30
0
41
1
10
20.5729964935129
20
3.10231169739191
30
0
41
1
10
20.370137835771
20
2.56004731081737
30
0
41
1
10
20.2075640048736
20
2.24679961700872
30
0
41
1
10
20.0118280044193
20
1.96146686229082
30
0
0
SPLINE
5
13D
100
AcDbEntity
8
1
62
256
6
ByLayer
370
18
48
1
60
0
100
AcDbSpline
70
4
71
3
72
8
73
4
40
0
40
0
40
0
40
0
40
1
40
1
40
1
40
1
41
1
10
26.3252444573538
20
-3.17139386758069
30
0
41
1
10
26.7061661925407
20
-3.01704525480997
30
0
41
1
10
27.0875528718065
20
-2.86128026608793
30
0
41
1
10
27.467397925638
20
-2.70490170499525
30
0
0
SPLINE
5
13E
100
AcDbEntity
8
1
62
256
6
ByLayer
370
18
48
1
60
0
100
AcDbSpline
70
4
71
3
72
10
73
6
40
0
40
0
40
0
40
0
40
0.967465556419481
40
0.967465556419481
40
1
40
1
40
1
40
1
41
1
10
27.2987997803185
20
1.27400139631959
30
0
41
1
10
27.5517793766334
20
0.950850509852472
30
0
41
1
10
27.8073566531322
20
0.637715055344614
30
0
41
1
10
28.0738563910693
20
0.33124366655008
30
0
41
1
10
28.0825371997452
20
0.321283457966729
30
0
41
1
10
28.0912207911704
20
0.311343097168873
30
0
0
SPLINE
5
13F
100
AcDbEntity
8
1
62
256
6
ByLayer
370
18
48
1
60
0
100
AcDbSpline
70
4
71
3
72
10
73
6
40
0
40
0
40
0
40
0
40
0.264715639145584
40
0.264715639145584
40
1
40
1
40
1
40
1
41
1
10
28.09122079116
20
0.311343097180981
30
0
41
1
10
27.9890229890132
20
0.296298134296677
30
0
41
1
10
27.8861479562489
20
0.279967368400264
30
0
41
1
10
27.4955172517205
20
0.214100194463867
30
0
41
1
10
27.2040574743864
20
0.157256980357545
30
0
41
1
10
26.9099837260027
20
0.0940262273010433
30
0
0
SPLINE
5
140
100
AcDbEntity
8
1
62
256
6
ByLayer
370
18
48
1
60
0
100
AcDbSpline
70
4
71
3
72
8
73
4
40
0
40
0
40
0
40
0
40
1
40
1
40
1
40
1
41
1
10
13.3151897338696
20
8.92798751221767
30
0
41
1
10
13.2504894718014
20
8.90150724175865
30
0
41
1
10
13.1838440448311
20
8.87757779980606
30
0
41
1
10
13.1152709590365
20
8.85634393032325
30
0
0
SPLINE
5
141
100
AcDbEntity
8
1
62
256
6
ByLayer
370
18
48
1
60
0
100
AcDbSpline
70
4
71
3
72
10
73
6
40
0
40
0
40
0
40
0
40
0.5
40
0.5
40
1
40
1
40
1
40
1
41
1
10
18.6101347099427
20
10.9467808839663
30
0
41
1
10
19.8631230108401
20
10.5077516869486
30
0
41
1
10
21.0147629191964
20
9.88325215606974
30
0
41
1
10
23.245961864594
20
8.5023431258108
30
0
41
1
10
24.3077419849988
20
7.69891450720218
30
0
41
1
10
25.2964045453201
20
6.81818127019966
30
0
0
SPLINE
5
142
100
AcDbEntity
8
1
62
256
6
ByLayer
370
18
48
1
60
0
100
AcDbSpline
70
4
71
3
72
10
73
6
40
0
40
0
40
0
40
0
40
0.5
40
0.5
40
1
40
1
40
1
40
1
41
1
10
6.89785897351015
20
-0.0243302525098557
30
0
41
1
10
6.61796078832248
20
0.308276921577175
30
0
41
1
10
6.51106098357997
20
0.671825418137473
30
0
41
1
10
6.3871293202414
20
1.69379623662277
30
0
41
1
10
6.41798240489612
20
2.40712876158835
30
0
41
1
10
6.61233061551218
20
3.10063514641459
30
0
0
LINE
5
72
100
AcDbEntity
8
1
62
256
6
ByLayer
370
18
48
1
60
0
100
AcDbLine
10
15.241264
20
3.611299
30
0
11
14.963427
21
3.611299
31
0
39
0
210
0
220
0
230
1
0
LINE
5
74
100
AcDbEntity
8
1
62
256
6
ByLayer
370
18
48
1
60
0
100
AcDbLine
10
11.670785
20
13.256873
30
0
11
10.79654
21
13.375009
31
0
39
0
210
0
220
0
230
1
0
LINE
5
75
100
AcDbEntity
8
1
62
256
6
ByLayer
370
18
48
1
60
0
100
AcDbLine
10
14.474854
20
5.461862
30
0
11
14.700175
21
5.461862
31
0
39
0
210
0
220
0
230
1
0
LINE
5
76
100
AcDbEntity
8
1
62
256
6
ByLayer
370
18
48
1
60
0
100
AcDbLine
10
15.957822
20
5.779078
30
0
11
16.235659
21
5.779078
31
0
39
0
210
0
220
0
230
1
0
LINE
5
77
100
AcDbEntity
8
1
62
256
6
ByLayer
370
18
48
1
60
0
100
AcDbLine
10
11.294329
20
8.859013
30
0
11
11.877867
21
8.780161
31
0
39
0
210
0
220
0
230
1
0
LINE
5
78
100
AcDbEntity
8
1
62
256
6
ByLayer
370
18
48
1
60
0
100
AcDbLine
10
15.321706
20
0.695189
30
0
11
15.610996
21
0.695189
31
0
39
0
210
0
220
0
230
1
0
LINE
5
79
100
AcDbEntity
8
1
62
256
6
ByLayer
370
18
48
1
60
0
100
AcDbLine
10
15.610996
20
8.695189
30
0
11
15.321706
21
8.695189
31
0
39
0
210
0
220
0
230
1
0
LINE
5
7A
100
AcDbEntity
8
1
62
256
6
ByLayer
370
18
48
1
60
0
100
AcDbLine
10
16.776747
20
3.928516
30
0
11
16.49891
21
3.928516
31
0
39
0
210
0
220
0
230
1
0
LINE
5
7B
100
AcDbEntity
8
80
62
256
6
ByLayer
370
18
48
1
60
0
100
AcDbLine
10
0
20
0
30
0
11
-5
21
0
31
0
39
0
210
0
220
0
230
1
0
LINE
5
7C
100
AcDbEntity
8
81
62
256
6
ByLayer
370
18
48
1
60
0
100
AcDbLine
10
40.781367
20
0.5442
30
0
11
50.781367
21
0.5442
31
0
39
0
210
0
220
0
230
1
0
LINE
5
7D
100
AcDbEntity
8
1
62
256
6
ByLayer
370
18
48
1
60
0
100
AcDbLine
10
27.77433
20
6.836822
30
0
11
28.57703
21
6.412517
31
0
39
0
210
0
220
0
230
1
0
LINE
5
7E
100
AcDbEntity
8
1
62
256
6
ByLayer
370
18
48
1
60
0
100
AcDbLine
10
28.57703
20
-6.287436
30
0
11
27.77433
21
-6.711741
31
0
39
0
210
0
220
0
230
1
0
LINE
5
7F
100
AcDbEntity
8
1
62
256
6
ByLayer
370
18
48
1
60
0
100
AcDbLine
10
14.503244
20
5.467956
30
0
11
14.629547
21
5.467956
31
0
39
0
210
0
220
0
230
1
0
LINE
5
80
100
AcDbEntity
8
1
62
256
6
ByLayer
370
18
48
1
60
0
100
AcDbLine
10
7.247254
20
-5.189817
30
0
11
8.666958
21
-0.881315
31
0
39
0
210
0
220
0
230
1
0
LINE
5
81
100
AcDbEntity
8
1
62
256
6
ByLayer
370
18
48
1
60
0
100
AcDbLine
10
14.222568
20
12.4375
30
0
11
16.814747
21
12.4375
31
0
39
0
210
0
220
0
230
1
0
LINE
5
82
100
AcDbEntity
8
1
62
256
6
ByLayer
370
18
48
1
60
0
100
AcDbLine
10
25.971488
20
6.25036
30
0
11
27.245528
21
6.923814
31
0
39
0
210
0
220
0
230
1
0
LINE
5
83
100
AcDbEntity
8
1
62
256
6
ByLayer
370
18
48
1
60
0
100
AcDbLine
10
16.857923
20
-4.499138
30
0
11
18.727362
21
-3.510957
31
0
39
0
210
0
220
0
230
1
0
LINE
5
84
100
AcDbEntity
8
1
62
256
6
ByLayer
370
18
48
1
60
0
100
AcDbLine
10
20.992918
20
-3.51738
30
0
11
27.256339
21
-6.793018
31
0
39
0
210
0
220
0
230
1
0
LINE
5
85
100
AcDbEntity
8
1
62
256
6
ByLayer
370
18
48
1
60
0
100
AcDbLine
10
1.487296
20
-11.634489
30
0
11
5.449707
21
0.390598
31
0
39
0
210
0
220
0
230
1
0
LINE
5
86
100
AcDbEntity
8
1
62
256
6
ByLayer
370
18
48
1
60
0
100
AcDbLine
10
27.324808
20
6.826832
30
0
11
26.075547
21
6.166476
31
0
39
0
210
0
220
0
230
1
0
LINE
5
87
100
AcDbEntity
8
1
62
256
6
ByLayer
370
18
48
1
60
0
100
AcDbLine
10
14.987057
20
-4.613834
30
0
11
17.320788
21
-3.380229
31
0
39
0
210
0
220
0
230
1
0
LINE
5
88
100
AcDbEntity
8
1
62
256
6
ByLayer
370
18
48
1
60
0
100
AcDbLine
10
1.435335
20
-11.686785
30
0
11
5.421756
21
0.411167
31
0
39
0
210
0
220
0
230
1
0
LINE
5
89
100
AcDbEntity
8
1
62
256
6
ByLayer
370
18
48
1
60
0
100
AcDbLine
10
21.246189
20
-3.510799
30
0
11
25.195712
21
-5.576316
31
0
39
0
210
0
220
0
230
1
0
LINE
5
8A
100
AcDbEntity
8
1
62
256
6
ByLayer
370
18
48
1
60
0
100
AcDbLine
10
26.39315
20
-6.202551
30
0
11
27.336183
21
-6.695738
31
0
39
0
210
0
220
0
230
1
0
LINE
5
8B
100
AcDbEntity
8
1
62
256
6
ByLayer
370
18
48
1
60
0
100
AcDbLine
10
1.227488
20
-9.374729
30
0
11
4.779296
21
1.404261
31
0
39
0
210
0
220
0
230
1
0
LINE
5
8C
100
AcDbEntity
8
1
62
256
6
ByLayer
370
18
48
1
60
0
100
AcDbLine
10
1.227488
20
12.4375
30
0
11
7.960615
21
12.4375
31
0
39
0
210
0
220
0
230
1
0
LINE
5
8D
100
AcDbEntity
8
1
62
256
6
ByLayer
370
18
48
1
60
0
100
AcDbLine
10
14.8928
20
-4.480782
30
0
11
17.058036
21
-3.336243
31
0
39
0
210
0
220
0
230
1
0
LINE
5
8E
100
AcDbEntity
8
1
62
256
6
ByLayer
370
18
48
1
60
0
100
AcDbLine
10
21.360474
20
-3.507713
30
0
11
26.364614
21
-6.152889
31
0
39
0
210
0
220
0
230
1
0
LINE
5
8F
100
AcDbEntity
8
1
62
256
6
ByLayer
370
18
48
1
60
0
100
AcDbLine
10
26.364614
20
6.277971
30
0
11
26.107712
21
6.142173
31
0
39
0
210
0
220
0
230
1
0
LINE
5
90
100
AcDbEntity
8
1
62
256
6
ByLayer
370
18
48
1
60
0
100
AcDbLine
10
26.364614
20
6.277971
30
0
11
26.286463
21
6.277971
31
0
39
0
210
0
220
0
230
1
0
LINE
5
91
100
AcDbEntity
8
1
62
256
6
ByLayer
370
18
48
1
60
0
100
AcDbLine
10
26.289771
20
-6.152889
30
0
11
26.364614
21
-6.152889
31
0
39
0
210
0
220
0
230
1
0
LINE
5
92
100
AcDbEntity
8
1
62
256
6
ByLayer
370
18
48
1
60
0
100
AcDbLine
10
26.541047
20
6.412541
30
0
11
26.906202
21
6.412541
31
0
39
0
210
0
220
0
230
1
0
LINE
5
93
100
AcDbEntity
8
1
62
256
6
ByLayer
370
18
48
1
60
0
100
AcDbLine
10
26.906202
20
-6.287459
30
0
11
26.555502
21
-6.287459
31
0
39
0
210
0
220
0
230
1
0
LINE
5
94
100
AcDbEntity
8
1
62
256
6
ByLayer
370
18
48
1
60
0
100
AcDbLine
10
26.906202
20
6.412541
30
0
11
29.392643
21
6.412541
31
0
39
0
210
0
220
0
230
1
0
LINE
5
95
100
AcDbEntity
8
1
62
256
6
ByLayer
370
18
48
1
60
0
100
AcDbLine
10
29.934231
20
-6.152889
30
0
11
40.360201
21
-0.641746
31
0
39
0
210
0
220
0
230
1
0
LINE
5
96
100
AcDbEntity
8
1
62
256
6
ByLayer
370
18
48
1
60
0
100
AcDbLine
10
29.392643
20
-6.287459
30
0
11
26.906202
21
-6.287459
31
0
39
0
210
0
220
0
230
1
0
LINE
5
97
100
AcDbEntity
8
1
62
256
6
ByLayer
370
18
48
1
60
0
100
AcDbLine
10
40.360201
20
0.766827
30
0
11
29.934231
21
6.277971
31
0
39
0
210
0
220
0
230
1
0
LINE
5
98
100
AcDbEntity
8
1
62
256
6
ByLayer
370
18
48
1
60
0
100
AcDbLine
10
13.529222
20
12.674967
30
0
11
13.533644
21
12.671554
31
0
39
0
210
0
220
0
230
1
0
LINE
5
99
100
AcDbEntity
8
1
62
256
6
ByLayer
370
18
48
1
60
0
100
AcDbLine
10
28.091221
20
0.311343
30
0
11
30.431033
21
-0.670433
31
0
39
0
210
0
220
0
230
1
0
LINE
5
9A
100
AcDbEntity
8
1
62
256
6
ByLayer
370
18
48
1
60
0
100
AcDbLine
10
9.257545
20
11.133328
30
0
11
6.632679
21
3.16741
31
0
39
0
210
0
220
0
230
1
0
LINE
5
9B
100
AcDbEntity
8
1
62
256
6
ByLayer
370
18
48
1
60
0
100
AcDbLine
10
29.076678
20
-2.004898
30
0
11
28.871284
21
-2.09424
31
0
39
0
210
0
220
0
230
1
0
LINE
5
9C
100
AcDbEntity
8
1
62
256
6
ByLayer
370
18
48
1
60
0
100
AcDbLine
10
14.111693
20
-2.705046
30
0
11
9.035202
21
-0.980273
31
0
39
0
210
0
220
0
230
1
0
LINE
5
9D
100
AcDbEntity
8
1
62
256
6
ByLayer
370
18
48
1
60
0
100
AcDbLine
10
7.684767
20
-0.524028
30
0
11
7.054773
21
-0.438898
31
0
39
0
210
0
220
0
230
1
0
LINE
5
9E
100
AcDbEntity
8
1
62
256
6
ByLayer
370
18
48
1
60
0
100
AcDbLine
10
17.793919
20
8.3273
30
0
11
17.277517
21
8.397081
31
0
39
0
210
0
220
0
230
1
0
LINE
5
9F
100
AcDbEntity
8
1
62
256
6
ByLayer
370
18
48
1
60
0
100
AcDbLine
10
9.257545
20
11.133328
30
0
11
7.359139
21
11.389857
31
0
39
0
210
0
220
0
230
1
0
LINE
5
A0
100
AcDbEntity
8
1
62
256
6
ByLayer
370
18
48
1
60
0
100
AcDbLine
10
18.610135
20
10.946781
30
0
11
13.533644
21
12.671554
31
0
39
0
210
0
220
0
230
1
0
LINE
5
A1
100
AcDbEntity
8
1
62
256
6
ByLayer
370
18
48
1
60
0
100
AcDbLine
10
9.029451
20
-0.980894
30
0
11
9.035202
21
-0.980273
31
0
39
0
210
0
220
0
230
1
0
LINE
5
A2
100
AcDbEntity
8
1
62
256
6
ByLayer
370
18
48
1
60
0
100
AcDbLine
10
15.200302
20
0.456214
30
0
11
13.281962
21
1.107983
31
0
39
0
210
0
220
0
230
1
0
LINE
5
A3
100
AcDbEntity
8
1
62
256
6
ByLayer
370
18
48
1
60
0
100
AcDbLine
10
7.848174
20
0.779424
30
0
11
14.976907
21
-1.642613
31
0
39
0
210
0
220
0
230
1
0
LINE
5
A4
100
AcDbEntity
8
1
62
256
6
ByLayer
370
18
48
1
60
0
100
AcDbLine
10
13.529222
20
12.674967
30
0
11
12.184537
21
13.131833
31
0
39
0
210
0
220
0
230
1
0
LINE
5
A5
100
AcDbEntity
8
1
62
256
6
ByLayer
370
18
48
1
60
0
100
AcDbLine
10
29.864954
20
1.552121
30
0
11
29.771403
21
1.773257
31
0
39
0
210
0
220
0
230
1
0
LINE
5
A6
100
AcDbEntity
8
1
62
256
6
ByLayer
370
18
48
1
60
0
100
AcDbLine
10
28.434397
20
-2.284277
30
0
11
27.467398
21
-2.704902
31
0
39
0
210
0
220
0
230
1
0
LINE
5
A7
100
AcDbEntity
8
1
62
256
6
ByLayer
370
18
48
1
60
0
100
AcDbLine
10
11.646446
20
12.306384
30
0
11
18.77518
21
9.884347
31
0
39
0
210
0
220
0
230
1
0
LINE
5
A8
100
AcDbEntity
8
1
62
256
6
ByLayer
370
18
48
1
60
0
100
AcDbLine
10
7.684767
20
-0.524028
30
0
11
9.029451
21
-0.980894
31
0
39
0
210
0
220
0
230
1
0
LINE
5
A9
100
AcDbEntity
8
1
62
256
6
ByLayer
370
18
48
1
60
0
100
AcDbLine
10
10.747519
20
8.987919
30
0
11
9.327519
21
9.471945
31
0
39
0
210
0
220
0
230
1
0
LINE
5
AA
100
AcDbEntity
8
1
62
256
6
ByLayer
370
18
48
1
60
0
100
AcDbLine
10
15.87558
20
8.97907
30
0
11
17.793919
21
8.3273
31
0
39
0
210
0
220
0
230
1
0
LINE
5
AB
100
AcDbEntity
8
1
62
256
6
ByLayer
370
18
48
1
60
0
100
AcDbLine
10
11.237711
20
8.92168
30
0
11
10.747519
21
8.987919
31
0
39
0
210
0
220
0
230
1
0
LINE
5
AC
100
AcDbEntity
8
1
62
256
6
ByLayer
370
18
48
1
60
0
100
AcDbLine
10
9.327519
20
9.471945
30
0
11
7.702602
21
4.540662
31
0
39
0
210
0
220
0
230
1
0
LINE
5
AD
100
AcDbEntity
8
1
62
256
6
ByLayer
370
18
48
1
60
0
100
AcDbLine
10
6.632679
20
3.16741
30
0
11
4.734273
21
3.423939
31
0
39
0
210
0
220
0
230
1
0
LINE
5
AE
100
AcDbEntity
8
1
62
256
6
ByLayer
370
18
48
1
60
0
100
AcDbLine
10
15.87558
20
8.97907
30
0
11
15.369493
21
9.047457
31
0
39
0
210
0
220
0
230
1
0
LINE
5
AF
100
AcDbEntity
8
1
62
256
6
ByLayer
370
18
48
1
60
0
100
AcDbLine
10
28.434397
20
-2.284277
30
0
11
28.64017
21
-2.164839
31
0
39
0
210
0
220
0
230
1
0
LINE
5
B0
100
AcDbEntity
8
1
62
256
6
ByLayer
370
18
48
1
60
0
100
AcDbLine
10
9.029451
20
-0.980894
30
0
11
7.128901
21
-0.459301
31
0
39
0
210
0
220
0
230
1
0
LINE
5
B1
100
AcDbEntity
8
1
62
256
6
ByLayer
370
18
48
1
60
0
100
AcDbLine
10
29.771403
20
1.773257
30
0
11
29.255071
21
2.720312
31
0
39
0
210
0
220
0
230
1
0
LINE
5
B2
100
AcDbEntity
8
1
62
256
6
ByLayer
370
18
48
1
60
0
100
AcDbLine
10
4.734273
20
3.423939
30
0
11
7.359139
21
11.389857
31
0
39
0
210
0
220
0
230
1
0
LINE
5
B3
100
AcDbEntity
8
1
62
256
6
ByLayer
370
18
48
1
60
0
100
AcDbLine
10
15.369493
20
9.047457
30
0
11
17.277517
21
8.397081
31
0
39
0
210
0
220
0
230
1
0
LINE
5
B4
100
AcDbEntity
8
1
62
256
6
ByLayer
370
18
48
1
60
0
100
AcDbLine
10
30.114351
20
1.144222
30
0
11
30.00468
21
1.34538
31
0
39
0
210
0
220
0
230
1
0
LINE
5
B5
100
AcDbEntity
8
1
62
256
6
ByLayer
370
18
48
1
60
0
100
AcDbLine
10
16.674151
20
5.283968
30
0
11
16.951988
21
5.283968
31
0
39
0
210
0
220
0
230
1
0
LINE
5
B6
100
AcDbEntity
8
1
62
256
6
ByLayer
370
18
48
1
60
0
100
AcDbLine
10
15.565236
20
6.056736
30
0
11
15.843073
21
6.056736
31
0
39
0
210
0
220
0
230
1
0
LINE
5
B7
100
AcDbEntity
8
1
62
256
6
ByLayer
370
18
48
1
60
0
100
AcDbLine
10
14.73722
20
3.543881
30
0
11
15.015057
21
3.543881
31
0
39
0
210
0
220
0
230
1
0
LINE
5
B8
100
AcDbEntity
8
1
62
256
6
ByLayer
370
18
48
1
60
0
100
AcDbLine
10
16.080837
20
3.483384
30
0
11
16.358674
21
3.483384
31
0
39
0
210
0
220
0
230
1
0
LINE
5
B9
100
AcDbEntity
8
1
62
256
6
ByLayer
370
18
48
1
60
0
100
AcDbLine
10
16.804241
20
4.634692
30
0
11
17.082078
21
4.634692
31
0
39
0
210
0
220
0
230
1
0
LINE
5
BA
100
AcDbEntity
8
1
62
256
6
ByLayer
370
18
48
1
60
0
100
AcDbLine
10
0
20
12.4375
30
0
11
0.5
21
12.4375
31
0
39
0
210
0
220
0
230
1
0
LINE
5
BB
100
AcDbEntity
8
1
62
256
6
ByLayer
370
18
48
1
60
0
100
AcDbLine
10
0.5
20
12.4375
30
0
11
0.5
21
-12.439682
31
0
39
0
210
0
220
0
230
1
0
LINE
5
BC
100
AcDbEntity
8
1
62
256
6
ByLayer
370
18
48
1
60
0
100
AcDbLine
10
1.227488
20
12.4375
30
0
11
0.5
21
12.4375
31
0
39
0
210
0
220
0
230
1
0
LINE
5
BD
100
AcDbEntity
8
1
62
256
6
ByLayer
370
18
48
1
60
0
100
AcDbLine
10
13.711322
20
-3.491714
30
0
11
13.574902
21
-3.22561
31
0
39
0
210
0
220
0
230
1
0
LINE
5
BE
100
AcDbEntity
8
1
62
256
6
ByLayer
370
18
48
1
60
0
100
AcDbLine
10
1.227488
20
-9.374729
30
0
11
1.227488
21
12.4375
31
0
39
0
210
0
220
0
230
1
0
LINE
5
BF
100
AcDbEntity
8
1
62
256
6
ByLayer
370
18
48
1
60
0
100
AcDbLine
10
4.211052
20
-12.464619
30
0
11
7.247254
21
-12.464619
31
0
39
0
210
0
220
0
230
1
0
LINE
5
C0
100
AcDbEntity
8
1
62
256
6
ByLayer
370
18
48
1
60
0
100
AcDbLine
10
16.540339
20
-12.45747
30
0
11
7.247254
21
-12.464619
31
0
39
0
210
0
220
0
230
1
0
LINE
5
C1
100
AcDbEntity
8
1
62
256
6
ByLayer
370
18
48
1
60
0
100
AcDbLine
10
14.987057
20
-4.613834
30
0
11
16.857923
21
-4.499138
31
0
39
0
210
0
220
0
230
1
0
LINE
5
C2
100
AcDbEntity
8
1
62
256
6
ByLayer
370
18
48
1
60
0
100
AcDbLine
10
0.5
20
-12.439682
30
0
11
1.561234
21
-12.456963
31
0
39
0
210
0
220
0
230
1
0
LINE
5
C3
100
AcDbEntity
8
1
62
256
6
ByLayer
370
18
48
1
60
0
100
AcDbLine
10
0
20
12.4375
30
0
11
0
21
-12.4375
31
0
39
0
210
0
220
0
230
1
0
LINE
5
C4
100
AcDbEntity
8
1
62
256
6
ByLayer
370
18
48
1
60
0
100
AcDbLine
10
1.561234
20
-12.456963
30
0
11
1.487296
21
-11.634489
31
0
39
0
210
0
220
0
230
1
0
LINE
5
C5
100
AcDbEntity
8
1
62
256
6
ByLayer
370
18
48
1
60
0
100
AcDbLine
10
27.245528
20
6.923814
30
0
11
27.324808
21
6.826832
31
0
39
0
210
0
220
0
230
1
0
LINE
5
C6
100
AcDbEntity
8
1
62
256
6
ByLayer
370
18
48
1
60
0
100
AcDbLine
10
7.247254
20
-12.464619
30
0
11
7.247254
21
-5.189817
31
0
39
0
210
0
220
0
230
1
0
LINE
5
C7
100
AcDbEntity
8
1
62
256
6
ByLayer
370
18
48
1
60
0
100
AcDbLine
10
4.211052
20
-12.464619
30
0
11
1.561234
21
-12.456963
31
0
39
0
210
0
220
0
230
1
0
LINE
5
C8
100
AcDbEntity
8
1
62
256
6
ByLayer
370
18
48
1
60
0
100
AcDbLine
10
1.487296
20
-11.634489
30
0
11
1.435335
21
-11.686785
31
0
39
0
210
0
220
0
230
1
0
LINE
5
C9
100
AcDbEntity
8
1
62
256
6
ByLayer
370
18
48
1
60
0
100
AcDbLine
10
27.256339
20
-6.793018
30
0
11
27.336183
21
-6.695738
31
0
39
0
210
0
220
0
230
1
0
LINE
5
CA
100
AcDbEntity
8
1
62
256
6
ByLayer
370
18
48
1
60
0
100
AcDbLine
10
27.245528
20
6.923814
30
0
11
16.814747
21
12.4375
31
0
39
0
210
0
220
0
230
1
0
LINE
5
CB
100
AcDbEntity
8
1
62
256
6
ByLayer
370
18
48
1
60
0
100
AcDbLine
10
14.8928
20
-4.480782
30
0
11
14.987057
21
-4.613834
31
0
39
0
210
0
220
0
230
1
0
LINE
5
CC
100
AcDbEntity
8
1
62
256
6
ByLayer
370
18
48
1
60
0
100
AcDbLine
10
16.540339
20
-12.45747
30
0
11
27.256339
21
-6.793018
31
0
39
0
210
0
220
0
230
1
0
LINE
5
CD
100
AcDbEntity
8
1
62
256
6
ByLayer
370
18
48
1
60
0
100
AcDbLine
10
7.247254
20
-5.189817
30
0
11
4.211052
21
-12.464619
31
0
39
0
210
0
220
0
230
1
0
LINE
5
CE
100
AcDbEntity
8
1
62
256
6
ByLayer
370
18
48
1
60
0
100
AcDbLine
10
0.5
20
-12.439682
30
0
11
0
21
-12.4375
31
0
39
0
210
0
220
0
230
1
0
LINE
5
CF
100
AcDbEntity
8
SK1
62
256
6
ByLayer
370
18
48
1
60
0
100
AcDbLine
10
-130.568633
20
-12.4375
30
0
11
0
21
-12.4375
31
0
39
0
210
0
220
0
230
1
0
LINE
5
D1
100
AcDbEntity
8
SK1
62
256
6
ByLayer
370
18
48
1
60
0
100
AcDbLine
10
-130.568633
20
12.4375
30
0
11
-130.568633
21
-12.4375
31
0
39
0
210
0
220
0
230
1
0
LINE
5
D2
100
AcDbEntity
8
SK1
62
256
6
ByLayer
370
18
48
1
60
0
100
AcDbLine
10
0
20
12.4375
30
0
11
0
21
-12.4375
31
0
39
0
210
0
220
0
230
1
0
LINE
5
D3
100
AcDbEntity
8
SK1
62
256
6
ByLayer
370
18
48
1
60
0
100
AcDbLine
10
0
20
12.4375
30
0
11
-130.568633
21
12.4375
31
0
39
0
210
0
220
0
230
1
0
MTEXT
5
143
100
AcDbEntity
8
SK6
62
256
6
ByLayer
370
18
48
1
60
0
100
AcDbMText
10
-59.018633
20
-22.71252
30
0
210
0
220
0
230
1
1
\W0.7474;DDNNN 3225P 15
40
3.5
41
0
44
1.084337
50
0
71
7
72
5
7
iso_b_vert
0
DIMENSION
5
154
100
AcDbEntity
8
2
62
256
6
ByLayer
370
13
48
1
60
0
100
AcDbDimension
2
DimnDraft3D1
10
37.64102
20
2.20418
30
0
11
27.644147
21
22.348178
31
0
70
34
71
5
72
1
41
1
210
0
220
0
230
1
3
Standard
100
AcDb2LineAngularDimension
13
40.781367
23
0.5442
33
0
14
40.781367
24
-1.0433
34
0
15
40.781367
25
0.5442
35
0
16
29.966501
26
18.493743
36
0
40
0
0
DIMENSION
5
16A
100
AcDbEntity
8
SK2
62
256
6
ByLayer
370
13
48
1
60
0
100
AcDbDimension
2
DimnDraft3D2
10
-138.318633
20
12.4375
30
0
11
-138.318633
21
-5.281579
31
0
70
32
71
5
72
1
41
1
210
0
220
0
230
1
3
Standard
100
AcDbAlignedDimension
13
-132.568633
23
-12.4375
33
0
14
-132.568633
24
12.4375
34
0
50
90
100
AcDbRotatedDimension
1001
ACAD
1000
DSTYLE
1002
{
1070
    74
1070
     0
1070
   279
1070
     0
1070
   172
1070
     1
1070
   173
1070
     1
1070
   340
1005
144
1070
    77
1070
     1
1070
    73
1070
     0
1070
   171
1070
     3
1070
   274
1070
     4
1070
   177
1070
     2
1070
   176
1070
     2
1070
   178
1070
     7
1070
    78
1070
     8
1070
    41
1041
3.175
1070
   147
1041
2.25
1070
    42
1041
2.0
1070
    44
1041
2.0
1070
   140
1041
4.5
1070
   343
1005
155
1070
   344
1005
155
1002
}
0
DIMENSION
5
178
100
AcDbEntity
8
2
62
256
6
ByLayer
370
13
48
1
60
0
100
AcDbDimension
2
DimnDraft3D3
10
63.031367
20
0.5442
30
0
11
63.031367
21
10.7992
31
0
70
32
71
5
72
1
41
1
210
0
220
0
230
1
3
Standard
100
AcDbAlignedDimension
13
2
23
-12.4375
33
0
14
42.781367
24
0.5442
34
0
50
90
100
AcDbRotatedDimension
1001
ACAD
1000
DSTYLE
1002
{
1070
    74
1070
     0
1070
   279
1070
     0
1070
   172
1070
     1
1070
   173
1070
     1
1070
   340
1005
144
1070
    77
1070
     1
1070
    73
1070
     0
1070
   171
1070
     3
1070
   274
1070
     4
1070
   177
1070
     2
1070
   176
1070
     2
1070
   178
1070
     7
1070
    78
1070
     8
1070
    41
1041
3.175
1070
   147
1041
2.25
1070
    42
1041
2.0
1070
    44
1041
2.0
1070
   140
1041
4.5
1070
   343
1005
155
1070
   344
1005
155
1002
}
0
DIMENSION
5
186
100
AcDbEntity
8
2
62
256
6
ByLayer
370
13
48
1
60
0
100
AcDbDimension
2
DimnDraft3D4
10
40.781367
20
30.2942
30
0
11
14.872262
21
30.2942
31
0
70
32
71
5
72
1
41
1
210
0
220
0
230
1
3
Standard
100
AcDbAlignedDimension
13
0
23
14.4375
33
0
14
40.781367
24
2.5442
34
0
50
0
100
AcDbRotatedDimension
1001
ACAD
1000
DSTYLE
1002
{
1070
   279
1070
     0
1070
   172
1070
     1
1070
   173
1070
     1
1070
   340
1005
144
1070
    77
1070
     1
1070
    73
1070
     0
1070
   171
1070
     3
1070
   274
1070
     4
1070
   177
1070
     2
1070
   176
1070
     2
1070
   178
1070
     7
1070
    78
1070
     8
1070
    41
1041
3.175
1070
   147
1041
2.25
1070
    42
1041
2.0
1070
    44
1041
2.0
1070
   140
1041
4.5
1070
   343
1005
155
1070
   344
1005
155
1002
}
0
DIMENSION
5
194
100
AcDbEntity
8
SK2
62
256
6
ByLayer
370
13
48
1
60
0
100
AcDbDimension
2
DimnDraft3D5
10
-130.568633
20
40.2942
30
0
11
-51.294291
21
40.2942
31
0
70
32
71
5
72
1
41
1
210
0
220
0
230
1
3
Standard
100
AcDbAlignedDimension
13
40.781367
23
2.5442
33
0
14
-130.568633
24
14.4375
34
0
50
0
100
AcDbRotatedDimension
1001
ACAD
1000
DSTYLE
1002
{
1070
   279
1070
     0
1070
   172
1070
     1
1070
   173
1070
     1
1070
   340
1005
144
1070
    77
1070
     1
1070
    73
1070
     0
1070
   171
1070
     3
1070
   274
1070
     4
1070
   177
1070
     2
1070
   176
1070
     2
1070
   178
1070
     7
1070
    78
1070
     8
1070
    41
1041
3.175
1070
   147
1041
2.25
1070
    42
1041
2.0
1070
    44
1041
2.0
1070
   140
1041
4.5
1070
   343
1005
155
1070
   344
1005
155
1002
}
0
ENDSEC
0
SECTION
2
OBJECTS
0
DICTIONARY
5
1fe
330
0
100
AcDbDictionary
280
0
281
1
3
ACAD_GROUP
350
1ff
3
ACAD_MLINESTYLE
350
200
0
DICTIONARY
5
1ff
330
0
100
AcDbDictionary
280
0
281
1
0
DICTIONARY
5
200
330
0
100
AcDbDictionary
280
0
281
1
3
Standard
350
18
0
MLINESTYLE
5
18
330
200
100
AcDbMlineStyle
2
Standard
70
0
3

62
256
51
90
52
90
71
2
49
-0.5
62
256
6
ByLayer
49
0.5
62
256
6
ByLayer
0
RASTERVARIABLES
5
1ed
330

100
AcDbRasterVariables
90
0
70
1
71
1
72
1
0
ENDSEC
0
EOF
