0
SECTION
2
HEADER
9
$ACADVER
1
AC1015
9
$DWGCODEPAGE
3
ANSI_1252
9
$HANDSEED
5
259
9
$ANGBASE
50
0
9
$ANGDIR
70
0
9
$ATTMODE
70
1
9
$AUNITS
70
0
9
$AUPREC
70
0
9
$CECOLOR
62
256
9
$CELTSCALE
40
1
9
$CELTYPE
6
ByLayer
9
$CELWEIGHT
370
18
9
$CLAYER
8
0
9
$CMLJUST
70
0
9
$CMLSCALE
40
1
9
$CMLSTYLE
2
Standard
9
$DIMSTYLE
2
Standard
9
$TEXTSIZE
40
0.2
9
$TEXTSTYLE
7
Standard
9
$LUNITS
70
2
9
$LUPREC
70
4
9
$EXTNAMES
290
1
9
$INSUNITS
70
4
9
$LTSCALE
40
1
9
$LWDISPLAY
290
1
9
$PDMODE
70
0
9
$PDSIZE
40
0
9
$PLINEGEN
70
0
0
ENDSEC
0
SECTION
2
CLASSES
0
CLASS
1
RASTERVARIABLES
2
AcDbRasterVariables
3
ISM
90
0
280
0
281
0
0
ENDSEC
0
SECTION
2
TABLES
0
TABLE
2
VPORT
5
24f
100
AcDbSymbolTable
0
VPORT
5
1
100
AcDbSymbolTableRecord
100
AcDbViewportTableRecord
2
*Active
70
0
10
0
20
0
11
1
21
1
12
-1
22
1
13
0
23
0
14
0.5
24
0.5
15
10
25
10
16
0
26
0
36
1
17
0
27
0
37
0
0
ENDTAB
0
TABLE
2
LTYPE
5
250
100
AcDbSymbolTable
0
LTYPE
5
14
100
AcDbSymbolTableRecord
100
AcDbLinetypeTableRecord
70
0
2
ByBlock
3

72
65
73
0
40
0
0
LTYPE
5
15
100
AcDbSymbolTableRecord
100
AcDbLinetypeTableRecord
70
0
2
ByLayer
3

72
65
73
0
40
0
0
LTYPE
5
16
100
AcDbSymbolTableRecord
100
AcDbLinetypeTableRecord
70
0
2
CONTINUOUS
3
Solid line
72
65
73
0
40
0
0
LTYPE
5
6A
100
AcDbSymbolTableRecord
100
AcDbLinetypeTableRecord
70
0
2
CENTER
3
____ _ ____ _ ____ _ ____
72
65
73
4
40
47.5
49
22
74
0
49
-8.5
74
0
49
8.5
74
0
49
-8.5
74
0
0
LTYPE
5
6B
100
AcDbSymbolTableRecord
100
AcDbLinetypeTableRecord
70
0
2
DASHED
3
__ __ __ __ __ __ __ __ __
72
65
73
2
40
25.72
49
12.86
74
0
49
-12.86
74
0
0
ENDTAB
0
TABLE
2
LAYER
5
251
100
AcDbSymbolTable
0
LAYER
5
10
100
AcDbSymbolTableRecord
100
AcDbLayerTableRecord
2
0
70
0
62
7
6
CONTINUOUS
290
1
370
-3
390
0
0
LAYER
5
6D
100
AcDbSymbolTableRecord
100
AcDbLayerTableRecord
2
2
70
0
62
7
6
CONTINUOUS
290
1
370
-3
390
0
0
LAYER
5
6F
100
AcDbSymbolTableRecord
100
AcDbLayerTableRecord
2
80
70
0
62
-6
6
CONTINUOUS
290
1
370
-3
390
0
0
LAYER
5
71
100
AcDbSymbolTableRecord
100
AcDbLayerTableRecord
2
81
70
0
62
-3
6
CONTINUOUS
290
1
370
-3
390
0
0
LAYER
5
73
100
AcDbSymbolTableRecord
100
AcDbLayerTableRecord
2
1
70
0
62
4
6
CONTINUOUS
290
1
370
-3
390
0
0
LAYER
5
23c
100
AcDbSymbolTableRecord
100
AcDbLayerTableRecord
2
SK1
70
0
62
4
6
CONTINUOUS
290
1
370
-3
390
0
0
LAYER
5
23d
100
AcDbSymbolTableRecord
100
AcDbLayerTableRecord
2
SK6
70
0
62
5
6
CONTINUOUS
290
1
370
-3
390
0
0
LAYER
5
23e
100
AcDbSymbolTableRecord
100
AcDbLayerTableRecord
2
SK2
70
0
62
7
6
CONTINUOUS
290
1
370
-3
390
0
0
ENDTAB
0
TABLE
2
STYLE
5
252
100
AcDbSymbolTable
0
STYLE
5
11
100
AcDbSymbolTableRecord
100
AcDbTextStyleTableRecord
2
Standard
3
txt
70
0
71
0
40
0
41
1
42
0
50
0
0
STYLE
5
192
100
AcDbSymbolTableRecord
100
AcDbTextStyleTableRecord
2
iso_b_vert
3
simplex.shx
70
0
71
0
40
0
41
1
42
0
50
0
0
STYLE
5
193
100
AcDbSymbolTableRecord
100
AcDbTextStyleTableRecord
2
DWGDirectTextStyle
3
simplex
70
0
71
0
40
0
41
1
42
0
50
0
0
ENDTAB
0
TABLE
2
DIMSTYLE
5
253
100
AcDbSymbolTable
100
AcDbDimStyleTable
0
DIMSTYLE
105
27
100
AcDbSymbolTableRecord
100
AcDbDimStyleTableRecord
2
Standard
70
0
3
<>
41
0.18
42
0.0625
44
0.18
140
0.18
147
0.09
73
0
74
0
77
1
271
2
275
0
278
52
280
0
340
11
0
ENDTAB
0
TABLE
2
VIEW
5
254
100
AcDbSymbolTable
0
ENDTAB
0
TABLE
2
UCS
5
255
100
AcDbSymbolTable
0
ENDTAB
0
TABLE
2
APPID
5
256
100
AcDbSymbolTable
0
APPID
5
12
100
AcDbSymbolTableRecord
100
AcDbRegAppTableRecord
2
ACAD
70
0
0
ENDTAB
0
TABLE
2
BLOCK_RECORD
5
257
100
AcDbSymbolTable
0
BLOCK_RECORD
5
1F
100
AcDbSymbolTableRecord
100
AcDbBlockTableRecord
2
*Model_Space
340
0
70
0
0
BLOCK_RECORD
5
1B
100
AcDbSymbolTableRecord
100
AcDbBlockTableRecord
2
*Paper_Space
340
0
70
0
0
BLOCK_RECORD
5
23
100
AcDbSymbolTableRecord
100
AcDbBlockTableRecord
2
*Paper_Space0
340
0
70
0
0
BLOCK_RECORD
5
195
100
AcDbSymbolTableRecord
100
AcDbBlockTableRecord
2
DimnDraft3D1
340
0
70
0
0
BLOCK_RECORD
5
1A3
100
AcDbSymbolTableRecord
100
AcDbBlockTableRecord
2
_CLOSED
340
0
70
0
0
BLOCK_RECORD
5
1AA
100
AcDbSymbolTableRecord
100
AcDbBlockTableRecord
2
DimnDraft3D2
340
0
70
0
0
BLOCK_RECORD
5
1B9
100
AcDbSymbolTableRecord
100
AcDbBlockTableRecord
2
DimnDraft3D3
340
0
70
0
0
BLOCK_RECORD
5
1C7
100
AcDbSymbolTableRecord
100
AcDbBlockTableRecord
2
DimnDraft3D4
340
0
70
0
0
BLOCK_RECORD
5
1D5
100
AcDbSymbolTableRecord
100
AcDbBlockTableRecord
2
DimnDraft3D5
340
0
70
0
0
ENDTAB
0
ENDSEC
0
SECTION
2
BLOCKS
0
BLOCK
5
20
100
AcDbEntity
8
0
100
AcDbBlockBegin
2
*Model_Space
70
0
10
0
20
0
30
0
3
*Model_Space
0
ENDBLK
5
21
100
AcDbEntity
8
0
100
AcDbBlockEnd
0
BLOCK
5
1C
100
AcDbEntity
8
0
100
AcDbBlockBegin
2
*Paper_Space
70
0
10
0
20
0
30
0
3
*Paper_Space
0
ENDBLK
5
1D
100
AcDbEntity
8
0
100
AcDbBlockEnd
0
BLOCK
5
24
100
AcDbEntity
8
0
100
AcDbBlockBegin
2
*Paper_Space0
70
0
10
0
20
0
30
0
3
*Paper_Space0
0
ENDBLK
5
25
100
AcDbEntity
8
0
100
AcDbBlockEnd
0
BLOCK
5
1A0
100
AcDbEntity
8
0
100
AcDbBlockBegin
2
DimnDraft3D1
70
0
10
0
20
0
30
0
3
DimnDraft3D1
0
MTEXT
5
196
100
AcDbEntity
8
2
62
256
6
ByLayer
370
18
48
1
60
0
100
AcDbMText
10
21.420441
20
37.528947
30
0
210
0
220
0
230
1
1
\W0.7399;93%%d
40
4.5
41
0
44
1.084337
50
46.5000000000004
71
7
72
5
7
iso_b_vert
0
LINE
5
197
100
AcDbEntity
8
2
62
256
6
ByLayer
370
13
48
1
60
0
100
AcDbLine
10
39.424798
20
26.425
30
0
11
39.424798
21
47.393365
31
0
39
0
210
0
220
0
230
1
0
LINE
5
198
100
AcDbEntity
8
2
62
256
6
ByLayer
370
13
48
1
60
0
100
AcDbLine
10
35.593618
20
24.266904
30
0
11
16.53054
21
23.267851
31
0
39
0
210
0
220
0
230
1
0
ARC
5
199
100
AcDbEntity
8
2
62
256
6
ByLayer
370
13
48
1
60
0
100
AcDbCircle
39
0
10
39.424798
20
24.467688
30
0
40
20.9256770833572
210
0
220
0
230
1
100
AcDbArc
50
90
51
183
0
LINE
5
19A
100
AcDbEntity
8
2
62
256
6
ByLayer
370
13
48
1
60
0
100
AcDbLine
10
39.424798
20
45.393365
30
0
11
36.267896
21
44.855493
31
0
39
0
210
0
220
0
230
1
0
LINE
5
19B
100
AcDbEntity
8
2
62
256
6
ByLayer
370
13
48
1
60
0
100
AcDbLine
10
39.424798
20
45.393365
30
0
11
36.23625
21
45.690887
31
0
39
0
210
0
220
0
230
1
0
LINE
5
19C
100
AcDbEntity
8
2
62
256
6
ByLayer
370
13
48
1
60
0
100
AcDbLine
10
36.267896
20
44.855493
30
0
11
36.23625
21
45.690887
31
0
39
0
210
0
220
0
230
1
0
LINE
5
19D
100
AcDbEntity
8
2
62
256
6
ByLayer
370
13
48
1
60
0
100
AcDbLine
10
18.527799
20
23.372523
30
0
11
18.063809
21
26.541126
31
0
39
0
210
0
220
0
230
1
0
LINE
5
19E
100
AcDbEntity
8
2
62
256
6
ByLayer
370
13
48
1
60
0
100
AcDbLine
10
18.527799
20
23.372523
30
0
11
18.899714
21
26.553251
31
0
39
0
210
0
220
0
230
1
0
LINE
5
19F
100
AcDbEntity
8
2
62
256
6
ByLayer
370
13
48
1
60
0
100
AcDbLine
10
18.063809
20
26.541126
30
0
11
18.899714
21
26.553251
31
0
39
0
210
0
220
0
230
1
0
ENDBLK
5
1A1
100
AcDbEntity
8
0
100
AcDbBlockEnd
0
BLOCK
5
1A4
100
AcDbEntity
8
0
100
AcDbBlockBegin
2
_CLOSED
70
0
10
0
20
0
30
0
3
_CLOSED
0
LINE
5
1A6
100
AcDbEntity
8
0
62
256
6
ByLayer
370
-2
48
1
60
0
100
AcDbLine
10
-1
20
0.166667
30
0
11
0
21
0
31
0
39
0
210
0
220
0
230
1
0
LINE
5
1A7
100
AcDbEntity
8
0
62
256
6
ByLayer
370
-2
48
1
60
0
100
AcDbLine
10
0
20
0
30
0
11
-1
21
-0.166667
31
0
39
0
210
0
220
0
230
1
0
LINE
5
1A8
100
AcDbEntity
8
0
62
256
6
ByLayer
370
-2
48
1
60
0
100
AcDbLine
10
-1
20
0.166667
30
0
11
-1
21
-0.166667
31
0
39
0
210
0
220
0
230
1
0
LINE
5
1A9
100
AcDbEntity
8
0
62
256
6
ByLayer
370
-2
48
1
60
0
100
AcDbLine
10
0
20
0
30
0
11
-1
21
0
31
0
39
0
210
0
220
0
230
1
0
ENDBLK
5
1A5
100
AcDbEntity
8
0
100
AcDbBlockEnd
0
BLOCK
5
1B6
100
AcDbEntity
8
0
100
AcDbBlockBegin
2
DimnDraft3D2
70
0
10
0
20
0
30
0
3
DimnDraft3D2
0
MTEXT
5
1AB
100
AcDbEntity
8
SK2
62
256
6
ByLayer
370
18
48
1
60
0
100
AcDbMText
10
-140.800202
20
-4.156579
30
0
210
0
220
0
230
1
1
\W0.7346;32.0
40
4.5
41
0
44
1.084337
50
90
71
7
72
5
7
iso_b_vert
0
LINE
5
1AD
100
AcDbEntity
8
SK2
62
256
6
ByLayer
370
13
48
1
60
0
100
AcDbLine
10
-133.925202
20
-15.925
30
0
11
-141.675202
21
-15.925
31
0
39
0
210
0
220
0
230
1
0
LINE
5
1AE
100
AcDbEntity
8
SK2
62
256
6
ByLayer
370
13
48
1
60
0
100
AcDbLine
10
-133.925202
20
15.925
30
0
11
-141.675202
21
15.925
31
0
39
0
210
0
220
0
230
1
0
LINE
5
1AF
100
AcDbEntity
8
SK2
62
256
6
ByLayer
370
13
48
1
60
0
100
AcDbLine
10
-139.675202
20
-15.925
30
0
11
-139.675202
21
15.925
31
0
39
0
210
0
220
0
230
1
0
LINE
5
1B0
100
AcDbEntity
8
SK2
62
256
6
ByLayer
370
13
48
1
60
0
100
AcDbLine
10
-139.675202
20
-15.925
30
0
11
-140.093199
21
-12.750002
31
0
39
0
210
0
220
0
230
1
0
LINE
5
1B1
100
AcDbEntity
8
SK2
62
256
6
ByLayer
370
13
48
1
60
0
100
AcDbLine
10
-139.675202
20
-15.925
30
0
11
-139.257205
21
-12.749998
31
0
39
0
210
0
220
0
230
1
0
LINE
5
1B2
100
AcDbEntity
8
SK2
62
256
6
ByLayer
370
13
48
1
60
0
100
AcDbLine
10
-140.093199
20
-12.750002
30
0
11
-139.257205
21
-12.749998
31
0
39
0
210
0
220
0
230
1
0
LINE
5
1B3
100
AcDbEntity
8
SK2
62
256
6
ByLayer
370
13
48
1
60
0
100
AcDbLine
10
-139.675202
20
15.925
30
0
11
-139.257205
21
12.750002
31
0
39
0
210
0
220
0
230
1
0
LINE
5
1B4
100
AcDbEntity
8
SK2
62
256
6
ByLayer
370
13
48
1
60
0
100
AcDbLine
10
-139.675202
20
15.925
30
0
11
-140.093199
21
12.749998
31
0
39
0
210
0
220
0
230
1
0
LINE
5
1B5
100
AcDbEntity
8
SK2
62
256
6
ByLayer
370
13
48
1
60
0
100
AcDbLine
10
-139.257205
20
12.750002
30
0
11
-140.093199
21
12.749998
31
0
39
0
210
0
220
0
230
1
0
ENDBLK
5
1B7
100
AcDbEntity
8
0
100
AcDbBlockEnd
0
BLOCK
5
1C4
100
AcDbEntity
8
0
100
AcDbBlockBegin
2
DimnDraft3D3
70
0
10
0
20
0
30
0
3
DimnDraft3D3
0
MTEXT
5
1BA
100
AcDbEntity
8
2
62
256
6
ByLayer
370
18
48
1
60
0
100
AcDbMText
10
60.549798
20
-0.143421
30
0
210
0
220
0
230
1
1
\W0.7640;40.0
40
4.5
41
0
44
1.084337
50
90
71
7
72
5
7
iso_b_vert
0
LINE
5
1BB
100
AcDbEntity
8
2
62
256
6
ByLayer
370
13
48
1
60
0
100
AcDbLine
10
2
20
-15.925
30
0
11
63.674798
21
-15.925
31
0
39
0
210
0
220
0
230
1
0
LINE
5
1BC
100
AcDbEntity
8
2
62
256
6
ByLayer
370
13
48
1
60
0
100
AcDbLine
10
41.424798
20
24.425
30
0
11
63.674798
21
24.425
31
0
39
0
210
0
220
0
230
1
0
LINE
5
1BD
100
AcDbEntity
8
2
62
256
6
ByLayer
370
13
48
1
60
0
100
AcDbLine
10
61.674798
20
-15.925
30
0
11
61.674798
21
24.425
31
0
39
0
210
0
220
0
230
1
0
LINE
5
1BE
100
AcDbEntity
8
2
62
256
6
ByLayer
370
13
48
1
60
0
100
AcDbLine
10
61.674798
20
-15.925
30
0
11
61.256801
21
-12.750002
31
0
39
0
210
0
220
0
230
1
0
LINE
5
1BF
100
AcDbEntity
8
2
62
256
6
ByLayer
370
13
48
1
60
0
100
AcDbLine
10
61.674798
20
-15.925
30
0
11
62.092795
21
-12.749998
31
0
39
0
210
0
220
0
230
1
0
LINE
5
1C0
100
AcDbEntity
8
2
62
256
6
ByLayer
370
13
48
1
60
0
100
AcDbLine
10
61.256801
20
-12.750002
30
0
11
62.092795
21
-12.749998
31
0
39
0
210
0
220
0
230
1
0
LINE
5
1C1
100
AcDbEntity
8
2
62
256
6
ByLayer
370
13
48
1
60
0
100
AcDbLine
10
61.674798
20
24.425
30
0
11
62.092795
21
21.250002
31
0
39
0
210
0
220
0
230
1
0
LINE
5
1C2
100
AcDbEntity
8
2
62
256
6
ByLayer
370
13
48
1
60
0
100
AcDbLine
10
61.674798
20
24.425
30
0
11
61.256801
21
21.249998
31
0
39
0
210
0
220
0
230
1
0
LINE
5
1C3
100
AcDbEntity
8
2
62
256
6
ByLayer
370
13
48
1
60
0
100
AcDbLine
10
62.092795
20
21.250002
30
0
11
61.256801
21
21.249998
31
0
39
0
210
0
220
0
230
1
0
ENDBLK
5
1C5
100
AcDbEntity
8
0
100
AcDbBlockEnd
0
BLOCK
5
1D2
100
AcDbEntity
8
0
100
AcDbBlockBegin
2
DimnDraft3D4
70
0
10
0
20
0
30
0
3
DimnDraft3D4
0
MTEXT
5
1C8
100
AcDbEntity
8
2
62
256
6
ByLayer
370
18
48
1
60
0
100
AcDbMText
10
15.318978
20
55.3
30
0
210
0
220
0
230
1
1
\W0.7528;39.4
40
4.5
41
0
44
1.084337
50
0
71
7
72
5
7
iso_b_vert
0
LINE
5
1C9
100
AcDbEntity
8
2
62
256
6
ByLayer
370
13
48
1
60
0
100
AcDbLine
10
0
20
17.925
30
0
11
0
21
56.175
31
0
39
0
210
0
220
0
230
1
0
LINE
5
1CA
100
AcDbEntity
8
2
62
256
6
ByLayer
370
13
48
1
60
0
100
AcDbLine
10
39.424798
20
26.425
30
0
11
39.424798
21
56.175
31
0
39
0
210
0
220
0
230
1
0
LINE
5
1CB
100
AcDbEntity
8
2
62
256
6
ByLayer
370
13
48
1
60
0
100
AcDbLine
10
0
20
54.175
30
0
11
39.424798
21
54.175
31
0
39
0
210
0
220
0
230
1
0
LINE
5
1CC
100
AcDbEntity
8
2
62
256
6
ByLayer
370
13
48
1
60
0
100
AcDbLine
10
0
20
54.175
30
0
11
3.174998
21
54.592997
31
0
39
0
210
0
220
0
230
1
0
LINE
5
1CD
100
AcDbEntity
8
2
62
256
6
ByLayer
370
13
48
1
60
0
100
AcDbLine
10
0
20
54.175
30
0
11
3.175002
21
53.757003
31
0
39
0
210
0
220
0
230
1
0
LINE
5
1CE
100
AcDbEntity
8
2
62
256
6
ByLayer
370
13
48
1
60
0
100
AcDbLine
10
3.174998
20
54.592997
30
0
11
3.175002
21
53.757003
31
0
39
0
210
0
220
0
230
1
0
LINE
5
1CF
100
AcDbEntity
8
2
62
256
6
ByLayer
370
13
48
1
60
0
100
AcDbLine
10
39.424798
20
54.175
30
0
11
36.249799
21
53.757003
31
0
39
0
210
0
220
0
230
1
0
LINE
5
1D0
100
AcDbEntity
8
2
62
256
6
ByLayer
370
13
48
1
60
0
100
AcDbLine
10
39.424798
20
54.175
30
0
11
36.249796
21
54.592997
31
0
39
0
210
0
220
0
230
1
0
LINE
5
1D1
100
AcDbEntity
8
2
62
256
6
ByLayer
370
13
48
1
60
0
100
AcDbLine
10
36.249799
20
53.757003
30
0
11
36.249796
21
54.592997
31
0
39
0
210
0
220
0
230
1
0
ENDBLK
5
1D3
100
AcDbEntity
8
0
100
AcDbBlockEnd
0
BLOCK
5
1E0
100
AcDbEntity
8
0
100
AcDbBlockBegin
2
DimnDraft3D5
70
0
10
0
20
0
30
0
3
DimnDraft3D5
0
MTEXT
5
1D6
100
AcDbEntity
8
SK2
62
256
6
ByLayer
370
18
48
1
60
0
100
AcDbMText
10
-51.52586
20
65.3
30
0
210
0
220
0
230
1
1
\W0.6864;170.0
40
4.5
41
0
44
1.084337
50
0
71
7
72
5
7
iso_b_vert
0
LINE
5
1D7
100
AcDbEntity
8
SK2
62
256
6
ByLayer
370
13
48
1
60
0
100
AcDbLine
10
39.424798
20
26.425
30
0
11
39.424798
21
66.175
31
0
39
0
210
0
220
0
230
1
0
LINE
5
1D8
100
AcDbEntity
8
SK2
62
256
6
ByLayer
370
13
48
1
60
0
100
AcDbLine
10
-131.925202
20
17.925
30
0
11
-131.925202
21
66.175
31
0
39
0
210
0
220
0
230
1
0
LINE
5
1D9
100
AcDbEntity
8
SK2
62
256
6
ByLayer
370
13
48
1
60
0
100
AcDbLine
10
39.424798
20
64.175
30
0
11
-131.925202
21
64.175
31
0
39
0
210
0
220
0
230
1
0
LINE
5
1DA
100
AcDbEntity
8
SK2
62
256
6
ByLayer
370
13
48
1
60
0
100
AcDbLine
10
39.424798
20
64.175
30
0
11
36.249799
21
63.757003
31
0
39
0
210
0
220
0
230
1
0
LINE
5
1DB
100
AcDbEntity
8
SK2
62
256
6
ByLayer
370
13
48
1
60
0
100
AcDbLine
10
39.424798
20
64.175
30
0
11
36.249796
21
64.592997
31
0
39
0
210
0
220
0
230
1
0
LINE
5
1DC
100
AcDbEntity
8
SK2
62
256
6
ByLayer
370
13
48
1
60
0
100
AcDbLine
10
36.249799
20
63.757003
30
0
11
36.249796
21
64.592997
31
0
39
0
210
0
220
0
230
1
0
LINE
5
1DD
100
AcDbEntity
8
SK2
62
256
6
ByLayer
370
13
48
1
60
0
100
AcDbLine
10
-131.925202
20
64.175
30
0
11
-128.750204
21
64.592997
31
0
39
0
210
0
220
0
230
1
0
LINE
5
1DE
100
AcDbEntity
8
SK2
62
256
6
ByLayer
370
13
48
1
60
0
100
AcDbLine
10
-131.925202
20
64.175
30
0
11
-128.750201
21
63.757003
31
0
39
0
210
0
220
0
230
1
0
LINE
5
1DF
100
AcDbEntity
8
SK2
62
256
6
ByLayer
370
13
48
1
60
0
100
AcDbLine
10
-128.750204
20
64.592997
30
0
11
-128.750201
21
63.757003
31
0
39
0
210
0
220
0
230
1
0
ENDBLK
5
1E1
100
AcDbEntity
8
0
100
AcDbBlockEnd
0
ENDSEC
0
SECTION
2
ENTITIES
0
ELLIPSE
5
105
100
AcDbEntity
8
1
62
256
6
ByLayer
370
18
48
1
60
0
100
AcDbEllipse
10
18.744649
20
9.285033
30
0
11
1.65314319602557
21
-1.69677243339755
31
0
210
0
220
0
230
1
40
0.987534
41
-1.6924786934658
42
-1.32466675151839
0
ELLIPSE
5
106
100
AcDbEntity
8
1
62
256
6
ByLayer
370
18
48
1
60
0
100
AcDbEllipse
10
18.999394
20
9.127005
30
0
11
1.65314319602557
21
-1.69677243339755
31
0
210
0
220
0
230
1
40
0.987534
41
-1.32466675151839
42
0.246129575276507
0
ELLIPSE
5
107
100
AcDbEntity
8
1
62
256
6
ByLayer
370
18
48
1
60
0
100
AcDbEllipse
10
25.398156
20
19.623139
30
0
11
-8.0603849709828
21
2.1128839130943
31
0
210
0
220
0
230
1
40
0.734404
41
1.991876587631
42
2.05544724688521
0
ELLIPSE
5
108
100
AcDbEntity
8
1
62
256
6
ByLayer
370
18
48
1
60
0
100
AcDbEllipse
10
28.794068
20
17.939814
30
0
11
2.34065081979865
21
-2.40242454301116
31
0
210
0
220
0
230
1
40
0.987534
41
-0.181476091462078
42
2.20962498377015
0
ELLIPSE
5
109
100
AcDbEntity
8
1
62
256
6
ByLayer
370
18
48
1
60
0
100
AcDbEllipse
10
28.992292
20
17.6903
30
0
11
-3.14027214010245
21
3.22314921871396
31
0
210
0
220
0
230
1
40
0.987534
41
-2.73838344563377
42
-1.51665296923774
0
ELLIPSE
5
10A
100
AcDbEntity
8
1
62
256
6
ByLayer
370
18
48
1
60
0
100
AcDbEllipse
10
28.992292
20
17.6903
30
0
11
-3.14027214010245
21
3.22314921871396
31
0
210
0
220
0
230
1
40
0.987534
41
-1.51665296923773
42
-0.993054193639445
0
ELLIPSE
5
10B
100
AcDbEntity
8
1
62
256
6
ByLayer
370
18
48
1
60
0
100
AcDbEllipse
10
31.549498
20
17.731382
30
0
11
-1.11139394241268
21
2.3208956088918
31
0
210
0
220
0
230
1
40
0.561537
41
2.58916296905147
42
-2.67306477768128
0
ELLIPSE
5
10C
100
AcDbEntity
8
1
62
256
6
ByLayer
370
18
48
1
60
0
100
AcDbEllipse
10
29.375622
20
18.063774
30
0
11
2.27669814141905
21
-2.33678404557734
31
0
210
0
220
0
230
1
40
0.987534
41
0.403209207956013
42
1.62493968435206
0
ELLIPSE
5
10D
100
AcDbEntity
8
1
62
256
6
ByLayer
370
18
48
1
60
0
100
AcDbEllipse
10
28.715147
20
17.862922
30
0
11
3.33325036308589
21
-3.42122046250677
31
0
210
0
220
0
230
1
40
0.987534
41
-1.1189487015444
42
-1.08658207670532
0
ELLIPSE
5
10E
100
AcDbEntity
8
1
62
256
6
ByLayer
370
18
48
1
60
0
100
AcDbEllipse
10
28.715147
20
17.862922
30
0
11
3.33325036308589
21
-3.42122046250677
31
0
210
0
220
0
230
1
40
0.987534
41
3.1147309690134
42
3.14078690175957
0
ELLIPSE
5
10F
100
AcDbEntity
8
1
62
256
6
ByLayer
370
18
48
1
60
0
100
AcDbEllipse
10
29.375622
20
18.063774
30
0
11
-2.50452247222579
21
2.57062104475529
31
0
210
0
220
0
230
1
40
0.987534
41
3.02120308594751
42
3.11496758550548
0
ELLIPSE
5
110
100
AcDbEntity
8
1
62
256
6
ByLayer
370
18
48
1
60
0
100
AcDbEllipse
10
29.375622
20
18.063774
30
0
11
-2.50452247222579
21
2.57062104475529
31
0
210
0
220
0
230
1
40
0.987534
41
-1.08681869319741
42
-0.993054193639445
0
ELLIPSE
5
111
100
AcDbEntity
8
1
62
256
6
ByLayer
370
18
48
1
60
0
100
AcDbEllipse
10
31.070779
20
19.859511
30
0
11
-1.18002972418143
21
1.30251822454761
31
0
210
0
220
0
230
1
40
0.817891
41
-1.46121266042895
42
-0.440255099982656
0
ELLIPSE
5
112
100
AcDbEntity
8
1
62
256
6
ByLayer
370
18
48
1
60
0
100
AcDbEllipse
10
28.992292
20
17.6903
30
0
11
-3.14027214010245
21
3.22314921871396
31
0
210
0
220
0
230
1
40
0.987534
41
3.02120308594752
42
-2.73838344563377
0
ELLIPSE
5
113
100
AcDbEntity
8
1
62
256
6
ByLayer
370
18
48
1
60
0
100
AcDbEllipse
10
28.410738
20
17.566341
30
0
11
-3.83811039345855
21
3.93940460065039
31
0
210
0
220
0
230
1
40
0.987534
41
-0.120389567642274
42
0.02394919598551
0
ELLIPSE
5
114
100
AcDbEntity
8
1
62
256
6
ByLayer
370
18
48
1
60
0
100
AcDbEllipse
10
28.410738
20
17.566341
30
0
11
-3.83811039345855
21
3.93940460065039
31
0
210
0
220
0
230
1
40
0.987534
41
1.91297773110386
42
2.14853845995034
0
ELLIPSE
5
115
100
AcDbEntity
8
1
62
256
6
ByLayer
370
18
48
1
60
0
100
AcDbEllipse
10
26.877571
20
13.046443
30
0
11
-3.87493683412168
21
-8.82516414634201
31
0
210
0
220
0
230
1
40
0.705728
41
-2.45604991189965
42
-2.39247925178715
0
ELLIPSE
5
116
100
AcDbEntity
8
1
62
256
6
ByLayer
370
18
48
1
60
0
100
AcDbEllipse
10
15.384598
20
15.56763
30
0
11
0.819959947693412
21
-0.841600073775315
31
0
210
0
220
0
230
1
40
0.987534
41
0.427231818857041
42
0.553719522254412
0
ELLIPSE
5
117
100
AcDbEntity
8
1
62
256
6
ByLayer
370
18
48
1
60
0
100
AcDbEllipse
10
14.53869
20
16.494679
30
0
11
-0.265178536275318
21
0.272177045135845
31
0
210
0
220
0
230
1
40
0.987534
41
-1.45059404963504
42
1.38434783954993
0
ELLIPSE
5
118
100
AcDbEntity
8
1
62
256
6
ByLayer
370
18
48
1
60
0
100
AcDbEllipse
10
14.223009
20
14.509475
30
0
11
0.296581257676341
21
-0.304408537322986
31
0
210
0
220
0
230
1
40
0.987534
41
1.71330894030073
42
2.43154539074656
0
ELLIPSE
5
119
100
AcDbEntity
8
1
62
256
6
ByLayer
370
18
48
1
60
0
100
AcDbEllipse
10
15.384598
20
15.56763
30
0
11
0.819959947693412
21
-0.841600073775315
31
0
210
0
220
0
230
1
40
0.987534
41
-1.66716328353616
42
-1.54067558013879
0
ELLIPSE
5
11A
100
AcDbEntity
8
1
62
256
6
ByLayer
370
18
48
1
60
0
100
AcDbEllipse
10
15.501432
20
16.50681
30
0
11
-0.265178536275318
21
0.272177045135845
31
0
210
0
220
0
230
1
40
0.987534
41
-2.49779160083157
42
-0.455261491284087
0
ELLIPSE
5
11B
100
AcDbEntity
8
1
62
256
6
ByLayer
370
18
48
1
60
0
100
AcDbEllipse
10
15.012543
20
15.205141
30
0
11
2.79135301342438
21
-2.86502152774575
31
0
210
0
220
0
230
1
40
0.987534
41
3.1415216262143
42
-0.778646137219357
0
ELLIPSE
5
11C
100
AcDbEntity
8
1
62
256
6
ByLayer
370
18
48
1
60
0
100
AcDbEllipse
10
15.012543
20
15.205141
30
0
11
2.79135301342438
21
-2.86502152774575
31
0
210
0
220
0
230
1
40
0.987534
41
-0.368226324105846
42
-4.49695109079853E-16
0
ELLIPSE
5
11D
100
AcDbEntity
8
1
62
256
6
ByLayer
370
18
48
1
60
0
100
AcDbEllipse
10
15.012543
20
15.205141
30
0
11
2.79135301342438
21
-2.86502152774575
31
0
210
0
220
0
230
1
40
0.987534
41
-0.778645885634926
42
-0.773197135605374
0
ELLIPSE
5
11E
100
AcDbEntity
8
1
62
256
6
ByLayer
370
18
48
1
60
0
100
AcDbEllipse
10
15.73258
20
14.020686
30
0
11
0.296581257676341
21
-0.304408537322986
31
0
210
0
220
0
230
1
40
0.987534
41
1.69099860395468
42
2.4092350544004
0
ELLIPSE
5
11F
100
AcDbEntity
8
1
62
256
6
ByLayer
370
18
48
1
60
0
100
AcDbEllipse
10
16.230507
20
14.64058
30
0
11
-0.265178536275318
21
0.272177045135845
31
0
210
0
220
0
230
1
40
0.987534
41
1.69099860395471
42
-1.75724481403991
0
ELLIPSE
5
120
100
AcDbEntity
8
1
62
256
6
ByLayer
370
18
48
1
60
0
100
AcDbEllipse
10
15.286873
20
15.472417
30
0
11
-2.7913530134244
21
2.86502152774574
31
0
210
0
220
0
230
1
40
0.987534
41
0
42
6.28318530717959
0
ELLIPSE
5
121
100
AcDbEntity
8
1
62
256
6
ByLayer
370
18
48
1
60
0
100
AcDbEllipse
10
15.73258
20
14.020686
30
0
11
0.296581257676341
21
-0.304408537322986
31
0
210
0
220
0
230
1
40
0.987534
41
2.76050649149731
42
-2.80444236523649
0
ELLIPSE
5
122
100
AcDbEntity
8
1
62
256
6
ByLayer
370
18
48
1
60
0
100
AcDbEllipse
10
13.875027
20
16.056419
30
0
11
0.296581257676341
21
-0.304408537322986
31
0
210
0
220
0
230
1
40
0.987534
41
0.666111389104165
42
1.38434783954993
0
ELLIPSE
5
123
100
AcDbEntity
8
1
62
256
6
ByLayer
370
18
48
1
60
0
100
AcDbEllipse
10
15.976833
20
14.393429
30
0
11
-0.265178536275318
21
0.272177045135845
31
0
210
0
220
0
230
1
40
0.987534
41
-2.65016371867172
42
-1.75724481403985
0
ELLIPSE
5
124
100
AcDbEntity
8
1
62
256
6
ByLayer
370
18
48
1
60
0
100
AcDbEllipse
10
16.546188
20
16.625784
30
0
11
0.296581257676341
21
-0.304408537322986
31
0
210
0
220
0
230
1
40
0.987534
41
-1.42828371328904
42
-0.710047262843322
0
ELLIPSE
5
125
100
AcDbEntity
8
1
62
256
6
ByLayer
370
18
48
1
60
0
100
AcDbEllipse
10
13.621353
20
15.809267
30
0
11
0.296581257676341
21
-0.304408537322986
31
0
210
0
220
0
230
1
40
0.987534
41
-0.318981273367249
42
2.02036566565975E-05
0
ELLIPSE
5
126
100
AcDbEntity
8
1
62
256
6
ByLayer
370
18
48
1
60
0
100
AcDbEllipse
10
15.384598
20
15.56763
30
0
11
0.819959947693412
21
-0.841600073775315
31
0
210
0
220
0
230
1
40
0.987534
41
2.52162692125025
42
2.64811462464763
0
ELLIPSE
5
127
100
AcDbEntity
8
1
62
256
6
ByLayer
370
18
48
1
60
0
100
AcDbEllipse
10
15.384598
20
15.56763
30
0
11
0.819959947693412
21
-0.841600073775315
31
0
210
0
220
0
230
1
40
0.987534
41
-2.71436083473277
42
-2.58787313133535
0
ELLIPSE
5
128
100
AcDbEntity
8
1
62
256
6
ByLayer
370
18
48
1
60
0
100
AcDbEllipse
10
16.292514
20
16.378632
30
0
11
0.296581257676341
21
-0.304408537322986
31
0
210
0
220
0
230
1
40
0.987534
41
-2.49779160083171
42
-0.71004726284325
0
ELLIPSE
5
129
100
AcDbEntity
8
1
62
256
6
ByLayer
370
18
48
1
60
0
100
AcDbEllipse
10
14.168182
20
15.308347
30
0
11
-0.265178536275318
21
0.272177045135845
31
0
210
0
220
0
230
1
40
0.987534
41
-0.403396498438442
42
2.43154539074646
0
ELLIPSE
5
12A
100
AcDbEntity
8
1
62
256
6
ByLayer
370
18
48
1
60
0
100
AcDbEllipse
10
14.782942
20
16.867421
30
0
11
0.296581257676341
21
-0.304408537322986
31
0
210
0
220
0
230
1
40
0.987534
41
-1.450594049635
42
-6.81496140169212E-06
0
ELLIPSE
5
12B
100
AcDbEntity
8
1
62
256
6
ByLayer
370
18
48
1
60
0
100
AcDbEllipse
10
16.89417
20
15.078841
30
0
11
0.296581257676341
21
-0.304408537322986
31
0
210
0
220
0
230
1
40
0.987534
41
2.73819615515138
42
-2.82675270158253
0
ELLIPSE
5
12C
100
AcDbEntity
8
1
62
256
6
ByLayer
370
18
48
1
60
0
100
AcDbEllipse
10
15.384598
20
15.56763
30
0
11
0.819959947693412
21
-0.841600073775315
31
0
210
0
220
0
230
1
40
0.987534
41
1.47442937005366
42
1.60091707345106
0
ELLIPSE
5
12D
100
AcDbEntity
8
1
62
256
6
ByLayer
370
18
48
1
60
0
100
AcDbEllipse
10
15.035092
20
15.22711
30
0
11
0.80251399135951
21
-0.823693689226905
31
0
210
0
220
0
230
1
40
0.987534
41
0.058932178642193
42
3.08271478911663
0
ELLIPSE
5
12E
100
AcDbEntity
8
1
62
256
6
ByLayer
370
18
48
1
60
0
100
AcDbEllipse
10
14.223009
20
14.509475
30
0
11
0.296581257676341
21
-0.304408537322986
31
0
210
0
220
0
230
1
40
0.987534
41
0.643801052758131
42
1.36203750320391
0
ELLIPSE
5
12F
100
AcDbEntity
8
1
62
256
6
ByLayer
370
18
48
1
60
0
100
AcDbEllipse
10
15.036616
20
17.114573
30
0
11
0.296581257676341
21
-0.304408537322986
31
0
210
0
220
0
230
1
40
0.987534
41
-0.38108616209241
42
0.337150288353348
0
ELLIPSE
5
130
100
AcDbEntity
8
1
62
256
6
ByLayer
370
18
48
1
60
0
100
AcDbEllipse
10
15.384598
20
15.56763
30
0
11
-1.60502798271903
21
1.6473873784538
31
0
210
0
220
0
230
1
40
0.987534
41
0
42
6.28318530717959
0
ELLIPSE
5
131
100
AcDbEntity
8
1
62
256
6
ByLayer
370
18
48
1
60
0
100
AcDbEllipse
10
15.130924
20
15.320478
30
0
11
0.80251399135951
21
-0.823693689226905
31
0
210
0
220
0
230
1
40
0.987534
41
-1.21429663963751
42
-0.778646487249857
0
ELLIPSE
5
132
100
AcDbEntity
8
1
62
256
6
ByLayer
370
18
48
1
60
0
100
AcDbEllipse
10
15.130924
20
15.320478
30
0
11
0.80251399135951
21
-0.823693689226905
31
0
210
0
220
0
230
1
40
0.987534
41
-2.58854668707933
42
-2.00646810525569
0
ELLIPSE
5
133
100
AcDbEntity
8
1
62
256
6
ByLayer
370
18
48
1
60
0
100
AcDbEllipse
10
15.130924
20
15.320478
30
0
11
0.80251399135951
21
-0.823693689226905
31
0
210
0
220
0
230
1
40
0.987534
41
-0.0961840397393268
42
0
0
ELLIPSE
5
134
100
AcDbEntity
8
1
62
256
6
ByLayer
370
18
48
1
60
0
100
AcDbEllipse
10
15.130924
20
15.320478
30
0
11
0.80251399135951
21
-0.823693689226905
31
0
210
0
220
0
230
1
40
0.987534
41
0
42
-3.0826601978967
0
ELLIPSE
5
135
100
AcDbEntity
8
1
62
256
6
ByLayer
370
18
48
1
60
0
100
AcDbEllipse
10
15.130924
20
15.320478
30
0
11
0.80251399135951
21
-0.823693689226905
31
0
210
0
220
0
230
1
40
0.987534
41
-0.778645612173599
42
-0.634966971337261
0
ELLIPSE
5
136
100
AcDbEntity
8
1
62
256
6
ByLayer
370
18
48
1
60
0
100
AcDbEllipse
10
16.347341
20
15.579761
30
0
11
-0.265178536275318
21
0.272177045135845
31
0
210
0
220
0
230
1
40
0.987534
41
-2.66026584144786
42
-0.710047262843227
0
ELLIPSE
5
137
100
AcDbEntity
8
1
62
256
6
ByLayer
370
18
48
1
60
0
100
AcDbEllipse
10
15.014091
20
14.381298
30
0
11
-0.265178536275318
21
0.272177045135845
31
0
210
0
220
0
230
1
40
0.987534
41
0.64380105275807
42
-2.80444236523639
0
ELLIPSE
5
138
100
AcDbEntity
8
1
62
256
6
ByLayer
370
18
48
1
60
0
100
AcDbEllipse
10
16.640496
20
14.831689
30
0
11
0.296581257676341
21
-0.304408537322986
31
0
210
0
220
0
230
1
40
0.987534
41
-3.14157244993313
42
-1.75724481403989
0
ELLIPSE
5
139
100
AcDbEntity
8
1
62
256
6
ByLayer
370
18
48
1
60
0
100
AcDbEllipse
10
16.601015
20
15.826912
30
0
11
-0.265178536275318
21
0.272177045135845
31
0
210
0
220
0
230
1
40
0.987534
41
2.7381961551513
42
-0.710047262843281
0
ELLIPSE
5
13A
100
AcDbEntity
8
1
62
256
6
ByLayer
370
18
48
1
60
0
100
AcDbEllipse
10
16.89417
20
15.078841
30
0
11
0.296581257676341
21
-0.304408537322986
31
0
210
0
220
0
230
1
40
0.987534
41
-2.47548126448569
42
-1.75724481403986
0
ELLIPSE
5
13B
100
AcDbEntity
8
1
62
256
6
ByLayer
370
18
48
1
60
0
100
AcDbEllipse
10
14.285015
20
16.247527
30
0
11
-0.265178536275318
21
0.272177045135845
31
0
210
0
220
0
230
1
40
0.987534
41
-1.45059404963508
42
-0.491408143513526
0
ELLIPSE
5
13C
100
AcDbEntity
8
1
62
256
6
ByLayer
370
18
48
1
60
0
100
AcDbEllipse
10
13.875027
20
16.056419
30
0
11
0.296581257676341
21
-0.304408537322986
31
0
210
0
220
0
230
1
40
0.987534
41
-0.40339649843851
42
0.31483995200723
0
ELLIPSE
5
13D
100
AcDbEntity
8
1
62
256
6
ByLayer
370
18
48
1
60
0
100
AcDbEllipse
10
15.384598
20
15.56763
30
0
11
0.819959947693412
21
-0.841600073775315
31
0
210
0
220
0
230
1
40
0.987534
41
-0.619965732339565
42
-0.493478028942169
0
ELLIPSE
5
13E
100
AcDbEntity
8
1
62
256
6
ByLayer
370
18
48
1
60
0
100
AcDbEllipse
10
15.036616
20
17.114573
30
0
11
0.296581257676341
21
-0.304408537322986
31
0
210
0
220
0
230
1
40
0.987534
41
-1.45059404963501
42
-0.732357599189228
0
ELLIPSE
5
13F
100
AcDbEntity
8
1
62
256
6
ByLayer
370
18
48
1
60
0
100
AcDbEllipse
10
15.755106
20
16.753961
30
0
11
-0.265178536275318
21
0.272177045135845
31
0
210
0
220
0
230
1
40
0.987534
41
-2.49779160083161
42
0.337150288353283
0
ELLIPSE
5
140
100
AcDbEntity
8
1
62
256
6
ByLayer
370
18
48
1
60
0
100
AcDbEllipse
10
15.478906
20
13.773535
30
0
11
0.296581257676341
21
-0.304408537322986
31
0
210
0
220
0
230
1
40
0.987534
41
3.14158584376975
42
-2.96486386761347
0
ELLIPSE
5
141
100
AcDbEntity
8
1
62
256
6
ByLayer
370
18
48
1
60
0
100
AcDbEllipse
10
16.546188
20
16.625784
30
0
11
0.296581257676341
21
-0.304408537322986
31
0
210
0
220
0
230
1
40
0.987534
41
-2.4977916008316
42
-1.77955515038591
0
ELLIPSE
5
142
100
AcDbEntity
8
1
62
256
6
ByLayer
370
18
48
1
60
0
100
AcDbEllipse
10
13.861684
20
15.006764
30
0
11
2.73274769807008
21
-3.12323390393558
31
0
210
0
220
0
230
1
40
0.985051
41
2.63769971642132
42
2.90094142426123
0
ELLIPSE
5
143
100
AcDbEntity
8
1
62
256
6
ByLayer
370
18
48
1
60
0
100
AcDbEllipse
10
11.083054
20
19.145728
30
0
11
-3.84862770117824
21
0.899939989924043
31
0
210
0
220
0
230
1
40
0.443257
41
-0.755661945274734
42
-0.434318692309724
0
ELLIPSE
5
144
100
AcDbEntity
8
1
62
256
6
ByLayer
370
18
48
1
60
0
100
AcDbEllipse
10
11.570189
20
16.969014
30
0
11
4.87810299161002
21
1.09732000949832
31
0
210
0
220
0
230
1
40
0.083175
41
2.01002282198712
42
2.50322075590715
0
ELLIPSE
5
145
100
AcDbEntity
8
1
62
256
6
ByLayer
370
18
48
1
60
0
100
AcDbEllipse
10
11.756087
20
16.14261
30
0
11
-4.00002881857902
21
4.24260640310743
31
0
210
0
220
0
230
1
40
0.134958
41
-1.27781291690356
42
-0.353496837347492
0
ELLIPSE
5
146
100
AcDbEntity
8
1
62
256
6
ByLayer
370
18
48
1
60
0
100
AcDbEllipse
10
27.670143
20
14.049928
30
0
11
-0.874174793384013
21
-0.639360653990058
31
0
210
0
220
0
230
1
40
0.269943
41
0.79582936951551
42
1.3194281451571
0
ELLIPSE
5
147
100
AcDbEntity
8
1
62
256
6
ByLayer
370
18
48
1
60
0
100
AcDbEllipse
10
5.742902
20
5.685255
30
0
11
-6.82934418825402
21
-1.53624801329765
31
0
210
0
220
0
230
1
40
0.083175
41
2.33918532072528
42
2.34385982263154
0
ELLIPSE
5
148
100
AcDbEntity
8
1
62
256
6
ByLayer
370
18
48
1
60
0
100
AcDbEllipse
10
30.188411
20
15.781609
30
0
11
-1.23084556704158
21
-7.65207242015096
31
0
210
0
220
0
230
1
40
0.541677
41
-1.05480503544373
42
-0.975502596091861
0
ELLIPSE
5
149
100
AcDbEntity
8
1
62
256
6
ByLayer
370
18
48
1
60
0
100
AcDbEllipse
10
8.5331
20
18.410505
30
0
11
-0.601090469014167
21
-1.90753512367671
31
0
210
0
220
0
230
1
40
0.85762
41
-2.59810953553624
42
-1.14889481180965
0
ELLIPSE
5
14A
100
AcDbEntity
8
1
62
256
6
ByLayer
370
18
48
1
60
0
100
AcDbEllipse
10
12.521549
20
12.739769
30
0
11
-1.86898624754285
21
-5.50723322813199
31
0
210
0
220
0
230
1
40
0.061891
41
0.476582806388031
42
1.40089888593005
0
ELLIPSE
5
14B
100
AcDbEntity
8
1
62
256
6
ByLayer
370
18
48
1
60
0
100
AcDbEllipse
10
9.524003
20
9.04148
30
0
11
-2.6634470780013
21
1.40123612190385
31
0
210
0
220
0
230
1
40
0.988643
41
0.699939923651517
42
1.75247082811356
0
ELLIPSE
5
14C
100
AcDbEntity
8
1
62
256
6
ByLayer
370
18
48
1
60
0
100
AcDbEllipse
10
26.091967
20
21.06566
30
0
11
-1.06317309317274
21
0.176011766988786
31
0
210
0
220
0
230
1
40
0.129407
41
-1.38384831387537
42
-0.860249538212663
0
ELLIPSE
5
14D
100
AcDbEntity
8
1
62
256
6
ByLayer
370
18
48
1
60
0
100
AcDbEllipse
10
8.337516
20
19.541531
30
0
11
1.97548026366512
21
-2.25775944862813
31
0
210
0
220
0
230
1
40
0.985051
41
-0.503892937168488
42
-0.187717665000393
0
ELLIPSE
5
14E
100
AcDbEntity
8
1
62
256
6
ByLayer
370
18
48
1
60
0
100
AcDbEllipse
10
7.695641
20
17.169407
30
0
11
-2.66344707808142
21
1.40123612178427
31
0
210
0
220
0
230
1
40
0.988643
41
-0.352590980856194
42
0.699939923602904
0
ELLIPSE
5
14F
100
AcDbEntity
8
1
62
256
6
ByLayer
370
18
48
1
60
0
100
AcDbEllipse
10
11.05616
20
19.254111
30
0
11
-4.91137280558347
21
-0.94922334987284
31
0
210
0
220
0
230
1
40
0.13683
41
0.388977938753408
42
0.494371613984536
0
ELLIPSE
5
150
100
AcDbEntity
8
1
62
256
6
ByLayer
370
18
48
1
60
0
100
AcDbEllipse
10
29.108226
20
20.583538
30
0
11
-5.19742942105862
21
2.28344740299483
31
0
210
0
220
0
230
1
40
0.479203
41
0.380669214793726
42
0.459971655154625
0
ELLIPSE
5
151
100
AcDbEntity
8
1
62
256
6
ByLayer
370
18
48
1
60
0
100
AcDbEllipse
10
11.756087
20
16.14261
30
0
11
-5.52673361218172
21
1.84611428617767
31
0
210
0
220
0
230
1
40
0.120283
41
-1.28939799336987
42
-0.417647112775357
0
ELLIPSE
5
152
100
AcDbEntity
8
1
62
256
6
ByLayer
370
18
48
1
60
0
100
AcDbEllipse
10
13.710028
20
7.882022
30
0
11
-2.88477964925619
21
-0.840145193427796
31
0
210
0
220
0
230
1
40
0.448671
41
-0.518122400834684
42
0.0191915564843306
0
ELLIPSE
5
153
100
AcDbEntity
8
1
62
256
6
ByLayer
370
18
48
1
60
0
100
AcDbEllipse
10
15.844323
20
15.426299
30
0
11
2.73274769807008
21
-3.12323390393558
31
0
210
0
220
0
230
1
40
0.985051
41
-0.0694205677493343
42
2.63769971642131
0
ELLIPSE
5
154
100
AcDbEntity
8
1
62
256
6
ByLayer
370
18
48
1
60
0
100
AcDbEllipse
10
12.707447
20
11.913365
30
0
11
4.87810299161002
21
1.09732000949832
31
0
210
0
220
0
230
1
40
0.083175
41
2.01002282198714
42
2.50322075590717
0
ELLIPSE
5
155
100
AcDbEntity
8
1
62
256
6
ByLayer
370
18
48
1
60
0
100
AcDbEllipse
10
12.521549
20
12.739769
30
0
11
-4.22791073776222
21
-3.98771041890016
31
0
210
0
220
0
230
1
40
0.002215
41
-1.36328101162393
42
-0.491530130549283
0
ELLIPSE
5
156
100
AcDbEntity
8
1
62
256
6
ByLayer
370
18
48
1
60
0
100
AcDbEllipse
10
12.911416
20
11.017802
30
0
11
-2.42615365583245
21
-3.84689580697526
31
0
210
0
220
0
230
1
40
0.531047
41
0.156372041017191
42
0.477715294021078
0
ELLIPSE
5
157
100
AcDbEntity
8
1
62
256
6
ByLayer
370
18
48
1
60
0
100
AcDbEllipse
10
13.221475
20
9.628268
30
0
11
-4.84186772590795
21
-1.25727766842337
31
0
210
0
220
0
230
1
40
0.303008
41
-0.500157225355456
42
-0.394763551165159
0
ELLIPSE
5
158
100
AcDbEntity
8
1
62
256
6
ByLayer
370
18
48
1
60
0
100
AcDbEllipse
10
10.724663
20
21.153374
30
0
11
-2.96205729254304
21
-0.500337236221908
31
0
210
0
220
0
230
1
40
0.282948
41
-0.0318234020989874
42
0.505490555223434
0
ELLIPSE
5
159
100
AcDbEntity
8
1
62
256
6
ByLayer
370
18
48
1
60
0
100
AcDbEllipse
10
10.528638
20
9.539401
30
0
11
1.62704693936931
21
-1.16306416722765
31
0
210
0
220
0
230
1
40
0.802911
41
-2.23550788894346
42
-0.786293165216867
0
ELLIPSE
5
15A
100
AcDbEntity
8
1
62
256
6
ByLayer
370
18
48
1
60
0
100
AcDbEllipse
10
25.185075
20
22.931114
30
0
11
-0.553909113601404
21
0.568527709412045
31
0
210
0
220
0
230
1
40
0.987534
41
-0.713801513320401
42
0.246129575276553
0
ELLIPSE
5
15B
100
AcDbEntity
8
1
62
256
6
ByLayer
370
18
48
1
60
0
100
AcDbEllipse
10
31.636401
20
12.201567
30
0
11
-0.553909113601404
21
0.568527709412045
31
0
210
0
220
0
230
1
40
0.987534
41
2.42779114026947
42
-2.89546307831328
0
ELLIPSE
5
15C
100
AcDbEntity
8
1
62
256
6
ByLayer
370
18
48
1
60
0
100
AcDbEllipse
10
38.636109
20
23.636053
30
0
11
-0.553909113601404
21
0.568527709412045
31
0
210
0
220
0
230
1
40
0.987534
41
-2.89546307831331
42
-0.713801513320302
0
ELLIPSE
5
15D
100
AcDbEntity
8
1
62
256
6
ByLayer
370
18
48
1
60
0
100
AcDbEllipse
10
24.286505
20
22.055649
30
0
11
-0.553909113601404
21
0.568527709412045
31
0
210
0
220
0
230
1
40
0.987534
41
-2.86680058128694E-06
42
0.246129575276559
0
ELLIPSE
5
15E
100
AcDbEntity
8
1
62
256
6
ByLayer
370
18
48
1
60
0
100
AcDbEllipse
10
30.737831
20
11.326102
30
0
11
-0.553909113601404
21
0.568527709412045
31
0
210
0
220
0
230
1
40
0.987534
41
2.42779114026943
42
3.14159020286452
0
ELLIPSE
5
15F
100
AcDbEntity
8
1
62
256
6
ByLayer
370
18
48
1
60
0
100
AcDbEllipse
10
24.432476
20
20.98251
30
0
11
1.1078182272028
21
-1.13705541882409
31
0
210
0
220
0
230
1
40
0.987534
41
3.1415897867892
42
-2.94465938810796
0
ELLIPSE
5
160
100
AcDbEntity
8
1
62
256
6
ByLayer
370
18
48
1
60
0
100
AcDbEllipse
10
29.962184
20
11.785755
30
0
11
1.10781822720276
21
-1.13705541882405
31
0
210
0
220
0
230
1
40
0.987534
41
-0.713801513320353
42
-0.0698525862704746
0
POINT
5
6C
100
AcDbEntity
8
2
62
256
6
ByLayer
370
18
48
1
60
0
100
AcDbPoint
10
39.424798
20
24.425
30
0
39
0
210
0
220
0
230
1
50
360
0
POINT
5
6E
100
AcDbEntity
8
80
62
256
6
ByLayer
370
18
48
1
60
0
100
AcDbPoint
10
0
20
0
30
0
39
0
210
0
220
0
230
1
50
360
0
POINT
5
70
100
AcDbEntity
8
81
62
256
6
ByLayer
370
18
48
1
60
0
100
AcDbPoint
10
39.424798
20
24.425
30
0
39
0
210
0
220
0
230
1
50
360
0
SPLINE
5
161
100
AcDbEntity
8
1
62
256
6
ByLayer
370
18
48
1
60
0
100
AcDbSpline
70
4
71
3
72
12
73
8
40
0
40
0
40
0
40
0
40
0.392678099449903
40
0.392678099449903
40
0.79127933596607
40
0.79127933596607
40
1
40
1
40
1
40
1
41
1
10
15.7130401893037
20
14.4428738993045
30
0
41
1
10
15.6938441168327
20
14.4414222212116
30
0
41
1
10
15.6736772654849
20
14.4389328423914
30
0
41
1
10
15.6341493368627
20
14.4317755956513
30
0
41
1
10
15.6143301790987
20
14.4269721884617
30
0
41
1
10
15.5868471790139
20
14.4185725563277
30
0
41
1
10
15.57771378236
20
14.4154461650627
30
0
41
1
10
15.569082390551
20
14.4121888983874
30
0
0
SPLINE
5
162
100
AcDbEntity
8
1
62
256
6
ByLayer
370
18
48
1
60
0
100
AcDbSpline
70
4
71
3
72
14
73
10
40
0
40
0
40
0
40
0
40
0.0829586012803064
40
0.0829586012803064
40
0.459195015075163
40
0.459195015075163
40
0.835474799669012
40
0.835474799669012
40
1
40
1
40
1
40
1
41
1
10
14.2501191785516
20
15.8576685974554
30
0
41
1
10
14.2517341559568
20
15.8609439468586
30
0
41
1
10
14.2533336057953
20
15.864296622084
30
0
41
1
10
14.2620164168826
20
15.8831405758953
30
0
41
1
10
14.2687979119813
20
15.9003698626278
30
0
41
1
10
14.2804767287442
20
15.9362196028563
30
0
41
1
10
14.2855001712238
20
15.955245116613
30
0
41
1
10
14.2911144951666
20
15.9819296861331
30
0
41
1
10
14.2926354164674
20
15.9900535924894
30
0
41
1
10
14.2939672133872
20
15.9980660074137
30
0
0
SPLINE
5
163
100
AcDbEntity
8
1
62
256
6
ByLayer
370
18
48
1
60
0
100
AcDbSpline
70
4
71
3
72
12
73
8
40
0
40
0
40
0
40
0
40
0.392678099452434
40
0.392678099452434
40
0.791279335968719
40
0.791279335968719
40
1
40
1
40
1
40
1
41
1
10
15.0561565639508
20
16.6923851834768
30
0
41
1
10
15.0736449033037
20
16.6921730395217
30
0
41
1
10
15.0926303170874
20
16.6935113591707
30
0
41
1
10
15.1313304474811
20
16.6998620929205
30
0
41
1
10
15.1515290604589
20
16.7050351983635
30
0
41
1
10
15.1806662373749
20
16.7150464733553
30
0
41
1
10
15.1905660654858
20
16.7189195887676
30
0
41
1
10
15.2001143627035
20
16.7230701843939
30
0
0
SPLINE
5
164
100
AcDbEntity
8
1
62
256
6
ByLayer
370
18
48
1
60
0
100
AcDbSpline
70
4
71
3
72
14
73
10
40
0
40
0
40
0
40
0
40
0.164525200330938
40
0.164525200330938
40
0.54080498492482
40
0.54080498492482
40
0.917041398719646
40
0.917041398719646
40
1
40
1
40
1
40
1
41
1
10
14.5785609912293
20
14.7329129553701
30
0
41
1
10
14.5740287588617
20
14.7391279796594
30
0
41
1
10
14.5692616881624
20
14.7454347325042
30
0
41
1
10
14.5529795044165
20
14.7661738118458
30
0
41
1
10
14.5403411933327
20
14.780999966698
30
0
41
1
10
14.5142915100224
20
14.8090354800783
30
0
41
1
10
14.5005917510662
20
14.822561126572
30
0
41
1
10
14.4843319643663
20
14.8374003892181
30
0
41
1
10
14.4813839994414
20
14.8400424971192
30
0
41
1
10
14.4784512273094
20
14.8426253644108
30
0
0
SPLINE
5
165
100
AcDbEntity
8
1
62
256
6
ByLayer
370
18
48
1
60
0
100
AcDbSpline
70
4
71
3
72
14
73
10
40
0
40
0
40
0
40
0
40
0.164525200330922
40
0.164525200330922
40
0.540804984924912
40
0.540804984924912
40
0.917041398719825
40
0.917041398719825
40
1
40
1
40
1
40
1
41
1
10
16.1906357620246
20
16.4023461274106
30
0
41
1
10
16.1944487300677
20
16.3954303332945
30
0
41
1
10
16.198589300563
20
16.3885131894926
30
0
41
1
10
16.2131921623712
20
16.3661379687449
30
0
41
1
10
16.225259342175
20
16.3507553681542
30
0
41
1
10
16.2516081931798
20
16.323011329947
30
0
41
1
10
16.2661777007854
20
16.3103330681901
30
0
41
1
10
16.284161089225
20
16.2971730881824
30
0
41
1
10
16.2874489766685
20
16.2948621623466
30
0
41
1
10
16.2907455259447
20
16.2926337183701
30
0
0
SPLINE
5
166
100
AcDbEntity
8
1
62
256
6
ByLayer
370
18
48
1
60
0
100
AcDbSpline
70
4
71
3
72
14
73
10
40
0
40
0
40
0
40
0
40
0.0829586012802822
40
0.0829586012802822
40
0.459195015075158
40
0.459195015075158
40
0.835474799669109
40
0.835474799669109
40
1
40
1
40
1
40
1
41
1
10
16.5190775747025
20
15.2775904853255
30
0
41
1
10
16.5170988201531
20
15.2739607126072
30
0
41
1
10
16.5151594477959
20
15.2702768553164
30
0
41
1
10
16.5047530349689
20
15.2497536188668
30
0
41
1
10
16.4971017912208
20
15.2316769473974
30
0
41
1
10
16.4851238067634
20
15.1955357319959
30
0
41
1
10
16.480671495564
20
15.1770666639777
30
0
41
1
10
16.4767364935588
20
15.1520182358637
30
0
41
1
10
16.4758420724619
20
15.1445047204645
30
0
41
1
10
16.4752295398667
20
15.1371930753671
30
0
0
SPLINE
5
167
100
AcDbEntity
8
1
62
256
6
ByLayer
370
18
48
1
60
0
100
AcDbSpline
70
4
71
3
72
20
73
16
40
0
40
0
40
0
40
0
40
0.15607171978485
40
0.15607171978485
40
0.318979129246586
40
0.318979129246586
40
0.481831855502582
40
0.481831855502582
40
0.644750649209928
40
0.644750649209928
40
0.807602319252654
40
0.807602319252654
40
0.970476046459111
40
0.970476046459111
40
1
40
1
40
1
40
1
41
1
10
20.1893588085105
20
19.1600494766471
30
0
41
1
10
20.0926720857504
20
19.1035783691647
30
0
41
1
10
20.0047432488038
20
19.0296364607222
30
0
41
1
10
19.8564040533772
20
18.8540161535342
30
0
41
1
10
19.7953519800536
20
18.7488236271036
30
0
41
1
10
19.7134796140069
20
18.5254012338519
30
0
41
1
10
19.6915145362255
20
18.4041080475051
30
0
41
1
10
19.6890210581749
20
18.1622655388046
30
0
41
1
10
19.7083686651611
20
18.0382770828035
30
0
41
1
10
19.7856266241889
20
17.8053145707167
30
0
41
1
10
19.8446229499842
20
17.6931624060975
30
0
41
1
10
19.9937146591309
20
17.4961443315357
30
0
41
1
10
20.0857961414165
20
17.4084883914981
30
0
41
1
10
20.2063230192422
20
17.3263982454182
30
0
41
1
10
20.2252406114611
20
17.3143381255741
30
0
41
1
10
20.2445247625787
20
17.3028417515805
30
0
0
SPLINE
5
168
100
AcDbEntity
8
1
62
256
6
ByLayer
370
18
48
1
60
0
100
AcDbSpline
70
4
71
2
72
6
73
3
40
0
40
0
40
0
40
1
40
1
40
1
41
1.00890738029382
10
32.0185733131303
20
17.983151107377
30
0
41
1.00890738029382
10
31.865480830242
20
18.6637191206333
30
0
41
1.00890738029382
10
31.7123883473536
20
19.3442871338895
30
0
0
SPLINE
5
169
100
AcDbEntity
8
1
62
256
6
ByLayer
370
18
48
1
60
0
100
AcDbSpline
70
4
71
3
72
13
73
9
40
0
40
0
40
0
40
0
40
0.250649945521668
40
0.250649945521668
40
0.250649945521668
40
0.653057935862512
40
0.653057935862512
40
1
40
1
40
1
40
1
41
1
10
20.4897675802244
20
14.9042583942951
30
0
41
1
10
20.5455611965219
20
15.1880223596339
30
0
41
1
10
20.5713611057862
20
15.4801110086137
30
0
41
1
10
20.5665488781478
20
15.7709139135116
30
0
41
1
10
20.5588898614582
20
16.2337482741083
30
0
41
1
10
20.472272171727
20
16.7038409400905
30
0
41
1
10
20.1770572595641
20
17.5217550669017
30
0
41
1
10
19.9837464049123
20
17.8861235228652
30
0
41
1
10
19.745619106292
20
18.212347981171
30
0
0
SPLINE
5
16A
100
AcDbEntity
8
1
62
256
6
ByLayer
370
18
48
1
60
0
100
AcDbSpline
70
4
71
3
72
11
73
7
40
0
40
0
40
0
40
0
40
0.26797321705401
40
0.487581251937807
40
0.707189286821604
40
1
40
1
40
1
40
1
41
1.02490899991337
10
19.7456190602119
20
18.2123479728684
30
0
41
1.02299818100183
10
21.0556981409891
20
18.4483940541127
30
0
41
1.01918124209525
10
23.348949597147
20
18.8109134954285
30
0
41
1.0133636309892
10
27.1769880982814
20
19.1028112975694
30
0
41
1.01210337903089
10
29.1782235612061
20
19.3296999397104
30
0
41
1.00942740489664
10
30.9304003121959
20
19.3772602246927
30
0
41
1.00890738029382
10
31.7123883473536
20
19.3442871338895
30
0
0
SPLINE
5
16B
100
AcDbEntity
8
1
62
256
6
ByLayer
370
18
48
1
60
0
100
AcDbSpline
70
4
71
3
72
8
73
4
40
0
40
0
40
0
40
0
40
1
40
1
40
1
40
1
41
1
10
6.48317972389481
20
17.5467882263226
30
0
41
1
10
6.49607617157614
20
17.7355562201532
30
0
41
1
10
6.52202838561266
20
17.9282280923058
30
0
41
1
10
6.56093774658109
20
18.1209375136605
30
0
0
SPLINE
5
16C
100
AcDbEntity
8
1
62
256
6
ByLayer
370
18
48
1
60
0
100
AcDbSpline
70
4
71
3
72
10
73
6
40
0
40
0
40
0
40
0
40
0.560712447053344
40
0.560712447053344
40
1
40
1
40
1
40
1
41
1
10
11.641833336122
20
11.9273481384455
30
0
41
1
10
11.8125486471846
20
11.9163242292143
30
0
41
1
10
11.988965196813
20
11.8883660497352
30
0
41
1
10
12.2907392419788
20
11.8040794334308
30
0
41
1
10
12.4213394751542
20
11.7543778858009
30
0
41
1
10
12.5414784015172
20
11.6945917397889
30
0
0
SPLINE
5
16D
100
AcDbEntity
8
1
62
256
6
ByLayer
370
18
48
1
60
0
100
AcDbSpline
70
4
71
3
72
8
73
4
40
0
40
0
40
0
40
0
40
1
40
1
40
1
40
1
41
1
10
11.641833336122
20
11.9273481384455
30
0
41
1
10
11.2617327914944
20
11.9518930599092
30
0
41
1
10
10.890487488205
20
11.9045340001609
30
0
41
1
10
10.5504783476321
20
11.8139663336381
30
0
0
SPLINE
5
16E
100
AcDbEntity
8
1
62
256
6
ByLayer
370
18
48
1
60
0
100
AcDbSpline
70
4
71
3
72
16
73
12
40
0
40
0
40
0
40
0
40
0.125
40
0.125
40
0.25
40
0.25
40
0.5
40
0.5
40
0.75
40
0.75
40
1
40
1
40
1
40
1
41
1
10
18.9891360399811
20
8.55397246771935
30
0
41
1
10
19.241873914736
20
8.92115002793608
30
0
41
1
10
19.5711508778276
20
9.31835901693782
30
0
41
1
10
20.432538217274
20
10.1618429815144
30
0
41
1
10
20.9450283744606
20
10.5895862219085
30
0
41
1
10
22.5764133605406
20
11.8154208495827
30
0
41
1
10
23.7471054849868
20
12.5347114885425
30
0
41
1
10
25.9855825249319
20
13.7926926240368
30
0
41
1
10
27.0936724884573
20
14.3828211640878
30
0
41
1
10
29.3085667499403
20
15.5585966262208
30
0
41
1
10
30.3603574165489
20
16.0384497976523
30
0
41
1
10
31.3677422707929
20
16.4546006439512
30
0
0
SPLINE
5
16F
100
AcDbEntity
8
1
62
256
6
ByLayer
370
18
48
1
60
0
100
AcDbSpline
70
4
71
3
72
8
73
4
40
0
40
0
40
0
40
0
40
1
40
1
40
1
40
1
41
1
10
11.2146290115286
20
17.9651327992669
30
0
41
1
10
11.7548686418345
20
18.6553514439213
30
0
41
1
10
12.5273116955522
20
19.1286626098562
30
0
41
1
10
13.4349626533647
20
19.3221309089976
30
0
0
SPLINE
5
170
100
AcDbEntity
8
1
62
256
6
ByLayer
370
18
48
1
60
0
100
AcDbSpline
70
4
71
3
72
8
73
4
40
0
40
0
40
0
40
0
40
1
40
1
40
1
40
1
41
1
10
31.9534687220931
20
17.6829909323474
30
0
41
1
10
31.9070615712042
20
17.5148964661152
30
0
41
1
10
31.841435213923
20
17.3463741928513
30
0
41
1
10
31.7582048923041
20
17.188941650389
30
0
0
SPLINE
5
171
100
AcDbEntity
8
1
62
256
6
ByLayer
370
18
48
1
60
0
100
AcDbSpline
70
4
71
3
72
8
73
4
40
0
40
0
40
0
40
0
40
1
40
1
40
1
40
1
41
1
10
8.31154137667556
20
9.41886166800472
30
0
41
1
10
8.3965187082905
20
9.28719626727707
30
0
41
1
10
8.49504165379147
20
9.15725714246449
30
0
41
1
10
8.60549235048251
20
9.03193171455766
30
0
0
SPLINE
5
172
100
AcDbEntity
8
1
62
256
6
ByLayer
370
18
48
1
60
0
100
AcDbSpline
70
4
71
3
72
8
73
4
40
0
40
0
40
0
40
0
40
1
40
1
40
1
40
1
41
1
10
8.64270210234628
20
6.19844638821016
30
0
41
1
10
8.86298837880747
20
6.15451101082093
30
0
41
1
10
9.08055853856763
20
6.13504437525276
30
0
41
1
10
9.29212692638436
20
6.13430051828172
30
0
0
SPLINE
5
173
100
AcDbEntity
8
1
62
256
6
ByLayer
370
18
48
1
60
0
100
AcDbSpline
70
4
71
2
72
6
73
3
40
0
40
0
40
0
40
1
40
1
40
1
41
0.941103849192081
10
18.3331610557456
20
12.0796488990266
30
0
41
0.915286811754989
10
18.618770597848
20
10.2707505127397
30
0
41
1.02830968163241
10
18.5606252207905
20
9.40105908822066
30
0
0
SPLINE
5
174
100
AcDbEntity
8
1
62
256
6
ByLayer
370
18
48
1
60
0
100
AcDbSpline
70
4
71
3
72
8
73
4
40
0
40
0
40
0
40
0
40
1
40
1
40
1
40
1
41
1
10
15.8485531053033
20
22.5153391396627
30
0
41
1
10
15.6841698763826
20
22.4834157801458
30
0
41
1
10
15.5201946584439
20
22.4516950291852
30
0
41
1
10
15.3570585043517
20
22.4203653995529
30
0
0
SPLINE
5
175
100
AcDbEntity
8
1
62
256
6
ByLayer
370
18
48
1
60
0
100
AcDbSpline
70
4
71
3
72
8
73
4
40
0
40
0
40
0
40
0
40
1
40
1
40
1
40
1
41
1
10
11.2146290115286
20
17.9651327992669
30
0
41
1
10
11.193378459625
20
17.9379827600801
30
0
41
1
10
11.171495927931
20
17.911173433134
30
0
41
1
10
11.1490144246308
20
17.8847483327272
30
0
0
SPLINE
5
176
100
AcDbEntity
8
1
62
256
6
ByLayer
370
18
48
1
60
0
100
AcDbSpline
70
4
71
3
72
12
73
8
40
0
40
0
40
0
40
0
40
0.412488217320946
40
0.412488217320946
40
0.702829232095159
40
0.702829232095159
40
1
40
1
40
1
40
1
41
1
10
31.5242809815381
20
19.5909320826418
30
0
41
1
10
31.5507614964632
20
19.5612649689329
30
0
41
1
10
31.5769852502324
20
19.5288411711336
30
0
41
1
10
31.619125590492
20
19.4715485669718
30
0
41
1
10
31.6359748274606
20
19.4470464160467
30
0
41
1
10
31.6682988954136
20
19.3967799255561
30
0
41
1
10
31.6838284558234
20
19.3708494722289
30
0
41
1
10
31.6983139210462
20
19.344873116556
30
0
0
SPLINE
5
177
100
AcDbEntity
8
1
62
256
6
ByLayer
370
18
48
1
60
0
100
AcDbSpline
70
4
71
3
72
8
73
4
40
0
40
0
40
0
40
0
40
1
40
1
40
1
40
1
41
1
10
10.4346382900588
20
17.2938972897272
30
0
41
1
10
10.1044905515225
20
17.0963785189919
30
0
41
1
10
9.75322904389157
20
16.9601820986361
30
0
41
1
10
9.41321990331869
20
16.8696144321132
30
0
0
SPLINE
5
178
100
AcDbEntity
8
1
62
256
6
ByLayer
370
18
48
1
60
0
100
AcDbSpline
70
4
71
2
72
6
73
3
40
0
40
0
40
0
40
1
40
1
40
1
41
1.02830968163241
10
18.5606252207905
20
9.40105908822066
30
0
41
1.02830968163241
10
18.5291333299115
20
8.93002890791522
30
0
41
1.02830968163241
10
18.4976414390325
20
8.45899872760983
30
0
0
SPLINE
5
179
100
AcDbEntity
8
1
62
256
6
ByLayer
370
18
48
1
60
0
100
AcDbSpline
70
4
71
3
72
18
73
14
40
0
40
0
40
0
40
0
40
0.150186459400624
40
0.150186459400624
40
0.339592137529968
40
0.339592137529968
40
0.523539642595932
40
0.523539642595932
40
0.716564624108217
40
0.716564624108217
40
0.935518218901351
40
0.935518218901351
40
1
40
1
40
1
40
1
41
1
10
25.9758205805502
20
12.5860130801577
30
0
41
1
10
25.9748134480636
20
12.5932316408324
30
0
41
1
10
25.976277821125
20
12.6020964202812
30
0
41
1
10
25.9853696014956
20
12.6250245982754
30
0
41
1
10
25.9946933659438
20
12.640192278665
30
0
41
1
10
26.0198600817575
20
12.6722098394203
30
0
41
1
10
26.0358045726959
20
12.6893931510912
30
0
41
1
10
26.0727658727302
20
12.7247133976363
30
0
41
1
10
26.0944098700781
20
12.7432737855298
30
0
41
1
10
26.142825868389
20
12.7813758213984
30
0
41
1
10
26.1704491273513
20
12.8011695509399
30
0
41
1
10
26.206363265843
20
12.8249191127802
30
0
41
1
10
26.2146046104568
20
12.8302374571186
30
0
41
1
10
26.2228509128423
20
12.8354336080936
30
0
0
SPLINE
5
17A
100
AcDbEntity
8
1
62
256
6
ByLayer
370
18
48
1
60
0
100
AcDbSpline
70
4
71
3
72
11
73
7
40
0
40
0
40
0
40
0
40
0.267973217480478
40
0.487581252236335
40
0.707189286992191
40
1
40
1
40
1
40
1
41
1.02490899992583
10
20.4897675261995
20
14.9042583818658
30
0
41
1.02299818101095
10
21.7858679275319
20
15.2024462751049
30
0
41
1.01918124210004
10
24.0392865732047
20
15.742041284467
30
0
41
1.0133636309892
10
27.6934150588293
20
16.8070508271603
30
0
41
1.01210337903089
10
29.6478525614166
20
17.2419783898901
30
0
41
1.00942740489664
10
31.2998542547928
20
17.7348638708159
30
0
41
1.00890738029382
10
32.0185733131303
20
17.983151107377
30
0
0
SPLINE
5
17B
100
AcDbEntity
8
1
62
256
6
ByLayer
370
18
48
1
60
0
100
AcDbSpline
70
4
71
3
72
10
73
6
40
0
40
0
40
0
40
0
40
0.560712447053347
40
0.560712447053347
40
1
40
1
40
1
40
1
41
1
10
10.4346382900588
20
17.2938972897272
30
0
41
1
10
10.5829181983028
20
17.3826092867589
30
0
41
1
10
10.7298092313076
20
17.4859059005244
30
0
41
1
10
10.9670501738663
20
17.6884992446336
30
0
41
1
10
11.0646348607438
20
17.7855673118577
30
0
41
1
10
11.1490144246307
20
17.8847483327271
30
0
0
SPLINE
5
17C
100
AcDbEntity
8
1
62
256
6
ByLayer
370
18
48
1
60
0
100
AcDbSpline
70
4
71
3
72
12
73
8
40
0
40
0
40
0
40
0
40
0.500000000000009
40
0.500000000000009
40
0.750000000000004
40
0.750000000000004
40
1
40
1
40
1
40
1
41
1
10
10.8330135391697
20
7.01719267934436
30
0
41
1
10
10.4381568452004
20
7.12820756277461
30
0
41
1
10
10.0890003208943
20
7.34193731106458
30
0
41
1
10
9.48752306986717
20
7.88979788672751
30
0
41
1
10
9.28373497478219
20
8.11165360371029
30
0
41
1
10
8.90429618844058
20
8.60539914734025
30
0
41
1
10
8.73424843872675
20
8.88583565235024
30
0
41
1
10
8.6054923504829
20
9.03193171455965
30
0
0
SPLINE
5
17D
100
AcDbEntity
8
1
62
256
6
ByLayer
370
18
48
1
60
0
100
AcDbSpline
70
4
71
3
72
8
73
4
40
0
40
0
40
0
40
0
40
1
40
1
40
1
40
1
41
1
10
30.4758199753866
20
20.4196142952574
30
0
41
1
10
30.6963395852984
20
20.2621367180254
30
0
41
1
10
30.9179859242503
20
20.1019177194389
30
0
41
1
10
31.1396531994444
20
19.9386945367727
30
0
0
SPLINE
5
17E
100
AcDbEntity
8
1
62
256
6
ByLayer
370
18
48
1
60
0
100
AcDbSpline
70
4
71
3
72
8
73
4
40
0
40
0
40
0
40
0
40
1
40
1
40
1
40
1
41
1
10
5.67444039327069
20
19.3937642513583
30
0
41
1
10
5.86560080806527
20
19.5553862567064
30
0
41
1
10
6.06551516393415
20
19.6925854814985
30
0
41
1
10
6.2674036419653
20
19.8097679948774
30
0
0
SPLINE
5
17F
100
AcDbEntity
8
1
62
256
6
ByLayer
370
18
48
1
60
0
100
AcDbSpline
70
4
71
3
72
16
73
12
40
0
40
0
40
0
40
0
40
0.25
40
0.25
40
0.5
40
0.5
40
0.75
40
0.75
40
0.875
40
0.875
40
1
40
1
40
1
40
1
41
1
10
30.4758199753867
20
20.4196142952574
30
0
41
1
10
29.3579114160866
20
20.4885653660513
30
0
41
1
10
28.186316853759
20
20.5799384789743
30
0
41
1
10
25.6354539402369
20
20.8494199836729
30
0
41
1
10
24.358610618003
20
20.9850321814337
30
0
41
1
10
21.7543644430503
20
21.289586967211
30
0
41
1
10
20.3674335513032
20
21.4783443254158
30
0
41
1
10
18.4085977183314
20
21.8328995727705
30
0
41
1
10
17.7683736469749
20
21.9654619663941
30
0
41
1
10
16.6718982800361
20
22.238779678496
30
0
41
1
10
16.2141326661775
20
22.3803032645315
30
0
41
1
10
15.8485531053034
20
22.5153391396627
30
0
0
SPLINE
5
180
100
AcDbEntity
8
1
62
256
6
ByLayer
370
18
48
1
60
0
100
AcDbSpline
70
4
71
3
72
11
73
7
40
0
40
0
40
0
40
0
40
0.379837525225123
40
0.569756287837684
40
0.759675050450246
40
1
40
1
40
1
40
1
41
1.02830968163241
10
15.7450369772376
20
21.9176716671681
30
0
41
1.02565532568264
10
18.3054554935486
20
21.7856332751895
30
0
41
1.02058995167321
10
21.5992763921221
20
21.3106129139861
30
0
41
1.0133636309892
10
26.9939220925726
20
19.7669363552536
30
0
41
1.01212905948733
10
28.9370882105442
20
19.9984006791251
30
0
41
1.0095816818588
10
30.7478716032569
20
19.6691801066883
30
0
41
1.00899450091457
10
31.5242809721579
20
19.5909320835872
30
0
0
SPLINE
5
181
100
AcDbEntity
8
1
62
256
6
ByLayer
370
18
48
1
60
0
100
AcDbSpline
70
4
71
3
72
18
73
14
40
0
40
0
40
0
40
0
40
0.0739908643221378
40
0.0739908643221378
40
0.163840977644154
40
0.163840977644154
40
0.285126848313324
40
0.285126848313324
40
0.443670962440912
40
0.443670962440912
40
0.655194408808954
40
0.655194408808954
40
1
40
1
40
1
40
1
41
1
10
6.56093774658223
20
18.120937513659
30
0
41
1
10
6.574116888471
20
18.1862108757536
30
0
41
1
10
6.58574242087775
20
18.2647347982606
30
0
41
1
10
6.61156276199171
20
18.448441454537
30
0
41
1
10
6.6264366999535
20
18.5584771882733
30
0
41
1
10
6.66766411912795
20
18.8140681189448
30
0
41
1
10
6.69702246031909
20
18.9633556966199
30
0
41
1
10
6.77846695110492
20
19.2869142810114
30
0
41
1
10
6.83595722634675
20
19.4607906249998
30
0
41
1
10
6.9853667366844
20
19.8201017622621
30
0
41
1
10
7.08398309871279
20
19.9964294242324
30
0
41
1
10
7.35458972393712
20
20.3793589647509
30
0
41
1
10
7.53616214555723
20
20.5481437847913
30
0
41
1
10
7.75960056204411
20
20.6799573317666
30
0
0
SPLINE
5
182
100
AcDbEntity
8
1
62
256
6
ByLayer
370
18
48
1
60
0
100
AcDbSpline
70
4
71
3
72
8
73
4
40
0
40
0
40
0
40
0
40
1
40
1
40
1
40
1
41
1
10
15.2502020933265
20
11.252538751816
30
0
41
1
10
14.3604642022312
20
11.0628886721349
30
0
41
1
10
13.4218650262883
20
11.2123233193689
30
0
41
1
10
12.6363550064638
20
11.6448927880477
30
0
0
SPLINE
5
183
100
AcDbEntity
8
1
62
256
6
ByLayer
370
18
48
1
60
0
100
AcDbSpline
70
4
71
3
72
12
73
8
40
0
40
0
40
0
40
0
40
0.402184145094037
40
0.402184145094037
40
0.696777465474676
40
0.696777465474676
40
1
40
1
40
1
40
1
41
1
10
32.0056350579146
20
17.9786862757379
30
0
41
1
10
32.0025888133231
20
17.9403686354283
30
0
41
1
10
31.9979050871211
20
17.9006645255912
30
0
41
1
10
31.9870296177461
20
17.8315200600794
30
0
41
1
10
31.9815425444547
20
17.801951307397
30
0
41
1
10
31.968813959141
20
17.7424624227922
30
0
41
1
10
31.9614729570075
20
17.7123200874664
30
0
41
1
10
31.9534687220931
20
17.6829909323474
30
0
0
SPLINE
5
184
100
AcDbEntity
8
1
62
256
6
ByLayer
370
18
48
1
60
0
100
AcDbSpline
70
4
71
3
72
10
73
6
40
0
40
0
40
0
40
0
40
0.354797248100699
40
0.354797248100699
40
1
40
1
40
1
40
1
41
1
10
30.4668176381611
20
15.4633690331392
30
0
41
1
10
30.5265623815977
20
15.5014563601245
30
0
41
1
10
30.586232387678
20
15.5403424040871
30
0
41
1
10
30.7537260140712
20
15.651940007441
30
0
41
1
10
30.8611884951273
20
15.7264500294186
30
0
41
1
10
30.9667302605679
20
15.8024854530388
30
0
0
SPLINE
5
185
100
AcDbEntity
8
1
62
256
6
ByLayer
370
18
48
1
60
0
100
AcDbSpline
70
4
71
3
72
8
73
4
40
0
40
0
40
0
40
0
40
1
40
1
40
1
40
1
41
1
10
15.425893045469
20
19.7465032002996
30
0
41
1
10
15.8090637679259
20
19.8281770941201
30
0
41
1
10
16.1965763622034
20
19.8574496041624
30
0
41
1
10
16.5878072562217
20
19.8385665440848
30
0
0
SPLINE
5
186
100
AcDbEntity
8
1
62
256
6
ByLayer
370
18
48
1
60
0
100
AcDbSpline
70
4
71
3
72
12
73
8
40
0
40
0
40
0
40
0
40
0.323114842069757
40
0.323114842069757
40
0.710369726849213
40
0.710369726849213
40
1
40
1
40
1
40
1
41
1
10
18.3331610535283
20
12.0796489130703
30
0
41
1
10
18.6803162304518
20
12.2652185127146
30
0
41
1
10
19.0056129429906
20
12.502495612086
30
0
41
1
10
19.6313149055635
20
13.1018136861842
30
0
41
1
10
19.9240039054778
20
13.4883053488261
30
0
41
1
10
20.301181116915
20
14.2217404494319
30
0
41
1
10
20.4223856264129
20
14.561767484752
30
0
41
1
10
20.4897675802244
20
14.9042583942951
30
0
0
SPLINE
5
187
100
AcDbEntity
8
1
62
256
6
ByLayer
370
18
48
1
60
0
100
AcDbSpline
70
4
71
3
72
13
73
9
40
0
40
0
40
0
40
0
40
0.28785560515364
40
0.28785560515364
40
0.605649284587146
40
0.605649284587146
40
0.605649284587146
40
1
40
1
40
1
40
1
41
1
10
19.745619106292
20
18.212347981171
30
0
41
1
10
19.5381865616109
20
18.4964310002499
30
0
41
1
10
19.2847514534539
20
18.7512144792868
30
0
41
1
10
18.6986310502539
20
19.1993796825694
30
0
41
1
10
18.3539738464233
20
19.3897769187104
30
0
41
1
10
17.9936298367376
20
19.5312723389081
30
0
41
1
10
17.5485836893963
20
19.7060275448579
30
0
41
1
10
17.0666878270923
20
19.8108752581827
30
0
41
1
10
16.5878072586046
20
19.8385665439697
30
0
0
SPLINE
5
188
100
AcDbEntity
8
1
62
256
6
ByLayer
370
18
48
1
60
0
100
AcDbSpline
70
4
71
1
72
4
73
2
40
0
40
0
40
1
40
1
41
1
10
15.7450369772375
20
21.9176716671681
30
0
41
1
10
15.3570585043517
20
22.4203653995529
30
0
0
SPLINE
5
189
100
AcDbEntity
8
1
62
256
6
ByLayer
370
18
48
1
60
0
100
AcDbSpline
70
4
71
3
72
8
73
4
40
0
40
0
40
0
40
0
40
1
40
1
40
1
40
1
41
1
10
31.1396531994444
20
19.9386945367727
30
0
41
1
10
31.2818512082553
20
19.8339880051181
30
0
41
1
10
31.412142000524
20
19.7150464838347
30
0
41
1
10
31.5242809815381
20
19.5909320826418
30
0
0
SPLINE
5
18A
100
AcDbEntity
8
1
62
256
6
ByLayer
370
18
48
1
60
0
100
AcDbSpline
70
4
71
3
72
8
73
4
40
0
40
0
40
0
40
0
40
1
40
1
40
1
40
1
41
1
10
17.2411324854309
20
11.676911043118
30
0
41
1
10
17.624303207762
20
11.7585849369117
30
0
41
1
10
17.9877730392598
20
11.8947388228583
30
0
41
1
10
18.3331610510847
20
12.0796489117621
30
0
0
SPLINE
5
18B
100
AcDbEntity
8
1
62
256
6
ByLayer
370
18
48
1
60
0
100
AcDbSpline
70
4
71
3
72
8
73
4
40
0
40
0
40
0
40
0
40
1
40
1
40
1
40
1
41
1
10
18.9891360399812
20
8.55397246771938
30
0
41
1
10
18.8247528110615
20
8.52204910820254
30
0
41
1
10
18.6607775931238
20
8.49032835724205
30
0
41
1
10
18.4976414390326
20
8.45899872760978
30
0
0
SPLINE
5
18C
100
AcDbEntity
8
1
62
256
6
ByLayer
370
18
48
1
60
0
100
AcDbSpline
70
4
71
2
72
6
73
3
40
0
40
0
40
0
40
1
40
1
40
1
41
1.02830968163241
10
15.7450369772376
20
21.9176716671681
30
0
41
0.915286811692243
10
16.1032110020511
20
21.4535947918776
30
0
41
0.941103849220746
10
16.5878072553657
20
19.8385665547643
30
0
0
SPLINE
5
18D
100
AcDbEntity
8
1
62
256
6
ByLayer
370
18
48
1
60
0
100
AcDbSpline
70
4
71
3
72
11
73
7
40
0
40
0
40
0
40
0
40
0.379837525225127
40
0.56975628783769
40
0.759675050450254
40
1
40
1
40
1
40
1
41
1.02830968163241
10
18.5606252207905
20
9.40105908822066
30
0
41
1.02565532568264
10
20.8135055502747
20
10.6361724261488
30
0
41
1.02058995167321
10
23.5789014509255
20
12.5102494484898
30
0
41
1.0133636309892
10
27.82100170478
20
16.0901788955433
30
0
41
1.01212905948733
10
29.7285569718654
20
16.4799501824936
30
0
41
1.0095816818588
10
31.2609565308105
20
17.3882765431133
30
0
41
1.00899450091457
10
31.9534687137264
20
17.6829909287867
30
0
0
SPLINE
5
18E
100
AcDbEntity
8
1
62
256
6
ByLayer
370
18
48
1
60
0
100
AcDbSpline
70
4
71
3
72
8
73
4
40
0
40
0
40
0
40
0
40
1
40
1
40
1
40
1
41
1
10
12.5414784015172
20
11.6945917397889
30
0
41
1
10
12.5734873802924
20
11.6786627354546
30
0
41
1
10
12.6051289523908
20
11.6620885427527
30
0
41
1
10
12.6363550064637
20
11.6448927880477
30
0
0
SPLINE
5
18F
100
AcDbEntity
8
1
62
256
6
ByLayer
370
18
48
1
60
0
100
AcDbSpline
70
4
71
3
72
18
73
14
40
0
40
0
40
0
40
0
40
0.0367931396619673
40
0.0367931396619673
40
0.291979817816997
40
0.291979817816997
40
0.505668143229411
40
0.505668143229411
40
0.721016338466053
40
0.721016338466053
40
0.911566759950597
40
0.911566759950597
40
1
40
1
40
1
40
1
41
1
10
24.2870336795257
20
21.4410507073105
30
0
41
1
10
24.2814794778288
20
21.4418311037563
30
0
41
1
10
24.2759149205158
20
21.4426294089145
30
0
41
1
10
24.2320747123804
20
21.4490512965356
30
0
41
1
10
24.1929996961084
20
21.4555876039573
30
0
41
1
10
24.1256158830791
20
21.4686315857688
30
0
41
1
10
24.0958577159989
20
21.4751237390947
30
0
41
1
10
24.0436954813619
20
21.4882808477989
30
0
41
1
10
24.0206089955822
20
21.4951482374902
30
0
41
1
10
23.9880691392742
20
21.5072574126633
30
0
41
1
10
23.976923765345
20
21.5127571389624
30
0
41
1
10
23.9678957530683
20
21.5198622355979
30
0
41
1
10
23.9660517474574
20
21.5220126966965
30
0
41
1
10
23.9652350121629
20
21.5240105568542
30
0
0
SPLINE
5
190
100
AcDbEntity
8
1
62
256
6
ByLayer
370
18
48
1
60
0
100
AcDbSpline
70
4
71
3
72
8
73
4
40
0
40
0
40
0
40
0
40
1
40
1
40
1
40
1
41
1
10
31.3677422707929
20
16.4546006439512
30
0
41
1
10
31.4980032074678
20
16.6983652751233
30
0
41
1
10
31.6284601879927
20
16.9435258178719
30
0
41
1
10
31.7582048923041
20
17.188941650389
30
0
0
LINE
5
72
100
AcDbEntity
8
1
62
256
6
ByLayer
370
18
48
1
60
0
100
AcDbLine
10
15.435999
20
14.325095
30
0
11
15.182325
21
14.077943
31
0
39
0
210
0
220
0
230
1
0
LINE
5
74
100
AcDbEntity
8
1
62
256
6
ByLayer
370
18
48
1
60
0
100
AcDbLine
10
23.500606
20
22.290989
30
0
11
23.324658
21
22.119566
31
0
39
0
210
0
220
0
230
1
0
LINE
5
75
100
AcDbEntity
8
1
62
256
6
ByLayer
370
18
48
1
60
0
100
AcDbLine
10
7.766972
20
20.684282
30
0
11
6.261478
21
19.80593
31
0
39
0
210
0
220
0
230
1
0
LINE
5
76
100
AcDbEntity
8
1
62
256
6
ByLayer
370
18
48
1
60
0
100
AcDbLine
10
31.29174
20
10.757574
30
0
11
32.19031
21
11.633039
31
0
39
0
210
0
220
0
230
1
0
LINE
5
77
100
AcDbEntity
8
1
62
256
6
ByLayer
370
18
48
1
60
0
100
AcDbLine
10
24.631166
20
23.499642
30
0
11
23.732596
21
22.624177
31
0
39
0
210
0
220
0
230
1
0
LINE
5
78
100
AcDbEntity
8
1
62
256
6
ByLayer
370
18
48
1
60
0
100
AcDbLine
10
13.917934
20
15.504859
30
0
11
14.171608
21
15.75201
31
0
39
0
210
0
220
0
230
1
0
LINE
5
79
100
AcDbEntity
8
1
62
256
6
ByLayer
370
18
48
1
60
0
100
AcDbLine
10
16.597589
20
15.383249
30
0
11
16.343915
21
15.136098
31
0
39
0
210
0
220
0
230
1
0
LINE
5
7A
100
AcDbEntity
8
1
62
256
6
ByLayer
370
18
48
1
60
0
100
AcDbLine
10
15.079523
20
16.563013
30
0
11
15.333198
21
16.810164
31
0
39
0
210
0
220
0
230
1
0
LINE
5
7B
100
AcDbEntity
8
1
62
256
6
ByLayer
370
18
48
1
60
0
100
AcDbLine
10
17.803896
20
12.340119
30
0
11
18.078226
21
12.607395
31
0
39
0
210
0
220
0
230
1
0
LINE
5
7C
100
AcDbEntity
8
1
62
256
6
ByLayer
370
18
48
1
60
0
100
AcDbLine
10
12.49552
20
18.337438
30
0
11
12.22119
21
18.070162
31
0
39
0
210
0
220
0
230
1
0
LINE
5
7D
100
AcDbEntity
8
1
62
256
6
ByLayer
370
18
48
1
60
0
100
AcDbLine
10
9.862698
20
16.959962
30
0
11
10.40109
21
17.274077
31
0
39
0
210
0
220
0
230
1
0
LINE
5
7E
100
AcDbEntity
8
80
62
256
6
ByLayer
370
18
48
1
60
0
100
AcDbLine
10
0
20
0
30
0
11
-5
21
0
31
0
39
0
210
0
220
0
230
1
0
LINE
5
7F
100
AcDbEntity
8
81
62
256
6
ByLayer
370
18
48
1
60
0
100
AcDbLine
10
39.424798
20
24.425
30
0
11
49.424798
21
24.425
31
0
39
0
210
0
220
0
230
1
0
LINE
5
80
100
AcDbEntity
8
1
62
256
6
ByLayer
370
18
48
1
60
0
100
AcDbLine
10
0
20
-15.925
30
0
11
0
21
15.925
31
0
39
0
210
0
220
0
230
1
0
LINE
5
81
100
AcDbEntity
8
SK1
62
256
6
ByLayer
370
18
48
1
60
0
100
AcDbLine
10
-131.925202
20
15.925
30
0
11
-131.925202
21
-15.925
31
0
39
0
210
0
220
0
230
1
0
LINE
5
83
100
AcDbEntity
8
SK1
62
256
6
ByLayer
370
18
48
1
60
0
100
AcDbLine
10
0
20
15.925
30
0
11
0
21
-15.925
31
0
39
0
210
0
220
0
230
1
0
LINE
5
84
100
AcDbEntity
8
SK1
62
256
6
ByLayer
370
18
48
1
60
0
100
AcDbLine
10
0
20
15.925
30
0
11
-131.925202
21
15.925
31
0
39
0
210
0
220
0
230
1
0
LINE
5
85
100
AcDbEntity
8
SK1
62
256
6
ByLayer
370
18
48
1
60
0
100
AcDbLine
10
-131.925202
20
-15.925
30
0
11
0
21
-15.925
31
0
39
0
210
0
220
0
230
1
0
LINE
5
86
100
AcDbEntity
8
1
62
256
6
ByLayer
370
18
48
1
60
0
100
AcDbLine
10
0
20
-15.925
30
0
11
4.705673
21
-15.945533
31
0
39
0
210
0
220
0
230
1
0
LINE
5
87
100
AcDbEntity
8
1
62
256
6
ByLayer
370
18
48
1
60
0
100
AcDbLine
10
12.246672
20
-9.459653
30
0
11
12.269568
21
-9.439226
31
0
39
0
210
0
220
0
230
1
0
LINE
5
88
100
AcDbEntity
8
1
62
256
6
ByLayer
370
18
48
1
60
0
100
AcDbLine
10
4.977138
20
-15.945397
30
0
11
11.478328
21
-10.145156
31
0
39
0
210
0
220
0
230
1
0
LINE
5
89
100
AcDbEntity
8
1
62
256
6
ByLayer
370
18
48
1
60
0
100
AcDbLine
10
12.269568
20
-9.439226
30
0
11
8.755672
21
6.181694
31
0
39
0
210
0
220
0
230
1
0
LINE
5
8A
100
AcDbEntity
8
1
62
256
6
ByLayer
370
18
48
1
60
0
100
AcDbLine
10
5.767551
20
19.465294
30
0
11
5.459279
21
20.835707
31
0
39
0
210
0
220
0
230
1
0
LINE
5
8B
100
AcDbEntity
8
1
62
256
6
ByLayer
370
18
48
1
60
0
100
AcDbLine
10
30.633907
20
11.210489
30
0
11
30.699854
21
11.318218
31
0
39
0
210
0
220
0
230
1
0
LINE
5
8C
100
AcDbEntity
8
1
62
256
6
ByLayer
370
18
48
1
60
0
100
AcDbLine
10
19.899525
20
6.940243
30
0
11
21.112033
21
8.920956
31
0
39
0
210
0
220
0
230
1
0
LINE
5
8D
100
AcDbEntity
8
1
62
256
6
ByLayer
370
18
48
1
60
0
100
AcDbLine
10
19.667742
20
-2.838712
30
0
11
12.616268
21
4.398862
31
0
39
0
210
0
220
0
230
1
0
LINE
5
8E
100
AcDbEntity
8
1
62
256
6
ByLayer
370
18
48
1
60
0
100
AcDbLine
10
4.582966
20
20.507966
30
0
11
4.880368
21
20.805368
31
0
39
0
210
0
220
0
230
1
0
LINE
5
8F
100
AcDbEntity
8
1
62
256
6
ByLayer
370
18
48
1
60
0
100
AcDbLine
10
11.478328
20
-10.145156
30
0
11
12.246672
21
-9.459653
31
0
39
0
210
0
220
0
230
1
0
LINE
5
90
100
AcDbEntity
8
1
62
256
6
ByLayer
370
18
48
1
60
0
100
AcDbLine
10
20.472938
20
7.272513
30
0
11
21.010984
21
7.879139
31
0
39
0
210
0
220
0
230
1
0
LINE
5
91
100
AcDbEntity
8
1
62
256
6
ByLayer
370
18
48
1
60
0
100
AcDbLine
10
12.269568
20
-9.439226
30
0
11
14.004602
21
-7.89126
31
0
39
0
210
0
220
0
230
1
0
LINE
5
92
100
AcDbEntity
8
1
62
256
6
ByLayer
370
18
48
1
60
0
100
AcDbLine
10
11.478328
20
-10.145156
30
0
11
7.68965
21
6.697298
31
0
39
0
210
0
220
0
230
1
0
LINE
5
93
100
AcDbEntity
8
1
62
256
6
ByLayer
370
18
48
1
60
0
100
AcDbLine
10
5.022869
20
18.552393
30
0
11
4.582966
21
20.507966
31
0
39
0
210
0
220
0
230
1
0
LINE
5
94
100
AcDbEntity
8
1
62
256
6
ByLayer
370
18
48
1
60
0
100
AcDbLine
10
17.777064
20
7.130248
30
0
11
17.52232
21
7.288276
31
0
39
0
210
0
220
0
230
1
0
LINE
5
95
100
AcDbEntity
8
1
62
256
6
ByLayer
370
18
48
1
60
0
100
AcDbLine
10
4.977138
20
-15.945397
30
0
11
4.705673
21
-15.945533
31
0
39
0
210
0
220
0
230
1
0
LINE
5
96
100
AcDbEntity
8
1
62
256
6
ByLayer
370
18
48
1
60
0
100
AcDbLine
10
24.880631
20
1.812132
30
0
11
19.667742
21
-2.838712
31
0
39
0
210
0
220
0
230
1
0
LINE
5
97
100
AcDbEntity
8
1
62
256
6
ByLayer
370
18
48
1
60
0
100
AcDbLine
10
24.162273
20
10.842953
30
0
11
30.633907
21
11.210489
31
0
39
0
210
0
220
0
230
1
0
LINE
5
98
100
AcDbEntity
8
1
62
256
6
ByLayer
370
18
48
1
60
0
100
AcDbLine
10
12.246672
20
-9.459653
30
0
11
8.72727
21
6.185745
31
0
39
0
210
0
220
0
230
1
0
LINE
5
99
100
AcDbEntity
8
1
62
256
6
ByLayer
370
18
48
1
60
0
100
AcDbLine
10
5.744088
20
19.447389
30
0
11
5.432109
21
20.834283
31
0
39
0
210
0
220
0
230
1
0
LINE
5
9A
100
AcDbEntity
8
1
62
256
6
ByLayer
370
18
48
1
60
0
100
AcDbLine
10
20.156871
20
7.062401
30
0
11
21.409247
21
9.10824
31
0
39
0
210
0
220
0
230
1
0
LINE
5
9B
100
AcDbEntity
8
1
62
256
6
ByLayer
370
18
48
1
60
0
100
AcDbLine
10
21.010984
20
7.879139
30
0
11
21.98577
21
9.471517
31
0
39
0
210
0
220
0
230
1
0
LINE
5
9C
100
AcDbEntity
8
1
62
256
6
ByLayer
370
18
48
1
60
0
100
AcDbLine
10
24.353015
20
10.963124
30
0
11
28.782476
21
11.214681
31
0
39
0
210
0
220
0
230
1
0
LINE
5
9D
100
AcDbEntity
8
1
62
256
6
ByLayer
370
18
48
1
60
0
100
AcDbLine
10
1.385583
20
17.310583
30
0
11
0
21
15.925
31
0
39
0
210
0
220
0
230
1
0
LINE
5
9E
100
AcDbEntity
8
1
62
256
6
ByLayer
370
18
48
1
60
0
100
AcDbLine
10
24.880631
20
1.812132
30
0
11
30.633907
21
11.210489
31
0
39
0
210
0
220
0
230
1
0
LINE
5
9F
100
AcDbEntity
8
1
62
256
6
ByLayer
370
18
48
1
60
0
100
AcDbLine
10
12.616268
20
4.398862
30
0
11
12.073886
21
6.810005
31
0
39
0
210
0
220
0
230
1
0
LINE
5
A0
100
AcDbEntity
8
1
62
256
6
ByLayer
370
18
48
1
60
0
100
AcDbLine
10
4.880368
20
20.805368
30
0
11
5.432109
21
20.834283
31
0
39
0
210
0
220
0
230
1
0
LINE
5
A1
100
AcDbEntity
8
1
62
256
6
ByLayer
370
18
48
1
60
0
100
AcDbLine
10
5.459279
20
20.835707
30
0
11
8.725777
21
21.006897
31
0
39
0
210
0
220
0
230
1
0
LINE
5
A2
100
AcDbEntity
8
1
62
256
6
ByLayer
370
18
48
1
60
0
100
AcDbLine
10
5.432109
20
20.834283
30
0
11
5.459279
21
20.835707
31
0
39
0
210
0
220
0
230
1
0
LINE
5
A3
100
AcDbEntity
8
1
62
256
6
ByLayer
370
18
48
1
60
0
100
AcDbLine
10
1.385583
20
17.310583
30
0
11
4.582966
21
20.507966
31
0
39
0
210
0
220
0
230
1
0
LINE
5
A4
100
AcDbEntity
8
1
62
256
6
ByLayer
370
18
48
1
60
0
100
AcDbLine
10
4.705673
20
-15.945533
30
0
11
1.385583
21
17.310583
31
0
39
0
210
0
220
0
230
1
0
LINE
5
A5
100
AcDbEntity
8
1
62
256
6
ByLayer
370
18
48
1
60
0
100
AcDbLine
10
12.616268
20
4.398862
30
0
11
14.004602
21
-7.89126
31
0
39
0
210
0
220
0
230
1
0
LINE
5
A6
100
AcDbEntity
8
1
62
256
6
ByLayer
370
18
48
1
60
0
100
AcDbLine
10
19.667742
20
-2.838712
30
0
11
14.004602
21
-7.89126
31
0
39
0
210
0
220
0
230
1
0
LINE
5
A7
100
AcDbEntity
8
1
62
256
6
ByLayer
370
18
48
1
60
0
100
AcDbLine
10
28.237299
20
13.400343
30
0
11
28.085306
21
13.435355
31
0
39
0
210
0
220
0
230
1
0
LINE
5
A8
100
AcDbEntity
8
1
62
256
6
ByLayer
370
18
48
1
60
0
100
AcDbLine
10
31.811675
20
15.42822
30
0
11
32.375203
21
16.796561
31
0
39
0
210
0
220
0
230
1
0
LINE
5
A9
100
AcDbEntity
8
1
62
256
6
ByLayer
370
18
48
1
60
0
100
AcDbLine
10
27.780474
20
13.40088
30
0
11
28.085306
21
13.435355
31
0
39
0
210
0
220
0
230
1
0
LINE
5
AA
100
AcDbEntity
8
1
62
256
6
ByLayer
370
18
48
1
60
0
100
AcDbLine
10
26.339402
20
21.837389
30
0
11
26.216348
21
21.74375
31
0
39
0
210
0
220
0
230
1
0
LINE
5
AB
100
AcDbEntity
8
1
62
256
6
ByLayer
370
18
48
1
60
0
100
AcDbLine
10
31.556685
20
20.435255
30
0
11
32.000654
21
20.961308
31
0
39
0
210
0
220
0
230
1
0
LINE
5
AC
100
AcDbEntity
8
1
62
256
6
ByLayer
370
18
48
1
60
0
100
AcDbLine
10
28.312095
20
20.896999
30
0
11
25.473843
21
21.371319
31
0
39
0
210
0
220
0
230
1
0
LINE
5
AD
100
AcDbEntity
8
1
62
256
6
ByLayer
370
18
48
1
60
0
100
AcDbLine
10
27.780474
20
13.40088
30
0
11
27.247969
21
12.239803
31
0
39
0
210
0
220
0
230
1
0
LINE
5
AE
100
AcDbEntity
8
1
62
256
6
ByLayer
370
18
48
1
60
0
100
AcDbLine
10
27.252121
20
22.668379
30
0
11
25.561066
21
22.307926
31
0
39
0
210
0
220
0
230
1
0
LINE
5
AF
100
AcDbEntity
8
1
62
256
6
ByLayer
370
18
48
1
60
0
100
AcDbLine
10
29.651542
20
14.942529
30
0
11
27.276645
21
13.357013
31
0
39
0
210
0
220
0
230
1
0
LINE
5
B0
100
AcDbEntity
8
1
62
256
6
ByLayer
370
18
48
1
60
0
100
AcDbLine
10
29.536833
20
13.677342
30
0
11
29.548508
21
12.459859
31
0
39
0
210
0
220
0
230
1
0
LINE
5
B1
100
AcDbEntity
8
1
62
256
6
ByLayer
370
18
48
1
60
0
100
AcDbLine
10
26.216348
20
21.74375
30
0
11
25.934055
21
21.609077
31
0
39
0
210
0
220
0
230
1
0
LINE
5
B2
100
AcDbEntity
8
1
62
256
6
ByLayer
370
18
48
1
60
0
100
AcDbLine
10
29.536833
20
13.677342
30
0
11
28.237299
21
13.400343
31
0
39
0
210
0
220
0
230
1
0
LINE
5
B3
100
AcDbEntity
8
1
62
256
6
ByLayer
370
18
48
1
60
0
100
AcDbLine
10
25.934055
20
21.609077
30
0
11
25.067629
21
21.932438
31
0
39
0
210
0
220
0
230
1
0
LINE
5
B4
100
AcDbEntity
8
1
62
256
6
ByLayer
370
18
48
1
60
0
100
AcDbLine
10
26.339402
20
21.837389
30
0
11
25.561066
21
22.307926
31
0
39
0
210
0
220
0
230
1
0
LINE
5
B5
100
AcDbEntity
8
1
62
256
6
ByLayer
370
18
48
1
60
0
100
AcDbLine
10
30.457281
20
21.449138
30
0
11
31.556685
21
20.435255
31
0
39
0
210
0
220
0
230
1
0
LINE
5
B6
100
AcDbEntity
8
1
62
256
6
ByLayer
370
18
48
1
60
0
100
AcDbLine
10
31.557136
20
15.214718
30
0
11
29.536833
21
13.677342
31
0
39
0
210
0
220
0
230
1
0
LINE
5
B7
100
AcDbEntity
8
1
62
256
6
ByLayer
370
18
48
1
60
0
100
AcDbLine
10
31.727563
20
14.118039
30
0
11
29.548508
21
12.459859
31
0
39
0
210
0
220
0
230
1
0
LINE
5
B8
100
AcDbEntity
8
1
62
256
6
ByLayer
370
18
48
1
60
0
100
AcDbLine
10
29.943649
20
22.048377
30
0
11
27.252121
21
22.668379
31
0
39
0
210
0
220
0
230
1
0
LINE
5
B9
100
AcDbEntity
8
1
62
256
6
ByLayer
370
18
48
1
60
0
100
AcDbLine
10
32.375203
20
16.796561
30
0
11
33.129643
21
15.942422
31
0
39
0
210
0
220
0
230
1
0
LINE
5
BA
100
AcDbEntity
8
1
62
256
6
ByLayer
370
18
48
1
60
0
100
AcDbLine
10
27.638935
20
22.114388
30
0
11
26.339402
21
21.837389
31
0
39
0
210
0
220
0
230
1
0
LINE
5
BB
100
AcDbEntity
8
1
62
256
6
ByLayer
370
18
48
1
60
0
100
AcDbLine
10
30.668093
20
15.159663
30
0
11
30.375001
21
15.407903
31
0
39
0
210
0
220
0
230
1
0
LINE
5
BC
100
AcDbEntity
8
1
62
256
6
ByLayer
370
18
48
1
60
0
100
AcDbLine
10
26.216348
20
21.74375
30
0
11
29.303053
21
21.22791
31
0
39
0
210
0
220
0
230
1
0
LINE
5
BD
100
AcDbEntity
8
1
62
256
6
ByLayer
370
18
48
1
60
0
100
AcDbLine
10
27.247969
20
12.239803
30
0
11
27.857454
21
12.099406
31
0
39
0
210
0
220
0
230
1
0
LINE
5
BE
100
AcDbEntity
8
1
62
256
6
ByLayer
370
18
48
1
60
0
100
AcDbLine
10
31.557136
20
15.214718
30
0
11
31.727563
21
14.118039
31
0
39
0
210
0
220
0
230
1
0
LINE
5
BF
100
AcDbEntity
8
1
62
256
6
ByLayer
370
18
48
1
60
0
100
AcDbLine
10
28.085306
20
13.435355
30
0
11
30.668093
21
15.159663
31
0
39
0
210
0
220
0
230
1
0
LINE
5
C0
100
AcDbEntity
8
1
62
256
6
ByLayer
370
18
48
1
60
0
100
AcDbLine
10
30.134376
20
21.539556
30
0
11
29.943649
21
22.048377
31
0
39
0
210
0
220
0
230
1
0
LINE
5
C1
100
AcDbEntity
8
1
62
256
6
ByLayer
370
18
48
1
60
0
100
AcDbLine
10
27.638935
20
22.114388
30
0
11
27.252121
21
22.668379
31
0
39
0
210
0
220
0
230
1
0
LINE
5
C2
100
AcDbEntity
8
1
62
256
6
ByLayer
370
18
48
1
60
0
100
AcDbLine
10
29.303053
20
21.22791
30
0
11
29.168157
21
20.77289
31
0
39
0
210
0
220
0
230
1
0
LINE
5
C3
100
AcDbEntity
8
1
62
256
6
ByLayer
370
18
48
1
60
0
100
AcDbLine
10
25.067629
20
21.932438
30
0
11
25.561066
21
22.307926
31
0
39
0
210
0
220
0
230
1
0
LINE
5
C4
100
AcDbEntity
8
1
62
256
6
ByLayer
370
18
48
1
60
0
100
AcDbLine
10
30.134376
20
21.539556
30
0
11
27.638935
21
22.114388
31
0
39
0
210
0
220
0
230
1
0
LINE
5
C5
100
AcDbEntity
8
1
62
256
6
ByLayer
370
18
48
1
60
0
100
AcDbLine
10
29.548508
20
12.459859
30
0
11
27.857454
21
12.099406
31
0
39
0
210
0
220
0
230
1
0
LINE
5
C6
100
AcDbEntity
8
1
62
256
6
ByLayer
370
18
48
1
60
0
100
AcDbLine
10
27.857454
20
12.099406
30
0
11
28.237299
21
13.400343
31
0
39
0
210
0
220
0
230
1
0
LINE
5
C7
100
AcDbEntity
8
1
62
256
6
ByLayer
370
18
48
1
60
0
100
AcDbLine
10
14.520062
20
16.540148
30
0
11
14.773736
21
16.7873
31
0
39
0
210
0
220
0
230
1
0
LINE
5
C8
100
AcDbEntity
8
1
62
256
6
ByLayer
370
18
48
1
60
0
100
AcDbLine
10
15.175428
20
14.037818
30
0
11
15.353253
21
14.211071
31
0
39
0
210
0
220
0
230
1
0
LINE
5
C9
100
AcDbEntity
8
1
62
256
6
ByLayer
370
18
48
1
60
0
100
AcDbLine
10
17.803896
20
12.340119
30
0
11
17.803973
21
12.340194
31
0
39
0
210
0
220
0
230
1
0
LINE
5
CA
100
AcDbEntity
8
1
62
256
6
ByLayer
370
18
48
1
60
0
100
AcDbLine
10
13.818781
20
15.455883
30
0
11
14.029798
21
15.661474
31
0
39
0
210
0
220
0
230
1
0
LINE
5
CB
100
AcDbEntity
8
1
62
256
6
ByLayer
370
18
48
1
60
0
100
AcDbLine
10
16.32146
20
15.956868
30
0
11
16.575134
21
16.204019
31
0
39
0
210
0
220
0
230
1
0
LINE
5
CC
100
AcDbEntity
8
1
62
256
6
ByLayer
370
18
48
1
60
0
100
AcDbLine
10
16.290115
20
14.600309
30
0
11
16.543789
21
14.847461
31
0
39
0
210
0
220
0
230
1
0
LINE
5
CD
100
AcDbEntity
8
1
62
256
6
ByLayer
370
18
48
1
60
0
100
AcDbLine
10
15.874862
20
16.446304
30
0
11
16.128536
21
16.693455
31
0
39
0
210
0
220
0
230
1
0
LINE
5
CE
100
AcDbEntity
8
1
62
256
6
ByLayer
370
18
48
1
60
0
100
AcDbLine
10
30.47582
20
20.419614
30
0
11
29.911099
21
20.649567
31
0
39
0
210
0
220
0
230
1
0
LINE
5
CF
100
AcDbEntity
8
1
62
256
6
ByLayer
370
18
48
1
60
0
100
AcDbLine
10
27.181796
20
13.433979
30
0
11
27.157908
21
13.424631
31
0
39
0
210
0
220
0
230
1
0
LINE
5
D0
100
AcDbEntity
8
1
62
256
6
ByLayer
370
18
48
1
60
0
100
AcDbLine
10
29.651529
20
14.942521
30
0
11
27.619877
21
13.662339
31
0
39
0
210
0
220
0
230
1
0
LINE
5
D1
100
AcDbEntity
8
1
62
256
6
ByLayer
370
18
48
1
60
0
100
AcDbLine
10
10.603507
20
6.351482
30
0
11
12.438906
21
6.923737
31
0
39
0
210
0
220
0
230
1
0
LINE
5
D2
100
AcDbEntity
8
1
62
256
6
ByLayer
370
18
48
1
60
0
100
AcDbLine
10
8.555511
20
20.970597
30
0
11
15.357059
21
22.420365
31
0
39
0
210
0
220
0
230
1
0
LINE
5
D3
100
AcDbEntity
8
1
62
256
6
ByLayer
370
18
48
1
60
0
100
AcDbLine
10
15.425893
20
19.746503
30
0
11
14.936703
21
19.461095
31
0
39
0
210
0
220
0
230
1
0
LINE
5
D4
100
AcDbEntity
8
1
62
256
6
ByLayer
370
18
48
1
60
0
100
AcDbLine
10
6.30829
20
15.761999
30
0
11
6.164348
21
15.567282
31
0
39
0
210
0
220
0
230
1
0
LINE
5
D5
100
AcDbEntity
8
1
62
256
6
ByLayer
370
18
48
1
60
0
100
AcDbLine
10
6.594397
20
8.417027
30
0
11
8.311541
21
9.418862
31
0
39
0
210
0
220
0
230
1
0
LINE
5
D6
100
AcDbEntity
8
1
62
256
6
ByLayer
370
18
48
1
60
0
100
AcDbLine
10
27.157908
20
13.424631
30
0
11
26.222851
21
12.835434
31
0
39
0
210
0
220
0
230
1
0
LINE
5
D7
100
AcDbEntity
8
1
62
256
6
ByLayer
370
18
48
1
60
0
100
AcDbLine
10
6.892353
20
10.273616
30
0
11
6.751808
21
10.410832
31
0
39
0
210
0
220
0
230
1
0
LINE
5
D8
100
AcDbEntity
8
1
62
256
6
ByLayer
370
18
48
1
60
0
100
AcDbLine
10
9.41322
20
16.869614
30
0
11
8.993627
21
16.624811
31
0
39
0
210
0
220
0
230
1
0
LINE
5
D9
100
AcDbEntity
8
1
62
256
6
ByLayer
370
18
48
1
60
0
100
AcDbLine
10
17.615216
20
22.657873
30
0
11
23.876294
21
21.778156
31
0
39
0
210
0
220
0
230
1
0
LINE
5
DA
100
AcDbEntity
8
1
62
256
6
ByLayer
370
18
48
1
60
0
100
AcDbLine
10
26.06626
20
12.042728
30
0
11
20.755799
21
8.696506
31
0
39
0
210
0
220
0
230
1
0
LINE
5
DB
100
AcDbEntity
8
1
62
256
6
ByLayer
370
18
48
1
60
0
100
AcDbLine
10
8.201602
20
20.309768
30
0
11
15.745037
21
21.917672
31
0
39
0
210
0
220
0
230
1
0
LINE
5
DC
100
AcDbEntity
8
1
62
256
6
ByLayer
370
18
48
1
60
0
100
AcDbLine
10
11.01719
20
7.793155
30
0
11
18.560625
21
9.401059
31
0
39
0
210
0
220
0
230
1
0
LINE
5
DD
100
AcDbEntity
8
1
62
256
6
ByLayer
370
18
48
1
60
0
100
AcDbLine
10
13.434963
20
19.322131
30
0
11
15.425893
21
19.746503
31
0
39
0
210
0
220
0
230
1
0
LINE
5
DE
100
AcDbEntity
8
1
62
256
6
ByLayer
370
18
48
1
60
0
100
AcDbLine
10
8.993627
20
16.624811
30
0
11
7.598358
21
16.329566
31
0
39
0
210
0
220
0
230
1
0
LINE
5
DF
100
AcDbEntity
8
1
62
256
6
ByLayer
370
18
48
1
60
0
100
AcDbLine
10
4.766036
20
16.544953
30
0
11
6.48318
21
17.546788
31
0
39
0
210
0
220
0
230
1
0
LINE
5
E0
100
AcDbEntity
8
1
62
256
6
ByLayer
370
18
48
1
60
0
100
AcDbLine
10
5.733224
20
15.426488
30
0
11
6.30829
21
15.761999
31
0
39
0
210
0
220
0
230
1
0
LINE
5
E1
100
AcDbEntity
8
1
62
256
6
ByLayer
370
18
48
1
60
0
100
AcDbLine
10
6.751808
20
10.410832
30
0
11
7.257866
21
10.706082
31
0
39
0
210
0
220
0
230
1
0
LINE
5
E2
100
AcDbEntity
8
1
62
256
6
ByLayer
370
18
48
1
60
0
100
AcDbLine
10
5.65829
20
15.272032
30
0
11
6.751808
21
10.410832
31
0
39
0
210
0
220
0
230
1
0
LINE
5
E3
100
AcDbEntity
8
1
62
256
6
ByLayer
370
18
48
1
60
0
100
AcDbLine
10
18.989136
20
8.553972
30
0
11
20.755799
21
8.696506
31
0
39
0
210
0
220
0
230
1
0
LINE
5
E4
100
AcDbEntity
8
1
62
256
6
ByLayer
370
18
48
1
60
0
100
AcDbLine
10
5.65829
20
15.272032
30
0
11
6.164348
21
15.567282
31
0
39
0
210
0
220
0
230
1
0
LINE
5
E5
100
AcDbEntity
8
1
62
256
6
ByLayer
370
18
48
1
60
0
100
AcDbLine
10
25.389474
20
21.286152
30
0
11
25.41578
21
21.284752
31
0
39
0
210
0
220
0
230
1
0
LINE
5
E6
100
AcDbEntity
8
1
62
256
6
ByLayer
370
18
48
1
60
0
100
AcDbLine
10
10.532288
20
6.33023
30
0
11
11.696094
21
7.00923
31
0
39
0
210
0
220
0
230
1
0
LINE
5
E7
100
AcDbEntity
8
1
62
256
6
ByLayer
370
18
48
1
60
0
100
AcDbLine
10
20.755799
20
8.696506
30
0
11
12.438906
21
6.923737
31
0
39
0
210
0
220
0
230
1
0
LINE
5
E8
100
AcDbEntity
8
1
62
256
6
ByLayer
370
18
48
1
60
0
100
AcDbLine
10
8.735617
20
11.273918
30
0
11
7.598358
21
16.329566
31
0
39
0
210
0
220
0
230
1
0
LINE
5
E9
100
AcDbEntity
8
1
62
256
6
ByLayer
370
18
48
1
60
0
100
AcDbLine
10
6.30829
20
15.761999
30
0
11
7.467419
21
10.609127
31
0
39
0
210
0
220
0
230
1
0
LINE
5
EA
100
AcDbEntity
8
1
62
256
6
ByLayer
370
18
48
1
60
0
100
AcDbLine
10
7.467419
20
10.609127
30
0
11
7.257866
21
10.706082
31
0
39
0
210
0
220
0
230
1
0
LINE
5
EB
100
AcDbEntity
8
1
62
256
6
ByLayer
370
18
48
1
60
0
100
AcDbLine
10
6.48318
20
17.546788
30
0
11
8.311541
21
9.418862
31
0
39
0
210
0
220
0
230
1
0
LINE
5
EC
100
AcDbEntity
8
1
62
256
6
ByLayer
370
18
48
1
60
0
100
AcDbLine
10
18.497641
20
8.458999
30
0
11
11.696094
21
7.00923
31
0
39
0
210
0
220
0
230
1
0
LINE
5
ED
100
AcDbEntity
8
1
62
256
6
ByLayer
370
18
48
1
60
0
100
AcDbLine
10
6.892353
20
10.273616
30
0
11
7.467419
21
10.609127
31
0
39
0
210
0
220
0
230
1
0
LINE
5
EE
100
AcDbEntity
8
1
62
256
6
ByLayer
370
18
48
1
60
0
100
AcDbLine
10
24.287034
20
21.441051
30
0
11
25.389474
21
21.286152
31
0
39
0
210
0
220
0
230
1
0
LINE
5
EF
100
AcDbEntity
8
1
62
256
6
ByLayer
370
18
48
1
60
0
100
AcDbLine
10
17.241132
20
11.676911
30
0
11
15.250202
21
11.252539
31
0
39
0
210
0
220
0
230
1
0
LINE
5
F0
100
AcDbEntity
8
1
62
256
6
ByLayer
370
18
48
1
60
0
100
AcDbLine
10
6.594397
20
8.417027
30
0
11
4.766036
21
16.544953
31
0
39
0
210
0
220
0
230
1
0
LINE
5
F1
100
AcDbEntity
8
1
62
256
6
ByLayer
370
18
48
1
60
0
100
AcDbLine
10
6.164348
20
15.567282
30
0
11
7.257866
21
10.706082
31
0
39
0
210
0
220
0
230
1
0
LINE
5
F2
100
AcDbEntity
8
1
62
256
6
ByLayer
370
18
48
1
60
0
100
AcDbLine
10
15.848553
20
22.515339
30
0
11
17.615216
21
22.657873
31
0
39
0
210
0
220
0
230
1
0
LINE
5
F3
100
AcDbEntity
8
1
62
256
6
ByLayer
370
18
48
1
60
0
100
AcDbLine
10
12.954064
20
19.04156
30
0
11
14.131473
21
19.290705
31
0
39
0
210
0
220
0
230
1
0
LINE
5
F4
100
AcDbEntity
8
1
62
256
6
ByLayer
370
18
48
1
60
0
100
AcDbLine
10
25.916745
20
21.233559
30
0
11
28.31208
21
20.897001
31
0
39
0
210
0
220
0
230
1
0
LINE
5
F5
100
AcDbEntity
8
1
62
256
6
ByLayer
370
18
48
1
60
0
100
AcDbLine
10
5.733224
20
15.426488
30
0
11
5.65829
21
15.272032
31
0
39
0
210
0
220
0
230
1
0
LINE
5
F6
100
AcDbEntity
8
1
62
256
6
ByLayer
370
18
48
1
60
0
100
AcDbLine
10
31.367742
20
16.454601
30
0
11
30.992144
21
15.843813
31
0
39
0
210
0
220
0
230
1
0
LINE
5
F7
100
AcDbEntity
8
1
62
256
6
ByLayer
370
18
48
1
60
0
100
AcDbLine
10
13.434963
20
19.322131
30
0
11
12.954064
21
19.04156
31
0
39
0
210
0
220
0
230
1
0
LINE
5
F8
100
AcDbEntity
8
1
62
256
6
ByLayer
370
18
48
1
60
0
100
AcDbLine
10
25.133969
20
23.718982
30
0
11
38.585003
21
24.423921
31
0
39
0
210
0
220
0
230
1
0
LINE
5
F9
100
AcDbEntity
8
1
62
256
6
ByLayer
370
18
48
1
60
0
100
AcDbLine
10
39.310121
20
23.217938
30
0
11
32.310413
21
11.783452
31
0
39
0
210
0
220
0
230
1
0
LINE
5
FA
100
AcDbEntity
8
1
62
256
6
ByLayer
370
18
48
1
60
0
100
AcDbLine
10
31.687507
20
11.413699
30
0
11
24.467665
21
11.035323
31
0
39
0
210
0
220
0
230
1
0
LINE
5
FB
100
AcDbEntity
8
1
62
256
6
ByLayer
370
18
48
1
60
0
100
AcDbLine
10
23.241181
20
21.867201
30
0
11
23.612493
21
22.473764
31
0
39
0
210
0
220
0
230
1
0
LINE
5
FC
100
AcDbEntity
8
1
62
256
6
ByLayer
370
18
48
1
60
0
100
AcDbLine
10
23.612493
20
22.473764
30
0
11
24.511064
21
23.34923
31
0
39
0
210
0
220
0
230
1
0
LINE
5
FD
100
AcDbEntity
8
1
62
256
6
ByLayer
370
18
48
1
60
0
100
AcDbLine
10
30.788937
20
10.538234
30
0
11
31.687507
21
11.413699
31
0
39
0
210
0
220
0
230
1
0
LINE
5
FE
100
AcDbEntity
8
1
62
256
6
ByLayer
370
18
48
1
60
0
100
AcDbLine
10
30.788937
20
10.538234
30
0
11
30.203397
21
10.507547
31
0
39
0
210
0
220
0
230
1
0
LINE
5
FF
100
AcDbEntity
8
1
62
256
6
ByLayer
370
18
48
1
60
0
100
AcDbLine
10
23.575181
20
21.820403
30
0
11
24.511064
21
23.34923
31
0
39
0
210
0
220
0
230
1
0
LINE
5
100
100
AcDbEntity
8
1
62
256
6
ByLayer
370
18
48
1
60
0
100
AcDbLine
10
23.242649
20
21.867183
30
0
11
23.402955
21
22.129053
31
0
39
0
210
0
220
0
230
1
0
LINE
5
101
100
AcDbEntity
8
1
62
256
6
ByLayer
370
18
48
1
60
0
100
AcDbLine
10
30.064396
20
10.21002
30
0
11
30.0199
21
10.207688
31
0
39
0
210
0
220
0
230
1
0
LINE
5
102
100
AcDbEntity
8
1
62
256
6
ByLayer
370
18
48
1
60
0
100
AcDbLine
10
30.382899
20
10.520332
30
0
11
30.205633
21
10.511042
31
0
39
0
210
0
220
0
230
1
0
LINE
5
103
100
AcDbEntity
8
1
62
256
6
ByLayer
370
18
48
1
60
0
100
AcDbLine
10
23.402955
20
22.129053
30
0
11
23.147849
21
21.880508
31
0
39
0
210
0
220
0
230
1
0
LINE
5
104
100
AcDbEntity
8
1
62
256
6
ByLayer
370
18
48
1
60
0
100
AcDbLine
10
30.382899
20
10.520332
30
0
11
30.064396
21
10.21002
31
0
39
0
210
0
220
0
230
1
0
MTEXT
5
191
100
AcDbEntity
8
SK6
62
256
6
ByLayer
370
18
48
1
60
0
100
AcDbMText
10
-60.375202
20
-26.810266
30
0
210
0
220
0
230
1
1
\W0.7395;DDJNR 3232P 15-2
40
3.5
41
0
44
1.084337
50
0
71
7
72
5
7
iso_b_vert
0
DIMENSION
5
1A2
100
AcDbEntity
8
2
62
256
6
ByLayer
370
13
48
1
60
0
100
AcDbDimension
2
DimnDraft3D1
10
37.590877
20
24.371576
30
0
11
20.981663
21
41.969569
31
0
70
34
71
5
72
1
41
1
210
0
220
0
230
1
3
Standard
100
AcDb2LineAngularDimension
13
39.424798
23
24.425
33
0
14
39.424798
24
22.8375
34
0
15
38.589506
25
24.423912
35
0
16
24.245848
26
38.871974
36
0
40
0
0
DIMENSION
5
1B8
100
AcDbEntity
8
SK2
62
256
6
ByLayer
370
13
48
1
60
0
100
AcDbDimension
2
DimnDraft3D2
10
-139.675202
20
15.925
30
0
11
-139.675202
21
-5.281579
31
0
70
32
71
5
72
1
41
1
210
0
220
0
230
1
3
Standard
100
AcDbAlignedDimension
13
-133.925202
23
-15.925
33
0
14
-133.925202
24
15.925
34
0
50
90
100
AcDbRotatedDimension
1001
ACAD
1000
DSTYLE
1002
{
1070
    74
1070
     0
1070
   279
1070
     0
1070
   172
1070
     1
1070
   173
1070
     1
1070
   340
1005
192
1070
    77
1070
     1
1070
    73
1070
     0
1070
   171
1070
     3
1070
   274
1070
     4
1070
   177
1070
     2
1070
   176
1070
     2
1070
   178
1070
     7
1070
    78
1070
     8
1070
    41
1041
3.175
1070
   147
1041
2.25
1070
    42
1041
2.0
1070
    44
1041
2.0
1070
   140
1041
4.5
1070
   343
1005
1A3
1070
   344
1005
1A3
1002
}
0
DIMENSION
5
1C6
100
AcDbEntity
8
2
62
256
6
ByLayer
370
13
48
1
60
0
100
AcDbDimension
2
DimnDraft3D3
10
61.674798
20
24.425
30
0
11
61.674798
21
-1.268421
31
0
70
32
71
5
72
1
41
1
210
0
220
0
230
1
3
Standard
100
AcDbAlignedDimension
13
2
23
-15.925
33
0
14
41.424798
24
24.425
34
0
50
90
100
AcDbRotatedDimension
1001
ACAD
1000
DSTYLE
1002
{
1070
    74
1070
     0
1070
   279
1070
     0
1070
   172
1070
     1
1070
   173
1070
     1
1070
   340
1005
192
1070
    77
1070
     1
1070
    73
1070
     0
1070
   171
1070
     3
1070
   274
1070
     4
1070
   177
1070
     2
1070
   176
1070
     2
1070
   178
1070
     7
1070
    78
1070
     8
1070
    41
1041
3.175
1070
   147
1041
2.25
1070
    42
1041
2.0
1070
    44
1041
2.0
1070
   140
1041
4.5
1070
   343
1005
1A3
1070
   344
1005
1A3
1002
}
0
DIMENSION
5
1D4
100
AcDbEntity
8
2
62
256
6
ByLayer
370
13
48
1
60
0
100
AcDbDimension
2
DimnDraft3D4
10
39.424798
20
54.175
30
0
11
14.193978
21
54.175
31
0
70
32
71
5
72
1
41
1
210
0
220
0
230
1
3
Standard
100
AcDbAlignedDimension
13
0
23
17.925
33
0
14
39.424798
24
26.425
34
0
50
0
100
AcDbRotatedDimension
1001
ACAD
1000
DSTYLE
1002
{
1070
   279
1070
     0
1070
   172
1070
     1
1070
   173
1070
     1
1070
   340
1005
192
1070
    77
1070
     1
1070
    73
1070
     0
1070
   171
1070
     3
1070
   274
1070
     4
1070
   177
1070
     2
1070
   176
1070
     2
1070
   178
1070
     7
1070
    78
1070
     8
1070
    41
1041
3.175
1070
   147
1041
2.25
1070
    42
1041
2.0
1070
    44
1041
2.0
1070
   140
1041
4.5
1070
   343
1005
1A3
1070
   344
1005
1A3
1002
}
0
DIMENSION
5
1E2
100
AcDbEntity
8
SK2
62
256
6
ByLayer
370
13
48
1
60
0
100
AcDbDimension
2
DimnDraft3D5
10
-131.925202
20
64.175
30
0
11
-52.65086
21
64.175
31
0
70
32
71
5
72
1
41
1
210
0
220
0
230
1
3
Standard
100
AcDbAlignedDimension
13
39.424798
23
26.425
33
0
14
-131.925202
24
17.925
34
0
50
0
100
AcDbRotatedDimension
1001
ACAD
1000
DSTYLE
1002
{
1070
   279
1070
     0
1070
   172
1070
     1
1070
   173
1070
     1
1070
   340
1005
192
1070
    77
1070
     1
1070
    73
1070
     0
1070
   171
1070
     3
1070
   274
1070
     4
1070
   177
1070
     2
1070
   176
1070
     2
1070
   178
1070
     7
1070
    78
1070
     8
1070
    41
1041
3.175
1070
   147
1041
2.25
1070
    42
1041
2.0
1070
    44
1041
2.0
1070
   140
1041
4.5
1070
   343
1005
1A3
1070
   344
1005
1A3
1002
}
0
ENDSEC
0
SECTION
2
OBJECTS
0
DICTIONARY
5
24c
330
0
100
AcDbDictionary
280
0
281
1
3
ACAD_GROUP
350
24d
3
ACAD_MLINESTYLE
350
24e
0
DICTIONARY
5
24d
330
0
100
AcDbDictionary
280
0
281
1
0
DICTIONARY
5
24e
330
0
100
AcDbDictionary
280
0
281
1
3
Standard
350
18
0
MLINESTYLE
5
18
330
24e
100
AcDbMlineStyle
2
Standard
70
0
3

62
256
51
90
52
90
71
2
49
-0.5
62
256
6
ByLayer
49
0.5
62
256
6
ByLayer
0
RASTERVARIABLES
5
23b
330

100
AcDbRasterVariables
90
0
70
1
71
1
72
1
0
ENDSEC
0
EOF
