0
SECTION
2
HEADER
9
$ACADVER
1
AC1015
9
$DWGCODEPAGE
3
ANSI_1252
9
$HANDSEED
5
221
9
$ANGBASE
50
0
9
$ANGDIR
70
0
9
$ATTMODE
70
1
9
$AUNITS
70
0
9
$AUPREC
70
0
9
$CECOLOR
62
256
9
$CELTSCALE
40
1
9
$CELTYPE
6
ByLayer
9
$CELWEIGHT
370
18
9
$CLAYER
8
0
9
$CMLJUST
70
0
9
$CMLSCALE
40
1
9
$CMLSTYLE
2
Standard
9
$DIMSTYLE
2
Standard
9
$TEXTSIZE
40
0.2
9
$TEXTSTYLE
7
Standard
9
$LUNITS
70
2
9
$LUPREC
70
4
9
$EXTNAMES
290
1
9
$INSUNITS
70
4
9
$LTSCALE
40
1
9
$LWDISPLAY
290
1
9
$PDMODE
70
0
9
$PDSIZE
40
0
9
$PLINEGEN
70
0
0
ENDSEC
0
SECTION
2
CLASSES
0
CLASS
1
RASTERVARIABLES
2
AcDbRasterVariables
3
ISM
90
0
280
0
281
0
0
ENDSEC
0
SECTION
2
TABLES
0
TABLE
2
VPORT
5
217
100
AcDbSymbolTable
0
VPORT
5
1
100
AcDbSymbolTableRecord
100
AcDbViewportTableRecord
2
*Active
70
0
10
0
20
0
11
1
21
1
12
-1
22
1
13
0
23
0
14
0.5
24
0.5
15
10
25
10
16
0
26
0
36
1
17
0
27
0
37
0
0
ENDTAB
0
TABLE
2
LTYPE
5
218
100
AcDbSymbolTable
0
LTYPE
5
14
100
AcDbSymbolTableRecord
100
AcDbLinetypeTableRecord
70
0
2
ByBlock
3

72
65
73
0
40
0
0
LTYPE
5
15
100
AcDbSymbolTableRecord
100
AcDbLinetypeTableRecord
70
0
2
ByLayer
3

72
65
73
0
40
0
0
LTYPE
5
16
100
AcDbSymbolTableRecord
100
AcDbLinetypeTableRecord
70
0
2
CONTINUOUS
3
Solid line
72
65
73
0
40
0
0
LTYPE
5
6A
100
AcDbSymbolTableRecord
100
AcDbLinetypeTableRecord
70
0
2
CENTER
3
____ _ ____ _ ____ _ ____
72
65
73
4
40
47.5
49
22
74
0
49
-8.5
74
0
49
8.5
74
0
49
-8.5
74
0
0
LTYPE
5
6B
100
AcDbSymbolTableRecord
100
AcDbLinetypeTableRecord
70
0
2
DASHED
3
__ __ __ __ __ __ __ __ __
72
65
73
2
40
25.72
49
12.86
74
0
49
-12.86
74
0
0
ENDTAB
0
TABLE
2
LAYER
5
219
100
AcDbSymbolTable
0
LAYER
5
10
100
AcDbSymbolTableRecord
100
AcDbLayerTableRecord
2
0
70
0
62
7
6
CONTINUOUS
290
1
370
-3
390
0
0
LAYER
5
6D
100
AcDbSymbolTableRecord
100
AcDbLayerTableRecord
2
2
70
0
62
7
6
CONTINUOUS
290
1
370
-3
390
0
0
LAYER
5
6F
100
AcDbSymbolTableRecord
100
AcDbLayerTableRecord
2
80
70
0
62
-6
6
CONTINUOUS
290
1
370
-3
390
0
0
LAYER
5
71
100
AcDbSymbolTableRecord
100
AcDbLayerTableRecord
2
81
70
0
62
-3
6
CONTINUOUS
290
1
370
-3
390
0
0
LAYER
5
73
100
AcDbSymbolTableRecord
100
AcDbLayerTableRecord
2
1
70
0
62
4
6
CONTINUOUS
290
1
370
-3
390
0
0
LAYER
5
204
100
AcDbSymbolTableRecord
100
AcDbLayerTableRecord
2
SK1
70
0
62
4
6
CONTINUOUS
290
1
370
-3
390
0
0
LAYER
5
205
100
AcDbSymbolTableRecord
100
AcDbLayerTableRecord
2
SK6
70
0
62
5
6
CONTINUOUS
290
1
370
-3
390
0
0
LAYER
5
206
100
AcDbSymbolTableRecord
100
AcDbLayerTableRecord
2
SK2
70
0
62
7
6
CONTINUOUS
290
1
370
-3
390
0
0
ENDTAB
0
TABLE
2
STYLE
5
21a
100
AcDbSymbolTable
0
STYLE
5
11
100
AcDbSymbolTableRecord
100
AcDbTextStyleTableRecord
2
Standard
3
txt
70
0
71
0
40
0
41
1
42
0
50
0
0
STYLE
5
15A
100
AcDbSymbolTableRecord
100
AcDbTextStyleTableRecord
2
iso_b_vert
3
simplex.shx
70
0
71
0
40
0
41
1
42
0
50
0
0
STYLE
5
15B
100
AcDbSymbolTableRecord
100
AcDbTextStyleTableRecord
2
DWGDirectTextStyle
3
simplex
70
0
71
0
40
0
41
1
42
0
50
0
0
ENDTAB
0
TABLE
2
DIMSTYLE
5
21b
100
AcDbSymbolTable
100
AcDbDimStyleTable
0
DIMSTYLE
105
27
100
AcDbSymbolTableRecord
100
AcDbDimStyleTableRecord
2
Standard
70
0
3
<>
41
0.18
42
0.0625
44
0.18
140
0.18
147
0.09
73
0
74
0
77
1
271
2
275
0
278
52
280
0
340
11
0
ENDTAB
0
TABLE
2
VIEW
5
21c
100
AcDbSymbolTable
0
ENDTAB
0
TABLE
2
UCS
5
21d
100
AcDbSymbolTable
0
ENDTAB
0
TABLE
2
APPID
5
21e
100
AcDbSymbolTable
0
APPID
5
12
100
AcDbSymbolTableRecord
100
AcDbRegAppTableRecord
2
ACAD
70
0
0
ENDTAB
0
TABLE
2
BLOCK_RECORD
5
21f
100
AcDbSymbolTable
0
BLOCK_RECORD
5
1F
100
AcDbSymbolTableRecord
100
AcDbBlockTableRecord
2
*Model_Space
340
0
70
0
0
BLOCK_RECORD
5
1B
100
AcDbSymbolTableRecord
100
AcDbBlockTableRecord
2
*Paper_Space
340
0
70
0
0
BLOCK_RECORD
5
23
100
AcDbSymbolTableRecord
100
AcDbBlockTableRecord
2
*Paper_Space0
340
0
70
0
0
BLOCK_RECORD
5
15D
100
AcDbSymbolTableRecord
100
AcDbBlockTableRecord
2
DimnDraft3D1
340
0
70
0
0
BLOCK_RECORD
5
16B
100
AcDbSymbolTableRecord
100
AcDbBlockTableRecord
2
_CLOSED
340
0
70
0
0
BLOCK_RECORD
5
172
100
AcDbSymbolTableRecord
100
AcDbBlockTableRecord
2
DimnDraft3D2
340
0
70
0
0
BLOCK_RECORD
5
181
100
AcDbSymbolTableRecord
100
AcDbBlockTableRecord
2
DimnDraft3D3
340
0
70
0
0
BLOCK_RECORD
5
18F
100
AcDbSymbolTableRecord
100
AcDbBlockTableRecord
2
DimnDraft3D4
340
0
70
0
0
BLOCK_RECORD
5
19D
100
AcDbSymbolTableRecord
100
AcDbBlockTableRecord
2
DimnDraft3D5
340
0
70
0
0
ENDTAB
0
ENDSEC
0
SECTION
2
BLOCKS
0
BLOCK
5
20
100
AcDbEntity
8
0
100
AcDbBlockBegin
2
*Model_Space
70
0
10
0
20
0
30
0
3
*Model_Space
0
ENDBLK
5
21
100
AcDbEntity
8
0
100
AcDbBlockEnd
0
BLOCK
5
1C
100
AcDbEntity
8
0
100
AcDbBlockBegin
2
*Paper_Space
70
0
10
0
20
0
30
0
3
*Paper_Space
0
ENDBLK
5
1D
100
AcDbEntity
8
0
100
AcDbBlockEnd
0
BLOCK
5
24
100
AcDbEntity
8
0
100
AcDbBlockBegin
2
*Paper_Space0
70
0
10
0
20
0
30
0
3
*Paper_Space0
0
ENDBLK
5
25
100
AcDbEntity
8
0
100
AcDbBlockEnd
0
BLOCK
5
168
100
AcDbEntity
8
0
100
AcDbBlockBegin
2
DimnDraft3D1
70
0
10
0
20
0
30
0
3
DimnDraft3D1
0
MTEXT
5
15E
100
AcDbEntity
8
2
62
256
6
ByLayer
370
18
48
1
60
0
100
AcDbMText
10
21.395441
20
28.516447
30
0
210
0
220
0
230
1
1
\W0.7399;93%%d
40
4.5
41
0
44
1.084337
50
46.5000000000003
71
7
72
5
7
iso_b_vert
0
LINE
5
15F
100
AcDbEntity
8
2
62
256
6
ByLayer
370
13
48
1
60
0
100
AcDbLine
10
39.399798
20
17.4125
30
0
11
39.399798
21
38.380865
31
0
39
0
210
0
220
0
230
1
0
LINE
5
160
100
AcDbEntity
8
2
62
256
6
ByLayer
370
13
48
1
60
0
100
AcDbLine
10
35.568618
20
15.254404
30
0
11
16.50554
21
14.255351
31
0
39
0
210
0
220
0
230
1
0
ARC
5
161
100
AcDbEntity
8
2
62
256
6
ByLayer
370
13
48
1
60
0
100
AcDbCircle
39
0
10
39.399798
20
15.455188
30
0
40
20.9256770833571
210
0
220
0
230
1
100
AcDbArc
50
90
51
183
0
LINE
5
162
100
AcDbEntity
8
2
62
256
6
ByLayer
370
13
48
1
60
0
100
AcDbLine
10
39.399798
20
36.380865
30
0
11
36.242896
21
35.842993
31
0
39
0
210
0
220
0
230
1
0
LINE
5
163
100
AcDbEntity
8
2
62
256
6
ByLayer
370
13
48
1
60
0
100
AcDbLine
10
39.399798
20
36.380865
30
0
11
36.21125
21
36.678387
31
0
39
0
210
0
220
0
230
1
0
LINE
5
164
100
AcDbEntity
8
2
62
256
6
ByLayer
370
13
48
1
60
0
100
AcDbLine
10
36.242896
20
35.842993
30
0
11
36.21125
21
36.678387
31
0
39
0
210
0
220
0
230
1
0
LINE
5
165
100
AcDbEntity
8
2
62
256
6
ByLayer
370
13
48
1
60
0
100
AcDbLine
10
18.502799
20
14.360023
30
0
11
18.038809
21
17.528626
31
0
39
0
210
0
220
0
230
1
0
LINE
5
166
100
AcDbEntity
8
2
62
256
6
ByLayer
370
13
48
1
60
0
100
AcDbLine
10
18.502799
20
14.360023
30
0
11
18.874714
21
17.540751
31
0
39
0
210
0
220
0
230
1
0
LINE
5
167
100
AcDbEntity
8
2
62
256
6
ByLayer
370
13
48
1
60
0
100
AcDbLine
10
18.038809
20
17.528626
30
0
11
18.874714
21
17.540751
31
0
39
0
210
0
220
0
230
1
0
ENDBLK
5
169
100
AcDbEntity
8
0
100
AcDbBlockEnd
0
BLOCK
5
16C
100
AcDbEntity
8
0
100
AcDbBlockBegin
2
_CLOSED
70
0
10
0
20
0
30
0
3
_CLOSED
0
LINE
5
16E
100
AcDbEntity
8
0
62
256
6
ByLayer
370
-2
48
1
60
0
100
AcDbLine
10
-1
20
0.166667
30
0
11
0
21
0
31
0
39
0
210
0
220
0
230
1
0
LINE
5
16F
100
AcDbEntity
8
0
62
256
6
ByLayer
370
-2
48
1
60
0
100
AcDbLine
10
0
20
0
30
0
11
-1
21
-0.166667
31
0
39
0
210
0
220
0
230
1
0
LINE
5
170
100
AcDbEntity
8
0
62
256
6
ByLayer
370
-2
48
1
60
0
100
AcDbLine
10
-1
20
0.166667
30
0
11
-1
21
-0.166667
31
0
39
0
210
0
220
0
230
1
0
LINE
5
171
100
AcDbEntity
8
0
62
256
6
ByLayer
370
-2
48
1
60
0
100
AcDbLine
10
0
20
0
30
0
11
-1
21
0
31
0
39
0
210
0
220
0
230
1
0
ENDBLK
5
16D
100
AcDbEntity
8
0
100
AcDbBlockEnd
0
BLOCK
5
17E
100
AcDbEntity
8
0
100
AcDbBlockBegin
2
DimnDraft3D2
70
0
10
0
20
0
30
0
3
DimnDraft3D2
0
MTEXT
5
173
100
AcDbEntity
8
SK2
62
256
6
ByLayer
370
18
48
1
60
0
100
AcDbMText
10
-95.825202
20
-4.156579
30
0
210
0
220
0
230
1
1
\W0.7346;20.0
40
4.5
41
0
44
1.084337
50
90
71
7
72
5
7
iso_b_vert
0
LINE
5
175
100
AcDbEntity
8
SK2
62
256
6
ByLayer
370
13
48
1
60
0
100
AcDbLine
10
-88.950202
20
-9.9375
30
0
11
-96.700202
21
-9.9375
31
0
39
0
210
0
220
0
230
1
0
LINE
5
176
100
AcDbEntity
8
SK2
62
256
6
ByLayer
370
13
48
1
60
0
100
AcDbLine
10
-88.950202
20
9.9375
30
0
11
-96.700202
21
9.9375
31
0
39
0
210
0
220
0
230
1
0
LINE
5
177
100
AcDbEntity
8
SK2
62
256
6
ByLayer
370
13
48
1
60
0
100
AcDbLine
10
-94.700202
20
-21.1875
30
0
11
-94.700202
21
21.1875
31
0
39
0
210
0
220
0
230
1
0
LINE
5
178
100
AcDbEntity
8
SK2
62
256
6
ByLayer
370
13
48
1
60
0
100
AcDbLine
10
-94.700202
20
-9.9375
30
0
11
-94.282205
21
-13.112498
31
0
39
0
210
0
220
0
230
1
0
LINE
5
179
100
AcDbEntity
8
SK2
62
256
6
ByLayer
370
13
48
1
60
0
100
AcDbLine
10
-94.700202
20
-9.9375
30
0
11
-95.118199
21
-13.112502
31
0
39
0
210
0
220
0
230
1
0
LINE
5
17A
100
AcDbEntity
8
SK2
62
256
6
ByLayer
370
13
48
1
60
0
100
AcDbLine
10
-94.282205
20
-13.112498
30
0
11
-95.118199
21
-13.112502
31
0
39
0
210
0
220
0
230
1
0
LINE
5
17B
100
AcDbEntity
8
SK2
62
256
6
ByLayer
370
13
48
1
60
0
100
AcDbLine
10
-94.700202
20
9.9375
30
0
11
-95.118199
21
13.112498
31
0
39
0
210
0
220
0
230
1
0
LINE
5
17C
100
AcDbEntity
8
SK2
62
256
6
ByLayer
370
13
48
1
60
0
100
AcDbLine
10
-94.700202
20
9.9375
30
0
11
-94.282205
21
13.112502
31
0
39
0
210
0
220
0
230
1
0
LINE
5
17D
100
AcDbEntity
8
SK2
62
256
6
ByLayer
370
13
48
1
60
0
100
AcDbLine
10
-95.118199
20
13.112498
30
0
11
-94.282205
21
13.112502
31
0
39
0
210
0
220
0
230
1
0
ENDBLK
5
17F
100
AcDbEntity
8
0
100
AcDbBlockEnd
0
BLOCK
5
18C
100
AcDbEntity
8
0
100
AcDbBlockBegin
2
DimnDraft3D3
70
0
10
0
20
0
30
0
3
DimnDraft3D3
0
MTEXT
5
182
100
AcDbEntity
8
2
62
256
6
ByLayer
370
18
48
1
60
0
100
AcDbMText
10
60.524798
20
-1.419079
30
0
210
0
220
0
230
1
1
\W0.7346;25.0
40
4.5
41
0
44
1.084337
50
90
71
7
72
5
7
iso_b_vert
0
LINE
5
183
100
AcDbEntity
8
2
62
256
6
ByLayer
370
13
48
1
60
0
100
AcDbLine
10
2
20
-9.9375
30
0
11
63.649798
21
-9.9375
31
0
39
0
210
0
220
0
230
1
0
LINE
5
184
100
AcDbEntity
8
2
62
256
6
ByLayer
370
13
48
1
60
0
100
AcDbLine
10
41.399798
20
15.4125
30
0
11
63.649798
21
15.4125
31
0
39
0
210
0
220
0
230
1
0
LINE
5
185
100
AcDbEntity
8
2
62
256
6
ByLayer
370
13
48
1
60
0
100
AcDbLine
10
61.649798
20
-9.9375
30
0
11
61.649798
21
15.4125
31
0
39
0
210
0
220
0
230
1
0
LINE
5
186
100
AcDbEntity
8
2
62
256
6
ByLayer
370
13
48
1
60
0
100
AcDbLine
10
61.649798
20
-9.9375
30
0
11
61.231801
21
-6.762502
31
0
39
0
210
0
220
0
230
1
0
LINE
5
187
100
AcDbEntity
8
2
62
256
6
ByLayer
370
13
48
1
60
0
100
AcDbLine
10
61.649798
20
-9.9375
30
0
11
62.067795
21
-6.762498
31
0
39
0
210
0
220
0
230
1
0
LINE
5
188
100
AcDbEntity
8
2
62
256
6
ByLayer
370
13
48
1
60
0
100
AcDbLine
10
61.231801
20
-6.762502
30
0
11
62.067795
21
-6.762498
31
0
39
0
210
0
220
0
230
1
0
LINE
5
189
100
AcDbEntity
8
2
62
256
6
ByLayer
370
13
48
1
60
0
100
AcDbLine
10
61.649798
20
15.4125
30
0
11
62.067795
21
12.237502
31
0
39
0
210
0
220
0
230
1
0
LINE
5
18A
100
AcDbEntity
8
2
62
256
6
ByLayer
370
13
48
1
60
0
100
AcDbLine
10
61.649798
20
15.4125
30
0
11
61.231801
21
12.237498
31
0
39
0
210
0
220
0
230
1
0
LINE
5
18B
100
AcDbEntity
8
2
62
256
6
ByLayer
370
13
48
1
60
0
100
AcDbLine
10
62.067795
20
12.237502
30
0
11
61.231801
21
12.237498
31
0
39
0
210
0
220
0
230
1
0
ENDBLK
5
18D
100
AcDbEntity
8
0
100
AcDbBlockEnd
0
BLOCK
5
19A
100
AcDbEntity
8
0
100
AcDbBlockBegin
2
DimnDraft3D4
70
0
10
0
20
0
30
0
3
DimnDraft3D4
0
MTEXT
5
190
100
AcDbEntity
8
2
62
256
6
ByLayer
370
18
48
1
60
0
100
AcDbMText
10
15.306478
20
46.2875
30
0
210
0
220
0
230
1
1
\W0.7528;39.4
40
4.5
41
0
44
1.084337
50
0
71
7
72
5
7
iso_b_vert
0
LINE
5
191
100
AcDbEntity
8
2
62
256
6
ByLayer
370
13
48
1
60
0
100
AcDbLine
10
0
20
11.9375
30
0
11
0
21
47.1625
31
0
39
0
210
0
220
0
230
1
0
LINE
5
192
100
AcDbEntity
8
2
62
256
6
ByLayer
370
13
48
1
60
0
100
AcDbLine
10
39.399798
20
17.4125
30
0
11
39.399798
21
47.1625
31
0
39
0
210
0
220
0
230
1
0
LINE
5
193
100
AcDbEntity
8
2
62
256
6
ByLayer
370
13
48
1
60
0
100
AcDbLine
10
0
20
45.1625
30
0
11
39.399798
21
45.1625
31
0
39
0
210
0
220
0
230
1
0
LINE
5
194
100
AcDbEntity
8
2
62
256
6
ByLayer
370
13
48
1
60
0
100
AcDbLine
10
0
20
45.1625
30
0
11
3.174998
21
45.580497
31
0
39
0
210
0
220
0
230
1
0
LINE
5
195
100
AcDbEntity
8
2
62
256
6
ByLayer
370
13
48
1
60
0
100
AcDbLine
10
0
20
45.1625
30
0
11
3.175002
21
44.744503
31
0
39
0
210
0
220
0
230
1
0
LINE
5
196
100
AcDbEntity
8
2
62
256
6
ByLayer
370
13
48
1
60
0
100
AcDbLine
10
3.174998
20
45.580497
30
0
11
3.175002
21
44.744503
31
0
39
0
210
0
220
0
230
1
0
LINE
5
197
100
AcDbEntity
8
2
62
256
6
ByLayer
370
13
48
1
60
0
100
AcDbLine
10
39.399798
20
45.1625
30
0
11
36.224799
21
44.744503
31
0
39
0
210
0
220
0
230
1
0
LINE
5
198
100
AcDbEntity
8
2
62
256
6
ByLayer
370
13
48
1
60
0
100
AcDbLine
10
39.399798
20
45.1625
30
0
11
36.224796
21
45.580497
31
0
39
0
210
0
220
0
230
1
0
LINE
5
199
100
AcDbEntity
8
2
62
256
6
ByLayer
370
13
48
1
60
0
100
AcDbLine
10
36.224799
20
44.744503
30
0
11
36.224796
21
45.580497
31
0
39
0
210
0
220
0
230
1
0
ENDBLK
5
19B
100
AcDbEntity
8
0
100
AcDbBlockEnd
0
BLOCK
5
1A8
100
AcDbEntity
8
0
100
AcDbBlockBegin
2
DimnDraft3D5
70
0
10
0
20
0
30
0
3
DimnDraft3D5
0
MTEXT
5
19E
100
AcDbEntity
8
SK2
62
256
6
ByLayer
370
18
48
1
60
0
100
AcDbMText
10
-29.05086
20
56.2875
30
0
210
0
220
0
230
1
1
\W0.6864;125.0
40
4.5
41
0
44
1.084337
50
0
71
7
72
5
7
iso_b_vert
0
LINE
5
19F
100
AcDbEntity
8
SK2
62
256
6
ByLayer
370
13
48
1
60
0
100
AcDbLine
10
39.399798
20
17.4125
30
0
11
39.399798
21
57.1625
31
0
39
0
210
0
220
0
230
1
0
LINE
5
1A0
100
AcDbEntity
8
SK2
62
256
6
ByLayer
370
13
48
1
60
0
100
AcDbLine
10
-86.950202
20
11.9375
30
0
11
-86.950202
21
57.1625
31
0
39
0
210
0
220
0
230
1
0
LINE
5
1A1
100
AcDbEntity
8
SK2
62
256
6
ByLayer
370
13
48
1
60
0
100
AcDbLine
10
39.399798
20
55.1625
30
0
11
-86.950202
21
55.1625
31
0
39
0
210
0
220
0
230
1
0
LINE
5
1A2
100
AcDbEntity
8
SK2
62
256
6
ByLayer
370
13
48
1
60
0
100
AcDbLine
10
39.399798
20
55.1625
30
0
11
36.224799
21
54.744503
31
0
39
0
210
0
220
0
230
1
0
LINE
5
1A3
100
AcDbEntity
8
SK2
62
256
6
ByLayer
370
13
48
1
60
0
100
AcDbLine
10
39.399798
20
55.1625
30
0
11
36.224796
21
55.580497
31
0
39
0
210
0
220
0
230
1
0
LINE
5
1A4
100
AcDbEntity
8
SK2
62
256
6
ByLayer
370
13
48
1
60
0
100
AcDbLine
10
36.224799
20
54.744503
30
0
11
36.224796
21
55.580497
31
0
39
0
210
0
220
0
230
1
0
LINE
5
1A5
100
AcDbEntity
8
SK2
62
256
6
ByLayer
370
13
48
1
60
0
100
AcDbLine
10
-86.950202
20
55.1625
30
0
11
-83.775204
21
55.580497
31
0
39
0
210
0
220
0
230
1
0
LINE
5
1A6
100
AcDbEntity
8
SK2
62
256
6
ByLayer
370
13
48
1
60
0
100
AcDbLine
10
-86.950202
20
55.1625
30
0
11
-83.775201
21
54.744503
31
0
39
0
210
0
220
0
230
1
0
LINE
5
1A7
100
AcDbEntity
8
SK2
62
256
6
ByLayer
370
13
48
1
60
0
100
AcDbLine
10
-83.775204
20
55.580497
30
0
11
-83.775201
21
54.744503
31
0
39
0
210
0
220
0
230
1
0
ENDBLK
5
1A9
100
AcDbEntity
8
0
100
AcDbBlockEnd
0
ENDSEC
0
SECTION
2
ENTITIES
0
ELLIPSE
5
E4
100
AcDbEntity
8
1
62
256
6
ByLayer
370
18
48
1
60
0
100
AcDbEllipse
10
28.385738
20
8.553841
30
0
11
1.80042269365874
21
-1.847938885396
31
0
210
0
220
0
230
1
40
0.987534
41
-0.330418070028273
42
0
0
ELLIPSE
5
E5
100
AcDbEntity
8
1
62
256
6
ByLayer
370
18
48
1
60
0
100
AcDbEllipse
10
28.385738
20
8.553841
30
0
11
1.80042269365874
21
-1.847938885396
31
0
210
0
220
0
230
1
40
0.987534
41
0
42
2.3383648589003
0
ELLIPSE
5
E6
100
AcDbEntity
8
1
62
256
6
ByLayer
370
18
48
1
60
0
100
AcDbEllipse
10
27.849076
20
8.030978
30
0
11
-1.80042269365874
21
1.847938885396
31
0
210
0
220
0
230
1
40
0.987534
41
-2.99393323583495
42
-2.59171128179633
0
ELLIPSE
5
E7
100
AcDbEntity
8
1
62
256
6
ByLayer
370
18
48
1
60
0
100
AcDbEllipse
10
31.86545
20
3.958361
30
0
11
0.554083573164745
21
-0.568706773257528
31
0
210
0
220
0
230
1
40
0.987534
41
-0.23383596902191
42
4.87391192280104E-06
0
ELLIPSE
5
E8
100
AcDbEntity
8
1
62
256
6
ByLayer
370
18
48
1
60
0
100
AcDbEllipse
10
18.719649
20
0.272533
30
0
11
1.65314319602558
21
-1.69677243339754
31
0
210
0
220
0
230
1
40
0.987534
41
-1.68413813115885
42
-1.32466675151839
0
ELLIPSE
5
E9
100
AcDbEntity
8
1
62
256
6
ByLayer
370
18
48
1
60
0
100
AcDbEllipse
10
29.937184
20
2.773255
30
0
11
1.10781822720278
21
-1.13705541882406
31
0
210
0
220
0
230
1
40
0.987534
41
-0.713801513320334
42
-2.45072522301025E-06
0
ELLIPSE
5
EA
100
AcDbEntity
8
1
62
256
6
ByLayer
370
18
48
1
60
0
100
AcDbEllipse
10
24.407476
20
11.97001
30
0
11
1.1078182272028
21
-1.13705541882408
31
0
210
0
220
0
230
1
40
0.987534
41
3.14158978678915
42
-2.8954630783133
0
ELLIPSE
5
EB
100
AcDbEntity
8
1
62
256
6
ByLayer
370
18
48
1
60
0
100
AcDbEllipse
10
27.358235
20
7.633633
30
0
11
1.90160924039536
21
-1.95179591577677
31
0
210
0
220
0
230
1
40
0.987534
41
0.323882917365356
42
0.550863121161753
0
ELLIPSE
5
EC
100
AcDbEntity
8
1
62
256
6
ByLayer
370
18
48
1
60
0
100
AcDbEllipse
10
7.947142
20
10.297477
30
0
11
1.97548026366513
21
-2.25775944862812
31
0
210
0
220
0
230
1
40
0.985051
41
-0.50389293716848
42
-0.187717665000388
0
ELLIPSE
5
ED
100
AcDbEntity
8
1
62
256
6
ByLayer
370
18
48
1
60
0
100
AcDbEllipse
10
13.47131
20
5.76271
30
0
11
2.7327476980701
21
-3.12323390393557
31
0
210
0
220
0
230
1
40
0.985051
41
2.63769971642131
42
2.93053762613471
0
ELLIPSE
5
EE
100
AcDbEntity
8
1
62
256
6
ByLayer
370
18
48
1
60
0
100
AcDbEllipse
10
15.453949
20
6.182245
30
0
11
-2.73274769807009
21
3.12323390393558
31
0
210
0
220
0
230
1
40
0.985051
41
3.0229866199574
42
-0.503892937168484
0
ELLIPSE
5
EF
100
AcDbEntity
8
1
62
256
6
ByLayer
370
18
48
1
60
0
100
AcDbEllipse
10
13.393938
20
5.746338
30
0
11
-1.71208289517644
21
1.95672485547771
31
0
210
0
220
0
230
1
40
0.985051
41
0.976435233351492
42
1.16738499093872
0
ELLIPSE
5
F0
100
AcDbEntity
8
1
62
256
6
ByLayer
370
18
48
1
60
0
100
AcDbEllipse
10
13.632637
20
5.876859
30
0
11
-0.265178536275318
21
0.272177045135845
31
0
210
0
220
0
230
1
40
0.987534
41
-0.403396498438425
42
-0.342180053776424
0
ELLIPSE
5
F1
100
AcDbEntity
8
1
62
256
6
ByLayer
370
18
48
1
60
0
100
AcDbEllipse
10
15.197035
20
4.589199
30
0
11
0.296581257676343
21
-0.304408537322984
31
0
210
0
220
0
230
1
40
0.987534
41
3.1415858437697
42
-2.80444236523646
0
ELLIPSE
5
F2
100
AcDbEntity
8
1
62
256
6
ByLayer
370
18
48
1
60
0
100
AcDbEllipse
10
13.339482
20
6.624931
30
0
11
0.296581257676343
21
-0.304408537322984
31
0
210
0
220
0
230
1
40
0.987534
41
-0.403396498438517
42
1.88105428427632E-05
0
ELLIPSE
5
F3
100
AcDbEntity
8
1
62
256
6
ByLayer
370
18
48
1
60
0
100
AcDbEllipse
10
15.694962
20
5.209093
30
0
11
-0.265178536275318
21
0.272177045135845
31
0
210
0
220
0
230
1
40
0.987534
41
-2.79939683891867
42
-1.75724481403988
0
ELLIPSE
5
F4
100
AcDbEntity
8
1
62
256
6
ByLayer
370
18
48
1
60
0
100
AcDbEllipse
10
14.003145
20
7.063191
30
0
11
-0.265178536275318
21
0.272177045135845
31
0
210
0
220
0
230
1
40
0.987534
41
-1.4505940496351
42
-0.342174994296332
0
ELLIPSE
5
F5
100
AcDbEntity
8
1
62
256
6
ByLayer
370
18
48
1
60
0
100
AcDbEllipse
10
16.358625
20
5.647353
30
0
11
0.296581257676343
21
-0.304408537322984
31
0
210
0
220
0
230
1
40
0.987534
41
-3.14157244993312
42
-1.75724481403988
0
ELLIPSE
5
F6
100
AcDbEntity
8
1
62
256
6
ByLayer
370
18
48
1
60
0
100
AcDbEllipse
10
14.501071
20
7.683085
30
0
11
0.296581257676343
21
-0.304408537322984
31
0
210
0
220
0
230
1
40
0.987534
41
-1.4505940496351
42
-6.8149615011541E-06
0
ELLIPSE
5
F7
100
AcDbEntity
8
1
62
256
6
ByLayer
370
18
48
1
60
0
100
AcDbEllipse
10
14.758858
20
6.048266
30
0
11
2.79135301342441
21
-2.86502152774573
31
0
210
0
220
0
230
1
40
0.987534
41
3.14152162621429
42
-0.778646137219364
0
ELLIPSE
5
F8
100
AcDbEntity
8
1
62
256
6
ByLayer
370
18
48
1
60
0
100
AcDbEllipse
10
14.758858
20
6.048266
30
0
11
2.79135301342441
21
-2.86502152774573
31
0
210
0
220
0
230
1
40
0.987534
41
-0.778645885634928
42
-2.24847554539926E-16
0
ELLIPSE
5
F9
100
AcDbEntity
8
1
62
256
6
ByLayer
370
18
48
1
60
0
100
AcDbEllipse
10
16.06547
20
6.395424
30
0
11
-0.265178536275318
21
0.272177045135845
31
0
210
0
220
0
230
1
40
0.987534
41
-2.79935548313891
42
-0.710047262843352
0
ELLIPSE
5
FA
100
AcDbEntity
8
1
62
256
6
ByLayer
370
18
48
1
60
0
100
AcDbEllipse
10
15.219561
20
7.322474
30
0
11
-0.265178536275318
21
0.272177045135845
31
0
210
0
220
0
230
1
40
0.987534
41
-2.49779160083163
42
-0.342171625757645
0
ELLIPSE
5
FB
100
AcDbEntity
8
1
62
256
6
ByLayer
370
18
48
1
60
0
100
AcDbEllipse
10
14.849053
20
6.136142
30
0
11
0.802513991359517
21
-0.823693689226898
31
0
210
0
220
0
230
1
40
0.987534
41
-1.29804002362822
42
-0.778646487249863
0
ELLIPSE
5
FC
100
AcDbEntity
8
1
62
256
6
ByLayer
370
18
48
1
60
0
100
AcDbEllipse
10
14.849053
20
6.136142
30
0
11
0.802513991359517
21
-0.823693689226898
31
0
210
0
220
0
230
1
40
0.987534
41
-2.58854668707934
42
-1.92164538258303
0
ELLIPSE
5
FD
100
AcDbEntity
8
1
62
256
6
ByLayer
370
18
48
1
60
0
100
AcDbEllipse
10
14.849053
20
6.136142
30
0
11
0.802513991359517
21
-0.823693689226898
31
0
210
0
220
0
230
1
40
0.987534
41
-0.195831875445837
42
0
0
ELLIPSE
5
FE
100
AcDbEntity
8
1
62
256
6
ByLayer
370
18
48
1
60
0
100
AcDbEllipse
10
14.849053
20
6.136142
30
0
11
0.802513991359517
21
-0.823693689226898
31
0
210
0
220
0
230
1
40
0.987534
41
0
42
-3.00009578200859
0
ELLIPSE
5
FF
100
AcDbEntity
8
1
62
256
6
ByLayer
370
18
48
1
60
0
100
AcDbEllipse
10
14.849053
20
6.136142
30
0
11
0.802513991359517
21
-0.823693689226898
31
0
210
0
220
0
230
1
40
0.987534
41
-0.778645612173609
42
-0.63496697133727
0
ELLIPSE
5
100
100
AcDbEntity
8
1
62
256
6
ByLayer
370
18
48
1
60
0
100
AcDbEllipse
10
14.792681
20
6.081219
30
0
11
0.802513991359517
21
-0.823693689226898
31
0
210
0
220
0
230
1
40
0.987534
41
0.0346827327959966
42
3.10686561729261
0
ELLIPSE
5
101
100
AcDbEntity
8
1
62
256
6
ByLayer
370
18
48
1
60
0
100
AcDbEllipse
10
16.010643
20
7.194296
30
0
11
0.296581257676343
21
-0.304408537322984
31
0
210
0
220
0
230
1
40
0.987534
41
-2.49779160083166
42
-0.710047262843282
0
ELLIPSE
5
102
100
AcDbEntity
8
1
62
256
6
ByLayer
370
18
48
1
60
0
100
AcDbEllipse
10
14.946685
20
6.231263
30
0
11
-2.7913530134244
21
2.86502152774573
31
0
210
0
220
0
230
1
40
0.987534
41
0
42
6.28318530717959
0
ELLIPSE
5
103
100
AcDbEntity
8
1
62
256
6
ByLayer
370
18
48
1
60
0
100
AcDbEllipse
10
15.399952
20
7.498226
30
0
11
-0.265178536275318
21
0.272177045135845
31
0
210
0
220
0
230
1
40
0.987534
41
-2.49779160083168
42
0.337150288353305
0
ELLIPSE
5
104
100
AcDbEntity
8
1
62
256
6
ByLayer
370
18
48
1
60
0
100
AcDbEllipse
10
15.377426
20
4.764951
30
0
11
0.296581257676343
21
-0.304408537322984
31
0
210
0
220
0
230
1
40
0.987534
41
1.69099860395473
42
-2.80444236523649
0
ELLIPSE
5
105
100
AcDbEntity
8
1
62
256
6
ByLayer
370
18
48
1
60
0
100
AcDbEllipse
10
16.539015
20
5.823105
30
0
11
0.296581257676343
21
-0.304408537322984
31
0
210
0
220
0
230
1
40
0.987534
41
2.73819615515127
42
-1.75724481403987
0
ELLIPSE
5
106
100
AcDbEntity
8
1
62
256
6
ByLayer
370
18
48
1
60
0
100
AcDbEllipse
10
16.191034
20
7.370048
30
0
11
0.296581257676343
21
-0.304408537322984
31
0
210
0
220
0
230
1
40
0.987534
41
-2.49779160083162
42
-0.710047262843265
0
ELLIPSE
5
107
100
AcDbEntity
8
1
62
256
6
ByLayer
370
18
48
1
60
0
100
AcDbEllipse
10
13.867854
20
5.25374
30
0
11
0.296581257676343
21
-0.304408537322984
31
0
210
0
220
0
230
1
40
0.987534
41
0.643801052758115
42
2.43154539074651
0
ELLIPSE
5
108
100
AcDbEntity
8
1
62
256
6
ByLayer
370
18
48
1
60
0
100
AcDbEllipse
10
13.519872
20
6.800683
30
0
11
0.296581257676343
21
-0.304408537322984
31
0
210
0
220
0
230
1
40
0.987534
41
-0.403396498438517
42
1.38434783954991
0
ELLIPSE
5
109
100
AcDbEntity
8
1
62
256
6
ByLayer
370
18
48
1
60
0
100
AcDbEllipse
10
16.24586
20
6.571177
30
0
11
-0.265178536275318
21
0.272177045135845
31
0
210
0
220
0
230
1
40
0.987534
41
2.73819615515135
42
-0.710047262843282
0
ELLIPSE
5
10A
100
AcDbEntity
8
1
62
256
6
ByLayer
370
18
48
1
60
0
100
AcDbEllipse
10
14.183535
20
7.238943
30
0
11
-0.265178536275318
21
0.272177045135845
31
0
210
0
220
0
230
1
40
0.987534
41
-1.45059404963504
42
1.38434783954989
0
ELLIPSE
5
10B
100
AcDbEntity
8
1
62
256
6
ByLayer
370
18
48
1
60
0
100
AcDbEllipse
10
15.029444
20
6.311894
30
0
11
-1.60502798271903
21
1.6473873784538
31
0
210
0
220
0
230
1
40
0.987534
41
0
42
6.28318530717959
0
ELLIPSE
5
10C
100
AcDbEntity
8
1
62
256
6
ByLayer
370
18
48
1
60
0
100
AcDbEllipse
10
14.681462
20
7.858837
30
0
11
0.296581257676343
21
-0.304408537322984
31
0
210
0
220
0
230
1
40
0.987534
41
-1.45059404963508
42
0.337150288353301
0
ELLIPSE
5
10D
100
AcDbEntity
8
1
62
256
6
ByLayer
370
18
48
1
60
0
100
AcDbEllipse
10
14.658936
20
5.125562
30
0
11
-0.265178536275318
21
0.272177045135845
31
0
210
0
220
0
230
1
40
0.987534
41
0.643801052758102
42
-2.80444236523646
0
ELLIPSE
5
10E
100
AcDbEntity
8
1
62
256
6
ByLayer
370
18
48
1
60
0
100
AcDbEllipse
10
13.813027
20
6.052611
30
0
11
-0.265178536275318
21
0.272177045135845
31
0
210
0
220
0
230
1
40
0.987534
41
-0.403396498438465
42
2.43154539074651
0
ELLIPSE
5
10F
100
AcDbEntity
8
1
62
256
6
ByLayer
370
18
48
1
60
0
100
AcDbEllipse
10
15.875353
20
5.384845
30
0
11
-0.265178536275318
21
0.272177045135845
31
0
210
0
220
0
230
1
40
0.987534
41
1.69099860395471
42
-1.75724481403993
0
ELLIPSE
5
110
100
AcDbEntity
8
1
62
256
6
ByLayer
370
18
48
1
60
0
100
AcDbEllipse
10
18.974394
20
0.114505
30
0
11
1.65314319602558
21
-1.69677243339754
31
0
210
0
220
0
230
1
40
0.987534
41
-1.32466675151838
42
0.246129575276497
0
ELLIPSE
5
111
100
AcDbEntity
8
1
62
256
6
ByLayer
370
18
48
1
60
0
100
AcDbEllipse
10
9.492446
20
-9.951778
30
0
11
-0.820006014234003
21
6.89321531802684E-05
31
0
210
0
220
0
230
1
40
0.004273
41
-3.00612330981967
42
-1.43532698302534
0
ELLIPSE
5
112
100
AcDbEntity
8
1
62
256
6
ByLayer
370
18
48
1
60
0
100
AcDbEllipse
10
32.402111
20
4.481223
30
0
11
-0.554083573164744
21
0.568706773257528
31
0
210
0
220
0
230
1
40
0.987534
41
2.9077566845679
42
-2.89546307831327
0
ELLIPSE
5
113
100
AcDbEntity
8
1
62
256
6
ByLayer
370
18
48
1
60
0
100
AcDbEllipse
10
38.610649
20
14.62328
30
0
11
-0.554083573164744
21
0.568706773257528
31
0
210
0
220
0
230
1
40
0.987534
41
-2.89546307831327
42
-0.713801513320373
0
ELLIPSE
5
114
100
AcDbEntity
8
1
62
256
6
ByLayer
370
18
48
1
60
0
100
AcDbEllipse
10
30.091503
20
3.109661
30
0
11
-0.554083573164744
21
0.568706773257528
31
0
210
0
220
0
230
1
40
0.987534
41
2.42779114026944
42
2.90775668456786
0
ELLIPSE
5
115
100
AcDbEntity
8
1
62
256
6
ByLayer
370
18
48
1
60
0
100
AcDbEllipse
10
26.679973
20
13.99802
30
0
11
-0.554083573164744
21
0.568706773257528
31
0
210
0
220
0
230
1
40
0.987534
41
-0.713801513320357
42
-0.23383596902195
0
ELLIPSE
5
116
100
AcDbEntity
8
1
62
256
6
ByLayer
370
18
48
1
60
0
100
AcDbEllipse
10
24.369365
20
12.626458
30
0
11
-0.554083573164744
21
0.568706773257528
31
0
210
0
220
0
230
1
40
0.987534
41
-0.233835969021934
42
0.246129575276521
0
ELLIPSE
5
117
100
AcDbEntity
8
1
62
256
6
ByLayer
370
18
48
1
60
0
100
AcDbEllipse
10
9.483739
20
0.005349
30
0
11
-2.66344707801017
21
1.40123612188849
31
0
210
0
220
0
230
1
40
0.988643
41
0.699939923645759
42
1.75162898671025
0
ELLIPSE
5
118
100
AcDbEntity
8
1
62
256
6
ByLayer
370
18
48
1
60
0
100
AcDbEllipse
10
28.826864
20
8.902473
30
0
11
-1.67589864628228
21
1.43101267968511
31
0
210
0
220
0
230
1
40
0.772193
41
-2.198393226049
42
-1.3431818925712
0
ELLIPSE
5
119
100
AcDbEntity
8
1
62
256
6
ByLayer
370
18
48
1
60
0
100
AcDbEllipse
10
7.646629
20
8.172166
30
0
11
-2.66344707798453
21
1.40123612192349
31
0
210
0
220
0
230
1
40
0.988643
41
-0.351749139404819
42
0.699939923660721
0
ELLIPSE
5
11A
100
AcDbEntity
8
1
62
256
6
ByLayer
370
18
48
1
60
0
100
AcDbEllipse
10
12.376319
20
2.629661
30
0
11
5.36591329077102
21
1.20705201044815
31
0
210
0
220
0
230
1
40
0.083175
41
1.9830114060476
42
2.42477914533363
0
ELLIPSE
5
11B
100
AcDbEntity
8
1
62
256
6
ByLayer
370
18
48
1
60
0
100
AcDbEllipse
10
10.343793
20
9.745775
30
0
11
-3.82773442490552
21
0.907594688987301
31
0
210
0
220
0
230
1
40
0.449589
41
-0.758730297683725
42
-0.399114564335359
0
ELLIPSE
5
11C
100
AcDbEntity
8
1
62
256
6
ByLayer
370
18
48
1
60
0
100
AcDbEllipse
10
12.856514
20
0.494973
30
0
11
-5.32236543047882
21
-1.399001498544
31
0
210
0
220
0
230
1
40
0.320139
41
-0.607907328343995
42
-0.55491502798704
0
ELLIPSE
5
11D
100
AcDbEntity
8
1
62
256
6
ByLayer
370
18
48
1
60
0
100
AcDbEllipse
10
8.026744
20
8.771278
30
0
11
-0.444337541742468
21
-1.95001644839172
31
0
210
0
220
0
230
1
40
0.807679
41
-2.66386309697108
42
-1.25118760271146
0
ELLIPSE
5
11E
100
AcDbEntity
8
1
62
256
6
ByLayer
370
18
48
1
60
0
100
AcDbEllipse
10
5.700496
20
-3.351332
30
0
11
6.82934418825403
21
1.53624801329765
31
0
210
0
220
0
230
1
40
0.083175
41
-0.812513867698239
42
-0.797732830958244
0
ELLIPSE
5
11F
100
AcDbEntity
8
1
62
256
6
ByLayer
370
18
48
1
60
0
100
AcDbEllipse
10
10.758866
20
9.819998
30
0
11
-5.40555315848829
21
-1.03051159957541
31
0
210
0
220
0
230
1
40
0.153994
41
0.54852412564896
42
0.60151643161787
0
ELLIPSE
5
120
100
AcDbEntity
8
1
62
256
6
ByLayer
370
18
48
1
60
0
100
AcDbEllipse
10
12.180903
20
1.578959
30
0
11
-2.4033379868359
21
-3.8284761512229
31
0
210
0
220
0
230
1
40
0.535969
41
0.120157045492773
42
0.47977277884788
0
ELLIPSE
5
121
100
AcDbEntity
8
1
62
256
6
ByLayer
370
18
48
1
60
0
100
AcDbEllipse
10
11.23906
20
7.685309
30
0
11
5.36591329077102
21
1.20705201044815
31
0
210
0
220
0
230
1
40
0.083175
41
1.9830114060476
42
2.42477914533364
0
ELLIPSE
5
122
100
AcDbEntity
8
1
62
256
6
ByLayer
370
18
48
1
60
0
100
AcDbEllipse
10
10.429333
20
11.716694
30
0
11
-3.45654390321431
21
-0.579964293023148
31
0
210
0
220
0
230
1
40
0.288972
41
-0.110851984962443
42
0.612366121437931
0
ELLIPSE
5
123
100
AcDbEntity
8
1
62
256
6
ByLayer
370
18
48
1
60
0
100
AcDbEllipse
10
28.826864
20
8.902473
30
0
11
-0.244919138432925
21
2.36066737614861
31
0
210
0
220
0
230
1
40
0.796311
41
-2.42084415876488
42
-1.56563282528606
0
ELLIPSE
5
124
100
AcDbEntity
8
1
62
256
6
ByLayer
370
18
48
1
60
0
100
AcDbEllipse
10
9.866708
20
0.59177
30
0
11
1.49832280026797
21
-1.3247749945546
31
0
210
0
220
0
230
1
40
0.754402
41
-2.12034306913165
42
-0.70766757487206
0
ELLIPSE
5
125
100
AcDbEntity
8
1
62
256
6
ByLayer
370
18
48
1
60
0
100
AcDbEllipse
10
13.345377
20
-1.246489
30
0
11
-3.36435260978521
21
-0.985138713416172
31
0
210
0
220
0
230
1
40
0.454664
41
-0.625392807791818
42
0.0978252986102282
0
ELLIPSE
5
126
100
AcDbEntity
8
1
62
256
6
ByLayer
370
18
48
1
60
0
100
AcDbEllipse
10
25.083941
20
12.629081
30
0
11
-1.10781822720281
21
1.13705541882409
31
0
210
0
220
0
230
1
40
0.987534
41
-0.713801513320359
42
0.246129575276529
0
ELLIPSE
5
127
100
AcDbEntity
8
1
62
256
6
ByLayer
370
18
48
1
60
0
100
AcDbEllipse
10
30.613648
20
3.432326
30
0
11
-1.10781822720281
21
1.13705541882409
31
0
210
0
220
0
230
1
40
0.987534
41
2.42779114026943
42
-2.89546307831328
0
POINT
5
6C
100
AcDbEntity
8
2
62
256
6
ByLayer
370
18
48
1
60
0
100
AcDbPoint
10
39.399798
20
15.4125
30
0
39
0
210
0
220
0
230
1
50
360
0
POINT
5
6E
100
AcDbEntity
8
80
62
256
6
ByLayer
370
18
48
1
60
0
100
AcDbPoint
10
0
20
0
30
0
39
0
210
0
220
0
230
1
50
360
0
POINT
5
70
100
AcDbEntity
8
81
62
256
6
ByLayer
370
18
48
1
60
0
100
AcDbPoint
10
39.399798
20
15.4125
30
0
39
0
210
0
220
0
230
1
50
360
0
SPLINE
5
128
100
AcDbEntity
8
1
62
256
6
ByLayer
370
18
48
1
60
0
100
AcDbSpline
70
4
71
3
72
8
73
4
40
0
40
0
40
0
40
0
40
1
40
1
40
1
40
1
41
1
10
6.21206121328402
20
10.8084517219169
30
0
41
1
10
6.01223341192386
20
10.6920370513024
30
0
41
1
10
5.81224306924582
20
10.5546170753795
30
0
41
1
10
5.62356028696755
20
10.3948493692087
30
0
0
SPLINE
5
129
100
AcDbEntity
8
1
62
256
6
ByLayer
370
18
48
1
60
0
100
AcDbSpline
70
4
71
3
72
8
73
4
40
0
40
0
40
0
40
0
40
1
40
1
40
1
40
1
41
1
10
29.3254878171114
20
10.60307735662
30
0
41
1
10
29.2483742897665
20
10.6429392276386
30
0
41
1
10
29.1711653073467
20
10.678868140111
30
0
41
1
10
29.0952686079657
20
10.7103687434874
30
0
0
SPLINE
5
12A
100
AcDbEntity
8
1
62
256
6
ByLayer
370
18
48
1
60
0
100
AcDbSpline
70
4
71
3
72
8
73
4
40
0
40
0
40
0
40
0
40
1
40
1
40
1
40
1
41
1.01923193622652
10
27.0606875266348
20
3.44289870025099
30
0
41
1.02059843499303
10
27.4810772101816
20
3.82570864142471
30
0
41
1.02233811057541
10
27.9896063984573
20
4.31903865245043
30
0
41
1.02417041321379
10
28.4732175514014
20
4.85181604274597
30
0
0
SPLINE
5
12B
100
AcDbEntity
8
1
62
256
6
ByLayer
370
18
48
1
60
0
100
AcDbSpline
70
4
71
3
72
8
73
4
40
0
40
0
40
0
40
0
40
1
40
1
40
1
40
1
41
1
10
10.7700743028051
20
8.68946867656601
30
0
41
1
10
10.7271870815348
20
8.63404167815136
30
0
41
1
10
10.681366265519
20
8.57977009253366
30
0
41
1
10
10.6325462075499
20
8.52679035448423
30
0
0
SPLINE
5
12C
100
AcDbEntity
8
1
62
256
6
ByLayer
370
18
48
1
60
0
100
AcDbSpline
70
4
71
3
72
8
73
4
40
0
40
0
40
0
40
0
40
1
40
1
40
1
40
1
41
1
10
24.7898658703548
20
2.32513852493088
30
0
41
1
10
25.4546819423002
20
2.79070129633234
30
0
41
1
10
26.1436112938941
20
3.14869590448987
30
0
41
1
10
26.7635837652283
20
3.34229166447787
30
0
0
SPLINE
5
12D
100
AcDbEntity
8
1
62
256
6
ByLayer
370
18
48
1
60
0
100
AcDbSpline
70
4
71
3
72
10
73
6
40
0
40
0
40
0
40
0
40
0.655488757716275
40
0.655488757716275
40
1
40
1
40
1
40
1
41
1
10
10.4896377160512
20
-2.70729331637341
30
0
41
1
10
10.138045184528
20
-2.81600937954107
30
0
41
1
10
9.73407015392766
20
-2.89702834100555
30
0
41
1
10
9.07491791450971
20
-2.90370327251748
30
0
41
1
10
8.83745588750836
20
-2.88447372117622
30
0
41
1
10
8.60002250312547
20
-2.83692360073124
30
0
0
SPLINE
5
12E
100
AcDbEntity
8
1
62
256
6
ByLayer
370
18
48
1
60
0
100
AcDbSpline
70
4
71
3
72
11
73
7
40
0
40
0
40
0
40
0
40
0.423407924939466
40
0.740963868644066
40
0.899741840496366
40
1
40
1
40
1
40
1
41
1.02805999725225
10
17.7540590058253
20
0.427316157344122
30
0
41
1.02767136955277
10
18.5666732791548
20
0.718400112411744
30
0
41
1.02349884684923
10
21.2409340449017
20
2.60983759365681
30
0
41
1.01876555595691
10
24.4805271916745
20
5.27204576012766
30
0
41
1.01635405201137
10
25.7083499711293
20
6.24921382266468
30
0
41
1.01722454828226
10
26.1782858127559
20
6.37935908809086
30
0
41
1.01774327987904
10
26.3755511442227
20
6.42387744199816
30
0
0
SPLINE
5
12F
100
AcDbEntity
8
1
62
256
6
ByLayer
370
18
48
1
60
0
100
AcDbSpline
70
4
71
3
72
8
73
4
40
0
40
0
40
0
40
0
40
1
40
1
40
1
40
1
41
1
10
6.24298346277482
20
8.43800434771376
30
0
41
1
10
6.23783936664748
20
8.46087227182946
30
0
41
1
10
6.23321331588403
20
8.48374350142751
30
0
41
1
10
6.22908134313289
20
8.50661809081541
30
0
0
SPLINE
5
130
100
AcDbEntity
8
1
62
256
6
ByLayer
370
18
48
1
60
0
100
AcDbSpline
70
4
71
3
72
20
73
16
40
0
40
0
40
0
40
0
40
0.332873226652388
40
0.332873226652388
40
0.501657261698204
40
0.501657261698204
40
0.631212321676509
40
0.631212321676509
40
0.722542323637671
40
0.722542323637671
40
0.814765347404198
40
0.814765347404198
40
0.896421359038812
40
0.896421359038812
40
1
40
1
40
1
40
1
41
1
10
27.1325318046616
20
8.04035245310871
30
0
41
1
10
26.9799088557371
20
7.9045266592683
30
0
41
1
10
26.8277063376579
20
7.75546407084192
30
0
41
1
10
26.6124073451434
20
7.49626615742594
30
0
41
1
10
26.5416318730997
20
7.40187311110259
30
0
41
1
10
26.4294410032208
20
7.22082743690419
30
0
41
1
10
26.3842387445551
20
7.13588369773703
30
0
41
1
10
26.3238590725285
20
6.9862583178911
30
0
41
1
10
26.303424182006
20
6.92166675897172
30
0
41
1
10
26.2778693910459
20
6.79642671000607
30
0
41
1
10
26.2727489169503
20
6.73417947673778
30
0
41
1
10
26.2789425689454
20
6.62988022220736
30
0
41
1
10
26.2883854035979
20
6.58506400126262
30
0
41
1
10
26.3204055940333
20
6.4973522213007
30
0
41
1
10
26.3460035565082
20
6.45682827526559
30
0
41
1
10
26.3755511442223
20
6.42387744199803
30
0
0
SPLINE
5
131
100
AcDbEntity
8
1
62
256
6
ByLayer
370
18
48
1
60
0
100
AcDbSpline
70
4
71
3
72
8
73
4
40
0
40
0
40
0
40
0
40
1
40
1
40
1
40
1
41
1
10
9.69506245218892
20
7.86248379584845
30
0
41
1
10
9.46350917537595
20
7.75349124071207
30
0
41
1
10
9.23009129305049
20
7.67198293255012
30
0
41
1
10
8.99727459515927
20
7.61064191947656
30
0
0
SPLINE
5
132
100
AcDbEntity
8
1
62
256
6
ByLayer
370
18
48
1
60
0
100
AcDbSpline
70
4
71
3
72
8
73
4
40
0
40
0
40
0
40
0
40
1
40
1
40
1
40
1
41
1
10
24.6637018449257
20
12.6772533791916
30
0
41
1
10
24.7701776871316
20
12.678754082473
30
0
41
1
10
24.8769954488912
20
12.6777470125125
30
0
41
1
10
24.9840212439802
20
12.6744486947775
30
0
0
SPLINE
5
133
100
AcDbEntity
8
1
62
256
6
ByLayer
370
18
48
1
60
0
100
AcDbSpline
70
4
71
3
72
12
73
8
40
0
40
0
40
0
40
0
40
0.108854002841681
40
0.502629245107339
40
0.699516866240167
40
0.896404487372996
40
1
40
1
40
1
40
1
41
1.0244126255267
10
19.6029804991533
20
8.50184003603962
30
0
41
1.02394775696077
10
19.9412262945515
20
8.54185939794179
30
0
41
1.02173322391444
10
21.543917543461
20
8.7221071187939
30
0
41
1.01876555595691
10
23.8092428575116
20
8.91220326354657
30
0
41
1.01610930227499
10
25.3343209957285
20
8.99895637624707
30
0
41
1.01814069306376
10
26.0198758161884
20
9.127194713796
30
0
41
1.0200519600697
10
26.6349819747822
20
9.21916345193425
30
0
41
1.02076673234771
10
26.8604045056994
20
9.25008614937538
30
0
0
SPLINE
5
134
100
AcDbEntity
8
1
62
256
6
ByLayer
370
18
48
1
60
0
100
AcDbSpline
70
4
71
3
72
8
73
4
40
0
40
0
40
0
40
0
40
1
40
1
40
1
40
1
41
1
10
8.23187205695933
20
0.319792062276662
30
0
41
1
10
8.89400206299834
20
0.864334740788109
30
0
41
1
10
9.85143108657837
20
1.73632766335945
30
0
41
1
10
10.8634090785955
20
2.66863412193501
30
0
0
SPLINE
5
135
100
AcDbEntity
8
1
62
256
6
ByLayer
370
18
48
1
60
0
100
AcDbSpline
70
4
71
3
72
10
73
6
40
0
40
0
40
0
40
0
40
0.5
40
0.5
40
1
40
1
40
1
40
1
41
1
10
26.3755511442223
20
6.42387744199806
30
0
41
1
10
26.7290308606609
20
6.02962455718546
30
0
41
1
10
27.1116896207774
20
5.69298343619653
30
0
41
1
10
28.053044395805
20
5.36727313177792
30
0
41
1
10
28.6239806236006
20
5.40680139366683
30
0
41
1
10
29.211559895162
20
5.84041851376352
30
0
0
SPLINE
5
136
100
AcDbEntity
8
1
62
256
6
ByLayer
370
18
48
1
60
0
100
AcDbSpline
70
4
71
3
72
11
73
7
40
0
40
0
40
0
40
0
40
0.423407924946042
40
0.740963868655573
40
0.899741840510339
40
1
40
1
40
1
40
1
41
1.02805999725224
10
15.0956975515334
20
12.2449817888045
30
0
41
1.02767136955277
10
15.9555689588462
20
12.3259855805525
30
0
41
1.02349884684923
10
19.1707187682304
20
11.8129171389511
30
0
41
1.01876555595691
10
23.2519202164603
20
10.7337809962704
30
0
41
1.01635405201144
10
24.793898781762
20
10.3143789921052
30
0
41
1.01722454828215
10
25.2838845259024
20
10.3553930208115
30
0
41
1.0177432798788
10
25.4856058757083
20
10.3801022794869
30
0
0
SPLINE
5
137
100
AcDbEntity
8
1
62
256
6
ByLayer
370
18
48
1
60
0
100
AcDbSpline
70
4
71
2
72
6
73
3
40
0
40
0
40
0
40
1
40
1
40
1
41
0.937301687603847
10
17.5914254072276
20
2.6567120583139
30
0
41
0.930554446910518
10
17.8014209966131
20
1.17668339600872
30
0
41
1.02805999725225
10
17.7540590058253
20
0.427316157344122
30
0
0
SPLINE
5
138
100
AcDbEntity
8
1
62
256
6
ByLayer
370
18
48
1
60
0
100
AcDbSpline
70
4
71
3
72
8
73
4
40
0
40
0
40
0
40
0
40
1
40
1
40
1
40
1
41
1
10
10.8634090785955
20
2.66863412193501
30
0
41
1
10
10.6100125572706
20
2.6567450511769
30
0
41
1
10
10.3673497373639
20
2.6163348340749
30
0
41
1
10
10.1345330394727
20
2.55499382100135
30
0
0
SPLINE
5
139
100
AcDbEntity
8
1
62
256
6
ByLayer
370
18
48
1
60
0
100
AcDbSpline
70
4
71
2
72
6
73
3
40
0
40
0
40
0
40
1
40
1
40
1
41
1.02805999725224
10
15.0956975515334
20
12.2449817888045
30
0
41
0.93055444607248
10
15.4025630996089
20
11.8407338029405
30
0
41
0.937301687719828
10
15.8142281152817
20
10.5571890037036
30
0
0
SPLINE
5
13A
100
AcDbEntity
8
1
62
256
6
ByLayer
370
18
48
1
60
0
100
AcDbSpline
70
4
71
3
72
8
73
4
40
0
40
0
40
0
40
0
40
1
40
1
40
1
40
1
41
1
10
8.08009325743492
20
0.271188188638377
30
0
41
1
10
8.08523735356226
20
0.248320264522647
30
0
41
1
10
8.09082036824097
20
0.225807401746692
30
0
41
1
10
8.09682218582751
20
0.203632531966264
30
0
0
SPLINE
5
13B
100
AcDbEntity
8
1
62
256
6
ByLayer
370
18
48
1
60
0
100
AcDbSpline
70
4
71
3
72
8
73
4
40
0
40
0
40
0
40
0
40
1
40
1
40
1
40
1
41
1
10
26.8723168417545
20
11.9690136540572
30
0
41
1
10
27.2342871481963
20
11.7834639092583
30
0
41
1
10
27.5976114129282
20
11.5942944139176
30
0
41
1
10
27.960390512801
20
11.4024542484269
30
0
0
SPLINE
5
13C
100
AcDbEntity
8
1
62
256
6
ByLayer
370
18
48
1
60
0
100
AcDbSpline
70
4
71
3
72
8
73
4
40
0
40
0
40
0
40
0
40
1
40
1
40
1
40
1
41
1
10
11.9951159201217
20
2.4695278113968
30
0
41
1
10
11.4122628480113
20
1.00000261896142
30
0
41
1
10
10.8177532887128
20
-0.370826768148447
30
0
41
1
10
10.3555722572797
20
-1.14969165071332
30
0
0
SPLINE
5
13D
100
AcDbEntity
8
1
62
256
6
ByLayer
370
18
48
1
60
0
100
AcDbSpline
70
4
71
3
72
11
73
7
40
0
40
0
40
0
40
0
40
0.564783939443776
40
0.564783939443776
40
0.564783939443776
40
1
40
1
40
1
40
1
41
1
10
24.6637018449257
20
12.6772533791916
30
0
41
1
10
24.2960257066533
20
12.6720712385692
30
0
41
1
10
23.8769125062902
20
12.6813587126287
30
0
41
1
10
23.4445992793191
20
12.7329117082217
30
0
41
1
10
23.1087153827011
20
12.7729655857388
30
0
41
1
10
22.7597741415928
20
12.8311191574029
30
0
41
1
10
22.4117105409894
20
12.8971562829909
30
0
0
SPLINE
5
13E
100
AcDbEntity
8
1
62
256
6
ByLayer
370
18
48
1
60
0
100
AcDbSpline
70
4
71
3
72
8
73
4
40
0
40
0
40
0
40
0
40
1
40
1
40
1
40
1
41
1
10
29.9524783896316
20
6.89966852460364
30
0
41
1
10
30.0091547914073
20
6.95361117427731
30
0
41
1
10
30.0649390663864
20
7.01292515226049
30
0
41
1
10
30.1187371104062
20
7.07671155884069
30
0
0
SPLINE
5
13F
100
AcDbEntity
8
1
62
256
6
ByLayer
370
18
48
1
60
0
100
AcDbSpline
70
4
71
3
72
10
73
6
40
0
40
0
40
0
40
0
40
0.5
40
0.5
40
1
40
1
40
1
40
1
41
1
10
14.5162210060227
20
13.0083526782615
30
0
41
1
10
15.8234807143177
20
13.2741310716752
30
0
41
1
10
17.1387968960716
20
13.3291539053983
30
0
41
1
10
19.7751591741054
20
13.2893062790683
30
0
41
1
10
21.1050767168264
20
13.145060234436
30
0
41
1
10
22.411710540989
20
12.897156282991
30
0
0
SPLINE
5
140
100
AcDbEntity
8
1
62
256
6
ByLayer
370
18
48
1
60
0
100
AcDbSpline
70
4
71
3
72
8
73
4
40
0
40
0
40
0
40
0
40
1
40
1
40
1
40
1
41
1
10
17.5914253958874
20
2.65671208011162
30
0
41
1
10
17.3321284982419
20
2.54091369033978
30
0
41
1
10
17.0570389305496
20
2.44938904642399
30
0
41
1
10
16.7766579287936
20
2.38962506440606
30
0
0
SPLINE
5
141
100
AcDbEntity
8
1
62
256
6
ByLayer
370
18
48
1
60
0
100
AcDbSpline
70
4
71
3
72
20
73
16
40
0
40
0
40
0
40
0
40
0.110576036200127
40
0.110576036200127
40
0.197179369122807
40
0.197179369122807
40
0.28429111738737
40
0.28429111738737
40
0.365904217918082
40
0.365904217918082
40
0.497270233392083
40
0.497270233392083
40
0.733496364826726
40
0.733496364826726
40
1
40
1
40
1
40
1
41
1
10
25.4856058757921
20
10.3801022794971
30
0
41
1
10
25.4696618871275
20
10.3460655780456
30
0
41
1
10
25.4614758056398
20
10.3060310385163
30
0
41
1
10
25.4692960805078
20
10.2241100302728
30
0
41
1
10
25.4807947174553
20
10.183631606261
30
0
41
1
10
25.5217585041826
20
10.0984587710847
30
0
41
1
10
25.5519482551386
20
10.0526563103836
30
0
41
1
10
25.6231174386166
20
9.96599099169487
30
0
41
1
10
25.6639491413077
20
9.92402761633838
30
0
41
1
10
25.7773924582506
20
9.82085933787542
30
0
41
1
10
25.8559431636453
20
9.76152037885069
30
0
41
1
10
26.0773137166157
20
9.61248725935161
30
0
41
1
10
26.2261056480218
20
9.53195694882339
30
0
41
1
10
26.535952154175
20
9.38107906991183
30
0
41
1
10
26.6995511735455
20
9.31212342031651
30
0
41
1
10
26.8604045057174
20
9.25008614937781
30
0
0
SPLINE
5
142
100
AcDbEntity
8
1
62
256
6
ByLayer
370
18
48
1
60
0
100
AcDbSpline
70
4
71
3
72
12
73
8
40
0
40
0
40
0
40
0
40
0.286978363858296
40
0.286978363858296
40
0.569998995185617
40
0.569998995185617
40
1
40
1
40
1
40
1
41
1
10
19.6029806479959
20
8.50184005365011
30
0
41
1
10
19.7160818260541
20
8.29680094221581
30
0
41
1
10
19.8127765446778
20
8.08179148145155
30
0
41
1
10
19.9683854112546
20
7.64406452881309
30
0
41
1
10
20.028337185068
20
7.41999179796909
30
0
41
1
10
20.132409948529
20
6.85173853525186
30
0
41
1
10
20.1531273138249
20
6.50036268545284
30
0
41
1
10
20.1306700328619
20
6.15601281577102
30
0
0
SPLINE
5
143
100
AcDbEntity
8
1
62
256
6
ByLayer
370
18
48
1
60
0
100
AcDbSpline
70
4
71
3
72
8
73
4
40
0
40
0
40
0
40
0
40
1
40
1
40
1
40
1
41
1
10
15.8142281000368
20
10.5571890033734
30
0
41
1
10
15.5245481831082
20
10.5509718571009
30
0
41
1
10
15.2401396258588
20
10.5186273988714
30
0
41
1
10
14.9614184888318
20
10.4592172215877
30
0
0
SPLINE
5
144
100
AcDbEntity
8
1
62
256
6
ByLayer
370
18
48
1
60
0
100
AcDbSpline
70
4
71
3
72
8
73
4
40
0
40
0
40
0
40
0
40
1
40
1
40
1
40
1
41
1
10
28.4732971986862
20
4.85190378796202
30
0
41
1
10
28.7195252848142
20
5.18088259089009
30
0
41
1
10
28.9660452238162
20
5.5109632008502
30
0
41
1
10
29.2115598951621
20
5.8404185137635
30
0
0
SPLINE
5
145
100
AcDbEntity
8
1
62
256
6
ByLayer
370
18
48
1
60
0
100
AcDbSpline
70
4
71
3
72
12
73
8
40
0
40
0
40
0
40
0
40
0.466938972358618
40
0.466938972358618
40
0.92880323687655
40
0.92880323687655
40
1
40
1
40
1
40
1
41
1
10
10.6325462075499
20
8.52679035448423
30
0
41
1
10
10.5175863801342
20
8.40203545258413
30
0
41
1
10
10.3785444074829
20
8.28063611747609
30
0
41
1
10
10.0848527337372
20
8.0697546054484
30
0
41
1
10
9.92668853495618
20
7.97670393987812
30
0
41
1
10
9.74432142350796
20
7.88598973145793
30
0
41
1
10
9.71969996856112
20
7.87408072031687
30
0
41
1
10
9.69506245218892
20
7.86248379584842
30
0
0
SPLINE
5
146
100
AcDbEntity
8
1
62
256
6
ByLayer
370
18
48
1
60
0
100
AcDbSpline
70
4
71
3
72
12
73
8
40
0
40
0
40
0
40
0
40
0.47134308667852
40
0.47134308667852
40
0.892619726108215
40
0.892619726108215
40
1
40
1
40
1
40
1
41
1
10
10.8634090785955
20
2.66863412193501
30
0
41
1
10
11.0398334640123
20
2.67691174938906
30
0
41
1
10
11.2243040734865
20
2.66963450404239
30
0
41
1
10
11.5676275600804
20
2.61720178830407
30
0
41
1
10
11.7306629004187
20
2.57523091611299
30
0
41
1
10
11.9197420769309
20
2.5025033225279
30
0
41
1
10
11.9578896635972
20
2.48649697952112
30
0
41
1
10
11.9951159201217
20
2.46952781139683
30
0
0
SPLINE
5
147
100
AcDbEntity
8
1
62
256
6
ByLayer
370
18
48
1
60
0
100
AcDbSpline
70
4
71
3
72
8
73
4
40
0
40
0
40
0
40
0
40
1
40
1
40
1
40
1
41
1
10
11.9951159201217
20
2.4695278113968
30
0
41
1
10
12.0623566517058
20
2.4388768841861
30
0
41
1
10
12.1280679098031
20
2.40536500205053
30
0
41
1
10
12.1918002977402
20
2.36922866534678
30
0
0
SPLINE
5
148
100
AcDbEntity
8
1
62
256
6
ByLayer
370
18
48
1
60
0
100
AcDbSpline
70
4
71
3
72
8
73
4
40
0
40
0
40
0
40
0
40
1
40
1
40
1
40
1
41
1
10
14.7857275366893
20
1.96525277310417
30
0
41
1
10
13.8840881207867
20
1.77306585066222
30
0
41
1
10
12.9649682958086
20
1.93084152795629
30
0
41
1
10
12.1918002977402
20
2.36922866534678
30
0
0
SPLINE
5
149
100
AcDbEntity
8
1
62
256
6
ByLayer
370
18
48
1
60
0
100
AcDbSpline
70
4
71
3
72
10
73
6
40
0
40
0
40
0
40
0
40
0.5
40
0.5
40
1
40
1
40
1
40
1
41
1
10
27.9603905127775
20
11.4024542484341
30
0
41
1
10
27.2367422520263
20
11.6257101813173
30
0
41
1
10
26.6669653297839
20
11.5483753518616
30
0
41
1
10
25.9015956863828
20
11.1104006712632
30
0
41
1
10
25.6646909701211
20
10.7625063386197
30
0
41
1
10
25.4856058757908
20
10.380102279497
30
0
0
SPLINE
5
14A
100
AcDbEntity
8
1
62
256
6
ByLayer
370
18
48
1
60
0
100
AcDbSpline
70
4
71
3
72
10
73
6
40
0
40
0
40
0
40
0
40
0.5
40
0.5
40
1
40
1
40
1
40
1
41
1
10
24.7898658703547
20
2.32513852493074
30
0
41
1
10
23.7143331644428
20
1.57195578999477
30
0
41
1
10
22.5846767322327
20
0.907797750529767
30
0
41
1
10
20.19636617665
20
-0.208338181955639
30
0
41
1
10
18.9624890688028
20
-0.698295217582455
30
0
41
1
10
17.6646219111663
20
-0.987768545473728
30
0
0
SPLINE
5
14B
100
AcDbEntity
8
1
62
256
6
ByLayer
370
18
48
1
60
0
100
AcDbSpline
70
4
71
3
72
15
73
11
40
0
40
0
40
0
40
0
40
0.322163720426458
40
0.322163720426458
40
0.644833452600233
40
0.644833452600233
40
0.912233455904557
40
0.912233455904557
40
0.912233455904557
40
1
40
1
40
1
40
1
41
1
10
15.8142281152827
20
10.5571890037006
30
0
41
1
10
16.2986178203967
20
10.5666443417324
30
0
41
1
10
16.7912760477527
20
10.4924154844211
30
0
41
1
10
17.7132788061837
20
10.2026451183118
30
0
41
1
10
18.1558390470545
20
9.98268113857151
30
0
41
1
10
18.8645785352475
20
9.45963596264244
30
0
41
1
10
19.1558862663227
20
9.16993914166011
30
0
41
1
10
19.389133441152
20
8.84189482203232
30
0
41
1
10
19.4666470346598
20
8.73287787868557
30
0
41
1
10
19.538271073624
20
8.61913609313589
30
0
41
1
10
19.6029806479968
20
8.50184005364997
30
0
0
SPLINE
5
14C
100
AcDbEntity
8
1
62
256
6
ByLayer
370
18
48
1
60
0
100
AcDbSpline
70
4
71
2
72
6
73
3
40
0
40
0
40
0
40
1
40
1
40
1
41
1.02805999725224
10
17.7540590058253
20
0.427316157344122
30
0
41
1.02805999725224
10
17.7093404584958
20
-0.280226194064809
30
0
41
1.02805999725224
10
17.6646219111664
20
-0.98776854547374
30
0
0
SPLINE
5
14D
100
AcDbEntity
8
1
62
256
6
ByLayer
370
18
48
1
60
0
100
AcDbSpline
70
4
71
3
72
8
73
4
40
0
40
0
40
0
40
0
40
1
40
1
40
1
40
1
41
1
10
10.7700743028051
20
8.68946867656595
30
0
41
1
10
11.2946451342564
20
9.36741855958496
30
0
41
1
10
12.06608842041
20
9.84206965074128
30
0
41
1
10
12.9704880967275
20
10.0348449302858
30
0
0
SPLINE
5
14E
100
AcDbEntity
8
1
62
256
6
ByLayer
370
18
48
1
60
0
100
AcDbSpline
70
4
71
3
72
8
73
4
40
0
40
0
40
0
40
0
40
1
40
1
40
1
40
1
41
1
10
9.69506245218892
20
7.86248379584842
30
0
41
1
10
8.39218864600568
20
8.21839564259224
30
0
41
1
10
7.18969513863792
20
8.47350054305005
30
0
41
1
10
6.39190721176286
20
8.49930026236291
30
0
0
SPLINE
5
14F
100
AcDbEntity
8
1
62
256
6
ByLayer
370
18
48
1
60
0
100
AcDbSpline
70
4
71
3
72
8
73
4
40
0
40
0
40
0
40
0
40
1
40
1
40
1
40
1
41
1
10
7.6972108029878
20
10.667973980747
30
0
41
1
10
8.39724410023607
20
10.3855607687371
30
0
41
1
10
9.49042353594294
20
9.54719135996044
30
0
41
1
10
10.6325462075433
20
8.52679035447861
30
0
0
SPLINE
5
150
100
AcDbEntity
8
1
62
256
6
ByLayer
370
18
48
1
60
0
100
AcDbSpline
70
4
71
3
72
10
73
6
40
0
40
0
40
0
40
0
40
0.5
40
0.5
40
1
40
1
40
1
40
1
41
1
10
6.22908134313289
20
8.50661809081541
30
0
41
1
10
6.09976273793822
20
9.22252552104638
30
0
41
1
10
6.16184668613184
20
9.87694893697309
30
0
41
1
10
6.44964884710126
20
10.7558196461304
30
0
41
1
10
6.63072686824916
20
11.0226878273663
30
0
41
1
10
6.97546510173976
20
11.2507861421512
30
0
0
SPLINE
5
151
100
AcDbEntity
8
1
62
256
6
ByLayer
370
18
48
1
60
0
100
AcDbSpline
70
4
71
3
72
15
73
11
40
0
40
0
40
0
40
0
40
0.227604479949749
40
0.227604479949749
40
0.479423709218442
40
0.479423709218442
40
0.785574270382838
40
0.785574270382838
40
0.785574270382838
40
1
40
1
40
1
40
1
41
1
10
20.1306700328619
20
6.15601281577102
30
0
41
1
10
20.108587646689
20
5.81764476570763
30
0
41
1
10
20.0352051512718
20
5.47527485226095
30
0
41
1
10
19.7923876240955
20
4.79435812579146
30
0
41
1
10
19.6115799559596
20
4.45184329963286
30
0
41
1
10
19.1268053048136
20
3.76534374738731
30
0
41
1
10
18.7980474138069
20
3.42683173114867
30
0
41
1
10
18.4298475824643
20
3.1503572831833
30
0
41
1
10
18.1703745327802
20
2.95552376598232
30
0
41
1
10
17.8876139394684
20
2.78883231848644
30
0
41
1
10
17.5914254036433
20
2.65671208357529
30
0
0
SPLINE
5
152
100
AcDbEntity
8
1
62
256
6
ByLayer
370
18
48
1
60
0
100
AcDbSpline
70
4
71
3
72
10
73
6
40
0
40
0
40
0
40
0
40
0.5
40
0.5
40
1
40
1
40
1
40
1
41
1
10
10.0408561671866
20
-2.37631734395689
30
0
41
1
10
9.60879230755185
20
-2.2239647100146
30
0
41
1
10
9.30714198965205
20
-1.9548513713176
30
0
41
1
10
8.63853989572638
20
-1.12312233703688
30
0
41
1
10
8.28421235198462
20
-0.488716489435319
30
0
41
1
10
8.09682218582751
20
0.203632531966264
30
0
0
SPLINE
5
153
100
AcDbEntity
8
1
62
256
6
ByLayer
370
18
48
1
60
0
100
AcDbSpline
70
4
71
3
72
8
73
4
40
0
40
0
40
0
40
0
40
1
40
1
40
1
40
1
41
1
10
27.0606488222647
20
3.44286345585215
30
0
41
1
10
26.9624185771053
20
3.40706142176481
30
0
41
1
10
26.8633866872759
20
3.3734566329824
30
0
41
1
10
26.7635837652283
20
3.34229166447784
30
0
0
SPLINE
5
154
100
AcDbEntity
8
1
62
256
6
ByLayer
370
18
48
1
60
0
100
AcDbSpline
70
4
71
1
72
4
73
2
40
0
40
0
40
1
40
1
41
1
10
15.0956975515334
20
12.2449817888045
30
0
41
1
10
14.5162210060227
20
13.0083526782615
30
0
0
SPLINE
5
155
100
AcDbEntity
8
1
62
256
6
ByLayer
370
18
48
1
60
0
100
AcDbSpline
70
4
71
3
72
10
73
6
40
0
40
0
40
0
40
0
40
0.967465556419477
40
0.967465556419477
40
1
40
1
40
1
40
1
41
1
10
26.8604045057174
20
9.25008614937781
30
0
41
1
10
27.2521991467397
20
9.09890353051895
30
0
41
1
10
27.6414949427437
20
8.9573940468234
30
0
41
1
10
28.0376225256137
20
8.82671386970264
30
0
41
1
10
28.0505146958671
20
8.82247620727196
30
0
41
1
10
28.0633997289386
20
8.81825658420806
30
0
0
SPLINE
5
156
100
AcDbEntity
8
1
62
256
6
ByLayer
370
18
48
1
60
0
100
AcDbSpline
70
4
71
3
72
12
73
8
40
0
40
0
40
0
40
0
40
0.108853988607132
40
0.502629237162305
40
0.699516861439892
40
0.896404485717479
40
1
40
1
40
1
40
1
41
1.02441262532206
10
20.1306700328619
20
6.15601281577105
30
0
41
1.02394775682001
10
20.4568445245045
20
6.2496945783191
30
0
41
1.02173322384668
10
21.9996525967469
20
6.69615092445153
30
0
41
1.01876555595691
10
24.1637567220222
20
7.33622257600551
30
0
41
1.01610930227499
10
25.609947711928
20
7.77366612616153
30
0
41
1.01814069306376
10
26.2995994662496
20
7.88369166785454
30
0
41
1.02005196006971
10
26.9098845585475
20
7.99709231075648
30
0
41
1.02076673234773
10
27.1325318046512
20
8.04035245310672
30
0
0
SPLINE
5
157
100
AcDbEntity
8
1
62
256
6
ByLayer
370
18
48
1
60
0
100
AcDbSpline
70
4
71
3
72
8
73
4
40
0
40
0
40
0
40
0
40
1
40
1
40
1
40
1
41
1.02417048357497
10
26.8722324223301
20
11.9690499566402
30
0
41
1.02233815524058
10
26.2041402275936
20
12.2563452122935
30
0
41
1.02059845272928
10
25.5303435843304
20
12.4976652847446
30
0
41
1.01923193651505
10
24.9840716529129
20
12.6744323831127
30
0
0
SPLINE
5
158
100
AcDbEntity
8
1
62
256
6
ByLayer
370
18
48
1
60
0
100
AcDbSpline
70
4
71
3
72
10
73
6
40
0
40
0
40
0
40
0
40
0.264715639145583
40
0.264715639145583
40
1
40
1
40
1
40
1
41
1
10
28.063399728923
20
8.81825658421326
30
0
41
1
10
27.9807401376606
20
8.75427790428395
30
0
41
1
10
27.898203112386
20
8.6888258783718
30
0
41
1
10
27.5869784020666
20
8.43688310059991
30
0
41
1
10
27.3591160085879
20
8.24209137674146
30
0
41
1
10
27.1325318046616
20
8.04035245310871
30
0
0
LINE
5
72
100
AcDbEntity
8
1
62
256
6
ByLayer
370
18
48
1
60
0
100
AcDbLine
10
24.981728
20
14.204817
30
0
11
25.521631
21
14.233112
31
0
39
0
210
0
220
0
230
1
0
LINE
5
74
100
AcDbEntity
8
1
62
256
6
ByLayer
370
18
48
1
60
0
100
AcDbLine
10
23.815281
20
13.195165
30
0
11
23.372007
21
12.763289
31
0
39
0
210
0
220
0
230
1
0
LINE
5
75
100
AcDbEntity
8
1
62
256
6
ByLayer
370
18
48
1
60
0
100
AcDbLine
10
32.419533
20
3.389654
30
0
11
32.956195
21
3.912516
31
0
39
0
210
0
220
0
230
1
0
LINE
5
76
100
AcDbEntity
8
1
62
256
6
ByLayer
370
18
48
1
60
0
100
AcDbLine
10
7.05664
20
11.301206
30
0
11
6.20976
21
10.80711
31
0
39
0
210
0
220
0
230
1
0
LINE
5
77
100
AcDbEntity
8
1
62
256
6
ByLayer
370
18
48
1
60
0
100
AcDbLine
10
15.080845
20
5.069359
30
0
11
14.900454
21
4.893607
31
0
39
0
210
0
220
0
230
1
0
LINE
5
78
100
AcDbEntity
8
1
62
256
6
ByLayer
370
18
48
1
60
0
100
AcDbLine
10
31.045002
20
1.6362
30
0
11
31.721467
21
2.29527
31
0
39
0
210
0
220
0
230
1
0
LINE
5
79
100
AcDbEntity
8
1
62
256
6
ByLayer
370
18
48
1
60
0
100
AcDbLine
10
23.976123
20
13.766136
30
0
11
23.299658
21
13.107066
31
0
39
0
210
0
220
0
230
1
0
LINE
5
7A
100
AcDbEntity
8
1
62
256
6
ByLayer
370
18
48
1
60
0
100
AcDbLine
10
13.636063
20
6.320522
30
0
11
13.816454
21
6.496274
31
0
39
0
210
0
220
0
230
1
0
LINE
5
7B
100
AcDbEntity
8
1
62
256
6
ByLayer
370
18
48
1
60
0
100
AcDbLine
10
16.242434
20
6.127514
30
0
11
16.062044
21
5.951761
31
0
39
0
210
0
220
0
230
1
0
LINE
5
7C
100
AcDbEntity
8
1
62
256
6
ByLayer
370
18
48
1
60
0
100
AcDbLine
10
14.797653
20
7.378677
30
0
11
14.978043
21
7.554429
31
0
39
0
210
0
220
0
230
1
0
LINE
5
7D
100
AcDbEntity
8
1
62
256
6
ByLayer
370
18
48
1
60
0
100
AcDbLine
10
17.550211
20
3.183244
30
0
11
17.738038
21
3.366242
31
0
39
0
210
0
220
0
230
1
0
LINE
5
7E
100
AcDbEntity
8
1
62
256
6
ByLayer
370
18
48
1
60
0
100
AcDbLine
10
12.155332
20
9.096285
30
0
11
11.967505
21
8.913287
31
0
39
0
210
0
220
0
230
1
0
LINE
5
7F
100
AcDbEntity
8
1
62
256
6
ByLayer
370
18
48
1
60
0
100
AcDbLine
10
9.472323
20
7.715908
30
0
11
9.973459
21
8.008286
31
0
39
0
210
0
220
0
230
1
0
LINE
5
80
100
AcDbEntity
8
80
62
256
6
ByLayer
370
18
48
1
60
0
100
AcDbLine
10
0
20
0
30
0
11
-5
21
0
31
0
39
0
210
0
220
0
230
1
0
LINE
5
81
100
AcDbEntity
8
81
62
256
6
ByLayer
370
18
48
1
60
0
100
AcDbLine
10
39.399798
20
15.4125
30
0
11
49.399798
21
15.4125
31
0
39
0
210
0
220
0
230
1
0
LINE
5
82
100
AcDbEntity
8
1
62
256
6
ByLayer
370
18
48
1
60
0
100
AcDbLine
10
24.297154
20
2.015197
30
0
11
30.142626
21
2.321545
31
0
39
0
210
0
220
0
230
1
0
LINE
5
83
100
AcDbEntity
8
1
62
256
6
ByLayer
370
18
48
1
60
0
100
AcDbLine
10
23.695141
20
13.044705
30
0
11
23.501512
21
12.7284
31
0
39
0
210
0
220
0
230
1
0
LINE
5
84
100
AcDbEntity
8
1
62
256
6
ByLayer
370
18
48
1
60
0
100
AcDbLine
10
30.094192
20
2.274357
30
0
11
30.142626
21
2.321545
31
0
39
0
210
0
220
0
230
1
0
LINE
5
85
100
AcDbEntity
8
1
62
256
6
ByLayer
370
18
48
1
60
0
100
AcDbLine
10
23.695141
20
13.044705
30
0
11
23.408245
21
12.765186
31
0
39
0
210
0
220
0
230
1
0
LINE
5
86
100
AcDbEntity
8
1
62
256
6
ByLayer
370
18
48
1
60
0
100
AcDbLine
10
30.500375
20
2.429645
30
0
11
30.360331
21
2.293203
31
0
39
0
210
0
220
0
230
1
0
LINE
5
87
100
AcDbEntity
8
1
62
256
6
ByLayer
370
18
48
1
60
0
100
AcDbLine
10
32.274321
20
3.278345
30
0
11
30.641624
21
2.309186
31
0
39
0
210
0
220
0
230
1
0
LINE
5
88
100
AcDbEntity
8
1
62
256
6
ByLayer
370
18
48
1
60
0
100
AcDbLine
10
10.332625
20
-9.952243
30
0
11
8.73477
21
-2.849023
31
0
39
0
210
0
220
0
230
1
0
LINE
5
89
100
AcDbEntity
8
1
62
256
6
ByLayer
370
18
48
1
60
0
100
AcDbLine
10
5.737594
20
10.474831
30
0
11
5.434279
21
11.823207
31
0
39
0
210
0
220
0
230
1
0
LINE
5
8A
100
AcDbEntity
8
1
62
256
6
ByLayer
370
18
48
1
60
0
100
AcDbLine
10
12.591268
20
-4.613638
30
0
11
12.052799
21
-2.21989
31
0
39
0
210
0
220
0
230
1
0
LINE
5
8B
100
AcDbEntity
8
1
62
256
6
ByLayer
370
18
48
1
60
0
100
AcDbLine
10
8.89633
20
11.812097
30
0
11
8.853521
21
12.002402
31
0
39
0
210
0
220
0
230
1
0
LINE
5
8C
100
AcDbEntity
8
1
62
256
6
ByLayer
370
18
48
1
60
0
100
AcDbLine
10
23.326665
20
12.760908
30
0
11
23.268321
21
12.75785
31
0
39
0
210
0
220
0
230
1
0
LINE
5
8D
100
AcDbEntity
8
1
62
256
6
ByLayer
370
18
48
1
60
0
100
AcDbLine
10
10.104544
20
12.067966
30
0
11
8.853521
21
12.002402
31
0
39
0
210
0
220
0
230
1
0
LINE
5
8E
100
AcDbEntity
8
1
62
256
6
ByLayer
370
18
48
1
60
0
100
AcDbLine
10
20.985984
20
-1.133361
30
0
11
22.117932
21
0.71575
31
0
39
0
210
0
220
0
230
1
0
LINE
5
8F
100
AcDbEntity
8
1
62
256
6
ByLayer
370
18
48
1
60
0
100
AcDbLine
10
23.99045
20
1.822115
30
0
11
30.608907
21
2.197989
31
0
39
0
210
0
220
0
230
1
0
LINE
5
90
100
AcDbEntity
8
1
62
256
6
ByLayer
370
18
48
1
60
0
100
AcDbLine
10
20.447938
20
-1.739987
30
0
11
20.985984
21
-1.133361
31
0
39
0
210
0
220
0
230
1
0
LINE
5
91
100
AcDbEntity
8
1
62
256
6
ByLayer
370
18
48
1
60
0
100
AcDbLine
10
23.506713
20
12.770344
30
0
11
23.481991
21
12.729959
31
0
39
0
210
0
220
0
230
1
0
LINE
5
92
100
AcDbEntity
8
1
62
256
6
ByLayer
370
18
48
1
60
0
100
AcDbLine
10
20.131871
20
-1.950099
30
0
11
21.607176
21
0.459908
31
0
39
0
210
0
220
0
230
1
0
LINE
5
93
100
AcDbEntity
8
1
62
256
6
ByLayer
370
18
48
1
60
0
100
AcDbLine
10
24.181437
20
1.942299
30
0
11
28.757476
21
2.202181
31
0
39
0
210
0
220
0
230
1
0
LINE
5
94
100
AcDbEntity
8
1
62
256
6
ByLayer
370
18
48
1
60
0
100
AcDbLine
10
30.190518
20
2.283566
30
0
11
30.67825
21
2.311265
31
0
39
0
210
0
220
0
230
1
0
LINE
5
95
100
AcDbEntity
8
1
62
256
6
ByLayer
370
18
48
1
60
0
100
AcDbLine
10
10.304939
20
-9.951373
30
0
11
8.706716
21
-2.84652
31
0
39
0
210
0
220
0
230
1
0
LINE
5
96
100
AcDbEntity
8
1
62
256
6
ByLayer
370
18
48
1
60
0
100
AcDbLine
10
5.713912
20
10.457899
30
0
11
5.407109
21
11.821783
31
0
39
0
210
0
220
0
230
1
0
LINE
5
97
100
AcDbEntity
8
1
62
256
6
ByLayer
370
18
48
1
60
0
100
AcDbLine
10
9.3817
20
-9.948297
30
0
11
7.674212
21
-2.357712
31
0
39
0
210
0
220
0
230
1
0
LINE
5
98
100
AcDbEntity
8
1
62
256
6
ByLayer
370
18
48
1
60
0
100
AcDbLine
10
4.988225
20
9.582762
30
0
11
4.495311
21
11.773998
31
0
39
0
210
0
220
0
230
1
0
LINE
5
99
100
AcDbEntity
8
1
62
256
6
ByLayer
370
18
48
1
60
0
100
AcDbLine
10
19.874525
20
-2.072257
30
0
11
21.352038
21
0.34136
31
0
39
0
210
0
220
0
230
1
0
LINE
5
9A
100
AcDbEntity
8
1
62
256
6
ByLayer
370
18
48
1
60
0
100
AcDbLine
10
30.715861
20
1.85659
30
0
11
30.389433
21
1.839483
31
0
39
0
210
0
220
0
230
1
0
LINE
5
9B
100
AcDbEntity
8
1
62
256
6
ByLayer
370
18
48
1
60
0
100
AcDbLine
10
23.303935
20
12.75964
30
0
11
23.735917
21
13.465311
31
0
39
0
210
0
220
0
230
1
0
LINE
5
9C
100
AcDbEntity
8
1
62
256
6
ByLayer
370
18
48
1
60
0
100
AcDbLine
10
32.488806
20
3.457204
30
0
11
31.961672
21
2.596095
31
0
39
0
210
0
220
0
230
1
0
LINE
5
9D
100
AcDbEntity
8
1
62
256
6
ByLayer
370
18
48
1
60
0
100
AcDbLine
10
30.039396
20
1.19752
30
0
11
29.9949
21
1.195188
31
0
39
0
210
0
220
0
230
1
0
LINE
5
9E
100
AcDbEntity
8
1
62
256
6
ByLayer
370
18
48
1
60
0
100
AcDbLine
10
23.02186
20
12.744832
30
0
11
23.059453
21
12.806241
31
0
39
0
210
0
220
0
230
1
0
LINE
5
9F
100
AcDbEntity
8
1
62
256
6
ByLayer
370
18
48
1
60
0
100
AcDbLine
10
12.56369
20
9.797506
30
0
11
13.915695
21
10.083596
31
0
39
0
210
0
220
0
230
1
0
LINE
5
A0
100
AcDbEntity
8
1
62
256
6
ByLayer
370
18
48
1
60
0
100
AcDbLine
10
14.820273
20
4.782082
30
0
11
14.998099
21
4.955336
31
0
39
0
210
0
220
0
230
1
0
LINE
5
A1
100
AcDbEntity
8
1
62
256
6
ByLayer
370
18
48
1
60
0
100
AcDbLine
10
17.550211
20
3.183244
30
0
11
17.550288
21
3.183319
31
0
39
0
210
0
220
0
230
1
0
LINE
5
A2
100
AcDbEntity
8
1
62
256
6
ByLayer
370
18
48
1
60
0
100
AcDbLine
10
15.592991
20
7.261968
30
0
11
15.773382
21
7.43772
31
0
39
0
210
0
220
0
230
1
0
LINE
5
A3
100
AcDbEntity
8
1
62
256
6
ByLayer
370
18
48
1
60
0
100
AcDbLine
10
14.238191
20
7.355812
30
0
11
14.418581
21
7.531564
31
0
39
0
210
0
220
0
230
1
0
LINE
5
A4
100
AcDbEntity
8
1
62
256
6
ByLayer
370
18
48
1
60
0
100
AcDbLine
10
13.494253
20
6.229986
30
0
11
13.674644
21
6.405738
31
0
39
0
210
0
220
0
230
1
0
LINE
5
A5
100
AcDbEntity
8
1
62
256
6
ByLayer
370
18
48
1
60
0
100
AcDbLine
10
16.008244
20
5.415973
30
0
11
16.188635
21
5.591725
31
0
39
0
210
0
220
0
230
1
0
LINE
5
A6
100
AcDbEntity
8
1
62
256
6
ByLayer
370
18
48
1
60
0
100
AcDbLine
10
16.039589
20
6.772532
30
0
11
16.219979
21
6.948284
31
0
39
0
210
0
220
0
230
1
0
LINE
5
A7
100
AcDbEntity
8
1
62
256
6
ByLayer
370
18
48
1
60
0
100
AcDbLine
10
13.195413
20
-9.961782
30
0
11
15.461735
21
-9.961782
31
0
39
0
210
0
220
0
230
1
0
LINE
5
A8
100
AcDbEntity
8
1
62
256
6
ByLayer
370
18
48
1
60
0
100
AcDbLine
10
0
20
-9.9375
30
0
11
3.1825
21
-9.951386
31
0
39
0
210
0
220
0
230
1
0
LINE
5
A9
100
AcDbEntity
8
1
62
256
6
ByLayer
370
18
48
1
60
0
100
AcDbLine
10
24.855631
20
-7.200368
30
0
11
30.608907
21
2.197989
31
0
39
0
210
0
220
0
230
1
0
LINE
5
AA
100
AcDbEntity
8
1
62
256
6
ByLayer
370
18
48
1
60
0
100
AcDbLine
10
5.407109
20
11.821783
30
0
11
5.434279
21
11.823207
31
0
39
0
210
0
220
0
230
1
0
LINE
5
AB
100
AcDbEntity
8
1
62
256
6
ByLayer
370
18
48
1
60
0
100
AcDbLine
10
24.855631
20
-7.200368
30
0
11
17.28089
21
-9.427027
31
0
39
0
210
0
220
0
230
1
0
LINE
5
AC
100
AcDbEntity
8
1
62
256
6
ByLayer
370
18
48
1
60
0
100
AcDbLine
10
13.195413
20
-9.961782
30
0
11
10.332625
21
-9.952243
31
0
39
0
210
0
220
0
230
1
0
LINE
5
AD
100
AcDbEntity
8
1
62
256
6
ByLayer
370
18
48
1
60
0
100
AcDbLine
10
4.495311
20
11.773998
30
0
11
5.407109
21
11.821783
31
0
39
0
210
0
220
0
230
1
0
LINE
5
AE
100
AcDbEntity
8
1
62
256
6
ByLayer
370
18
48
1
60
0
100
AcDbLine
10
10.332625
20
-9.952243
30
0
11
10.304939
21
-9.951373
31
0
39
0
210
0
220
0
230
1
0
LINE
5
AF
100
AcDbEntity
8
1
62
256
6
ByLayer
370
18
48
1
60
0
100
AcDbLine
10
1.088268
20
11.025768
30
0
11
1.689449
21
11.626949
31
0
39
0
210
0
220
0
230
1
0
LINE
5
B0
100
AcDbEntity
8
1
62
256
6
ByLayer
370
18
48
1
60
0
100
AcDbLine
10
17.752064
20
-1.882252
30
0
11
17.49732
21
-1.724224
31
0
39
0
210
0
220
0
230
1
0
LINE
5
B1
100
AcDbEntity
8
1
62
256
6
ByLayer
370
18
48
1
60
0
100
AcDbLine
10
1.088268
20
11.025768
30
0
11
0
21
9.9375
31
0
39
0
210
0
220
0
230
1
0
LINE
5
B2
100
AcDbEntity
8
1
62
256
6
ByLayer
370
18
48
1
60
0
100
AcDbLine
10
12.591268
20
-4.613638
30
0
11
13.195413
21
-9.961782
31
0
39
0
210
0
220
0
230
1
0
LINE
5
B3
100
AcDbEntity
8
1
62
256
6
ByLayer
370
18
48
1
60
0
100
AcDbLine
10
30.608907
20
2.197989
30
0
11
30.67825
21
2.311265
31
0
39
0
210
0
220
0
230
1
0
LINE
5
B4
100
AcDbEntity
8
1
62
256
6
ByLayer
370
18
48
1
60
0
100
AcDbLine
10
23.326665
20
12.760908
30
0
11
23.506713
21
12.770344
31
0
39
0
210
0
220
0
230
1
0
LINE
5
B5
100
AcDbEntity
8
1
62
256
6
ByLayer
370
18
48
1
60
0
100
AcDbLine
10
3.1825
20
-9.951386
30
0
11
1.088268
21
11.025768
31
0
39
0
210
0
220
0
230
1
0
LINE
5
B6
100
AcDbEntity
8
1
62
256
6
ByLayer
370
18
48
1
60
0
100
AcDbLine
10
5.434279
20
11.823207
30
0
11
8.853521
21
12.002402
31
0
39
0
210
0
220
0
230
1
0
LINE
5
B7
100
AcDbEntity
8
1
62
256
6
ByLayer
370
18
48
1
60
0
100
AcDbLine
10
17.28089
20
-9.427027
30
0
11
12.591268
21
-4.613638
31
0
39
0
210
0
220
0
230
1
0
LINE
5
B8
100
AcDbEntity
8
1
62
256
6
ByLayer
370
18
48
1
60
0
100
AcDbLine
10
9.3817
20
-9.948297
30
0
11
3.1825
21
-9.951386
31
0
39
0
210
0
220
0
230
1
0
LINE
5
B9
100
AcDbEntity
8
1
62
256
6
ByLayer
370
18
48
1
60
0
100
AcDbLine
10
17.28089
20
-9.427027
30
0
11
15.461735
21
-9.961782
31
0
39
0
210
0
220
0
230
1
0
LINE
5
BA
100
AcDbEntity
8
1
62
256
6
ByLayer
370
18
48
1
60
0
100
AcDbLine
10
1.689449
20
11.626949
30
0
11
4.495311
21
11.773998
31
0
39
0
210
0
220
0
230
1
0
LINE
5
BB
100
AcDbEntity
8
1
62
256
6
ByLayer
370
18
48
1
60
0
100
AcDbLine
10
0
20
-9.9375
30
0
11
0
21
9.9375
31
0
39
0
210
0
220
0
230
1
0
LINE
5
BC
100
AcDbEntity
8
SK1
62
256
6
ByLayer
370
18
48
1
60
0
100
AcDbLine
10
-86.950202
20
9.9375
30
0
11
-86.950202
21
-9.9375
31
0
39
0
210
0
220
0
230
1
0
LINE
5
BE
100
AcDbEntity
8
SK1
62
256
6
ByLayer
370
18
48
1
60
0
100
AcDbLine
10
0
20
9.9375
30
0
11
0
21
-9.9375
31
0
39
0
210
0
220
0
230
1
0
LINE
5
BF
100
AcDbEntity
8
SK1
62
256
6
ByLayer
370
18
48
1
60
0
100
AcDbLine
10
0
20
9.9375
30
0
11
-86.950202
21
9.9375
31
0
39
0
210
0
220
0
230
1
0
LINE
5
C0
100
AcDbEntity
8
SK1
62
256
6
ByLayer
370
18
48
1
60
0
100
AcDbLine
10
-86.950202
20
-9.9375
30
0
11
0
21
-9.9375
31
0
39
0
210
0
220
0
230
1
0
LINE
5
C1
100
AcDbEntity
8
1
62
256
6
ByLayer
370
18
48
1
60
0
100
AcDbLine
10
33.076336
20
4.062976
30
0
11
39.284873
21
14.205033
31
0
39
0
210
0
220
0
230
1
0
LINE
5
C2
100
AcDbEntity
8
1
62
256
6
ByLayer
370
18
48
1
60
0
100
AcDbLine
10
38.559526
20
15.411396
30
0
11
26.628851
21
14.786136
31
0
39
0
210
0
220
0
230
1
0
LINE
5
C3
100
AcDbEntity
8
1
62
256
6
ByLayer
370
18
48
1
60
0
100
AcDbLine
10
23.960494
20
13.306474
30
0
11
26.271102
21
14.678036
31
0
39
0
210
0
220
0
230
1
0
LINE
5
C4
100
AcDbEntity
8
1
62
256
6
ByLayer
370
18
48
1
60
0
100
AcDbLine
10
32.810983
20
3.801207
30
0
11
30.500375
21
2.429645
31
0
39
0
210
0
220
0
230
1
0
LINE
5
C5
100
AcDbEntity
8
1
62
256
6
ByLayer
370
18
48
1
60
0
100
AcDbLine
10
32.274321
20
3.278345
30
0
11
32.810983
21
3.801207
31
0
39
0
210
0
220
0
230
1
0
LINE
5
C6
100
AcDbEntity
8
1
62
256
6
ByLayer
370
18
48
1
60
0
100
AcDbLine
10
6.242983
20
8.438004
30
0
11
4.717024
21
7.547712
31
0
39
0
210
0
220
0
230
1
0
LINE
5
C7
100
AcDbEntity
8
1
62
256
6
ByLayer
370
18
48
1
60
0
100
AcDbLine
10
7.127723
20
7.068529
30
0
11
8.264981
21
2.012881
31
0
39
0
210
0
220
0
230
1
0
LINE
5
C8
100
AcDbEntity
8
1
62
256
6
ByLayer
370
18
48
1
60
0
100
AcDbLine
10
9.24227
20
11.885879
30
0
11
9.247634
21
11.885339
31
0
39
0
210
0
220
0
230
1
0
LINE
5
C9
100
AcDbEntity
8
1
62
256
6
ByLayer
370
18
48
1
60
0
100
AcDbLine
10
29.836425
20
6.691979
30
0
11
29.21156
21
5.840419
31
0
39
0
210
0
220
0
230
1
0
LINE
5
CA
100
AcDbEntity
8
1
62
256
6
ByLayer
370
18
48
1
60
0
100
AcDbLine
10
9.24227
20
11.885879
30
0
11
7.846702
21
11.58841
31
0
39
0
210
0
220
0
230
1
0
LINE
5
CB
100
AcDbEntity
8
1
62
256
6
ByLayer
370
18
48
1
60
0
100
AcDbLine
10
8.603252
20
7.380757
30
0
11
7.127723
21
7.068529
31
0
39
0
210
0
220
0
230
1
0
LINE
5
CC
100
AcDbEntity
8
1
62
256
6
ByLayer
370
18
48
1
60
0
100
AcDbLine
10
30.251461
20
7.257586
30
0
11
30.118737
21
7.076712
31
0
39
0
210
0
220
0
230
1
0
LINE
5
CD
100
AcDbEntity
8
1
62
256
6
ByLayer
370
18
48
1
60
0
100
AcDbLine
10
8.997275
20
7.610642
30
0
11
8.603252
21
7.380757
31
0
39
0
210
0
220
0
230
1
0
LINE
5
CE
100
AcDbEntity
8
1
62
256
6
ByLayer
370
18
48
1
60
0
100
AcDbLine
10
14.516221
20
13.008353
30
0
11
9.247634
21
11.885339
31
0
39
0
210
0
220
0
230
1
0
LINE
5
CF
100
AcDbEntity
8
1
62
256
6
ByLayer
370
18
48
1
60
0
100
AcDbLine
10
12.391601
20
-2.114377
30
0
11
10.561101
21
-2.685105
31
0
39
0
210
0
220
0
230
1
0
LINE
5
D0
100
AcDbEntity
8
1
62
256
6
ByLayer
370
18
48
1
60
0
100
AcDbLine
10
6.554133
20
-0.619104
30
0
11
4.717024
21
7.547712
31
0
39
0
210
0
220
0
230
1
0
LINE
5
D1
100
AcDbEntity
8
1
62
256
6
ByLayer
370
18
48
1
60
0
100
AcDbLine
10
7.697211
20
10.667974
30
0
11
15.095698
21
12.244982
31
0
39
0
210
0
220
0
230
1
0
LINE
5
D2
100
AcDbEntity
8
1
62
256
6
ByLayer
370
18
48
1
60
0
100
AcDbLine
10
12.391601
20
-2.114377
30
0
11
12.396035
21
-2.110782
31
0
39
0
210
0
220
0
230
1
0
LINE
5
D3
100
AcDbEntity
8
1
62
256
6
ByLayer
370
18
48
1
60
0
100
AcDbLine
10
16.776658
20
2.389625
30
0
11
14.785728
21
1.965253
31
0
39
0
210
0
220
0
230
1
0
LINE
5
D4
100
AcDbEntity
8
1
62
256
6
ByLayer
370
18
48
1
60
0
100
AcDbLine
10
8.080093
20
0.271188
30
0
11
6.554133
21
-0.619104
31
0
39
0
210
0
220
0
230
1
0
LINE
5
D5
100
AcDbEntity
8
1
62
256
6
ByLayer
370
18
48
1
60
0
100
AcDbLine
10
17.664622
20
-0.987769
30
0
11
12.396035
21
-2.110782
31
0
39
0
210
0
220
0
230
1
0
LINE
5
D6
100
AcDbEntity
8
1
62
256
6
ByLayer
370
18
48
1
60
0
100
AcDbLine
10
10.996033
20
-2.411846
30
0
11
10.489638
21
-2.707293
31
0
39
0
210
0
220
0
230
1
0
LINE
5
D7
100
AcDbEntity
8
1
62
256
6
ByLayer
370
18
48
1
60
0
100
AcDbLine
10
28.900672
20
10.851842
30
0
11
27.960391
21
11.402454
31
0
39
0
210
0
220
0
230
1
0
LINE
5
D8
100
AcDbEntity
8
1
62
256
6
ByLayer
370
18
48
1
60
0
100
AcDbLine
10
29.095269
20
10.710369
30
0
11
28.900672
21
10.851842
31
0
39
0
210
0
220
0
230
1
0
LINE
5
D9
100
AcDbEntity
8
1
62
256
6
ByLayer
370
18
48
1
60
0
100
AcDbLine
10
28.0634
20
8.818257
30
0
11
30.705401
21
9.109692
31
0
39
0
210
0
220
0
230
1
0
LINE
5
DA
100
AcDbEntity
8
1
62
256
6
ByLayer
370
18
48
1
60
0
100
AcDbLine
10
29.525207
20
10.486125
30
0
11
29.325488
21
10.603077
31
0
39
0
210
0
220
0
230
1
0
LINE
5
DB
100
AcDbEntity
8
1
62
256
6
ByLayer
370
18
48
1
60
0
100
AcDbLine
10
10.996033
20
-2.411846
30
0
11
12.391601
21
-2.114377
31
0
39
0
210
0
220
0
230
1
0
LINE
5
DC
100
AcDbEntity
8
1
62
256
6
ByLayer
370
18
48
1
60
0
100
AcDbLine
10
12.970488
20
10.034845
30
0
11
14.961418
21
10.459217
31
0
39
0
210
0
220
0
230
1
0
LINE
5
DD
100
AcDbEntity
8
1
62
256
6
ByLayer
370
18
48
1
60
0
100
AcDbLine
10
12.970488
20
10.034845
30
0
11
12.56369
21
9.797506
31
0
39
0
210
0
220
0
230
1
0
LINE
5
DE
100
AcDbEntity
8
1
62
256
6
ByLayer
370
18
48
1
60
0
100
AcDbLine
10
6.242983
20
8.438004
30
0
11
8.080093
21
0.271188
31
0
39
0
210
0
220
0
230
1
0
LINE
5
DF
100
AcDbEntity
8
1
62
256
6
ByLayer
370
18
48
1
60
0
100
AcDbLine
10
14.961418
20
10.459217
30
0
11
14.546329
21
10.217041
31
0
39
0
210
0
220
0
230
1
0
LINE
5
E0
100
AcDbEntity
8
1
62
256
6
ByLayer
370
18
48
1
60
0
100
AcDbLine
10
29.836425
20
6.691979
30
0
11
29.952478
21
6.899669
31
0
39
0
210
0
220
0
230
1
0
LINE
5
E1
100
AcDbEntity
8
1
62
256
6
ByLayer
370
18
48
1
60
0
100
AcDbLine
10
10.355572
20
-1.149692
30
0
11
17.754059
21
0.427316
31
0
39
0
210
0
220
0
230
1
0
LINE
5
E2
100
AcDbEntity
8
1
62
256
6
ByLayer
370
18
48
1
60
0
100
AcDbLine
10
23.735917
20
13.465311
30
0
11
23.059453
21
12.806241
31
0
39
0
210
0
220
0
230
1
0
LINE
5
E3
100
AcDbEntity
8
1
62
256
6
ByLayer
370
18
48
1
60
0
100
AcDbLine
10
30.715861
20
1.85659
30
0
11
30.039396
21
1.19752
31
0
39
0
210
0
220
0
230
1
0
MTEXT
5
159
100
AcDbEntity
8
SK6
62
256
6
ByLayer
370
18
48
1
60
0
100
AcDbMText
10
-37.900202
20
-20.824641
30
0
210
0
220
0
230
1
1
\W0.7582;DDJNR 2020K 1504
40
3.5
41
0
44
1.084337
50
0
71
7
72
5
7
iso_b_vert
0
DIMENSION
5
16A
100
AcDbEntity
8
2
62
256
6
ByLayer
370
13
48
1
60
0
100
AcDbDimension
2
DimnDraft3D1
10
37.565877
20
15.359076
30
0
11
20.956663
21
32.957069
31
0
70
34
71
5
72
1
41
1
210
0
220
0
230
1
3
Standard
100
AcDb2LineAngularDimension
13
39.399798
23
15.4125
33
0
14
39.399798
24
13.825
34
0
15
38.564506
25
15.411412
35
0
16
24.220848
26
29.859474
36
0
40
0
0
DIMENSION
5
180
100
AcDbEntity
8
SK2
62
256
6
ByLayer
370
13
48
1
60
0
100
AcDbDimension
2
DimnDraft3D2
10
-94.700202
20
9.9375
30
0
11
-94.700202
21
-5.281579
31
0
70
32
71
5
72
1
41
1
210
0
220
0
230
1
3
Standard
100
AcDbAlignedDimension
13
-88.950202
23
-9.9375
33
0
14
-88.950202
24
9.9375
34
0
50
90
100
AcDbRotatedDimension
1001
ACAD
1000
DSTYLE
1002
{
1070
    74
1070
     0
1070
   279
1070
     0
1070
   172
1070
     1
1070
   173
1070
     1
1070
   340
1005
15A
1070
    77
1070
     1
1070
    73
1070
     0
1070
   171
1070
     3
1070
   274
1070
     4
1070
   177
1070
     2
1070
   176
1070
     2
1070
   178
1070
     7
1070
    78
1070
     8
1070
    41
1041
3.175
1070
   147
1041
2.25
1070
    42
1041
2.0
1070
    44
1041
2.0
1070
   140
1041
4.5
1070
   343
1005
16B
1070
   344
1005
16B
1002
}
0
DIMENSION
5
18E
100
AcDbEntity
8
2
62
256
6
ByLayer
370
13
48
1
60
0
100
AcDbDimension
2
DimnDraft3D3
10
61.649798
20
15.4125
30
0
11
61.649798
21
-2.544079
31
0
70
32
71
5
72
1
41
1
210
0
220
0
230
1
3
Standard
100
AcDbAlignedDimension
13
2
23
-9.9375
33
0
14
41.399798
24
15.4125
34
0
50
90
100
AcDbRotatedDimension
1001
ACAD
1000
DSTYLE
1002
{
1070
    74
1070
     0
1070
   279
1070
     0
1070
   172
1070
     1
1070
   173
1070
     1
1070
   340
1005
15A
1070
    77
1070
     1
1070
    73
1070
     0
1070
   171
1070
     3
1070
   274
1070
     4
1070
   177
1070
     2
1070
   176
1070
     2
1070
   178
1070
     7
1070
    78
1070
     8
1070
    41
1041
3.175
1070
   147
1041
2.25
1070
    42
1041
2.0
1070
    44
1041
2.0
1070
   140
1041
4.5
1070
   343
1005
16B
1070
   344
1005
16B
1002
}
0
DIMENSION
5
19C
100
AcDbEntity
8
2
62
256
6
ByLayer
370
13
48
1
60
0
100
AcDbDimension
2
DimnDraft3D4
10
39.399798
20
45.1625
30
0
11
14.181478
21
45.1625
31
0
70
32
71
5
72
1
41
1
210
0
220
0
230
1
3
Standard
100
AcDbAlignedDimension
13
0
23
11.9375
33
0
14
39.399798
24
17.4125
34
0
50
0
100
AcDbRotatedDimension
1001
ACAD
1000
DSTYLE
1002
{
1070
   279
1070
     0
1070
   172
1070
     1
1070
   173
1070
     1
1070
   340
1005
15A
1070
    77
1070
     1
1070
    73
1070
     0
1070
   171
1070
     3
1070
   274
1070
     4
1070
   177
1070
     2
1070
   176
1070
     2
1070
   178
1070
     7
1070
    78
1070
     8
1070
    41
1041
3.175
1070
   147
1041
2.25
1070
    42
1041
2.0
1070
    44
1041
2.0
1070
   140
1041
4.5
1070
   343
1005
16B
1070
   344
1005
16B
1002
}
0
DIMENSION
5
1AA
100
AcDbEntity
8
SK2
62
256
6
ByLayer
370
13
48
1
60
0
100
AcDbDimension
2
DimnDraft3D5
10
-86.950202
20
55.1625
30
0
11
-30.17586
21
55.1625
31
0
70
32
71
5
72
1
41
1
210
0
220
0
230
1
3
Standard
100
AcDbAlignedDimension
13
39.399798
23
17.4125
33
0
14
-86.950202
24
11.9375
34
0
50
0
100
AcDbRotatedDimension
1001
ACAD
1000
DSTYLE
1002
{
1070
   279
1070
     0
1070
   172
1070
     1
1070
   173
1070
     1
1070
   340
1005
15A
1070
    77
1070
     1
1070
    73
1070
     0
1070
   171
1070
     3
1070
   274
1070
     4
1070
   177
1070
     2
1070
   176
1070
     2
1070
   178
1070
     7
1070
    78
1070
     8
1070
    41
1041
3.175
1070
   147
1041
2.25
1070
    42
1041
2.0
1070
    44
1041
2.0
1070
   140
1041
4.5
1070
   343
1005
16B
1070
   344
1005
16B
1002
}
0
ENDSEC
0
SECTION
2
OBJECTS
0
DICTIONARY
5
214
330
0
100
AcDbDictionary
280
0
281
1
3
ACAD_GROUP
350
215
3
ACAD_MLINESTYLE
350
216
0
DICTIONARY
5
215
330
0
100
AcDbDictionary
280
0
281
1
0
DICTIONARY
5
216
330
0
100
AcDbDictionary
280
0
281
1
3
Standard
350
18
0
MLINESTYLE
5
18
330
216
100
AcDbMlineStyle
2
Standard
70
0
3

62
256
51
90
52
90
71
2
49
-0.5
62
256
6
ByLayer
49
0.5
62
256
6
ByLayer
0
RASTERVARIABLES
5
203
330

100
AcDbRasterVariables
90
0
70
1
71
1
72
1
0
ENDSEC
0
EOF
