0
SECTION
2
HEADER
9
$ACADVER
1
AC1015
9
$DWGCODEPAGE
3
ANSI_1252
9
$HANDSEED
5
224
9
$ANGBASE
50
0
9
$ANGDIR
70
0
9
$ATTMODE
70
1
9
$AUNITS
70
0
9
$AUPREC
70
0
9
$CECOLOR
62
256
9
$CELTSCALE
40
1
9
$CELTYPE
6
ByLayer
9
$CELWEIGHT
370
18
9
$CLAYER
8
0
9
$CMLJUST
70
0
9
$CMLSCALE
40
1
9
$CMLSTYLE
2
Standard
9
$DIMSTYLE
2
Standard
9
$TEXTSIZE
40
0.2
9
$TEXTSTYLE
7
Standard
9
$LUNITS
70
2
9
$LUPREC
70
4
9
$EXTNAMES
290
1
9
$INSUNITS
70
4
9
$LTSCALE
40
1
9
$LWDISPLAY
290
1
9
$PDMODE
70
0
9
$PDSIZE
40
0
9
$PLINEGEN
70
0
0
ENDSEC
0
SECTION
2
CLASSES
0
CLASS
1
RASTERVARIABLES
2
AcDbRasterVariables
3
ISM
90
0
280
0
281
0
0
ENDSEC
0
SECTION
2
TABLES
0
TABLE
2
VPORT
5
21a
100
AcDbSymbolTable
0
VPORT
5
1
100
AcDbSymbolTableRecord
100
AcDbViewportTableRecord
2
*Active
70
0
10
0
20
0
11
1
21
1
12
-1
22
1
13
0
23
0
14
0.5
24
0.5
15
10
25
10
16
0
26
0
36
1
17
0
27
0
37
0
0
ENDTAB
0
TABLE
2
LTYPE
5
21b
100
AcDbSymbolTable
0
LTYPE
5
14
100
AcDbSymbolTableRecord
100
AcDbLinetypeTableRecord
70
0
2
ByBlock
3

72
65
73
0
40
0
0
LTYPE
5
15
100
AcDbSymbolTableRecord
100
AcDbLinetypeTableRecord
70
0
2
ByLayer
3

72
65
73
0
40
0
0
LTYPE
5
16
100
AcDbSymbolTableRecord
100
AcDbLinetypeTableRecord
70
0
2
CONTINUOUS
3
Solid line
72
65
73
0
40
0
0
LTYPE
5
6A
100
AcDbSymbolTableRecord
100
AcDbLinetypeTableRecord
70
0
2
CENTER
3
____ _ ____ _ ____ _ ____
72
65
73
4
40
47.5
49
22
74
0
49
-8.5
74
0
49
8.5
74
0
49
-8.5
74
0
0
LTYPE
5
6B
100
AcDbSymbolTableRecord
100
AcDbLinetypeTableRecord
70
0
2
DASHED
3
__ __ __ __ __ __ __ __ __
72
65
73
2
40
25.72
49
12.86
74
0
49
-12.86
74
0
0
ENDTAB
0
TABLE
2
LAYER
5
21c
100
AcDbSymbolTable
0
LAYER
5
10
100
AcDbSymbolTableRecord
100
AcDbLayerTableRecord
2
0
70
0
62
7
6
CONTINUOUS
290
1
370
-3
390
0
0
LAYER
5
6D
100
AcDbSymbolTableRecord
100
AcDbLayerTableRecord
2
2
70
0
62
7
6
CONTINUOUS
290
1
370
-3
390
0
0
LAYER
5
6F
100
AcDbSymbolTableRecord
100
AcDbLayerTableRecord
2
80
70
0
62
-6
6
CONTINUOUS
290
1
370
-3
390
0
0
LAYER
5
71
100
AcDbSymbolTableRecord
100
AcDbLayerTableRecord
2
81
70
0
62
-3
6
CONTINUOUS
290
1
370
-3
390
0
0
LAYER
5
73
100
AcDbSymbolTableRecord
100
AcDbLayerTableRecord
2
1
70
0
62
4
6
CONTINUOUS
290
1
370
-3
390
0
0
LAYER
5
207
100
AcDbSymbolTableRecord
100
AcDbLayerTableRecord
2
SK1
70
0
62
4
6
CONTINUOUS
290
1
370
-3
390
0
0
LAYER
5
208
100
AcDbSymbolTableRecord
100
AcDbLayerTableRecord
2
SK6
70
0
62
5
6
CONTINUOUS
290
1
370
-3
390
0
0
LAYER
5
209
100
AcDbSymbolTableRecord
100
AcDbLayerTableRecord
2
SK2
70
0
62
7
6
CONTINUOUS
290
1
370
-3
390
0
0
ENDTAB
0
TABLE
2
STYLE
5
21d
100
AcDbSymbolTable
0
STYLE
5
11
100
AcDbSymbolTableRecord
100
AcDbTextStyleTableRecord
2
Standard
3
txt
70
0
71
0
40
0
41
1
42
0
50
0
0
STYLE
5
15D
100
AcDbSymbolTableRecord
100
AcDbTextStyleTableRecord
2
iso_b_vert
3
simplex.shx
70
0
71
0
40
0
41
1
42
0
50
0
0
STYLE
5
15E
100
AcDbSymbolTableRecord
100
AcDbTextStyleTableRecord
2
DWGDirectTextStyle
3
simplex
70
0
71
0
40
0
41
1
42
0
50
0
0
ENDTAB
0
TABLE
2
DIMSTYLE
5
21e
100
AcDbSymbolTable
100
AcDbDimStyleTable
0
DIMSTYLE
105
27
100
AcDbSymbolTableRecord
100
AcDbDimStyleTableRecord
2
Standard
70
0
3
<>
41
0.18
42
0.0625
44
0.18
140
0.18
147
0.09
73
0
74
0
77
1
271
2
275
0
278
52
280
0
340
11
0
ENDTAB
0
TABLE
2
VIEW
5
21f
100
AcDbSymbolTable
0
ENDTAB
0
TABLE
2
UCS
5
220
100
AcDbSymbolTable
0
ENDTAB
0
TABLE
2
APPID
5
221
100
AcDbSymbolTable
0
APPID
5
12
100
AcDbSymbolTableRecord
100
AcDbRegAppTableRecord
2
ACAD
70
0
0
ENDTAB
0
TABLE
2
BLOCK_RECORD
5
222
100
AcDbSymbolTable
0
BLOCK_RECORD
5
1F
100
AcDbSymbolTableRecord
100
AcDbBlockTableRecord
2
*Model_Space
340
0
70
0
0
BLOCK_RECORD
5
1B
100
AcDbSymbolTableRecord
100
AcDbBlockTableRecord
2
*Paper_Space
340
0
70
0
0
BLOCK_RECORD
5
23
100
AcDbSymbolTableRecord
100
AcDbBlockTableRecord
2
*Paper_Space0
340
0
70
0
0
BLOCK_RECORD
5
160
100
AcDbSymbolTableRecord
100
AcDbBlockTableRecord
2
DimnDraft3D11
340
0
70
0
0
BLOCK_RECORD
5
16F
100
AcDbSymbolTableRecord
100
AcDbBlockTableRecord
2
DimnDraft3D2
340
0
70
0
0
BLOCK_RECORD
5
17D
100
AcDbSymbolTableRecord
100
AcDbBlockTableRecord
2
_CLOSED
340
0
70
0
0
BLOCK_RECORD
5
184
100
AcDbSymbolTableRecord
100
AcDbBlockTableRecord
2
DimnDraft3D3
340
0
70
0
0
BLOCK_RECORD
5
192
100
AcDbSymbolTableRecord
100
AcDbBlockTableRecord
2
DimnDraft3D4
340
0
70
0
0
BLOCK_RECORD
5
1A0
100
AcDbSymbolTableRecord
100
AcDbBlockTableRecord
2
DimnDraft3D5
340
0
70
0
0
ENDTAB
0
ENDSEC
0
SECTION
2
BLOCKS
0
BLOCK
5
20
100
AcDbEntity
8
0
100
AcDbBlockBegin
2
*Model_Space
70
0
10
0
20
0
30
0
3
*Model_Space
0
ENDBLK
5
21
100
AcDbEntity
8
0
100
AcDbBlockEnd
0
BLOCK
5
1C
100
AcDbEntity
8
0
100
AcDbBlockBegin
2
*Paper_Space
70
0
10
0
20
0
30
0
3
*Paper_Space
0
ENDBLK
5
1D
100
AcDbEntity
8
0
100
AcDbBlockEnd
0
BLOCK
5
24
100
AcDbEntity
8
0
100
AcDbBlockBegin
2
*Paper_Space0
70
0
10
0
20
0
30
0
3
*Paper_Space0
0
ENDBLK
5
25
100
AcDbEntity
8
0
100
AcDbBlockEnd
0
BLOCK
5
161
100
AcDbEntity
8
0
100
AcDbBlockBegin
2
DimnDraft3D11
70
0
10
0
20
0
30
0
3
DimnDraft3D11
0
LINE
5
163
100
AcDbEntity
8
SK2
62
256
6
ByLayer
370
25
48
1
60
0
100
AcDbLine
10
39.604469
20
-32.425
30
0
11
39.604469
21
-70.675
31
0
39
0
210
0
220
0
230
1
0
LINE
5
165
100
AcDbEntity
8
SK2
62
256
6
ByLayer
370
25
48
1
60
0
100
AcDbLine
10
-211.745531
20
-21.925
30
0
11
-211.745531
21
-70.675
31
0
39
0
210
0
220
0
230
1
0
LINE
5
166
100
AcDbEntity
8
SK2
62
256
6
ByLayer
370
25
48
1
60
0
100
AcDbLine
10
39.604469
20
-68.675
30
0
11
-211.745531
21
-68.675
31
0
39
0
210
0
220
0
230
1
0
LINE
5
167
100
AcDbEntity
8
SK2
62
256
6
ByLayer
370
25
48
1
60
0
100
AcDbLine
10
39.604469
20
-68.675
30
0
11
36.42947
21
-69.092997
31
0
39
0
210
0
220
0
230
1
0
LINE
5
168
100
AcDbEntity
8
SK2
62
256
6
ByLayer
370
25
48
1
60
0
100
AcDbLine
10
39.604469
20
-68.675
30
0
11
36.429467
21
-68.257003
31
0
39
0
210
0
220
0
230
1
0
LINE
5
169
100
AcDbEntity
8
SK2
62
256
6
ByLayer
370
25
48
1
60
0
100
AcDbLine
10
36.42947
20
-69.092997
30
0
11
36.429467
21
-68.257003
31
0
39
0
210
0
220
0
230
1
0
LINE
5
16A
100
AcDbEntity
8
SK2
62
256
6
ByLayer
370
25
48
1
60
0
100
AcDbLine
10
-211.745531
20
-68.675
30
0
11
-208.570533
21
-68.257003
31
0
39
0
210
0
220
0
230
1
0
LINE
5
16B
100
AcDbEntity
8
SK2
62
256
6
ByLayer
370
25
48
1
60
0
100
AcDbLine
10
-211.745531
20
-68.675
30
0
11
-208.57053
21
-69.092997
31
0
39
0
210
0
220
0
230
1
0
LINE
5
16C
100
AcDbEntity
8
SK2
62
256
6
ByLayer
370
25
48
1
60
0
100
AcDbLine
10
-208.570533
20
-68.257003
30
0
11
-208.57053
21
-69.092997
31
0
39
0
210
0
220
0
230
1
0
MTEXT
5
16D
100
AcDbEntity
8
SK2
62
256
6
ByLayer
370
18
48
1
60
0
100
AcDbMText
10
-91.908689
20
-67.55
30
0
210
0
220
0
230
1
1
\W0.7468;250.0
40
4.5
41
0
44
1.084337
50
0
71
7
72
5
7
iso_b_vert
0
ENDBLK
5
162
100
AcDbEntity
8
0
100
AcDbBlockEnd
0
BLOCK
5
17A
100
AcDbEntity
8
0
100
AcDbBlockBegin
2
DimnDraft3D2
70
0
10
0
20
0
30
0
3
DimnDraft3D2
0
MTEXT
5
170
100
AcDbEntity
8
2
62
256
6
ByLayer
370
18
48
1
60
0
100
AcDbMText
10
22.858833
20
-42.334465
30
0
210
0
220
0
230
1
1
\W0.7399;93%%d
40
4.5
41
0
44
1.084337
50
313.5
71
7
72
5
7
iso_b_vert
0
LINE
5
171
100
AcDbEntity
8
2
62
256
6
ByLayer
370
13
48
1
60
0
100
AcDbLine
10
39.604469
20
-32.425
30
0
11
39.604469
21
-53.908093
31
0
39
0
210
0
220
0
230
1
0
LINE
5
172
100
AcDbEntity
8
2
62
256
6
ByLayer
370
13
48
1
60
0
100
AcDbLine
10
35.773288
20
-30.266904
30
0
11
16.196188
21
-29.240912
31
0
39
0
210
0
220
0
230
1
0
ARC
5
173
100
AcDbEntity
8
2
62
256
6
ByLayer
370
13
48
1
60
0
100
AcDbCircle
39
0
10
39.604469
20
-30.467688
30
0
40
21.440404685267
210
0
220
0
230
1
100
AcDbArc
50
177
51
270
0
LINE
5
174
100
AcDbEntity
8
2
62
256
6
ByLayer
370
13
48
1
60
0
100
AcDbLine
10
39.604469
20
-51.908093
30
0
11
36.416195
21
-52.208502
31
0
39
0
210
0
220
0
230
1
0
LINE
5
175
100
AcDbEntity
8
2
62
256
6
ByLayer
370
13
48
1
60
0
100
AcDbLine
10
39.604469
20
-51.908093
30
0
11
36.447078
21
-51.37308
31
0
39
0
210
0
220
0
230
1
0
LINE
5
176
100
AcDbEntity
8
2
62
256
6
ByLayer
370
13
48
1
60
0
100
AcDbLine
10
36.416195
20
-52.208502
30
0
11
36.447078
21
-51.37308
31
0
39
0
210
0
220
0
230
1
0
LINE
5
177
100
AcDbEntity
8
2
62
256
6
ByLayer
370
13
48
1
60
0
100
AcDbLine
10
18.193447
20
-29.345584
30
0
11
18.562482
21
-32.526645
31
0
39
0
210
0
220
0
230
1
0
LINE
5
178
100
AcDbEntity
8
2
62
256
6
ByLayer
370
13
48
1
60
0
100
AcDbLine
10
18.193447
20
-29.345584
30
0
11
17.726588
21
-32.513769
31
0
39
0
210
0
220
0
230
1
0
LINE
5
179
100
AcDbEntity
8
2
62
256
6
ByLayer
370
13
48
1
60
0
100
AcDbLine
10
18.562482
20
-32.526645
30
0
11
17.726588
21
-32.513769
31
0
39
0
210
0
220
0
230
1
0
ENDBLK
5
17B
100
AcDbEntity
8
0
100
AcDbBlockEnd
0
BLOCK
5
17E
100
AcDbEntity
8
0
100
AcDbBlockBegin
2
_CLOSED
70
0
10
0
20
0
30
0
3
_CLOSED
0
LINE
5
180
100
AcDbEntity
8
0
62
256
6
ByLayer
370
-2
48
1
60
0
100
AcDbLine
10
-1
20
0.166667
30
0
11
0
21
0
31
0
39
0
210
0
220
0
230
1
0
LINE
5
181
100
AcDbEntity
8
0
62
256
6
ByLayer
370
-2
48
1
60
0
100
AcDbLine
10
0
20
0
30
0
11
-1
21
-0.166667
31
0
39
0
210
0
220
0
230
1
0
LINE
5
182
100
AcDbEntity
8
0
62
256
6
ByLayer
370
-2
48
1
60
0
100
AcDbLine
10
-1
20
0.166667
30
0
11
-1
21
-0.166667
31
0
39
0
210
0
220
0
230
1
0
LINE
5
183
100
AcDbEntity
8
0
62
256
6
ByLayer
370
-2
48
1
60
0
100
AcDbLine
10
0
20
0
30
0
11
-1
21
0
31
0
39
0
210
0
220
0
230
1
0
ENDBLK
5
17F
100
AcDbEntity
8
0
100
AcDbBlockEnd
0
BLOCK
5
18F
100
AcDbEntity
8
0
100
AcDbBlockBegin
2
DimnDraft3D3
70
0
10
0
20
0
30
0
3
DimnDraft3D3
0
MTEXT
5
185
100
AcDbEntity
8
2
62
256
6
ByLayer
370
18
48
1
60
0
100
AcDbMText
10
15.645655
20
-57.55
30
0
210
0
220
0
230
1
1
\W0.7346;39.6
40
4.5
41
0
44
1.084337
50
0
71
7
72
5
7
iso_b_vert
0
LINE
5
186
100
AcDbEntity
8
2
62
256
6
ByLayer
370
13
48
1
60
0
100
AcDbLine
10
0
20
-21.925
30
0
11
0
21
-60.675
31
0
39
0
210
0
220
0
230
1
0
LINE
5
187
100
AcDbEntity
8
2
62
256
6
ByLayer
370
13
48
1
60
0
100
AcDbLine
10
39.604469
20
-32.425
30
0
11
39.604469
21
-60.675
31
0
39
0
210
0
220
0
230
1
0
LINE
5
188
100
AcDbEntity
8
2
62
256
6
ByLayer
370
13
48
1
60
0
100
AcDbLine
10
0
20
-58.675
30
0
11
39.604469
21
-58.675
31
0
39
0
210
0
220
0
230
1
0
LINE
5
189
100
AcDbEntity
8
2
62
256
6
ByLayer
370
13
48
1
60
0
100
AcDbLine
10
0
20
-58.675
30
0
11
3.174998
21
-58.257003
31
0
39
0
210
0
220
0
230
1
0
LINE
5
18A
100
AcDbEntity
8
2
62
256
6
ByLayer
370
13
48
1
60
0
100
AcDbLine
10
0
20
-58.675
30
0
11
3.175002
21
-59.092997
31
0
39
0
210
0
220
0
230
1
0
LINE
5
18B
100
AcDbEntity
8
2
62
256
6
ByLayer
370
13
48
1
60
0
100
AcDbLine
10
3.174998
20
-58.257003
30
0
11
3.175002
21
-59.092997
31
0
39
0
210
0
220
0
230
1
0
LINE
5
18C
100
AcDbEntity
8
2
62
256
6
ByLayer
370
13
48
1
60
0
100
AcDbLine
10
39.604469
20
-58.675
30
0
11
36.42947
21
-59.092997
31
0
39
0
210
0
220
0
230
1
0
LINE
5
18D
100
AcDbEntity
8
2
62
256
6
ByLayer
370
13
48
1
60
0
100
AcDbLine
10
39.604469
20
-58.675
30
0
11
36.429467
21
-58.257003
31
0
39
0
210
0
220
0
230
1
0
LINE
5
18E
100
AcDbEntity
8
2
62
256
6
ByLayer
370
13
48
1
60
0
100
AcDbLine
10
36.42947
20
-59.092997
30
0
11
36.429467
21
-58.257003
31
0
39
0
210
0
220
0
230
1
0
ENDBLK
5
190
100
AcDbEntity
8
0
100
AcDbBlockEnd
0
BLOCK
5
19D
100
AcDbEntity
8
0
100
AcDbBlockBegin
2
DimnDraft3D4
70
0
10
0
20
0
30
0
3
DimnDraft3D4
0
MTEXT
5
193
100
AcDbEntity
8
2
62
256
6
ByLayer
370
18
48
1
60
0
100
AcDbMText
10
60.729469
20
-9.406579
30
0
210
0
220
0
230
1
1
\W0.7346;50.0
40
4.5
41
0
44
1.084337
50
90
71
7
72
5
7
iso_b_vert
0
LINE
5
194
100
AcDbEntity
8
2
62
256
6
ByLayer
370
13
48
1
60
0
100
AcDbLine
10
2
20
19.925
30
0
11
63.854469
21
19.925
31
0
39
0
210
0
220
0
230
1
0
LINE
5
195
100
AcDbEntity
8
2
62
256
6
ByLayer
370
13
48
1
60
0
100
AcDbLine
10
41.604469
20
-30.425
30
0
11
63.854469
21
-30.425
31
0
39
0
210
0
220
0
230
1
0
LINE
5
196
100
AcDbEntity
8
2
62
256
6
ByLayer
370
13
48
1
60
0
100
AcDbLine
10
61.854469
20
19.925
30
0
11
61.854469
21
-30.425
31
0
39
0
210
0
220
0
230
1
0
LINE
5
197
100
AcDbEntity
8
2
62
256
6
ByLayer
370
13
48
1
60
0
100
AcDbLine
10
61.854469
20
19.925
30
0
11
62.272465
21
16.750002
31
0
39
0
210
0
220
0
230
1
0
LINE
5
198
100
AcDbEntity
8
2
62
256
6
ByLayer
370
13
48
1
60
0
100
AcDbLine
10
61.854469
20
19.925
30
0
11
61.436472
21
16.749998
31
0
39
0
210
0
220
0
230
1
0
LINE
5
199
100
AcDbEntity
8
2
62
256
6
ByLayer
370
13
48
1
60
0
100
AcDbLine
10
62.272465
20
16.750002
30
0
11
61.436472
21
16.749998
31
0
39
0
210
0
220
0
230
1
0
LINE
5
19A
100
AcDbEntity
8
2
62
256
6
ByLayer
370
13
48
1
60
0
100
AcDbLine
10
61.854469
20
-30.425
30
0
11
61.436472
21
-27.250002
31
0
39
0
210
0
220
0
230
1
0
LINE
5
19B
100
AcDbEntity
8
2
62
256
6
ByLayer
370
13
48
1
60
0
100
AcDbLine
10
61.854469
20
-30.425
30
0
11
62.272465
21
-27.249998
31
0
39
0
210
0
220
0
230
1
0
LINE
5
19C
100
AcDbEntity
8
2
62
256
6
ByLayer
370
13
48
1
60
0
100
AcDbLine
10
61.436472
20
-27.250002
30
0
11
62.272465
21
-27.249998
31
0
39
0
210
0
220
0
230
1
0
ENDBLK
5
19E
100
AcDbEntity
8
0
100
AcDbBlockEnd
0
BLOCK
5
1AB
100
AcDbEntity
8
0
100
AcDbBlockBegin
2
DimnDraft3D5
70
0
10
0
20
0
30
0
3
DimnDraft3D5
0
MTEXT
5
1A1
100
AcDbEntity
8
SK2
62
256
6
ByLayer
370
18
48
1
60
0
100
AcDbMText
10
-220.620531
20
-4.393421
30
0
210
0
220
0
230
1
1
\W0.7640;40.0
40
4.5
41
0
44
1.084337
50
90
71
7
72
5
7
iso_b_vert
0
LINE
5
1A2
100
AcDbEntity
8
SK2
62
256
6
ByLayer
370
13
48
1
60
0
100
AcDbLine
10
-213.745531
20
19.925
30
0
11
-221.495531
21
19.925
31
0
39
0
210
0
220
0
230
1
0
LINE
5
1A3
100
AcDbEntity
8
SK2
62
256
6
ByLayer
370
13
48
1
60
0
100
AcDbLine
10
-213.745531
20
-19.925
30
0
11
-221.495531
21
-19.925
31
0
39
0
210
0
220
0
230
1
0
LINE
5
1A4
100
AcDbEntity
8
SK2
62
256
6
ByLayer
370
13
48
1
60
0
100
AcDbLine
10
-219.495531
20
19.925
30
0
11
-219.495531
21
-19.925
31
0
39
0
210
0
220
0
230
1
0
LINE
5
1A5
100
AcDbEntity
8
SK2
62
256
6
ByLayer
370
13
48
1
60
0
100
AcDbLine
10
-219.495531
20
19.925
30
0
11
-219.077535
21
16.750002
31
0
39
0
210
0
220
0
230
1
0
LINE
5
1A6
100
AcDbEntity
8
SK2
62
256
6
ByLayer
370
13
48
1
60
0
100
AcDbLine
10
-219.495531
20
19.925
30
0
11
-219.913528
21
16.749998
31
0
39
0
210
0
220
0
230
1
0
LINE
5
1A7
100
AcDbEntity
8
SK2
62
256
6
ByLayer
370
13
48
1
60
0
100
AcDbLine
10
-219.077535
20
16.750002
30
0
11
-219.913528
21
16.749998
31
0
39
0
210
0
220
0
230
1
0
LINE
5
1A8
100
AcDbEntity
8
SK2
62
256
6
ByLayer
370
13
48
1
60
0
100
AcDbLine
10
-219.495531
20
-19.925
30
0
11
-219.913528
21
-16.750002
31
0
39
0
210
0
220
0
230
1
0
LINE
5
1A9
100
AcDbEntity
8
SK2
62
256
6
ByLayer
370
13
48
1
60
0
100
AcDbLine
10
-219.495531
20
-19.925
30
0
11
-219.077535
21
-16.749998
31
0
39
0
210
0
220
0
230
1
0
LINE
5
1AA
100
AcDbEntity
8
SK2
62
256
6
ByLayer
370
13
48
1
60
0
100
AcDbLine
10
-219.913528
20
-16.750002
30
0
11
-219.077535
21
-16.749998
31
0
39
0
210
0
220
0
230
1
0
ENDBLK
5
1AC
100
AcDbEntity
8
0
100
AcDbBlockEnd
0
ENDSEC
0
SECTION
2
ENTITIES
0
ELLIPSE
5
E7
100
AcDbEntity
8
1
62
256
6
ByLayer
370
18
48
1
60
0
100
AcDbEllipse
10
13.837307
20
-20.889359
30
0
11
-0.265178536275318
21
-0.272177045135845
31
0
210
0
220
0
230
1
40
0.987534
41
0.342180053776537
42
0.403396498438539
0
ELLIPSE
5
E8
100
AcDbEntity
8
1
62
256
6
ByLayer
370
18
48
1
60
0
100
AcDbEllipse
10
15.401706
20
-19.601699
30
0
11
0.296581257676342
21
0.304408537322985
31
0
210
0
220
0
230
1
40
0.987534
41
2.80444236523649
42
-3.14158584376967
0
ELLIPSE
5
E9
100
AcDbEntity
8
1
62
256
6
ByLayer
370
18
48
1
60
0
100
AcDbEllipse
10
13.544152
20
-21.637431
30
0
11
0.296581257676342
21
0.304408537322985
31
0
210
0
220
0
230
1
40
0.987534
41
-1.88105429443414E-05
42
0.403396498438413
0
ELLIPSE
5
EA
100
AcDbEntity
8
1
62
256
6
ByLayer
370
18
48
1
60
0
100
AcDbEllipse
10
15.899633
20
-20.221593
30
0
11
-0.265178536275318
21
-0.272177045135845
31
0
210
0
220
0
230
1
40
0.987534
41
1.75724481403995
42
2.79939683891873
0
ELLIPSE
5
EB
100
AcDbEntity
8
1
62
256
6
ByLayer
370
18
48
1
60
0
100
AcDbEllipse
10
14.207815
20
-22.075691
30
0
11
-0.265178536275318
21
-0.272177045135845
31
0
210
0
220
0
230
1
40
0.987534
41
0.342174994296222
42
1.45059404963499
0
ELLIPSE
5
EC
100
AcDbEntity
8
1
62
256
6
ByLayer
370
18
48
1
60
0
100
AcDbEllipse
10
16.563296
20
-20.659853
30
0
11
0.296581257676342
21
0.304408537322985
31
0
210
0
220
0
230
1
40
0.987534
41
1.75724481403979
42
3.14157244993302
0
ELLIPSE
5
ED
100
AcDbEntity
8
1
62
256
6
ByLayer
370
18
48
1
60
0
100
AcDbEllipse
10
14.705742
20
-22.695585
30
0
11
0.296581257676342
21
0.304408537322985
31
0
210
0
220
0
230
1
40
0.987534
41
6.81496146941091E-06
42
1.45059404963507
0
ELLIPSE
5
EE
100
AcDbEntity
8
1
62
256
6
ByLayer
370
18
48
1
60
0
100
AcDbEllipse
10
14.963529
20
-21.060766
30
0
11
2.79135301342439
21
2.86502152774574
31
0
210
0
220
0
230
1
40
0.987534
41
0.778645851564993
42
3.1415882062199
0
ELLIPSE
5
EF
100
AcDbEntity
8
1
62
256
6
ByLayer
370
18
48
1
60
0
100
AcDbEllipse
10
14.963529
20
-21.060766
30
0
11
2.79135301342439
21
2.86502152774574
31
0
210
0
220
0
230
1
40
0.987534
41
9.36334057287072E-05
42
0.778645851564992
0
ELLIPSE
5
F0
100
AcDbEntity
8
1
62
256
6
ByLayer
370
18
48
1
60
0
100
AcDbEllipse
10
16.27014
20
-21.407924
30
0
11
-0.265178536275318
21
-0.272177045135845
31
0
210
0
220
0
230
1
40
0.987534
41
0.710047262843184
42
2.79935548313874
0
ELLIPSE
5
F1
100
AcDbEntity
8
1
62
256
6
ByLayer
370
18
48
1
60
0
100
AcDbEllipse
10
15.424232
20
-22.334974
30
0
11
-0.265178536275318
21
-0.272177045135845
31
0
210
0
220
0
230
1
40
0.987534
41
0.342171625757654
42
2.49779160083165
0
ELLIPSE
5
F2
100
AcDbEntity
8
1
62
256
6
ByLayer
370
18
48
1
60
0
100
AcDbEllipse
10
15.053724
20
-21.148642
30
0
11
0.802513991359513
21
0.823693689226901
31
0
210
0
220
0
230
1
40
0.987534
41
0.77864572030355
42
1.29806188987334
0
ELLIPSE
5
F3
100
AcDbEntity
8
1
62
256
6
ByLayer
370
18
48
1
60
0
100
AcDbEllipse
10
15.053724
20
-21.148642
30
0
11
0.802513991359513
21
0.823693689226901
31
0
210
0
220
0
230
1
40
0.987534
41
1.9216681320461
42
2.58847133294151
0
ELLIPSE
5
F4
100
AcDbEntity
8
1
62
256
6
ByLayer
370
18
48
1
60
0
100
AcDbEllipse
10
15.053724
20
-21.148642
30
0
11
0.802513991359513
21
0.823693689226901
31
0
210
0
220
0
230
1
40
0.987534
41
3.0000200745046
42
0
0
ELLIPSE
5
F5
100
AcDbEntity
8
1
62
256
6
ByLayer
370
18
48
1
60
0
100
AcDbEllipse
10
15.053724
20
-21.148642
30
0
11
0.802513991359513
21
0.823693689226901
31
0
210
0
220
0
230
1
40
0.987534
41
0
42
0.189865462697476
0
ELLIPSE
5
F6
100
AcDbEntity
8
1
62
256
6
ByLayer
370
18
48
1
60
0
100
AcDbEllipse
10
15.053724
20
-21.148642
30
0
11
0.802513991359513
21
0.823693689226901
31
0
210
0
220
0
230
1
40
0.987534
41
0.634989872114792
42
0.77864572030355
0
ELLIPSE
5
F7
100
AcDbEntity
8
1
62
256
6
ByLayer
370
18
48
1
60
0
100
AcDbEllipse
10
24.619404
20
-26.970441
30
0
11
1.11654120536973
21
1.14600861109827
31
0
210
0
220
0
230
1
40
0.987534
41
2.8954630783133
42
-3.14158983163959
0
ELLIPSE
5
F8
100
AcDbEntity
8
1
62
256
6
ByLayer
370
18
48
1
60
0
100
AcDbEllipse
10
14.997352
20
-21.093719
30
0
11
0.802513991359513
21
0.823693689226901
31
0
210
0
220
0
230
1
40
0.987534
41
-3.10694123397071
42
-0.0345619915316854
0
ELLIPSE
5
F9
100
AcDbEntity
8
1
62
256
6
ByLayer
370
18
48
1
60
0
100
AcDbEllipse
10
28.590409
20
-23.566341
30
0
11
1.80042269365873
21
1.84793888539601
31
0
210
0
220
0
230
1
40
0.987534
41
-2.33842919789536
42
0
0
ELLIPSE
5
FA
100
AcDbEntity
8
1
62
256
6
ByLayer
370
18
48
1
60
0
100
AcDbEllipse
10
28.590409
20
-23.566341
30
0
11
1.80042269365873
21
1.84793888539601
31
0
210
0
220
0
230
1
40
0.987534
41
0
42
0.330451779101577
0
ELLIPSE
5
FB
100
AcDbEntity
8
1
62
256
6
ByLayer
370
18
48
1
60
0
100
AcDbEllipse
10
27.874484
20
-22.868824
30
0
11
-1.80042269365874
21
-1.847938885396
31
0
210
0
220
0
230
1
40
0.987534
41
2.94406046991728
42
-0.779610452520272
0
ELLIPSE
5
FC
100
AcDbEntity
8
1
62
256
6
ByLayer
370
18
48
1
60
0
100
AcDbEllipse
10
27.874484
20
-22.868824
30
0
11
-1.80042269365874
21
-1.847938885396
31
0
210
0
220
0
230
1
40
0.987534
41
2.64305661912535
42
2.94406046991728
0
ELLIPSE
5
FD
100
AcDbEntity
8
1
62
256
6
ByLayer
370
18
48
1
60
0
100
AcDbEllipse
10
31.60387
20
-19.087213
30
0
11
0.831125359747114
21
0.853060159886295
31
0
210
0
220
0
230
1
40
0.987534
41
-4.44879705587234E-06
42
0.233835969021893
0
ELLIPSE
5
FE
100
AcDbEntity
8
1
62
256
6
ByLayer
370
18
48
1
60
0
100
AcDbEllipse
10
8.151812
20
-25.309977
30
0
11
1.97548026366514
21
2.25775944862811
31
0
210
0
220
0
230
1
40
0.985051
41
0.187906387138336
42
0.503892937168507
0
ELLIPSE
5
FF
100
AcDbEntity
8
1
62
256
6
ByLayer
370
18
48
1
60
0
100
AcDbEllipse
10
13.67598
20
-20.77521
30
0
11
2.7327476980701
21
3.12323390393556
31
0
210
0
220
0
230
1
40
0.985051
41
-2.92501275660843
42
-2.63769971642131
0
ELLIPSE
5
100
100
AcDbEntity
8
1
62
256
6
ByLayer
370
18
48
1
60
0
100
AcDbEllipse
10
15.658619
20
-21.194745
30
0
11
-2.7327476980701
21
-3.12323390393556
31
0
210
0
220
0
230
1
40
0.985051
41
0.503892937168484
42
-2.986023797023
0
ELLIPSE
5
101
100
AcDbEntity
8
1
62
256
6
ByLayer
370
18
48
1
60
0
100
AcDbEllipse
10
13.598609
20
-20.758838
30
0
11
-1.71208289517645
21
-1.9567248554777
31
0
210
0
220
0
230
1
40
0.985051
41
-1.16738534286269
42
-0.976435586114994
0
ELLIPSE
5
102
100
AcDbEntity
8
1
62
256
6
ByLayer
370
18
48
1
60
0
100
AcDbEllipse
10
27.562906
20
-22.646133
30
0
11
1.90160924039538
21
1.9517959157768
31
0
210
0
220
0
230
1
40
0.987534
41
-0.529362666345045
42
-0.323882768359767
0
ELLIPSE
5
103
100
AcDbEntity
8
1
62
256
6
ByLayer
370
18
48
1
60
0
100
AcDbEllipse
10
18.92432
20
-15.285033
30
0
11
1.65314319602558
21
1.69677243339755
31
0
210
0
220
0
230
1
40
0.987534
41
1.32466675151839
42
1.68413813115886
0
ELLIPSE
5
104
100
AcDbEntity
8
1
62
256
6
ByLayer
370
18
48
1
60
0
100
AcDbEllipse
10
30.134598
20
-17.797825
30
0
11
1.11654120536976
21
1.1460086110983
31
0
210
0
220
0
230
1
40
0.987534
41
2.69989446175012E-06
42
0.713801513320343
0
ELLIPSE
5
105
100
AcDbEntity
8
1
62
256
6
ByLayer
370
18
48
1
60
0
100
AcDbEllipse
10
25.116887
20
-27.455133
30
0
11
-1.11654120536976
21
-1.14600861109829
31
0
210
0
220
0
230
1
40
0.987534
41
-0.246129575276538
42
0.713801513320357
0
ELLIPSE
5
106
100
AcDbEntity
8
1
62
256
6
ByLayer
370
18
48
1
60
0
100
AcDbEllipse
10
30.632081
20
-18.282516
30
0
11
-1.11654120536976
21
-1.14600861109829
31
0
210
0
220
0
230
1
40
0.987534
41
2.89546307831326
42
-2.42779114026946
0
ELLIPSE
5
107
100
AcDbEntity
8
1
62
256
6
ByLayer
370
18
48
1
60
0
100
AcDbEllipse
10
10.071379
20
-15.60427
30
0
11
1.49832280026797
21
1.3247749945546
31
0
210
0
220
0
230
1
40
0.754402
41
0.707667574872033
42
2.12034306913166
0
ELLIPSE
5
108
100
AcDbEntity
8
1
62
256
6
ByLayer
370
18
48
1
60
0
100
AcDbEllipse
10
7.8513
20
-23.184666
30
0
11
-2.66344707804324
21
-1.40123612183803
31
0
210
0
220
0
230
1
40
0.988643
41
-0.69993992362543
42
0.351749139437951
0
ELLIPSE
5
109
100
AcDbEntity
8
1
62
256
6
ByLayer
370
18
48
1
60
0
100
AcDbEllipse
10
12.580989
20
-17.642161
30
0
11
5.36591329077102
21
-1.20705201044815
31
0
210
0
220
0
230
1
40
0.083175
41
-2.42477914533364
42
-1.9830114060476
0
ELLIPSE
5
10A
100
AcDbEntity
8
1
62
256
6
ByLayer
370
18
48
1
60
0
100
AcDbEllipse
10
13.061183
20
-15.507473
30
0
11
-5.32236369817875
21
1.39900138571193
31
0
210
0
220
0
230
1
40
0.320139
41
0.554915125742924
42
0.607907435791959
0
ELLIPSE
5
10B
100
AcDbEntity
8
1
62
256
6
ByLayer
370
18
48
1
60
0
100
AcDbEllipse
10
10.548464
20
-24.758275
30
0
11
-3.82773442477904
21
-0.907594688915389
31
0
210
0
220
0
230
1
40
0.449589
41
0.399114564346246
42
0.758730297702016
0
ELLIPSE
5
10C
100
AcDbEntity
8
1
62
256
6
ByLayer
370
18
48
1
60
0
100
AcDbEllipse
10
12.385574
20
-16.591459
30
0
11
-2.40333798686156
21
3.82847615131019
31
0
210
0
220
0
230
1
40
0.535969
41
-0.479772778840279
42
-0.120157045488904
0
ELLIPSE
5
10D
100
AcDbEntity
8
1
62
256
6
ByLayer
370
18
48
1
60
0
100
AcDbEllipse
10
10.963534
20
-24.832497
30
0
11
-5.40555084115852
21
1.03051095076151
31
0
210
0
220
0
230
1
40
0.153994
41
-0.601516560582864
42
-0.548524241045107
0
ELLIPSE
5
10E
100
AcDbEntity
8
1
62
256
6
ByLayer
370
18
48
1
60
0
100
AcDbEllipse
10
13.550047
20
-13.766011
30
0
11
-3.3643526098203
21
0.985138713419739
31
0
210
0
220
0
230
1
40
0.454664
41
-0.0978252986104568
42
0.625392807787763
0
ELLIPSE
5
10F
100
AcDbEntity
8
1
62
256
6
ByLayer
370
18
48
1
60
0
100
AcDbEllipse
10
8.231414
20
-23.783778
30
0
11
-0.44433754174247
21
1.95001644839172
31
0
210
0
220
0
230
1
40
0.807679
41
1.25118760271148
42
2.66386309697109
0
ELLIPSE
5
110
100
AcDbEntity
8
1
62
256
6
ByLayer
370
18
48
1
60
0
100
AcDbEllipse
10
29.031535
20
-23.914973
30
0
11
-1.67589864628128
21
-1.43101267968795
31
0
210
0
220
0
230
1
40
0.772193
41
1.34318189256969
42
2.19839322604689
0
ELLIPSE
5
111
100
AcDbEntity
8
1
62
256
6
ByLayer
370
18
48
1
60
0
100
AcDbEllipse
10
9.688409
20
-15.017849
30
0
11
-2.66344707797686
21
-1.40123612194711
31
0
210
0
220
0
230
1
40
0.988643
41
-1.75162898673305
42
-0.699939923667842
0
ELLIPSE
5
112
100
AcDbEntity
8
1
62
256
6
ByLayer
370
18
48
1
60
0
100
AcDbEllipse
10
29.031535
20
-23.914973
30
0
11
-0.244919138432559
21
-2.36066737614815
31
0
210
0
220
0
230
1
40
0.796311
41
1.56563282528594
42
2.42084415876499
0
ELLIPSE
5
113
100
AcDbEntity
8
1
62
256
6
ByLayer
370
18
48
1
60
0
100
AcDbEllipse
10
10.634004
20
-26.729194
30
0
11
-3.4565439031566
21
0.579964293008079
31
0
210
0
220
0
230
1
40
0.288972
41
-0.612366121443736
42
0.110851984963022
0
ELLIPSE
5
114
100
AcDbEntity
8
1
62
256
6
ByLayer
370
18
48
1
60
0
100
AcDbEllipse
10
11.443731
20
-22.697809
30
0
11
5.36591329077102
21
-1.20705201044815
31
0
210
0
220
0
230
1
40
0.083175
41
-2.42477914533362
42
-1.9830114060476
0
ELLIPSE
5
115
100
AcDbEntity
8
1
62
256
6
ByLayer
370
18
48
1
60
0
100
AcDbEllipse
10
5.905167
20
-11.661168
30
0
11
6.82934418825403
21
-1.53624801329764
31
0
210
0
220
0
230
1
40
0.083175
41
0.797732830958247
42
0.812513867698233
0
ELLIPSE
5
116
100
AcDbEntity
8
1
62
256
6
ByLayer
370
18
48
1
60
0
100
AcDbEllipse
10
15.151356
20
-21.243763
30
0
11
-2.7913530134244
21
-2.86502152774573
31
0
210
0
220
0
230
1
40
0.987534
41
0
42
6.28318530717959
0
ELLIPSE
5
117
100
AcDbEntity
8
1
62
256
6
ByLayer
370
18
48
1
60
0
100
AcDbEllipse
10
15.604622
20
-22.510726
30
0
11
-0.265178536275318
21
-0.272177045135845
31
0
210
0
220
0
230
1
40
0.987534
41
-0.337150288353311
42
2.49779160083162
0
ELLIPSE
5
118
100
AcDbEntity
8
1
62
256
6
ByLayer
370
18
48
1
60
0
100
AcDbEllipse
10
16.215314
20
-22.206796
30
0
11
0.296581257676342
21
0.304408537322985
31
0
210
0
220
0
230
1
40
0.987534
41
0.71004726284325
42
2.49779160083164
0
ELLIPSE
5
119
100
AcDbEntity
8
1
62
256
6
ByLayer
370
18
48
1
60
0
100
AcDbEllipse
10
16.395704
20
-22.382548
30
0
11
0.296581257676342
21
0.304408537322985
31
0
210
0
220
0
230
1
40
0.987534
41
0.71004726284325
42
2.49779160083169
0
ELLIPSE
5
11A
100
AcDbEntity
8
1
62
256
6
ByLayer
370
18
48
1
60
0
100
AcDbEllipse
10
13.724543
20
-21.813183
30
0
11
0.296581257676342
21
0.304408537322985
31
0
210
0
220
0
230
1
40
0.987534
41
-1.38434783954989
42
0.403396498438461
0
ELLIPSE
5
11B
100
AcDbEntity
8
1
62
256
6
ByLayer
370
18
48
1
60
0
100
AcDbEllipse
10
15.234115
20
-21.324394
30
0
11
-1.60502798271903
21
-1.6473873784538
31
0
210
0
220
0
230
1
40
0.987534
41
0
42
6.28318530717959
0
ELLIPSE
5
11C
100
AcDbEntity
8
1
62
256
6
ByLayer
370
18
48
1
60
0
100
AcDbEllipse
10
14.017698
20
-21.065111
30
0
11
-0.265178536275318
21
-0.272177045135845
31
0
210
0
220
0
230
1
40
0.987534
41
-2.43154539074641
42
0.403396498438396
0
ELLIPSE
5
11D
100
AcDbEntity
8
1
62
256
6
ByLayer
370
18
48
1
60
0
100
AcDbEllipse
10
15.582096
20
-19.777451
30
0
11
0.296581257676342
21
0.304408537322985
31
0
210
0
220
0
230
1
40
0.987534
41
2.80444236523652
42
-1.69099860395475
0
ELLIPSE
5
11E
100
AcDbEntity
8
1
62
256
6
ByLayer
370
18
48
1
60
0
100
AcDbEllipse
10
14.072525
20
-20.26624
30
0
11
0.296581257676342
21
0.304408537322985
31
0
210
0
220
0
230
1
40
0.987534
41
-2.43154539074645
42
-0.643801052758122
0
ELLIPSE
5
11F
100
AcDbEntity
8
1
62
256
6
ByLayer
370
18
48
1
60
0
100
AcDbEllipse
10
16.743686
20
-20.835605
30
0
11
0.296581257676342
21
0.304408537322985
31
0
210
0
220
0
230
1
40
0.987534
41
1.75724481403992
42
-2.73819615515118
0
ELLIPSE
5
120
100
AcDbEntity
8
1
62
256
6
ByLayer
370
18
48
1
60
0
100
AcDbEllipse
10
16.080023
20
-20.397345
30
0
11
-0.265178536275318
21
-0.272177045135845
31
0
210
0
220
0
230
1
40
0.987534
41
1.75724481403988
42
-1.6909986039547
0
ELLIPSE
5
121
100
AcDbEntity
8
1
62
256
6
ByLayer
370
18
48
1
60
0
100
AcDbEllipse
10
14.388206
20
-22.251443
30
0
11
-0.265178536275318
21
-0.272177045135845
31
0
210
0
220
0
230
1
40
0.987534
41
-1.38434783954988
42
1.45059404963499
0
ELLIPSE
5
122
100
AcDbEntity
8
1
62
256
6
ByLayer
370
18
48
1
60
0
100
AcDbEllipse
10
16.450531
20
-21.583677
30
0
11
-0.265178536275318
21
-0.272177045135845
31
0
210
0
220
0
230
1
40
0.987534
41
0.710047262843231
42
-2.73819615515137
0
ELLIPSE
5
123
100
AcDbEntity
8
1
62
256
6
ByLayer
370
18
48
1
60
0
100
AcDbEllipse
10
14.886133
20
-22.871337
30
0
11
0.296581257676342
21
0.304408537322985
31
0
210
0
220
0
230
1
40
0.987534
41
-0.337150288353304
42
1.45059404963504
0
ELLIPSE
5
124
100
AcDbEntity
8
1
62
256
6
ByLayer
370
18
48
1
60
0
100
AcDbEllipse
10
14.863607
20
-20.138062
30
0
11
-0.265178536275318
21
-0.272177045135845
31
0
210
0
220
0
230
1
40
0.987534
41
2.80444236523644
42
-0.643801052758188
0
ELLIPSE
5
125
100
AcDbEntity
8
1
62
256
6
ByLayer
370
18
48
1
60
0
100
AcDbEllipse
10
19.179065
20
-15.127005
30
0
11
1.65314319602558
21
1.69677243339754
31
0
210
0
220
0
230
1
40
0.987534
41
-0.246129575276513
42
1.32466675151838
0
ELLIPSE
5
126
100
AcDbEntity
8
1
62
256
6
ByLayer
370
18
48
1
60
0
100
AcDbEllipse
10
24.861023
20
-27.347952
30
0
11
-0.831125359747117
21
-0.853060159886292
31
0
210
0
220
0
230
1
40
0.987534
41
-0.246129575276519
42
0.233835969021893
0
ELLIPSE
5
127
100
AcDbEntity
8
1
62
256
6
ByLayer
370
18
48
1
60
0
100
AcDbEllipse
10
27.006528
20
-28.62151
30
0
11
-0.831125359747117
21
-0.853060159886292
31
0
210
0
220
0
230
1
40
0.987534
41
0.233835969021915
42
0.713801513320357
0
ELLIPSE
5
128
100
AcDbEntity
8
1
62
256
6
ByLayer
370
18
48
1
60
0
100
AcDbEllipse
10
30.17429
20
-18.511171
30
0
11
-0.831125359747117
21
-0.853060159886292
31
0
210
0
220
0
230
1
40
0.987534
41
-2.9077566845679
42
-2.42779114026945
0
ELLIPSE
5
129
100
AcDbEntity
8
1
62
256
6
ByLayer
370
18
48
1
60
0
100
AcDbEllipse
10
38.815319
20
-29.63578
30
0
11
-0.554083573164744
21
-0.568706773257528
31
0
210
0
220
0
230
1
40
0.987534
41
0.713801513320386
42
2.89546307831319
0
ELLIPSE
5
12A
100
AcDbEntity
8
1
62
256
6
ByLayer
370
18
48
1
60
0
100
AcDbEllipse
10
32.319795
20
-19.784729
30
0
11
-0.831125359747117
21
-0.853060159886292
31
0
210
0
220
0
230
1
40
0.987534
41
2.89546307831325
42
-2.90775668456788
0
POINT
5
6C
100
AcDbEntity
8
2
62
256
6
ByLayer
370
18
48
1
60
0
100
AcDbPoint
10
39.604469
20
70.275
30
0
39
0
210
0
220
0
230
1
50
360
0
POINT
5
6E
100
AcDbEntity
8
80
62
256
6
ByLayer
370
18
48
1
60
0
100
AcDbPoint
10
0
20
0
30
0
39
0
210
0
220
0
230
1
50
360
0
POINT
5
70
100
AcDbEntity
8
81
62
256
6
ByLayer
370
18
48
1
60
0
100
AcDbPoint
10
39.604469
20
-30.425
30
0
39
0
210
0
220
0
230
1
50
360
0
SPLINE
5
12B
100
AcDbEntity
8
1
62
256
6
ByLayer
370
18
48
1
60
0
100
AcDbSpline
70
4
71
3
72
8
73
4
40
0
40
0
40
0
40
0
40
1
40
1
40
1
40
1
41
1
10
6.41673185043516
20
-25.8209517219168
30
0
41
1
10
6.21690404907503
20
-25.7045370513023
30
0
41
1
10
6.01691370639708
20
-25.5671170753795
30
0
41
1
10
5.82823092411877
20
-25.4073493692088
30
0
0
SPLINE
5
12C
100
AcDbEntity
8
1
62
256
6
ByLayer
370
18
48
1
60
0
100
AcDbSpline
70
4
71
2
72
6
73
3
40
0
40
0
40
0
40
1
40
1
40
1
41
1
10
27.2652349526498
20
-18.4555348646381
30
0
41
1
10
28.0127899885601
20
-19.1307038093662
30
0
41
1
10
28.6779056353182
20
-19.8643001758891
30
0
0
SPLINE
5
12D
100
AcDbEntity
8
1
62
256
6
ByLayer
370
18
48
1
60
0
100
AcDbSpline
70
4
71
3
72
8
73
4
40
0
40
0
40
0
40
0
40
1
40
1
40
1
40
1
41
1
10
8.43654269411059
20
-15.3322920622767
30
0
41
1
10
9.09867270014956
20
-15.8768347407881
30
0
41
1
10
10.0561017237296
20
-16.7488276633595
30
0
41
1
10
11.0680797157468
20
-17.681134121935
30
0
0
SPLINE
5
12E
100
AcDbEntity
8
1
62
256
6
ByLayer
370
18
48
1
60
0
100
AcDbSpline
70
4
71
3
72
8
73
4
40
0
40
0
40
0
40
0
40
1
40
1
40
1
40
1
41
1
10
12.1997865572729
20
-17.4820278113969
30
0
41
1
10
11.6169334851625
20
-16.0125026189614
30
0
41
1
10
11.0224239258641
20
-14.6416732318516
30
0
41
1
10
10.560242894431
20
-13.8628083492867
30
0
0
SPLINE
5
12F
100
AcDbEntity
8
1
62
256
6
ByLayer
370
18
48
1
60
0
100
AcDbSpline
70
4
71
3
72
11
73
7
40
0
40
0
40
0
40
0
40
0.564783939443774
40
0.564783939443774
40
0.564783939443774
40
1
40
1
40
1
40
1
41
1
10
24.8683724820769
20
-27.6897533791916
30
0
41
1
10
24.5006963438045
20
-27.6845712385693
30
0
41
1
10
24.0815831434414
20
-27.6938587126287
30
0
41
1
10
23.6492699164704
20
-27.7454117082217
30
0
41
1
10
23.3133860198524
20
-27.7854655857388
30
0
41
1
10
22.9644447787441
20
-27.8436191574029
30
0
41
1
10
22.6163811781406
20
-27.9096562829909
30
0
0
SPLINE
5
130
100
AcDbEntity
8
1
62
256
6
ByLayer
370
18
48
1
60
0
100
AcDbSpline
70
4
71
3
72
8
73
4
40
0
40
0
40
0
40
0
40
1
40
1
40
1
40
1
41
1
10
30.1571490267829
20
-21.9121685246037
30
0
41
1
10
30.2138254285586
20
-21.9661111742773
30
0
41
1
10
30.2696097035376
20
-22.0254251522605
30
0
41
1
10
30.3234077475574
20
-22.0892115588407
30
0
0
SPLINE
5
131
100
AcDbEntity
8
1
62
256
6
ByLayer
370
18
48
1
60
0
100
AcDbSpline
70
4
71
3
72
8
73
4
40
0
40
0
40
0
40
0
40
1
40
1
40
1
40
1
41
1
10
24.8683724820769
20
-27.6897533791916
30
0
41
1
10
24.9748483242828
20
-27.691254082473
30
0
41
1
10
25.0816660860426
20
-27.6902470125125
30
0
41
1
10
25.1886918811315
20
-27.6869486947776
30
0
0
SPLINE
5
132
100
AcDbEntity
8
1
62
256
6
ByLayer
370
18
48
1
60
0
100
AcDbSpline
70
4
71
3
72
12
73
8
40
0
40
0
40
0
40
0
40
0.286978363858298
40
0.286978363858298
40
0.56999899518562
40
0.56999899518562
40
1
40
1
40
1
40
1
41
1
10
19.8076512851472
20
-23.5143400536501
30
0
41
1
10
19.9207524632054
20
-23.3093009422158
30
0
41
1
10
20.0174471818291
20
-23.0942914814515
30
0
41
1
10
20.1730560484059
20
-22.6565645288131
30
0
41
1
10
20.2330078222192
20
-22.4324917979691
30
0
41
1
10
20.3370805856803
20
-21.8642385352518
30
0
41
1
10
20.3577979509761
20
-21.5128626854529
30
0
41
1
10
20.3353406700131
20
-21.168512815771
30
0
0
SPLINE
5
133
100
AcDbEntity
8
1
62
256
6
ByLayer
370
18
48
1
60
0
100
AcDbSpline
70
4
71
3
72
8
73
4
40
0
40
0
40
0
40
0
40
1
40
1
40
1
40
1
41
1
10
15.3003681886847
20
-27.2574817888045
30
0
41
1
10
15.4977355852095
20
-26.9974807133473
30
0
41
1
10
15.7541272494312
20
-26.3952293647392
30
0
41
1
10
16.018898752434
20
-25.5696890037006
30
0
0
SPLINE
5
134
100
AcDbEntity
8
1
62
256
6
ByLayer
370
18
48
1
60
0
100
AcDbSpline
70
4
71
3
72
8
73
4
40
0
40
0
40
0
40
0
40
1
40
1
40
1
40
1
41
1
10
10.9747449399564
20
-23.701968676566
30
0
41
1
10
10.9318577186861
20
-23.6465416781514
30
0
41
1
10
10.8860369026702
20
-23.5922700925337
30
0
41
1
10
10.8372168447012
20
-23.5392903544843
30
0
0
SPLINE
5
135
100
AcDbEntity
8
1
62
256
6
ByLayer
370
18
48
1
60
0
100
AcDbSpline
70
4
71
3
72
8
73
4
40
0
40
0
40
0
40
0
40
1
40
1
40
1
40
1
41
1
10
28.6779678358375
20
-19.864403787962
30
0
41
1
10
28.9241959219655
20
-20.1933825908901
30
0
41
1
10
29.1707158609675
20
-20.5234632008502
30
0
41
1
10
29.4162305323133
20
-20.8529185137635
30
0
0
SPLINE
5
136
100
AcDbEntity
8
1
62
256
6
ByLayer
370
18
48
1
60
0
100
AcDbSpline
70
4
71
3
72
8
73
4
40
0
40
0
40
0
40
0
40
1
40
1
40
1
40
1
41
1
10
6.44765409992613
20
-23.4505043477138
30
0
41
1
10
6.44251000379876
20
-23.4733722718295
30
0
41
1
10
6.43788395303528
20
-23.4962435014275
30
0
41
1
10
6.43375198028417
20
-23.5191180908154
30
0
0
SPLINE
5
137
100
AcDbEntity
8
1
62
256
6
ByLayer
370
18
48
1
60
0
100
AcDbSpline
70
4
71
3
72
20
73
16
40
0
40
0
40
0
40
0
40
0.110576036200127
40
0.110576036200127
40
0.197179369122811
40
0.197179369122811
40
0.284291117387372
40
0.284291117387372
40
0.365904217918087
40
0.365904217918087
40
0.497270233392082
40
0.497270233392082
40
0.733496364826757
40
0.733496364826757
40
1
40
1
40
1
40
1
41
1
10
25.6902765129433
20
-25.3926022794971
30
0
41
1
10
25.6743325242788
20
-25.3585655780457
30
0
41
1
10
25.6661464427911
20
-25.3185310385163
30
0
41
1
10
25.673966717659
20
-25.2366100302729
30
0
41
1
10
25.6854653546067
20
-25.1961316062611
30
0
41
1
10
25.7264291413339
20
-25.1109587710847
30
0
41
1
10
25.7566188922899
20
-25.0651563103836
30
0
41
1
10
25.8277880757678
20
-24.9784909916949
30
0
41
1
10
25.868619778459
20
-24.9365276163384
30
0
41
1
10
25.9820630954019
20
-24.8333593378754
30
0
41
1
10
26.0606138007967
20
-24.7740203788507
30
0
41
1
10
26.281984353767
20
-24.6249872593516
30
0
41
1
10
26.4307762851731
20
-24.5444569488234
30
0
41
1
10
26.7406227913264
20
-24.3935790699119
30
0
41
1
10
26.9042218106968
20
-24.3246234203165
30
0
41
1
10
27.0650751428688
20
-24.2625861493778
30
0
0
SPLINE
5
138
100
AcDbEntity
8
1
62
256
6
ByLayer
370
18
48
1
60
0
100
AcDbSpline
70
4
71
3
72
10
73
6
40
0
40
0
40
0
40
0
40
0.5
40
0.5
40
1
40
1
40
1
40
1
41
1
10
24.9945365075059
20
-17.3376385249307
30
0
41
1
10
23.9190038015941
20
-16.5844557899947
30
0
41
1
10
22.789347369384
20
-15.9202977505298
30
0
41
1
10
20.4010368138013
20
-14.8041618180444
30
0
41
1
10
19.1671597059541
20
-14.3142047824176
30
0
41
1
10
17.8692925483176
20
-14.0247314545263
30
0
0
SPLINE
5
139
100
AcDbEntity
8
1
62
256
6
ByLayer
370
18
48
1
60
0
100
AcDbSpline
70
4
71
3
72
10
73
6
40
0
40
0
40
0
40
0
40
0.655488757716267
40
0.655488757716267
40
1
40
1
40
1
40
1
41
1
10
10.6943083532025
20
-12.3052066836266
30
0
41
1
10
10.3427158216792
20
-12.1964906204589
30
0
41
1
10
9.93874079107894
20
-12.1154716589945
30
0
41
1
10
9.27958855166099
20
-12.1087967274825
30
0
41
1
10
9.04212652465969
20
-12.1280262788238
30
0
41
1
10
8.80469314027675
20
-12.1755763992688
30
0
0
SPLINE
5
13A
100
AcDbEntity
8
1
62
256
6
ByLayer
370
18
48
1
60
0
100
AcDbSpline
70
4
71
3
72
10
73
6
40
0
40
0
40
0
40
0
40
0.264715639145579
40
0.264715639145579
40
1
40
1
40
1
40
1
41
1
10
28.2680703660742
20
-23.8307565842134
30
0
41
1
10
28.1854107748118
20
-23.7667779042841
30
0
41
1
10
28.1028737495373
20
-23.7013258783718
30
0
41
1
10
27.791649039218
20
-23.4493831006
30
0
41
1
10
27.5637866457392
20
-23.2545913767415
30
0
41
1
10
27.3372024418128
20
-23.0528524531087
30
0
0
SPLINE
5
13B
100
AcDbEntity
8
1
62
256
6
ByLayer
370
18
48
1
60
0
100
AcDbSpline
70
4
71
3
72
12
73
8
40
0
40
0
40
0
40
0
40
0.108854002841674
40
0.502629245107334
40
0.699516866240164
40
0.896404487372994
40
1
40
1
40
1
40
1
41
1.0244126255267
10
19.8076511363045
20
-23.5143400360397
30
0
41
1.02394775696077
10
20.1458969317027
20
-23.5543593979418
30
0
41
1.02173322391444
10
21.7485881806124
20
-23.7346071187939
30
0
41
1.01876555595691
10
24.0139134946629
20
-23.9247032635466
30
0
41
1.01610930227499
10
25.5389916328798
20
-24.0114563762471
30
0
41
1.01814069306376
10
26.2245464533397
20
-24.139694713796
30
0
41
1.0200519600697
10
26.8396526119335
20
-24.2316634519343
30
0
41
1.02076673234771
10
27.0650751428508
20
-24.2625861493754
30
0
0
SPLINE
5
13C
100
AcDbEntity
8
1
62
256
6
ByLayer
370
18
48
1
60
0
100
AcDbSpline
70
4
71
3
72
11
73
7
40
0
40
0
40
0
40
0
40
0.423407924946024
40
0.740963868655542
40
0.899741840510301
40
1
40
1
40
1
40
1
41
1.02805999725224
10
15.3003681886847
20
-27.2574817888045
30
0
41
1.02767136955277
10
16.1602395959975
20
-27.3384855805526
30
0
41
1.02349884684923
10
19.3753894053817
20
-26.8254171389511
30
0
41
1.01876555595691
10
23.4565908536116
20
-25.7462809962704
30
0
41
1.01635405201144
10
24.9985694189133
20
-25.3268789921052
30
0
41
1.01722454828215
10
25.4885551630538
20
-25.3678930208115
30
0
41
1.0177432798788
10
25.6902765128598
20
-25.3926022794869
30
0
0
SPLINE
5
13D
100
AcDbEntity
8
1
62
256
6
ByLayer
370
18
48
1
60
0
100
AcDbSpline
70
4
71
2
72
6
73
3
40
0
40
0
40
0
40
1
40
1
40
1
41
1.02805999725224
10
15.3003681886847
20
-27.2574817888045
30
0
41
1.02805999725224
10
15.0106299159293
20
-27.639167233533
30
0
41
1.02805999725224
10
14.720891643174
20
-28.0208526782615
30
0
0
SPLINE
5
13E
100
AcDbEntity
8
1
62
256
6
ByLayer
370
18
48
1
60
0
100
AcDbSpline
70
4
71
3
72
8
73
4
40
0
40
0
40
0
40
0
40
1
40
1
40
1
40
1
41
1
10
10.9747449399564
20
-23.7019686765659
30
0
41
1
10
11.4993157714077
20
-24.379918559585
30
0
41
1
10
12.2707590575613
20
-24.8545696507413
30
0
41
1
10
13.1751587338787
20
-25.0473449302858
30
0
0
SPLINE
5
13F
100
AcDbEntity
8
1
62
256
6
ByLayer
370
18
48
1
60
0
100
AcDbSpline
70
4
71
3
72
8
73
4
40
0
40
0
40
0
40
0
40
1
40
1
40
1
40
1
41
1
10
24.9945365075062
20
-17.3376385249309
30
0
41
1
10
25.6593525794515
20
-17.8032012963323
30
0
41
1
10
26.3482819310454
20
-18.1611959044899
30
0
41
1
10
26.9682544023797
20
-18.3547916644779
30
0
0
SPLINE
5
140
100
AcDbEntity
8
1
62
256
6
ByLayer
370
18
48
1
60
0
100
AcDbSpline
70
4
71
3
72
8
73
4
40
0
40
0
40
0
40
0
40
1
40
1
40
1
40
1
41
1
10
9.8997330893402
20
-22.8749837958484
30
0
41
1
10
8.59685928315696
20
-23.2308956425923
30
0
41
1
10
7.3943657757892
20
-23.4860005430501
30
0
41
1
10
6.59657784891414
20
-23.511800262363
30
0
0
SPLINE
5
141
100
AcDbEntity
8
1
62
256
6
ByLayer
370
18
48
1
60
0
100
AcDbSpline
70
4
71
3
72
8
73
4
40
0
40
0
40
0
40
0
40
1
40
1
40
1
40
1
41
1
10
27.265319459416
20
-18.4553634558522
30
0
41
1
10
27.1670892142566
20
-18.4195614217648
30
0
41
1
10
27.0680573244272
20
-18.3859566329824
30
0
41
1
10
26.9682544023796
20
-18.3547916644779
30
0
0
SPLINE
5
142
100
AcDbEntity
8
1
62
256
6
ByLayer
370
18
48
1
60
0
100
AcDbSpline
70
4
71
2
72
6
73
3
40
0
40
0
40
0
40
1
40
1
40
1
41
1
10
27.0769100158893
20
-26.9815665166715
30
0
41
1
10
26.1573160313854
20
-27.3775634146126
30
0
41
1
10
25.1886886829518
20
-27.6867581622559
30
0
0
SPLINE
5
143
100
AcDbEntity
8
1
62
256
6
ByLayer
370
18
48
1
60
0
100
AcDbSpline
70
4
71
3
72
8
73
4
40
0
40
0
40
0
40
0
40
1
40
1
40
1
40
1
41
1
10
12.1997865572729
20
-17.4820278113969
30
0
41
1
10
12.267027288857
20
-17.4513768841861
30
0
41
1
10
12.3327385469545
20
-17.4178650020506
30
0
41
1
10
12.3964709348915
20
-17.3817286653468
30
0
0
SPLINE
5
144
100
AcDbEntity
8
1
62
256
6
ByLayer
370
18
48
1
60
0
100
AcDbSpline
70
4
71
3
72
10
73
6
40
0
40
0
40
0
40
0
40
0.5
40
0.5
40
1
40
1
40
1
40
1
41
1
10
6.43375198028423
20
-23.5191180908154
30
0
41
1
10
6.30443337508945
20
-24.2350255210464
30
0
41
1
10
6.36651732328312
20
-24.8894489369731
30
0
41
1
10
6.65431948425248
20
-25.7683196461303
30
0
41
1
10
6.83539750540041
20
-26.0351878273663
30
0
41
1
10
7.18013573889101
20
-26.2632861421513
30
0
0
SPLINE
5
145
100
AcDbEntity
8
1
62
256
6
ByLayer
370
18
48
1
60
0
100
AcDbSpline
70
4
71
3
72
10
73
6
40
0
40
0
40
0
40
0
40
0.5
40
0.5
40
1
40
1
40
1
40
1
41
1
10
28.1650611499288
20
-26.4149542484341
30
0
41
1
10
27.4414128891775
20
-26.6382101813173
30
0
41
1
10
26.8716359669349
20
-26.5608753518618
30
0
41
1
10
26.106266323534
20
-26.1229006712631
30
0
41
1
10
25.8693616072724
20
-25.7750063386197
30
0
41
1
10
25.6902765129421
20
-25.392602279497
30
0
0
SPLINE
5
146
100
AcDbEntity
8
1
62
256
6
ByLayer
370
18
48
1
60
0
100
AcDbSpline
70
4
71
1
72
4
73
2
40
0
40
0
40
1
40
1
41
1
10
17.9587296429766
20
-15.4398161573442
30
0
41
1
10
17.8692925483176
20
-14.0247314545263
30
0
0
SPLINE
5
147
100
AcDbEntity
8
1
62
256
6
ByLayer
370
18
48
1
60
0
100
AcDbSpline
70
4
71
3
72
8
73
4
40
0
40
0
40
0
40
0
40
1
40
1
40
1
40
1
41
1
10
11.0680797157469
20
-17.681134121935
30
0
41
1
10
10.8146831944219
20
-17.6692450511769
30
0
41
1
10
10.5720203745152
20
-17.6288348340749
30
0
41
1
10
10.3392036766239
20
-17.5674938210014
30
0
0
SPLINE
5
148
100
AcDbEntity
8
1
62
256
6
ByLayer
370
18
48
1
60
0
100
AcDbSpline
70
4
71
3
72
8
73
4
40
0
40
0
40
0
40
0
40
1
40
1
40
1
40
1
41
1
10
9.8997330893402
20
-22.8749837958484
30
0
41
1
10
9.66817981252723
20
-22.7659912407121
30
0
41
1
10
9.43476193020172
20
-22.6844829325501
30
0
41
1
10
9.20194523231055
20
-22.6231419194765
30
0
0
SPLINE
5
149
100
AcDbEntity
8
1
62
256
6
ByLayer
370
18
48
1
60
0
100
AcDbSpline
70
4
71
3
72
12
73
8
40
0
40
0
40
0
40
0
40
0.108853988607129
40
0.502629237162303
40
0.699516861439889
40
0.896404485717476
40
1
40
1
40
1
40
1
41
1.02441262532206
10
20.3353406700133
20
-21.1685128157711
30
0
41
1.02394775682001
10
20.6615151616558
20
-21.2621945783191
30
0
41
1.02173322384668
10
22.2043232338982
20
-21.7086509244516
30
0
41
1.01876555595691
10
24.3684273591735
20
-22.3487225760055
30
0
41
1.01610930227499
10
25.8146183490793
20
-22.7861661261616
30
0
41
1.01814069306376
10
26.5042701034009
20
-22.8961916678546
30
0
41
1.02005196006971
10
27.1145551956989
20
-23.0095923107565
30
0
41
1.02076673234773
10
27.3372024418026
20
-23.0528524531067
30
0
0
SPLINE
5
14A
100
AcDbEntity
8
1
62
256
6
ByLayer
370
18
48
1
60
0
100
AcDbSpline
70
4
71
3
72
12
73
8
40
0
40
0
40
0
40
0
40
0.466938972358624
40
0.466938972358624
40
0.928803236876551
40
0.928803236876551
40
1
40
1
40
1
40
1
41
1
10
10.8372168447012
20
-23.5392903544843
30
0
41
1
10
10.7222570172855
20
-23.4145354525842
30
0
41
1
10
10.5832150446342
20
-23.2931361174761
30
0
41
1
10
10.2895233708884
20
-23.0822546054484
30
0
41
1
10
10.1313591721075
20
-22.9892039398781
30
0
41
1
10
9.94899206065924
20
-22.8984897314579
30
0
41
1
10
9.9243706057124
20
-22.8865807203169
30
0
41
1
10
9.8997330893402
20
-22.8749837958484
30
0
0
SPLINE
5
14B
100
AcDbEntity
8
1
62
256
6
ByLayer
370
18
48
1
60
0
100
AcDbSpline
70
4
71
3
72
10
73
6
40
0
40
0
40
0
40
0
40
0.967465556419478
40
0.967465556419478
40
1
40
1
40
1
40
1
41
1
10
27.0650751428688
20
-24.2625861493778
30
0
41
1
10
27.456869783891
20
-24.111403530519
30
0
41
1
10
27.846165579895
20
-23.9698940468234
30
0
41
1
10
28.242293162765
20
-23.8392138697026
30
0
41
1
10
28.2551853330184
20
-23.834976207272
30
0
41
1
10
28.26807036609
20
-23.8307565842081
30
0
0
SPLINE
5
14C
100
AcDbEntity
8
1
62
256
6
ByLayer
370
18
48
1
60
0
100
AcDbSpline
70
4
71
3
72
11
73
7
40
0
40
0
40
0
40
0
40
0.423407924939451
40
0.74096386864404
40
0.899741840496334
40
1
40
1
40
1
40
1
41
1.02805999725224
10
17.9587296429766
20
-15.4398161573442
30
0
41
1.02767136955277
10
18.771343916306
20
-15.7309001124118
30
0
41
1.02349884684923
10
21.445604682053
20
-17.6223375936568
30
0
41
1.01876555595691
10
24.6851978288258
20
-20.2845457601277
30
0
41
1.01635405201137
10
25.9130206082807
20
-21.2617138226647
30
0
41
1.01722454828226
10
26.3829564499074
20
-21.3918590880909
30
0
41
1.01774327987904
10
26.5802217813742
20
-21.4363774419982
30
0
0
SPLINE
5
14D
100
AcDbEntity
8
1
62
256
6
ByLayer
370
18
48
1
60
0
100
AcDbSpline
70
4
71
3
72
8
73
4
40
0
40
0
40
0
40
0
40
1
40
1
40
1
40
1
41
1
10
14.9903981738405
20
-16.9777527731042
30
0
41
1
10
14.088758757938
20
-16.7855658506622
30
0
41
1
10
13.1696389329599
20
-16.9433415279563
30
0
41
1
10
12.3964709348915
20
-17.3817286653468
30
0
0
SPLINE
5
14E
100
AcDbEntity
8
1
62
256
6
ByLayer
370
18
48
1
60
0
100
AcDbSpline
70
4
71
3
72
10
73
6
40
0
40
0
40
0
40
0
40
0.5
40
0.5
40
1
40
1
40
1
40
1
41
1
10
26.5802217813735
20
-21.4363774419981
30
0
41
1
10
26.9337014978121
20
-21.0421245571855
30
0
41
1
10
27.3163602579286
20
-20.7054834361964
30
0
41
1
10
28.2577150329564
20
-20.379773131778
30
0
41
1
10
28.8286512607519
20
-20.4193013936667
30
0
41
1
10
29.4162305323134
20
-20.8529185137635
30
0
0
SPLINE
5
14F
100
AcDbEntity
8
1
62
256
6
ByLayer
370
18
48
1
60
0
100
AcDbSpline
70
4
71
3
72
8
73
4
40
0
40
0
40
0
40
0
40
1
40
1
40
1
40
1
41
1
10
17.7960960330387
20
-17.6692120801116
30
0
41
1
10
17.5367991353932
20
-17.5534136903398
30
0
41
1
10
17.2617095677009
20
-17.461889046424
30
0
41
1
10
16.9813285659449
20
-17.4021250644061
30
0
0
SPLINE
5
150
100
AcDbEntity
8
1
62
256
6
ByLayer
370
18
48
1
60
0
100
AcDbSpline
70
4
71
3
72
8
73
4
40
0
40
0
40
0
40
0
40
1
40
1
40
1
40
1
41
1
10
16.0188987371881
20
-25.5696890033734
30
0
41
1
10
15.7292188202595
20
-25.5634718571009
30
0
41
1
10
15.44481026301
20
-25.5311273988715
30
0
41
1
10
15.166089125983
20
-25.4717172215878
30
0
0
SPLINE
5
151
100
AcDbEntity
8
1
62
256
6
ByLayer
370
18
48
1
60
0
100
AcDbSpline
70
4
71
3
72
8
73
4
40
0
40
0
40
0
40
0
40
1
40
1
40
1
40
1
41
1
10
29.5301584542626
20
-25.61557735662
30
0
41
1
10
29.4530449269178
20
-25.6554392276386
30
0
41
1
10
29.375835944498
20
-25.691368140111
30
0
41
1
10
29.299939245117
20
-25.7228687434874
30
0
0
SPLINE
5
152
100
AcDbEntity
8
1
62
256
6
ByLayer
370
18
48
1
60
0
100
AcDbSpline
70
4
71
3
72
8
73
4
40
0
40
0
40
0
40
0
40
1
40
1
40
1
40
1
41
1
10
7.90188144013905
20
-25.680473980747
30
0
41
1
10
8.60191473738735
20
-25.3980607687371
30
0
41
1
10
9.69509417309422
20
-24.5596913599605
30
0
41
1
10
10.8372168446946
20
-23.5392903544786
30
0
0
SPLINE
5
153
100
AcDbEntity
8
1
62
256
6
ByLayer
370
18
48
1
60
0
100
AcDbSpline
70
4
71
3
72
20
73
16
40
0
40
0
40
0
40
0
40
0.332873226652392
40
0.332873226652392
40
0.501657261698202
40
0.501657261698202
40
0.631212321676512
40
0.631212321676512
40
0.722542323637679
40
0.722542323637679
40
0.814765347404218
40
0.814765347404218
40
0.896421359038841
40
0.896421359038841
40
1
40
1
40
1
40
1
41
1
10
27.3372024418128
20
-23.0528524531087
30
0
41
1
10
27.1845794928884
20
-22.9170266592683
30
0
41
1
10
27.0323769748092
20
-22.7679640708419
30
0
41
1
10
26.8170779822947
20
-22.5087661574259
30
0
41
1
10
26.746302510251
20
-22.4143731111026
30
0
41
1
10
26.6341116403721
20
-22.2333274369042
30
0
41
1
10
26.5889093817063
20
-22.148383697737
30
0
41
1
10
26.5285297096797
20
-21.9987583178911
30
0
41
1
10
26.5080948191572
20
-21.9341667589717
30
0
41
1
10
26.4825400281972
20
-21.8089267100061
30
0
41
1
10
26.4774195541016
20
-21.7466794767378
30
0
41
1
10
26.4836132060967
20
-21.6423802222074
30
0
41
1
10
26.4930560407491
20
-21.5975640012626
30
0
41
1
10
26.5250762311845
20
-21.5098522213007
30
0
41
1
10
26.5506741936595
20
-21.4693282752656
30
0
41
1
10
26.5802217813735
20
-21.4363774419981
30
0
0
SPLINE
5
154
100
AcDbEntity
8
1
62
256
6
ByLayer
370
18
48
1
60
0
100
AcDbSpline
70
4
71
3
72
8
73
4
40
0
40
0
40
0
40
0
40
1
40
1
40
1
40
1
41
1
10
27.0769874789058
20
-26.9815136540573
30
0
41
1
10
27.4389577853476
20
-26.7959639092583
30
0
41
1
10
27.8022820500795
20
-26.6067944139176
30
0
41
1
10
28.1650611499523
20
-26.4149542484269
30
0
0
SPLINE
5
155
100
AcDbEntity
8
1
62
256
6
ByLayer
370
18
48
1
60
0
100
AcDbSpline
70
4
71
3
72
8
73
4
40
0
40
0
40
0
40
0
40
1
40
1
40
1
40
1
41
1
10
17.7960960443783
20
-17.6692120583174
30
0
41
1
10
17.9311593743796
20
-16.7172987337898
30
0
41
1
10
17.9891915598673
20
-15.9217883499218
30
0
41
1
10
17.9587296429766
20
-15.4398161573442
30
0
0
SPLINE
5
156
100
AcDbEntity
8
1
62
256
6
ByLayer
370
18
48
1
60
0
100
AcDbSpline
70
4
71
3
72
15
73
11
40
0
40
0
40
0
40
0
40
0.322163720426462
40
0.322163720426462
40
0.644833452600231
40
0.644833452600231
40
0.912233455904558
40
0.912233455904558
40
0.912233455904558
40
1
40
1
40
1
40
1
41
1
10
16.018898752434
20
-25.5696890037006
30
0
41
1
10
16.503288457548
20
-25.5791443417324
30
0
41
1
10
16.9959466849041
20
-25.5049154844211
30
0
41
1
10
17.917949443335
20
-25.2151451183118
30
0
41
1
10
18.3605096842057
20
-24.9951811385715
30
0
41
1
10
19.0692491723988
20
-24.4721359626425
30
0
41
1
10
19.3605569034739
20
-24.1824391416601
30
0
41
1
10
19.5938040783033
20
-23.8543948220323
30
0
41
1
10
19.671317671811
20
-23.7453778786856
30
0
41
1
10
19.7429417107753
20
-23.6316360931359
30
0
41
1
10
19.807651285148
20
-23.51434005365
30
0
0
SPLINE
5
157
100
AcDbEntity
8
1
62
256
6
ByLayer
370
18
48
1
60
0
100
AcDbSpline
70
4
71
3
72
10
73
6
40
0
40
0
40
0
40
0
40
0.5
40
0.5
40
1
40
1
40
1
40
1
41
1
10
10.2455268043378
20
-12.6361826560431
30
0
41
1
10
9.81346294470308
20
-12.7885352899854
30
0
41
1
10
9.51181262680336
20
-13.0576486286824
30
0
41
1
10
8.84321053287761
20
-13.8893776629631
30
0
41
1
10
8.4888829891359
20
-14.5237835105647
30
0
41
1
10
8.30149282297884
20
-15.2161325319663
30
0
0
SPLINE
5
158
100
AcDbEntity
8
1
62
256
6
ByLayer
370
18
48
1
60
0
100
AcDbSpline
70
4
71
3
72
15
73
11
40
0
40
0
40
0
40
0
40
0.227604479949749
40
0.227604479949749
40
0.479423709218441
40
0.479423709218441
40
0.785574270382839
40
0.785574270382839
40
0.785574270382839
40
1
40
1
40
1
40
1
41
1
10
20.3353406700131
20
-21.168512815771
30
0
41
1
10
20.3132582838402
20
-20.8301447657076
30
0
41
1
10
20.2398757884231
20
-20.487774852261
30
0
41
1
10
19.9970582612468
20
-19.8068581257915
30
0
41
1
10
19.8162505931109
20
-19.4643432996329
30
0
41
1
10
19.3314759419649
20
-18.7778437473873
30
0
41
1
10
19.0027180509582
20
-18.4393317311487
30
0
41
1
10
18.6345182196155
20
-18.1628572831833
30
0
41
1
10
18.3750451699315
20
-17.9680237659823
30
0
41
1
10
18.0922845766196
20
-17.8013323184865
30
0
41
1
10
17.7960960407946
20
-17.6692120835753
30
0
0
SPLINE
5
159
100
AcDbEntity
8
1
62
256
6
ByLayer
370
18
48
1
60
0
100
AcDbSpline
70
4
71
3
72
8
73
4
40
0
40
0
40
0
40
0
40
1
40
1
40
1
40
1
41
1
10
8.28476389458626
20
-15.2836881886384
30
0
41
1
10
8.28990799071357
20
-15.2608202645227
30
0
41
1
10
8.29549100539225
20
-15.2383074017467
30
0
41
1
10
8.30149282297884
20
-15.2161325319663
30
0
0
SPLINE
5
15A
100
AcDbEntity
8
1
62
256
6
ByLayer
370
18
48
1
60
0
100
AcDbSpline
70
4
71
3
72
12
73
8
40
0
40
0
40
0
40
0
40
0.471343086678518
40
0.471343086678518
40
0.892619726108234
40
0.892619726108234
40
1
40
1
40
1
40
1
41
1
10
11.0680797157468
20
-17.681134121935
30
0
41
1
10
11.2445041011636
20
-17.6894117493891
30
0
41
1
10
11.4289747106378
20
-17.6821345040424
30
0
41
1
10
11.7722981972316
20
-17.6297017883041
30
0
41
1
10
11.9353335375701
20
-17.587730916113
30
0
41
1
10
12.1244127140822
20
-17.5150033225279
30
0
41
1
10
12.1625603007484
20
-17.4989969795211
30
0
41
1
10
12.1997865572729
20
-17.4820278113969
30
0
0
SPLINE
5
15B
100
AcDbEntity
8
1
62
256
6
ByLayer
370
18
48
1
60
0
100
AcDbSpline
70
4
71
3
72
10
73
6
40
0
40
0
40
0
40
0
40
0.5
40
0.5
40
1
40
1
40
1
40
1
41
1
10
14.720891643174
20
-28.0208526782615
30
0
41
1
10
16.0281513514691
20
-28.2866310716752
30
0
41
1
10
17.3434675332229
20
-28.3416539053983
30
0
41
1
10
19.9798298112568
20
-28.3018062790682
30
0
41
1
10
21.3097473539778
20
-28.157560234436
30
0
41
1
10
22.6163811781404
20
-27.909656282991
30
0
0
INSERT
5
16E
100
AcDbEntity
8
SK2
62
256
6
ByLayer
370
25
48
1
60
0
100
AcDbBlockReference
2
DimnDraft3D11
10
0
20
0
30
0
41
1
42
1
43
1
50
0
210
0
220
0
230
1
0
LINE
5
72
100
AcDbEntity
8
1
62
256
6
ByLayer
370
18
48
1
60
0
100
AcDbLine
10
14.021124
20
-21.508774
30
0
11
13.840734
21
-21.333022
31
0
39
0
210
0
220
0
230
1
0
LINE
5
74
100
AcDbEntity
8
1
62
256
6
ByLayer
370
18
48
1
60
0
100
AcDbLine
10
12.172176
20
-23.925787
30
0
11
12.360003
21
-24.108785
31
0
39
0
210
0
220
0
230
1
0
LINE
5
75
100
AcDbEntity
8
1
62
256
6
ByLayer
370
18
48
1
60
0
100
AcDbLine
10
17.942709
20
-18.378742
30
0
11
17.754882
21
-18.195744
31
0
39
0
210
0
220
0
230
1
0
LINE
5
76
100
AcDbEntity
8
1
62
256
6
ByLayer
370
18
48
1
60
0
100
AcDbLine
10
33.15092
20
-18.931669
30
0
11
32.434995
21
-18.234153
31
0
39
0
210
0
220
0
230
1
0
LINE
5
77
100
AcDbEntity
8
1
62
256
6
ByLayer
370
18
48
1
60
0
100
AcDbLine
10
6.414431
20
-25.81961
30
0
11
7.26131
21
-26.313706
31
0
39
0
210
0
220
0
230
1
0
LINE
5
78
100
AcDbEntity
8
1
62
256
6
ByLayer
370
18
48
1
60
0
100
AcDbLine
10
31.748622
20
-17.136507
30
0
11
31.251139
21
-16.651816
31
0
39
0
210
0
220
0
230
1
0
LINE
5
79
100
AcDbEntity
8
1
62
256
6
ByLayer
370
18
48
1
60
0
100
AcDbLine
10
23.594402
20
-27.776715
30
0
11
24.029897
21
-28.201012
31
0
39
0
210
0
220
0
230
1
0
LINE
5
7A
100
AcDbEntity
8
1
62
256
6
ByLayer
370
18
48
1
60
0
100
AcDbLine
10
23.502863
20
-28.11645
30
0
11
24.000346
21
-28.601141
31
0
39
0
210
0
220
0
230
1
0
LINE
5
7B
100
AcDbEntity
8
1
62
256
6
ByLayer
370
18
48
1
60
0
100
AcDbLine
10
15.105125
20
-19.906107
30
0
11
15.285515
21
-20.081859
31
0
39
0
210
0
220
0
230
1
0
LINE
5
7C
100
AcDbEntity
8
1
62
256
6
ByLayer
370
18
48
1
60
0
100
AcDbLine
10
16.266714
20
-20.964261
30
0
11
16.447105
21
-21.140014
31
0
39
0
210
0
220
0
230
1
0
LINE
5
7D
100
AcDbEntity
8
1
62
256
6
ByLayer
370
18
48
1
60
0
100
AcDbLine
10
15.182714
20
-22.566929
30
0
11
15.002323
21
-22.391177
31
0
39
0
210
0
220
0
230
1
0
LINE
5
7E
100
AcDbEntity
8
1
62
256
6
ByLayer
370
18
48
1
60
0
100
AcDbLine
10
10.17813
20
-23.020786
30
0
11
9.677108
21
-22.728475
31
0
39
0
210
0
220
0
230
1
0
LINE
5
7F
100
AcDbEntity
8
80
62
256
6
ByLayer
370
18
48
1
60
0
100
AcDbLine
10
0
20
0
30
0
11
-5
21
0
31
0
39
0
210
0
220
0
230
1
0
LINE
5
80
100
AcDbEntity
8
81
62
256
6
ByLayer
370
18
48
1
60
0
100
AcDbLine
10
39.604469
20
-30.425
30
0
11
49.604469
21
-30.425
31
0
39
0
210
0
220
0
230
1
0
LINE
5
81
100
AcDbEntity
8
1
62
256
6
ByLayer
370
18
48
1
60
0
100
AcDbLine
10
15.024944
20
-19.794582
30
0
11
15.20277
21
-19.967836
31
0
39
0
210
0
220
0
230
1
0
LINE
5
82
100
AcDbEntity
8
1
62
256
6
ByLayer
370
18
48
1
60
0
100
AcDbLine
10
23.849687
20
-27.975322
30
0
11
23.706119
21
-27.740795
31
0
39
0
210
0
220
0
230
1
0
LINE
5
83
100
AcDbEntity
8
1
62
256
6
ByLayer
370
18
48
1
60
0
100
AcDbLine
10
24.501882
20
-17.0277
30
0
11
30.250973
21
-17.328997
31
0
39
0
210
0
220
0
230
1
0
LINE
5
84
100
AcDbEntity
8
1
62
256
6
ByLayer
370
18
48
1
60
0
100
AcDbLine
10
30.20238
20
-17.281653
30
0
11
30.250973
21
-17.328997
31
0
39
0
210
0
220
0
230
1
0
LINE
5
85
100
AcDbEntity
8
1
62
256
6
ByLayer
370
18
48
1
60
0
100
AcDbLine
10
23.849687
20
-27.975322
30
0
11
23.648758
21
-27.77956
31
0
39
0
210
0
220
0
230
1
0
LINE
5
86
100
AcDbEntity
8
1
62
256
6
ByLayer
370
18
48
1
60
0
100
AcDbLine
10
30.787597
20
-17.491147
30
0
11
30.599252
21
-17.307646
31
0
39
0
210
0
220
0
230
1
0
LINE
5
87
100
AcDbEntity
8
1
62
256
6
ByLayer
370
18
48
1
60
0
100
AcDbLine
10
32.217177
20
-18.067189
30
0
11
30.836209
21
-17.247456
31
0
39
0
210
0
220
0
230
1
0
LINE
5
88
100
AcDbEntity
8
1
62
256
6
ByLayer
370
18
48
1
60
0
100
AcDbLine
10
12.768361
20
-24.810006
30
0
11
14.120365
21
-25.096096
31
0
39
0
210
0
220
0
230
1
0
LINE
5
89
100
AcDbEntity
8
1
62
256
6
ByLayer
370
18
48
1
60
0
100
AcDbLine
10
13.987254
20
10.276426
30
0
11
8.93953
21
-12.163078
31
0
39
0
210
0
220
0
230
1
0
LINE
5
8A
100
AcDbEntity
8
1
62
256
6
ByLayer
370
18
48
1
60
0
100
AcDbLine
10
5.942358
20
-25.486913
30
0
11
5.63895
21
-26.835707
31
0
39
0
210
0
220
0
230
1
0
LINE
5
8B
100
AcDbEntity
8
1
62
256
6
ByLayer
370
18
48
1
60
0
100
AcDbLine
10
12.795939
20
-10.398862
30
0
11
12.25747
21
-12.79261
31
0
39
0
210
0
220
0
230
1
0
LINE
5
8C
100
AcDbEntity
8
1
62
256
6
ByLayer
370
18
48
1
60
0
100
AcDbLine
10
9.101001
20
-26.824597
30
0
11
9.058192
21
-27.014902
31
0
39
0
210
0
220
0
230
1
0
LINE
5
8D
100
AcDbEntity
8
1
62
256
6
ByLayer
370
18
48
1
60
0
100
AcDbLine
10
21.190655
20
-13.879139
30
0
11
22.345149
21
-15.765081
31
0
39
0
210
0
220
0
230
1
0
LINE
5
8E
100
AcDbEntity
8
1
62
256
6
ByLayer
370
18
48
1
60
0
100
AcDbLine
10
10.309214
20
-27.080466
30
0
11
9.058192
21
-27.014902
31
0
39
0
210
0
220
0
230
1
0
LINE
5
8F
100
AcDbEntity
8
1
62
256
6
ByLayer
370
18
48
1
60
0
100
AcDbLine
10
24.19512
20
-16.834615
30
0
11
30.813578
21
-17.210489
31
0
39
0
210
0
220
0
230
1
0
LINE
5
90
100
AcDbEntity
8
1
62
256
6
ByLayer
370
18
48
1
60
0
100
AcDbLine
10
13.292511
20
11.411334
30
0
11
7.878949
21
-12.654494
31
0
39
0
210
0
220
0
230
1
0
LINE
5
91
100
AcDbEntity
8
1
62
256
6
ByLayer
370
18
48
1
60
0
100
AcDbLine
10
5.192978
20
-24.594898
30
0
11
4.699981
21
-26.786498
31
0
39
0
210
0
220
0
230
1
0
LINE
5
92
100
AcDbEntity
8
1
62
256
6
ByLayer
370
18
48
1
60
0
100
AcDbLine
10
13.96715
20
10.309266
30
0
11
8.911498
21
-12.165483
31
0
39
0
210
0
220
0
230
1
0
LINE
5
93
100
AcDbEntity
8
1
62
256
6
ByLayer
370
18
48
1
60
0
100
AcDbLine
10
5.918578
20
-25.470419
30
0
11
5.611779
21
-26.834283
31
0
39
0
210
0
220
0
230
1
0
LINE
5
94
100
AcDbEntity
8
1
62
256
6
ByLayer
370
18
48
1
60
0
100
AcDbLine
10
20.652609
20
-13.272513
30
0
11
21.190655
21
-13.879139
31
0
39
0
210
0
220
0
230
1
0
LINE
5
95
100
AcDbEntity
8
1
62
256
6
ByLayer
370
18
48
1
60
0
100
AcDbLine
10
20.336542
20
-13.062401
30
0
11
21.83567
21
-15.511326
31
0
39
0
210
0
220
0
230
1
0
LINE
5
96
100
AcDbEntity
8
1
62
256
6
ByLayer
370
18
48
1
60
0
100
AcDbLine
10
24.386107
20
-16.954799
30
0
11
28.962146
21
-17.214681
31
0
39
0
210
0
220
0
230
1
0
LINE
5
97
100
AcDbEntity
8
1
62
256
6
ByLayer
370
18
48
1
60
0
100
AcDbLine
10
30.3179
20
-17.291677
30
0
11
30.882921
21
-17.323765
31
0
39
0
210
0
220
0
230
1
0
LINE
5
98
100
AcDbEntity
8
1
62
256
6
ByLayer
370
18
48
1
60
0
100
AcDbLine
10
20.079195
20
-12.940243
30
0
11
21.573001
21
-15.380474
31
0
39
0
210
0
220
0
230
1
0
LINE
5
99
100
AcDbEntity
8
1
62
256
6
ByLayer
370
18
48
1
60
0
100
AcDbLine
10
32.539284
20
-18.335818
30
0
11
31.990719
21
-17.439701
31
0
39
0
210
0
220
0
230
1
0
LINE
5
9A
100
AcDbEntity
8
1
62
256
6
ByLayer
370
18
48
1
60
0
100
AcDbLine
10
25.01387
20
-29.043276
30
0
11
25.421372
21
-29.064632
31
0
39
0
210
0
220
0
230
1
0
LINE
5
9B
100
AcDbEntity
8
1
62
256
6
ByLayer
370
18
48
1
60
0
100
AcDbLine
10
23.440255
20
-27.778484
30
0
11
23.758249
21
-28.297948
31
0
39
0
210
0
220
0
230
1
0
LINE
5
9C
100
AcDbEntity
8
1
62
256
6
ByLayer
370
18
48
1
60
0
100
AcDbLine
10
30.735098
20
-16.694373
30
0
11
30.489662
21
-16.68151
31
0
39
0
210
0
220
0
230
1
0
LINE
5
9D
100
AcDbEntity
8
1
62
256
6
ByLayer
370
18
48
1
60
0
100
AcDbLine
10
30.237615
20
-16.209682
30
0
11
30.199704
21
-16.207695
31
0
39
0
210
0
220
0
230
1
0
LINE
5
9E
100
AcDbEntity
8
1
62
256
6
ByLayer
370
18
48
1
60
0
100
AcDbLine
10
23.226545
20
-27.757354
30
0
11
23.260766
21
-27.813256
31
0
39
0
210
0
220
0
230
1
0
LINE
5
9F
100
AcDbEntity
8
1
62
256
6
ByLayer
370
18
48
1
60
0
100
AcDbLine
10
23.758249
20
-28.297948
30
0
11
23.260766
21
-27.813256
31
0
39
0
210
0
220
0
230
1
0
LINE
5
A0
100
AcDbEntity
8
1
62
256
6
ByLayer
370
18
48
1
60
0
100
AcDbLine
10
30.735098
20
-16.694373
30
0
11
30.237615
21
-16.209682
31
0
39
0
210
0
220
0
230
1
0
LINE
5
A1
100
AcDbEntity
8
1
62
256
6
ByLayer
370
18
48
1
60
0
100
AcDbLine
10
10.560243
20
-13.862808
30
0
11
17.95873
21
-15.439816
31
0
39
0
210
0
220
0
230
1
0
LINE
5
A2
100
AcDbEntity
8
1
62
256
6
ByLayer
370
18
48
1
60
0
100
AcDbLine
10
30.041096
20
-21.704479
30
0
11
29.416231
21
-20.852919
31
0
39
0
210
0
220
0
230
1
0
LINE
5
A3
100
AcDbEntity
8
1
62
256
6
ByLayer
370
18
48
1
60
0
100
AcDbLine
10
11.200704
20
-12.600654
30
0
11
12.596272
21
-12.898123
31
0
39
0
210
0
220
0
230
1
0
LINE
5
A4
100
AcDbEntity
8
1
62
256
6
ByLayer
370
18
48
1
60
0
100
AcDbLine
10
9.201945
20
-22.623142
30
0
11
8.807923
21
-22.393257
31
0
39
0
210
0
220
0
230
1
0
LINE
5
A5
100
AcDbEntity
8
1
62
256
6
ByLayer
370
18
48
1
60
0
100
AcDbLine
10
9.446941
20
-26.898379
30
0
11
8.051373
21
-26.60091
31
0
39
0
210
0
220
0
230
1
0
LINE
5
A6
100
AcDbEntity
8
1
62
256
6
ByLayer
370
18
48
1
60
0
100
AcDbLine
10
8.284764
20
-15.283688
30
0
11
6.758804
21
-14.393396
31
0
39
0
210
0
220
0
230
1
0
LINE
5
A7
100
AcDbEntity
8
1
62
256
6
ByLayer
370
18
48
1
60
0
100
AcDbLine
10
29.299939
20
-25.722869
30
0
11
29.105342
21
-25.864342
31
0
39
0
210
0
220
0
230
1
0
LINE
5
A8
100
AcDbEntity
8
1
62
256
6
ByLayer
370
18
48
1
60
0
100
AcDbLine
10
30.041096
20
-21.704479
30
0
11
30.157149
21
-21.912169
31
0
39
0
210
0
220
0
230
1
0
LINE
5
A9
100
AcDbEntity
8
1
62
256
6
ByLayer
370
18
48
1
60
0
100
AcDbLine
10
13.175159
20
-25.047345
30
0
11
15.166089
21
-25.471717
31
0
39
0
210
0
220
0
230
1
0
LINE
5
AA
100
AcDbEntity
8
1
62
256
6
ByLayer
370
18
48
1
60
0
100
AcDbLine
10
9.446941
20
-26.898379
30
0
11
9.452305
21
-26.897839
31
0
39
0
210
0
220
0
230
1
0
LINE
5
AB
100
AcDbEntity
8
1
62
256
6
ByLayer
370
18
48
1
60
0
100
AcDbLine
10
17.869293
20
-14.024731
30
0
11
12.600706
21
-12.901718
31
0
39
0
210
0
220
0
230
1
0
LINE
5
AC
100
AcDbEntity
8
1
62
256
6
ByLayer
370
18
48
1
60
0
100
AcDbLine
10
11.200704
20
-12.600654
30
0
11
10.694308
21
-12.305207
31
0
39
0
210
0
220
0
230
1
0
LINE
5
AD
100
AcDbEntity
8
1
62
256
6
ByLayer
370
18
48
1
60
0
100
AcDbLine
10
28.26807
20
-23.830757
30
0
11
30.910071
21
-24.122192
31
0
39
0
210
0
220
0
230
1
0
LINE
5
AE
100
AcDbEntity
8
1
62
256
6
ByLayer
370
18
48
1
60
0
100
AcDbLine
10
15.166089
20
-25.471717
30
0
11
14.750999
21
-25.229541
31
0
39
0
210
0
220
0
230
1
0
LINE
5
AF
100
AcDbEntity
8
1
62
256
6
ByLayer
370
18
48
1
60
0
100
AcDbLine
10
6.447654
20
-23.450504
30
0
11
4.921694
21
-22.560212
31
0
39
0
210
0
220
0
230
1
0
LINE
5
B0
100
AcDbEntity
8
1
62
256
6
ByLayer
370
18
48
1
60
0
100
AcDbLine
10
7.901881
20
-25.680474
30
0
11
15.300368
21
-27.257482
31
0
39
0
210
0
220
0
230
1
0
LINE
5
B1
100
AcDbEntity
8
1
62
256
6
ByLayer
370
18
48
1
60
0
100
AcDbLine
10
29.105342
20
-25.864342
30
0
11
28.165061
21
-26.414954
31
0
39
0
210
0
220
0
230
1
0
LINE
5
B2
100
AcDbEntity
8
1
62
256
6
ByLayer
370
18
48
1
60
0
100
AcDbLine
10
7.332393
20
-22.081029
30
0
11
8.469652
21
-17.025381
31
0
39
0
210
0
220
0
230
1
0
LINE
5
B3
100
AcDbEntity
8
1
62
256
6
ByLayer
370
18
48
1
60
0
100
AcDbLine
10
6.447654
20
-23.450504
30
0
11
8.284764
21
-15.283688
31
0
39
0
210
0
220
0
230
1
0
LINE
5
B4
100
AcDbEntity
8
1
62
256
6
ByLayer
370
18
48
1
60
0
100
AcDbLine
10
16.981329
20
-17.402125
30
0
11
14.990398
21
-16.977753
31
0
39
0
210
0
220
0
230
1
0
LINE
5
B5
100
AcDbEntity
8
1
62
256
6
ByLayer
370
18
48
1
60
0
100
AcDbLine
10
8.807923
20
-22.393257
30
0
11
7.332393
21
-22.081029
31
0
39
0
210
0
220
0
230
1
0
LINE
5
B6
100
AcDbEntity
8
1
62
256
6
ByLayer
370
18
48
1
60
0
100
AcDbLine
10
14.720892
20
-28.020853
30
0
11
9.452305
21
-26.897839
31
0
39
0
210
0
220
0
230
1
0
LINE
5
B7
100
AcDbEntity
8
1
62
256
6
ByLayer
370
18
48
1
60
0
100
AcDbLine
10
30.456131
20
-22.270086
30
0
11
30.323408
21
-22.089212
31
0
39
0
210
0
220
0
230
1
0
LINE
5
B8
100
AcDbEntity
8
1
62
256
6
ByLayer
370
18
48
1
60
0
100
AcDbLine
10
29.729878
20
-25.498625
30
0
11
29.530158
21
-25.615577
31
0
39
0
210
0
220
0
230
1
0
LINE
5
B9
100
AcDbEntity
8
1
62
256
6
ByLayer
370
18
48
1
60
0
100
AcDbLine
10
13.175159
20
-25.047345
30
0
11
12.768361
21
-24.810006
31
0
39
0
210
0
220
0
230
1
0
LINE
5
BA
100
AcDbEntity
8
1
62
256
6
ByLayer
370
18
48
1
60
0
100
AcDbLine
10
12.596272
20
-12.898123
30
0
11
12.600706
21
-12.901718
31
0
39
0
210
0
220
0
230
1
0
LINE
5
BB
100
AcDbEntity
8
1
62
256
6
ByLayer
370
18
48
1
60
0
100
AcDbLine
10
12.596272
20
-12.898123
30
0
11
10.765772
21
-12.327395
31
0
39
0
210
0
220
0
230
1
0
LINE
5
BC
100
AcDbEntity
8
1
62
256
6
ByLayer
370
18
48
1
60
0
100
AcDbLine
10
6.758804
20
-14.393396
30
0
11
4.921694
21
-22.560212
31
0
39
0
210
0
220
0
230
1
0
LINE
5
BD
100
AcDbEntity
8
1
62
256
6
ByLayer
370
18
48
1
60
0
100
AcDbLine
10
13.698924
20
-21.242486
30
0
11
13.879314
21
-21.418238
31
0
39
0
210
0
220
0
230
1
0
LINE
5
BE
100
AcDbEntity
8
1
62
256
6
ByLayer
370
18
48
1
60
0
100
AcDbLine
10
16.244259
20
-21.785032
30
0
11
16.42465
21
-21.960784
31
0
39
0
210
0
220
0
230
1
0
LINE
5
BF
100
AcDbEntity
8
1
62
256
6
ByLayer
370
18
48
1
60
0
100
AcDbLine
10
14.442861
20
-22.368312
30
0
11
14.623252
21
-22.544064
31
0
39
0
210
0
220
0
230
1
0
LINE
5
C0
100
AcDbEntity
8
1
62
256
6
ByLayer
370
18
48
1
60
0
100
AcDbLine
10
15.797662
20
-22.274468
30
0
11
15.978052
21
-22.45022
31
0
39
0
210
0
220
0
230
1
0
LINE
5
C1
100
AcDbEntity
8
1
62
256
6
ByLayer
370
18
48
1
60
0
100
AcDbLine
10
16.212915
20
-20.428473
30
0
11
16.393305
21
-20.604225
31
0
39
0
210
0
220
0
230
1
0
LINE
5
C2
100
AcDbEntity
8
1
62
256
6
ByLayer
370
18
48
1
60
0
100
AcDbLine
10
0.5
20
-20.425
30
0
11
0.5
21
19.927182
31
0
39
0
210
0
220
0
230
1
0
LINE
5
C3
100
AcDbEntity
8
1
62
256
6
ByLayer
370
18
48
1
60
0
100
AcDbLine
10
0.5
20
19.927182
30
0
11
1.863886
21
19.949392
31
0
39
0
210
0
220
0
230
1
0
LINE
5
C4
100
AcDbEntity
8
1
62
256
6
ByLayer
370
18
48
1
60
0
100
AcDbLine
10
13.987254
20
10.276426
30
0
11
13.96715
21
10.309266
31
0
39
0
210
0
220
0
230
1
0
LINE
5
C5
100
AcDbEntity
8
1
62
256
6
ByLayer
370
18
48
1
60
0
100
AcDbLine
10
21.300351
20
-1.670003
30
0
11
30.813578
21
-17.210489
31
0
39
0
210
0
220
0
230
1
0
LINE
5
C6
100
AcDbEntity
8
1
62
256
6
ByLayer
370
18
48
1
60
0
100
AcDbLine
10
6.885264
20
19.949392
30
0
11
1.863886
21
14.795491
31
0
39
0
210
0
220
0
230
1
0
LINE
5
C7
100
AcDbEntity
8
1
62
256
6
ByLayer
370
18
48
1
60
0
100
AcDbLine
10
21.300351
20
-1.670003
30
0
11
12.795939
21
-10.398862
31
0
39
0
210
0
220
0
230
1
0
LINE
5
C8
100
AcDbEntity
8
1
62
256
6
ByLayer
370
18
48
1
60
0
100
AcDbLine
10
12.795939
20
-10.398862
30
0
11
14.953234
21
8.698433
31
0
39
0
210
0
220
0
230
1
0
LINE
5
C9
100
AcDbEntity
8
1
62
256
6
ByLayer
370
18
48
1
60
0
100
AcDbLine
10
1.863886
20
14.795491
30
0
11
1.863886
21
19.949392
31
0
39
0
210
0
220
0
230
1
0
LINE
5
CA
100
AcDbEntity
8
1
62
256
6
ByLayer
370
18
48
1
60
0
100
AcDbLine
10
2.169017
20
-26.653856
30
0
11
4.699981
21
-26.786498
31
0
39
0
210
0
220
0
230
1
0
LINE
5
CB
100
AcDbEntity
8
1
62
256
6
ByLayer
370
18
48
1
60
0
100
AcDbLine
10
0.811679
20
-21.5882
30
0
11
0.5
21
-20.425
31
0
39
0
210
0
220
0
230
1
0
LINE
5
CC
100
AcDbEntity
8
1
62
256
6
ByLayer
370
18
48
1
60
0
100
AcDbLine
10
14.953234
20
8.698433
30
0
11
13.987254
21
10.276426
31
0
39
0
210
0
220
0
230
1
0
LINE
5
CD
100
AcDbEntity
8
1
62
256
6
ByLayer
370
18
48
1
60
0
100
AcDbLine
10
1.863886
20
19.949392
30
0
11
6.885264
21
19.949392
31
0
39
0
210
0
220
0
230
1
0
LINE
5
CE
100
AcDbEntity
8
1
62
256
6
ByLayer
370
18
48
1
60
0
100
AcDbLine
10
13.292511
20
11.411334
30
0
11
8.066235
21
19.948803
31
0
39
0
210
0
220
0
230
1
0
LINE
5
CF
100
AcDbEntity
8
1
62
256
6
ByLayer
370
18
48
1
60
0
100
AcDbLine
10
0.5
20
-20.425
30
0
11
0
21
-19.925
31
0
39
0
210
0
220
0
230
1
0
LINE
5
D0
100
AcDbEntity
8
1
62
256
6
ByLayer
370
18
48
1
60
0
100
AcDbLine
10
0.5
20
19.927182
30
0
11
0
21
19.925
31
0
39
0
210
0
220
0
230
1
0
LINE
5
D1
100
AcDbEntity
8
1
62
256
6
ByLayer
370
18
48
1
60
0
100
AcDbLine
10
1.863886
20
14.795491
30
0
11
0.811679
21
-21.5882
31
0
39
0
210
0
220
0
230
1
0
LINE
5
D2
100
AcDbEntity
8
1
62
256
6
ByLayer
370
18
48
1
60
0
100
AcDbLine
10
4.699981
20
-26.786498
30
0
11
5.611779
21
-26.834283
31
0
39
0
210
0
220
0
230
1
0
LINE
5
D3
100
AcDbEntity
8
1
62
256
6
ByLayer
370
18
48
1
60
0
100
AcDbLine
10
14.953234
20
8.698433
30
0
11
21.300351
21
-1.670003
31
0
39
0
210
0
220
0
230
1
0
LINE
5
D4
100
AcDbEntity
8
1
62
256
6
ByLayer
370
18
48
1
60
0
100
AcDbLine
10
5.63895
20
-26.835707
30
0
11
9.058192
21
-27.014902
31
0
39
0
210
0
220
0
230
1
0
LINE
5
D5
100
AcDbEntity
8
1
62
256
6
ByLayer
370
18
48
1
60
0
100
AcDbLine
10
23.531336
20
-27.773408
30
0
11
23.711383
21
-27.782844
31
0
39
0
210
0
220
0
230
1
0
LINE
5
D6
100
AcDbEntity
8
1
62
256
6
ByLayer
370
18
48
1
60
0
100
AcDbLine
10
5.611779
20
-26.834283
30
0
11
5.63895
21
-26.835707
31
0
39
0
210
0
220
0
230
1
0
LINE
5
D7
100
AcDbEntity
8
1
62
256
6
ByLayer
370
18
48
1
60
0
100
AcDbLine
10
30.813578
20
-17.210489
30
0
11
30.882921
21
-17.323765
31
0
39
0
210
0
220
0
230
1
0
LINE
5
D8
100
AcDbEntity
8
1
62
256
6
ByLayer
370
18
48
1
60
0
100
AcDbLine
10
8.066235
20
19.948803
30
0
11
6.885264
21
19.949392
31
0
39
0
210
0
220
0
230
1
0
LINE
5
D9
100
AcDbEntity
8
1
62
256
6
ByLayer
370
18
48
1
60
0
100
AcDbLine
10
0.811679
20
-21.5882
30
0
11
2.169017
21
-26.653856
31
0
39
0
210
0
220
0
230
1
0
LINE
5
DA
100
AcDbEntity
8
1
62
256
6
ByLayer
370
18
48
1
60
0
100
AcDbLine
10
0
20
-19.925
30
0
11
0
21
19.925
31
0
39
0
210
0
220
0
230
1
0
LINE
5
DB
100
AcDbEntity
8
1
62
256
6
ByLayer
370
18
48
1
60
0
100
AcDbLine
10
13.96715
20
10.309266
30
0
11
13.292511
21
11.411334
31
0
39
0
210
0
220
0
230
1
0
LINE
5
DC
100
AcDbEntity
8
1
62
256
6
ByLayer
370
18
48
1
60
0
100
AcDbLine
10
17.956735
20
-13.130248
30
0
11
17.70199
21
-13.288276
31
0
39
0
210
0
220
0
230
1
0
LINE
5
DD
100
AcDbEntity
8
1
62
256
6
ByLayer
370
18
48
1
60
0
100
AcDbLine
10
38.764197
20
-30.423896
30
0
11
26.929845
21
-29.803684
31
0
39
0
210
0
220
0
230
1
0
LINE
5
DE
100
AcDbEntity
8
1
62
256
6
ByLayer
370
18
48
1
60
0
100
AcDbLine
10
32.217177
20
-18.067189
30
0
11
32.933102
21
-18.764705
31
0
39
0
210
0
220
0
230
1
0
LINE
5
DF
100
AcDbEntity
8
1
62
256
6
ByLayer
370
18
48
1
60
0
100
AcDbLine
10
32.933102
20
-18.764705
30
0
11
30.787597
21
-17.491147
31
0
39
0
210
0
220
0
230
1
0
LINE
5
E0
100
AcDbEntity
8
1
62
256
6
ByLayer
370
18
48
1
60
0
100
AcDbLine
10
33.331131
20
-19.157359
30
0
11
39.489544
21
-29.217533
31
0
39
0
210
0
220
0
230
1
0
LINE
5
E1
100
AcDbEntity
8
1
62
256
6
ByLayer
370
18
48
1
60
0
100
AcDbLine
10
24.247716
20
-28.367976
30
0
11
26.393221
21
-29.641534
31
0
39
0
210
0
220
0
230
1
0
LINE
5
E2
100
AcDbEntity
8
SK1
62
256
6
ByLayer
370
18
48
1
60
0
100
AcDbLine
10
0
20
-19.925
30
0
11
0
21
19.925
31
0
39
0
210
0
220
0
230
1
0
LINE
5
E4
100
AcDbEntity
8
SK1
62
256
6
ByLayer
370
18
48
1
60
0
100
AcDbLine
10
-211.745531
20
19.925
30
0
11
0
21
19.925
31
0
39
0
210
0
220
0
230
1
0
LINE
5
E5
100
AcDbEntity
8
SK1
62
256
6
ByLayer
370
18
48
1
60
0
100
AcDbLine
10
-211.745531
20
-19.925
30
0
11
-211.745531
21
19.925
31
0
39
0
210
0
220
0
230
1
0
LINE
5
E6
100
AcDbEntity
8
SK1
62
256
6
ByLayer
370
18
48
1
60
0
100
AcDbLine
10
0
20
-19.925
30
0
11
-211.745531
21
-19.925
31
0
39
0
210
0
220
0
230
1
0
MTEXT
5
15C
100
AcDbEntity
8
SK6
62
256
6
ByLayer
370
18
48
1
60
0
100
AcDbMText
10
-100.195531
20
29.062196
30
0
210
0
220
0
230
1
1
\W0.7704;DDJNL 4040S 15
40
3.5
41
0
44
1.084337
50
0
71
7
72
5
7
iso_b_vert
0
DIMENSION
5
17C
100
AcDbEntity
8
2
62
256
6
ByLayer
370
13
48
1
60
0
100
AcDbDimension
2
DimnDraft3D2
10
37.770547
20
-30.371576
30
0
11
27.316333
21
-42.128693
31
0
70
34
71
5
72
1
41
1
210
0
220
0
230
1
3
Standard
100
AcDb2LineAngularDimension
13
39.604469
23
-30.425
33
0
14
39.604469
24
-28.8375
34
0
15
38.769177
25
-30.423912
35
0
16
24.052149
26
-45.226289
36
0
40
0
0
DIMENSION
5
191
100
AcDbEntity
8
2
62
256
6
ByLayer
370
13
48
1
60
0
100
AcDbDimension
2
DimnDraft3D3
10
39.604469
20
-58.675
30
0
11
14.520655
21
-58.675
31
0
70
32
71
5
72
1
41
1
210
0
220
0
230
1
3
Standard
100
AcDbAlignedDimension
13
0
23
-21.925
33
0
14
39.604469
24
-32.425
34
0
50
0
100
AcDbRotatedDimension
1001
ACAD
1000
DSTYLE
1002
{
1070
   279
1070
     0
1070
   172
1070
     1
1070
   173
1070
     1
1070
   340
1005
15D
1070
    77
1070
     1
1070
    73
1070
     0
1070
   171
1070
     3
1070
   274
1070
     4
1070
   177
1070
     2
1070
   176
1070
     2
1070
   178
1070
     7
1070
    78
1070
     8
1070
    41
1041
3.175
1070
   147
1041
2.25
1070
    42
1041
2.0
1070
    44
1041
2.0
1070
   140
1041
4.5
1070
   343
1005
17D
1070
   344
1005
17D
1002
}
0
DIMENSION
5
19F
100
AcDbEntity
8
2
62
256
6
ByLayer
370
13
48
1
60
0
100
AcDbDimension
2
DimnDraft3D4
10
61.854469
20
-30.425
30
0
11
61.854469
21
-10.531579
31
0
70
32
71
5
72
1
41
1
210
0
220
0
230
1
3
Standard
100
AcDbAlignedDimension
13
2
23
19.925
33
0
14
41.604469
24
-30.425
34
0
50
90
100
AcDbRotatedDimension
1001
ACAD
1000
DSTYLE
1002
{
1070
    74
1070
     0
1070
   279
1070
     0
1070
   172
1070
     1
1070
   173
1070
     1
1070
   340
1005
15D
1070
    77
1070
     1
1070
    73
1070
     0
1070
   171
1070
     3
1070
   274
1070
     4
1070
   177
1070
     2
1070
   176
1070
     2
1070
   178
1070
     7
1070
    78
1070
     8
1070
    41
1041
3.175
1070
   147
1041
2.25
1070
    42
1041
2.0
1070
    44
1041
2.0
1070
   140
1041
4.5
1070
   343
1005
17D
1070
   344
1005
17D
1002
}
0
DIMENSION
5
1AD
100
AcDbEntity
8
SK2
62
256
6
ByLayer
370
13
48
1
60
0
100
AcDbDimension
2
DimnDraft3D5
10
-219.495531
20
-19.925
30
0
11
-219.495531
21
-5.518421
31
0
70
32
71
5
72
1
41
1
210
0
220
0
230
1
3
Standard
100
AcDbAlignedDimension
13
-213.745531
23
19.925
33
0
14
-213.745531
24
-19.925
34
0
50
90
100
AcDbRotatedDimension
1001
ACAD
1000
DSTYLE
1002
{
1070
    74
1070
     0
1070
   279
1070
     0
1070
   172
1070
     1
1070
   173
1070
     1
1070
   340
1005
15D
1070
    77
1070
     1
1070
    73
1070
     0
1070
   171
1070
     3
1070
   274
1070
     4
1070
   177
1070
     2
1070
   176
1070
     2
1070
   178
1070
     7
1070
    78
1070
     8
1070
    41
1041
3.175
1070
   147
1041
2.25
1070
    42
1041
2.0
1070
    44
1041
2.0
1070
   140
1041
4.5
1070
   343
1005
17D
1070
   344
1005
17D
1002
}
0
ENDSEC
0
SECTION
2
OBJECTS
0
DICTIONARY
5
217
330
0
100
AcDbDictionary
280
0
281
1
3
ACAD_GROUP
350
218
3
ACAD_MLINESTYLE
350
219
0
DICTIONARY
5
218
330
0
100
AcDbDictionary
280
0
281
1
0
DICTIONARY
5
219
330
0
100
AcDbDictionary
280
0
281
1
3
Standard
350
18
0
MLINESTYLE
5
18
330
219
100
AcDbMlineStyle
2
Standard
70
0
3

62
256
51
90
52
90
71
2
49
-0.5
62
256
6
ByLayer
49
0.5
62
256
6
ByLayer
0
RASTERVARIABLES
5
206
330

100
AcDbRasterVariables
90
0
70
1
71
1
72
1
0
ENDSEC
0
EOF
