0
SECTION
2
HEADER
9
$ACADVER
1
AC1015
9
$DWGCODEPAGE
3
ANSI_1252
9
$HANDSEED
5
234
9
$ANGBASE
50
0
9
$ANGDIR
70
0
9
$ATTMODE
70
1
9
$AUNITS
70
0
9
$AUPREC
70
0
9
$CECOLOR
62
256
9
$CELTSCALE
40
1
9
$CELTYPE
6
ByLayer
9
$CELWEIGHT
370
18
9
$CLAYER
8
0
9
$CMLJUST
70
0
9
$CMLSCALE
40
1
9
$CMLSTYLE
2
Standard
9
$DIMSTYLE
2
Standard
9
$TEXTSIZE
40
0.2
9
$TEXTSTYLE
7
Standard
9
$LUNITS
70
2
9
$LUPREC
70
4
9
$EXTNAMES
290
1
9
$INSUNITS
70
4
9
$LTSCALE
40
1
9
$LWDISPLAY
290
1
9
$PDMODE
70
0
9
$PDSIZE
40
0
9
$PLINEGEN
70
0
0
ENDSEC
0
SECTION
2
CLASSES
0
CLASS
1
RASTERVARIABLES
2
AcDbRasterVariables
3
ISM
90
0
280
0
281
0
0
ENDSEC
0
SECTION
2
TABLES
0
TABLE
2
VPORT
5
22a
100
AcDbSymbolTable
0
VPORT
5
1
100
AcDbSymbolTableRecord
100
AcDbViewportTableRecord
2
*Active
70
0
10
0
20
0
11
1
21
1
12
-1
22
1
13
0
23
0
14
0.5
24
0.5
15
10
25
10
16
0
26
0
36
1
17
0
27
0
37
0
0
ENDTAB
0
TABLE
2
LTYPE
5
22b
100
AcDbSymbolTable
0
LTYPE
5
14
100
AcDbSymbolTableRecord
100
AcDbLinetypeTableRecord
70
0
2
ByBlock
3

72
65
73
0
40
0
0
LTYPE
5
15
100
AcDbSymbolTableRecord
100
AcDbLinetypeTableRecord
70
0
2
ByLayer
3

72
65
73
0
40
0
0
LTYPE
5
16
100
AcDbSymbolTableRecord
100
AcDbLinetypeTableRecord
70
0
2
CONTINUOUS
3
Solid line
72
65
73
0
40
0
0
LTYPE
5
6A
100
AcDbSymbolTableRecord
100
AcDbLinetypeTableRecord
70
0
2
CENTER
3
____ _ ____ _ ____ _ ____
72
65
73
4
40
47.5
49
22
74
0
49
-8.5
74
0
49
8.5
74
0
49
-8.5
74
0
0
LTYPE
5
6B
100
AcDbSymbolTableRecord
100
AcDbLinetypeTableRecord
70
0
2
DASHED
3
__ __ __ __ __ __ __ __ __
72
65
73
2
40
25.72
49
12.86
74
0
49
-12.86
74
0
0
ENDTAB
0
TABLE
2
LAYER
5
22c
100
AcDbSymbolTable
0
LAYER
5
10
100
AcDbSymbolTableRecord
100
AcDbLayerTableRecord
2
0
70
0
62
7
6
CONTINUOUS
290
1
370
-3
390
0
0
LAYER
5
6D
100
AcDbSymbolTableRecord
100
AcDbLayerTableRecord
2
2
70
0
62
7
6
CONTINUOUS
290
1
370
-3
390
0
0
LAYER
5
6F
100
AcDbSymbolTableRecord
100
AcDbLayerTableRecord
2
80
70
0
62
-6
6
CONTINUOUS
290
1
370
-3
390
0
0
LAYER
5
71
100
AcDbSymbolTableRecord
100
AcDbLayerTableRecord
2
81
70
0
62
-3
6
CONTINUOUS
290
1
370
-3
390
0
0
LAYER
5
73
100
AcDbSymbolTableRecord
100
AcDbLayerTableRecord
2
1
70
0
62
4
6
CONTINUOUS
290
1
370
-3
390
0
0
LAYER
5
217
100
AcDbSymbolTableRecord
100
AcDbLayerTableRecord
2
SK1
70
0
62
4
6
CONTINUOUS
290
1
370
-3
390
0
0
LAYER
5
218
100
AcDbSymbolTableRecord
100
AcDbLayerTableRecord
2
SK6
70
0
62
5
6
CONTINUOUS
290
1
370
-3
390
0
0
LAYER
5
219
100
AcDbSymbolTableRecord
100
AcDbLayerTableRecord
2
SK2
70
0
62
7
6
CONTINUOUS
290
1
370
-3
390
0
0
ENDTAB
0
TABLE
2
STYLE
5
22d
100
AcDbSymbolTable
0
STYLE
5
11
100
AcDbSymbolTableRecord
100
AcDbTextStyleTableRecord
2
Standard
3
txt
70
0
71
0
40
0
41
1
42
0
50
0
0
STYLE
5
16D
100
AcDbSymbolTableRecord
100
AcDbTextStyleTableRecord
2
iso_b_vert
3
simplex.shx
70
0
71
0
40
0
41
1
42
0
50
0
0
STYLE
5
16E
100
AcDbSymbolTableRecord
100
AcDbTextStyleTableRecord
2
DWGDirectTextStyle
3
simplex
70
0
71
0
40
0
41
1
42
0
50
0
0
ENDTAB
0
TABLE
2
DIMSTYLE
5
22e
100
AcDbSymbolTable
100
AcDbDimStyleTable
0
DIMSTYLE
105
27
100
AcDbSymbolTableRecord
100
AcDbDimStyleTableRecord
2
Standard
70
0
3
<>
41
0.18
42
0.0625
44
0.18
140
0.18
147
0.09
73
0
74
0
77
1
271
2
275
0
278
52
280
0
340
11
0
ENDTAB
0
TABLE
2
VIEW
5
22f
100
AcDbSymbolTable
0
ENDTAB
0
TABLE
2
UCS
5
230
100
AcDbSymbolTable
0
ENDTAB
0
TABLE
2
APPID
5
231
100
AcDbSymbolTable
0
APPID
5
12
100
AcDbSymbolTableRecord
100
AcDbRegAppTableRecord
2
ACAD
70
0
0
ENDTAB
0
TABLE
2
BLOCK_RECORD
5
232
100
AcDbSymbolTable
0
BLOCK_RECORD
5
1F
100
AcDbSymbolTableRecord
100
AcDbBlockTableRecord
2
*Model_Space
340
0
70
0
0
BLOCK_RECORD
5
1B
100
AcDbSymbolTableRecord
100
AcDbBlockTableRecord
2
*Paper_Space
340
0
70
0
0
BLOCK_RECORD
5
23
100
AcDbSymbolTableRecord
100
AcDbBlockTableRecord
2
*Paper_Space0
340
0
70
0
0
BLOCK_RECORD
5
170
100
AcDbSymbolTableRecord
100
AcDbBlockTableRecord
2
DimnDraft3D11
340
0
70
0
0
BLOCK_RECORD
5
17F
100
AcDbSymbolTableRecord
100
AcDbBlockTableRecord
2
DimnDraft3D2
340
0
70
0
0
BLOCK_RECORD
5
18D
100
AcDbSymbolTableRecord
100
AcDbBlockTableRecord
2
_CLOSED
340
0
70
0
0
BLOCK_RECORD
5
194
100
AcDbSymbolTableRecord
100
AcDbBlockTableRecord
2
DimnDraft3D3
340
0
70
0
0
BLOCK_RECORD
5
1A2
100
AcDbSymbolTableRecord
100
AcDbBlockTableRecord
2
DimnDraft3D4
340
0
70
0
0
BLOCK_RECORD
5
1B0
100
AcDbSymbolTableRecord
100
AcDbBlockTableRecord
2
DimnDraft3D5
340
0
70
0
0
ENDTAB
0
ENDSEC
0
SECTION
2
BLOCKS
0
BLOCK
5
20
100
AcDbEntity
8
0
100
AcDbBlockBegin
2
*Model_Space
70
0
10
0
20
0
30
0
3
*Model_Space
0
ENDBLK
5
21
100
AcDbEntity
8
0
100
AcDbBlockEnd
0
BLOCK
5
1C
100
AcDbEntity
8
0
100
AcDbBlockBegin
2
*Paper_Space
70
0
10
0
20
0
30
0
3
*Paper_Space
0
ENDBLK
5
1D
100
AcDbEntity
8
0
100
AcDbBlockEnd
0
BLOCK
5
24
100
AcDbEntity
8
0
100
AcDbBlockBegin
2
*Paper_Space0
70
0
10
0
20
0
30
0
3
*Paper_Space0
0
ENDBLK
5
25
100
AcDbEntity
8
0
100
AcDbBlockEnd
0
BLOCK
5
171
100
AcDbEntity
8
0
100
AcDbBlockBegin
2
DimnDraft3D11
70
0
10
0
20
0
30
0
3
DimnDraft3D11
0
LINE
5
173
100
AcDbEntity
8
SK2
62
256
6
ByLayer
370
25
48
1
60
0
100
AcDbLine
10
30.093464
20
-17.4125
30
0
11
30.093464
21
-55.6625
31
0
39
0
210
0
220
0
230
1
0
LINE
5
175
100
AcDbEntity
8
SK2
62
256
6
ByLayer
370
25
48
1
60
0
100
AcDbLine
10
-96.256536
20
-11.9375
30
0
11
-96.256536
21
-55.6625
31
0
39
0
210
0
220
0
230
1
0
LINE
5
176
100
AcDbEntity
8
SK2
62
256
6
ByLayer
370
25
48
1
60
0
100
AcDbLine
10
30.093464
20
-53.6625
30
0
11
-96.256536
21
-53.6625
31
0
39
0
210
0
220
0
230
1
0
LINE
5
177
100
AcDbEntity
8
SK2
62
256
6
ByLayer
370
25
48
1
60
0
100
AcDbLine
10
30.093464
20
-53.6625
30
0
11
26.918465
21
-54.080497
31
0
39
0
210
0
220
0
230
1
0
LINE
5
178
100
AcDbEntity
8
SK2
62
256
6
ByLayer
370
25
48
1
60
0
100
AcDbLine
10
30.093464
20
-53.6625
30
0
11
26.918462
21
-53.244503
31
0
39
0
210
0
220
0
230
1
0
LINE
5
179
100
AcDbEntity
8
SK2
62
256
6
ByLayer
370
25
48
1
60
0
100
AcDbLine
10
26.918465
20
-54.080497
30
0
11
26.918462
21
-53.244503
31
0
39
0
210
0
220
0
230
1
0
LINE
5
17A
100
AcDbEntity
8
SK2
62
256
6
ByLayer
370
25
48
1
60
0
100
AcDbLine
10
-96.256536
20
-53.6625
30
0
11
-93.081538
21
-53.244503
31
0
39
0
210
0
220
0
230
1
0
LINE
5
17B
100
AcDbEntity
8
SK2
62
256
6
ByLayer
370
25
48
1
60
0
100
AcDbLine
10
-96.256536
20
-53.6625
30
0
11
-93.081535
21
-54.080497
31
0
39
0
210
0
220
0
230
1
0
LINE
5
17C
100
AcDbEntity
8
SK2
62
256
6
ByLayer
370
25
48
1
60
0
100
AcDbLine
10
-93.081538
20
-53.244503
30
0
11
-93.081535
21
-54.080497
31
0
39
0
210
0
220
0
230
1
0
MTEXT
5
17D
100
AcDbEntity
8
SK2
62
256
6
ByLayer
370
18
48
1
60
0
100
AcDbMText
10
-38.357194
20
-52.5375
30
0
210
0
220
0
230
1
1
\W0.6864;125.0
40
4.5
41
0
44
1.084337
50
0
71
7
72
5
7
iso_b_vert
0
ENDBLK
5
172
100
AcDbEntity
8
0
100
AcDbBlockEnd
0
BLOCK
5
18A
100
AcDbEntity
8
0
100
AcDbBlockBegin
2
DimnDraft3D2
70
0
10
0
20
0
30
0
3
DimnDraft3D2
0
MTEXT
5
180
100
AcDbEntity
8
2
62
256
6
ByLayer
370
18
48
1
60
0
100
AcDbMText
10
13.347828
20
-27.321965
30
0
210
0
220
0
230
1
1
\W0.7399;93%%d
40
4.5
41
0
44
1.084337
50
313.5
71
7
72
5
7
iso_b_vert
0
LINE
5
181
100
AcDbEntity
8
2
62
256
6
ByLayer
370
13
48
1
60
0
100
AcDbLine
10
30.093464
20
-17.4125
30
0
11
30.093464
21
-38.895593
31
0
39
0
210
0
220
0
230
1
0
LINE
5
182
100
AcDbEntity
8
2
62
256
6
ByLayer
370
13
48
1
60
0
100
AcDbLine
10
26.262283
20
-15.254404
30
0
11
6.685183
21
-14.228412
31
0
39
0
210
0
220
0
230
1
0
ARC
5
183
100
AcDbEntity
8
2
62
256
6
ByLayer
370
13
48
1
60
0
100
AcDbCircle
39
0
10
30.093464
20
-15.455188
30
0
40
21.440404685267
210
0
220
0
230
1
100
AcDbArc
50
177
51
270
0
LINE
5
184
100
AcDbEntity
8
2
62
256
6
ByLayer
370
13
48
1
60
0
100
AcDbLine
10
30.093464
20
-36.895593
30
0
11
26.90519
21
-37.196002
31
0
39
0
210
0
220
0
230
1
0
LINE
5
185
100
AcDbEntity
8
2
62
256
6
ByLayer
370
13
48
1
60
0
100
AcDbLine
10
30.093464
20
-36.895593
30
0
11
26.936073
21
-36.36058
31
0
39
0
210
0
220
0
230
1
0
LINE
5
186
100
AcDbEntity
8
2
62
256
6
ByLayer
370
13
48
1
60
0
100
AcDbLine
10
26.90519
20
-37.196002
30
0
11
26.936073
21
-36.36058
31
0
39
0
210
0
220
0
230
1
0
LINE
5
187
100
AcDbEntity
8
2
62
256
6
ByLayer
370
13
48
1
60
0
100
AcDbLine
10
8.682442
20
-14.333084
30
0
11
9.051477
21
-17.514145
31
0
39
0
210
0
220
0
230
1
0
LINE
5
188
100
AcDbEntity
8
2
62
256
6
ByLayer
370
13
48
1
60
0
100
AcDbLine
10
8.682442
20
-14.333084
30
0
11
8.215583
21
-17.501269
31
0
39
0
210
0
220
0
230
1
0
LINE
5
189
100
AcDbEntity
8
2
62
256
6
ByLayer
370
13
48
1
60
0
100
AcDbLine
10
9.051477
20
-17.514145
30
0
11
8.215583
21
-17.501269
31
0
39
0
210
0
220
0
230
1
0
ENDBLK
5
18B
100
AcDbEntity
8
0
100
AcDbBlockEnd
0
BLOCK
5
18E
100
AcDbEntity
8
0
100
AcDbBlockBegin
2
_CLOSED
70
0
10
0
20
0
30
0
3
_CLOSED
0
LINE
5
190
100
AcDbEntity
8
0
62
256
6
ByLayer
370
-2
48
1
60
0
100
AcDbLine
10
-1
20
0.166667
30
0
11
0
21
0
31
0
39
0
210
0
220
0
230
1
0
LINE
5
191
100
AcDbEntity
8
0
62
256
6
ByLayer
370
-2
48
1
60
0
100
AcDbLine
10
0
20
0
30
0
11
-1
21
-0.166667
31
0
39
0
210
0
220
0
230
1
0
LINE
5
192
100
AcDbEntity
8
0
62
256
6
ByLayer
370
-2
48
1
60
0
100
AcDbLine
10
-1
20
0.166667
30
0
11
-1
21
-0.166667
31
0
39
0
210
0
220
0
230
1
0
LINE
5
193
100
AcDbEntity
8
0
62
256
6
ByLayer
370
-2
48
1
60
0
100
AcDbLine
10
0
20
0
30
0
11
-1
21
0
31
0
39
0
210
0
220
0
230
1
0
ENDBLK
5
18F
100
AcDbEntity
8
0
100
AcDbBlockEnd
0
BLOCK
5
19F
100
AcDbEntity
8
0
100
AcDbBlockBegin
2
DimnDraft3D3
70
0
10
0
20
0
30
0
3
DimnDraft3D3
0
MTEXT
5
195
100
AcDbEntity
8
2
62
256
6
ByLayer
370
18
48
1
60
0
100
AcDbMText
10
11.452653
20
-42.5375
30
0
210
0
220
0
230
1
1
\W0.7208;30.1
40
4.5
41
0
44
1.084337
50
0
71
7
72
5
7
iso_b_vert
0
LINE
5
196
100
AcDbEntity
8
2
62
256
6
ByLayer
370
13
48
1
60
0
100
AcDbLine
10
0
20
-11.9375
30
0
11
0
21
-45.6625
31
0
39
0
210
0
220
0
230
1
0
LINE
5
197
100
AcDbEntity
8
2
62
256
6
ByLayer
370
13
48
1
60
0
100
AcDbLine
10
30.093464
20
-17.4125
30
0
11
30.093464
21
-45.6625
31
0
39
0
210
0
220
0
230
1
0
LINE
5
198
100
AcDbEntity
8
2
62
256
6
ByLayer
370
13
48
1
60
0
100
AcDbLine
10
0
20
-43.6625
30
0
11
30.093464
21
-43.6625
31
0
39
0
210
0
220
0
230
1
0
LINE
5
199
100
AcDbEntity
8
2
62
256
6
ByLayer
370
13
48
1
60
0
100
AcDbLine
10
0
20
-43.6625
30
0
11
3.174998
21
-43.244503
31
0
39
0
210
0
220
0
230
1
0
LINE
5
19A
100
AcDbEntity
8
2
62
256
6
ByLayer
370
13
48
1
60
0
100
AcDbLine
10
0
20
-43.6625
30
0
11
3.175002
21
-44.080497
31
0
39
0
210
0
220
0
230
1
0
LINE
5
19B
100
AcDbEntity
8
2
62
256
6
ByLayer
370
13
48
1
60
0
100
AcDbLine
10
3.174998
20
-43.244503
30
0
11
3.175002
21
-44.080497
31
0
39
0
210
0
220
0
230
1
0
LINE
5
19C
100
AcDbEntity
8
2
62
256
6
ByLayer
370
13
48
1
60
0
100
AcDbLine
10
30.093464
20
-43.6625
30
0
11
26.918465
21
-44.080497
31
0
39
0
210
0
220
0
230
1
0
LINE
5
19D
100
AcDbEntity
8
2
62
256
6
ByLayer
370
13
48
1
60
0
100
AcDbLine
10
30.093464
20
-43.6625
30
0
11
26.918462
21
-43.244503
31
0
39
0
210
0
220
0
230
1
0
LINE
5
19E
100
AcDbEntity
8
2
62
256
6
ByLayer
370
13
48
1
60
0
100
AcDbLine
10
26.918465
20
-44.080497
30
0
11
26.918462
21
-43.244503
31
0
39
0
210
0
220
0
230
1
0
ENDBLK
5
1A0
100
AcDbEntity
8
0
100
AcDbBlockEnd
0
BLOCK
5
1AD
100
AcDbEntity
8
0
100
AcDbBlockBegin
2
DimnDraft3D4
70
0
10
0
20
0
30
0
3
DimnDraft3D4
0
MTEXT
5
1A3
100
AcDbEntity
8
2
62
256
6
ByLayer
370
18
48
1
60
0
100
AcDbMText
10
51.218464
20
-6.894079
30
0
210
0
220
0
230
1
1
\W0.7346;25.0
40
4.5
41
0
44
1.084337
50
90
71
7
72
5
7
iso_b_vert
0
LINE
5
1A4
100
AcDbEntity
8
2
62
256
6
ByLayer
370
13
48
1
60
0
100
AcDbLine
10
2
20
9.9375
30
0
11
54.343464
21
9.9375
31
0
39
0
210
0
220
0
230
1
0
LINE
5
1A5
100
AcDbEntity
8
2
62
256
6
ByLayer
370
13
48
1
60
0
100
AcDbLine
10
32.093464
20
-15.4125
30
0
11
54.343464
21
-15.4125
31
0
39
0
210
0
220
0
230
1
0
LINE
5
1A6
100
AcDbEntity
8
2
62
256
6
ByLayer
370
13
48
1
60
0
100
AcDbLine
10
52.343464
20
9.9375
30
0
11
52.343464
21
-15.4125
31
0
39
0
210
0
220
0
230
1
0
LINE
5
1A7
100
AcDbEntity
8
2
62
256
6
ByLayer
370
13
48
1
60
0
100
AcDbLine
10
52.343464
20
9.9375
30
0
11
52.76146
21
6.762502
31
0
39
0
210
0
220
0
230
1
0
LINE
5
1A8
100
AcDbEntity
8
2
62
256
6
ByLayer
370
13
48
1
60
0
100
AcDbLine
10
52.343464
20
9.9375
30
0
11
51.925467
21
6.762498
31
0
39
0
210
0
220
0
230
1
0
LINE
5
1A9
100
AcDbEntity
8
2
62
256
6
ByLayer
370
13
48
1
60
0
100
AcDbLine
10
52.76146
20
6.762502
30
0
11
51.925467
21
6.762498
31
0
39
0
210
0
220
0
230
1
0
LINE
5
1AA
100
AcDbEntity
8
2
62
256
6
ByLayer
370
13
48
1
60
0
100
AcDbLine
10
52.343464
20
-15.4125
30
0
11
51.925467
21
-12.237502
31
0
39
0
210
0
220
0
230
1
0
LINE
5
1AB
100
AcDbEntity
8
2
62
256
6
ByLayer
370
13
48
1
60
0
100
AcDbLine
10
52.343464
20
-15.4125
30
0
11
52.76146
21
-12.237498
31
0
39
0
210
0
220
0
230
1
0
LINE
5
1AC
100
AcDbEntity
8
2
62
256
6
ByLayer
370
13
48
1
60
0
100
AcDbLine
10
51.925467
20
-12.237502
30
0
11
52.76146
21
-12.237498
31
0
39
0
210
0
220
0
230
1
0
ENDBLK
5
1AE
100
AcDbEntity
8
0
100
AcDbBlockEnd
0
BLOCK
5
1BB
100
AcDbEntity
8
0
100
AcDbBlockBegin
2
DimnDraft3D5
70
0
10
0
20
0
30
0
3
DimnDraft3D5
0
MTEXT
5
1B1
100
AcDbEntity
8
SK2
62
256
6
ByLayer
370
18
48
1
60
0
100
AcDbMText
10
-105.131536
20
-4.156579
30
0
210
0
220
0
230
1
1
\W0.7346;20.0
40
4.5
41
0
44
1.084337
50
90
71
7
72
5
7
iso_b_vert
0
LINE
5
1B2
100
AcDbEntity
8
SK2
62
256
6
ByLayer
370
13
48
1
60
0
100
AcDbLine
10
-98.256536
20
9.9375
30
0
11
-106.006536
21
9.9375
31
0
39
0
210
0
220
0
230
1
0
LINE
5
1B3
100
AcDbEntity
8
SK2
62
256
6
ByLayer
370
13
48
1
60
0
100
AcDbLine
10
-98.256536
20
-9.9375
30
0
11
-106.006536
21
-9.9375
31
0
39
0
210
0
220
0
230
1
0
LINE
5
1B4
100
AcDbEntity
8
SK2
62
256
6
ByLayer
370
13
48
1
60
0
100
AcDbLine
10
-104.006536
20
21.1875
30
0
11
-104.006536
21
-21.1875
31
0
39
0
210
0
220
0
230
1
0
LINE
5
1B5
100
AcDbEntity
8
SK2
62
256
6
ByLayer
370
13
48
1
60
0
100
AcDbLine
10
-104.006536
20
9.9375
30
0
11
-104.424533
21
13.112498
31
0
39
0
210
0
220
0
230
1
0
LINE
5
1B6
100
AcDbEntity
8
SK2
62
256
6
ByLayer
370
13
48
1
60
0
100
AcDbLine
10
-104.006536
20
9.9375
30
0
11
-103.58854
21
13.112502
31
0
39
0
210
0
220
0
230
1
0
LINE
5
1B7
100
AcDbEntity
8
SK2
62
256
6
ByLayer
370
13
48
1
60
0
100
AcDbLine
10
-104.424533
20
13.112498
30
0
11
-103.58854
21
13.112502
31
0
39
0
210
0
220
0
230
1
0
LINE
5
1B8
100
AcDbEntity
8
SK2
62
256
6
ByLayer
370
13
48
1
60
0
100
AcDbLine
10
-104.006536
20
-9.9375
30
0
11
-103.58854
21
-13.112498
31
0
39
0
210
0
220
0
230
1
0
LINE
5
1B9
100
AcDbEntity
8
SK2
62
256
6
ByLayer
370
13
48
1
60
0
100
AcDbLine
10
-104.006536
20
-9.9375
30
0
11
-104.424533
21
-13.112502
31
0
39
0
210
0
220
0
230
1
0
LINE
5
1BA
100
AcDbEntity
8
SK2
62
256
6
ByLayer
370
13
48
1
60
0
100
AcDbLine
10
-103.58854
20
-13.112498
30
0
11
-104.424533
21
-13.112502
31
0
39
0
210
0
220
0
230
1
0
ENDBLK
5
1BC
100
AcDbEntity
8
0
100
AcDbBlockEnd
0
ENDSEC
0
SECTION
2
ENTITIES
0
ELLIPSE
5
DC
100
AcDbEntity
8
1
62
256
6
ByLayer
370
18
48
1
60
0
100
AcDbEllipse
10
5.695932
20
-12.433537
30
0
11
1.97548026366512
21
2.25775944862813
31
0
210
0
220
0
230
1
40
0.985051
41
0.188285860079858
42
0.503892937168484
0
ELLIPSE
5
DD
100
AcDbEntity
8
1
62
256
6
ByLayer
370
18
48
1
60
0
100
AcDbEllipse
10
11.953734
20
-8.461418
30
0
11
-2.20595296109272
21
-2.52116471763474
31
0
210
0
220
0
230
1
40
0.985051
41
0.503892937168491
42
-3.00065181292437
0
ELLIPSE
5
DE
100
AcDbEntity
8
1
62
256
6
ByLayer
370
18
48
1
60
0
100
AcDbEllipse
10
14.861762
20
-4.202885
30
0
11
1.28063203457786
21
1.31443007406836
31
0
210
0
220
0
230
1
40
0.987534
41
1.32466675151839
42
1.55699412648819
0
ELLIPSE
5
DF
100
AcDbEntity
8
1
62
256
6
ByLayer
370
18
48
1
60
0
100
AcDbEllipse
10
19.396079
20
-13.204913
30
0
11
-0.697838253356101
21
-0.716255381936434
31
0
210
0
220
0
230
1
40
0.987534
41
-0.246129575276504
42
0.631397890402357
0
ELLIPSE
5
E0
100
AcDbEntity
8
1
62
256
6
ByLayer
370
18
48
1
60
0
100
AcDbEllipse
10
23.453553
20
-6.248559
30
0
11
0.697838253356069
21
0.716255381936398
31
0
210
0
220
0
230
1
40
0.987534
41
2.95305036747791E-06
42
0.713801513320369
0
ELLIPSE
5
E1
100
AcDbEntity
8
1
62
256
6
ByLayer
370
18
48
1
60
0
100
AcDbEllipse
10
19.317158
20
-13.128021
30
0
11
0.697838253356078
21
0.716255381936408
31
0
210
0
220
0
230
1
40
0.987534
41
2.89546307831329
42
-3.14158945190573
0
ELLIPSE
5
E2
100
AcDbEntity
8
1
62
256
6
ByLayer
370
18
48
1
60
0
100
AcDbEllipse
10
11.584589
20
-7.47081
30
0
11
-0.202373093473269
21
-0.207714060761566
31
0
210
0
220
0
230
1
40
0.987534
41
2.2583602584276
42
2.76153254043372
0
ELLIPSE
5
E3
100
AcDbEntity
8
1
62
256
6
ByLayer
370
18
48
1
60
0
100
AcDbEllipse
10
10.463831
20
-8.699072
30
0
11
-0.202373093473269
21
-0.207714060761566
31
0
210
0
220
0
230
1
40
0.987534
41
0.380067037127443
42
0.94947860524734
0
ELLIPSE
5
E4
100
AcDbEntity
8
1
62
256
6
ByLayer
370
18
48
1
60
0
100
AcDbEllipse
10
11.335173
20
-8.365715
30
0
11
0.628054428020492
21
0.644629843742789
31
0
210
0
220
0
230
1
40
0.987534
41
-3.08131746934864
42
-0.126551401020465
0
ELLIPSE
5
E5
100
AcDbEntity
8
1
62
256
6
ByLayer
370
18
48
1
60
0
100
AcDbEllipse
10
11.374633
20
-8.40416
30
0
11
0.628054428020492
21
0.644629843742789
31
0
210
0
220
0
230
1
40
0.987534
41
1.31304620598328
42
1.91391900693581
0
ELLIPSE
5
E6
100
AcDbEntity
8
1
62
256
6
ByLayer
370
18
48
1
60
0
100
AcDbEllipse
10
11.374633
20
-8.40416
30
0
11
0.628054428020492
21
0.644629843742789
31
0
210
0
220
0
230
1
40
0.987534
41
0.126615130136104
42
0.671802473142299
0
ELLIPSE
5
E7
100
AcDbEntity
8
1
62
256
6
ByLayer
370
18
48
1
60
0
100
AcDbEllipse
10
11.374633
20
-8.40416
30
0
11
0.628054428020492
21
0.644629843742789
31
0
210
0
220
0
230
1
40
0.987534
41
-0.920582421060471
42
-0.115973807897074
0
ELLIPSE
5
E8
100
AcDbEntity
8
1
62
256
6
ByLayer
370
18
48
1
60
0
100
AcDbEllipse
10
11.374633
20
-8.40416
30
0
11
0.628054428020492
21
0.644629843742789
31
0
210
0
220
0
230
1
40
0.987534
41
2.54207124664584
42
3.08122373353882
0
ELLIPSE
5
E9
100
AcDbEntity
8
1
62
256
6
ByLayer
370
18
48
1
60
0
100
AcDbEllipse
10
11.290075
20
-8.321777
30
0
11
2.23308241073953
21
2.29201722219659
31
0
210
0
220
0
230
1
40
0.987534
41
0.778646103149413
42
3.14158833279785
0
ELLIPSE
5
EA
100
AcDbEntity
8
1
62
256
6
ByLayer
370
18
48
1
60
0
100
AcDbEllipse
10
11.290075
20
-8.321777
30
0
11
2.23308241073953
21
2.29201722219659
31
0
210
0
220
0
230
1
40
0.987534
41
9.38865616438656E-05
42
0.778646103149413
0
ELLIPSE
5
EB
100
AcDbEntity
8
1
62
256
6
ByLayer
370
18
48
1
60
0
100
AcDbEllipse
10
12.285435
20
-8.109249
30
0
11
-0.202373093473269
21
-0.207714060761566
31
0
210
0
220
0
230
1
40
0.987534
41
1.21116270723104
42
2.76149988443519
0
ELLIPSE
5
EC
100
AcDbEntity
8
1
62
256
6
ByLayer
370
18
48
1
60
0
100
AcDbEllipse
10
11.164678
20
-9.337511
30
0
11
-0.202373093473269
21
-0.207714060761566
31
0
210
0
220
0
230
1
40
0.987534
41
0.380101284842717
42
1.99667615644392
0
ELLIPSE
5
ED
100
AcDbEntity
8
1
62
256
6
ByLayer
370
18
48
1
60
0
100
AcDbEllipse
10
22.000938
20
-10.288044
30
0
11
1.32938187264338
21
1.3644665025889
31
0
210
0
220
0
230
1
40
0.987534
41
-2.48274598964897
42
0
0
ELLIPSE
5
EE
100
AcDbEntity
8
1
62
256
6
ByLayer
370
18
48
1
60
0
100
AcDbEllipse
10
22.000938
20
-10.288044
30
0
11
1.32938187264338
21
1.3644665025889
31
0
210
0
220
0
230
1
40
0.987534
41
0
42
0.464362439732627
0
ELLIPSE
5
EF
100
AcDbEntity
8
1
62
256
6
ByLayer
370
18
48
1
60
0
100
AcDbEllipse
10
21.464277
20
-9.765182
30
0
11
1.32938187264338
21
1.3644665025889
31
0
210
0
220
0
230
1
40
0.987534
41
-0.51041520528857
42
-0.200477338541682
0
ELLIPSE
5
F0
100
AcDbEntity
8
1
62
256
6
ByLayer
370
18
48
1
60
0
100
AcDbEllipse
10
24.333063
20
-6.856222
30
0
11
0.554083573164745
21
0.568706773257528
31
0
210
0
220
0
230
1
40
0.987534
41
-4.87391190807553E-06
42
0.233835969021924
0
ELLIPSE
5
F1
100
AcDbEntity
8
1
62
256
6
ByLayer
370
18
48
1
60
0
100
AcDbEllipse
10
19.132152
20
-13.197004
30
0
11
-0.554083573164744
21
-0.568706773257529
31
0
210
0
220
0
230
1
40
0.987534
41
-0.246129575276523
42
0.233835969021894
0
ELLIPSE
5
F2
100
AcDbEntity
8
1
62
256
6
ByLayer
370
18
48
1
60
0
100
AcDbEllipse
10
20.782557
20
-14.176674
30
0
11
-0.554083573164744
21
-0.568706773257529
31
0
210
0
220
0
230
1
40
0.987534
41
0.233835969021915
42
0.713801513320357
0
ELLIPSE
5
F3
100
AcDbEntity
8
1
62
256
6
ByLayer
370
18
48
1
60
0
100
AcDbEllipse
10
29.304314
20
-14.62328
30
0
11
-0.554083573164744
21
-0.568706773257529
31
0
210
0
220
0
230
1
40
0.987534
41
0.713801513320349
42
2.8954630783133
0
ELLIPSE
5
F4
100
AcDbEntity
8
1
62
256
6
ByLayer
370
18
48
1
60
0
100
AcDbEllipse
10
23.21932
20
-6.399415
30
0
11
-0.554083573164744
21
-0.568706773257529
31
0
210
0
220
0
230
1
40
0.987534
41
-2.90775668456788
42
-2.42779114026946
0
ELLIPSE
5
F5
100
AcDbEntity
8
1
62
256
6
ByLayer
370
18
48
1
60
0
100
AcDbEllipse
10
24.869725
20
-7.379084
30
0
11
-0.554083573164744
21
-0.568706773257529
31
0
210
0
220
0
230
1
40
0.987534
41
2.89546307831326
42
-2.90775668456787
0
ELLIPSE
5
F6
100
AcDbEntity
8
1
62
256
6
ByLayer
370
18
48
1
60
0
100
AcDbEllipse
10
23.532474
20
-6.32545
30
0
11
-0.697838253356101
21
-0.716255381936434
31
0
210
0
220
0
230
1
40
0.987534
41
2.89546307831331
42
-2.42779114026941
0
ELLIPSE
5
F7
100
AcDbEntity
8
1
62
256
6
ByLayer
370
18
48
1
60
0
100
AcDbEllipse
10
9.955651
20
-2.58109
30
0
11
-2.60174023576751
21
0.73374469392911
31
0
210
0
220
0
230
1
40
0.411471
41
-0.126046269279795
42
0.61544461444925
0
ELLIPSE
5
F8
100
AcDbEntity
8
1
62
256
6
ByLayer
370
18
48
1
60
0
100
AcDbEllipse
10
9.518005
20
-4.178722
30
0
11
-4.3614869467568
21
1.11496378209178
31
0
210
0
220
0
230
1
40
0.280526
41
0.539858292560052
42
0.601506469758764
0
ELLIPSE
5
F9
100
AcDbEntity
8
1
62
256
6
ByLayer
370
18
48
1
60
0
100
AcDbEllipse
10
7.684034
20
-12.679496
30
0
11
-2.66209758396049
21
0.467592144909815
31
0
210
0
220
0
230
1
40
0.245586
41
-0.605012073267039
42
0.13647881046376
0
ELLIPSE
5
FA
100
AcDbEntity
8
1
62
256
6
ByLayer
370
18
48
1
60
0
100
AcDbEllipse
10
9.236798
20
-5.428823
30
0
11
4.39029269244902
21
-0.987588008548476
31
0
210
0
220
0
230
1
40
0.083175
41
-2.39457071527979
42
-1.95569414645098
0
ELLIPSE
5
FB
100
AcDbEntity
8
1
62
256
6
ByLayer
370
18
48
1
60
0
100
AcDbEllipse
10
5.488061
20
-9.678423
30
0
11
-2.21953923170421
21
-1.1676967681943
31
0
210
0
220
0
230
1
40
0.988643
41
-0.699939923623814
42
0.413854472487061
0
ELLIPSE
5
FC
100
AcDbEntity
8
1
62
256
6
ByLayer
370
18
48
1
60
0
100
AcDbEllipse
10
7.219339
20
-4.197654
30
0
11
1.293651871799
21
1.25158492903636
31
0
210
0
220
0
230
1
40
0.767754
41
0.656893189060502
42
2.08712299550931
0
ELLIPSE
5
FD
100
AcDbEntity
8
1
62
256
6
ByLayer
370
18
48
1
60
0
100
AcDbEllipse
10
22.275843
20
-10.493173
30
0
11
-1.2838723257841
21
-1.04260354858707
31
0
210
0
220
0
230
1
40
0.807128
41
1.94049933271806
42
2.22158301780794
0
ELLIPSE
5
FE
100
AcDbEntity
8
1
62
256
6
ByLayer
370
18
48
1
60
0
100
AcDbEllipse
10
9.254985
20
-5.167148
30
0
11
-2.15685027406973
21
3.31351882521795
31
0
210
0
220
0
230
1
40
0.498304
41
-0.463597745579002
42
-0.171973882052596
0
ELLIPSE
5
FF
100
AcDbEntity
8
1
62
256
6
ByLayer
370
18
48
1
60
0
100
AcDbEllipse
10
7.920894
20
-11.097813
30
0
11
-3.33152018666103
21
-0.703167277886462
31
0
210
0
220
0
230
1
40
0.400888
41
0.442564928753228
42
0.734188792289808
0
ELLIPSE
5
100
100
AcDbEntity
8
1
62
256
6
ByLayer
370
18
48
1
60
0
100
AcDbEllipse
10
5.869046
20
-10.200338
30
0
11
-0.299864112976302
21
1.77484689867857
31
0
210
0
220
0
230
1
40
0.8154
41
1.29624500358158
42
2.7264748100304
0
ELLIPSE
5
101
100
AcDbEntity
8
1
62
256
6
ByLayer
370
18
48
1
60
0
100
AcDbEllipse
10
8.274502
20
-9.706679
30
0
11
4.39029269244902
21
-0.987588008548476
31
0
210
0
220
0
230
1
40
0.083175
41
-2.3945707152798
42
-1.95569414645098
0
ELLIPSE
5
102
100
AcDbEntity
8
1
62
256
6
ByLayer
370
18
48
1
60
0
100
AcDbEllipse
10
22.275843
20
-10.493173
30
0
11
-0.160286826820023
21
-1.75670048184913
31
0
210
0
220
0
230
1
40
0.827492
41
1.53648232960723
42
1.8175660145154
0
ELLIPSE
5
103
100
AcDbEntity
8
1
62
256
6
ByLayer
370
18
48
1
60
0
100
AcDbEllipse
10
7.993294
20
-10.956779
30
0
11
-4.4170252035893
21
0.868650344524523
31
0
210
0
220
0
230
1
40
0.11431
41
-0.596462064451828
42
-0.534813885551618
0
ELLIPSE
5
104
100
AcDbEntity
8
1
62
256
6
ByLayer
370
18
48
1
60
0
100
AcDbEllipse
10
3.487891
20
-0.910394
30
0
11
5.85372358993202
21
-1.31678401139797
31
0
210
0
220
0
230
1
40
0.083175
41
0.797732830958246
42
0.799621952035441
0
ELLIPSE
5
105
100
AcDbEntity
8
1
62
256
6
ByLayer
370
18
48
1
60
0
100
AcDbEllipse
10
6.822153
20
-3.747759
30
0
11
-2.21953923168824
21
-1.16769676821738
31
0
210
0
220
0
230
1
40
0.988643
41
-1.81373431974693
42
-0.699939923635363
0
ELLIPSE
5
106
100
AcDbEntity
8
1
62
256
6
ByLayer
370
18
48
1
60
0
100
AcDbEllipse
10
12.335444
20
-7.666283
30
0
11
0.219819049807172
21
0.225620445309976
31
0
210
0
220
0
230
1
40
0.987534
41
2.25836025842762
42
2.73156052619285
0
ELLIPSE
5
107
100
AcDbEntity
8
1
62
256
6
ByLayer
370
18
48
1
60
0
100
AcDbEllipse
10
10.718232
20
-9.43862
30
0
11
0.219819049807172
21
0.225620445309976
31
0
210
0
220
0
230
1
40
0.987534
41
0.476278337482095
42
0.949478605247341
0
ELLIPSE
5
108
100
AcDbEntity
8
1
62
256
6
ByLayer
370
18
48
1
60
0
100
AcDbEllipse
10
11.881007
20
-9.686469
30
0
11
0.219819049807172
21
0.225620445309976
31
0
210
0
220
0
230
1
40
0.987534
41
1.52347588867869
42
1.99667615644391
0
ELLIPSE
5
109
100
AcDbEntity
8
1
62
256
6
ByLayer
370
18
48
1
60
0
100
AcDbEllipse
10
12.537409
20
-8.652009
30
0
11
0.219819049807172
21
0.225620445309976
31
0
210
0
220
0
230
1
40
0.987534
41
1.21116270723096
42
1.85751855362195
0
ELLIPSE
5
10A
100
AcDbEntity
8
1
62
256
6
ByLayer
370
18
48
1
60
0
100
AcDbEllipse
10
12.183239
20
-7.517992
30
0
11
0.219819049807172
21
0.225620445309976
31
0
210
0
220
0
230
1
40
0.987534
41
2.25836025842762
42
2.90471610481868
0
ELLIPSE
5
10B
100
AcDbEntity
8
1
62
256
6
ByLayer
370
18
48
1
60
0
100
AcDbEllipse
10
12.537409
20
-8.652009
30
0
11
0.219819049807172
21
0.225620445309976
31
0
210
0
220
0
230
1
40
0.987534
41
2.39751786124951
42
3.04387370764052
0
ELLIPSE
5
10C
100
AcDbEntity
8
1
62
256
6
ByLayer
370
18
48
1
60
0
100
AcDbEllipse
10
11.526838
20
-8.552451
30
0
11
0.645500384354395
21
0.6625362282912
31
0
210
0
220
0
230
1
40
0.987534
41
0.933775625450991
42
1.22686568702735
0
ELLIPSE
5
10D
100
AcDbEntity
8
1
62
256
6
ByLayer
370
18
48
1
60
0
100
AcDbEllipse
10
11.172669
20
-7.418434
30
0
11
0.219819049807172
21
0.225620445309976
31
0
210
0
220
0
230
1
40
0.987534
41
-2.97762749755536
42
-2.50442722979021
0
ELLIPSE
5
10E
100
AcDbEntity
8
1
62
256
6
ByLayer
370
18
48
1
60
0
100
AcDbEllipse
10
10.616036
20
-8.847363
30
0
11
-0.202373093473269
21
-0.207714060761566
31
0
210
0
220
0
230
1
40
0.987534
41
-1.93042994635873
42
0.949478605247203
0
ELLIPSE
5
10F
100
AcDbEntity
8
1
62
256
6
ByLayer
370
18
48
1
60
0
100
AcDbEllipse
10
11.526838
20
-8.552451
30
0
11
0.645500384354395
21
0.6625362282912
31
0
210
0
220
0
230
1
40
0.987534
41
3.02817072784419
42
-2.96192451775905
0
ELLIPSE
5
110
100
AcDbEntity
8
1
62
256
6
ByLayer
370
18
48
1
60
0
100
AcDbEllipse
10
11.526838
20
-8.552451
30
0
11
0.645500384354395
21
0.6625362282912
31
0
210
0
220
0
230
1
40
0.987534
41
-0.113421925745626
42
0.179668135830744
0
ELLIPSE
5
111
100
AcDbEntity
8
1
62
256
6
ByLayer
370
18
48
1
60
0
100
AcDbEllipse
10
10.566027
20
-9.290329
30
0
11
0.219819049807172
21
0.225620445309976
31
0
210
0
220
0
230
1
40
0.987534
41
0.303122758856307
42
0.949478605247341
0
ELLIPSE
5
112
100
AcDbEntity
8
1
62
256
6
ByLayer
370
18
48
1
60
0
100
AcDbEllipse
10
10.825991
20
-7.914012
30
0
11
-0.202373093473269
21
-0.207714060761566
31
0
210
0
220
0
230
1
40
0.987534
41
-2.97762749755539
42
-0.0977189459492687
0
ELLIPSE
5
113
100
AcDbEntity
8
1
62
256
6
ByLayer
370
18
48
1
60
0
100
AcDbEllipse
10
12.227684
20
-9.19089
30
0
11
-0.202373093473269
21
-0.207714060761566
31
0
210
0
220
0
230
1
40
0.987534
41
0.163965156034396
42
3.04387370764052
0
ELLIPSE
5
114
100
AcDbEntity
8
1
62
256
6
ByLayer
370
18
48
1
60
0
100
AcDbEllipse
10
11.526838
20
-8.552451
30
0
11
0.645500384354395
21
0.6625362282912
31
0
210
0
220
0
230
1
40
0.987534
41
1.9809731766476
42
2.27406323822395
0
ELLIPSE
5
115
100
AcDbEntity
8
1
62
256
6
ByLayer
370
18
48
1
60
0
100
AcDbEllipse
10
12.689613
20
-8.8003
30
0
11
0.219819049807172
21
0.225620445309976
31
0
210
0
220
0
230
1
40
0.987534
41
1.211162707231
42
1.68436297499625
0
ELLIPSE
5
116
100
AcDbEntity
8
1
62
256
6
ByLayer
370
18
48
1
60
0
100
AcDbEllipse
10
10.364062
20
-8.304602
30
0
11
0.219819049807172
21
0.225620445309976
31
0
210
0
220
0
230
1
40
0.987534
41
-0.570919213714518
42
-0.0977189459492259
0
ELLIPSE
5
117
100
AcDbEntity
8
1
62
256
6
ByLayer
370
18
48
1
60
0
100
AcDbEllipse
10
11.521956
20
-8.547695
30
0
11
0.628054428020492
21
0.644629843742789
31
0
210
0
220
0
230
1
40
0.987534
41
3.08122373352909
42
-3.01497752345351
0
ELLIPSE
5
118
100
AcDbEntity
8
1
62
256
6
ByLayer
370
18
48
1
60
0
100
AcDbEllipse
10
10.718232
20
-9.43862
30
0
11
0.219819049807172
21
0.225620445309976
31
0
210
0
220
0
230
1
40
0.987534
41
-0.883232395162256
42
-0.410032127397023
0
ELLIPSE
5
119
100
AcDbEntity
8
1
62
256
6
ByLayer
370
18
48
1
60
0
100
AcDbEllipse
10
11.881007
20
-9.686469
30
0
11
0.219819049807172
21
0.225620445309976
31
0
210
0
220
0
230
1
40
0.987534
41
0.163965156034294
42
0.637165423799612
0
ELLIPSE
5
11A
100
AcDbEntity
8
1
62
256
6
ByLayer
370
18
48
1
60
0
100
AcDbEllipse
10
11.521956
20
-8.547695
30
0
11
0.628054428020492
21
0.644629843742789
31
0
210
0
220
0
230
1
40
0.987534
41
0.986828631145633
42
1.17381268133273
0
ELLIPSE
5
11B
100
AcDbEntity
8
1
62
256
6
ByLayer
370
18
48
1
60
0
100
AcDbEllipse
10
11.521956
20
-8.547695
30
0
11
0.628054428020492
21
0.644629843742789
31
0
210
0
220
0
230
1
40
0.987534
41
-1.10756647124758
42
-0.920582421060491
0
ELLIPSE
5
11C
100
AcDbEntity
8
1
62
256
6
ByLayer
370
18
48
1
60
0
100
AcDbEllipse
10
11.521956
20
-8.547695
30
0
11
0.628054428020492
21
0.644629843742789
31
0
210
0
220
0
230
1
40
0.987534
41
-0.0603689200606998
42
0.126615130136285
0
ELLIPSE
5
11D
100
AcDbEntity
8
1
62
256
6
ByLayer
370
18
48
1
60
0
100
AcDbEllipse
10
10.364062
20
-8.304602
30
0
11
0.219819049807172
21
0.225620445309976
31
0
210
0
220
0
230
1
40
0.987534
41
-1.93042994635887
42
-1.45722967859358
0
ELLIPSE
5
11E
100
AcDbEntity
8
1
62
256
6
ByLayer
370
18
48
1
60
0
100
AcDbEllipse
10
12.335444
20
-7.666283
30
0
11
0.219819049807172
21
0.225620445309976
31
0
210
0
220
0
230
1
40
0.987534
41
-2.66531431610768
42
-2.19211404834249
0
ELLIPSE
5
11F
100
AcDbEntity
8
1
62
256
6
ByLayer
370
18
48
1
60
0
100
AcDbEllipse
10
11.526838
20
-8.552451
30
0
11
0.645500384354395
21
0.6625362282912
31
0
210
0
220
0
230
1
40
0.987534
41
-1.1606194769422
42
-0.867529415365841
0
ELLIPSE
5
120
100
AcDbEntity
8
1
62
256
6
ByLayer
370
18
48
1
60
0
100
AcDbEllipse
10
11.477345
20
-8.504231
30
0
11
-2.23308241073952
21
-2.29201722219659
31
0
210
0
220
0
230
1
40
0.987534
41
0
42
6.28318530717959
0
ELLIPSE
5
121
100
AcDbEntity
8
1
62
256
6
ByLayer
370
18
48
1
60
0
100
AcDbEllipse
10
11.526838
20
-8.552451
30
0
11
0.645500384354395
21
0.6625362282912
31
0
210
0
220
0
230
1
40
0.987534
41
-2.20781702813882
42
-1.91472696656245
0
ELLIPSE
5
122
100
AcDbEntity
8
1
62
256
6
ByLayer
370
18
48
1
60
0
100
AcDbEllipse
10
11.736793
20
-7.619101
30
0
11
-0.202373093473269
21
-0.207714060761566
31
0
210
0
220
0
230
1
40
0.987534
41
2.25836025842764
42
-1.14491649714583
0
ELLIPSE
5
123
100
AcDbEntity
8
1
62
256
6
ByLayer
370
18
48
1
60
0
100
AcDbEllipse
10
12.43764
20
-8.25754
30
0
11
-0.202373093473269
21
-0.207714060761566
31
0
210
0
220
0
230
1
40
0.987534
41
1.21116270723101
42
-2.1921140483424
0
ELLIPSE
5
124
100
AcDbEntity
8
1
62
256
6
ByLayer
370
18
48
1
60
0
100
AcDbEllipse
10
11.728802
20
-9.538178
30
0
11
0.219819049807172
21
0.225620445309976
31
0
210
0
220
0
230
1
40
0.987534
41
1.3503203100529
42
1.99667615644391
0
ELLIPSE
5
125
100
AcDbEntity
8
1
62
256
6
ByLayer
370
18
48
1
60
0
100
AcDbEllipse
10
11.316882
20
-9.485802
30
0
11
-0.202373093473269
21
-0.207714060761566
31
0
210
0
220
0
230
1
40
0.987534
41
-0.883232395162185
42
1.99667615644394
0
ELLIPSE
5
126
100
AcDbEntity
8
1
62
256
6
ByLayer
370
18
48
1
60
0
100
AcDbEllipse
10
11.728802
20
-9.538178
30
0
11
0.219819049807172
21
0.225620445309976
31
0
210
0
220
0
230
1
40
0.987534
41
0.163965156034392
42
0.81032100242538
0
ELLIPSE
5
127
100
AcDbEntity
8
1
62
256
6
ByLayer
370
18
48
1
60
0
100
AcDbEllipse
10
11.374633
20
-8.40416
30
0
11
0.628054428020492
21
0.644629843742789
31
0
210
0
220
0
230
1
40
0.987534
41
-3.01497752345366
42
-2.15476402244417
0
ELLIPSE
5
128
100
AcDbEntity
8
1
62
256
6
ByLayer
370
18
48
1
60
0
100
AcDbEllipse
10
11.374633
20
-8.40416
30
0
11
0.628054428020492
21
0.644629843742789
31
0
210
0
220
0
230
1
40
0.987534
41
-1.96777997225704
42
-1.10756647124756
0
ELLIPSE
5
129
100
AcDbEntity
8
1
62
256
6
ByLayer
370
18
48
1
60
0
100
AcDbEllipse
10
11.172669
20
-7.418434
30
0
11
0.219819049807172
21
0.225620445309976
31
0
210
0
220
0
230
1
40
0.987534
41
-1.61811676491109
42
-1.14491649714589
0
ELLIPSE
5
12A
100
AcDbEntity
8
1
62
256
6
ByLayer
370
18
48
1
60
0
100
AcDbEllipse
10
12.07548
20
-9.042599
30
0
11
-0.202373093473269
21
-0.207714060761566
31
0
210
0
220
0
230
1
40
0.987534
41
0.163965156034345
42
3.04387370764057
0
ELLIPSE
5
12B
100
AcDbEntity
8
1
62
256
6
ByLayer
370
18
48
1
60
0
100
AcDbEllipse
10
11.521956
20
-8.547695
30
0
11
0.628054428020492
21
0.644629843742789
31
0
210
0
220
0
230
1
40
0.987534
41
2.03402618234222
42
2.22101023252931
0
ELLIPSE
5
12C
100
AcDbEntity
8
1
62
256
6
ByLayer
370
18
48
1
60
0
100
AcDbEllipse
10
11.521956
20
-8.547695
30
0
11
0.628054428020492
21
0.644629843742789
31
0
210
0
220
0
230
1
40
0.987534
41
-2.15476402245198
42
-1.96777997225198
0
ELLIPSE
5
12D
100
AcDbEntity
8
1
62
256
6
ByLayer
370
18
48
1
60
0
100
AcDbEllipse
10
12.689613
20
-8.8003
30
0
11
0.219819049807172
21
0.225620445309976
31
0
210
0
220
0
230
1
40
0.987534
41
2.57067343987525
42
3.04387370764052
0
ELLIPSE
5
12E
100
AcDbEntity
8
1
62
256
6
ByLayer
370
18
48
1
60
0
100
AcDbEllipse
10
11.526838
20
-8.552451
30
0
11
-1.32589268137659
21
-1.36088522567922
31
0
210
0
220
0
230
1
40
0.987534
41
0
42
6.28318530717959
0
ELLIPSE
5
12F
100
AcDbEntity
8
1
62
256
6
ByLayer
370
18
48
1
60
0
100
AcDbEllipse
10
15.032921
20
-4.05452
30
0
11
1.26024180847153
21
1.29350171550199
31
0
210
0
220
0
230
1
40
0.987534
41
1.32466675151839
42
1.41309729946599
0
ELLIPSE
5
130
100
AcDbEntity
8
1
62
256
6
ByLayer
370
18
48
1
60
0
100
AcDbEllipse
10
15.202751
20
-3.949169
30
0
11
1.26024180847153
21
1.293501715502
31
0
210
0
220
0
230
1
40
0.987534
41
-0.246129575276524
42
1.32466675151838
0
POINT
5
6C
100
AcDbEntity
8
2
62
256
6
ByLayer
370
18
48
1
60
0
100
AcDbPoint
10
30.093464
20
35.2875
30
0
39
0
210
0
220
0
230
1
50
360
0
POINT
5
6E
100
AcDbEntity
8
80
62
256
6
ByLayer
370
18
48
1
60
0
100
AcDbPoint
10
0
20
0
30
0
39
0
210
0
220
0
230
1
50
360
0
POINT
5
70
100
AcDbEntity
8
81
62
256
6
ByLayer
370
18
48
1
60
0
100
AcDbPoint
10
30.093464
20
-15.4125
30
0
39
0
210
0
220
0
230
1
50
360
0
SPLINE
5
131
100
AcDbEntity
8
1
62
256
6
ByLayer
370
18
48
1
60
0
100
AcDbSpline
70
4
71
3
72
8
73
4
40
0
40
0
40
0
40
0
40
1
40
1
40
1
40
1
41
1
10
4.2726619751991
20
-11.8637012538683
30
0
41
1
10
4.15403915038385
20
-11.7946331118362
30
0
41
1
10
4.03547167646749
20
-11.7169462841107
30
0
41
1
10
3.92014733099259
20
-11.6299717954087
30
0
0
SPLINE
5
132
100
AcDbEntity
8
1
62
256
6
ByLayer
370
18
48
1
60
0
100
AcDbSpline
70
4
71
3
72
8
73
4
40
0
40
0
40
0
40
0
40
1
40
1
40
1
40
1
41
1
10
8.26172260978305
20
-10.6093523465641
30
0
41
1
10
8.66875954714769
20
-11.0732588630933
30
0
41
1
10
9.25287938076005
20
-11.407584017199
30
0
41
1
10
9.91215399283598
20
-11.5481102148167
30
0
0
SPLINE
5
133
100
AcDbEntity
8
1
62
256
6
ByLayer
370
18
48
1
60
0
100
AcDbSpline
70
4
71
2
72
6
73
3
40
0
40
0
40
0
40
1
40
1
40
1
41
1.02990374504916
10
11.6861726149859
20
-13.2289116594276
30
0
41
1.02990374504916
10
11.4805208762827
20
-13.4663165872819
30
0
41
1.02990374504916
10
11.2748691375794
20
-13.7037215151362
30
0
0
SPLINE
5
134
100
AcDbEntity
8
1
62
256
6
ByLayer
370
18
48
1
60
0
100
AcDbSpline
70
4
71
3
72
8
73
4
40
0
40
0
40
0
40
0
40
1
40
1
40
1
40
1
41
1
10
19.1013505341283
20
-5.51773536252642
30
0
41
1
10
17.4497834274154
20
-4.38629459248827
30
0
41
1
10
15.6258409797127
20
-3.51267377239634
30
0
41
1
10
13.6951589725829
20
-2.94439608363169
30
0
0
SPLINE
5
135
100
AcDbEntity
8
1
62
256
6
ByLayer
370
18
48
1
60
0
100
AcDbSpline
70
4
71
3
72
12
73
8
40
0
40
0
40
0
40
0
40
0.391502209781615
40
0.391502209781615
40
0.886018843801029
40
0.886018843801029
40
1
40
1
40
1
40
1
41
1
10
5.74503370450506
20
-3.95181754414338
30
0
41
1
10
5.92191909825416
20
-4.08304408533226
30
0
41
1
10
6.12809511663184
20
-4.24534324791858
30
0
41
1
10
6.63461581016921
20
-4.6561619268461
30
0
41
1
10
6.95126655735803
20
-4.92082455337464
30
0
41
1
10
7.35671926403151
20
-5.26419397359516
30
0
41
1
10
7.43416331639335
20
-5.32997116815218
30
0
41
1
10
7.51226591020654
20
-5.39646505884843
30
0
0
SPLINE
5
136
100
AcDbEntity
8
1
62
256
6
ByLayer
370
18
48
1
60
0
100
AcDbSpline
70
4
71
3
72
8
73
4
40
0
40
0
40
0
40
0
40
1
40
1
40
1
40
1
41
1
10
5.59418374188883
20
-3.9352977552451
30
0
41
1
10
5.60064084893875
20
-3.9065928806919
30
0
41
1
10
5.60794371893101
20
-3.87858770146295
30
0
41
1
10
5.61603114358084
20
-3.85122779512343
30
0
0
SPLINE
5
137
100
AcDbEntity
8
1
62
256
6
ByLayer
370
18
48
1
60
0
100
AcDbSpline
70
4
71
3
72
8
73
4
40
0
40
0
40
0
40
0
40
1
40
1
40
1
40
1
41
1
10
11.2748691375793
20
-13.7037215151362
30
0
41
1
10
13.2798799483726
20
-13.9737956375642
30
0
41
1
10
15.2929834519985
20
-13.9232938301953
30
0
41
1
10
17.2911099779904
20
-13.5651051325055
30
0
0
SPLINE
5
138
100
AcDbEntity
8
1
62
256
6
ByLayer
370
18
48
1
60
0
100
AcDbSpline
70
4
71
2
72
8
73
5
40
0
40
0
40
0
40
0.581603760044147
40
0.872405640066221
40
1
40
1
40
1
41
1.02990374504916
10
11.6861726149859
20
-13.2289116594276
30
0
41
1.02669755169729
10
13.4243401666809
20
-12.9466340065462
30
0
41
1.02039724512338
10
16.0433101446553
20
-12.1312861804184
30
0
41
1.01761724169577
10
17.2987915155447
20
-11.6018457136248
30
0
41
1.01686274329252
10
17.6615754623544
20
-11.4928845340779
30
0
0
SPLINE
5
139
100
AcDbEntity
8
1
62
256
6
ByLayer
370
18
48
1
60
0
100
AcDbSpline
70
4
71
3
72
16
73
12
40
0
40
0
40
0
40
0
40
0.346164403850465
40
0.346164403850465
40
0.57405813868187
40
0.57405813868187
40
0.756733946461149
40
0.756733946461149
40
0.941193093213315
40
0.941193093213315
40
1
40
1
40
1
40
1
41
1
10
7.41250619049876
20
-1.71858552483818
30
0
41
1
10
7.14267693492522
20
-1.78508421494161
30
0
41
1
10
6.93566051037519
20
-1.91511705653548
30
0
41
1
10
6.58662846262931
20
-2.21360749355637
30
0
41
1
10
6.44283491818933
20
-2.35999063434136
30
0
41
1
10
6.18288468314793
20
-2.68316081340575
30
0
41
1
10
6.06551137278242
20
-2.8516829308133
30
0
41
1
10
5.85418759040746
20
-3.2234277505392
30
0
41
1
10
5.75780874578564
20
-3.4333412017001
30
0
41
1
10
5.65866851303409
20
-3.71333551022059
30
0
41
1
10
5.63631180009
20
-3.78261796113816
30
0
41
1
10
5.61603114358084
20
-3.85122779512343
30
0
0
SPLINE
5
13A
100
AcDbEntity
8
1
62
256
6
ByLayer
370
18
48
1
60
0
100
AcDbSpline
70
4
71
3
72
14
73
10
40
0
40
0
40
0
40
0
40
0.304391776008986
40
0.304391776008986
40
0.57737387968717
40
0.57737387968717
40
0.851610378463916
40
0.851610378463916
40
1
40
1
40
1
40
1
41
1
10
23.524413204278
20
-11.0826751600558
30
0
41
1
10
23.4175107243376
20
-11.2072600892575
30
0
41
1
10
23.2934705303174
20
-11.3302121218537
30
0
41
1
10
23.0346824203719
20
-11.5424129268683
30
0
41
1
10
22.8991517044428
20
-11.6359423244571
30
0
41
1
10
22.6216354007014
20
-11.7908138787467
30
0
41
1
10
22.4758480060843
20
-11.8539490935767
30
0
41
1
10
22.2606623968674
20
-11.9203976692604
30
0
41
1
10
22.1855531080798
20
-11.9383456758787
30
0
41
1
10
22.1132663617435
20
-11.9506507982173
30
0
0
SPLINE
5
13B
100
AcDbEntity
8
1
62
256
6
ByLayer
370
18
48
1
60
0
100
AcDbSpline
70
4
71
3
72
8
73
4
40
0
40
0
40
0
40
0
40
1
40
1
40
1
40
1
41
1
10
13.6787206967713
20
-5.61008916670812
30
0
41
1
10
13.7785492058263
20
-4.86786642207082
30
0
41
1
10
13.8158702286816
20
-4.26010256962761
30
0
41
1
10
13.7833713977113
20
-3.90587775185253
30
0
0
SPLINE
5
13C
100
AcDbEntity
8
1
62
256
6
ByLayer
370
18
48
1
60
0
100
AcDbSpline
70
4
71
3
72
8
73
4
40
0
40
0
40
0
40
0
40
1
40
1
40
1
40
1
41
1
10
19.2773521577974
20
-13.4386645539455
30
0
41
1
10
19.3379850496554
20
-13.4435279951874
30
0
41
1
10
19.3987542330716
20
-13.4476245259178
30
0
41
1
10
19.459636424002
20
-13.450981388156
30
0
0
SPLINE
5
13D
100
AcDbEntity
8
1
62
256
6
ByLayer
370
18
48
1
60
0
100
AcDbSpline
70
4
71
3
72
12
73
8
40
0
40
0
40
0
40
0
40
0.415356444741146
40
0.415356444741146
40
0.825259843212189
40
0.825259843212189
40
1
40
1
40
1
40
1
41
1
10
7.84056398719596
20
-10.2280661114129
30
0
41
1
10
7.7022882542112
20
-10.1282696275707
30
0
41
1
10
7.54342819022841
20
-10.0357409612696
30
0
41
1
10
7.22125887509114
20
-9.88231109396213
30
0
41
1
10
7.05393269443456
20
-9.81855866754444
30
0
41
1
10
6.81933668057226
20
-9.74542209950715
30
0
41
1
10
6.74899385438258
20
-9.72558481513494
30
0
41
1
10
6.67925419257651
20
-9.70772253056001
30
0
0
SPLINE
5
13E
100
AcDbEntity
8
1
62
256
6
ByLayer
370
18
48
1
60
0
100
AcDbSpline
70
4
71
3
72
15
73
11
40
0
40
0
40
0
40
0
40
0.225043240787982
40
0.225043240787982
40
0.520482827227112
40
0.520482827227112
40
0.820975208236873
40
0.820975208236873
40
0.820975208236873
40
1
40
1
40
1
40
1
41
1
10
15.7072172395877
20
-8.59393628024455
30
0
41
1
10
15.7036173038389
20
-8.31297964146341
30
0
41
1
10
15.6555321515708
20
-8.02583395727771
30
0
41
1
10
15.460477278511
20
-7.39902135589307
30
0
41
1
10
15.2855926181588
20
-7.0594869237363
30
0
41
1
10
14.8450660943352
20
-6.45236149946138
30
0
41
1
10
14.5712084428863
20
-6.17681965909966
30
0
41
1
10
14.2653254821344
20
-5.95424708682197
30
0
41
1
10
14.0815948857694
20
-5.82055741892225
30
0
41
1
10
13.8840151488243
20
-5.70423463663747
30
0
41
1
10
13.6787206896293
20
-5.61008921980863
30
0
0
SPLINE
5
13F
100
AcDbEntity
8
1
62
256
6
ByLayer
370
18
48
1
60
0
100
AcDbSpline
70
4
71
3
72
10
73
6
40
0
40
0
40
0
40
0
40
0.106616270583437
40
0.106616270583437
40
1
40
1
40
1
40
1
41
1
10
19.9883999238757
20
-10.1884142597493
30
0
41
1
10
19.9554791723583
20
-10.1694219076347
30
0
41
1
10
19.9225754983617
20
-10.1501571356455
30
0
41
1
10
19.6145079591704
20
-9.96713734659289
30
0
41
1
10
19.3403556238444
20
-9.78432482876272
30
0
41
1
10
19.0698819920788
20
-9.58414454131449
30
0
0
SPLINE
5
140
100
AcDbEntity
8
1
62
256
6
ByLayer
370
18
48
1
60
0
100
AcDbSpline
70
4
71
3
72
11
73
7
40
0
40
0
40
0
40
0
40
0.559926195718572
40
0.559926195718572
40
0.559926195718572
40
1
40
1
40
1
40
1
41
1
10
19.2773521577973
20
-13.4386645539455
30
0
41
1
10
18.9588513213351
20
-13.4131171974501
30
0
41
1
10
18.5928412174614
20
-13.4125789255239
30
0
41
1
10
18.2143369030208
20
-13.4428938366091
30
0
41
1
10
17.9147048952343
20
-13.4668917603521
30
0
41
1
10
17.6019346546267
20
-13.5093859952607
30
0
41
1
10
17.2911099779904
20
-13.5651051325055
30
0
0
SPLINE
5
141
100
AcDbEntity
8
1
62
256
6
ByLayer
370
18
48
1
60
0
100
AcDbSpline
70
4
71
3
72
8
73
4
40
0
40
0
40
0
40
0
40
1
40
1
40
1
40
1
41
1
10
6.67925419257651
20
-9.70772253056001
30
0
41
1
10
6.63578690258802
20
-9.69658933772016
30
0
41
1
10
6.59267247536556
20
-9.68545009530632
30
0
41
1
10
6.54997030347877
20
-9.67432114217436
30
0
0
SPLINE
5
142
100
AcDbEntity
8
1
62
256
6
ByLayer
370
18
48
1
60
0
100
AcDbSpline
70
4
71
3
72
8
73
4
40
0
40
0
40
0
40
0
40
1
40
1
40
1
40
1
41
1
10
6.54997030347934
20
-9.67432114217436
30
0
41
1
10
5.69035754799287
20
-9.85619901540809
30
0
41
1
10
4.92239861741254
20
-9.96895524617784
30
0
41
1
10
4.3947411817206
20
-9.95450221035577
30
0
0
SPLINE
5
143
100
AcDbEntity
8
1
62
256
6
ByLayer
370
18
48
1
60
0
100
AcDbSpline
70
4
71
3
72
8
73
4
40
0
40
0
40
0
40
0
40
1
40
1
40
1
40
1
41
1
10
20.1762542989541
20
-13.2095929813669
30
0
41
1
10
19.0138271873553
20
-12.9465020406594
30
0
41
1
10
18.7019245650789
20
-11.8954045026863
30
0
41
1
10
17.6615754623546
20
-11.4928845340778
30
0
0
SPLINE
5
144
100
AcDbEntity
8
1
62
256
6
ByLayer
370
18
48
1
60
0
100
AcDbSpline
70
4
71
3
72
16
73
12
40
0
40
0
40
0
40
0
40
0.28382542465983
40
0.28382542465983
40
0.572792249827486
40
0.572792249827486
40
0.572792249827486
40
0.894188232602853
40
0.894188232602853
40
0.894188232602853
40
1
40
1
40
1
40
1
41
1
10
12.2480356888354
20
-11.9701562212432
30
0
41
1
10
12.6048073457284
20
-11.9688695499236
30
0
41
1
10
12.9682474762037
20
-11.9133429754518
30
0
41
1
10
13.6584439472804
20
-11.7067910877139
30
0
41
1
10
13.993570013404
20
-11.5520200232381
30
0
41
1
10
14.2933234997647
20
-11.3526841686611
30
0
41
1
10
14.6247682542697
20
-11.1322736433776
30
0
41
1
10
14.9243086614023
20
-10.8475589406697
30
0
41
1
10
15.1505683672421
20
-10.5150635808051
30
0
41
1
10
15.2264425935967
20
-10.4035641509682
30
0
41
1
10
15.2948011881221
20
-10.285964387491
30
0
41
1
10
15.3539711107458
20
-10.1642812871304
30
0
0
SPLINE
5
145
100
AcDbEntity
8
1
62
256
6
ByLayer
370
18
48
1
60
0
100
AcDbSpline
70
4
71
3
72
12
73
8
40
0
40
0
40
0
40
0
40
0.307573270173409
40
0.307573270173409
40
0.648852820657659
40
0.648852820657659
40
1
40
1
40
1
40
1
41
1
10
15.3539711107458
20
-10.1642812871304
30
0
41
1
10
15.4270355428542
20
-10.0139747964032
30
0
41
1
10
15.4895336791277
20
-9.85805705300541
30
0
41
1
10
15.5969762475122
20
-9.52292637076036
30
0
41
1
10
15.6396172713889
20
-9.34188176311793
30
0
41
1
10
15.6962640783247
20
-8.97229169333895
30
0
41
1
10
15.7096102818208
20
-8.78235099136469
30
0
41
1
10
15.7072172395877
20
-8.59393628024455
30
0
0
SPLINE
5
146
100
AcDbEntity
8
1
62
256
6
ByLayer
370
18
48
1
60
0
100
AcDbSpline
70
4
71
3
72
8
73
4
40
0
40
0
40
0
40
0
40
1
40
1
40
1
40
1
41
1
10
11.686172614986
20
-13.2289116594276
30
0
41
1
10
11.8377032240705
20
-13.0539843111628
30
0
41
1
10
12.0380774642632
20
-12.6050810529603
30
0
41
1
10
12.2480356888354
20
-11.9701562212432
30
0
0
SPLINE
5
147
100
AcDbEntity
8
1
62
256
6
ByLayer
370
18
48
1
60
0
100
AcDbSpline
70
4
71
3
72
10
73
6
40
0
40
0
40
0
40
0
40
0.207845795367695
40
0.207845795367695
40
1
40
1
40
1
40
1
41
1
10
8.91059356170908
20
-5.47128192506585
30
0
41
1
10
8.95089433113586
20
-5.46202135796358
30
0
41
1
10
8.99090830098604
20
-5.45180994586954
30
0
41
1
10
9.18027674633717
20
-5.39857424477728
30
0
41
1
10
9.32557346041605
20
-5.34275157347423
30
0
41
1
10
9.46166459039719
20
-5.27504647888162
30
0
0
SPLINE
5
148
100
AcDbEntity
8
1
62
256
6
ByLayer
370
18
48
1
60
0
100
AcDbSpline
70
4
71
3
72
10
73
6
40
0
40
0
40
0
40
0
40
0.759976532001893
40
0.759976532001893
40
1
40
1
40
1
40
1
41
1
10
18.8743937388441
20
-10.4531816723918
30
0
41
1
10
19.1611746418023
20
-10.37164314943
30
0
41
1
10
19.4453201743464
20
-10.3008429113002
30
0
41
1
10
19.8131023324129
20
-10.2226130914039
30
0
41
1
10
19.9009929500339
20
-10.2049485160649
30
0
41
1
10
19.9883999238757
20
-10.1884142597494
30
0
0
SPLINE
5
149
100
AcDbEntity
8
1
62
256
6
ByLayer
370
18
48
1
60
0
100
AcDbSpline
70
4
71
3
72
14
73
10
40
0
40
0
40
0
40
0
40
0.262932482489326
40
0.262932482489326
40
0.526305718382448
40
0.526305718382448
40
0.786105451116559
40
0.786105451116559
40
1
40
1
40
1
40
1
41
1
10
22.8130793179224
20
-8.83965341773001
30
0
41
1
10
22.9215283932728
20
-8.89891871622669
30
0
41
1
10
23.0306030756983
20
-8.98069771973715
30
0
41
1
10
23.2317480439875
20
-9.17970700005415
30
0
41
1
10
23.3263334916805
20
-9.29957193151836
30
0
41
1
10
23.4876408856369
20
-9.55663357613309
30
0
41
1
10
23.5567670594261
20
-9.69646074866196
30
0
41
1
10
23.6580631377325
20
-9.95468624392191
30
0
41
1
10
23.6954479698041
20
-10.0742161287937
30
0
41
1
10
23.7246166165561
20
-10.1926769317259
30
0
0
SPLINE
5
14A
100
AcDbEntity
8
1
62
256
6
ByLayer
370
18
48
1
60
0
100
AcDbSpline
70
4
71
3
72
12
73
8
40
0
40
0
40
0
40
0
40
0.369659083875782
40
0.369659083875782
40
0.727704501586108
40
0.727704501586108
40
1
40
1
40
1
40
1
41
1
10
5.55978598322471
20
-11.9230554915612
30
0
41
1
10
5.75406815763856
20
-11.8546071122265
30
0
41
1
10
5.99770527261049
20
-11.7177658865889
30
0
41
1
10
6.52910668587415
20
-11.3534658070216
30
0
41
1
10
6.82159644335476
20
-11.1248724269562
30
0
41
1
10
7.35647605328805
20
-10.6709887829248
30
0
41
1
10
7.59760157338442
20
-10.4550410502145
30
0
41
1
10
7.84056398719585
20
-10.2280661114127
30
0
0
SPLINE
5
14B
100
AcDbEntity
8
1
62
256
6
ByLayer
370
18
48
1
60
0
100
AcDbSpline
70
4
71
2
72
6
73
3
40
0
40
0
40
0
40
1
40
1
40
1
41
1
10
21.047537519509
20
-6.39478527051955
30
0
41
1
10
21.3257614178424
20
-6.64226980297363
30
0
41
1
10
21.5915618266173
20
-6.90184351954048
30
0
0
SPLINE
5
14C
100
AcDbEntity
8
1
62
256
6
ByLayer
370
18
48
1
60
0
100
AcDbSpline
70
4
71
3
72
8
73
4
40
0
40
0
40
0
40
0
40
1
40
1
40
1
40
1
41
1
10
21.0463892763544
20
-6.39711946181461
30
0
41
1
10
20.9882370989305
20
-6.38162640692511
30
0
41
1
10
20.9298688271371
20
-6.3668566959951
30
0
41
1
10
20.8712943087255
20
-6.35284281772189
30
0
0
SPLINE
5
14D
100
AcDbEntity
8
1
62
256
6
ByLayer
370
18
48
1
60
0
100
AcDbSpline
70
4
71
2
72
8
73
5
40
0
40
0
40
0
40
0.145991510278039
40
0.563470207586078
40
1
40
1
40
1
41
1.02393576174182
10
15.7072172391119
20
-8.59393628010566
30
0
41
1.02323174907608
10
15.9620022566972
20
-8.66831630415916
30
0
41
1.02039724512338
10
16.9389780406554
20
-8.95624060778345
30
0
41
1.01644464721285
10
18.3465997289289
20
-9.42637715015856
30
0
41
1.01495409538129
10
19.0698819921487
20
-9.58414454132974
30
0
0
SPLINE
5
14E
100
AcDbEntity
8
1
62
256
6
ByLayer
370
18
48
1
60
0
100
AcDbSpline
70
4
71
3
72
10
73
6
40
0
40
0
40
0
40
0
40
0.679966690484295
40
0.679966690484295
40
1
40
1
40
1
40
1
41
1
10
8.26172260978305
20
-10.6093523465641
30
0
41
1
10
8.17908069902111
20
-10.5151640372939
30
0
41
1
10
8.08680076965797
20
-10.425159978557
30
0
41
1
10
7.93992359365169
20
-10.3024687622724
30
0
41
1
10
7.89100497495107
20
-10.2644704255382
30
0
41
1
10
7.84056398719596
20
-10.2280661114129
30
0
0
SPLINE
5
14F
100
AcDbEntity
8
1
62
256
6
ByLayer
370
18
48
1
60
0
100
AcDbSpline
70
4
71
3
72
8
73
4
40
0
40
0
40
0
40
0
40
1
40
1
40
1
40
1
41
1
10
8.91059356170908
20
-5.47128192506585
30
0
41
1
10
8.46945495187853
20
-4.27634463387909
30
0
41
1
10
8.01849973815811
20
-3.18449280159587
30
0
41
1
10
7.65698476595006
20
-2.60002158398612
30
0
0
SPLINE
5
150
100
AcDbEntity
8
1
62
256
6
ByLayer
370
18
48
1
60
0
100
AcDbSpline
70
4
71
3
72
8
73
4
40
0
40
0
40
0
40
0
40
1
40
1
40
1
40
1
41
1
10
13.6787206896293
20
-5.61008921980863
30
0
41
1
10
13.4572197313185
20
-5.50771268710557
30
0
41
1
10
13.2207022983893
20
-5.42699260212561
30
0
41
1
10
12.9799239268791
20
-5.37567002971474
30
0
0
SPLINE
5
151
100
AcDbEntity
8
1
62
256
6
ByLayer
370
18
48
1
60
0
100
AcDbSpline
70
4
71
3
72
25
73
21
40
0
40
0
40
0
40
0
40
0.442411593548778
40
0.442411593548778
40
0.442411593548778
40
0.583396916265378
40
0.583396916265378
40
0.65160253048866
40
0.65160253048866
40
0.706341521306455
40
0.706341521306455
40
0.742475286987745
40
0.742475286987745
40
0.778972968742941
40
0.778972968742941
40
0.81153946498019
40
0.81153946498019
40
0.868309796146669
40
0.868309796146669
40
1
40
1
40
1
40
1
41
1
10
19.0698819920788
20
-9.58414454131449
30
0
41
1
10
18.8181090872381
20
-9.39767749915541
30
0
41
1
10
18.5650990086677
20
-9.1668787918203
30
0
41
1
10
18.3535048804464
20
-8.88293158233125
30
0
41
1
10
18.2848154788053
20
-8.79075433676479
30
0
41
1
10
18.2196150769782
20
-8.69158340581112
30
0
41
1
10
18.1388733284947
20
-8.5352257920897
30
0
41
1
10
18.1147993155109
20
-8.48207597352774
30
0
41
1
10
18.0807152419694
20
-8.38498950362751
30
0
41
1
10
18.0686151012647
20
-8.34044201725476
30
0
41
1
10
18.0592380885186
20
-8.26948915789743
30
0
41
1
10
18.0583846215053
20
-8.24153144830748
30
0
41
1
10
18.0645519011272
20
-8.19108388890936
30
0
41
1
10
18.071846113273
20
-8.16808601586712
30
0
41
1
10
18.0922078177502
20
-8.13319903058144
30
0
41
1
10
18.1047086261842
20
-8.11991141056802
30
0
41
1
10
18.142988911274
20
-8.09208385412495
30
0
41
1
10
18.172176548331
20
-8.08296573362492
30
0
41
1
10
18.2720954301672
20
-8.0683327335494
30
0
41
1
10
18.3490725003229
20
-8.08050589179794
30
0
41
1
10
18.4254196431993
20
-8.09723827575084
30
0
0
SPLINE
5
152
100
AcDbEntity
8
1
62
256
6
ByLayer
370
18
48
1
60
0
100
AcDbSpline
70
4
71
3
72
8
73
4
40
0
40
0
40
0
40
0
40
1
40
1
40
1
40
1
41
1
10
12.2480356699244
20
-11.97015622102
30
0
41
1
10
11.9999010926587
20
-11.9672284573908
30
0
41
1
10
11.75528482791
20
-11.9409786238538
30
0
41
1
10
11.5146101620907
20
-11.8896781565963
30
0
0
SPLINE
5
153
100
AcDbEntity
8
1
62
256
6
ByLayer
370
18
48
1
60
0
100
AcDbSpline
70
4
71
3
72
8
73
4
40
0
40
0
40
0
40
0
40
1
40
1
40
1
40
1
41
1
10
7.51226591020608
20
-5.39646505884917
30
0
41
1
10
7.55496808209281
20
-5.40759401198116
30
0
41
1
10
7.59808250931476
20
-5.41873325439497
30
0
41
1
10
7.64154979930325
20
-5.42986644723484
30
0
0
SPLINE
5
154
100
AcDbEntity
8
1
62
256
6
ByLayer
370
18
48
1
60
0
100
AcDbSpline
70
4
71
3
72
10
73
6
40
0
40
0
40
0
40
0
40
0.560518156563268
40
0.560518156563268
40
1
40
1
40
1
40
1
41
1
10
19.1013505341283
20
-5.51773536252642
30
0
41
1
10
19.4286873466623
20
-5.74198432808765
30
0
41
1
10
19.7714150861846
20
-5.93987257366052
30
0
41
1
10
20.3670922753636
20
-6.2061027068217
30
0
41
1
10
20.6284136430181
20
-6.29473393050549
30
0
41
1
10
20.8712943087255
20
-6.35284281772189
30
0
0
SPLINE
5
155
100
AcDbEntity
8
1
62
256
6
ByLayer
370
18
48
1
60
0
100
AcDbSpline
70
4
71
3
72
8
73
4
40
0
40
0
40
0
40
0
40
1
40
1
40
1
40
1
41
1
10
18.4254196431993
20
-8.09723827575084
30
0
41
1
10
19.5902208146552
20
-7.94473689624178
30
0
41
1
10
20.3752029085233
20
-6.87231528034323
30
0
41
1
10
21.593799421263
20
-6.90793892020875
30
0
0
SPLINE
5
156
100
AcDbEntity
8
1
62
256
6
ByLayer
370
18
48
1
60
0
100
AcDbSpline
70
4
71
3
72
12
73
8
40
0
40
0
40
0
40
0
40
0.501637567130153
40
0.501637567130153
40
0.886957471304447
40
0.886957471304447
40
1
40
1
40
1
40
1
41
1
10
7.64154979930325
20
-5.42986644723484
30
0
41
1
10
7.83964676985377
20
-5.48060464082178
30
0
41
1
10
8.05234175105832
20
-5.51594101908969
30
0
41
1
10
8.43361124132545
20
-5.53299200775228
30
0
41
1
10
8.60467638437748
20
-5.52496615818791
30
0
41
1
10
8.81581955104232
20
-5.49133291607967
30
0
41
1
10
8.86369278587748
20
-5.48205908361427
30
0
41
1
10
8.91059356170908
20
-5.47128192506585
30
0
0
SPLINE
5
157
100
AcDbEntity
8
1
62
256
6
ByLayer
370
18
48
1
60
0
100
AcDbSpline
70
4
71
2
72
6
73
3
40
0
40
0
40
0
40
1
40
1
40
1
41
1
10
20.1716046390453
20
-13.2142203445421
30
0
41
1
10
19.8186893705243
20
-13.3419131115245
30
0
41
1
10
19.4596774976504
20
-13.4535690854709
30
0
0
SPLINE
5
158
100
AcDbEntity
8
1
62
256
6
ByLayer
370
18
48
1
60
0
100
AcDbSpline
70
4
71
3
72
24
73
20
40
0
40
0
40
0
40
0
40
0.142613444608221
40
0.142613444608221
40
0.190795218269488
40
0.190795218269488
40
0.22695117616232
40
0.22695117616232
40
0.263437466712853
40
0.263437466712853
40
0.296119365572352
40
0.296119365572352
40
0.352324850832282
40
0.352324850832282
40
0.455294648588107
40
0.455294648588107
40
0.662705158043646
40
0.662705158043646
40
1
40
1
40
1
40
1
41
1
10
17.6615754623546
20
-11.4928845340778
30
0
41
1
10
17.5764847293236
20
-11.4876060171852
30
0
41
1
10
17.4921203906408
20
-11.4782251793961
30
0
41
1
10
17.4072507357348
20
-11.4378351179585
30
0
41
1
10
17.388195236649
20
-11.4246982066201
30
0
41
1
10
17.3654051087974
20
-11.3944598763863
30
0
41
1
10
17.3590104931148
20
-11.3788041792341
30
0
41
1
10
17.3563832084666
20
-11.3429743965109
30
0
41
1
10
17.3603248205465
20
-11.3222607368344
30
0
41
1
10
17.3766557452654
20
-11.2817536701548
30
0
41
1
10
17.3881813600369
20
-11.2616711906832
30
0
41
1
10
17.4255901771893
20
-11.2081922996306
30
0
41
1
10
17.4562256389227
20
-11.1745895901663
30
0
41
1
10
17.5493158288731
20
-11.0851192472806
30
0
41
1
10
17.6189289400573
20
-11.0314934323614
30
0
41
1
10
17.8321913495271
20
-10.8841205906024
30
0
41
1
10
17.9855358441102
20
-10.8003010872217
30
0
41
1
10
18.383366254884
20
-10.6110849295639
30
0
41
1
10
18.6332410014775
20
-10.5218143759876
30
0
41
1
10
18.8743937388441
20
-10.4531816723918
30
0
0
SPLINE
5
159
100
AcDbEntity
8
1
62
256
6
ByLayer
370
18
48
1
60
0
100
AcDbSpline
70
4
71
3
72
10
73
6
40
0
40
0
40
0
40
0
40
0.715855354518055
40
0.715855354518055
40
1
40
1
40
1
40
1
41
1
10
7.64634576614722
20
-1.47902233045633
30
0
41
1
10
7.3572971916071
20
-1.3889969918603
30
0
41
1
10
7.02589904341082
20
-1.32083289674998
30
0
41
1
10
6.52916208051292
20
-1.31087277188229
30
0
41
1
10
6.38308227518016
20
-1.3177758586202
30
0
41
1
10
6.23553931733184
20
-1.33696658494569
30
0
0
SPLINE
5
15A
100
AcDbEntity
8
1
62
256
6
ByLayer
370
18
48
1
60
0
100
AcDbSpline
70
4
71
1
72
4
73
2
40
0
40
0
40
1
40
1
41
1
10
13.7833713977113
20
-3.90587775185253
30
0
41
1
10
13.6951589725829
20
-2.94439608363169
30
0
0
SPLINE
5
15B
100
AcDbEntity
8
1
62
256
6
ByLayer
370
18
48
1
60
0
100
AcDbSpline
70
4
71
2
72
8
73
5
40
0
40
0
40
0
40
0.58160376007072
40
0.87240564010608
40
1
40
1
40
1
41
1.02990374504916
10
13.7833713977113
20
-3.90587775185254
30
0
41
1.02669755169729
10
15.2236128541511
20
-4.94802156764071
30
0
41
1.02039724512338
10
17.2359947543524
20
-6.82924273775394
30
0
41
1.01761724169607
10
18.1424507165899
20
-7.85138419207797
30
0
41
1.01686274329306
10
18.4254196431992
20
-8.09723827575075
30
0
0
SPLINE
5
15C
100
AcDbEntity
8
1
62
256
6
ByLayer
370
18
48
1
60
0
100
AcDbSpline
70
4
71
2
72
8
73
5
40
0
40
0
40
0
40
0.145991510275426
40
0.563470207592133
40
1
40
1
40
1
41
1.02393576174177
10
15.353971110213
20
-10.1642812870732
30
0
41
1.02323174907605
10
15.6190870344993
20
-10.1927355770626
30
0
41
1.02039724512338
10
16.6382995996814
20
-10.2928975441959
30
0
41
1.01644464721292
10
18.1365825051705
20
-10.3600023811761
30
0
41
1.01495409538139
10
18.8743937388645
20
-10.4531816723944
30
0
0
SPLINE
5
15D
100
AcDbEntity
8
1
62
256
6
ByLayer
370
18
48
1
60
0
100
AcDbSpline
70
4
71
3
72
8
73
4
40
0
40
0
40
0
40
0
40
1
40
1
40
1
40
1
41
1
10
11.3774677576244
20
-5.03410208793514
30
0
41
1
10
10.7096232760822
20
-4.89174919905997
30
0
41
1
10
10.0412053219598
20
-4.98672599792033
30
0
41
1
10
9.46166459039719
20
-5.27504647888162
30
0
0
SPLINE
5
15E
100
AcDbEntity
8
1
62
256
6
ByLayer
370
18
48
1
60
0
100
AcDbSpline
70
4
71
3
72
16
73
12
40
0
40
0
40
0
40
0
40
0.151798394921706
40
0.151798394921706
40
0.302355402833643
40
0.302355402833643
40
0.469907609657965
40
0.469907609657965
40
0.750934341340612
40
0.750934341340612
40
1
40
1
40
1
40
1
41
1
10
4.24365589113151
20
-9.95208056973513
30
0
41
1
10
4.21478527159624
20
-10.1352472360107
30
0
41
1
10
4.19821866634251
20
-10.3235483554614
30
0
41
1
10
4.19616706301733
20
-10.6773547453494
30
0
41
1
10
4.20997944632254
20
-10.8478742219103
30
0
41
1
10
4.26268664915003
20
-11.174240888585
30
0
41
1
10
4.30442337659863
20
-11.3299012256127
30
0
41
1
10
4.4334966752331
20
-11.6873705237366
30
0
41
1
10
4.53094010112326
20
-11.8562394922208
30
0
41
1
10
4.74742155239724
20
-12.1149609920218
30
0
41
1
10
4.86722055760012
20
-12.2169433544088
30
0
41
1
10
5.03106703509761
20
-12.3052014324558
30
0
0
SPLINE
5
15F
100
AcDbEntity
8
1
62
256
6
ByLayer
370
18
48
1
60
0
100
AcDbSpline
70
4
71
3
72
8
73
4
40
0
40
0
40
0
40
0
40
1
40
1
40
1
40
1
41
1
10
4.26009210529045
20
-9.86596187076415
30
0
41
1
10
4.25363499824053
20
-9.89466674531735
30
0
41
1
10
4.24818081284533
20
-9.92337267088084
30
0
41
1
10
4.24365589113151
20
-9.95208056973513
30
0
0
SPLINE
5
160
100
AcDbEntity
8
1
62
256
6
ByLayer
370
18
48
1
60
0
100
AcDbSpline
70
4
71
3
72
8
73
4
40
0
40
0
40
0
40
0
40
1
40
1
40
1
40
1
41
1
10
10.6350593260357
20
-8.44425503138115
30
0
41
1
10
10.6271610412727
20
-8.46301020697231
30
0
41
1
10
10.6187754477963
20
-8.4797533529802
30
0
41
1
10
10.6103454216725
20
-8.4947148675065
30
0
0
SPLINE
5
161
100
AcDbEntity
8
1
62
256
6
ByLayer
370
18
48
1
60
0
100
AcDbSpline
70
4
71
3
72
8
73
4
40
0
40
0
40
0
40
0
40
1
40
1
40
1
40
1
41
1
10
12.384249708349
20
-8.87282744726957
30
0
41
1
10
12.3787928297637
20
-8.85490590079343
30
0
41
1
10
12.3744156467473
20
-8.8354423338582
30
0
41
1
10
12.3721011605483
20
-8.81451027803507
30
0
0
SPLINE
5
162
100
AcDbEntity
8
1
62
256
6
ByLayer
370
18
48
1
60
0
100
AcDbSpline
70
4
71
3
72
10
73
6
40
0
40
0
40
0
40
0
40
0.123732606265313
40
0.123732606265313
40
1
40
1
40
1
40
1
41
1
10
10.9793161290075
20
-9.2654845488855
30
0
41
1
10
10.9807799847953
20
-9.26771920862532
30
0
41
1
10
10.9822101578174
20
-9.26995143973249
30
0
41
1
10
10.9934044589396
20
-9.287799480931
30
0
41
1
10
11.0016368886647
20
-9.30325948890834
30
0
41
1
10
11.0086492216562
20
-9.31823747998757
30
0
0
SPLINE
5
163
100
AcDbEntity
8
1
62
256
6
ByLayer
370
18
48
1
60
0
100
AcDbSpline
70
4
71
3
72
10
73
6
40
0
40
0
40
0
40
0
40
0.123732606265422
40
0.123732606265422
40
1
40
1
40
1
40
1
41
1
10
12.0645954317222
20
-7.82990496934525
30
0
41
1
10
12.0634742156226
20
-7.82800413897345
30
0
41
1
10
12.0623969296948
20
-7.82611572114823
30
0
41
1
10
12.0541029224738
20
-7.81109339837536
30
0
41
1
10
12.0488596907859
20
-7.79854572696087
30
0
41
1
10
12.0450262628702
20
-7.78666490153188
30
0
0
SPLINE
5
164
100
AcDbEntity
8
1
62
256
6
ByLayer
370
18
48
1
60
0
100
AcDbSpline
70
4
71
3
72
10
73
6
40
0
40
0
40
0
40
0
40
0.51615529193568
40
0.51615529193568
40
1
40
1
40
1
40
1
41
1
10
10.8114346069049
20
-9.13858410550739
30
0
41
1
10
10.8186925787249
20
-9.14012438307986
30
0
41
1
10
10.8262078172978
20
-9.14213436314776
30
0
41
1
10
10.8412842699826
20
-9.14716595763804
30
0
41
1
10
10.8488445263892
20
-9.15012785854594
30
0
41
1
10
10.8566383118148
20
-9.15373074270124
30
0
0
SPLINE
5
165
100
AcDbEntity
8
1
62
256
6
ByLayer
370
18
48
1
60
0
100
AcDbSpline
70
4
71
3
72
10
73
6
40
0
40
0
40
0
40
0
40
0.516155291935517
40
0.516155291935517
40
1
40
1
40
1
40
1
41
1
10
12.2422408776214
20
-7.96631827601206
30
0
41
1
10
12.2331061487982
20
-7.96294949863048
30
0
41
1
10
12.2237866056541
20
-7.95918160821063
30
0
41
1
10
12.2054417006993
20
-7.9509656034098
30
0
41
1
10
12.1963966329591
20
-7.94655707023395
30
0
41
1
10
12.1872732489125
20
-7.94165877552709
30
0
0
SPLINE
5
166
100
AcDbEntity
8
1
62
256
6
ByLayer
370
18
48
1
60
0
100
AcDbSpline
70
4
71
3
72
8
73
4
40
0
40
0
40
0
40
0
40
1
40
1
40
1
40
1
41
1
10
10.6694257761774
20
-8.23207493424985
30
0
41
1
10
10.6712540743233
20
-8.24646120224864
30
0
41
1
10
10.6722385875134
20
-8.26261933533243
30
0
41
1
10
10.6718104001815
20
-8.2808792401957
30
0
0
SPLINE
5
167
100
AcDbEntity
8
1
62
256
6
ByLayer
370
18
48
1
60
0
100
AcDbSpline
70
4
71
3
72
10
73
6
40
0
40
0
40
0
40
0
40
0.315026012182559
40
0.315026012182559
40
1
40
1
40
1
40
1
41
1
10
11.177698977389
20
-7.72646524161388
30
0
41
1
10
11.1719226386792
20
-7.72716299050157
30
0
41
1
10
11.1663449301845
20
-7.72770058939446
30
0
41
1
10
11.1493252630325
20
-7.72896131651436
30
0
41
1
10
11.1385520789308
20
-7.72918044647327
30
0
41
1
10
11.1285339422795
20
-7.72892857827864
30
0
0
SPLINE
5
168
100
AcDbEntity
8
1
62
256
6
ByLayer
370
18
48
1
60
0
100
AcDbSpline
70
4
71
3
72
10
73
6
40
0
40
0
40
0
40
0
40
0.315026012182552
40
0.315026012182552
40
1
40
1
40
1
40
1
41
1
10
11.8662125833393
20
-9.36892427661547
30
0
41
1
10
11.8728572747895
20
-9.3690725524487
30
0
41
1
10
11.87936949577
20
-9.36944543685169
30
0
41
1
10
11.8995000528176
20
-9.3712156090813
30
0
41
1
10
11.9126369760352
20
-9.37329943923638
30
0
41
1
10
11.9251415422469
20
-9.37597380324081
30
0
0
SPLINE
5
169
100
AcDbEntity
8
1
62
256
6
ByLayer
370
18
48
1
60
0
100
AcDbSpline
70
4
71
3
72
10
73
6
40
0
40
0
40
0
40
0
40
0.629893813379387
40
0.629893813379387
40
1
40
1
40
1
40
1
41
1
10
11.6688465729706
20
-9.4589603620164
30
0
41
1
10
11.67540335808
20
-9.45064565644105
30
0
41
1
10
11.6827457549112
20
-9.44240719052718
30
0
41
1
10
11.6959376061155
20
-9.42969587255024
30
0
41
1
10
11.70117070714
20
-9.4250577979694
30
0
41
1
10
11.7067836919944
20
-9.42054626162843
30
0
0
SPLINE
5
16A
100
AcDbEntity
8
1
62
256
6
ByLayer
370
18
48
1
60
0
100
AcDbSpline
70
4
71
3
72
10
73
6
40
0
40
0
40
0
40
0
40
0.629893813379247
40
0.629893813379247
40
1
40
1
40
1
40
1
41
1
10
11.3848289115524
20
-7.6459420194997
30
0
41
1
10
11.3759822935908
20
-7.65202577086751
30
0
41
1
10
11.3664554551595
20
-7.65813596389259
30
0
41
1
10
11.3500992716638
20
-7.6677643142927
30
0
41
1
10
11.3437580896295
20
-7.6713228000342
30
0
41
1
10
11.3371278687332
20
-7.67484325660024
30
0
0
SPLINE
5
16B
100
AcDbEntity
8
1
62
256
6
ByLayer
370
18
48
1
60
0
100
AcDbSpline
70
4
71
3
72
8
73
4
40
0
40
0
40
0
40
0
40
1
40
1
40
1
40
1
41
1
10
12.4088522346941
20
-8.65113448684966
30
0
41
1
10
12.419493192988
20
-8.63505146221831
30
0
41
1
10
12.4312714562906
20
-8.6216137500619
30
0
41
1
10
12.443330062854
20
-8.61018751401295
30
0
0
INSERT
5
17E
100
AcDbEntity
8
SK2
62
256
6
ByLayer
370
25
48
1
60
0
100
AcDbBlockReference
2
DimnDraft3D11
10
0
20
0
30
0
41
1
42
1
43
1
50
0
210
0
220
0
230
1
0
LINE
5
72
100
AcDbEntity
8
1
62
256
6
ByLayer
370
18
48
1
60
0
100
AcDbLine
10
4.270219
20
-11.862278
30
0
11
4.98979
21
-12.282098
31
0
39
0
210
0
220
0
230
1
0
LINE
5
74
100
AcDbEntity
8
1
62
256
6
ByLayer
370
18
48
1
60
0
100
AcDbLine
10
9.059284
20
-10.616026
30
0
11
9.244263
21
-10.796249
31
0
39
0
210
0
220
0
230
1
0
LINE
5
75
100
AcDbEntity
8
1
62
256
6
ByLayer
370
18
48
1
60
0
100
AcDbLine
10
13.710428
20
-6.212214
30
0
11
13.523158
21
-6.029759
31
0
39
0
210
0
220
0
230
1
0
LINE
5
76
100
AcDbEntity
8
1
62
256
6
ByLayer
370
18
48
1
60
0
100
AcDbLine
10
18.61932
20
-13.844277
30
0
11
18.698241
21
-13.921168
31
0
39
0
210
0
220
0
230
1
0
LINE
5
77
100
AcDbEntity
8
1
62
256
6
ByLayer
370
18
48
1
60
0
100
AcDbLine
10
18.245397
20
-13.441593
30
0
11
18.578068
21
-13.765711
31
0
39
0
210
0
220
0
230
1
0
LINE
5
78
100
AcDbEntity
8
1
62
256
6
ByLayer
370
18
48
1
60
0
100
AcDbLine
10
25.423808
20
-6.810377
30
0
11
24.887147
21
-6.287515
31
0
39
0
210
0
220
0
230
1
0
LINE
5
79
100
AcDbEntity
8
1
62
256
6
ByLayer
370
18
48
1
60
0
100
AcDbLine
10
7.610392
20
-10.079085
30
0
11
7.220964
21
-9.851881
31
0
39
0
210
0
220
0
230
1
0
LINE
5
7A
100
AcDbEntity
8
1
62
256
6
ByLayer
370
18
48
1
60
0
100
AcDbLine
10
24.230313
20
-5.609195
30
0
11
24.151392
21
-5.532303
31
0
39
0
210
0
220
0
230
1
0
LINE
5
7B
100
AcDbEntity
8
80
62
256
6
ByLayer
370
18
48
1
60
0
100
AcDbLine
10
0
20
0
30
0
11
-5
21
0
31
0
39
0
210
0
220
0
230
1
0
LINE
5
7C
100
AcDbEntity
8
81
62
256
6
ByLayer
370
18
48
1
60
0
100
AcDbLine
10
30.093464
20
-15.4125
30
0
11
40.093464
21
-15.4125
31
0
39
0
210
0
220
0
230
1
0
LINE
5
7D
100
AcDbEntity
8
1
62
256
6
ByLayer
370
18
48
1
60
0
100
AcDbLine
10
16.736248
20
-2.997882
30
0
11
17.794862
21
-4.727197
31
0
39
0
210
0
220
0
230
1
0
LINE
5
7E
100
AcDbEntity
8
1
62
256
6
ByLayer
370
18
48
1
60
0
100
AcDbLine
10
9.385794
20
-0.461563
30
0
11
9.057907
21
-1.919173
31
0
39
0
210
0
220
0
230
1
0
LINE
5
7F
100
AcDbEntity
8
1
62
256
6
ByLayer
370
18
48
1
60
0
100
AcDbLine
10
18.56354
20
-5.192274
30
0
11
23.45001
21
-5.469786
31
0
39
0
210
0
220
0
230
1
0
LINE
5
80
100
AcDbEntity
8
1
62
256
6
ByLayer
370
18
48
1
60
0
100
AcDbLine
10
3.953485
20
-12.563585
30
0
11
6.489726
21
-12.696503
31
0
39
0
210
0
220
0
230
1
0
LINE
5
81
100
AcDbEntity
8
1
62
256
6
ByLayer
370
18
48
1
60
0
100
AcDbLine
10
8.534715
20
7.802135
30
0
11
6.481823
21
-1.323935
31
0
39
0
210
0
220
0
230
1
0
LINE
5
82
100
AcDbEntity
8
1
62
256
6
ByLayer
370
18
48
1
60
0
100
AcDbLine
10
4.132153
20
-11.769321
30
0
11
3.953485
21
-12.563585
31
0
39
0
210
0
220
0
230
1
0
LINE
5
83
100
AcDbEntity
8
1
62
256
6
ByLayer
370
18
48
1
60
0
100
AcDbLine
10
16.326085
20
-2.535438
30
0
11
16.736248
21
-2.997882
31
0
39
0
210
0
220
0
230
1
0
LINE
5
84
100
AcDbEntity
8
1
62
256
6
ByLayer
370
18
48
1
60
0
100
AcDbLine
10
16.111219
20
-2.389949
30
0
11
17.393203
21
-4.484154
31
0
39
0
210
0
220
0
230
1
0
LINE
5
85
100
AcDbEntity
8
1
62
256
6
ByLayer
370
18
48
1
60
0
100
AcDbLine
10
8.510513
20
7.816755
30
0
11
6.453998
21
-1.325417
31
0
39
0
210
0
220
0
230
1
0
LINE
5
86
100
AcDbEntity
8
1
62
256
6
ByLayer
370
18
48
1
60
0
100
AcDbLine
10
4.108178
20
-11.753691
30
0
11
3.926314
21
-12.562161
31
0
39
0
210
0
220
0
230
1
0
LINE
5
87
100
AcDbEntity
8
1
62
256
6
ByLayer
370
18
48
1
60
0
100
AcDbLine
10
7.698336
20
8.307402
30
0
11
5.451347
21
-1.681521
31
0
39
0
210
0
220
0
230
1
0
LINE
5
88
100
AcDbEntity
8
1
62
256
6
ByLayer
370
18
48
1
60
0
100
AcDbLine
10
3.35563
20
-10.997964
30
0
11
3.014516
21
-12.514375
31
0
39
0
210
0
220
0
230
1
0
LINE
5
89
100
AcDbEntity
8
1
62
256
6
ByLayer
370
18
48
1
60
0
100
AcDbLine
10
18.762952
20
-5.312937
30
0
11
22.267134
21
-5.511946
31
0
39
0
210
0
220
0
230
1
0
LINE
5
8A
100
AcDbEntity
8
1
62
256
6
ByLayer
370
18
48
1
60
0
100
AcDbLine
10
23.303636
20
-5.570811
30
0
11
23.519352
21
-5.583062
31
0
39
0
210
0
220
0
230
1
0
LINE
5
8B
100
AcDbEntity
8
1
62
256
6
ByLayer
370
18
48
1
60
0
100
AcDbLine
10
15.854424
20
-2.268692
30
0
11
17.103225
21
-4.308691
31
0
39
0
210
0
220
0
230
1
0
LINE
5
8C
100
AcDbEntity
8
1
62
256
6
ByLayer
370
18
48
1
60
0
100
AcDbLine
10
24.538984
20
-6.05575
30
0
11
24.381623
21
-5.798691
31
0
39
0
210
0
220
0
230
1
0
LINE
5
8D
100
AcDbEntity
8
1
62
256
6
ByLayer
370
18
48
1
60
0
100
AcDbLine
10
23.59686
20
-5.332861
30
0
11
23.358476
21
-5.320368
31
0
39
0
210
0
220
0
230
1
0
LINE
5
8E
100
AcDbEntity
8
1
62
256
6
ByLayer
370
18
48
1
60
0
100
AcDbLine
10
23.517939
20
-5.255969
30
0
11
23.312436
21
-5.245199
31
0
39
0
210
0
220
0
230
1
0
LINE
5
8F
100
AcDbEntity
8
1
62
256
6
ByLayer
370
18
48
1
60
0
100
AcDbLine
10
12.187273
20
-7.941659
30
0
11
12.110461
21
-7.866821
31
0
39
0
210
0
220
0
230
1
0
LINE
5
90
100
AcDbEntity
8
1
62
256
6
ByLayer
370
18
48
1
60
0
100
AcDbLine
10
18.457928
20
-13.615251
30
0
11
18.348934
21
-13.437202
31
0
39
0
210
0
220
0
230
1
0
LINE
5
91
100
AcDbEntity
8
1
62
256
6
ByLayer
370
18
48
1
60
0
100
AcDbLine
10
18.875346
20
-5.380961
30
0
11
23.270442
21
-5.611299
31
0
39
0
210
0
220
0
230
1
0
LINE
5
92
100
AcDbEntity
8
1
62
256
6
ByLayer
370
18
48
1
60
0
100
AcDbLine
10
23.221355
20
-5.563473
30
0
11
23.270442
21
-5.611299
31
0
39
0
210
0
220
0
230
1
0
LINE
5
93
100
AcDbEntity
8
1
62
256
6
ByLayer
370
18
48
1
60
0
100
AcDbLine
10
18.457928
20
-13.615251
30
0
11
18.278255
21
-13.440198
31
0
39
0
210
0
220
0
230
1
0
LINE
5
94
100
AcDbEntity
8
1
62
256
6
ByLayer
370
18
48
1
60
0
100
AcDbLine
10
23.628191
20
-5.719399
30
0
11
23.486328
21
-5.581183
31
0
39
0
210
0
220
0
230
1
0
LINE
5
95
100
AcDbEntity
8
1
62
256
6
ByLayer
370
18
48
1
60
0
100
AcDbLine
10
24.741934
20
-6.176206
30
0
11
23.391877
21
-5.374821
31
0
39
0
210
0
220
0
230
1
0
LINE
5
96
100
AcDbEntity
8
1
62
256
6
ByLayer
370
18
48
1
60
0
100
AcDbLine
10
18.723281
20
-13.87702
30
0
11
20.373685
21
-14.85669
31
0
39
0
210
0
220
0
230
1
0
LINE
5
97
100
AcDbEntity
8
1
62
256
6
ByLayer
370
18
48
1
60
0
100
AcDbLine
10
25.543949
20
-6.960837
30
0
11
29.978539
21
-14.205033
31
0
39
0
210
0
220
0
230
1
0
LINE
5
98
100
AcDbEntity
8
1
62
256
6
ByLayer
370
18
48
1
60
0
100
AcDbLine
10
29.253192
20
-15.411396
30
0
11
20.731434
21
-14.96479
31
0
39
0
210
0
220
0
230
1
0
LINE
5
99
100
AcDbEntity
8
1
62
256
6
ByLayer
370
18
48
1
60
0
100
AcDbLine
10
24.741934
20
-6.176206
30
0
11
25.278596
21
-6.699068
31
0
39
0
210
0
220
0
230
1
0
LINE
5
9A
100
AcDbEntity
8
1
62
256
6
ByLayer
370
18
48
1
60
0
100
AcDbLine
10
25.278596
20
-6.699068
30
0
11
23.628191
21
-5.719399
31
0
39
0
210
0
220
0
230
1
0
LINE
5
9B
100
AcDbEntity
8
1
62
256
6
ByLayer
370
18
48
1
60
0
100
AcDbLine
10
23.59686
20
-5.332861
30
0
11
23.517939
21
-5.255969
31
0
39
0
210
0
220
0
230
1
0
LINE
5
9C
100
AcDbEntity
8
1
62
256
6
ByLayer
370
18
48
1
60
0
100
AcDbLine
10
11.274869
20
-13.703722
30
0
11
6.834446
21
-12.757233
31
0
39
0
210
0
220
0
230
1
0
LINE
5
9D
100
AcDbEntity
8
1
62
256
6
ByLayer
370
18
48
1
60
0
100
AcDbLine
10
13.695159
20
-2.944396
30
0
11
9.254736
21
-1.997908
31
0
39
0
210
0
220
0
230
1
0
LINE
5
9E
100
AcDbEntity
8
1
62
256
6
ByLayer
370
18
48
1
60
0
100
AcDbLine
10
12.979924
20
-5.37567
30
0
11
11.377468
21
-5.034102
31
0
39
0
210
0
220
0
230
1
0
LINE
5
9F
100
AcDbEntity
8
1
62
256
6
ByLayer
370
18
48
1
60
0
100
AcDbLine
10
4.260092
20
-9.865962
30
0
11
3.046724
21
-9.158045
31
0
39
0
210
0
220
0
230
1
0
LINE
5
A0
100
AcDbEntity
8
1
62
256
6
ByLayer
370
18
48
1
60
0
100
AcDbLine
10
6.679254
20
-9.707723
30
0
11
6.352043
21
-9.516817
31
0
39
0
210
0
220
0
230
1
0
LINE
5
A1
100
AcDbEntity
8
1
62
256
6
ByLayer
370
18
48
1
60
0
100
AcDbLine
10
7.656985
20
-2.600022
30
0
11
13.783371
21
-3.905878
31
0
39
0
210
0
220
0
230
1
0
LINE
5
A2
100
AcDbEntity
8
1
62
256
6
ByLayer
370
18
48
1
60
0
100
AcDbLine
10
4.997463
20
-9.230182
30
0
11
5.959759
21
-4.952326
31
0
39
0
210
0
220
0
230
1
0
LINE
5
A3
100
AcDbEntity
8
1
62
256
6
ByLayer
370
18
48
1
60
0
100
AcDbLine
10
9.912154
20
-11.54811
30
0
11
11.51461
21
-11.889678
31
0
39
0
210
0
220
0
230
1
0
LINE
5
A4
100
AcDbEntity
8
1
62
256
6
ByLayer
370
18
48
1
60
0
100
AcDbLine
10
5.594184
20
-3.935298
30
0
11
4.380815
21
-3.227381
31
0
39
0
210
0
220
0
230
1
0
LINE
5
A5
100
AcDbEntity
8
1
62
256
6
ByLayer
370
18
48
1
60
0
100
AcDbLine
10
8.06413
20
-1.722771
30
0
11
9.214733
21
-1.968025
31
0
39
0
210
0
220
0
230
1
0
LINE
5
A6
100
AcDbEntity
8
1
62
256
6
ByLayer
370
18
48
1
60
0
100
AcDbLine
10
19.9884
20
-10.188414
30
0
11
23.723144
21
-10.685999
31
0
39
0
210
0
220
0
230
1
0
LINE
5
A7
100
AcDbEntity
8
1
62
256
6
ByLayer
370
18
48
1
60
0
100
AcDbLine
10
8.06413
20
-1.722771
30
0
11
7.646346
21
-1.479022
31
0
39
0
210
0
220
0
230
1
0
LINE
5
A8
100
AcDbEntity
8
1
62
256
6
ByLayer
370
18
48
1
60
0
100
AcDbLine
10
6.787124
20
-12.759889
30
0
11
5.636521
21
-12.514635
31
0
39
0
210
0
220
0
230
1
0
LINE
5
A9
100
AcDbEntity
8
1
62
256
6
ByLayer
370
18
48
1
60
0
100
AcDbLine
10
9.214733
20
-1.968025
30
0
11
7.654124
21
-1.481446
31
0
39
0
210
0
220
0
230
1
0
LINE
5
AA
100
AcDbEntity
8
1
62
256
6
ByLayer
370
18
48
1
60
0
100
AcDbLine
10
22.113266
20
-11.950651
30
0
11
20.166037
21
-13.216234
31
0
39
0
210
0
220
0
230
1
0
LINE
5
AB
100
AcDbEntity
8
1
62
256
6
ByLayer
370
18
48
1
60
0
100
AcDbLine
10
9.912154
20
-11.54811
30
0
11
9.625294
21
-11.380747
31
0
39
0
210
0
220
0
230
1
0
LINE
5
AC
100
AcDbEntity
8
1
62
256
6
ByLayer
370
18
48
1
60
0
100
AcDbLine
10
21.587368
20
-6.897749
30
0
11
22.813079
21
-8.839653
31
0
39
0
210
0
220
0
230
1
0
LINE
5
AD
100
AcDbEntity
8
1
62
256
6
ByLayer
370
18
48
1
60
0
100
AcDbLine
10
9.214733
20
-1.968025
30
0
11
9.254736
21
-1.997908
31
0
39
0
210
0
220
0
230
1
0
LINE
5
AE
100
AcDbEntity
8
1
62
256
6
ByLayer
370
18
48
1
60
0
100
AcDbLine
10
6.787124
20
-12.759889
30
0
11
6.834446
21
-12.757233
31
0
39
0
210
0
220
0
230
1
0
LINE
5
AF
100
AcDbEntity
8
1
62
256
6
ByLayer
370
18
48
1
60
0
100
AcDbLine
10
9.625294
20
-11.380747
30
0
11
11.221077
21
-11.718422
31
0
39
0
210
0
220
0
230
1
0
LINE
5
B0
100
AcDbEntity
8
1
62
256
6
ByLayer
370
18
48
1
60
0
100
AcDbLine
10
4.260092
20
-9.865962
30
0
11
5.594184
21
-3.935298
31
0
39
0
210
0
220
0
230
1
0
LINE
5
B1
100
AcDbEntity
8
1
62
256
6
ByLayer
370
18
48
1
60
0
100
AcDbLine
10
6.352043
20
-9.516817
30
0
11
4.997463
21
-9.230182
31
0
39
0
210
0
220
0
230
1
0
LINE
5
B2
100
AcDbEntity
8
1
62
256
6
ByLayer
370
18
48
1
60
0
100
AcDbLine
10
11.51461
20
-11.889678
30
0
11
11.221077
21
-11.718422
31
0
39
0
210
0
220
0
230
1
0
LINE
5
B3
100
AcDbEntity
8
1
62
256
6
ByLayer
370
18
48
1
60
0
100
AcDbLine
10
5.559786
20
-11.923055
30
0
11
11.686173
21
-13.228912
31
0
39
0
210
0
220
0
230
1
0
LINE
5
B4
100
AcDbEntity
8
1
62
256
6
ByLayer
370
18
48
1
60
0
100
AcDbLine
10
4.380815
20
-3.227381
30
0
11
3.046724
21
-9.158045
31
0
39
0
210
0
220
0
230
1
0
LINE
5
B5
100
AcDbEntity
8
1
62
256
6
ByLayer
370
18
48
1
60
0
100
AcDbLine
10
11.909304
20
-9.280149
30
0
11
12.061508
21
-9.42844
31
0
39
0
210
0
220
0
230
1
0
LINE
5
B6
100
AcDbEntity
8
1
62
256
6
ByLayer
370
18
48
1
60
0
100
AcDbLine
10
11.871545
20
-7.493426
30
0
11
12.02375
21
-7.641717
31
0
39
0
210
0
220
0
230
1
0
LINE
5
B7
100
AcDbEntity
8
1
62
256
6
ByLayer
370
18
48
1
60
0
100
AcDbLine
10
12.372101
20
-8.81451
30
0
11
12.224779
21
-8.670976
31
0
39
0
210
0
220
0
230
1
0
LINE
5
B8
100
AcDbEntity
8
1
62
256
6
ByLayer
370
18
48
1
60
0
100
AcDbLine
10
11.917273
20
-7.686371
30
0
11
12.064595
21
-7.829905
31
0
39
0
210
0
220
0
230
1
0
LINE
5
B9
100
AcDbEntity
8
1
62
256
6
ByLayer
370
18
48
1
60
0
100
AcDbLine
10
11.706784
20
-9.420546
30
0
11
11.559461
21
-9.277012
31
0
39
0
210
0
220
0
230
1
0
LINE
5
BA
100
AcDbEntity
8
1
62
256
6
ByLayer
370
18
48
1
60
0
100
AcDbLine
10
11.435085
20
-9.433698
30
0
11
11.587289
21
-9.581989
31
0
39
0
210
0
220
0
230
1
0
LINE
5
BB
100
AcDbEntity
8
1
62
256
6
ByLayer
370
18
48
1
60
0
100
AcDbLine
10
12.2969
20
-8.855374
30
0
11
12.449105
21
-9.003665
31
0
39
0
210
0
220
0
230
1
0
LINE
5
BC
100
AcDbEntity
8
1
62
256
6
ByLayer
370
18
48
1
60
0
100
AcDbLine
10
10.856638
20
-9.153731
30
0
11
10.709316
21
-9.010196
31
0
39
0
210
0
220
0
230
1
0
LINE
5
BD
100
AcDbEntity
8
1
62
256
6
ByLayer
370
18
48
1
60
0
100
AcDbLine
10
10.512818
20
-8.982484
30
0
11
10.665022
21
-9.130775
31
0
39
0
210
0
220
0
230
1
0
LINE
5
BE
100
AcDbEntity
8
1
62
256
6
ByLayer
370
18
48
1
60
0
100
AcDbLine
10
12.26153
20
-8.5076
30
0
11
12.408852
21
-8.651134
31
0
39
0
210
0
220
0
230
1
0
LINE
5
BF
100
AcDbEntity
8
1
62
256
6
ByLayer
370
18
48
1
60
0
100
AcDbLine
10
11.71889
20
-9.22539
30
0
11
11.866213
21
-9.368924
31
0
39
0
210
0
220
0
230
1
0
LINE
5
C0
100
AcDbEntity
8
1
62
256
6
ByLayer
370
18
48
1
60
0
100
AcDbLine
10
12.406216
20
-8.369415
30
0
11
12.55842
21
-8.517706
31
0
39
0
210
0
220
0
230
1
0
LINE
5
C1
100
AcDbEntity
8
1
62
256
6
ByLayer
370
18
48
1
60
0
100
AcDbLine
10
10.831994
20
-9.12195
30
0
11
10.979316
21
-9.265485
31
0
39
0
210
0
220
0
230
1
0
LINE
5
C2
100
AcDbEntity
8
1
62
256
6
ByLayer
370
18
48
1
60
0
100
AcDbLine
10
4.981419
20
9.948725
30
0
11
2.819493
21
9.949802
31
0
39
0
210
0
220
0
230
1
0
LINE
5
C3
100
AcDbEntity
8
1
62
256
6
ByLayer
370
18
48
1
60
0
100
AcDbLine
10
2.819493
20
9.949802
30
0
11
0.758356
21
-10.695856
31
0
39
0
210
0
220
0
230
1
0
LINE
5
C4
100
AcDbEntity
8
1
62
256
6
ByLayer
370
18
48
1
60
0
100
AcDbLine
10
14.270932
20
-2.42698
30
0
11
14.101102
21
-2.532332
31
0
39
0
210
0
220
0
230
1
0
LINE
5
C5
100
AcDbEntity
8
1
62
256
6
ByLayer
370
18
48
1
60
0
100
AcDbLine
10
3.926314
20
-12.562161
30
0
11
3.953485
21
-12.563585
31
0
39
0
210
0
220
0
230
1
0
LINE
5
C6
100
AcDbEntity
8
1
62
256
6
ByLayer
370
18
48
1
60
0
100
AcDbLine
10
3.014516
20
-12.514375
30
0
11
3.926314
21
-12.562161
31
0
39
0
210
0
220
0
230
1
0
LINE
5
C7
100
AcDbEntity
8
1
62
256
6
ByLayer
370
18
48
1
60
0
100
AcDbLine
10
0.758356
20
-10.695856
30
0
11
2.552671
21
-12.490171
31
0
39
0
210
0
220
0
230
1
0
LINE
5
C8
100
AcDbEntity
8
1
62
256
6
ByLayer
370
18
48
1
60
0
100
AcDbLine
10
19.310529
20
1.29233
30
0
11
23.45001
21
-5.469786
31
0
39
0
210
0
220
0
230
1
0
LINE
5
C9
100
AcDbEntity
8
1
62
256
6
ByLayer
370
18
48
1
60
0
100
AcDbLine
10
0.758356
20
-10.695856
30
0
11
0
21
-9.9375
31
0
39
0
210
0
220
0
230
1
0
LINE
5
CA
100
AcDbEntity
8
1
62
256
6
ByLayer
370
18
48
1
60
0
100
AcDbLine
10
14.138649
20
4.416728
30
0
11
9.385794
21
-0.461563
31
0
39
0
210
0
220
0
230
1
0
LINE
5
CB
100
AcDbEntity
8
1
62
256
6
ByLayer
370
18
48
1
60
0
100
AcDbLine
10
14.138649
20
4.416728
30
0
11
10.205285
21
6.792922
31
0
39
0
210
0
220
0
230
1
0
LINE
5
CC
100
AcDbEntity
8
1
62
256
6
ByLayer
370
18
48
1
60
0
100
AcDbLine
10
9.385794
20
-0.461563
30
0
11
10.205285
21
6.792922
31
0
39
0
210
0
220
0
230
1
0
LINE
5
CD
100
AcDbEntity
8
1
62
256
6
ByLayer
370
18
48
1
60
0
100
AcDbLine
10
7.698336
20
8.307402
30
0
11
8.510513
21
7.816755
31
0
39
0
210
0
220
0
230
1
0
LINE
5
CE
100
AcDbEntity
8
1
62
256
6
ByLayer
370
18
48
1
60
0
100
AcDbLine
10
2.552671
20
-12.490171
30
0
11
3.014516
21
-12.514375
31
0
39
0
210
0
220
0
230
1
0
LINE
5
CF
100
AcDbEntity
8
1
62
256
6
ByLayer
370
18
48
1
60
0
100
AcDbLine
10
23.45001
20
-5.469786
30
0
11
23.519352
21
-5.583062
31
0
39
0
210
0
220
0
230
1
0
LINE
5
D0
100
AcDbEntity
8
1
62
256
6
ByLayer
370
18
48
1
60
0
100
AcDbLine
10
8.534715
20
7.802135
30
0
11
10.205285
21
6.792922
31
0
39
0
210
0
220
0
230
1
0
LINE
5
D1
100
AcDbEntity
8
1
62
256
6
ByLayer
370
18
48
1
60
0
100
AcDbLine
10
0
20
9.9375
30
0
11
2.819493
21
9.949802
31
0
39
0
210
0
220
0
230
1
0
LINE
5
D2
100
AcDbEntity
8
1
62
256
6
ByLayer
370
18
48
1
60
0
100
AcDbLine
10
19.310529
20
1.29233
30
0
11
14.138649
21
4.416728
31
0
39
0
210
0
220
0
230
1
0
LINE
5
D3
100
AcDbEntity
8
1
62
256
6
ByLayer
370
18
48
1
60
0
100
AcDbLine
10
0
20
-9.9375
30
0
11
0
21
9.9375
31
0
39
0
210
0
220
0
230
1
0
LINE
5
D4
100
AcDbEntity
8
1
62
256
6
ByLayer
370
18
48
1
60
0
100
AcDbLine
10
13.969312
20
-2.622293
30
0
11
13.914866
21
-2.656067
31
0
39
0
210
0
220
0
230
1
0
LINE
5
D5
100
AcDbEntity
8
1
62
256
6
ByLayer
370
18
48
1
60
0
100
AcDbLine
10
8.510513
20
7.816755
30
0
11
8.534715
21
7.802135
31
0
39
0
210
0
220
0
230
1
0
LINE
5
D6
100
AcDbEntity
8
1
62
256
6
ByLayer
370
18
48
1
60
0
100
AcDbLine
10
4.981419
20
9.948725
30
0
11
7.698336
21
8.307402
31
0
39
0
210
0
220
0
230
1
0
LINE
5
D7
100
AcDbEntity
8
SK1
62
256
6
ByLayer
370
18
48
1
60
0
100
AcDbLine
10
-96.256536
20
-9.9375
30
0
11
-96.256536
21
9.9375
31
0
39
0
210
0
220
0
230
1
0
LINE
5
D9
100
AcDbEntity
8
SK1
62
256
6
ByLayer
370
18
48
1
60
0
100
AcDbLine
10
-96.256536
20
9.9375
30
0
11
0
21
9.9375
31
0
39
0
210
0
220
0
230
1
0
LINE
5
DA
100
AcDbEntity
8
SK1
62
256
6
ByLayer
370
18
48
1
60
0
100
AcDbLine
10
0
20
-9.9375
30
0
11
-96.256536
21
-9.9375
31
0
39
0
210
0
220
0
230
1
0
LINE
5
DB
100
AcDbEntity
8
SK1
62
256
6
ByLayer
370
18
48
1
60
0
100
AcDbLine
10
0
20
-9.9375
30
0
11
0
21
9.9375
31
0
39
0
210
0
220
0
230
1
0
MTEXT
5
16C
100
AcDbEntity
8
SK6
62
256
6
ByLayer
370
18
48
1
60
0
100
AcDbMText
10
-47.206536
20
19.068651
30
0
210
0
220
0
230
1
1
\W0.7495;DDJNL 2020K 11
40
3.5
41
0
44
1.084337
50
0
71
7
72
5
7
iso_b_vert
0
DIMENSION
5
18C
100
AcDbEntity
8
2
62
256
6
ByLayer
370
13
48
1
60
0
100
AcDbDimension
2
DimnDraft3D2
10
28.259542
20
-15.359076
30
0
11
17.805328
21
-27.116193
31
0
70
34
71
5
72
1
41
1
210
0
220
0
230
1
3
Standard
100
AcDb2LineAngularDimension
13
30.093464
23
-15.4125
33
0
14
30.093464
24
-13.825
34
0
15
29.258172
25
-15.411412
35
0
16
14.541144
26
-30.213789
36
0
40
0
0
DIMENSION
5
1A1
100
AcDbEntity
8
2
62
256
6
ByLayer
370
13
48
1
60
0
100
AcDbDimension
2
DimnDraft3D3
10
30.093464
20
-43.6625
30
0
11
10.327653
21
-43.6625
31
0
70
32
71
5
72
1
41
1
210
0
220
0
230
1
3
Standard
100
AcDbAlignedDimension
13
0
23
-11.9375
33
0
14
30.093464
24
-17.4125
34
0
50
0
100
AcDbRotatedDimension
1001
ACAD
1000
DSTYLE
1002
{
1070
   279
1070
     0
1070
   172
1070
     1
1070
   173
1070
     1
1070
   340
1005
16D
1070
    77
1070
     1
1070
    73
1070
     0
1070
   171
1070
     3
1070
   274
1070
     4
1070
   177
1070
     2
1070
   176
1070
     2
1070
   178
1070
     7
1070
    78
1070
     8
1070
    41
1041
3.175
1070
   147
1041
2.25
1070
    42
1041
2.0
1070
    44
1041
2.0
1070
   140
1041
4.5
1070
   343
1005
18D
1070
   344
1005
18D
1002
}
0
DIMENSION
5
1AF
100
AcDbEntity
8
2
62
256
6
ByLayer
370
13
48
1
60
0
100
AcDbDimension
2
DimnDraft3D4
10
52.343464
20
-15.4125
30
0
11
52.343464
21
-8.019079
31
0
70
32
71
5
72
1
41
1
210
0
220
0
230
1
3
Standard
100
AcDbAlignedDimension
13
2
23
9.9375
33
0
14
32.093464
24
-15.4125
34
0
50
90
100
AcDbRotatedDimension
1001
ACAD
1000
DSTYLE
1002
{
1070
    74
1070
     0
1070
   279
1070
     0
1070
   172
1070
     1
1070
   173
1070
     1
1070
   340
1005
16D
1070
    77
1070
     1
1070
    73
1070
     0
1070
   171
1070
     3
1070
   274
1070
     4
1070
   177
1070
     2
1070
   176
1070
     2
1070
   178
1070
     7
1070
    78
1070
     8
1070
    41
1041
3.175
1070
   147
1041
2.25
1070
    42
1041
2.0
1070
    44
1041
2.0
1070
   140
1041
4.5
1070
   343
1005
18D
1070
   344
1005
18D
1002
}
0
DIMENSION
5
1BD
100
AcDbEntity
8
SK2
62
256
6
ByLayer
370
13
48
1
60
0
100
AcDbDimension
2
DimnDraft3D5
10
-104.006536
20
-9.9375
30
0
11
-104.006536
21
-5.281579
31
0
70
32
71
5
72
1
41
1
210
0
220
0
230
1
3
Standard
100
AcDbAlignedDimension
13
-98.256536
23
9.9375
33
0
14
-98.256536
24
-9.9375
34
0
50
90
100
AcDbRotatedDimension
1001
ACAD
1000
DSTYLE
1002
{
1070
    74
1070
     0
1070
   279
1070
     0
1070
   172
1070
     1
1070
   173
1070
     1
1070
   340
1005
16D
1070
    77
1070
     1
1070
    73
1070
     0
1070
   171
1070
     3
1070
   274
1070
     4
1070
   177
1070
     2
1070
   176
1070
     2
1070
   178
1070
     7
1070
    78
1070
     8
1070
    41
1041
3.175
1070
   147
1041
2.25
1070
    42
1041
2.0
1070
    44
1041
2.0
1070
   140
1041
4.5
1070
   343
1005
18D
1070
   344
1005
18D
1002
}
0
ENDSEC
0
SECTION
2
OBJECTS
0
DICTIONARY
5
227
330
0
100
AcDbDictionary
280
0
281
1
3
ACAD_GROUP
350
228
3
ACAD_MLINESTYLE
350
229
0
DICTIONARY
5
228
330
0
100
AcDbDictionary
280
0
281
1
0
DICTIONARY
5
229
330
0
100
AcDbDictionary
280
0
281
1
3
Standard
350
18
0
MLINESTYLE
5
18
330
229
100
AcDbMlineStyle
2
Standard
70
0
3

62
256
51
90
52
90
71
2
49
-0.5
62
256
6
ByLayer
49
0.5
62
256
6
ByLayer
0
RASTERVARIABLES
5
216
330

100
AcDbRasterVariables
90
0
70
1
71
1
72
1
0
ENDSEC
0
EOF
