0
SECTION
2
HEADER
9
$ACADVER
1
AC1015
9
$DWGCODEPAGE
3
ANSI_1252
9
$HANDSEED
5
248
9
$ANGBASE
50
0
9
$ANGDIR
70
0
9
$ATTMODE
70
1
9
$AUNITS
70
0
9
$AUPREC
70
0
9
$CECOLOR
62
256
9
$CELTSCALE
40
1
9
$CELTYPE
6
ByLayer
9
$CELWEIGHT
370
18
9
$CLAYER
8
0
9
$CMLJUST
70
0
9
$CMLSCALE
40
1
9
$CMLSTYLE
2
Standard
9
$DIMSTYLE
2
Standard
9
$TEXTSIZE
40
0.2
9
$TEXTSTYLE
7
Standard
9
$LUNITS
70
2
9
$LUPREC
70
4
9
$EXTNAMES
290
1
9
$INSUNITS
70
4
9
$LTSCALE
40
1
9
$LWDISPLAY
290
1
9
$PDMODE
70
0
9
$PDSIZE
40
0
9
$PLINEGEN
70
0
0
ENDSEC
0
SECTION
2
CLASSES
0
CLASS
1
RASTERVARIABLES
2
AcDbRasterVariables
3
ISM
90
0
280
0
281
0
0
ENDSEC
0
SECTION
2
TABLES
0
TABLE
2
VPORT
5
23e
100
AcDbSymbolTable
0
VPORT
5
1
100
AcDbSymbolTableRecord
100
AcDbViewportTableRecord
2
*Active
70
0
10
0
20
0
11
1
21
1
12
-1
22
1
13
0
23
0
14
0.5
24
0.5
15
10
25
10
16
0
26
0
36
1
17
0
27
0
37
0
0
ENDTAB
0
TABLE
2
LTYPE
5
23f
100
AcDbSymbolTable
0
LTYPE
5
14
100
AcDbSymbolTableRecord
100
AcDbLinetypeTableRecord
70
0
2
ByBlock
3

72
65
73
0
40
0
0
LTYPE
5
15
100
AcDbSymbolTableRecord
100
AcDbLinetypeTableRecord
70
0
2
ByLayer
3

72
65
73
0
40
0
0
LTYPE
5
16
100
AcDbSymbolTableRecord
100
AcDbLinetypeTableRecord
70
0
2
CONTINUOUS
3
Solid line
72
65
73
0
40
0
0
LTYPE
5
6A
100
AcDbSymbolTableRecord
100
AcDbLinetypeTableRecord
70
0
2
CENTER
3
____ _ ____ _ ____ _ ____
72
65
73
4
40
47.5
49
22
74
0
49
-8.5
74
0
49
8.5
74
0
49
-8.5
74
0
0
LTYPE
5
6B
100
AcDbSymbolTableRecord
100
AcDbLinetypeTableRecord
70
0
2
DASHED
3
__ __ __ __ __ __ __ __ __
72
65
73
2
40
25.72
49
12.86
74
0
49
-12.86
74
0
0
ENDTAB
0
TABLE
2
LAYER
5
240
100
AcDbSymbolTable
0
LAYER
5
10
100
AcDbSymbolTableRecord
100
AcDbLayerTableRecord
2
0
70
0
62
7
6
CONTINUOUS
290
1
370
-3
390
0
0
LAYER
5
6D
100
AcDbSymbolTableRecord
100
AcDbLayerTableRecord
2
2
70
0
62
7
6
CONTINUOUS
290
1
370
-3
390
0
0
LAYER
5
6F
100
AcDbSymbolTableRecord
100
AcDbLayerTableRecord
2
80
70
0
62
-6
6
CONTINUOUS
290
1
370
-3
390
0
0
LAYER
5
71
100
AcDbSymbolTableRecord
100
AcDbLayerTableRecord
2
81
70
0
62
-3
6
CONTINUOUS
290
1
370
-3
390
0
0
LAYER
5
73
100
AcDbSymbolTableRecord
100
AcDbLayerTableRecord
2
1
70
0
62
4
6
CONTINUOUS
290
1
370
-3
390
0
0
LAYER
5
22b
100
AcDbSymbolTableRecord
100
AcDbLayerTableRecord
2
SK1
70
0
62
4
6
CONTINUOUS
290
1
370
-3
390
0
0
LAYER
5
22c
100
AcDbSymbolTableRecord
100
AcDbLayerTableRecord
2
SK6
70
0
62
5
6
CONTINUOUS
290
1
370
-3
390
0
0
LAYER
5
22d
100
AcDbSymbolTableRecord
100
AcDbLayerTableRecord
2
SK2
70
0
62
7
6
CONTINUOUS
290
1
370
-3
390
0
0
ENDTAB
0
TABLE
2
STYLE
5
241
100
AcDbSymbolTable
0
STYLE
5
11
100
AcDbSymbolTableRecord
100
AcDbTextStyleTableRecord
2
Standard
3
txt
70
0
71
0
40
0
41
1
42
0
50
0
0
STYLE
5
181
100
AcDbSymbolTableRecord
100
AcDbTextStyleTableRecord
2
iso_b_vert
3
simplex.shx
70
0
71
0
40
0
41
1
42
0
50
0
0
STYLE
5
182
100
AcDbSymbolTableRecord
100
AcDbTextStyleTableRecord
2
DWGDirectTextStyle
3
simplex
70
0
71
0
40
0
41
1
42
0
50
0
0
ENDTAB
0
TABLE
2
DIMSTYLE
5
242
100
AcDbSymbolTable
100
AcDbDimStyleTable
0
DIMSTYLE
105
27
100
AcDbSymbolTableRecord
100
AcDbDimStyleTableRecord
2
Standard
70
0
3
<>
41
0.18
42
0.0625
44
0.18
140
0.18
147
0.09
73
0
74
0
77
1
271
2
275
0
278
52
280
0
340
11
0
ENDTAB
0
TABLE
2
VIEW
5
243
100
AcDbSymbolTable
0
ENDTAB
0
TABLE
2
UCS
5
244
100
AcDbSymbolTable
0
ENDTAB
0
TABLE
2
APPID
5
245
100
AcDbSymbolTable
0
APPID
5
12
100
AcDbSymbolTableRecord
100
AcDbRegAppTableRecord
2
ACAD
70
0
0
ENDTAB
0
TABLE
2
BLOCK_RECORD
5
246
100
AcDbSymbolTable
0
BLOCK_RECORD
5
1F
100
AcDbSymbolTableRecord
100
AcDbBlockTableRecord
2
*Model_Space
340
0
70
0
0
BLOCK_RECORD
5
1B
100
AcDbSymbolTableRecord
100
AcDbBlockTableRecord
2
*Paper_Space
340
0
70
0
0
BLOCK_RECORD
5
23
100
AcDbSymbolTableRecord
100
AcDbBlockTableRecord
2
*Paper_Space0
340
0
70
0
0
BLOCK_RECORD
5
184
100
AcDbSymbolTableRecord
100
AcDbBlockTableRecord
2
DimnDraft3D1
340
0
70
0
0
BLOCK_RECORD
5
192
100
AcDbSymbolTableRecord
100
AcDbBlockTableRecord
2
_CLOSED
340
0
70
0
0
BLOCK_RECORD
5
199
100
AcDbSymbolTableRecord
100
AcDbBlockTableRecord
2
DimnDraft3D2
340
0
70
0
0
BLOCK_RECORD
5
1A8
100
AcDbSymbolTableRecord
100
AcDbBlockTableRecord
2
DimnDraft3D3
340
0
70
0
0
BLOCK_RECORD
5
1B6
100
AcDbSymbolTableRecord
100
AcDbBlockTableRecord
2
DimnDraft3D4
340
0
70
0
0
BLOCK_RECORD
5
1C4
100
AcDbSymbolTableRecord
100
AcDbBlockTableRecord
2
DimnDraft3D5
340
0
70
0
0
ENDTAB
0
ENDSEC
0
SECTION
2
BLOCKS
0
BLOCK
5
20
100
AcDbEntity
8
0
100
AcDbBlockBegin
2
*Model_Space
70
0
10
0
20
0
30
0
3
*Model_Space
0
ENDBLK
5
21
100
AcDbEntity
8
0
100
AcDbBlockEnd
0
BLOCK
5
1C
100
AcDbEntity
8
0
100
AcDbBlockBegin
2
*Paper_Space
70
0
10
0
20
0
30
0
3
*Paper_Space
0
ENDBLK
5
1D
100
AcDbEntity
8
0
100
AcDbBlockEnd
0
BLOCK
5
24
100
AcDbEntity
8
0
100
AcDbBlockBegin
2
*Paper_Space0
70
0
10
0
20
0
30
0
3
*Paper_Space0
0
ENDBLK
5
25
100
AcDbEntity
8
0
100
AcDbBlockEnd
0
BLOCK
5
18F
100
AcDbEntity
8
0
100
AcDbBlockBegin
2
DimnDraft3D1
70
0
10
0
20
0
30
0
3
DimnDraft3D1
0
MTEXT
5
185
100
AcDbEntity
8
2
62
256
6
ByLayer
370
18
48
1
60
0
100
AcDbMText
10
14.022401
20
32.762381
30
0
210
0
220
0
230
1
1
\W0.7399;95%%d
40
4.5
41
0
44
1.084337
50
47.3457231599999
71
7
72
5
7
iso_b_vert
0
LINE
5
186
100
AcDbEntity
8
2
62
256
6
ByLayer
370
13
48
1
60
0
100
AcDbLine
10
32.20454
20
21.9125
30
0
11
32.20454
21
42.88825
31
0
39
0
210
0
220
0
230
1
0
LINE
5
187
100
AcDbEntity
8
2
62
256
6
ByLayer
370
13
48
1
60
0
100
AcDbLine
10
28.35592
20
19.664471
30
0
11
9.373348
21
18.106673
31
0
39
0
210
0
220
0
230
1
0
ARC
5
188
100
AcDbEntity
8
2
62
256
6
ByLayer
370
13
48
1
60
0
100
AcDbCircle
39
0
10
32.20454
20
19.980307
30
0
40
20.9079424705682
210
0
220
0
230
1
100
AcDbArc
50
90
51
184.691446
0
LINE
5
189
100
AcDbEntity
8
2
62
256
6
ByLayer
370
13
48
1
60
0
100
AcDbLine
10
32.20454
20
40.88825
30
0
11
29.047655
21
40.350277
31
0
39
0
210
0
220
0
230
1
0
LINE
5
18A
100
AcDbEntity
8
2
62
256
6
ByLayer
370
13
48
1
60
0
100
AcDbLine
10
32.20454
20
40.88825
30
0
11
29.015983
21
41.18567
31
0
39
0
210
0
220
0
230
1
0
LINE
5
18B
100
AcDbEntity
8
2
62
256
6
ByLayer
370
13
48
1
60
0
100
AcDbLine
10
29.047655
20
40.350277
30
0
11
29.015983
21
41.18567
31
0
39
0
210
0
220
0
230
1
0
LINE
5
18C
100
AcDbEntity
8
2
62
256
6
ByLayer
370
13
48
1
60
0
100
AcDbLine
10
11.366647
20
18.270252
30
0
11
10.809432
21
21.423798
31
0
39
0
210
0
220
0
230
1
0
LINE
5
18D
100
AcDbEntity
8
2
62
256
6
ByLayer
370
13
48
1
60
0
100
AcDbLine
10
11.366647
20
18.270252
30
0
11
11.644617
21
21.460564
31
0
39
0
210
0
220
0
230
1
0
LINE
5
18E
100
AcDbEntity
8
2
62
256
6
ByLayer
370
13
48
1
60
0
100
AcDbLine
10
10.809432
20
21.423798
30
0
11
11.644617
21
21.460564
31
0
39
0
210
0
220
0
230
1
0
ENDBLK
5
190
100
AcDbEntity
8
0
100
AcDbBlockEnd
0
BLOCK
5
193
100
AcDbEntity
8
0
100
AcDbBlockBegin
2
_CLOSED
70
0
10
0
20
0
30
0
3
_CLOSED
0
LINE
5
195
100
AcDbEntity
8
0
62
256
6
ByLayer
370
-2
48
1
60
0
100
AcDbLine
10
-1
20
0.166667
30
0
11
0
21
0
31
0
39
0
210
0
220
0
230
1
0
LINE
5
196
100
AcDbEntity
8
0
62
256
6
ByLayer
370
-2
48
1
60
0
100
AcDbLine
10
0
20
0
30
0
11
-1
21
-0.166667
31
0
39
0
210
0
220
0
230
1
0
LINE
5
197
100
AcDbEntity
8
0
62
256
6
ByLayer
370
-2
48
1
60
0
100
AcDbLine
10
-1
20
0.166667
30
0
11
-1
21
-0.166667
31
0
39
0
210
0
220
0
230
1
0
LINE
5
198
100
AcDbEntity
8
0
62
256
6
ByLayer
370
-2
48
1
60
0
100
AcDbLine
10
0
20
0
30
0
11
-1
21
0
31
0
39
0
210
0
220
0
230
1
0
ENDBLK
5
194
100
AcDbEntity
8
0
100
AcDbBlockEnd
0
BLOCK
5
1A5
100
AcDbEntity
8
0
100
AcDbBlockBegin
2
DimnDraft3D2
70
0
10
0
20
0
30
0
3
DimnDraft3D2
0
MTEXT
5
19A
100
AcDbEntity
8
SK2
62
256
6
ByLayer
370
18
48
1
60
0
100
AcDbMText
10
-128.02046
20
-4.156579
30
0
210
0
220
0
230
1
1
\W0.7346;25.0
40
4.5
41
0
44
1.084337
50
90
71
7
72
5
7
iso_b_vert
0
LINE
5
19C
100
AcDbEntity
8
SK2
62
256
6
ByLayer
370
13
48
1
60
0
100
AcDbLine
10
-121.14546
20
-12.4375
30
0
11
-128.89546
21
-12.4375
31
0
39
0
210
0
220
0
230
1
0
LINE
5
19D
100
AcDbEntity
8
SK2
62
256
6
ByLayer
370
13
48
1
60
0
100
AcDbLine
10
-121.14546
20
12.4375
30
0
11
-128.89546
21
12.4375
31
0
39
0
210
0
220
0
230
1
0
LINE
5
19E
100
AcDbEntity
8
SK2
62
256
6
ByLayer
370
13
48
1
60
0
100
AcDbLine
10
-126.89546
20
-12.4375
30
0
11
-126.89546
21
12.4375
31
0
39
0
210
0
220
0
230
1
0
LINE
5
19F
100
AcDbEntity
8
SK2
62
256
6
ByLayer
370
13
48
1
60
0
100
AcDbLine
10
-126.89546
20
-12.4375
30
0
11
-127.313457
21
-9.262502
31
0
39
0
210
0
220
0
230
1
0
LINE
5
1A0
100
AcDbEntity
8
SK2
62
256
6
ByLayer
370
13
48
1
60
0
100
AcDbLine
10
-126.89546
20
-12.4375
30
0
11
-126.477464
21
-9.262498
31
0
39
0
210
0
220
0
230
1
0
LINE
5
1A1
100
AcDbEntity
8
SK2
62
256
6
ByLayer
370
13
48
1
60
0
100
AcDbLine
10
-127.313457
20
-9.262502
30
0
11
-126.477464
21
-9.262498
31
0
39
0
210
0
220
0
230
1
0
LINE
5
1A2
100
AcDbEntity
8
SK2
62
256
6
ByLayer
370
13
48
1
60
0
100
AcDbLine
10
-126.89546
20
12.4375
30
0
11
-126.477464
21
9.262502
31
0
39
0
210
0
220
0
230
1
0
LINE
5
1A3
100
AcDbEntity
8
SK2
62
256
6
ByLayer
370
13
48
1
60
0
100
AcDbLine
10
-126.89546
20
12.4375
30
0
11
-127.313457
21
9.262498
31
0
39
0
210
0
220
0
230
1
0
LINE
5
1A4
100
AcDbEntity
8
SK2
62
256
6
ByLayer
370
13
48
1
60
0
100
AcDbLine
10
-126.477464
20
9.262502
30
0
11
-127.313457
21
9.262498
31
0
39
0
210
0
220
0
230
1
0
ENDBLK
5
1A6
100
AcDbEntity
8
0
100
AcDbBlockEnd
0
BLOCK
5
1B3
100
AcDbEntity
8
0
100
AcDbBlockBegin
2
DimnDraft3D3
70
0
10
0
20
0
30
0
3
DimnDraft3D3
0
MTEXT
5
1A9
100
AcDbEntity
8
2
62
256
6
ByLayer
370
18
48
1
60
0
100
AcDbMText
10
53.32954
20
-0.419079
30
0
210
0
220
0
230
1
1
\W0.7346;32.0
40
4.5
41
0
44
1.084337
50
90
71
7
72
5
7
iso_b_vert
0
LINE
5
1AA
100
AcDbEntity
8
2
62
256
6
ByLayer
370
13
48
1
60
0
100
AcDbLine
10
2
20
-12.4375
30
0
11
56.45454
21
-12.4375
31
0
39
0
210
0
220
0
230
1
0
LINE
5
1AB
100
AcDbEntity
8
2
62
256
6
ByLayer
370
13
48
1
60
0
100
AcDbLine
10
34.20454
20
19.9125
30
0
11
56.45454
21
19.9125
31
0
39
0
210
0
220
0
230
1
0
LINE
5
1AC
100
AcDbEntity
8
2
62
256
6
ByLayer
370
13
48
1
60
0
100
AcDbLine
10
54.45454
20
-12.4375
30
0
11
54.45454
21
19.9125
31
0
39
0
210
0
220
0
230
1
0
LINE
5
1AD
100
AcDbEntity
8
2
62
256
6
ByLayer
370
13
48
1
60
0
100
AcDbLine
10
54.45454
20
-12.4375
30
0
11
54.036543
21
-9.262502
31
0
39
0
210
0
220
0
230
1
0
LINE
5
1AE
100
AcDbEntity
8
2
62
256
6
ByLayer
370
13
48
1
60
0
100
AcDbLine
10
54.45454
20
-12.4375
30
0
11
54.872536
21
-9.262498
31
0
39
0
210
0
220
0
230
1
0
LINE
5
1AF
100
AcDbEntity
8
2
62
256
6
ByLayer
370
13
48
1
60
0
100
AcDbLine
10
54.036543
20
-9.262502
30
0
11
54.872536
21
-9.262498
31
0
39
0
210
0
220
0
230
1
0
LINE
5
1B0
100
AcDbEntity
8
2
62
256
6
ByLayer
370
13
48
1
60
0
100
AcDbLine
10
54.45454
20
19.9125
30
0
11
54.872536
21
16.737502
31
0
39
0
210
0
220
0
230
1
0
LINE
5
1B1
100
AcDbEntity
8
2
62
256
6
ByLayer
370
13
48
1
60
0
100
AcDbLine
10
54.45454
20
19.9125
30
0
11
54.036543
21
16.737498
31
0
39
0
210
0
220
0
230
1
0
LINE
5
1B2
100
AcDbEntity
8
2
62
256
6
ByLayer
370
13
48
1
60
0
100
AcDbLine
10
54.872536
20
16.737502
30
0
11
54.036543
21
16.737498
31
0
39
0
210
0
220
0
230
1
0
ENDBLK
5
1B4
100
AcDbEntity
8
0
100
AcDbBlockEnd
0
BLOCK
5
1C1
100
AcDbEntity
8
0
100
AcDbBlockBegin
2
DimnDraft3D4
70
0
10
0
20
0
30
0
3
DimnDraft3D4
0
MTEXT
5
1B7
100
AcDbEntity
8
2
62
256
6
ByLayer
370
18
48
1
60
0
100
AcDbMText
10
11.945691
20
50.7875
30
0
210
0
220
0
230
1
1
\W0.7346;32.2
40
4.5
41
0
44
1.084337
50
0
71
7
72
5
7
iso_b_vert
0
LINE
5
1B8
100
AcDbEntity
8
2
62
256
6
ByLayer
370
13
48
1
60
0
100
AcDbLine
10
0
20
14.4375
30
0
11
0
21
51.6625
31
0
39
0
210
0
220
0
230
1
0
LINE
5
1B9
100
AcDbEntity
8
2
62
256
6
ByLayer
370
13
48
1
60
0
100
AcDbLine
10
32.20454
20
21.9125
30
0
11
32.20454
21
51.6625
31
0
39
0
210
0
220
0
230
1
0
LINE
5
1BA
100
AcDbEntity
8
2
62
256
6
ByLayer
370
13
48
1
60
0
100
AcDbLine
10
0
20
49.6625
30
0
11
32.20454
21
49.6625
31
0
39
0
210
0
220
0
230
1
0
LINE
5
1BB
100
AcDbEntity
8
2
62
256
6
ByLayer
370
13
48
1
60
0
100
AcDbLine
10
0
20
49.6625
30
0
11
3.174998
21
50.080497
31
0
39
0
210
0
220
0
230
1
0
LINE
5
1BC
100
AcDbEntity
8
2
62
256
6
ByLayer
370
13
48
1
60
0
100
AcDbLine
10
0
20
49.6625
30
0
11
3.175002
21
49.244503
31
0
39
0
210
0
220
0
230
1
0
LINE
5
1BD
100
AcDbEntity
8
2
62
256
6
ByLayer
370
13
48
1
60
0
100
AcDbLine
10
3.174998
20
50.080497
30
0
11
3.175002
21
49.244503
31
0
39
0
210
0
220
0
230
1
0
LINE
5
1BE
100
AcDbEntity
8
2
62
256
6
ByLayer
370
13
48
1
60
0
100
AcDbLine
10
32.20454
20
49.6625
30
0
11
29.029541
21
49.244503
31
0
39
0
210
0
220
0
230
1
0
LINE
5
1BF
100
AcDbEntity
8
2
62
256
6
ByLayer
370
13
48
1
60
0
100
AcDbLine
10
32.20454
20
49.6625
30
0
11
29.029538
21
50.080497
31
0
39
0
210
0
220
0
230
1
0
LINE
5
1C0
100
AcDbEntity
8
2
62
256
6
ByLayer
370
13
48
1
60
0
100
AcDbLine
10
29.029541
20
49.244503
30
0
11
29.029538
21
50.080497
31
0
39
0
210
0
220
0
230
1
0
ENDBLK
5
1C2
100
AcDbEntity
8
0
100
AcDbBlockEnd
0
BLOCK
5
1CF
100
AcDbEntity
8
0
100
AcDbBlockBegin
2
DimnDraft3D5
70
0
10
0
20
0
30
0
3
DimnDraft3D5
0
MTEXT
5
1C5
100
AcDbEntity
8
SK2
62
256
6
ByLayer
370
18
48
1
60
0
100
AcDbMText
10
-48.746118
20
60.7875
30
0
210
0
220
0
230
1
1
\W0.6864;150.0
40
4.5
41
0
44
1.084337
50
0
71
7
72
5
7
iso_b_vert
0
LINE
5
1C6
100
AcDbEntity
8
SK2
62
256
6
ByLayer
370
13
48
1
60
0
100
AcDbLine
10
32.20454
20
21.9125
30
0
11
32.20454
21
61.6625
31
0
39
0
210
0
220
0
230
1
0
LINE
5
1C7
100
AcDbEntity
8
SK2
62
256
6
ByLayer
370
13
48
1
60
0
100
AcDbLine
10
-119.14546
20
14.4375
30
0
11
-119.14546
21
61.6625
31
0
39
0
210
0
220
0
230
1
0
LINE
5
1C8
100
AcDbEntity
8
SK2
62
256
6
ByLayer
370
13
48
1
60
0
100
AcDbLine
10
32.20454
20
59.6625
30
0
11
-119.14546
21
59.6625
31
0
39
0
210
0
220
0
230
1
0
LINE
5
1C9
100
AcDbEntity
8
SK2
62
256
6
ByLayer
370
13
48
1
60
0
100
AcDbLine
10
32.20454
20
59.6625
30
0
11
29.029541
21
59.244503
31
0
39
0
210
0
220
0
230
1
0
LINE
5
1CA
100
AcDbEntity
8
SK2
62
256
6
ByLayer
370
13
48
1
60
0
100
AcDbLine
10
32.20454
20
59.6625
30
0
11
29.029538
21
60.080497
31
0
39
0
210
0
220
0
230
1
0
LINE
5
1CB
100
AcDbEntity
8
SK2
62
256
6
ByLayer
370
13
48
1
60
0
100
AcDbLine
10
29.029541
20
59.244503
30
0
11
29.029538
21
60.080497
31
0
39
0
210
0
220
0
230
1
0
LINE
5
1CC
100
AcDbEntity
8
SK2
62
256
6
ByLayer
370
13
48
1
60
0
100
AcDbLine
10
-119.14546
20
59.6625
30
0
11
-115.970462
21
60.080497
31
0
39
0
210
0
220
0
230
1
0
LINE
5
1CD
100
AcDbEntity
8
SK2
62
256
6
ByLayer
370
13
48
1
60
0
100
AcDbLine
10
-119.14546
20
59.6625
30
0
11
-115.970459
21
59.244503
31
0
39
0
210
0
220
0
230
1
0
LINE
5
1CE
100
AcDbEntity
8
SK2
62
256
6
ByLayer
370
13
48
1
60
0
100
AcDbLine
10
-115.970462
20
60.080497
30
0
11
-115.970459
21
59.244503
31
0
39
0
210
0
220
0
230
1
0
ENDBLK
5
1D0
100
AcDbEntity
8
0
100
AcDbBlockEnd
0
ENDSEC
0
SECTION
2
ENTITIES
0
ELLIPSE
5
FC
100
AcDbEntity
8
1
62
256
6
ByLayer
370
18
48
1
60
0
100
AcDbEllipse
10
14.348302
20
5.549513
30
0
11
0.813172798366404
21
-0.813172798362656
31
0
210
0
220
0
230
1
40
0.989133
41
-2.11748433396722
42
-1.50870245733192
0
ELLIPSE
5
FD
100
AcDbEntity
8
1
62
256
6
ByLayer
370
18
48
1
60
0
100
AcDbEllipse
10
14.348302
20
5.549513
30
0
11
0.813172798366404
21
-0.813172798362656
31
0
210
0
220
0
230
1
40
0.989133
41
0.0518840451092864
42
-2.72960340840861
0
ELLIPSE
5
FE
100
AcDbEntity
8
1
62
256
6
ByLayer
370
18
48
1
60
0
100
AcDbEllipse
10
14.348302
20
5.549513
30
0
11
0.813172798366404
21
-0.813172798362656
31
0
210
0
220
0
230
1
40
0.989133
41
-0.79086089563959
42
-0.118448983741287
0
ELLIPSE
5
FF
100
AcDbEntity
8
1
62
256
6
ByLayer
370
18
48
1
60
0
100
AcDbEllipse
10
14.259935
20
5.461145
30
0
11
0.813172798366404
21
-0.813172798362656
31
0
210
0
220
0
230
1
40
0.989133
41
0.11844620169688
42
3.08666234056256
0
ELLIPSE
5
100
100
AcDbEntity
8
1
62
256
6
ByLayer
370
18
48
1
60
0
100
AcDbEllipse
10
6.428505
20
6.893792
30
0
11
2.08176526554851
21
-2.16015123988015
31
0
210
0
220
0
230
1
40
0.986455
41
-0.156280282981034
42
-0.0604884076533481
0
ELLIPSE
5
101
100
AcDbEntity
8
1
62
256
6
ByLayer
370
18
48
1
60
0
100
AcDbEllipse
10
14.907068
20
5.978181
30
0
11
2.87977528400877
21
-2.98820921516754
31
0
210
0
220
0
230
1
40
0.986455
41
0.013807433618176
42
2.98531237060877
0
ELLIPSE
5
102
100
AcDbEntity
8
1
62
256
6
ByLayer
370
18
48
1
60
0
100
AcDbEllipse
10
9.231533
20
-6.830651
30
0
11
-5.72659051508523
21
-4.02568765213298
31
0
210
0
220
0
230
1
40
0.02553
41
2.32834410581088
42
2.33301874980669
0
ELLIPSE
5
103
100
AcDbEntity
8
1
62
256
6
ByLayer
370
18
48
1
60
0
100
AcDbEllipse
10
25.649985
20
13.357945
30
0
11
3.37752183088373
21
-3.37752183086816
31
0
210
0
220
0
230
1
40
0.989133
41
-0.734417524769679
42
-0.704393121263899
0
ELLIPSE
5
104
100
AcDbEntity
8
1
62
256
6
ByLayer
370
18
48
1
60
0
100
AcDbEllipse
10
25.649985
20
13.357945
30
0
11
3.37752183088373
21
-3.37752183086816
31
0
210
0
220
0
230
1
40
0.989133
41
-2.78626538272476
42
-2.75816014343865
0
ELLIPSE
5
105
100
AcDbEntity
8
1
62
256
6
ByLayer
370
18
48
1
60
0
100
AcDbEllipse
10
25.369289
20
13.077249
30
0
11
-3.88908729653492
21
3.88908729651711
31
0
210
0
220
0
230
1
40
0.989133
41
2.32785343388196
42
2.53072741539177
0
ELLIPSE
5
106
100
AcDbEntity
8
1
62
256
6
ByLayer
370
18
48
1
60
0
100
AcDbEllipse
10
25.369289
20
13.077249
30
0
11
-3.88908729653492
21
3.88908729651711
31
0
210
0
220
0
230
1
40
0.989133
41
0.261799387799148
42
0.442746445043459
0
ELLIPSE
5
107
100
AcDbEntity
8
1
62
256
6
ByLayer
370
18
48
1
60
0
100
AcDbEllipse
10
14.239142
20
5.440353
30
0
11
2.82842712475271
21
-2.82842712473967
31
0
210
0
220
0
230
1
40
0.989133
41
3.14154186687325
42
-0.790861354621189
0
ELLIPSE
5
108
100
AcDbEntity
8
1
62
256
6
ByLayer
370
18
48
1
60
0
100
AcDbEllipse
10
14.239142
20
5.440353
30
0
11
2.82842712475271
21
-2.82842712473967
31
0
210
0
220
0
230
1
40
0.989133
41
-0.790861354621178
42
-2.24484073350127E-16
0
ELLIPSE
5
109
100
AcDbEntity
8
1
62
256
6
ByLayer
370
18
48
1
60
0
100
AcDbEllipse
10
14.463881
20
4.305487
30
0
11
-0.268700576851503
21
0.268700576850273
31
0
210
0
220
0
230
1
40
0.989133
41
-2.68594738862228
42
-2.42225340979495
0
ELLIPSE
5
10A
100
AcDbEntity
8
1
62
256
6
ByLayer
370
18
48
1
60
0
100
AcDbEllipse
10
13.214184
20
6.083197
30
0
11
-0.268700576851503
21
0.268700576850273
31
0
210
0
220
0
230
1
40
0.989133
41
-1.06840509419361
42
-0.455613680093738
0
ELLIPSE
5
10B
100
AcDbEntity
8
1
62
256
6
ByLayer
370
18
48
1
60
0
100
AcDbEllipse
10
15.26305
20
4.248273
30
0
11
0.300520382004975
21
-0.30052038200359
31
0
210
0
220
0
230
1
40
0.989133
41
3.1415891986464
42
-2.42225340979502
0
ELLIPSE
5
10C
100
AcDbEntity
8
1
62
256
6
ByLayer
370
18
48
1
60
0
100
AcDbEllipse
10
13.433554
20
6.850753
30
0
11
0.300520382004975
21
-0.30052038200359
31
0
210
0
220
0
230
1
40
0.989133
41
-1.06840509419362
42
-3.51676188576229E-06
0
ELLIPSE
5
10D
100
AcDbEntity
8
1
62
256
6
ByLayer
370
18
48
1
60
0
100
AcDbEllipse
10
15.48242
20
5.015829
30
0
11
-0.268700576851503
21
0.268700576850273
31
0
210
0
220
0
230
1
40
0.989133
41
-2.68595059009185
42
-1.37505585859849
0
ELLIPSE
5
10E
100
AcDbEntity
8
1
62
256
6
ByLayer
370
18
48
1
60
0
100
AcDbEllipse
10
14.232723
20
6.793538
30
0
11
-0.268700576851503
21
0.268700576850273
31
0
210
0
220
0
230
1
40
0.989133
41
-2.11560264539024
42
-0.455656467956241
0
ELLIPSE
5
10F
100
AcDbEntity
8
1
62
256
6
ByLayer
370
18
48
1
60
0
100
AcDbEllipse
10
15.923994
20
5.678822
30
0
11
0.300520382004975
21
-0.30052038200359
31
0
210
0
220
0
230
1
40
0.989133
41
-3.14157045834443
42
-1.37505585859836
0
ELLIPSE
5
110
100
AcDbEntity
8
1
62
256
6
ByLayer
370
18
48
1
60
0
100
AcDbEllipse
10
15.366841
20
6.259854
30
0
11
-0.268700576851503
21
0.268700576850273
31
0
210
0
220
0
230
1
40
0.989133
41
-3.11070847430902
42
-0.327858307401827
0
ELLIPSE
5
111
100
AcDbEntity
8
1
62
256
6
ByLayer
370
18
48
1
60
0
100
AcDbEllipse
10
14.582216
20
5.783427
30
0
11
0.830850467896108
21
-0.830850467892279
31
0
210
0
220
0
230
1
40
0.989133
41
-0.237776776898131
42
-0.111289073500709
0
ELLIPSE
5
112
100
AcDbEntity
8
1
62
256
6
ByLayer
370
18
48
1
60
0
100
AcDbEllipse
10
13.006524
20
5.654118
30
0
11
0.300520382004975
21
-0.30052038200359
31
0
210
0
220
0
230
1
40
0.989133
41
1.04830034454559
42
1.76653679499129
0
ELLIPSE
5
113
100
AcDbEntity
8
1
62
256
6
ByLayer
370
18
48
1
60
0
100
AcDbEllipse
10
13.667468
20
7.084667
30
0
11
0.300520382004975
21
-0.30052038200359
31
0
210
0
220
0
230
1
40
0.989133
41
0.00110279334889778
42
0.719339243794747
0
ELLIPSE
5
114
100
AcDbEntity
8
1
62
256
6
ByLayer
370
18
48
1
60
0
100
AcDbEllipse
10
13.921272
20
4.352878
30
0
11
0.300520382004975
21
-0.30052038200359
31
0
210
0
220
0
230
1
40
0.989133
41
1.02599000819957
42
1.74422645864524
0
ELLIPSE
5
115
100
AcDbEntity
8
1
62
256
6
ByLayer
370
18
48
1
60
0
100
AcDbEllipse
10
14.582216
20
5.783427
30
0
11
0.830850467896108
21
-0.830850467892279
31
0
210
0
220
0
230
1
40
0.989133
41
1.85661832549509
42
1.98310602889247
0
ELLIPSE
5
116
100
AcDbEntity
8
1
62
256
6
ByLayer
370
18
48
1
60
0
100
AcDbEllipse
10
16.157908
20
5.912735
30
0
11
0.300520382004975
21
-0.30052038200359
31
0
210
0
220
0
230
1
40
0.989133
41
-2.09329230904419
42
-1.37505585859843
0
ELLIPSE
5
117
100
AcDbEntity
8
1
62
256
6
ByLayer
370
18
48
1
60
0
100
AcDbEllipse
10
14.582216
20
5.783427
30
0
11
0.830850467896108
21
-0.830850467892279
31
0
210
0
220
0
230
1
40
0.989133
41
2.90381587669166
42
3.03030358008907
0
ELLIPSE
5
118
100
AcDbEntity
8
1
62
256
6
ByLayer
370
18
48
1
60
0
100
AcDbEllipse
10
14.466637
20
7.027452
30
0
11
-0.268700576851503
21
0.268700576850273
31
0
210
0
220
0
230
1
40
0.989133
41
-2.11560264539021
42
0.719339243794739
0
ELLIPSE
5
119
100
AcDbEntity
8
1
62
256
6
ByLayer
370
18
48
1
60
0
100
AcDbEllipse
10
13.921272
20
4.352878
30
0
11
0.300520382004975
21
-0.30052038200359
31
0
210
0
220
0
230
1
40
0.989133
41
2.09549789574218
42
2.81373434618802
0
ELLIPSE
5
11A
100
AcDbEntity
8
1
62
256
6
ByLayer
370
18
48
1
60
0
100
AcDbEllipse
10
14.582216
20
5.783427
30
0
11
-1.62634559673278
21
1.62634559672533
31
0
210
0
220
0
230
1
40
0.989133
41
0
42
6.28318530717959
0
ELLIPSE
5
11B
100
AcDbEntity
8
1
62
256
6
ByLayer
370
18
48
1
60
0
100
AcDbEllipse
10
15.496964
20
4.482187
30
0
11
0.300520382004975
21
-0.30052038200359
31
0
210
0
220
0
230
1
40
0.989133
41
-3.14048986024069
42
-2.42225340979502
0
ELLIPSE
5
11C
100
AcDbEntity
8
1
62
256
6
ByLayer
370
18
48
1
60
0
100
AcDbEllipse
10
13.563677
20
5.073085
30
0
11
-0.268700576851503
21
0.268700576850273
31
0
210
0
220
0
230
1
40
0.989133
41
-0.0212075429969661
42
2.81373434618799
0
ELLIPSE
5
11D
100
AcDbEntity
8
1
62
256
6
ByLayer
370
18
48
1
60
0
100
AcDbEllipse
10
14.582216
20
5.783427
30
0
11
0.830850467896108
21
-0.830850467892279
31
0
210
0
220
0
230
1
40
0.989133
41
0.809420774298483
42
0.935908477695866
0
ELLIPSE
5
11E
100
AcDbEntity
8
1
62
256
6
ByLayer
370
18
48
1
60
0
100
AcDbEllipse
10
15.009246
20
6.980062
30
0
11
0.300520382004975
21
-0.30052038200359
31
0
210
0
220
0
230
1
40
0.989133
41
-2.11560264539024
42
-0.327858307401857
0
ELLIPSE
5
11F
100
AcDbEntity
8
1
62
256
6
ByLayer
370
18
48
1
60
0
100
AcDbEllipse
10
15.24316
20
7.213975
30
0
11
0.300520382004975
21
-0.30052038200359
31
0
210
0
220
0
230
1
40
0.989133
41
-2.11560264539027
42
-1.39736619494452
0
ELLIPSE
5
120
100
AcDbEntity
8
1
62
256
6
ByLayer
370
18
48
1
60
0
100
AcDbEllipse
10
14.492103
20
5.693314
30
0
11
-2.82842712475267
21
2.82842712473971
31
0
210
0
220
0
230
1
40
0.989133
41
0
42
6.28318530717959
0
ELLIPSE
5
121
100
AcDbEntity
8
1
62
256
6
ByLayer
370
18
48
1
60
0
100
AcDbEllipse
10
13.448098
20
6.317111
30
0
11
-0.268700576851503
21
0.268700576850273
31
0
210
0
220
0
230
1
40
0.989133
41
-1.06840509419351
42
1.76653679499138
0
ELLIPSE
5
122
100
AcDbEntity
8
1
62
256
6
ByLayer
370
18
48
1
60
0
100
AcDbEllipse
10
13.006524
20
5.654118
30
0
11
0.300520382004975
21
-0.30052038200359
31
0
210
0
220
0
230
1
40
0.989133
41
-0.0212075429969665
42
0.697028907448704
0
ELLIPSE
5
123
100
AcDbEntity
8
1
62
256
6
ByLayer
370
18
48
1
60
0
100
AcDbEllipse
10
15.24316
20
7.213975
30
0
11
0.300520382004975
21
-0.30052038200359
31
0
210
0
220
0
230
1
40
0.989133
41
-1.04609475784765
42
-0.32785830740188
0
ELLIPSE
5
124
100
AcDbEntity
8
1
62
256
6
ByLayer
370
18
48
1
60
0
100
AcDbEllipse
10
14.582216
20
5.783427
30
0
11
0.830850467896108
21
-0.830850467892279
31
0
210
0
220
0
230
1
40
0.989133
41
-2.33217187929133
42
-2.20568417589393
0
ELLIPSE
5
125
100
AcDbEntity
8
1
62
256
6
ByLayer
370
18
48
1
60
0
100
AcDbEllipse
10
15.496964
20
4.482187
30
0
11
0.300520382004975
21
-0.30052038200359
31
0
210
0
220
0
230
1
40
0.989133
41
2.07318755939626
42
2.79142400984207
0
ELLIPSE
5
126
100
AcDbEntity
8
1
62
256
6
ByLayer
370
18
48
1
60
0
100
AcDbEllipse
10
16.157908
20
5.912735
30
0
11
0.300520382004975
21
-0.30052038200359
31
0
210
0
220
0
230
1
40
0.989133
41
3.12038511059273
42
-2.44456374614104
0
ELLIPSE
5
127
100
AcDbEntity
8
1
62
256
6
ByLayer
370
18
48
1
60
0
100
AcDbEllipse
10
15.716334
20
5.249742
30
0
11
-0.268700576851503
21
0.268700576850273
31
0
210
0
220
0
230
1
40
0.989133
41
2.07318755939618
42
-1.37505585859841
0
ELLIPSE
5
128
100
AcDbEntity
8
1
62
256
6
ByLayer
370
18
48
1
60
0
100
AcDbEllipse
10
15.600755
20
6.493768
30
0
11
-0.268700576851503
21
0.268700576850273
31
0
210
0
220
0
230
1
40
0.989133
41
3.12038511059286
42
-0.327858307401863
0
ELLIPSE
5
129
100
AcDbEntity
8
1
62
256
6
ByLayer
370
18
48
1
60
0
100
AcDbEllipse
10
13.667468
20
7.084667
30
0
11
0.300520382004975
21
-0.30052038200359
31
0
210
0
220
0
230
1
40
0.989133
41
-1.06840509419369
42
-0.350168643747916
0
ELLIPSE
5
12A
100
AcDbEntity
8
1
62
256
6
ByLayer
370
18
48
1
60
0
100
AcDbEllipse
10
14.697795
20
4.539401
30
0
11
-0.268700576851503
21
0.268700576850273
31
0
210
0
220
0
230
1
40
0.989133
41
1.02599000819958
42
-2.42225340979503
0
ELLIPSE
5
12B
100
AcDbEntity
8
1
62
256
6
ByLayer
370
18
48
1
60
0
100
AcDbEllipse
10
14.582216
20
5.783427
30
0
11
0.830850467896108
21
-0.830850467892279
31
0
210
0
220
0
230
1
40
0.989133
41
-1.28497432809475
42
-1.15848662469732
0
ELLIPSE
5
12C
100
AcDbEntity
8
1
62
256
6
ByLayer
370
18
48
1
60
0
100
AcDbEllipse
10
25.02505
20
15.976139
30
0
11
-6.1175963896212
21
1.37642658168491
31
0
210
0
220
0
230
1
40
0.534007
41
0.620180281190611
42
0.699482722510329
0
ELLIPSE
5
12D
100
AcDbEntity
8
1
62
256
6
ByLayer
370
18
48
1
60
0
100
AcDbEllipse
10
28.004913
20
11.965602
30
0
11
-0.571116448952731
21
-0.918981783208218
31
0
210
0
220
0
230
1
40
0.218147
41
1.33296183543343
42
1.53330768313151
0
ELLIPSE
5
12E
100
AcDbEntity
8
1
62
256
6
ByLayer
370
18
48
1
60
0
100
AcDbEllipse
10
8.936592
20
7.776034
30
0
11
-4.18680119830786
21
-2.7382047798834
31
0
210
0
220
0
230
1
40
0.194744
41
0.402198475722152
42
0.507592150277993
0
ELLIPSE
5
12F
100
AcDbEntity
8
1
62
256
6
ByLayer
370
18
48
1
60
0
100
AcDbEllipse
10
14.628604
20
-0.320923
30
0
11
-3.99150167104398
21
-3.0158966503271
31
0
210
0
220
0
230
1
40
0.245743
41
-0.509500345642247
42
-0.404106671699027
0
ELLIPSE
5
130
100
AcDbEntity
8
1
62
256
6
ByLayer
370
18
48
1
60
0
100
AcDbEllipse
10
12.788692
20
2.296374
30
0
11
-0.395141068303836
21
5.81029123397871
31
0
210
0
220
0
230
1
40
0.095437
41
-2.70279164398082
42
-1.7784755644315
0
ELLIPSE
5
131
100
AcDbEntity
8
1
62
256
6
ByLayer
370
18
48
1
60
0
100
AcDbEllipse
10
15.778856
20
-1.781756
30
0
11
-2.34383595229896
21
-1.88074787347175
31
0
210
0
220
0
230
1
40
0.391667
41
-0.525955037449198
42
0.0113589198740092
0
ELLIPSE
5
132
100
AcDbEntity
8
1
62
256
6
ByLayer
370
18
48
1
60
0
100
AcDbEllipse
10
26.1981
20
9.374321
30
0
11
-0.571116453403136
21
-0.918981791477265
31
0
210
0
220
0
230
1
40
0.218147
41
0.809363059420721
42
1.33296183495587
0
ELLIPSE
5
133
100
AcDbEntity
8
1
62
256
6
ByLayer
370
18
48
1
60
0
100
AcDbEllipse
10
22.049515
20
15.275735
30
0
11
-1.05474550209554
21
-0.233843842364707
31
0
210
0
220
0
230
1
40
0.175059
41
-1.35268507538871
42
-0.829086299728796
0
ELLIPSE
5
134
100
AcDbEntity
8
1
62
256
6
ByLayer
370
18
48
1
60
0
100
AcDbEllipse
10
13.277366
20
1.601229
30
0
11
4.09042179648944
21
2.87549118009499
31
0
210
0
220
0
230
1
40
0.02553
41
1.99918174916217
42
2.49237968308216
0
ELLIPSE
5
135
100
AcDbEntity
8
1
62
256
6
ByLayer
370
18
48
1
60
0
100
AcDbEllipse
10
12.788692
20
2.296374
30
0
11
-2.37825173380077
21
-5.30791195083613
31
0
210
0
220
0
230
1
40
0.045332
41
0.474086533529967
42
1.34583741411888
0
ELLIPSE
5
136
100
AcDbEntity
8
1
62
256
6
ByLayer
370
18
48
1
60
0
100
AcDbEllipse
10
6.359552
20
4.825994
30
0
11
-2.64176164553661
21
1.42549993620962
31
0
210
0
220
0
230
1
40
0.99535
41
0.0531524310955271
42
1.10568333555677
0
ELLIPSE
5
137
100
AcDbEntity
8
1
62
256
6
ByLayer
370
18
48
1
60
0
100
AcDbEllipse
10
14.141883
20
0.524387
30
0
11
-1.2533549113705
21
-4.16877773789856
31
0
210
0
220
0
230
1
40
0.506194
41
0.247439304501281
42
0.568782557476552
0
ELLIPSE
5
138
100
AcDbEntity
8
1
62
256
6
ByLayer
370
18
48
1
60
0
100
AcDbEllipse
10
12.231734
20
-1.486605
30
0
11
1.91006367272338
21
-0.593006548144676
31
0
210
0
220
0
230
1
40
0.819617
41
-2.14767242923502
42
-0.698457705508426
0
ELLIPSE
5
139
100
AcDbEntity
8
1
62
256
6
ByLayer
370
18
48
1
60
0
100
AcDbEllipse
10
9.335629
20
7.361343
30
0
11
-4.16623761935489
21
-0.202630904217558
31
0
210
0
220
0
230
1
40
0.47969
41
-0.652688833357649
42
-0.331345580368159
0
ELLIPSE
5
13A
100
AcDbEntity
8
1
62
256
6
ByLayer
370
18
48
1
60
0
100
AcDbEllipse
10
10.776504
20
5.158736
30
0
11
-5.32741126426627
21
2.36504468962885
31
0
210
0
220
0
230
1
40
0.117814
41
-1.32536540819093
42
-0.401049328632693
0
ELLIPSE
5
13B
100
AcDbEntity
8
1
62
256
6
ByLayer
370
18
48
1
60
0
100
AcDbEllipse
10
10.776504
20
5.158736
30
0
11
-5.80586464930071
21
-0.424544944966486
31
0
210
0
220
0
230
1
40
0.082923
41
-1.3231744454183
42
-0.451423564823515
0
ELLIPSE
5
13C
100
AcDbEntity
8
1
62
256
6
ByLayer
370
18
48
1
60
0
100
AcDbEllipse
10
10.28783
20
5.853881
30
0
11
4.09042179648944
21
2.87549118009499
31
0
210
0
220
0
230
1
40
0.02553
41
1.99918174916226
42
2.49237968308233
0
ELLIPSE
5
13D
100
AcDbEntity
8
1
62
256
6
ByLayer
370
18
48
1
60
0
100
AcDbEllipse
10
7.931161
20
9.381688
30
0
11
-2.55875127372374
21
-1.57552183329826
31
0
210
0
220
0
230
1
40
0.340829
41
-0.0155058165521157
42
0.521808140774698
0
ELLIPSE
5
13E
100
AcDbEntity
8
1
62
256
6
ByLayer
370
18
48
1
60
0
100
AcDbEllipse
10
11.165806
20
-2.010962
30
0
11
-2.64176164549562
21
1.42549993628358
31
0
210
0
220
0
230
1
40
0.99535
41
1.10568333558521
42
2.15821424004654
0
ELLIPSE
5
13F
100
AcDbEntity
8
1
62
256
6
ByLayer
370
18
48
1
60
0
100
AcDbEllipse
10
6.98602
20
5.975488
30
0
11
0.0336313803299914
21
-1.99971721257209
31
0
210
0
220
0
230
1
40
0.83641
41
-2.51694140922384
42
-1.06772668549724
0
ELLIPSE
5
140
100
AcDbEntity
8
1
62
256
6
ByLayer
370
18
48
1
60
0
100
AcDbEllipse
10
27.864556
20
11.936907
30
0
11
-0.34895119673387
21
6.90792727686086
31
0
210
0
220
0
230
1
40
0.548566
41
2.25780315277108
42
2.33710559330496
0
ELLIPSE
5
141
100
AcDbEntity
8
1
62
256
6
ByLayer
370
18
48
1
60
0
100
AcDbEllipse
10
13.736204
20
-9.486205
30
0
11
-0.681939391542318
21
-0.420996574538345
31
0
210
0
220
0
230
1
40
0.03414
41
1.42748616706711
42
2.99828249386482
0
ELLIPSE
5
142
100
AcDbEntity
8
1
62
256
6
ByLayer
370
18
48
1
60
0
100
AcDbEllipse
10
1.530472
20
7.8766
30
0
11
-0.618768166579525
21
1.85497269604703
31
0
210
0
220
0
230
1
40
0.304658
41
-0.649022127698596
42
0.921774199096909
0
ELLIPSE
5
143
100
AcDbEntity
8
1
62
256
6
ByLayer
370
18
48
1
60
0
100
AcDbEllipse
10
30.498054
20
7.948484
30
0
11
-0.561266007568108
21
0.561266007565537
31
0
210
0
220
0
230
1
40
0.989133
41
2.44346095279181
42
-2.4434609527923
0
ELLIPSE
5
144
100
AcDbEntity
8
1
62
256
6
ByLayer
370
18
48
1
60
0
100
AcDbEllipse
10
20.240523
20
18.206014
30
0
11
-0.561266007568108
21
0.561266007565537
31
0
210
0
220
0
230
1
40
0.989133
41
-0.698131700797956
42
0.698131700797484
0
ELLIPSE
5
145
100
AcDbEntity
8
1
62
256
6
ByLayer
370
18
48
1
60
0
100
AcDbEllipse
10
31.415091
20
19.123051
30
0
11
-0.561266007568108
21
0.561266007565537
31
0
210
0
220
0
230
1
40
0.989133
41
-2.44346095279228
42
-0.69813170079804
0
ELLIPSE
5
146
100
AcDbEntity
8
1
62
256
6
ByLayer
370
18
48
1
60
0
100
AcDbEllipse
10
25.856239
20
13.416854
30
0
11
-3.18198051534675
21
3.18198051533218
31
0
210
0
220
0
230
1
40
0.989133
41
-2.87979326579065
42
-2.35619449019235
0
ELLIPSE
5
147
100
AcDbEntity
8
1
62
256
6
ByLayer
370
18
48
1
60
0
100
AcDbEllipse
10
21.438453
20
14.184133
30
0
11
-8.77928455282502
21
0.377180683577311
31
0
210
0
220
0
230
1
40
0.731858
41
2.15633514029448
42
2.21990580143199
0
ELLIPSE
5
148
100
AcDbEntity
8
1
62
256
6
ByLayer
370
18
48
1
60
0
100
AcDbEllipse
10
26.209709
20
13.770324
30
0
11
2.30693672462584
21
-2.30693672461521
31
0
210
0
220
0
230
1
40
0.989133
41
0.785398163397448
42
2.0071286397935
0
ELLIPSE
5
149
100
AcDbEntity
8
1
62
256
6
ByLayer
370
18
48
1
60
0
100
AcDbEllipse
10
25.327424
20
8.652024
30
0
11
-1.49844305001381
21
-9.06767827225059
31
0
210
0
220
0
230
1
40
0.721982
41
-2.34099387594739
42
-2.27742321697669
0
ELLIPSE
5
14A
100
AcDbEntity
8
1
62
256
6
ByLayer
370
18
48
1
60
0
100
AcDbEllipse
10
25.856239
20
13.416854
30
0
11
-3.18198051534675
21
3.18198051533218
31
0
210
0
220
0
230
1
40
0.989133
41
-1.13446401379631
42
-0.610865238198008
0
ELLIPSE
5
14B
100
AcDbEntity
8
1
62
256
6
ByLayer
370
18
48
1
60
0
100
AcDbEllipse
10
26.209709
20
13.770324
30
0
11
-2.53778696600816
21
2.53778696599653
31
0
210
0
220
0
230
1
40
0.989133
41
-2.87979326579065
42
-2.78602876623269
0
ELLIPSE
5
14C
100
AcDbEntity
8
1
62
256
6
ByLayer
370
18
48
1
60
0
100
AcDbEllipse
10
25.856239
20
13.416854
30
0
11
-3.18198051534675
21
3.18198051533218
31
0
210
0
220
0
230
1
40
0.989133
41
-2.35619449019235
42
-1.13446401379631
0
ELLIPSE
5
14D
100
AcDbEntity
8
1
62
256
6
ByLayer
370
18
48
1
60
0
100
AcDbEllipse
10
28.494308
20
14.146814
30
0
11
-1.49847459157791
21
1.63003079786838
31
0
210
0
220
0
230
1
40
0.652432
41
2.74303571549646
42
-2.51919203123726
0
ELLIPSE
5
14E
100
AcDbEntity
8
1
62
256
6
ByLayer
370
18
48
1
60
0
100
AcDbEllipse
10
26.209709
20
13.770324
30
0
11
-2.53778696600816
21
2.53778696599653
31
0
210
0
220
0
230
1
40
0.989133
41
-0.704629737755967
42
-0.610865238198008
0
ELLIPSE
5
14F
100
AcDbEntity
8
1
62
256
6
ByLayer
370
18
48
1
60
0
100
AcDbEllipse
10
27.23589
20
15.936929
30
0
11
-1.15902115055712
21
1.55495811738978
31
0
210
0
220
0
230
1
40
0.75312
41
-0.85805335082236
42
0.162904209624704
0
ELLIPSE
5
150
100
AcDbEntity
8
1
62
256
6
ByLayer
370
18
48
1
60
0
100
AcDbEllipse
10
25.722758
20
13.430718
30
0
11
2.37173880783048
21
-2.37173880781955
31
0
210
0
220
0
230
1
40
0.989133
41
0.200712863979344
42
2.59181393921158
0
POINT
5
6C
100
AcDbEntity
8
2
62
256
6
ByLayer
370
18
48
1
60
0
100
AcDbPoint
10
32.20454
20
19.9125
30
0
39
0
210
0
220
0
230
1
50
360
0
POINT
5
6E
100
AcDbEntity
8
80
62
256
6
ByLayer
370
18
48
1
60
0
100
AcDbPoint
10
0
20
0
30
0
39
0
210
0
220
0
230
1
50
360
0
POINT
5
70
100
AcDbEntity
8
81
62
256
6
ByLayer
370
18
48
1
60
0
100
AcDbPoint
10
32.20454
20
19.9125
30
0
39
0
210
0
220
0
230
1
50
360
0
SPLINE
5
151
100
AcDbEntity
8
1
62
256
6
ByLayer
370
18
48
1
60
0
100
AcDbSpline
70
4
71
3
72
8
73
4
40
0
40
0
40
0
40
0
40
1
40
1
40
1
40
1
41
1
10
11.4488748548001
20
-4.9897025293013
30
0
41
1
10
11.6734392651718
20
-4.95046949941093
30
0
41
1
10
11.886735593503
20
-4.89020138804386
30
0
41
1
10
12.0878494613677
20
-4.81539671132939
30
0
0
SPLINE
5
152
100
AcDbEntity
8
1
62
256
6
ByLayer
370
18
48
1
60
0
100
AcDbSpline
70
4
71
3
72
8
73
4
40
0
40
0
40
0
40
0
40
1
40
1
40
1
40
1
41
1
10
3.64614061585792
20
6.10978350776918
30
0
41
1
10
3.75634638972593
20
6.31167568540428
30
0
41
1
10
3.88209814059428
20
6.49645912714539
30
0
41
1
10
4.01702540715701
20
6.66539779913492
30
0
0
SPLINE
5
153
100
AcDbEntity
8
1
62
256
6
ByLayer
370
18
48
1
60
0
100
AcDbSpline
70
4
71
3
72
14
73
10
40
0
40
0
40
0
40
0
40
0.164525200330934
40
0.164525200330934
40
0.540804984924937
40
0.540804984924937
40
0.917041398719807
40
0.917041398719807
40
1
40
1
40
1
40
1
41
1
10
15.0022230637039
20
6.86932143148675
30
0
41
1
10
15.0082518990025
20
6.86450815083441
30
0
41
1
10
15.0145999226901
20
6.85980304256205
30
0
41
1
10
15.0363112869297
20
6.84498618488362
30
0
41
1
10
15.0532118734239
20
6.83547552390331
30
0
41
1
10
15.0881591113703
20
6.8198476842461
30
0
41
1
10
15.1065920938971
20
6.81354773182062
30
0
41
1
10
15.1285098111581
20
6.80796179684734
30
0
41
1
10
15.132485118762
20
6.80702421737081
30
0
41
1
10
15.1364411741574
20
6.80616213664331
30
0
0
SPLINE
5
154
100
AcDbEntity
8
1
62
256
6
ByLayer
370
18
48
1
60
0
100
AcDbSpline
70
4
71
3
72
14
73
10
40
0
40
0
40
0
40
0
40
0.082958601280258
40
0.082958601280258
40
0.459195015075163
40
0.459195015075163
40
0.835474799669127
40
0.835474799669127
40
1
40
1
40
1
40
1
41
1
10
15.7366626065341
20
5.95233971955196
30
0
41
1
10
15.7361706668543
20
5.94827405279509
30
0
41
1
10
15.7357402302449
20
5.94416900940351
30
0
41
1
10
15.733740273894
20
5.92142168294049
30
0
41
1
10
15.733493482332
20
5.90185155360993
30
0
41
1
10
15.7363232544482
20
5.8637411288496
30
0
41
1
10
15.7394400389973
20
5.844776831746
30
0
41
1
10
15.7457715102958
20
5.81970240875756
30
0
41
1
10
15.7479567102718
20
5.81226890074421
30
0
41
1
10
15.750340929379
20
5.80511450736765
30
0
0
SPLINE
5
155
100
AcDbEntity
8
1
62
256
6
ByLayer
370
18
48
1
60
0
100
AcDbSpline
70
4
71
3
72
14
73
10
40
0
40
0
40
0
40
0
40
0.164525200331074
40
0.164525200331074
40
0.540804984924964
40
0.540804984924964
40
0.917041398719724
40
0.917041398719724
40
1
40
1
40
1
40
1
41
1
10
14.1622086712263
20
4.69753171011283
30
0
41
1
10
14.1555166002258
20
4.70168175506339
30
0
41
1
10
14.1485908788989
20
4.70580916569634
30
0
41
1
10
14.1253310070721
20
4.71907751578763
30
0
41
1
10
14.1079037787824
20
4.7280615349724
30
0
41
1
10
14.0732324042273
20
4.74396523802091
30
0
41
1
10
14.0556014194308
20
4.75106718817673
30
0
41
1
10
14.0352730402898
20
4.75824246126999
30
0
41
1
10
14.0316111762177
20
4.75949348427835
30
0
41
1
10
14.0279905607729
20
4.76069100495644
30
0
0
SPLINE
5
156
100
AcDbEntity
8
1
62
256
6
ByLayer
370
18
48
1
60
0
100
AcDbSpline
70
4
71
3
72
12
73
8
40
0
40
0
40
0
40
0
40
0.392678099449808
40
0.392678099449808
40
0.791279335966009
40
0.791279335966009
40
1
40
1
40
1
40
1
41
1
10
15.3166554102946
20
4.86644485886384
30
0
41
1
10
15.2992445437933
20
4.85799950635382
30
0
41
1
10
15.2814396057015
20
4.8481193729985
30
0
41
1
10
15.2476978846383
20
4.82636592752823
30
0
41
1
10
15.2313969836754
20
4.81418519009014
30
0
41
1
10
15.2096742210699
20
4.79547296378968
30
0
41
1
10
15.2026248151558
20
4.78890360820182
30
0
41
1
10
15.1961156226885
20
4.78237894152485
30
0
0
SPLINE
5
157
100
AcDbEntity
8
1
62
256
6
ByLayer
370
18
48
1
60
0
100
AcDbSpline
70
4
71
3
72
12
73
8
40
0
40
0
40
0
40
0
40
0.392678099452431
40
0.392678099452431
40
0.79127933596881
40
0.79127933596881
40
1
40
1
40
1
40
1
41
1
10
13.8477763246361
20
6.70040828273631
30
0
41
1
10
13.8636124855191
20
6.70727892962785
30
0
41
1
10
13.880328016636
20
6.71606965600827
30
0
41
1
10
13.9133064225725
20
6.73705978635201
30
0
41
1
10
13.9299572202792
20
6.74959042053374
30
0
41
1
10
13.9532053040968
20
6.76982796804646
30
0
41
1
10
13.9609614386611
20
6.77710405228453
30
0
41
1
10
13.9683161122422
20
6.78447420007527
30
0
0
SPLINE
5
158
100
AcDbEntity
8
1
62
256
6
ByLayer
370
18
48
1
60
0
100
AcDbSpline
70
4
71
3
72
14
73
10
40
0
40
0
40
0
40
0
40
0.0829586012803319
40
0.0829586012803319
40
0.459195015075176
40
0.459195015075176
40
0.835474799669053
40
0.835474799669053
40
1
40
1
40
1
40
1
41
1
10
13.4277691283962
20
5.61451342204776
30
0
41
1
10
13.4279256281254
20
5.61824364885405
30
0
41
1
10
13.428042621203
20
5.62203524871376
30
0
41
1
10
13.428453239434
20
5.64319323705686
30
0
41
1
10
13.4278980332656
20
5.66196136865707
30
0
41
1
10
13.4247923977581
20
5.69979593002609
30
0
41
1
10
13.4222022550045
20
5.71928686892525
30
0
41
1
10
13.4174192912932
20
5.74590979950082
30
0
41
1
10
13.4158117889566
20
5.75392100515359
30
0
41
1
10
13.4140908055512
20
5.76173863423193
30
0
0
SPLINE
5
159
100
AcDbEntity
8
1
62
256
6
ByLayer
370
18
48
1
60
0
100
AcDbSpline
70
4
71
3
72
8
73
4
40
0
40
0
40
0
40
0
40
1
40
1
40
1
40
1
41
1
10
27.1392180347851
20
16.1633769517958
30
0
41
1
10
27.311361870175
20
16.1199847294582
30
0
41
1
10
27.4788131835099
20
16.0580232469213
30
0
41
1
10
27.6321532638944
20
15.9836797768906
30
0
0
SPLINE
5
15A
100
AcDbEntity
8
1
62
256
6
ByLayer
370
18
48
1
60
0
100
AcDbSpline
70
4
71
2
72
6
73
3
40
0
40
0
40
0
40
1
40
1
40
1
41
1.00890738029382
10
28.7046835448584
20
14.6825888301411
30
0
41
1.00890738029382
10
28.3022459989017
20
15.2550612206329
30
0
41
1.00890738029382
10
27.899808452945
20
15.8275336111246
30
0
0
SPLINE
5
15B
100
AcDbEntity
8
1
62
256
6
ByLayer
370
18
48
1
60
0
100
AcDbSpline
70
4
71
3
72
10
73
6
40
0
40
0
40
0
40
0
40
0.560712447053348
40
0.560712447053348
40
1
40
1
40
1
40
1
41
1
10
9.31936129335935
20
5.52143483248079
30
0
41
1
10
9.42396459940318
20
5.6586759499894
30
0
41
1
10
9.52087232368365
20
5.809706437047
30
0
41
1
10
9.66190864347391
20
6.08850422514124
30
0
41
1
10
9.713976203421
20
6.2165764153568
30
0
41
1
10
9.75236611534092
20
6.3422183626893
30
0
0
SPLINE
5
15C
100
AcDbEntity
8
1
62
256
6
ByLayer
370
18
48
1
60
0
100
AcDbSpline
70
4
71
3
72
8
73
4
40
0
40
0
40
0
40
0
40
1
40
1
40
1
40
1
41
1
10
9.78090085535837
20
6.44300709755603
30
0
41
1
10
10.004365300667
20
7.29973687759949
30
0
41
1
10
10.5239138939066
20
8.04560214948455
30
0
41
1
10
11.2839147734914
20
8.57563602783782
30
0
0
SPLINE
5
15D
100
AcDbEntity
8
1
62
256
6
ByLayer
370
18
48
1
60
0
100
AcDbSpline
70
4
71
2
72
6
73
3
40
0
40
0
40
0
40
1
40
1
40
1
41
1.02830968163241
10
19.6983100597291
20
1.45764278280348
30
0
41
1.02830968163241
10
19.807931818532
20
1.04986396827936
30
0
41
1.02830968163241
10
19.9175535773349
20
0.642085153755208
30
0
0
SPLINE
5
15E
100
AcDbEntity
8
1
62
256
6
ByLayer
370
18
48
1
60
0
100
AcDbSpline
70
4
71
3
72
16
73
12
40
0
40
0
40
0
40
0
40
0.125000000000001
40
0.125000000000001
40
0.250000000000002
40
0.250000000000002
40
0.500000000000001
40
0.500000000000001
40
0.750000000000001
40
0.750000000000001
40
1
40
1
40
1
40
1
41
1
10
20.3280050177239
20
0.924750281961366
30
0
41
1
10
20.444013749235
20
1.33884525424278
30
0
41
1
10
20.6166603268554
20
1.81248844364734
30
0
41
1
10
21.1201338734303
20
2.89281834153769
30
0
41
1
10
21.4393126324485
20
3.47545018105743
30
0
41
1
10
22.4913157283397
20
5.21994334904446
30
0
41
1
10
23.2887338295793
20
6.34167490267123
30
0
41
1
10
24.8445742968546
20
8.39129959508398
30
0
41
1
10
25.6233827974626
20
9.37945522232761
30
0
41
1
10
27.1811022347442
20
11.3515391778262
30
0
41
1
10
27.9416161071148
20
12.2243405035091
30
0
41
1
10
28.6815326149012
20
13.0250433029334
30
0
0
SPLINE
5
15F
100
AcDbEntity
8
1
62
256
6
ByLayer
370
18
48
1
60
0
100
AcDbSpline
70
4
71
3
72
16
73
12
40
0
40
0
40
0
40
0
40
0.249999999999999
40
0.249999999999999
40
0.499999999999997
40
0.499999999999997
40
0.749999999999996
40
0.749999999999996
40
0.874999999999998
40
0.874999999999998
40
1
40
1
40
1
40
1
41
1
10
26.336917040213
20
16.360287979561
30
0
41
1
10
25.3088925475159
20
15.9670642197634
30
0
41
1
10
24.2184737069349
20
15.5782290605051
30
0
41
1
10
21.796275710269
20
14.8175351837134
30
0
41
1
10
20.5833437844195
20
14.4376468012244
30
0
41
1
10
18.090394687061
20
13.6968771258665
30
0
41
1
10
16.7446334157263
20
13.3347156280505
30
0
41
1
10
14.7839924382695
20
12.9303353114626
30
0
41
1
10
14.1318102308439
20
12.8184803911637
30
0
41
1
10
12.9833089608961
20
12.6832783575074
30
0
41
1
10
12.4851373831082
20
12.6602204195361
30
0
41
1
10
12.0722862178152
20
12.6686124640508
30
0
0
SPLINE
5
160
100
AcDbEntity
8
1
62
256
6
ByLayer
370
18
48
1
60
0
100
AcDbSpline
70
4
71
3
72
8
73
4
40
0
40
0
40
0
40
0
40
1
40
1
40
1
40
1
41
1
10
9.78090085535842
20
6.44300709755606
30
0
41
1
10
9.77211078790083
20
6.40930727318764
30
0
41
1
10
9.76259445608804
20
6.37569352804326
30
0
41
1
10
9.75236611534098
20
6.34221836268932
30
0
0
SPLINE
5
161
100
AcDbEntity
8
1
62
256
6
ByLayer
370
18
48
1
60
0
100
AcDbSpline
70
4
71
3
72
11
73
7
40
0
40
0
40
0
40
0
40
0.379837525225124
40
0.569756287837686
40
0.759675050450248
40
1
40
1
40
1
40
1
41
1.02830968163241
10
12.2969118866634
20
11.9862232984305
30
0
41
1.02565532568264
10
14.7205753113123
20
12.833740912066
30
0
41
1.02058995167321
10
17.9578778407959
20
13.6388073033005
30
0
41
1.0133636309892
10
23.5062996452032
20
14.2936829604715
30
0
41
1.01212905948733
10
25.1541487738827
20
15.3071121475237
30
0
41
1.0095816818588
10
26.912279872889
20
15.733110754879
30
0
41
1.00899450091457
10
27.6321532551972
20
15.9836797738633
30
0
0
SPLINE
5
162
100
AcDbEntity
8
1
62
256
6
ByLayer
370
18
48
1
60
0
100
AcDbSpline
70
4
71
3
72
8
73
4
40
0
40
0
40
0
40
0
40
1
40
1
40
1
40
1
41
1
10
13.4127665159274
20
1.13525348445143
30
0
41
1
10
13.4480399390779
20
1.13310171007848
30
0
41
1
10
13.4832100730708
20
1.13022260407934
30
0
41
1
10
13.5182229604666
20
1.12662014249983
30
0
0
SPLINE
5
163
100
AcDbEntity
8
1
62
256
6
ByLayer
370
18
48
1
60
0
100
AcDbSpline
70
4
71
3
72
8
73
4
40
0
40
0
40
0
40
0
40
1
40
1
40
1
40
1
41
1
10
20.3280050177239
20
0.924750281961394
30
0
41
1
10
20.1907094537271
20
0.830140719330046
30
0
41
1
10
20.0537684084909
20
0.735820793755636
30
0
41
1
10
19.9175535773349
20
0.642085153755204
30
0
0
SPLINE
5
164
100
AcDbEntity
8
1
62
256
6
ByLayer
370
18
48
1
60
0
100
AcDbSpline
70
4
71
2
72
6
73
3
40
0
40
0
40
0
40
1
40
1
40
1
41
1.02830968163241
10
12.2969118866634
20
11.9862232984305
30
0
41
0.915286811692243
10
12.8832024676623
20
11.6172060015949
30
0
41
0.941103849220746
10
13.9872739565886
20
10.2688994598328
30
0
0
SPLINE
5
165
100
AcDbEntity
8
1
62
256
6
ByLayer
370
18
48
1
60
0
100
AcDbSpline
70
4
71
3
72
8
73
4
40
0
40
0
40
0
40
0
40
1
40
1
40
1
40
1
41
1
10
10.2213977509522
20
-2.43652440282659
30
0
41
1
10
10.3591324842716
20
-2.53466626135347
30
0
41
1
10
10.5086458565055
20
-2.6259657703792
30
0
41
1
10
10.6671882649519
20
-2.70821976245719
30
0
0
SPLINE
5
166
100
AcDbEntity
8
1
62
256
6
ByLayer
370
18
48
1
60
0
100
AcDbSpline
70
4
71
1
72
4
73
2
40
0
40
0
40
1
40
1
41
1
10
12.2969118866634
20
11.9862232984305
30
0
41
1
10
11.6618347774237
20
12.385947335843
30
0
0
SPLINE
5
167
100
AcDbEntity
8
1
62
256
6
ByLayer
370
18
48
1
60
0
100
AcDbSpline
70
4
71
3
72
8
73
4
40
0
40
0
40
0
40
0
40
1
40
1
40
1
40
1
41
1
10
12.4927412181141
20
1.00726260944864
30
0
41
1
10
12.1285281475465
20
0.888485914270575
30
0
41
1
10
11.798129193641
20
0.708326980977489
30
0
41
1
10
11.5114149778751
20
0.501736160366079
30
0
0
SPLINE
5
168
100
AcDbEntity
8
1
62
256
6
ByLayer
370
18
48
1
60
0
100
AcDbSpline
70
4
71
3
72
8
73
4
40
0
40
0
40
0
40
0
40
1
40
1
40
1
40
1
41
1
10
28.6815326149014
20
13.0250433029334
30
0
41
1
10
28.7104005968324
20
13.29877906892
30
0
41
1
10
28.7385084855142
20
13.5742796493702
30
0
41
1
10
28.7652183492705
20
13.8503713778226
30
0
0
SPLINE
5
169
100
AcDbEntity
8
1
62
256
6
ByLayer
370
18
48
1
60
0
100
AcDbSpline
70
4
71
3
72
12
73
8
40
0
40
0
40
0
40
0
40
0.412488217320859
40
0.412488217320859
40
0.702829232095141
40
0.702829232095141
40
1
40
1
40
1
40
1
41
1
10
27.6321532638944
20
15.9836797768906
30
0
41
1
10
27.6684397713319
20
15.965851077753
30
0
41
1
10
27.7053267707829
20
15.945582973145
30
0
41
1
10
27.7663010457518
20
15.9084869535247
30
0
41
1
10
27.7912013966842
20
15.8922651273563
30
0
41
1
10
27.8400426336057
20
15.8582962961167
30
0
41
1
10
27.8640927132664
20
15.840421138466
30
0
41
1
10
27.8871105278645
20
15.8221880877048
30
0
0
SPLINE
5
16A
100
AcDbEntity
8
1
62
256
6
ByLayer
370
18
48
1
60
0
100
AcDbSpline
70
4
71
3
72
12
73
8
40
0
40
0
40
0
40
0
40
0.402184145094032
40
0.402184145094032
40
0.696777465474654
40
0.696777465474654
40
1
40
1
40
1
40
1
41
1
10
28.6949722974862
20
14.6729947207122
30
0
41
1
10
28.7072941540117
20
14.6358800645766
30
0
41
1
10
28.7184799741482
20
14.5970062526585
30
0
41
1
10
28.7351551065932
20
14.5285559523298
30
0
41
1
10
28.7414229162966
20
14.499053078926
30
0
41
1
10
28.752273485219
20
14.4392460161947
30
0
41
1
10
28.7568431821658
20
14.4087040708085
30
0
41
1
10
28.7603684303413
20
14.3787797375828
30
0
0
SPLINE
5
16B
100
AcDbEntity
8
1
62
256
6
ByLayer
370
18
48
1
60
0
100
AcDbSpline
70
4
71
3
72
10
73
6
40
0
40
0
40
0
40
0
40
0.354797248100692
40
0.354797248100692
40
1
40
1
40
1
40
1
41
1
10
28.1838395768907
20
11.8066590248562
30
0
41
1
10
28.2241693098441
20
11.8650242563802
30
0
41
1
10
28.2642243360041
20
11.9240032072177
30
0
41
1
10
28.3760110246693
20
12.0915405136417
30
0
41
1
10
28.446961373787
20
12.2013921297666
30
0
41
1
10
28.5158865573762
20
12.311598592311
30
0
0
SPLINE
5
16C
100
AcDbEntity
8
1
62
256
6
ByLayer
370
18
48
1
60
0
100
AcDbSpline
70
4
71
3
72
8
73
4
40
0
40
0
40
0
40
0
40
1
40
1
40
1
40
1
41
1
10
5.4151436306696
20
4.40043157504627
30
0
41
1
10
5.36339777360593
20
4.57182820173068
30
0
41
1
10
5.32214288258126
20
4.75189890851587
30
0
41
1
10
5.2926230227863
20
4.93716582084434
30
0
0
SPLINE
5
16D
100
AcDbEntity
8
1
62
256
6
ByLayer
370
18
48
1
60
0
100
AcDbSpline
70
4
71
3
72
18
73
14
40
0
40
0
40
0
40
0
40
0.150186459400636
40
0.150186459400636
40
0.339592137529993
40
0.339592137529993
40
0.523539642595942
40
0.523539642595942
40
0.716564624108225
40
0.716564624108225
40
0.935518218901376
40
0.935518218901376
40
1
40
1
40
1
40
1
41
1
10
25.1560638401326
20
7.40772308249987
30
0
41
1
10
25.1533012034582
20
7.41311723533937
30
0
41
1
10
25.1521882020824
20
7.42098313645727
30
0
41
1
10
25.1537860360964
20
7.44376587480241
30
0
41
1
10
25.1576359150652
20
7.46035844257273
30
0
41
1
10
25.1703918134888
20
7.49790502637353
30
0
41
1
10
25.1792951795177
20
7.51917625808747
30
0
41
1
10
25.2011300153104
20
7.56482395973345
30
0
41
1
10
25.2144786000004
20
7.58983230110681
30
0
41
1
10
25.2452435460214
20
7.64300224205942
30
0
41
1
10
25.2633115333236
20
7.67175965676594
30
0
41
1
10
25.2873284468035
20
7.70753767898839
30
0
41
1
10
25.2928745496841
20
7.71564104853951
30
0
41
1
10
25.2984572136677
20
7.72364755026601
30
0
0
SPLINE
5
16E
100
AcDbEntity
8
1
62
256
6
ByLayer
370
18
48
1
60
0
100
AcDbSpline
70
4
71
3
72
8
73
4
40
0
40
0
40
0
40
0
40
1
40
1
40
1
40
1
41
1
10
16.0556742469777
20
1.78774911200713
30
0
41
1
10
15.3106724662689
20
1.26817578805927
30
0
41
1
10
14.3989930317733
20
1.03599807222116
30
0
41
1
10
13.5182229604666
20
1.12662014249986
30
0
0
SPLINE
5
16F
100
AcDbEntity
8
1
62
256
6
ByLayer
370
18
48
1
60
0
100
AcDbSpline
70
4
71
3
72
8
73
4
40
0
40
0
40
0
40
0
40
1
40
1
40
1
40
1
41
1
10
12.0722862178153
20
12.6686124640507
30
0
41
1
10
11.9349906538176
20
12.5740029014188
30
0
41
1
10
11.7980496085805
20
12.479682975844
30
0
41
1
10
11.6618347774237
20
12.385947335843
30
0
0
SPLINE
5
170
100
AcDbEntity
8
1
62
256
6
ByLayer
370
18
48
1
60
0
100
AcDbSpline
70
4
71
3
72
13
73
9
40
0
40
0
40
0
40
0
40
0.287855605153645
40
0.287855605153645
40
0.60564928458715
40
0.60564928458715
40
0.60564928458715
40
1
40
1
40
1
40
1
41
1
10
17.531826477749
20
9.96323450401576
30
0
41
1
10
17.2324429971568
20
10.1462392423988
30
0
41
1
10
16.9006164985273
20
10.2856743260149
30
0
41
1
10
16.1861441922944
20
10.478496961144
30
0
41
1
10
15.7934774343792
20
10.5246507857696
30
0
41
1
10
15.405302408011
20
10.5192592327026
30
0
41
1
10
14.9258833103273
20
10.5126003460382
30
0
41
1
10
14.4395997734576
20
10.4267092766239
30
0
41
1
10
13.9872739639681
20
10.2688994508209
30
0
0
SPLINE
5
171
100
AcDbEntity
8
1
62
256
6
ByLayer
370
18
48
1
60
0
100
AcDbSpline
70
4
71
3
72
12
73
8
40
0
40
0
40
0
40
0
40
0.5
40
0.5
40
0.75
40
0.75
40
1
40
1
40
1
40
1
41
1
10
13.4435385896007
20
-3.67281019421128
30
0
41
1
10
13.05574949226
20
-3.73970886991629
30
0
41
1
10
12.6719886755217
20
-3.69511445287506
30
0
41
1
10
11.9263784924673
20
-3.43649522894748
30
0
41
1
10
11.6577671118001
20
-3.31323993531296
30
0
41
1
10
11.1197946768906
20
-3.00223503995565
30
0
41
1
10
10.8520064774563
20
-2.80410600473124
30
0
41
1
10
10.6671882649515
20
-2.70821976245526
30
0
0
SPLINE
5
172
100
AcDbEntity
8
1
62
256
6
ByLayer
370
18
48
1
60
0
100
AcDbSpline
70
4
71
3
72
11
73
7
40
0
40
0
40
0
40
0
40
0.379837525225126
40
0.569756287837689
40
0.759675050450252
40
1
40
1
40
1
40
1
41
1.02830968163241
10
19.6983100597291
20
1.45764278280348
30
0
41
1.02565532568264
10
21.3135411507823
20
3.45516539776529
30
0
41
1.02058995167321
10
23.1617613727951
20
6.23621856543098
30
0
41
1.0133636309892
10
25.6804618455152
20
11.200910318766
30
0
41
1.01212905948733
10
27.2346999544437
20
12.3475023401261
30
0
41
1.0095816818588
10
28.2610374030841
20
13.8144864732686
30
0
41
1.00899450091457
10
28.7603684243086
20
14.3787797307653
30
0
0
SPLINE
5
173
100
AcDbEntity
8
1
62
256
6
ByLayer
370
18
48
1
60
0
100
AcDbSpline
70
4
71
3
72
12
73
8
40
0
40
0
40
0
40
0
40
0.323114842069758
40
0.323114842069758
40
0.710369726849213
40
0.710369726849213
40
1
40
1
40
1
40
1
41
1
10
18.5753235193963
20
3.74234216738756
30
0
41
1
10
18.8242930646507
20
4.04744932343127
30
0
41
1
10
19.0342928105902
20
4.3911189877501
30
0
41
1
10
19.3844580782153
20
5.18363232120672
30
0
41
1
10
19.5083023931999
20
5.65201728124799
30
0
41
1
10
19.5767330896331
20
6.47468171750847
30
0
41
1
10
19.5582914534946
20
6.8361748147457
30
0
41
1
10
19.4879857876427
20
7.18057367236929
30
0
0
SPLINE
5
174
100
AcDbEntity
8
1
62
256
6
ByLayer
370
18
48
1
60
0
100
AcDbSpline
70
4
71
3
72
13
73
9
40
0
40
0
40
0
40
0
40
0.250649945521671
40
0.250649945521671
40
0.250649945521671
40
0.653057935862513
40
0.653057935862513
40
1
40
1
40
1
40
1
41
1
10
19.4879857876427
20
7.18057367236929
30
0
41
1
10
19.429696702376
20
7.46591215231922
30
0
41
1
10
19.3407121271825
20
7.74731748408425
30
0
41
1
10
19.2242055431773
20
8.01558674200405
30
0
41
1
10
19.0387766860196
20
8.44255713454754
30
0
41
1
10
18.7782940636427
20
8.84545818821195
30
0
41
1
10
18.1928762530218
20
9.4900377505671
30
0
41
1
10
17.8755412944407
20
9.75306256770202
30
0
41
1
10
17.531826477749
20
9.96323450401576
30
0
0
SPLINE
5
175
100
AcDbEntity
8
1
62
256
6
ByLayer
370
18
48
1
60
0
100
AcDbSpline
70
4
71
3
72
8
73
4
40
0
40
0
40
0
40
0
40
1
40
1
40
1
40
1
41
1
10
28.7603684303413
20
14.3787797375828
30
0
41
1
10
28.7798190442337
20
14.2073263062027
30
0
41
1
10
28.7823525403163
20
14.0274822932727
30
0
41
1
10
28.7652183492705
20
13.8503713778226
30
0
0
SPLINE
5
176
100
AcDbEntity
8
1
62
256
6
ByLayer
370
18
48
1
60
0
100
AcDbSpline
70
4
71
3
72
8
73
4
40
0
40
0
40
0
40
0
40
1
40
1
40
1
40
1
41
1
10
9.31936129335935
20
5.52143483248079
30
0
41
1
10
9.0864602527343
20
5.21586514933031
30
0
41
1
10
8.80859313796282
20
4.96097902463043
30
0
41
1
10
8.52187892219695
20
4.75438820401899
30
0
0
SPLINE
5
177
100
AcDbEntity
8
1
62
256
6
ByLayer
370
18
48
1
60
0
100
AcDbSpline
70
4
71
3
72
18
73
14
40
0
40
0
40
0
40
0
40
0.0367931396620326
40
0.0367931396620326
40
0.29197981781701
40
0.29197981781701
40
0.505668143229416
40
0.505668143229416
40
0.721016338466094
40
0.721016338466094
40
0.911566759950596
40
0.911566759950596
40
1
40
1
40
1
40
1
41
1
10
20.2097322671611
20
14.9624217748639
30
0
41
1
10
20.204326248296
20
14.9610012549509
30
0
41
1
10
20.1988989361169
20
14.9595981234338
30
0
41
1
10
20.1560497300774
20
14.9487049013981
30
0
41
1
10
20.1173042797864
20
14.9399850879205
30
0
41
1
10
20.0492808898205
20
14.9271062632904
30
0
41
1
10
20.0187416201203
20
14.9223096724126
30
0
41
1
10
19.9639989661006
20
14.9160660974273
30
0
41
1
10
19.9390587506381
20
14.9145743357263
30
0
41
1
10
19.9022501137833
20
14.9154306255803
30
0
41
1
10
19.8887210600611
20
14.9173705422579
30
0
41
1
10
19.8759559797734
20
14.9221692575521
30
0
41
1
10
19.8728721130954
20
14.924000904363
30
0
41
1
10
19.8707937418803
20
14.9260852182856
30
0
0
SPLINE
5
178
100
AcDbEntity
8
1
62
256
6
ByLayer
370
18
48
1
60
0
100
AcDbSpline
70
4
71
3
72
10
73
6
40
0
40
0
40
0
40
0
40
0.560712447053363
40
0.560712447053363
40
1
40
1
40
1
40
1
41
1
10
12.4927412181141
20
1.00726260944864
30
0
41
1
10
12.6563209564591
20
1.06060902199897
30
0
41
1
10
12.8308430497072
20
1.10123210849017
30
0
41
1
10
13.1415189426249
20
1.1387155040135
30
0
41
1
10
13.2803751885995
20
1.14332971408541
30
0
41
1
10
13.4127665159274
20
1.13525348445143
30
0
0
SPLINE
5
179
100
AcDbEntity
8
1
62
256
6
ByLayer
370
18
48
1
60
0
100
AcDbSpline
70
4
71
3
72
18
73
14
40
0
40
0
40
0
40
0
40
0.0739908643221361
40
0.0739908643221361
40
0.163840977644156
40
0.163840977644156
40
0.285126848313322
40
0.285126848313322
40
0.44367096244091
40
0.44367096244091
40
0.655194408808954
40
0.655194408808954
40
1
40
1
40
1
40
1
41
1
10
5.29262302278795
20
4.93716582084338
30
0
41
1
10
5.2826242355784
20
4.99991830158638
30
0
41
1
10
5.2656535144331
20
5.07480525939545
30
0
41
1
10
5.22307304854246
20
5.25104292188809
30
0
41
1
10
5.19604215601868
20
5.35733454842398
30
0
41
1
10
5.13789474276325
20
5.60827009469847
30
0
41
1
10
5.10763681382684
20
5.75799516589635
30
0
41
1
10
5.05659821529014
20
6.09117204277132
30
0
41
1
10
5.04034537263897
20
6.27692180034313
30
0
41
1
10
5.0321900628669
20
6.6752280273713
30
0
41
1
10
5.04911086028562
20
6.88273377009716
30
0
41
1
10
5.13305046241226
20
7.35974671725876
30
0
41
1
10
5.22191238516683
20
7.5993293045737
30
0
41
1
10
5.36439092088142
20
7.81987736816018
30
0
0
SPLINE
5
17A
100
AcDbEntity
8
1
62
256
6
ByLayer
370
18
48
1
60
0
100
AcDbSpline
70
4
71
3
72
8
73
4
40
0
40
0
40
0
40
0
40
1
40
1
40
1
40
1
41
1
10
17.722734515209
20
2.95037726567733
30
0
41
1
10
18.0435738020475
20
3.17413449556898
30
0
41
1
10
18.326680037601
20
3.43954873790023
30
0
41
1
10
18.5753235176372
20
3.7423421652453
30
0
0
SPLINE
5
17B
100
AcDbEntity
8
1
62
256
6
ByLayer
370
18
48
1
60
0
100
AcDbSpline
70
4
71
3
72
8
73
4
40
0
40
0
40
0
40
0
40
1
40
1
40
1
40
1
41
1
10
12.9509750417228
20
9.73826418150799
30
0
41
1
10
13.2718143286664
20
9.96202141147305
30
0
41
1
10
13.618122298462
20
10.13753040475
30
0
41
1
10
13.9872739617197
20
10.2688994500208
30
0
0
SPLINE
5
17C
100
AcDbEntity
8
1
62
256
6
ByLayer
370
18
48
1
60
0
100
AcDbSpline
70
4
71
3
72
11
73
7
40
0
40
0
40
0
40
0
40
0.267973217480477
40
0.487581252236334
40
0.707189286992191
40
1
40
1
40
1
40
1
41
1.02490899992583
10
19.4879857429776
20
7.18057363975833
30
0
41
1.02299818101095
10
20.5595401488156
20
7.96293770758776
30
0
41
1.01918124210004
10
22.4069784325552
20
9.35006742104823
30
0
41
1.0133636309892
10
25.2976582582348
20
11.8070246682609
30
0
41
1.01210337903089
10
26.8821459910262
20
13.009221997661
30
0
41
1.00942740489664
10
28.1653736411679
20
14.1493441543178
30
0
41
1.00890738029382
10
28.7046835448584
20
14.6825888301411
30
0
0
SPLINE
5
17D
100
AcDbEntity
8
1
62
256
6
ByLayer
370
18
48
1
60
0
100
AcDbSpline
70
4
71
3
72
11
73
7
40
0
40
0
40
0
40
0
40
0.267973217054011
40
0.487581251937808
40
0.707189286821605
40
1
40
1
40
1
40
1
41
1.02490899991337
10
17.5318264387662
20
9.96323447833583
30
0
41
1.02299818100183
10
18.6401269093838
20
10.6933268087163
30
0
41
1.01918124209525
10
20.5922745742845
20
11.9315061272064
30
0
41
1.0133636309892
10
23.9401154530779
20
13.7381461122489
30
0
41
1.01210337903089
10
25.647622004026
20
14.7653476500973
30
0
41
1.00942740489664
10
27.194182011134
20
15.5308762694398
30
0
41
1.00890738029382
10
27.899808452945
20
15.8275336111246
30
0
0
SPLINE
5
17E
100
AcDbEntity
8
1
62
256
6
ByLayer
370
18
48
1
60
0
100
AcDbSpline
70
4
71
3
72
8
73
4
40
0
40
0
40
0
40
0
40
1
40
1
40
1
40
1
41
1
10
26.3369170402129
20
16.360287979561
30
0
41
1
10
26.6030499633972
20
16.2965114297507
30
0
41
1
10
26.8708693057736
20
16.2310195001735
30
0
41
1
10
27.1392180347851
20
16.1633769517958
30
0
0
SPLINE
5
17F
100
AcDbEntity
8
1
62
256
6
ByLayer
370
18
48
1
60
0
100
AcDbSpline
70
4
71
2
72
6
73
3
40
0
40
0
40
0
40
1
40
1
40
1
41
0.941103849192081
10
18.5753235265434
20
3.74234215549516
30
0
41
0.915286811754989
10
19.4959087963754
20
2.21054939669017
30
0
41
1.02830968163241
10
19.6983100597291
20
1.45764278280348
30
0
0
LINE
5
72
100
AcDbEntity
8
1
62
256
6
ByLayer
370
18
48
1
60
0
100
AcDbLine
10
30.515309
20
6.843207
30
0
11
31.05932
21
7.387218
31
0
39
0
210
0
220
0
230
1
0
LINE
5
74
100
AcDbEntity
8
1
62
256
6
ByLayer
370
18
48
1
60
0
100
AcDbLine
10
5.746432
20
8.244705
30
0
11
4.648866
21
7.309678
31
0
39
0
210
0
220
0
230
1
0
LINE
5
75
100
AcDbEntity
8
1
62
256
6
ByLayer
370
18
48
1
60
0
100
AcDbLine
10
15.196427
20
4.782691
30
0
11
14.96253
21
4.548793
31
0
39
0
210
0
220
0
230
1
0
LINE
5
76
100
AcDbEntity
8
1
62
256
6
ByLayer
370
18
48
1
60
0
100
AcDbLine
10
13.734075
20
6.550233
30
0
11
13.967973
21
6.78413
31
0
39
0
210
0
220
0
230
1
0
LINE
5
77
100
AcDbEntity
8
1
62
256
6
ByLayer
370
18
48
1
60
0
100
AcDbLine
10
15.857387
20
6.213256
30
0
11
15.623474
21
5.979342
31
0
39
0
210
0
220
0
230
1
0
LINE
5
78
100
AcDbEntity
8
1
62
256
6
ByLayer
370
18
48
1
60
0
100
AcDbLine
10
17.06757
20
2.611926
30
0
11
17.32053
21
2.864886
31
0
39
0
210
0
220
0
230
1
0
LINE
5
79
100
AcDbEntity
8
1
62
256
6
ByLayer
370
18
48
1
60
0
100
AcDbLine
10
11.663676
20
8.521741
30
0
11
11.410715
21
8.26878
31
0
39
0
210
0
220
0
230
1
0
LINE
5
7A
100
AcDbEntity
8
1
62
256
6
ByLayer
370
18
48
1
60
0
100
AcDbLine
10
19.679257
20
18.76728
30
0
11
19.135247
21
18.223269
31
0
39
0
210
0
220
0
230
1
0
LINE
5
7B
100
AcDbEntity
8
1
62
256
6
ByLayer
370
18
48
1
60
0
100
AcDbLine
10
13.286898
20
5.333452
30
0
11
13.307044
21
5.353598
31
0
39
0
210
0
220
0
230
1
0
LINE
5
7C
100
AcDbEntity
8
1
62
256
6
ByLayer
370
18
48
1
60
0
100
AcDbLine
10
8.377641
20
4.613444
30
0
11
8.783612
21
4.959295
31
0
39
0
210
0
220
0
230
1
0
LINE
5
7D
100
AcDbEntity
8
80
62
256
6
ByLayer
370
18
48
1
60
0
100
AcDbLine
10
0
20
0
30
0
11
-5
21
0
31
0
39
0
210
0
220
0
230
1
0
LINE
5
7E
100
AcDbEntity
8
81
62
256
6
ByLayer
370
18
48
1
60
0
100
AcDbLine
10
32.20454
20
19.9125
30
0
11
42.20454
21
19.9125
31
0
39
0
210
0
220
0
230
1
0
LINE
5
7F
100
AcDbEntity
8
1
62
256
6
ByLayer
370
18
48
1
60
0
100
AcDbLine
10
19.191599
20
15.085109
30
0
11
19.453714
21
18.279114
31
0
39
0
210
0
220
0
230
1
0
LINE
5
80
100
AcDbEntity
8
1
62
256
6
ByLayer
370
18
48
1
60
0
100
AcDbLine
10
30.571154
20
7.161675
30
0
11
25.174187
21
6.718774
31
0
39
0
210
0
220
0
230
1
0
LINE
5
81
100
AcDbEntity
8
1
62
256
6
ByLayer
370
18
48
1
60
0
100
AcDbLine
10
30.499651
20
7.090171
30
0
11
30.571154
21
7.161675
31
0
39
0
210
0
220
0
230
1
0
LINE
5
82
100
AcDbEntity
8
1
62
256
6
ByLayer
370
18
48
1
60
0
100
AcDbLine
10
19.374935
20
18.200335
30
0
11
19.453714
21
18.279114
31
0
39
0
210
0
220
0
230
1
0
LINE
5
83
100
AcDbEntity
8
1
62
256
6
ByLayer
370
18
48
1
60
0
100
AcDbLine
10
14.345734
20
4.405844
30
0
11
14.348302
21
4.405813
31
0
39
0
210
0
220
0
230
1
0
LINE
5
84
100
AcDbEntity
8
1
62
256
6
ByLayer
370
18
48
1
60
0
100
AcDbLine
10
13.199949
20
-4.200826
30
0
11
14.222433
21
-3.329762
31
0
39
0
210
0
220
0
230
1
0
LINE
5
85
100
AcDbEntity
8
1
62
256
6
ByLayer
370
18
48
1
60
0
100
AcDbLine
10
28.681533
20
13.025043
30
0
11
28.526384
21
12.356813
31
0
39
0
210
0
220
0
230
1
0
LINE
5
86
100
AcDbEntity
8
1
62
256
6
ByLayer
370
18
48
1
60
0
100
AcDbLine
10
21.781316
20
15.405402
30
0
11
24.112745
21
16.018023
31
0
39
0
210
0
220
0
230
1
0
LINE
5
87
100
AcDbEntity
8
1
62
256
6
ByLayer
370
18
48
1
60
0
100
AcDbLine
10
26.336917
20
16.360288
30
0
11
25.684617
21
16.399262
31
0
39
0
210
0
220
0
230
1
0
LINE
5
88
100
AcDbEntity
8
1
62
256
6
ByLayer
370
18
48
1
60
0
100
AcDbLine
10
17.284637
20
-7.190088
30
0
11
14.504623
21
-3.235483
31
0
39
0
210
0
220
0
230
1
0
LINE
5
89
100
AcDbEntity
8
1
62
256
6
ByLayer
370
18
48
1
60
0
100
AcDbLine
10
6.20061
20
8.577079
30
0
11
4.108239
21
11.553502
31
0
39
0
210
0
220
0
230
1
0
LINE
5
8A
100
AcDbEntity
8
1
62
256
6
ByLayer
370
18
48
1
60
0
100
AcDbLine
10
14.433997
20
-9.052057
30
0
11
11.56027
21
-4.964143
31
0
39
0
210
0
220
0
230
1
0
LINE
5
8B
100
AcDbEntity
8
1
62
256
6
ByLayer
370
18
48
1
60
0
100
AcDbLine
10
3.706404
20
6.208077
30
0
11
1.585138
21
9.225605
31
0
39
0
210
0
220
0
230
1
0
LINE
5
8C
100
AcDbEntity
8
1
62
256
6
ByLayer
370
18
48
1
60
0
100
AcDbLine
10
19.030602
20
15.04284
30
0
11
19.292663
21
18.236181
31
0
39
0
210
0
220
0
230
1
0
LINE
5
8D
100
AcDbEntity
8
1
62
256
6
ByLayer
370
18
48
1
60
0
100
AcDbLine
10
25.054849
20
6.547293
30
0
11
30.529869
21
7.020703
31
0
39
0
210
0
220
0
230
1
0
LINE
5
8E
100
AcDbEntity
8
1
62
256
6
ByLayer
370
18
48
1
60
0
100
AcDbLine
10
19.403294
20
18.188002
30
0
11
19.147719
21
15.073696
31
0
39
0
210
0
220
0
230
1
0
LINE
5
8F
100
AcDbEntity
8
1
62
256
6
ByLayer
370
18
48
1
60
0
100
AcDbLine
10
13.653034
20
-9.569374
30
0
11
10.363339
21
-4.889742
31
0
39
0
210
0
220
0
230
1
0
LINE
5
90
100
AcDbEntity
8
1
62
256
6
ByLayer
370
18
48
1
60
0
100
AcDbLine
10
3.369248
20
5.05944
30
0
11
0.706257
21
8.847577
31
0
39
0
210
0
220
0
230
1
0
LINE
5
91
100
AcDbEntity
8
1
62
256
6
ByLayer
370
18
48
1
60
0
100
AcDbLine
10
25.140151
20
6.6696
30
0
11
25.921138
21
6.73713
31
0
39
0
210
0
220
0
230
1
0
LINE
5
92
100
AcDbEntity
8
1
62
256
6
ByLayer
370
18
48
1
60
0
100
AcDbLine
10
30.529869
20
7.020703
30
0
11
30.487325
21
7.118535
31
0
39
0
210
0
220
0
230
1
0
LINE
5
93
100
AcDbEntity
8
1
62
256
6
ByLayer
370
18
48
1
60
0
100
AcDbLine
10
14.413205
20
-9.072849
30
0
11
11.529813
21
-4.971188
31
0
39
0
210
0
220
0
230
1
0
LINE
5
94
100
AcDbEntity
8
1
62
256
6
ByLayer
370
18
48
1
60
0
100
AcDbLine
10
3.689789
20
6.181342
30
0
11
1.379084
21
9.468349
31
0
39
0
210
0
220
0
230
1
0
LINE
5
95
100
AcDbEntity
8
1
62
256
6
ByLayer
370
18
48
1
60
0
100
AcDbLine
10
27.633792
20
11.009314
30
0
11
26.060254
21
8.620839
31
0
39
0
210
0
220
0
230
1
0
LINE
5
96
100
AcDbEntity
8
1
62
256
6
ByLayer
370
18
48
1
60
0
100
AcDbLine
10
28.514594
20
11.574303
30
0
11
28.121047
21
11.719451
31
0
39
0
210
0
220
0
230
1
0
LINE
5
97
100
AcDbEntity
8
1
62
256
6
ByLayer
370
18
48
1
60
0
100
AcDbLine
10
24.926282
20
16.678721
30
0
11
24.948592
21
16.232309
31
0
39
0
210
0
220
0
230
1
0
LINE
5
98
100
AcDbEntity
8
1
62
256
6
ByLayer
370
18
48
1
60
0
100
AcDbLine
10
24.112759
20
16.018027
30
0
11
21.321187
21
15.362221
31
0
39
0
210
0
220
0
230
1
0
LINE
5
99
100
AcDbEntity
8
1
62
256
6
ByLayer
370
18
48
1
60
0
100
AcDbLine
10
13.289398
20
5.336086
30
0
11
13.300673
21
5.347362
31
0
39
0
210
0
220
0
230
1
0
LINE
5
9A
100
AcDbEntity
8
1
62
256
6
ByLayer
370
18
48
1
60
0
100
AcDbLine
10
17.06757
20
2.611926
30
0
11
17.067702
21
2.612059
31
0
39
0
210
0
220
0
230
1
0
LINE
5
9B
100
AcDbEntity
8
1
62
256
6
ByLayer
370
18
48
1
60
0
100
AcDbLine
10
15.690865
20
5.328794
30
0
11
15.924779
21
5.562708
31
0
39
0
210
0
220
0
230
1
0
LINE
5
9C
100
AcDbEntity
8
1
62
256
6
ByLayer
370
18
48
1
60
0
100
AcDbLine
10
13.317738
20
6.445522
30
0
11
13.551652
21
6.679435
31
0
39
0
210
0
220
0
230
1
0
LINE
5
9D
100
AcDbEntity
8
1
62
256
6
ByLayer
370
18
48
1
60
0
100
AcDbLine
10
14.599281
20
6.881587
30
0
11
14.833194
21
7.1155
31
0
39
0
210
0
220
0
230
1
0
LINE
5
9E
100
AcDbEntity
8
1
62
256
6
ByLayer
370
18
48
1
60
0
100
AcDbLine
10
15.198038
20
6.599828
30
0
11
15.431952
21
6.833742
31
0
39
0
210
0
220
0
230
1
0
LINE
5
9F
100
AcDbEntity
8
1
62
256
6
ByLayer
370
18
48
1
60
0
100
AcDbLine
10
14.841129
20
4.278479
30
0
11
15.075042
21
4.512393
31
0
39
0
210
0
220
0
230
1
0
LINE
5
A0
100
AcDbEntity
8
1
62
256
6
ByLayer
370
18
48
1
60
0
100
AcDbLine
10
5.980588
20
7.581142
30
0
11
12.296912
21
11.986223
31
0
39
0
210
0
220
0
230
1
0
LINE
5
A1
100
AcDbEntity
8
1
62
256
6
ByLayer
370
18
48
1
60
0
100
AcDbLine
10
11.283915
20
8.575636
30
0
11
12.950975
21
9.738264
31
0
39
0
210
0
220
0
230
1
0
LINE
5
A2
100
AcDbEntity
8
1
62
256
6
ByLayer
370
18
48
1
60
0
100
AcDbLine
10
19.917554
20
0.642085
30
0
11
14.222433
21
-3.329762
31
0
39
0
210
0
220
0
230
1
0
LINE
5
A3
100
AcDbEntity
8
1
62
256
6
ByLayer
370
18
48
1
60
0
100
AcDbLine
10
10.861412
20
8.215702
30
0
11
12.521188
21
9.372124
31
0
39
0
210
0
220
0
230
1
0
LINE
5
A4
100
AcDbEntity
8
1
62
256
6
ByLayer
370
18
48
1
60
0
100
AcDbLine
10
8.894148
20
-1.566609
30
0
11
8.658668
21
-1.552129
31
0
39
0
210
0
220
0
230
1
0
LINE
5
A5
100
AcDbEntity
8
1
62
256
6
ByLayer
370
18
48
1
60
0
100
AcDbLine
10
28.065188
20
11.628011
30
0
11
26.258375
21
9.03673
31
0
39
0
210
0
220
0
230
1
0
LINE
5
A6
100
AcDbEntity
8
1
62
256
6
ByLayer
370
18
48
1
60
0
100
AcDbLine
10
5.341886
20
2.33741
30
0
11
5.847121
21
2.767825
31
0
39
0
210
0
220
0
230
1
0
LINE
5
A7
100
AcDbEntity
8
1
62
256
6
ByLayer
370
18
48
1
60
0
100
AcDbLine
10
5.847121
20
2.767825
30
0
11
8.894148
21
-1.566609
31
0
39
0
210
0
220
0
230
1
0
LINE
5
A8
100
AcDbEntity
8
1
62
256
6
ByLayer
370
18
48
1
60
0
100
AcDbLine
10
5.415144
20
4.400432
30
0
11
10.221398
21
-2.436524
31
0
39
0
210
0
220
0
230
1
0
LINE
5
A9
100
AcDbEntity
8
1
62
256
6
ByLayer
370
18
48
1
60
0
100
AcDbLine
10
5.784114
20
2.536959
30
0
11
8.658668
21
-1.552129
31
0
39
0
210
0
220
0
230
1
0
LINE
5
AA
100
AcDbEntity
8
1
62
256
6
ByLayer
370
18
48
1
60
0
100
AcDbLine
10
8.712768
20
-3.721741
30
0
11
3.906514
21
3.115215
31
0
39
0
210
0
220
0
230
1
0
LINE
5
AB
100
AcDbEntity
8
1
62
256
6
ByLayer
370
18
48
1
60
0
100
AcDbLine
10
21.28276
20
15.244377
30
0
11
21.306799
21
15.253901
31
0
39
0
210
0
220
0
230
1
0
LINE
5
AC
100
AcDbEntity
8
1
62
256
6
ByLayer
370
18
48
1
60
0
100
AcDbLine
10
13.260258
20
-4.156539
30
0
11
14.817252
21
-3.004309
31
0
39
0
210
0
220
0
230
1
0
LINE
5
AD
100
AcDbEntity
8
1
62
256
6
ByLayer
370
18
48
1
60
0
100
AcDbLine
10
12.950975
20
9.738264
30
0
11
12.521188
21
9.372124
31
0
39
0
210
0
220
0
230
1
0
LINE
5
AE
100
AcDbEntity
8
1
62
256
6
ByLayer
370
18
48
1
60
0
100
AcDbLine
10
13.381986
20
-2.947438
30
0
11
19.69831
21
1.457643
31
0
39
0
210
0
220
0
230
1
0
LINE
5
AF
100
AcDbEntity
8
1
62
256
6
ByLayer
370
18
48
1
60
0
100
AcDbLine
10
8.388913
20
-1.997024
30
0
11
8.894148
21
-1.566609
31
0
39
0
210
0
220
0
230
1
0
LINE
5
B0
100
AcDbEntity
8
1
62
256
6
ByLayer
370
18
48
1
60
0
100
AcDbLine
10
3.906514
20
3.115215
30
0
11
5.415144
21
4.400432
31
0
39
0
210
0
220
0
230
1
0
LINE
5
B1
100
AcDbEntity
8
1
62
256
6
ByLayer
370
18
48
1
60
0
100
AcDbLine
10
20.328005
20
0.92475
30
0
11
21.781213
21
1.852442
31
0
39
0
210
0
220
0
230
1
0
LINE
5
B2
100
AcDbEntity
8
1
62
256
6
ByLayer
370
18
48
1
60
0
100
AcDbLine
10
5.341886
20
2.33741
30
0
11
5.339507
21
2.158194
31
0
39
0
210
0
220
0
230
1
0
LINE
5
B3
100
AcDbEntity
8
1
62
256
6
ByLayer
370
18
48
1
60
0
100
AcDbLine
10
13.525494
20
13.596305
30
0
11
19.61953
21
15.197612
31
0
39
0
210
0
220
0
230
1
0
LINE
5
B4
100
AcDbEntity
8
1
62
256
6
ByLayer
370
18
48
1
60
0
100
AcDbLine
10
8.521879
20
4.754388
30
0
11
8.153237
21
4.440339
31
0
39
0
210
0
220
0
230
1
0
LINE
5
B5
100
AcDbEntity
8
1
62
256
6
ByLayer
370
18
48
1
60
0
100
AcDbLine
10
8.388913
20
-1.997024
30
0
11
8.214061
21
-1.930894
31
0
39
0
210
0
220
0
230
1
0
LINE
5
B6
100
AcDbEntity
8
1
62
256
6
ByLayer
370
18
48
1
60
0
100
AcDbLine
10
9.974718
20
-0.626137
30
0
11
6.985182
21
3.626515
31
0
39
0
210
0
220
0
230
1
0
LINE
5
B7
100
AcDbEntity
8
1
62
256
6
ByLayer
370
18
48
1
60
0
100
AcDbLine
10
17.722735
20
2.950377
30
0
11
16.055674
21
1.787749
31
0
39
0
210
0
220
0
230
1
0
LINE
5
B8
100
AcDbEntity
8
1
62
256
6
ByLayer
370
18
48
1
60
0
100
AcDbLine
10
21.781213
20
1.852442
30
0
11
14.817252
21
-3.004309
31
0
39
0
210
0
220
0
230
1
0
LINE
5
B9
100
AcDbEntity
8
1
62
256
6
ByLayer
370
18
48
1
60
0
100
AcDbLine
10
25.376342
20
7.008476
30
0
11
21.781213
21
1.852442
31
0
39
0
210
0
220
0
230
1
0
LINE
5
BA
100
AcDbEntity
8
1
62
256
6
ByLayer
370
18
48
1
60
0
100
AcDbLine
10
5.966714
20
8.414101
30
0
11
11.661835
21
12.385947
31
0
39
0
210
0
220
0
230
1
0
LINE
5
BB
100
AcDbEntity
8
1
62
256
6
ByLayer
370
18
48
1
60
0
100
AcDbLine
10
11.283915
20
8.575636
30
0
11
10.861412
21
8.215702
31
0
39
0
210
0
220
0
230
1
0
LINE
5
BC
100
AcDbEntity
8
1
62
256
6
ByLayer
370
18
48
1
60
0
100
AcDbLine
10
20.209732
20
14.962422
30
0
11
21.28276
21
15.244377
31
0
39
0
210
0
220
0
230
1
0
LINE
5
BD
100
AcDbEntity
8
1
62
256
6
ByLayer
370
18
48
1
60
0
100
AcDbLine
10
25.931482
20
8.631513
30
0
11
25.298457
21
7.723648
31
0
39
0
210
0
220
0
230
1
0
LINE
5
BE
100
AcDbEntity
8
1
62
256
6
ByLayer
370
18
48
1
60
0
100
AcDbLine
10
8.153237
20
4.440339
30
0
11
6.985182
21
3.626515
31
0
39
0
210
0
220
0
230
1
0
LINE
5
BF
100
AcDbEntity
8
1
62
256
6
ByLayer
370
18
48
1
60
0
100
AcDbLine
10
5.847121
20
2.767825
30
0
11
5.784114
21
2.536959
31
0
39
0
210
0
220
0
230
1
0
LINE
5
C0
100
AcDbEntity
8
1
62
256
6
ByLayer
370
18
48
1
60
0
100
AcDbLine
10
12.072286
20
12.668612
30
0
11
13.525494
21
13.596305
31
0
39
0
210
0
220
0
230
1
0
LINE
5
C1
100
AcDbEntity
8
1
62
256
6
ByLayer
370
18
48
1
60
0
100
AcDbLine
10
25.949165
20
8.650079
30
0
11
25.931482
21
8.631513
31
0
39
0
210
0
220
0
230
1
0
LINE
5
C2
100
AcDbEntity
8
1
62
256
6
ByLayer
370
18
48
1
60
0
100
AcDbLine
10
8.712768
20
-3.721741
30
0
11
10.221398
21
-2.436524
31
0
39
0
210
0
220
0
230
1
0
LINE
5
C3
100
AcDbEntity
8
1
62
256
6
ByLayer
370
18
48
1
60
0
100
AcDbLine
10
5.339507
20
2.158194
30
0
11
5.784114
21
2.536959
31
0
39
0
210
0
220
0
230
1
0
LINE
5
C4
100
AcDbEntity
8
1
62
256
6
ByLayer
370
18
48
1
60
0
100
AcDbLine
10
8.214061
20
-1.930894
30
0
11
8.658668
21
-1.552129
31
0
39
0
210
0
220
0
230
1
0
LINE
5
C5
100
AcDbEntity
8
1
62
256
6
ByLayer
370
18
48
1
60
0
100
AcDbLine
10
5.339507
20
2.158194
30
0
11
8.214061
21
-1.930894
31
0
39
0
210
0
220
0
230
1
0
LINE
5
C6
100
AcDbEntity
8
1
62
256
6
ByLayer
370
18
48
1
60
0
100
AcDbLine
10
2.731764
20
-12.44942
30
0
11
0.706257
21
8.847577
31
0
39
0
210
0
220
0
230
1
0
LINE
5
C7
100
AcDbEntity
8
1
62
256
6
ByLayer
370
18
48
1
60
0
100
AcDbLine
10
19.292663
20
18.236181
30
0
11
4.592301
21
17.029801
31
0
39
0
210
0
220
0
230
1
0
LINE
5
C8
100
AcDbEntity
8
1
62
256
6
ByLayer
370
18
48
1
60
0
100
AcDbLine
10
8.940711
20
-12.446571
30
0
11
2.731764
21
-12.44942
31
0
39
0
210
0
220
0
230
1
0
LINE
5
C9
100
AcDbEntity
8
1
62
256
6
ByLayer
370
18
48
1
60
0
100
AcDbLine
10
4.108239
20
11.553502
30
0
11
3.674674
21
16.112174
31
0
39
0
210
0
220
0
230
1
0
LINE
5
CA
100
AcDbEntity
8
1
62
256
6
ByLayer
370
18
48
1
60
0
100
AcDbLine
10
27.119317
20
-2.307489
30
0
11
30.000824
21
0.574017
31
0
39
0
210
0
220
0
230
1
0
LINE
5
CB
100
AcDbEntity
8
1
62
256
6
ByLayer
370
18
48
1
60
0
100
AcDbLine
10
0
20
-12.4375
30
0
11
2.731764
21
-12.44942
31
0
39
0
210
0
220
0
230
1
0
LINE
5
CC
100
AcDbEntity
8
1
62
256
6
ByLayer
370
18
48
1
60
0
100
AcDbLine
10
19.292663
20
18.236181
30
0
11
19.403294
21
18.188002
31
0
39
0
210
0
220
0
230
1
0
LINE
5
CD
100
AcDbEntity
8
1
62
256
6
ByLayer
370
18
48
1
60
0
100
AcDbLine
10
30.000824
20
0.574017
30
0
11
17.284637
21
-7.190088
31
0
39
0
210
0
220
0
230
1
0
LINE
5
CE
100
AcDbEntity
8
1
62
256
6
ByLayer
370
18
48
1
60
0
100
AcDbLine
10
3.674674
20
16.112174
30
0
11
0
21
12.4375
31
0
39
0
210
0
220
0
230
1
0
LINE
5
CF
100
AcDbEntity
8
1
62
256
6
ByLayer
370
18
48
1
60
0
100
AcDbLine
10
0
20
-12.4375
30
0
11
0
21
12.4375
31
0
39
0
210
0
220
0
230
1
0
LINE
5
D0
100
AcDbEntity
8
1
62
256
6
ByLayer
370
18
48
1
60
0
100
AcDbLine
10
8.940711
20
-12.446571
30
0
11
13.653034
21
-9.569374
31
0
39
0
210
0
220
0
230
1
0
LINE
5
D1
100
AcDbEntity
8
1
62
256
6
ByLayer
370
18
48
1
60
0
100
AcDbLine
10
10.886957
20
-12.328962
30
0
11
27.119317
21
-2.307489
31
0
39
0
210
0
220
0
230
1
0
LINE
5
D2
100
AcDbEntity
8
1
62
256
6
ByLayer
370
18
48
1
60
0
100
AcDbLine
10
3.674674
20
16.112174
30
0
11
4.592301
21
17.029801
31
0
39
0
210
0
220
0
230
1
0
LINE
5
D3
100
AcDbEntity
8
1
62
256
6
ByLayer
370
18
48
1
60
0
100
AcDbLine
10
14.433997
20
-9.052057
30
0
11
17.284637
21
-7.190088
31
0
39
0
210
0
220
0
230
1
0
LINE
5
D4
100
AcDbEntity
8
1
62
256
6
ByLayer
370
18
48
1
60
0
100
AcDbLine
10
8.940711
20
-12.446571
30
0
11
10.886957
21
-12.328962
31
0
39
0
210
0
220
0
230
1
0
LINE
5
D5
100
AcDbEntity
8
1
62
256
6
ByLayer
370
18
48
1
60
0
100
AcDbLine
10
14.413205
20
-9.072849
30
0
11
14.433997
21
-9.052057
31
0
39
0
210
0
220
0
230
1
0
LINE
5
D6
100
AcDbEntity
8
1
62
256
6
ByLayer
370
18
48
1
60
0
100
AcDbLine
10
1.585138
20
9.225605
30
0
11
4.108239
21
11.553502
31
0
39
0
210
0
220
0
230
1
0
LINE
5
D7
100
AcDbEntity
8
1
62
256
6
ByLayer
370
18
48
1
60
0
100
AcDbLine
10
1.379084
20
9.468349
30
0
11
1.585138
21
9.225605
31
0
39
0
210
0
220
0
230
1
0
LINE
5
D8
100
AcDbEntity
8
1
62
256
6
ByLayer
370
18
48
1
60
0
100
AcDbLine
10
30.000824
20
0.574017
30
0
11
30.529869
21
7.020703
31
0
39
0
210
0
220
0
230
1
0
LINE
5
D9
100
AcDbEntity
8
SK1
62
256
6
ByLayer
370
18
48
1
60
0
100
AcDbLine
10
-119.14546
20
12.4375
30
0
11
-119.14546
21
-12.4375
31
0
39
0
210
0
220
0
230
1
0
LINE
5
DB
100
AcDbEntity
8
SK1
62
256
6
ByLayer
370
18
48
1
60
0
100
AcDbLine
10
0
20
12.4375
30
0
11
-119.14546
21
12.4375
31
0
39
0
210
0
220
0
230
1
0
LINE
5
DC
100
AcDbEntity
8
SK1
62
256
6
ByLayer
370
18
48
1
60
0
100
AcDbLine
10
0
20
12.4375
30
0
11
0
21
-12.4375
31
0
39
0
210
0
220
0
230
1
0
LINE
5
DD
100
AcDbEntity
8
SK1
62
256
6
ByLayer
370
18
48
1
60
0
100
AcDbLine
10
-119.14546
20
-12.4375
30
0
11
0
21
-12.4375
31
0
39
0
210
0
220
0
230
1
0
LINE
5
DE
100
AcDbEntity
8
1
62
256
6
ByLayer
370
18
48
1
60
0
100
AcDbLine
10
32.2019
20
19.049951
30
0
11
31.284863
21
7.875383
31
0
39
0
210
0
220
0
230
1
0
LINE
5
DF
100
AcDbEntity
8
1
62
256
6
ByLayer
370
18
48
1
60
0
100
AcDbLine
10
20.167423
20
18.992823
30
0
11
31.34199
21
19.90986
31
0
39
0
210
0
220
0
230
1
0
LINE
5
E0
100
AcDbEntity
8
1
62
256
6
ByLayer
370
18
48
1
60
0
100
AcDbLine
10
26.956502
20
9.002947
30
0
11
26.803312
21
8.976748
31
0
39
0
210
0
220
0
230
1
0
LINE
5
E1
100
AcDbEntity
8
1
62
256
6
ByLayer
370
18
48
1
60
0
100
AcDbLine
10
29.454483
20
13.752597
30
0
11
30.331788
21
13.392403
31
0
39
0
210
0
220
0
230
1
0
LINE
5
E2
100
AcDbEntity
8
1
62
256
6
ByLayer
370
18
48
1
60
0
100
AcDbLine
10
21.967457
20
16.099925
30
0
11
21.890343
21
15.965508
31
0
39
0
210
0
220
0
230
1
0
LINE
5
E3
100
AcDbEntity
8
1
62
256
6
ByLayer
370
18
48
1
60
0
100
AcDbLine
10
21.890343
20
15.965508
30
0
11
21.671709
21
15.742162
31
0
39
0
210
0
220
0
230
1
0
LINE
5
E4
100
AcDbEntity
8
1
62
256
6
ByLayer
370
18
48
1
60
0
100
AcDbLine
10
28.044637
20
9.761826
30
0
11
28.378842
21
8.777619
31
0
39
0
210
0
220
0
230
1
0
LINE
5
E5
100
AcDbEntity
8
1
62
256
6
ByLayer
370
18
48
1
60
0
100
AcDbLine
10
22.342279
20
17.364705
30
0
11
20.926313
21
16.377193
31
0
39
0
210
0
220
0
230
1
0
LINE
5
E6
100
AcDbEntity
8
1
62
256
6
ByLayer
370
18
48
1
60
0
100
AcDbLine
10
29.46261
20
12.265126
30
0
11
29.454483
21
13.752597
31
0
39
0
210
0
220
0
230
1
0
LINE
5
E7
100
AcDbEntity
8
1
62
256
6
ByLayer
370
18
48
1
60
0
100
AcDbLine
10
23.055592
20
16.858803
30
0
11
21.967457
21
16.099925
31
0
39
0
210
0
220
0
230
1
0
LINE
5
E8
100
AcDbEntity
8
1
62
256
6
ByLayer
370
18
48
1
60
0
100
AcDbLine
10
26.803312
20
8.976748
30
0
11
28.514594
21
11.574303
31
0
39
0
210
0
220
0
230
1
0
LINE
5
E9
100
AcDbEntity
8
1
62
256
6
ByLayer
370
18
48
1
60
0
100
AcDbLine
10
25.054989
20
17.828655
30
0
11
22.342279
21
17.364705
31
0
39
0
210
0
220
0
230
1
0
LINE
5
EA
100
AcDbEntity
8
1
62
256
6
ByLayer
370
18
48
1
60
0
100
AcDbLine
10
26.525429
20
8.837686
30
0
11
26.348595
21
7.685047
31
0
39
0
210
0
220
0
230
1
0
LINE
5
EB
100
AcDbEntity
8
1
62
256
6
ByLayer
370
18
48
1
60
0
100
AcDbLine
10
20.617087
20
15.838187
30
0
11
20.926313
21
16.377193
31
0
39
0
210
0
220
0
230
1
0
LINE
5
EC
100
AcDbEntity
8
1
62
256
6
ByLayer
370
18
48
1
60
0
100
AcDbLine
10
25.570672
20
17.288954
30
0
11
23.055592
21
16.858803
31
0
39
0
210
0
220
0
230
1
0
LINE
5
ED
100
AcDbEntity
8
1
62
256
6
ByLayer
370
18
48
1
60
0
100
AcDbLine
10
21.967457
20
16.099925
30
0
11
20.926313
21
16.377193
31
0
39
0
210
0
220
0
230
1
0
LINE
5
EE
100
AcDbEntity
8
1
62
256
6
ByLayer
370
18
48
1
60
0
100
AcDbLine
10
28.044637
20
9.761826
30
0
11
26.956502
21
9.002947
31
0
39
0
210
0
220
0
230
1
0
LINE
5
EF
100
AcDbEntity
8
1
62
256
6
ByLayer
370
18
48
1
60
0
100
AcDbLine
10
21.671709
20
15.742162
30
0
11
20.617087
21
15.838187
31
0
39
0
210
0
220
0
230
1
0
LINE
5
F0
100
AcDbEntity
8
1
62
256
6
ByLayer
370
18
48
1
60
0
100
AcDbLine
10
27.302829
20
16.813351
30
0
11
27.363991
21
17.614132
31
0
39
0
210
0
220
0
230
1
0
LINE
5
F1
100
AcDbEntity
8
1
62
256
6
ByLayer
370
18
48
1
60
0
100
AcDbLine
10
26.525429
20
8.837686
30
0
11
26.803312
21
8.976748
31
0
39
0
210
0
220
0
230
1
0
LINE
5
F2
100
AcDbEntity
8
1
62
256
6
ByLayer
370
18
48
1
60
0
100
AcDbLine
10
28.378842
20
8.777619
30
0
11
26.962876
21
7.790107
31
0
39
0
210
0
220
0
230
1
0
LINE
5
F3
100
AcDbEntity
8
1
62
256
6
ByLayer
370
18
48
1
60
0
100
AcDbLine
10
29.310713
20
11.9687
30
0
11
29.744404
21
11.157904
31
0
39
0
210
0
220
0
230
1
0
LINE
5
F4
100
AcDbEntity
8
1
62
256
6
ByLayer
370
18
48
1
60
0
100
AcDbLine
10
26.348595
20
7.685047
30
0
11
26.962876
21
7.790107
31
0
39
0
210
0
220
0
230
1
0
LINE
5
F5
100
AcDbEntity
8
1
62
256
6
ByLayer
370
18
48
1
60
0
100
AcDbLine
10
23.055592
20
16.858803
30
0
11
22.342279
21
17.364705
31
0
39
0
210
0
220
0
230
1
0
LINE
5
F6
100
AcDbEntity
8
1
62
256
6
ByLayer
370
18
48
1
60
0
100
AcDbLine
10
29.744404
20
11.157904
30
0
11
28.378842
21
8.777619
31
0
39
0
210
0
220
0
230
1
0
LINE
5
F7
100
AcDbEntity
8
1
62
256
6
ByLayer
370
18
48
1
60
0
100
AcDbLine
10
29.310713
20
11.9687
30
0
11
28.044637
21
9.761826
31
0
39
0
210
0
220
0
230
1
0
LINE
5
F8
100
AcDbEntity
8
1
62
256
6
ByLayer
370
18
48
1
60
0
100
AcDbLine
10
25.902284
20
17.329733
30
0
11
27.302829
21
16.813351
31
0
39
0
210
0
220
0
230
1
0
LINE
5
F9
100
AcDbEntity
8
1
62
256
6
ByLayer
370
18
48
1
60
0
100
AcDbLine
10
25.570672
20
17.288954
30
0
11
25.054989
21
17.828655
31
0
39
0
210
0
220
0
230
1
0
LINE
5
FA
100
AcDbEntity
8
1
62
256
6
ByLayer
370
18
48
1
60
0
100
AcDbLine
10
26.962876
20
7.790107
30
0
11
26.956502
21
9.002947
31
0
39
0
210
0
220
0
230
1
0
LINE
5
FB
100
AcDbEntity
8
1
62
256
6
ByLayer
370
18
48
1
60
0
100
AcDbLine
10
21.890343
20
15.965508
30
0
11
24.926282
21
16.678721
31
0
39
0
210
0
220
0
230
1
0
MTEXT
5
180
100
AcDbEntity
8
SK6
62
256
6
ByLayer
370
18
48
1
60
0
100
AcDbMText
10
-57.59546
20
-23.31846
30
0
210
0
220
0
230
1
1
\W0.7395;DCLNR 2525M 12-2
40
3.5
41
0
44
1.084337
50
0
71
7
72
5
7
iso_b_vert
0
DIMENSION
5
191
100
AcDbEntity
8
2
62
256
6
ByLayer
370
13
48
1
60
0
100
AcDbDimension
2
DimnDraft3D1
10
30.34922
20
19.828051
30
0
11
13.518128
21
37.196042
31
0
70
34
71
5
72
1
41
1
210
0
220
0
230
1
3
Standard
100
AcDb2LineAngularDimension
13
32.20454
23
19.9125
33
0
14
32.20454
24
18.325
34
0
15
31.345869
25
19.909841
35
0
16
16.827678
26
34.146964
36
0
40
0
0
DIMENSION
5
1A7
100
AcDbEntity
8
SK2
62
256
6
ByLayer
370
13
48
1
60
0
100
AcDbDimension
2
DimnDraft3D2
10
-126.89546
20
12.4375
30
0
11
-126.89546
21
-5.281579
31
0
70
32
71
5
72
1
41
1
210
0
220
0
230
1
3
Standard
100
AcDbAlignedDimension
13
-121.14546
23
-12.4375
33
0
14
-121.14546
24
12.4375
34
0
50
90
100
AcDbRotatedDimension
1001
ACAD
1000
DSTYLE
1002
{
1070
    74
1070
     0
1070
   279
1070
     0
1070
   172
1070
     1
1070
   173
1070
     1
1070
   340
1005
181
1070
    77
1070
     1
1070
    73
1070
     0
1070
   171
1070
     3
1070
   274
1070
     4
1070
   177
1070
     2
1070
   176
1070
     2
1070
   178
1070
     7
1070
    78
1070
     8
1070
    41
1041
3.175
1070
   147
1041
2.25
1070
    42
1041
2.0
1070
    44
1041
2.0
1070
   140
1041
4.5
1070
   343
1005
192
1070
   344
1005
192
1002
}
0
DIMENSION
5
1B5
100
AcDbEntity
8
2
62
256
6
ByLayer
370
13
48
1
60
0
100
AcDbDimension
2
DimnDraft3D3
10
54.45454
20
19.9125
30
0
11
54.45454
21
-1.544079
31
0
70
32
71
5
72
1
41
1
210
0
220
0
230
1
3
Standard
100
AcDbAlignedDimension
13
2
23
-12.4375
33
0
14
34.20454
24
19.9125
34
0
50
90
100
AcDbRotatedDimension
1001
ACAD
1000
DSTYLE
1002
{
1070
    74
1070
     0
1070
   279
1070
     0
1070
   172
1070
     1
1070
   173
1070
     1
1070
   340
1005
181
1070
    77
1070
     1
1070
    73
1070
     0
1070
   171
1070
     3
1070
   274
1070
     4
1070
   177
1070
     2
1070
   176
1070
     2
1070
   178
1070
     7
1070
    78
1070
     8
1070
    41
1041
3.175
1070
   147
1041
2.25
1070
    42
1041
2.0
1070
    44
1041
2.0
1070
   140
1041
4.5
1070
   343
1005
192
1070
   344
1005
192
1002
}
0
DIMENSION
5
1C3
100
AcDbEntity
8
2
62
256
6
ByLayer
370
13
48
1
60
0
100
AcDbDimension
2
DimnDraft3D4
10
32.20454
20
49.6625
30
0
11
10.820691
21
49.6625
31
0
70
32
71
5
72
1
41
1
210
0
220
0
230
1
3
Standard
100
AcDbAlignedDimension
13
0
23
14.4375
33
0
14
32.20454
24
21.9125
34
0
50
0
100
AcDbRotatedDimension
1001
ACAD
1000
DSTYLE
1002
{
1070
   279
1070
     0
1070
   172
1070
     1
1070
   173
1070
     1
1070
   340
1005
181
1070
    77
1070
     1
1070
    73
1070
     0
1070
   171
1070
     3
1070
   274
1070
     4
1070
   177
1070
     2
1070
   176
1070
     2
1070
   178
1070
     7
1070
    78
1070
     8
1070
    41
1041
3.175
1070
   147
1041
2.25
1070
    42
1041
2.0
1070
    44
1041
2.0
1070
   140
1041
4.5
1070
   343
1005
192
1070
   344
1005
192
1002
}
0
DIMENSION
5
1D1
100
AcDbEntity
8
SK2
62
256
6
ByLayer
370
13
48
1
60
0
100
AcDbDimension
2
DimnDraft3D5
10
-119.14546
20
59.6625
30
0
11
-49.871118
21
59.6625
31
0
70
32
71
5
72
1
41
1
210
0
220
0
230
1
3
Standard
100
AcDbAlignedDimension
13
32.20454
23
21.9125
33
0
14
-119.14546
24
14.4375
34
0
50
0
100
AcDbRotatedDimension
1001
ACAD
1000
DSTYLE
1002
{
1070
   279
1070
     0
1070
   172
1070
     1
1070
   173
1070
     1
1070
   340
1005
181
1070
    77
1070
     1
1070
    73
1070
     0
1070
   171
1070
     3
1070
   274
1070
     4
1070
   177
1070
     2
1070
   176
1070
     2
1070
   178
1070
     7
1070
    78
1070
     8
1070
    41
1041
3.175
1070
   147
1041
2.25
1070
    42
1041
2.0
1070
    44
1041
2.0
1070
   140
1041
4.5
1070
   343
1005
192
1070
   344
1005
192
1002
}
0
ENDSEC
0
SECTION
2
OBJECTS
0
DICTIONARY
5
23b
330
0
100
AcDbDictionary
280
0
281
1
3
ACAD_GROUP
350
23c
3
ACAD_MLINESTYLE
350
23d
0
DICTIONARY
5
23c
330
0
100
AcDbDictionary
280
0
281
1
0
DICTIONARY
5
23d
330
0
100
AcDbDictionary
280
0
281
1
3
Standard
350
18
0
MLINESTYLE
5
18
330
23d
100
AcDbMlineStyle
2
Standard
70
0
3

62
256
51
90
52
90
71
2
49
-0.5
62
256
6
ByLayer
49
0.5
62
256
6
ByLayer
0
RASTERVARIABLES
5
22a
330

100
AcDbRasterVariables
90
0
70
1
71
1
72
1
0
ENDSEC
0
EOF
