0
SECTION
2
HEADER
9
$ACADVER
1
AC1015
9
$DWGCODEPAGE
3
ANSI_1252
9
$HANDSEED
5
236
9
$ANGBASE
50
0
9
$ANGDIR
70
0
9
$ATTMODE
70
1
9
$AUNITS
70
0
9
$AUPREC
70
0
9
$CECOLOR
62
256
9
$CELTSCALE
40
1
9
$CELTYPE
6
ByLayer
9
$CELWEIGHT
370
18
9
$CLAYER
8
0
9
$CMLJUST
70
0
9
$CMLSCALE
40
1
9
$CMLSTYLE
2
Standard
9
$DIMSTYLE
2
Standard
9
$TEXTSIZE
40
0.2
9
$TEXTSTYLE
7
Standard
9
$LUNITS
70
2
9
$LUPREC
70
4
9
$EXTNAMES
290
1
9
$INSUNITS
70
4
9
$LTSCALE
40
1
9
$LWDISPLAY
290
1
9
$PDMODE
70
0
9
$PDSIZE
40
0
9
$PLINEGEN
70
0
0
ENDSEC
0
SECTION
2
CLASSES
0
CLASS
1
RASTERVARIABLES
2
AcDbRasterVariables
3
ISM
90
0
280
0
281
0
0
ENDSEC
0
SECTION
2
TABLES
0
TABLE
2
VPORT
5
22c
100
AcDbSymbolTable
0
VPORT
5
1
100
AcDbSymbolTableRecord
100
AcDbViewportTableRecord
2
*Active
70
0
10
0
20
0
11
1
21
1
12
-1
22
1
13
0
23
0
14
0.5
24
0.5
15
10
25
10
16
0
26
0
36
1
17
0
27
0
37
0
0
ENDTAB
0
TABLE
2
LTYPE
5
22d
100
AcDbSymbolTable
0
LTYPE
5
14
100
AcDbSymbolTableRecord
100
AcDbLinetypeTableRecord
70
0
2
ByBlock
3

72
65
73
0
40
0
0
LTYPE
5
15
100
AcDbSymbolTableRecord
100
AcDbLinetypeTableRecord
70
0
2
ByLayer
3

72
65
73
0
40
0
0
LTYPE
5
16
100
AcDbSymbolTableRecord
100
AcDbLinetypeTableRecord
70
0
2
CONTINUOUS
3
Solid line
72
65
73
0
40
0
0
LTYPE
5
6A
100
AcDbSymbolTableRecord
100
AcDbLinetypeTableRecord
70
0
2
CENTER
3
____ _ ____ _ ____ _ ____
72
65
73
4
40
47.5
49
22
74
0
49
-8.5
74
0
49
8.5
74
0
49
-8.5
74
0
0
LTYPE
5
6B
100
AcDbSymbolTableRecord
100
AcDbLinetypeTableRecord
70
0
2
DASHED
3
__ __ __ __ __ __ __ __ __
72
65
73
2
40
25.72
49
12.86
74
0
49
-12.86
74
0
0
ENDTAB
0
TABLE
2
LAYER
5
22e
100
AcDbSymbolTable
0
LAYER
5
10
100
AcDbSymbolTableRecord
100
AcDbLayerTableRecord
2
0
70
0
62
7
6
CONTINUOUS
290
1
370
-3
390
0
0
LAYER
5
6D
100
AcDbSymbolTableRecord
100
AcDbLayerTableRecord
2
2
70
0
62
7
6
CONTINUOUS
290
1
370
-3
390
0
0
LAYER
5
6F
100
AcDbSymbolTableRecord
100
AcDbLayerTableRecord
2
80
70
0
62
-6
6
CONTINUOUS
290
1
370
-3
390
0
0
LAYER
5
71
100
AcDbSymbolTableRecord
100
AcDbLayerTableRecord
2
81
70
0
62
-3
6
CONTINUOUS
290
1
370
-3
390
0
0
LAYER
5
73
100
AcDbSymbolTableRecord
100
AcDbLayerTableRecord
2
1
70
0
62
4
6
CONTINUOUS
290
1
370
-3
390
0
0
LAYER
5
219
100
AcDbSymbolTableRecord
100
AcDbLayerTableRecord
2
SK1
70
0
62
4
6
CONTINUOUS
290
1
370
-3
390
0
0
LAYER
5
21a
100
AcDbSymbolTableRecord
100
AcDbLayerTableRecord
2
SK6
70
0
62
5
6
CONTINUOUS
290
1
370
-3
390
0
0
LAYER
5
21b
100
AcDbSymbolTableRecord
100
AcDbLayerTableRecord
2
SK2
70
0
62
7
6
CONTINUOUS
290
1
370
-3
390
0
0
ENDTAB
0
TABLE
2
STYLE
5
22f
100
AcDbSymbolTable
0
STYLE
5
11
100
AcDbSymbolTableRecord
100
AcDbTextStyleTableRecord
2
Standard
3
txt
70
0
71
0
40
0
41
1
42
0
50
0
0
STYLE
5
16F
100
AcDbSymbolTableRecord
100
AcDbTextStyleTableRecord
2
iso_b_vert
3
simplex.shx
70
0
71
0
40
0
41
1
42
0
50
0
0
STYLE
5
170
100
AcDbSymbolTableRecord
100
AcDbTextStyleTableRecord
2
DWGDirectTextStyle
3
simplex
70
0
71
0
40
0
41
1
42
0
50
0
0
ENDTAB
0
TABLE
2
DIMSTYLE
5
230
100
AcDbSymbolTable
100
AcDbDimStyleTable
0
DIMSTYLE
105
27
100
AcDbSymbolTableRecord
100
AcDbDimStyleTableRecord
2
Standard
70
0
3
<>
41
0.18
42
0.0625
44
0.18
140
0.18
147
0.09
73
0
74
0
77
1
271
2
275
0
278
52
280
0
340
11
0
ENDTAB
0
TABLE
2
VIEW
5
231
100
AcDbSymbolTable
0
ENDTAB
0
TABLE
2
UCS
5
232
100
AcDbSymbolTable
0
ENDTAB
0
TABLE
2
APPID
5
233
100
AcDbSymbolTable
0
APPID
5
12
100
AcDbSymbolTableRecord
100
AcDbRegAppTableRecord
2
ACAD
70
0
0
ENDTAB
0
TABLE
2
BLOCK_RECORD
5
234
100
AcDbSymbolTable
0
BLOCK_RECORD
5
1F
100
AcDbSymbolTableRecord
100
AcDbBlockTableRecord
2
*Model_Space
340
0
70
0
0
BLOCK_RECORD
5
1B
100
AcDbSymbolTableRecord
100
AcDbBlockTableRecord
2
*Paper_Space
340
0
70
0
0
BLOCK_RECORD
5
23
100
AcDbSymbolTableRecord
100
AcDbBlockTableRecord
2
*Paper_Space0
340
0
70
0
0
BLOCK_RECORD
5
172
100
AcDbSymbolTableRecord
100
AcDbBlockTableRecord
2
DimnDraft3D11
340
0
70
0
0
BLOCK_RECORD
5
181
100
AcDbSymbolTableRecord
100
AcDbBlockTableRecord
2
DimnDraft3D2
340
0
70
0
0
BLOCK_RECORD
5
18F
100
AcDbSymbolTableRecord
100
AcDbBlockTableRecord
2
_CLOSED
340
0
70
0
0
BLOCK_RECORD
5
196
100
AcDbSymbolTableRecord
100
AcDbBlockTableRecord
2
DimnDraft3D3
340
0
70
0
0
BLOCK_RECORD
5
1A4
100
AcDbSymbolTableRecord
100
AcDbBlockTableRecord
2
DimnDraft3D4
340
0
70
0
0
BLOCK_RECORD
5
1B2
100
AcDbSymbolTableRecord
100
AcDbBlockTableRecord
2
DimnDraft3D5
340
0
70
0
0
ENDTAB
0
ENDSEC
0
SECTION
2
BLOCKS
0
BLOCK
5
20
100
AcDbEntity
8
0
100
AcDbBlockBegin
2
*Model_Space
70
0
10
0
20
0
30
0
3
*Model_Space
0
ENDBLK
5
21
100
AcDbEntity
8
0
100
AcDbBlockEnd
0
BLOCK
5
1C
100
AcDbEntity
8
0
100
AcDbBlockBegin
2
*Paper_Space
70
0
10
0
20
0
30
0
3
*Paper_Space
0
ENDBLK
5
1D
100
AcDbEntity
8
0
100
AcDbBlockEnd
0
BLOCK
5
24
100
AcDbEntity
8
0
100
AcDbBlockBegin
2
*Paper_Space0
70
0
10
0
20
0
30
0
3
*Paper_Space0
0
ENDBLK
5
25
100
AcDbEntity
8
0
100
AcDbBlockEnd
0
BLOCK
5
173
100
AcDbEntity
8
0
100
AcDbBlockBegin
2
DimnDraft3D11
70
0
10
0
20
0
30
0
3
DimnDraft3D11
0
LINE
5
175
100
AcDbEntity
8
SK2
62
256
6
ByLayer
370
25
48
1
60
0
100
AcDbLine
10
53.175346
20
-37.425
30
0
11
53.175346
21
-75.675
31
0
39
0
210
0
220
0
230
1
0
LINE
5
177
100
AcDbEntity
8
SK2
62
256
6
ByLayer
370
25
48
1
60
0
100
AcDbLine
10
-248.174654
20
-26.925
30
0
11
-248.174654
21
-75.675
31
0
39
0
210
0
220
0
230
1
0
LINE
5
178
100
AcDbEntity
8
SK2
62
256
6
ByLayer
370
25
48
1
60
0
100
AcDbLine
10
53.175346
20
-73.675
30
0
11
-248.174654
21
-73.675
31
0
39
0
210
0
220
0
230
1
0
LINE
5
179
100
AcDbEntity
8
SK2
62
256
6
ByLayer
370
25
48
1
60
0
100
AcDbLine
10
53.175346
20
-73.675
30
0
11
50.000347
21
-74.092997
31
0
39
0
210
0
220
0
230
1
0
LINE
5
17A
100
AcDbEntity
8
SK2
62
256
6
ByLayer
370
25
48
1
60
0
100
AcDbLine
10
53.175346
20
-73.675
30
0
11
50.000344
21
-73.257003
31
0
39
0
210
0
220
0
230
1
0
LINE
5
17B
100
AcDbEntity
8
SK2
62
256
6
ByLayer
370
25
48
1
60
0
100
AcDbLine
10
50.000347
20
-74.092997
30
0
11
50.000344
21
-73.257003
31
0
39
0
210
0
220
0
230
1
0
LINE
5
17C
100
AcDbEntity
8
SK2
62
256
6
ByLayer
370
25
48
1
60
0
100
AcDbLine
10
-248.174654
20
-73.675
30
0
11
-244.999656
21
-73.257003
31
0
39
0
210
0
220
0
230
1
0
LINE
5
17D
100
AcDbEntity
8
SK2
62
256
6
ByLayer
370
25
48
1
60
0
100
AcDbLine
10
-248.174654
20
-73.675
30
0
11
-244.999653
21
-74.092997
31
0
39
0
210
0
220
0
230
1
0
LINE
5
17E
100
AcDbEntity
8
SK2
62
256
6
ByLayer
370
25
48
1
60
0
100
AcDbLine
10
-244.999656
20
-73.257003
30
0
11
-244.999653
21
-74.092997
31
0
39
0
210
0
220
0
230
1
0
MTEXT
5
17F
100
AcDbEntity
8
SK2
62
256
6
ByLayer
370
18
48
1
60
0
100
AcDbMText
10
-103.337812
20
-72.55
30
0
210
0
220
0
230
1
1
\W0.7468;300.0
40
4.5
41
0
44
1.084337
50
0
71
7
72
5
7
iso_b_vert
0
ENDBLK
5
174
100
AcDbEntity
8
0
100
AcDbBlockEnd
0
BLOCK
5
18C
100
AcDbEntity
8
0
100
AcDbBlockBegin
2
DimnDraft3D2
70
0
10
0
20
0
30
0
3
DimnDraft3D2
0
MTEXT
5
182
100
AcDbEntity
8
2
62
256
6
ByLayer
370
18
48
1
60
0
100
AcDbMText
10
36.339536
20
-47.170126
30
0
210
0
220
0
230
1
1
\W0.7399;95%%d
40
4.5
41
0
44
1.084337
50
312.654276840001
71
7
72
5
7
iso_b_vert
0
LINE
5
183
100
AcDbEntity
8
2
62
256
6
ByLayer
370
13
48
1
60
0
100
AcDbLine
10
53.175346
20
-37.425
30
0
11
53.175346
21
-58.955758
31
0
39
0
210
0
220
0
230
1
0
LINE
5
184
100
AcDbEntity
8
2
62
256
6
ByLayer
370
13
48
1
60
0
100
AcDbLine
10
47.609385
20
-35.171653
30
0
11
29.926165
21
-33.720485
31
0
39
0
210
0
220
0
230
1
0
ARC
5
185
100
AcDbEntity
8
2
62
256
6
ByLayer
370
13
48
1
60
0
100
AcDbCircle
39
0
10
53.175346
20
-35.628421
30
0
40
21.3273368639522
210
0
220
0
230
1
100
AcDbArc
50
175.308554
51
270
0
LINE
5
186
100
AcDbEntity
8
2
62
256
6
ByLayer
370
13
48
1
60
0
100
AcDbLine
10
53.175346
20
-56.955758
30
0
11
49.987013
21
-57.255546
31
0
39
0
210
0
220
0
230
1
0
LINE
5
187
100
AcDbEntity
8
2
62
256
6
ByLayer
370
13
48
1
60
0
100
AcDbLine
10
53.175346
20
-56.955758
30
0
11
50.018059
21
-56.420129
31
0
39
0
210
0
220
0
230
1
0
LINE
5
188
100
AcDbEntity
8
2
62
256
6
ByLayer
370
13
48
1
60
0
100
AcDbLine
10
49.987013
20
-57.255546
30
0
11
50.018059
21
-56.420129
31
0
39
0
210
0
220
0
230
1
0
LINE
5
189
100
AcDbEntity
8
2
62
256
6
ByLayer
370
13
48
1
60
0
100
AcDbLine
10
31.919464
20
-33.884065
30
0
11
32.195065
21
-37.074579
31
0
39
0
210
0
220
0
230
1
0
LINE
5
18A
100
AcDbEntity
8
2
62
256
6
ByLayer
370
13
48
1
60
0
100
AcDbLine
10
31.919464
20
-33.884065
30
0
11
31.359908
21
-37.037198
31
0
39
0
210
0
220
0
230
1
0
LINE
5
18B
100
AcDbEntity
8
2
62
256
6
ByLayer
370
13
48
1
60
0
100
AcDbLine
10
32.195065
20
-37.074579
30
0
11
31.359908
21
-37.037198
31
0
39
0
210
0
220
0
230
1
0
ENDBLK
5
18D
100
AcDbEntity
8
0
100
AcDbBlockEnd
0
BLOCK
5
190
100
AcDbEntity
8
0
100
AcDbBlockBegin
2
_CLOSED
70
0
10
0
20
0
30
0
3
_CLOSED
0
LINE
5
192
100
AcDbEntity
8
0
62
256
6
ByLayer
370
-2
48
1
60
0
100
AcDbLine
10
-1
20
0.166667
30
0
11
0
21
0
31
0
39
0
210
0
220
0
230
1
0
LINE
5
193
100
AcDbEntity
8
0
62
256
6
ByLayer
370
-2
48
1
60
0
100
AcDbLine
10
0
20
0
30
0
11
-1
21
-0.166667
31
0
39
0
210
0
220
0
230
1
0
LINE
5
194
100
AcDbEntity
8
0
62
256
6
ByLayer
370
-2
48
1
60
0
100
AcDbLine
10
-1
20
0.166667
30
0
11
-1
21
-0.166667
31
0
39
0
210
0
220
0
230
1
0
LINE
5
195
100
AcDbEntity
8
0
62
256
6
ByLayer
370
-2
48
1
60
0
100
AcDbLine
10
0
20
0
30
0
11
-1
21
0
31
0
39
0
210
0
220
0
230
1
0
ENDBLK
5
191
100
AcDbEntity
8
0
100
AcDbBlockEnd
0
BLOCK
5
1A1
100
AcDbEntity
8
0
100
AcDbBlockBegin
2
DimnDraft3D3
70
0
10
0
20
0
30
0
3
DimnDraft3D3
0
MTEXT
5
197
100
AcDbEntity
8
2
62
256
6
ByLayer
370
18
48
1
60
0
100
AcDbMText
10
74.300346
20
-9.406579
30
0
210
0
220
0
230
1
1
\W0.7346;60.0
40
4.5
41
0
44
1.084337
50
90
71
7
72
5
7
iso_b_vert
0
LINE
5
198
100
AcDbEntity
8
2
62
256
6
ByLayer
370
13
48
1
60
0
100
AcDbLine
10
2
20
24.925
30
0
11
77.425346
21
24.925
31
0
39
0
210
0
220
0
230
1
0
LINE
5
199
100
AcDbEntity
8
2
62
256
6
ByLayer
370
13
48
1
60
0
100
AcDbLine
10
55.175346
20
-35.425
30
0
11
77.425346
21
-35.425
31
0
39
0
210
0
220
0
230
1
0
LINE
5
19A
100
AcDbEntity
8
2
62
256
6
ByLayer
370
13
48
1
60
0
100
AcDbLine
10
75.425346
20
24.925
30
0
11
75.425346
21
-35.425
31
0
39
0
210
0
220
0
230
1
0
LINE
5
19B
100
AcDbEntity
8
2
62
256
6
ByLayer
370
13
48
1
60
0
100
AcDbLine
10
75.425346
20
24.925
30
0
11
75.843342
21
21.750002
31
0
39
0
210
0
220
0
230
1
0
LINE
5
19C
100
AcDbEntity
8
2
62
256
6
ByLayer
370
13
48
1
60
0
100
AcDbLine
10
75.425346
20
24.925
30
0
11
75.007349
21
21.749998
31
0
39
0
210
0
220
0
230
1
0
LINE
5
19D
100
AcDbEntity
8
2
62
256
6
ByLayer
370
13
48
1
60
0
100
AcDbLine
10
75.843342
20
21.750002
30
0
11
75.007349
21
21.749998
31
0
39
0
210
0
220
0
230
1
0
LINE
5
19E
100
AcDbEntity
8
2
62
256
6
ByLayer
370
13
48
1
60
0
100
AcDbLine
10
75.425346
20
-35.425
30
0
11
75.007349
21
-32.250002
31
0
39
0
210
0
220
0
230
1
0
LINE
5
19F
100
AcDbEntity
8
2
62
256
6
ByLayer
370
13
48
1
60
0
100
AcDbLine
10
75.425346
20
-35.425
30
0
11
75.843342
21
-32.249998
31
0
39
0
210
0
220
0
230
1
0
LINE
5
1A0
100
AcDbEntity
8
2
62
256
6
ByLayer
370
13
48
1
60
0
100
AcDbLine
10
75.007349
20
-32.250002
30
0
11
75.843342
21
-32.249998
31
0
39
0
210
0
220
0
230
1
0
ENDBLK
5
1A2
100
AcDbEntity
8
0
100
AcDbBlockEnd
0
BLOCK
5
1AF
100
AcDbEntity
8
0
100
AcDbBlockBegin
2
DimnDraft3D4
70
0
10
0
20
0
30
0
3
DimnDraft3D4
0
MTEXT
5
1A5
100
AcDbEntity
8
SK2
62
256
6
ByLayer
370
18
48
1
60
0
100
AcDbMText
10
-257.049654
20
-4.156579
30
0
210
0
220
0
230
1
1
\W0.7346;50.0
40
4.5
41
0
44
1.084337
50
90
71
7
72
5
7
iso_b_vert
0
LINE
5
1A6
100
AcDbEntity
8
SK2
62
256
6
ByLayer
370
13
48
1
60
0
100
AcDbLine
10
-250.174654
20
24.925
30
0
11
-257.924654
21
24.925
31
0
39
0
210
0
220
0
230
1
0
LINE
5
1A7
100
AcDbEntity
8
SK2
62
256
6
ByLayer
370
13
48
1
60
0
100
AcDbLine
10
-250.174654
20
-24.925
30
0
11
-257.924654
21
-24.925
31
0
39
0
210
0
220
0
230
1
0
LINE
5
1A8
100
AcDbEntity
8
SK2
62
256
6
ByLayer
370
13
48
1
60
0
100
AcDbLine
10
-255.924654
20
24.925
30
0
11
-255.924654
21
-24.925
31
0
39
0
210
0
220
0
230
1
0
LINE
5
1A9
100
AcDbEntity
8
SK2
62
256
6
ByLayer
370
13
48
1
60
0
100
AcDbLine
10
-255.924654
20
24.925
30
0
11
-255.506658
21
21.750002
31
0
39
0
210
0
220
0
230
1
0
LINE
5
1AA
100
AcDbEntity
8
SK2
62
256
6
ByLayer
370
13
48
1
60
0
100
AcDbLine
10
-255.924654
20
24.925
30
0
11
-256.342651
21
21.749998
31
0
39
0
210
0
220
0
230
1
0
LINE
5
1AB
100
AcDbEntity
8
SK2
62
256
6
ByLayer
370
13
48
1
60
0
100
AcDbLine
10
-255.506658
20
21.750002
30
0
11
-256.342651
21
21.749998
31
0
39
0
210
0
220
0
230
1
0
LINE
5
1AC
100
AcDbEntity
8
SK2
62
256
6
ByLayer
370
13
48
1
60
0
100
AcDbLine
10
-255.924654
20
-24.925
30
0
11
-256.342651
21
-21.750002
31
0
39
0
210
0
220
0
230
1
0
LINE
5
1AD
100
AcDbEntity
8
SK2
62
256
6
ByLayer
370
13
48
1
60
0
100
AcDbLine
10
-255.924654
20
-24.925
30
0
11
-255.506658
21
-21.749998
31
0
39
0
210
0
220
0
230
1
0
LINE
5
1AE
100
AcDbEntity
8
SK2
62
256
6
ByLayer
370
13
48
1
60
0
100
AcDbLine
10
-256.342651
20
-21.750002
30
0
11
-255.506658
21
-21.749998
31
0
39
0
210
0
220
0
230
1
0
ENDBLK
5
1B0
100
AcDbEntity
8
0
100
AcDbBlockEnd
0
BLOCK
5
1BD
100
AcDbEntity
8
0
100
AcDbBlockBegin
2
DimnDraft3D5
70
0
10
0
20
0
30
0
3
DimnDraft3D5
0
MTEXT
5
1B3
100
AcDbEntity
8
2
62
256
6
ByLayer
370
18
48
1
60
0
100
AcDbMText
10
22.431094
20
-62.55
30
0
210
0
220
0
230
1
1
\W0.7346;53.2
40
4.5
41
0
44
1.084337
50
0
71
7
72
5
7
iso_b_vert
0
LINE
5
1B4
100
AcDbEntity
8
2
62
256
6
ByLayer
370
13
48
1
60
0
100
AcDbLine
10
0
20
-26.925
30
0
11
0
21
-65.675
31
0
39
0
210
0
220
0
230
1
0
LINE
5
1B5
100
AcDbEntity
8
2
62
256
6
ByLayer
370
13
48
1
60
0
100
AcDbLine
10
53.175346
20
-37.425
30
0
11
53.175346
21
-65.675
31
0
39
0
210
0
220
0
230
1
0
LINE
5
1B6
100
AcDbEntity
8
2
62
256
6
ByLayer
370
13
48
1
60
0
100
AcDbLine
10
0
20
-63.675
30
0
11
53.175346
21
-63.675
31
0
39
0
210
0
220
0
230
1
0
LINE
5
1B7
100
AcDbEntity
8
2
62
256
6
ByLayer
370
13
48
1
60
0
100
AcDbLine
10
0
20
-63.675
30
0
11
3.174998
21
-63.257003
31
0
39
0
210
0
220
0
230
1
0
LINE
5
1B8
100
AcDbEntity
8
2
62
256
6
ByLayer
370
13
48
1
60
0
100
AcDbLine
10
0
20
-63.675
30
0
11
3.175002
21
-64.092997
31
0
39
0
210
0
220
0
230
1
0
LINE
5
1B9
100
AcDbEntity
8
2
62
256
6
ByLayer
370
13
48
1
60
0
100
AcDbLine
10
3.174998
20
-63.257003
30
0
11
3.175002
21
-64.092997
31
0
39
0
210
0
220
0
230
1
0
LINE
5
1BA
100
AcDbEntity
8
2
62
256
6
ByLayer
370
13
48
1
60
0
100
AcDbLine
10
53.175346
20
-63.675
30
0
11
50.000347
21
-64.092997
31
0
39
0
210
0
220
0
230
1
0
LINE
5
1BB
100
AcDbEntity
8
2
62
256
6
ByLayer
370
13
48
1
60
0
100
AcDbLine
10
53.175346
20
-63.675
30
0
11
50.000344
21
-63.257003
31
0
39
0
210
0
220
0
230
1
0
LINE
5
1BC
100
AcDbEntity
8
2
62
256
6
ByLayer
370
13
48
1
60
0
100
AcDbLine
10
50.000347
20
-64.092997
30
0
11
50.000344
21
-63.257003
31
0
39
0
210
0
220
0
230
1
0
ENDBLK
5
1BE
100
AcDbEntity
8
0
100
AcDbBlockEnd
0
ENDSEC
0
SECTION
2
ENTITIES
0
ELLIPSE
5
EF
100
AcDbEntity
8
1
62
256
6
ByLayer
370
18
48
1
60
0
100
AcDbEllipse
10
20.352565
20
-13.41268
30
0
11
1.20208152801986
21
1.2020815280144
31
0
210
0
220
0
230
1
40
0.989133
41
-3.10448831486683
42
-0.0371155035209727
0
ELLIPSE
5
F0
100
AcDbEntity
8
1
62
256
6
ByLayer
370
18
48
1
60
0
100
AcDbEllipse
10
39.57908
20
-21.828735
30
0
11
3.22440692221797
21
3.22440692220334
31
0
210
0
220
0
230
1
40
0.989133
41
-2.6135163310013
42
0
0
ELLIPSE
5
F1
100
AcDbEntity
8
1
62
256
6
ByLayer
370
18
48
1
60
0
100
AcDbEllipse
10
39.57908
20
-21.828735
30
0
11
3.22440692221797
21
3.22440692220334
31
0
210
0
220
0
230
1
40
0.989133
41
0
42
0.170033031027322
0
ELLIPSE
5
F2
100
AcDbEntity
8
1
62
256
6
ByLayer
370
18
48
1
60
0
100
AcDbEllipse
10
38.589365
20
-20.83902
30
0
11
-3.22440692221803
21
-3.22440692220328
31
0
210
0
220
0
230
1
40
0.989133
41
2.67250782481687
42
2.98578353132737
0
ELLIPSE
5
F3
100
AcDbEntity
8
1
62
256
6
ByLayer
370
18
48
1
60
0
100
AcDbEllipse
10
10.475048
20
-17.057844
30
0
11
2.38277480900199
21
2.56366616578398
31
0
210
0
220
0
230
1
40
0.986571
41
0.121240243581428
42
0.312953634668237
0
ELLIPSE
5
F4
100
AcDbEntity
8
1
62
256
6
ByLayer
370
18
48
1
60
0
100
AcDbEllipse
10
21.220318
20
-13.763024
30
0
11
-4.18687573581777
21
-4.50472769130615
31
0
210
0
220
0
230
1
40
0.986571
41
0.312953634668229
42
-3.09169832992976
0
ELLIPSE
5
F5
100
AcDbEntity
8
1
62
256
6
ByLayer
370
18
48
1
60
0
100
AcDbEllipse
10
27.969041
20
-7.13149
30
0
11
2.47363954431139
21
2.47363954430016
31
0
210
0
220
0
230
1
40
0.989133
41
-0.698131700797728
42
-0.389740279826163
0
ELLIPSE
5
F6
100
AcDbEntity
8
1
62
256
6
ByLayer
370
18
48
1
60
0
100
AcDbEllipse
10
27.953446
20
-7.115896
30
0
11
2.36757352713316
21
2.36757352712242
31
0
210
0
220
0
230
1
40
0.989133
41
-0.69813170079772
42
-0.334197928194986
0
ELLIPSE
5
F7
100
AcDbEntity
8
1
62
256
6
ByLayer
370
18
48
1
60
0
100
AcDbEllipse
10
20.301962
20
-11.807621
30
0
11
-0.403050865277254
21
-0.403050865275411
31
0
210
0
220
0
230
1
40
0.989133
41
2.72983774450058
42
2.83018338587379
0
ELLIPSE
5
F8
100
AcDbEntity
8
1
62
256
6
ByLayer
370
18
48
1
60
0
100
AcDbEllipse
10
21.452593
20
-11.351195
30
0
11
0.473761543396062
21
0.473761543393912
31
0
210
0
220
0
230
1
40
0.989133
41
2.7298377445006
42
-3.14157667850634
0
ELLIPSE
5
F9
100
AcDbEntity
8
1
62
256
6
ByLayer
370
18
48
1
60
0
100
AcDbEllipse
10
19.042464
20
-14.484145
30
0
11
-0.403050865277254
21
-0.403050865275411
31
0
210
0
220
0
230
1
40
0.989133
41
0.311379297159935
42
1.10988660988702
0
ELLIPSE
5
FA
100
AcDbEntity
8
1
62
256
6
ByLayer
370
18
48
1
60
0
100
AcDbEllipse
10
21.839401
20
-12.51795
30
0
11
-0.403050865277254
21
-0.403050865275411
31
0
210
0
220
0
230
1
40
0.989133
41
1.68264019330388
42
2.83018929967577
0
ELLIPSE
5
FB
100
AcDbEntity
8
1
62
256
6
ByLayer
370
18
48
1
60
0
100
AcDbEllipse
10
19.429272
20
-15.6509
30
0
11
0.473761543396062
21
0.473761543393912
31
0
210
0
220
0
230
1
40
0.989133
41
1.51748742983273E-05
42
1.10988660988701
0
ELLIPSE
5
FC
100
AcDbEntity
8
1
62
256
6
ByLayer
370
18
48
1
60
0
100
AcDbEllipse
10
22.799128
20
-13.281954
30
0
11
0.473761543396062
21
0.473761543393912
31
0
210
0
220
0
230
1
40
0.989133
41
1.68264019330402
42
3.1415852699714
0
ELLIPSE
5
FD
100
AcDbEntity
8
1
62
256
6
ByLayer
370
18
48
1
60
0
100
AcDbEllipse
10
20.579903
20
-15.194475
30
0
11
-0.403050865277254
21
-0.403050865275411
31
0
210
0
220
0
230
1
40
0.989133
41
0.311453863964584
42
2.15708416108345
0
ELLIPSE
5
FE
100
AcDbEntity
8
1
62
256
6
ByLayer
370
18
48
1
60
0
100
AcDbEllipse
10
21.978371
20
-14.211377
30
0
11
-0.403050865277254
21
-0.403050865275411
31
0
210
0
220
0
230
1
40
0.989133
41
0.635442642107232
42
3.04910750877778
0
ELLIPSE
5
FF
100
AcDbEntity
8
1
62
256
6
ByLayer
370
18
48
1
60
0
100
AcDbEllipse
10
20.269396
20
-13.329511
30
0
11
4.24264068712891
21
4.24264068710966
31
0
210
0
220
0
230
1
40
0.989133
41
0.790861385157297
42
3.14158694001959
0
ELLIPSE
5
100
100
AcDbEntity
8
1
62
256
6
ByLayer
370
18
48
1
60
0
100
AcDbEllipse
10
20.269396
20
-13.329511
30
0
11
4.24264068712891
21
4.24264068710966
31
0
210
0
220
0
230
1
40
0.989133
41
-0.769008644196596
42
-2.99312097800169E-16
0
ELLIPSE
5
101
100
AcDbEntity
8
1
62
256
6
ByLayer
370
18
48
1
60
0
100
AcDbEllipse
10
20.269396
20
-13.329511
30
0
11
4.24264068712891
21
4.24264068710966
31
0
210
0
220
0
230
1
40
0.989133
41
9.25359672330901E-05
42
0.790861385157297
0
ELLIPSE
5
102
100
AcDbEntity
8
1
62
256
6
ByLayer
370
18
48
1
60
0
100
AcDbEllipse
10
20.440932
20
-13.501048
30
0
11
1.20208152801986
21
1.2020815280144
31
0
210
0
220
0
230
1
40
0.989133
41
0.790861059884646
42
1.04791146409309
0
ELLIPSE
5
103
100
AcDbEntity
8
1
62
256
6
ByLayer
370
18
48
1
60
0
100
AcDbEllipse
10
20.440932
20
-13.501048
30
0
11
1.20208152801986
21
1.2020815280144
31
0
210
0
220
0
230
1
40
0.989133
41
1.69468747390175
42
2.31574111295995
0
ELLIPSE
5
104
100
AcDbEntity
8
1
62
256
6
ByLayer
370
18
48
1
60
0
100
AcDbEllipse
10
20.440932
20
-13.501048
30
0
11
1.20208152801986
21
1.2020815280144
31
0
210
0
220
0
230
1
40
0.989133
41
2.81564649157984
42
0
0
ELLIPSE
5
105
100
AcDbEntity
8
1
62
256
6
ByLayer
370
18
48
1
60
0
100
AcDbEllipse
10
20.440932
20
-13.501048
30
0
11
1.20208152801986
21
1.2020815280144
31
0
210
0
220
0
230
1
40
0.989133
41
0
42
0.0372023280932069
0
ELLIPSE
5
106
100
AcDbEntity
8
1
62
256
6
ByLayer
370
18
48
1
60
0
100
AcDbEllipse
10
20.440932
20
-13.501048
30
0
11
1.20208152801986
21
1.2020815280144
31
0
210
0
220
0
230
1
40
0.989133
41
0.400449115803426
42
0.790861059884646
0
ELLIPSE
5
107
100
AcDbEntity
8
1
62
256
6
ByLayer
370
18
48
1
60
0
100
AcDbEllipse
10
50.807271
20
-33.056925
30
0
11
-1.68362124600902
21
-1.68362124600132
31
0
210
0
220
0
230
1
40
0.989133
41
0.698131700797735
42
2.44346095279206
0
ELLIPSE
5
108
100
AcDbEntity
8
1
62
256
6
ByLayer
370
18
48
1
60
0
100
AcDbEllipse
10
49.104161
20
-12.303654
30
0
11
-1.68362124600902
21
-1.68362124600132
31
0
210
0
220
0
230
1
40
0.989133
41
2.44346095279206
42
-2.44346095279205
0
ELLIPSE
5
109
100
AcDbEntity
8
1
62
256
6
ByLayer
370
18
48
1
60
0
100
AcDbEllipse
10
30.054
20
-31.353815
30
0
11
-1.68362124600902
21
-1.68362124600132
31
0
210
0
220
0
230
1
40
0.989133
41
-0.698131700797734
42
0.698131700797719
0
ELLIPSE
5
10A
100
AcDbEntity
8
1
62
256
6
ByLayer
370
18
48
1
60
0
100
AcDbEllipse
10
17.688325
20
-7.565806
30
0
11
6.33377034737561
21
-2.98049545993707
31
0
210
0
220
0
230
1
40
0.050285
41
-2.46337927790609
42
-1.8001495382388
0
ELLIPSE
5
10B
100
AcDbEntity
8
1
62
256
6
ByLayer
370
18
48
1
60
0
100
AcDbEllipse
10
40.013066
20
-22.291742
30
0
11
-3.50663052454445
21
-2.27857339798172
31
0
210
0
220
0
230
1
40
0.804635
41
1.69320262799525
42
2.08903389249925
0
ELLIPSE
5
10C
100
AcDbEntity
8
1
62
256
6
ByLayer
370
18
48
1
60
0
100
AcDbEllipse
10
11.465371
20
2.319515
30
0
11
7.23859468271498
21
-3.40628052564237
31
0
210
0
220
0
230
1
40
0.050285
41
0.802002479603062
42
0.917557057128027
0
ELLIPSE
5
10D
100
AcDbEntity
8
1
62
256
6
ByLayer
370
18
48
1
60
0
100
AcDbEllipse
10
8.237719
20
1.911675
30
0
11
-1.82433026706457
21
4.17473824078202
31
0
210
0
220
0
230
1
40
0.669051
41
-2.6118292409907
42
-2.50048925893062
0
ELLIPSE
5
10E
100
AcDbEntity
8
1
62
256
6
ByLayer
370
18
48
1
60
0
100
AcDbEllipse
10
12.697372
20
-18.171938
30
0
11
-6.5001091495831
21
2.62449160717975
31
0
210
0
220
0
230
1
40
0.311638
41
-0.732738676989753
42
-0.695708204464279
0
ELLIPSE
5
10F
100
AcDbEntity
8
1
62
256
6
ByLayer
370
18
48
1
60
0
100
AcDbEllipse
10
14.355741
20
-2.511282
30
0
11
-3.21298161561616
21
-1.40404960348272
31
0
210
0
220
0
230
1
40
0.992946
41
-2.20811182868169
42
-0.959643745374893
0
ELLIPSE
5
110
100
AcDbEntity
8
1
62
256
6
ByLayer
370
18
48
1
60
0
100
AcDbEllipse
10
19.277294
20
-4.189109
30
0
11
-6.14981660072259
21
3.36619322595205
31
0
210
0
220
0
230
1
40
0.411821
41
0.703355947317426
42
0.740386441921886
0
ELLIPSE
5
111
100
AcDbEntity
8
1
62
256
6
ByLayer
370
18
48
1
60
0
100
AcDbEllipse
10
14.499435
20
-3.704198
30
0
11
0.832376479907339
21
0.554210605904531
31
0
210
0
220
0
230
1
40
0.692705
41
0.648087772840936
42
2.0027663432957
0
ELLIPSE
5
112
100
AcDbEntity
8
1
62
256
6
ByLayer
370
18
48
1
60
0
100
AcDbEllipse
10
40.013066
20
-22.291742
30
0
11
-0.944162137493672
21
-4.2610203525241
31
0
210
0
220
0
230
1
40
0.817426
41
1.43964874953955
42
1.83548001412805
0
ELLIPSE
5
113
100
AcDbEntity
8
1
62
256
6
ByLayer
370
18
48
1
60
0
100
AcDbEllipse
10
14.286353
20
-14.795244
30
0
11
6.33377034737561
21
-2.98049545993707
31
0
210
0
220
0
230
1
40
0.050285
41
-2.46337927790607
42
-1.80014953823879
0
ELLIPSE
5
114
100
AcDbEntity
8
1
62
256
6
ByLayer
370
18
48
1
60
0
100
AcDbEllipse
10
2.496892
20
-10.288001
30
0
11
-1.82433028741371
21
4.17473825778613
31
0
210
0
220
0
230
1
40
0.669051
41
-2.72316922586736
42
-2.611829244122
0
ELLIPSE
5
115
100
AcDbEntity
8
1
62
256
6
ByLayer
370
18
48
1
60
0
100
AcDbEllipse
10
11.529585
20
-16.818085
30
0
11
-4.52811941937979
21
-0.453689500640613
31
0
210
0
220
0
230
1
40
0.519447
41
-0.395380238746088
42
0.722307325758699
0
ELLIPSE
5
116
100
AcDbEntity
8
1
62
256
6
ByLayer
370
18
48
1
60
0
100
AcDbEllipse
10
19.709158
20
-3.399205
30
0
11
-5.23112843802448
21
2.96602351103914
31
0
210
0
220
0
230
1
40
0.471442
41
0.320748793563607
42
0.751112052776365
0
ELLIPSE
5
117
100
AcDbEntity
8
1
62
256
6
ByLayer
370
18
48
1
60
0
100
AcDbEllipse
10
17.270411
20
-4.61841
30
0
11
-1.88015351363422
21
4.54375911552791
31
0
210
0
220
0
230
1
40
0.564837
41
-0.548918319586874
42
0.568769244918703
0
ELLIPSE
5
118
100
AcDbEntity
8
1
62
256
6
ByLayer
370
18
48
1
60
0
100
AcDbEllipse
10
9.109764
20
-15.157642
30
0
11
-0.0145726562920511
21
0.999893813206479
31
0
210
0
220
0
230
1
40
0.726667
41
1.26429082378767
42
2.61896939424268
0
ELLIPSE
5
119
100
AcDbEntity
8
1
62
256
6
ByLayer
370
18
48
1
60
0
100
AcDbEllipse
10
8.614914
20
-14.710957
30
0
11
-3.2129816156266
21
-1.40404960346184
31
0
210
0
220
0
230
1
40
0.992946
41
-0.736963780775867
42
0.51150430253102
0
ELLIPSE
5
11A
100
AcDbEntity
8
1
62
256
6
ByLayer
370
18
48
1
60
0
100
AcDbEllipse
10
12.347321
20
-19.043646
30
0
11
-5.6024579751749
21
2.18140713785886
31
0
210
0
220
0
230
1
40
0.371486
41
-0.740733773753597
42
-0.310370514538924
0
ELLIPSE
5
11B
100
AcDbEntity
8
1
62
256
6
ByLayer
370
18
48
1
60
0
100
AcDbEllipse
10
20.824213
20
-15.438785
30
0
11
-0.403050865277254
21
-0.403050865275411
31
0
210
0
220
0
230
1
40
0.989133
41
-0.41175490908917
42
2.15708416108339
0
ELLIPSE
5
11C
100
AcDbEntity
8
1
62
256
6
ByLayer
370
18
48
1
60
0
100
AcDbEllipse
10
19.286774
20
-14.728455
30
0
11
-0.403050865277254
21
-0.403050865275411
31
0
210
0
220
0
230
1
40
0.989133
41
-1.45895246028582
42
1.10988660988702
0
ELLIPSE
5
11D
100
AcDbEntity
8
1
62
256
6
ByLayer
370
18
48
1
60
0
100
AcDbEllipse
10
21.696903
20
-11.595505
30
0
11
0.473761543396062
21
0.473761543393912
31
0
210
0
220
0
230
1
40
0.989133
41
2.72983774450053
42
-2.83887655804278
0
ELLIPSE
5
11E
100
AcDbEntity
8
1
62
256
6
ByLayer
370
18
48
1
60
0
100
AcDbEllipse
10
19.338708
20
-11.814599
30
0
11
0.473761543396062
21
0.473761543393912
31
0
210
0
220
0
230
1
40
0.989133
41
-1.69897949714226
42
-0.984508492506154
0
ELLIPSE
5
11F
100
AcDbEntity
8
1
62
256
6
ByLayer
370
18
48
1
60
0
100
AcDbEllipse
10
20.546272
20
-12.05193
30
0
11
-0.403050865277254
21
-0.403050865275411
31
0
210
0
220
0
230
1
40
0.989133
41
2.7298377445006
42
-0.984508492506274
0
ELLIPSE
5
120
100
AcDbEntity
8
1
62
256
6
ByLayer
370
18
48
1
60
0
100
AcDbEllipse
10
22.222681
20
-14.455687
30
0
11
-0.403050865277254
21
-0.403050865275411
31
0
210
0
220
0
230
1
40
0.989133
41
0.635442642107471
42
-3.0789035948996
0
ELLIPSE
5
121
100
AcDbEntity
8
1
62
256
6
ByLayer
370
18
48
1
60
0
100
AcDbEllipse
10
20.5293
20
-13.589415
30
0
11
-4.24264068712898
21
-4.24264068710958
31
0
210
0
220
0
230
1
40
0.989133
41
0
42
6.28318530717959
0
ELLIPSE
5
122
100
AcDbEntity
8
1
62
256
6
ByLayer
370
18
48
1
60
0
100
AcDbEllipse
10
22.083711
20
-12.76226
30
0
11
-0.403050865277254
21
-0.403050865275411
31
0
210
0
220
0
230
1
40
0.989133
41
1.68264019330397
42
-2.03170604370277
0
ELLIPSE
5
123
100
AcDbEntity
8
1
62
256
6
ByLayer
370
18
48
1
60
0
100
AcDbEllipse
10
19.338708
20
-11.814599
30
0
11
-0.47376154339607
21
-0.473761543393904
31
0
210
0
220
0
230
1
40
0.989133
41
0.635442642107361
42
1.34991364674359
0
ELLIPSE
5
124
100
AcDbEntity
8
1
62
256
6
ByLayer
370
18
48
1
60
0
100
AcDbEllipse
10
20.5293
20
-13.589415
30
0
11
-4.21453994677055
21
-4.21453994675128
31
0
210
0
220
0
230
1
40
0.989133
41
0
42
6.28318530717959
0
ELLIPSE
5
125
100
AcDbEntity
8
1
62
256
6
ByLayer
370
18
48
1
60
0
100
AcDbEllipse
10
19.673582
20
-15.89521
30
0
11
0.473761543396062
21
0.473761543393912
31
0
210
0
220
0
230
1
40
0.989133
41
-0.411754909089218
42
0.302716095547037
0
ELLIPSE
5
126
100
AcDbEntity
8
1
62
256
6
ByLayer
370
18
48
1
60
0
100
AcDbEllipse
10
20.685242
20
-13.745358
30
0
11
-2.47487373415857
21
-2.47487373414726
31
0
210
0
220
0
230
1
40
0.989133
41
0
42
6.28318530717959
0
ELLIPSE
5
127
100
AcDbEntity
8
1
62
256
6
ByLayer
370
18
48
1
60
0
100
AcDbEllipse
10
19.673582
20
-15.89521
30
0
11
0.473761543396062
21
0.473761543393912
31
0
210
0
220
0
230
1
40
0.989133
41
0.395415605250673
42
1.10988660988695
0
ELLIPSE
5
128
100
AcDbEntity
8
1
62
256
6
ByLayer
370
18
48
1
60
0
100
AcDbEllipse
10
23.043438
20
-13.526264
30
0
11
0.473761543396062
21
0.473761543393912
31
0
210
0
220
0
230
1
40
0.989133
41
2.48981070764409
42
-3.07890359489942
0
ELLIPSE
5
129
100
AcDbEntity
8
1
62
256
6
ByLayer
370
18
48
1
60
0
100
AcDbEllipse
10
18.327047
20
-13.964452
30
0
11
0.473761543396062
21
0.473761543393912
31
0
210
0
220
0
230
1
40
0.989133
41
-1.45895246028578
42
-0.744481455649391
0
ELLIPSE
5
12A
100
AcDbEntity
8
1
62
256
6
ByLayer
370
18
48
1
60
0
100
AcDbEllipse
10
22.031777
20
-15.676116
30
0
11
0.473761543396062
21
0.473761543393912
31
0
210
0
220
0
230
1
40
0.989133
41
0.635442642107286
42
1.34991364674359
0
ELLIPSE
5
12B
100
AcDbEntity
8
1
62
256
6
ByLayer
370
18
48
1
60
0
100
AcDbEllipse
10
21.696903
20
-11.595505
30
0
11
-0.47376154339607
21
-0.473761543393904
31
0
210
0
220
0
230
1
40
0.989133
41
0.395415605250731
42
1.10988660988695
0
ELLIPSE
5
12C
100
AcDbEntity
8
1
62
256
6
ByLayer
370
18
48
1
60
0
100
AcDbEllipse
10
21.787467
20
-15.431806
30
0
11
0.473761543396062
21
0.473761543393912
31
0
210
0
220
0
230
1
40
0.989133
41
0.635442642107337
42
2.15708416108358
0
ELLIPSE
5
12D
100
AcDbEntity
8
1
62
256
6
ByLayer
370
18
48
1
60
0
100
AcDbEllipse
10
19.147804
20
-13.035028
30
0
11
-0.403050865277254
21
-0.403050865275411
31
0
210
0
220
0
230
1
40
0.989133
41
-2.50615001148237
42
0.0626890586904513
0
ELLIPSE
5
12E
100
AcDbEntity
8
1
62
256
6
ByLayer
370
18
48
1
60
0
100
AcDbEllipse
10
18.327047
20
-13.964452
30
0
11
0.473761543396062
21
0.473761543393912
31
0
210
0
220
0
230
1
40
0.989133
41
-0.651781945946002
42
0.0626890586903771
0
ELLIPSE
5
12F
100
AcDbEntity
8
1
62
256
6
ByLayer
370
18
48
1
60
0
100
AcDbEllipse
10
23.043438
20
-13.526264
30
0
11
0.473761543396062
21
0.473761543393912
31
0
210
0
220
0
230
1
40
0.989133
41
1.68264019330402
42
2.39711119794011
0
ELLIPSE
5
130
100
AcDbEntity
8
1
62
256
6
ByLayer
370
18
48
1
60
0
100
AcDbEllipse
10
22.031777
20
-15.676116
30
0
11
0.473761543396062
21
0.473761543393912
31
0
210
0
220
0
230
1
40
0.989133
41
1.44261315644737
42
2.1570841610836
0
ELLIPSE
5
131
100
AcDbEntity
8
1
62
256
6
ByLayer
370
18
48
1
60
0
100
AcDbEllipse
10
28.374838
20
-7.631173
30
0
11
2.4746268961891
21
2.47462689617786
31
0
210
0
220
0
230
1
40
0.989133
41
-0.69813170079773
42
-0.534188876206374
0
ELLIPSE
5
132
100
AcDbEntity
8
1
62
256
6
ByLayer
370
18
48
1
60
0
100
AcDbEllipse
10
21.318756
20
15.94364
30
0
11
-0.696942340422418
21
0.397819982574902
31
0
210
0
220
0
230
1
40
0.039023
41
-2.99973202035391
42
-1.42893569352563
0
ELLIPSE
5
133
100
AcDbEntity
8
1
62
256
6
ByLayer
370
18
48
1
60
0
100
AcDbEllipse
10
29.415234
20
-8.671569
30
0
11
2.39228586355413
21
2.39228586354327
31
0
210
0
220
0
230
1
40
0.989133
41
-0.698131700797731
42
-0.533972351155221
0
ELLIPSE
5
134
100
AcDbEntity
8
1
62
256
6
ByLayer
370
18
48
1
60
0
100
AcDbEllipse
10
29.454393
20
-8.616842
30
0
11
2.35608296137138
21
2.35608296136069
31
0
210
0
220
0
230
1
40
0.989133
41
-0.546988462086763
42
0.872664625997187
0
ELLIPSE
5
135
100
AcDbEntity
8
1
62
256
6
ByLayer
370
18
48
1
60
0
100
AcDbEllipse
10
29.206579
20
-8.639866
30
0
11
2.35608296137138
21
2.35608296136069
31
0
210
0
220
0
230
1
40
0.989133
41
0.872664625997168
42
1.11842305578738
0
POINT
5
6C
100
AcDbEntity
8
2
62
256
6
ByLayer
370
18
48
1
60
0
100
AcDbPoint
10
53.175346
20
85.275
30
0
39
0
210
0
220
0
230
1
50
360
0
POINT
5
6E
100
AcDbEntity
8
80
62
256
6
ByLayer
370
18
48
1
60
0
100
AcDbPoint
10
0
20
0
30
0
39
0
210
0
220
0
230
1
50
360
0
POINT
5
70
100
AcDbEntity
8
81
62
256
6
ByLayer
370
18
48
1
60
0
100
AcDbPoint
10
53.175346
20
-35.425
30
0
39
0
210
0
220
0
230
1
50
360
0
SPLINE
5
136
100
AcDbEntity
8
1
62
256
6
ByLayer
370
18
48
1
60
0
100
AcDbSpline
70
4
71
3
72
8
73
4
40
0
40
0
40
0
40
0
40
1
40
1
40
1
40
1
41
1
10
6.56329778948844
20
-17.5465945110025
30
0
41
1
10
6.54067457855297
20
-17.5302794119417
30
0
41
1
10
6.51810013731739
20
-17.513724918581
30
0
41
1
10
6.4955841667558
20
-17.4969271357729
30
0
0
SPLINE
5
137
100
AcDbEntity
8
1
62
256
6
ByLayer
370
18
48
1
60
0
100
AcDbSpline
70
4
71
3
72
14
73
10
40
0
40
0
40
0
40
0
40
0.344680425563157
40
0.344680425563157
40
0.662299704488281
40
0.662299704488281
40
0.966309045319178
40
0.966309045319178
40
1
40
1
40
1
40
1
41
1
10
42.4466520143308
20
-18.8315207970171
30
0
41
1
10
42.6651843096701
20
-19.0750502990539
30
0
41
1
10
42.8712681424894
20
-19.3785692184469
30
0
41
1
10
43.1993225332922
20
-20.0327276435401
30
0
41
1
10
43.3307655221709
20
-20.3863595575211
30
0
41
1
10
43.5179789388056
20
-21.092902131284
30
0
41
1
10
43.5793973191824
20
-21.4532501433308
30
0
41
1
10
43.615587671745
20
-21.8436135695949
30
0
41
1
10
43.6188815450818
20
-21.8828198888073
30
0
41
1
10
43.6218356565699
20
-21.9219480079269
30
0
0
SPLINE
5
138
100
AcDbEntity
8
1
62
256
6
ByLayer
370
18
48
1
60
0
100
AcDbSpline
70
4
71
3
72
9
73
5
40
0
40
0
40
0
40
0
40
0.557412159345917
40
1
40
1
40
1
40
1
41
1.02609574526022
10
25.7476332607799
20
-7.91167512340644
30
0
41
1.0257992359639
10
26.9437655715454
20
-8.59373531163501
30
0
41
1.02388785778436
10
30.5926139505306
20
-11.307051147643
30
0
41
1.02114228821988
10
34.5564016875871
20
-15.0045603131891
30
0
41
1.02025357652616
10
35.9520492152826
20
-16.3074216938672
30
0
0
SPLINE
5
139
100
AcDbEntity
8
1
62
256
6
ByLayer
370
18
48
1
60
0
100
AcDbSpline
70
4
71
3
72
10
73
6
40
0
40
0
40
0
40
0
40
0.178235590375234
40
0.965884392516046
40
1
40
1
40
1
40
1
41
1.02426270642939
10
26.4445621224511
20
-18.5425372754687
30
0
41
1.02399541235391
10
26.9783933278169
20
-18.7420317344389
30
0
41
1.02244297574217
10
29.9884207192674
20
-19.8454677618444
30
0
41
1.02043217367667
10
33.4621341841796
20
-20.9754121575175
30
0
41
1.01956281722763
10
35.308714196813
20
-21.5613300338038
30
0
41
1.01952794425495
10
35.3838609408576
20
-21.5851449767602
30
0
0
SPLINE
5
13A
100
AcDbEntity
8
1
62
256
6
ByLayer
370
18
48
1
60
0
100
AcDbSpline
70
4
71
2
72
10
73
7
40
0
40
0
40
0
40
0.0852799654255249
40
0.0852799654255249
40
0.651876081866861
40
0.651876081866861
40
1
40
1
40
1
41
1
10
37.2635521749764
20
-26.6878932756497
30
0
41
1
10
37.0650477531894
20
-26.7074967861616
30
0
41
1
10
36.8673943459319
20
-26.7247775251689
30
0
41
1
10
35.584124960028
20
-26.8369731287837
30
0
41
1
10
34.1351838990221
20
-26.873246539937
30
0
41
1
10
33.2322228846732
20
-26.89585165274
30
0
41
1
10
32.3782601228777
20
-26.8724728173472
30
0
0
SPLINE
5
13B
100
AcDbEntity
8
1
62
256
6
ByLayer
370
18
48
1
60
0
100
AcDbSpline
70
4
71
3
72
8
73
4
40
0
40
0
40
0
40
0
40
1
40
1
40
1
40
1
41
1
10
25.4113817165126
20
-9.20577364078883
30
0
41
1
10
25.5805101895705
20
-8.68203790082211
30
0
41
1
10
25.6955343707993
20
-8.23935555503368
30
0
41
1
10
25.7476332607799
20
-7.91167512340644
30
0
0
SPLINE
5
13C
100
AcDbEntity
8
1
62
256
6
ByLayer
370
18
48
1
60
0
100
AcDbSpline
70
4
71
3
72
12
73
8
40
0
40
0
40
0
40
0
40
0.241231766725665
40
0.241231766725665
40
0.620546361038362
40
0.620546361038362
40
1
40
1
40
1
40
1
41
1
10
37.2634731169899
20
-26.6879517337749
30
0
41
1
10
36.8513396042483
20
-26.4443681604946
30
0
41
1
10
36.4596673410478
20
-26.1866885568737
30
0
41
1
10
35.4828223699799
20
-25.5044694977225
30
0
41
1
10
34.8991004346105
20
-25.0786268764596
30
0
41
1
10
33.7698912744823
20
-24.202823119763
30
0
41
1
10
33.2224104027814
20
-23.7540512875666
30
0
41
1
10
32.6524532898954
20
-23.319303851133
30
0
0
SPLINE
5
13D
100
AcDbEntity
8
1
62
256
6
ByLayer
370
18
48
1
60
0
100
AcDbSpline
70
4
71
2
72
6
73
3
40
0
40
0
40
0
40
1
40
1
40
1
41
0.949562357392813
10
20.2832023009517
20
-20.1035291148774
30
0
41
0.96778077256665
10
19.8662924311312
20
-20.7397288488617
30
0
41
1.02609574526022
10
19.576054172883
20
-21.026731042408
30
0
0
SPLINE
5
13E
100
AcDbEntity
8
1
62
256
6
ByLayer
370
18
48
1
60
0
100
AcDbSpline
70
4
71
3
72
12
73
8
40
0
40
0
40
0
40
0
40
0.499842200422127
40
0.499842200422127
40
0.749802242645018
40
0.749802242645018
40
1
40
1
40
1
40
1
41
1
10
35.952049226738
20
-16.3074217045611
30
0
41
1
10
36.9320000768977
20
-16.3928999739761
30
0
41
1
10
37.9065026174163
20
-16.4335698590616
30
0
41
1
10
39.3790303781321
20
-16.5827436972789
30
0
41
1
10
39.8704799641901
20
-16.6367966200115
30
0
41
1
10
40.8557435253581
20
-16.7637618176687
30
0
41
1
10
41.3503684037231
20
-16.841956224058
30
0
41
1
10
41.8470532408613
20
-16.9475094943327
30
0
0
SPLINE
5
13F
100
AcDbEntity
8
1
62
256
6
ByLayer
370
18
48
1
60
0
100
AcDbSpline
70
4
71
3
72
8
73
4
40
0
40
0
40
0
40
0
40
1
40
1
40
1
40
1
41
1
10
12.7750959099873
20
-14.464886513177
30
0
41
1
10
11.1327815939858
20
-14.7351446400215
30
0
41
1
10
9.56168851129161
20
-14.9239488966441
30
0
41
1
10
8.41264098256431
20
-14.8660408572794
30
0
0
SPLINE
5
140
100
AcDbEntity
8
1
62
256
6
ByLayer
370
18
48
1
60
0
100
AcDbSpline
70
4
71
3
72
8
73
4
40
0
40
0
40
0
40
0
40
1
40
1
40
1
40
1
41
1
10
20.2832022295816
20
-20.1035292237875
30
0
41
1
10
19.8837319988157
20
-20.0005690184569
30
0
41
1
10
19.4870509968079
20
-19.8613515676558
30
0
41
1
10
19.1155423088873
20
-19.6897065821979
30
0
0
SPLINE
5
141
100
AcDbEntity
8
1
62
256
6
ByLayer
370
18
48
1
60
0
100
AcDbSpline
70
4
71
3
72
22
73
18
40
0
40
0
40
0
40
0
40
0.130530602739821
40
0.130530602739821
40
0.203087548307403
40
0.203087548307403
40
0.264442711370269
40
0.264442711370269
40
0.326069932320045
40
0.326069932320045
40
0.397667682341341
40
0.397667682341341
40
0.506875085108961
40
0.506875085108961
40
0.711100138795177
40
0.711100138795177
40
1
40
1
40
1
40
1
41
1
10
32.6524532898905
20
-23.3193038511325
30
0
41
1
10
32.552292658438
20
-23.2579121592303
30
0
41
1
10
32.4666546064019
20
-23.1843542029932
30
0
41
1
10
32.3914354871188
20
-23.04280313054
30
0
41
1
10
32.3762253653641
20
-22.9856413231807
30
0
41
1
10
32.3826368329441
20
-22.8705201302648
30
0
41
1
10
32.3994434670433
20
-22.8128121012087
30
0
41
1
10
32.4636439021044
20
-22.6954258680419
30
0
41
1
10
32.5120938786702
20
-22.6342897225446
30
0
41
1
10
32.6401101519964
20
-22.5089100594557
30
0
41
1
10
32.724847255099
20
-22.4438454806232
30
0
41
1
10
32.9528096951171
20
-22.2948041940352
30
0
41
1
10
33.1070473292813
20
-22.215380337482
30
0
41
1
10
33.5516007788988
20
-22.01710908819
30
0
41
1
10
33.8543879195865
20
-21.9174866578101
30
0
41
1
10
34.5679607072292
20
-21.7216618465653
30
0
41
1
10
34.9829411738385
20
-21.6416650910454
30
0
41
1
10
35.3838609408691
20
-21.5851449767639
30
0
0
SPLINE
5
142
100
AcDbEntity
8
1
62
256
6
ByLayer
370
18
48
1
60
0
100
AcDbSpline
70
4
71
3
72
8
73
4
40
0
40
0
40
0
40
0
40
1
40
1
40
1
40
1
41
1
10
16.0007347503973
20
0.538362051421814
30
0
41
1
10
15.7373262573645
20
0.674925046555757
30
0
41
1
10
15.4537929871676
20
0.795406650380784
30
0
41
1
10
15.1471248937816
20
0.888228236047638
30
0
0
SPLINE
5
143
100
AcDbEntity
8
1
62
256
6
ByLayer
370
18
48
1
60
0
100
AcDbSpline
70
4
71
3
72
8
73
4
40
0
40
0
40
0
40
0
40
1
40
1
40
1
40
1
41
1
10
31.6401296687027
20
-26.6005595747573
30
0
41
1
10
31.8848207294003
20
-26.6945035677902
30
0
41
1
10
32.1305846723269
20
-26.7860771123425
30
0
41
1
10
32.3778423423677
20
-26.8741291946393
30
0
0
SPLINE
5
144
100
AcDbEntity
8
1
62
256
6
ByLayer
370
18
48
1
60
0
100
AcDbSpline
70
4
71
3
72
8
73
4
40
0
40
0
40
0
40
0
40
1
40
1
40
1
40
1
41
1
10
14.3156955132359
20
-16.0222571119952
30
0
41
1
10
14.8149930222409
20
-17.1847259787171
30
0
41
1
10
15.7182540094306
20
-18.120086490618
30
0
41
1
10
16.9984820004743
20
-18.7115792929411
30
0
0
SPLINE
5
145
100
AcDbEntity
8
1
62
256
6
ByLayer
370
18
48
1
60
0
100
AcDbSpline
70
4
71
3
72
8
73
4
40
0
40
0
40
0
40
0
40
1
40
1
40
1
40
1
41
1
10
25.4113817619955
20
-9.20577349994292
30
0
41
1
10
25.0782693386261
20
-8.96179811158183
30
0
41
1
10
24.7175817851776
20
-8.74609195605066
30
0
41
1
10
24.346073097257
20
-8.57444697059273
30
0
0
SPLINE
5
146
100
AcDbEntity
8
1
62
256
6
ByLayer
370
18
48
1
60
0
100
AcDbSpline
70
4
71
3
72
10
73
6
40
0
40
0
40
0
40
0
40
0.5
40
0.5
40
1
40
1
40
1
40
1
41
1
10
20.2832022295817
20
-20.1035292237875
30
0
41
1
10
21.3782383674825
20
-20.3775511230232
30
0
41
1
10
22.5068187094597
20
-20.3878148009976
30
0
41
1
10
24.6419505387612
20
-19.895462027563
30
0
41
1
10
25.6734015243836
20
-19.3683324719325
30
0
41
1
10
26.4445621214555
20
-18.5425372750966
30
0
0
SPLINE
5
147
100
AcDbEntity
8
1
62
256
6
ByLayer
370
18
48
1
60
0
100
AcDbSpline
70
4
71
3
72
12
73
8
40
0
40
0
40
0
40
0
40
0.204202248153545
40
0.204202248153545
40
0.849675991585476
40
0.849675991585476
40
1
40
1
40
1
40
1
41
1
10
16.814770245159
20
-7.45245050255832
30
0
41
1
10
16.9228824065213
20
-7.47618414085179
30
0
41
1
10
17.0320537743215
20
-7.49427417824822
30
0
41
1
10
17.4838670256088
20
-7.54486816720302
30
0
41
1
10
17.8344815569364
20
-7.52430372102634
30
0
41
1
10
18.2327495026043
20
-7.4290440952862
30
0
41
1
10
18.3076858558011
20
-7.40770654848484
30
0
41
1
10
18.3808748824351
20
-7.38345430504819
30
0
0
SPLINE
5
148
100
AcDbEntity
8
1
62
256
6
ByLayer
370
18
48
1
60
0
100
AcDbSpline
70
4
71
3
72
10
73
6
40
0
40
0
40
0
40
0
40
0.633056393844567
40
0.633056393844567
40
1
40
1
40
1
40
1
41
1
10
8.23209914189226
20
-14.8590604921869
30
0
41
1
10
8.20076439928943
20
-14.925649106801
30
0
41
1
10
8.16527887677154
20
-14.989929510647
30
0
41
1
10
8.10983728193736
20
-15.0810082249256
30
0
41
1
10
8.089157860196
20
-15.1129856545337
30
0
41
1
10
8.06863940123247
20
-15.1432557134236
30
0
0
SPLINE
5
149
100
AcDbEntity
8
1
62
256
6
ByLayer
370
18
48
1
60
0
100
AcDbSpline
70
4
71
3
72
8
73
4
40
0
40
0
40
0
40
0
40
1
40
1
40
1
40
1
41
1
10
16.8147702451606
20
-7.45245050255093
30
0
41
1
10
16.198125148782
20
-5.70406045863172
30
0
41
1
10
15.5513370689279
20
-4.01676390355681
30
0
41
1
10
14.9312897764079
20
-2.91429234219933
30
0
0
SPLINE
5
14A
100
AcDbEntity
8
1
62
256
6
ByLayer
370
18
48
1
60
0
100
AcDbSpline
70
4
71
3
72
10
73
6
40
0
40
0
40
0
40
0
40
0.617959141538633
40
0.617959141538633
40
1
40
1
40
1
40
1
41
1
10
14.3156955132359
20
-16.0222571119952
30
0
41
1
10
14.1960795052135
20
-15.7437660665167
30
0
41
1
10
14.0191520915222
20
-15.4691836004241
30
0
41
1
10
13.6659644533815
20
-15.0796980733607
30
0
41
1
10
13.5134610156147
20
-14.9412221362203
30
0
41
1
10
13.3487687071048
20
-14.8179566946671
30
0
0
SPLINE
5
14B
100
AcDbEntity
8
1
62
256
6
ByLayer
370
18
48
1
60
0
100
AcDbSpline
70
4
71
3
72
8
73
4
40
0
40
0
40
0
40
0
40
1
40
1
40
1
40
1
41
1
10
22.229012788844
20
-7.5963196813359
30
0
41
1
10
20.948508013835
20
-7.00469899888168
30
0
41
1
10
19.6206860362078
20
-6.97262493212682
30
0
41
1
10
18.3808748824351
20
-7.38345430504819
30
0
0
SPLINE
5
14C
100
AcDbEntity
8
1
62
256
6
ByLayer
370
18
48
1
60
0
100
AcDbSpline
70
4
71
3
72
9
73
5
40
0
40
0
40
0
40
0
40
0.557412158884147
40
1
40
1
40
1
40
1
41
1.02609574526022
10
19.576054172883
20
-21.026731042408
30
0
41
1.0257992359639
10
20.8710214646724
20
-21.49875968364
30
0
41
1.02388785778278
10
25.2924474842353
20
-22.5702916648678
30
0
41
1.02114228821533
10
30.7311096789648
20
-23.1335849937117
30
0
41
1.02025357652117
10
32.6524532848395
20
-23.3193038506443
30
0
0
SPLINE
5
14D
100
AcDbEntity
8
1
62
256
6
ByLayer
370
18
48
1
60
0
100
AcDbSpline
70
4
71
3
72
8
73
4
40
0
40
0
40
0
40
0
40
1
40
1
40
1
40
1
41
1
10
38.8503706881741
20
-13.1195341414769
30
0
41
1
10
38.616195256633
20
-13.0036813477168
30
0
41
1
10
38.3802536489954
20
-12.8912346239073
30
0
41
1
10
38.1431681435998
20
-12.7811282708546
30
0
0
SPLINE
5
14E
100
AcDbEntity
8
1
62
256
6
ByLayer
370
18
48
1
60
0
100
AcDbSpline
70
4
71
3
72
10
73
6
40
0
40
0
40
0
40
0
40
0.748781644179016
40
0.748781644179016
40
1
40
1
40
1
40
1
41
1
10
16.1777701815541
20
-7.2339553835308
30
0
41
1
10
16.3273067194854
20
-7.30273075058579
30
0
41
1
10
16.4879830001912
20
-7.36435104340984
30
0
41
1
10
16.7046043004445
20
-7.4263537536809
30
0
41
1
10
16.7599440076166
20
-7.44041461247505
30
0
41
1
10
16.8147702451588
20
-7.45245050255829
30
0
0
SPLINE
5
14F
100
AcDbEntity
8
1
62
256
6
ByLayer
370
18
48
1
60
0
100
AcDbSpline
70
4
71
3
72
10
73
6
40
0
40
0
40
0
40
0
40
0.5
40
0.5
40
1
40
1
40
1
40
1
41
1
10
36.375727125903
20
-11.4993877538624
30
0
41
1
10
34.8840635920624
20
-10.0659937762819
30
0
41
1
10
33.3267212531765
20
-8.72273086100537
30
0
41
1
10
29.9702693381755
20
-6.36798235049665
30
0
41
1
10
28.157234046791
20
-5.37560702241601
30
0
41
1
10
26.2987048800707
20
-4.44566296587712
30
0
0
SPLINE
5
150
100
AcDbEntity
8
1
62
256
6
ByLayer
370
18
48
1
60
0
100
AcDbSpline
70
4
71
3
72
8
73
4
40
0
40
0
40
0
40
0
40
1
40
1
40
1
40
1
41
1
10
13.8023119061997
20
-3.41259684533804
30
0
41
1
10
14.5267439430715
20
-4.37235901111157
30
0
41
1
10
15.352137250568
20
-5.76874562710205
30
0
41
1
10
16.1777701815562
20
-7.23395538352625
30
0
0
SPLINE
5
151
100
AcDbEntity
8
1
62
256
6
ByLayer
370
18
48
1
60
0
100
AcDbSpline
70
4
71
2
72
6
73
3
40
0
40
0
40
0
40
1
40
1
40
1
41
1.02609574526022
10
19.576054172883
20
-21.026731042408
30
0
41
1.02609574526022
10
18.5661531905496
20
-22.0253719484813
30
0
41
1.02609574526022
10
17.5562522082163
20
-23.0240128545546
30
0
0
SPLINE
5
152
100
AcDbEntity
8
1
62
256
6
ByLayer
370
18
48
1
60
0
100
AcDbSpline
70
4
71
3
72
8
73
4
40
0
40
0
40
0
40
0
40
1
40
1
40
1
40
1
41
1
10
28.1109616692606
20
-15.0013166342204
30
0
41
1
10
28.3919298141267
20
-12.7815315503718
30
0
41
1
10
27.2257695996173
20
-10.5349855624411
30
0
41
1
10
25.4113817619954
20
-9.20577349994321
30
0
0
SPLINE
5
153
100
AcDbEntity
8
1
62
256
6
ByLayer
370
18
48
1
60
0
100
AcDbSpline
70
4
71
3
72
8
73
4
40
0
40
0
40
0
40
0
40
1
40
1
40
1
40
1
41
1
10
8.75971068851089
20
-16.0293482612011
30
0
41
1
10
9.94555447672639
20
-15.9334661143192
30
0
41
1
10
11.6196464185672
20
-15.4308544421874
30
0
41
1
10
13.3487687071047
20
-14.817956694667
30
0
0
SPLINE
5
154
100
AcDbEntity
8
1
62
256
6
ByLayer
370
18
48
1
60
0
100
AcDbSpline
70
4
71
3
72
10
73
6
40
0
40
0
40
0
40
0
40
0.5
40
0.5
40
1
40
1
40
1
40
1
41
1
10
8.06863940123247
20
-15.1432557134236
30
0
41
1
10
7.84788621599506
20
-15.4689240264856
30
0
41
1
10
7.69887216023744
20
-15.693788248492
30
0
41
1
10
7.44848349668359
20
-16.0569818400532
30
0
41
1
10
7.34720168878897
20
-16.1969180764998
30
0
41
1
10
7.26003931236687
20
-16.3308335799188
30
0
0
SPLINE
5
155
100
AcDbEntity
8
1
62
256
6
ByLayer
370
18
48
1
60
0
100
AcDbSpline
70
4
71
3
72
11
73
7
40
0
40
0
40
0
40
0
40
0.567115805318458
40
0.567115805318458
40
0.567115805318458
40
1
40
1
40
1
40
1
41
1
10
31.6401296687026
20
-26.6005595747573
30
0
41
1
10
31.3065780852685
20
-26.4724994505301
30
0
41
1
10
30.9110168788997
20
-26.3651807381392
30
0
41
1
10
30.4928434910084
20
-26.2841421744087
30
0
41
1
10
30.1712527279292
20
-26.221820529121
30
0
41
1
10
29.8306140911132
20
-26.173401908663
30
0
41
1
10
29.4870330605959
20
-26.1383653297224
30
0
0
SPLINE
5
156
100
AcDbEntity
8
1
62
256
6
ByLayer
370
18
48
1
60
0
100
AcDbSpline
70
4
71
3
72
12
73
8
40
0
40
0
40
0
40
0
40
0.499999999999996
40
0.499999999999996
40
0.749999999999997
40
0.749999999999997
40
1
40
1
40
1
40
1
41
1
10
36.3291722651086
20
-19.5762894307588
30
0
41
1
10
35.9451937733116
20
-19.0085372863757
30
0
41
1
10
35.5774907538551
20
-18.3698593472844
30
0
41
1
10
35.2689795210754
20
-17.2411355926069
30
0
41
1
10
35.224386938673
20
-16.7978612898371
30
0
41
1
10
35.4826622926233
20
-16.2881682557541
30
0
41
1
10
35.7236582645459
20
-16.262921139627
30
0
41
1
10
35.9520492267413
20
-16.3074217045641
30
0
0
SPLINE
5
157
100
AcDbEntity
8
1
62
256
6
ByLayer
370
18
48
1
60
0
100
AcDbSpline
70
4
71
3
72
10
73
6
40
0
40
0
40
0
40
0
40
0.5
40
0.5
40
1
40
1
40
1
40
1
41
1
10
17.5562522082163
20
-23.0240128545547
30
0
41
1
10
19.4698730649425
20
-23.8368830496408
30
0
41
1
10
21.4025128968619
20
-24.5750900011963
30
0
41
1
10
25.3805081891877
20
-25.6090134791423
30
0
41
1
10
27.4200419245585
20
-25.9275844900516
30
0
41
1
10
29.4870330605979
20
-26.1383653297226
30
0
0
SPLINE
5
158
100
AcDbEntity
8
1
62
256
6
ByLayer
370
18
48
1
60
0
100
AcDbSpline
70
4
71
3
72
10
73
6
40
0
40
0
40
0
40
0
40
0.5
40
0.5
40
1
40
1
40
1
40
1
41
1
10
14.303964901234
20
-1.36197768881507
30
0
41
1
10
14.2383823627561
20
-1.55260393564333
30
0
41
1
10
14.1777081545972
20
-1.75632251889766
30
0
41
1
10
14.0244781597043
20
-2.25075811233964
30
0
41
1
10
13.9299747753331
20
-2.54345459306938
30
0
41
1
10
13.8094658762732
20
-2.94358052995224
30
0
0
SPLINE
5
159
100
AcDbEntity
8
1
62
256
6
ByLayer
370
18
48
1
60
0
100
AcDbSpline
70
4
71
3
72
10
73
6
40
0
40
0
40
0
40
0
40
0.567800532142489
40
0.567800532142489
40
1
40
1
40
1
40
1
41
1
10
36.3757271259031
20
-11.4993877538625
30
0
41
1
10
36.6990072670056
20
-11.8100394503175
30
0
41
1
10
37.0407980271511
20
-12.0974174739188
30
0
41
1
10
37.6356786784336
20
-12.5130502575616
30
0
41
1
10
37.8953807588376
20
-12.666051791493
30
0
41
1
10
38.1431681436059
20
-12.7811282708575
30
0
0
SPLINE
5
15A
100
AcDbEntity
8
1
62
256
6
ByLayer
370
18
48
1
60
0
100
AcDbSpline
70
4
71
3
72
10
73
6
40
0
40
0
40
0
40
0
40
0.756795694533306
40
0.756795694533306
40
1
40
1
40
1
40
1
41
1
10
13.3487687071047
20
-14.817956694667
30
0
41
1
10
13.2158753883699
20
-14.7184914933984
30
0
41
1
10
13.0671834903525
20
-14.6238123977129
30
0
41
1
10
12.8717061938372
20
-14.5151238386439
30
0
41
1
10
12.8233797044651
20
-14.4894593029822
30
0
41
1
10
12.7750959099918
20
-14.4648865131683
30
0
0
SPLINE
5
15B
100
AcDbEntity
8
1
62
256
6
ByLayer
370
18
48
1
60
0
100
AcDbSpline
70
4
71
1
72
4
73
2
40
0
40
0
40
1
40
1
41
1
10
25.7476332607799
20
-7.91167512340644
30
0
41
1
10
26.2987048800707
20
-4.44566296587715
30
0
0
SPLINE
5
15C
100
AcDbEntity
8
1
62
256
6
ByLayer
370
18
48
1
60
0
100
AcDbSpline
70
4
71
3
72
10
73
6
40
0
40
0
40
0
40
0
40
0.634609507784715
40
0.634609507784715
40
1
40
1
40
1
40
1
41
1
10
13.8094658762724
20
-2.94358052995449
30
0
41
1
10
13.7903396645424
20
-3.00708532874685
30
0
41
1
10
13.7677576317448
20
-3.07414183646591
30
0
41
1
10
13.7256466922232
20
-3.18112054877869
30
0
41
1
10
13.7086163352817
20
-3.22106181960555
30
0
41
1
10
13.6903659613919
20
-3.25984519590156
30
0
0
SPLINE
5
15D
100
AcDbEntity
8
1
62
256
6
ByLayer
370
18
48
1
60
0
100
AcDbSpline
70
4
71
3
72
10
73
6
40
0
40
0
40
0
40
0
40
0.917654486053271
40
0.917654486053271
40
1
40
1
40
1
40
1
41
1
10
35.3838609408691
20
-21.5851449767639
30
0
41
1
10
36.0955361836343
20
-21.4847124185062
30
0
41
1
10
36.7957270965716
20
-21.4120750666226
30
0
41
1
10
37.538194027275
20
-21.3646151640193
30
0
41
1
10
37.5993057971173
20
-21.3608965222914
30
0
41
1
10
37.6603089431934
20
-21.357350732194
30
0
0
SPLINE
5
15E
100
AcDbEntity
8
1
62
256
6
ByLayer
370
18
48
1
60
0
100
AcDbSpline
70
4
71
3
72
8
73
4
40
0
40
0
40
0
40
0
40
1
40
1
40
1
40
1
41
1
10
16.1777701815458
20
-7.23395538353245
30
0
41
1
10
16.1524965212286
20
-7.22233143336487
30
0
41
1
10
16.1273726761954
20
-7.21046046625563
30
0
41
1
10
16.1024063420691
20
-7.19835201973453
30
0
0
SPLINE
5
15F
100
AcDbEntity
8
1
62
256
6
ByLayer
370
18
48
1
60
0
100
AcDbSpline
70
4
71
3
72
10
73
6
40
0
40
0
40
0
40
0
40
0.178235590382925
40
0.965884392557142
40
1
40
1
40
1
40
1
41
1.02426270642939
10
28.1109616702046
20
-15.0013166347302
30
0
41
1.02399541235391
10
28.6114707317245
20
-15.2716230809846
30
0
41
1.02244297574217
10
31.4209653739991
20
-16.8012058338247
30
0
41
1.02043217367675
10
34.5834043407449
20
-18.5926312522816
30
0
41
1.01956281722772
10
36.2609084403677
20
-19.5378477815408
30
0
41
1.01952794425508
10
36.32917226485
20
-19.5762894306131
30
0
0
SPLINE
5
160
100
AcDbEntity
8
1
62
256
6
ByLayer
370
18
48
1
60
0
100
AcDbSpline
70
4
71
3
72
15
73
11
40
0
40
0
40
0
40
0
40
0.147139933659574
40
0.147139933659574
40
0.468348890922563
40
0.468348890922563
40
0.791093030527832
40
0.791093030527832
40
0.791093030527832
40
1
40
1
40
1
40
1
41
1
10
42.2609301846968
20
-24.8139714446989
30
0
41
1
10
42.1239258524745
20
-24.9082698748881
30
0
41
1
10
41.9810514772722
20
-24.9995564426069
30
0
41
1
10
41.5135943695333
20
-25.2744904320496
30
0
41
1
10
41.1651213584614
20
-25.4440512428209
30
0
41
1
10
40.4615823135534
20
-25.7107859656038
30
0
41
1
10
40.097063289456
20
-25.8108209173547
30
0
41
1
10
39.7542431496917
20
-25.8685646464172
30
0
41
1
10
39.5301291652141
20
-25.9063138206859
30
0
41
1
10
39.311576697458
20
-25.9271436821334
30
0
41
1
10
39.1053796971801
20
-25.9319682928582
30
0
0
SPLINE
5
161
100
AcDbEntity
8
1
62
256
6
ByLayer
370
18
48
1
60
0
100
AcDbSpline
70
4
71
3
72
14
73
10
40
0
40
0
40
0
40
0
40
0.277474514381386
40
0.277474514381386
40
0.53531892339072
40
0.53531892339072
40
0.765023320191397
40
0.765023320191397
40
1
40
1
40
1
40
1
41
1
10
26.4445621214555
20
-18.5425372750966
30
0
41
1
10
26.6956811926726
20
-18.2736371629773
30
0
41
1
10
26.9244558420812
20
-17.9814944472095
30
0
41
1
10
27.3126811171735
20
-17.3865850814171
30
0
41
1
10
27.4772307334692
20
-17.0839799515308
30
0
41
1
10
27.7395994007377
20
-16.4932200641528
30
0
41
1
10
27.8434641005297
20
-16.2054589327697
30
0
41
1
10
28.009979816425
20
-15.6139726767637
30
0
41
1
10
28.0721055102621
20
-15.3083401700576
30
0
41
1
10
28.1109616692606
20
-15.0013166342204
30
0
0
SPLINE
5
162
100
AcDbEntity
8
1
62
256
6
ByLayer
370
18
48
1
60
0
100
AcDbSpline
70
4
71
3
72
8
73
4
40
0
40
0
40
0
40
0
40
1
40
1
40
1
40
1
41
1
10
12.7750959099924
20
-14.4648865131685
30
0
41
1
10
12.7502924196297
20
-14.452263417532
30
0
41
1
10
12.7254014317297
20
-14.4398976120162
30
0
41
1
10
12.7004350976011
20
-14.427789165494
30
0
0
SPLINE
5
163
100
AcDbEntity
8
1
62
256
6
ByLayer
370
18
48
1
60
0
100
AcDbSpline
70
4
71
3
72
10
73
6
40
0
40
0
40
0
40
0
40
0.286413870643353
40
0.286413870643353
40
1
40
1
40
1
40
1
41
1
10
37.6603089432202
20
-21.3573507321925
30
0
41
1
10
37.5289068244905
20
-21.1983609613893
30
0
41
1
10
37.3983701621507
20
-21.0367563236335
30
0
41
1
10
36.9473661771329
20
-20.4608857884144
30
0
41
1
10
36.6338714450634
20
-20.0269804022357
30
0
41
1
10
36.3291722651086
20
-19.5762894307588
30
0
0
SPLINE
5
164
100
AcDbEntity
8
1
62
256
6
ByLayer
370
18
48
1
60
0
100
AcDbSpline
70
4
71
2
72
10
73
7
40
0
40
0
40
0
40
0.348180233103905
40
0.348180233103905
40
0.914739694263784
40
0.914739694263784
40
1
40
1
40
1
41
1
10
38.8493556273888
20
-13.1209203203317
30
0
41
1
10
39.4165832414483
20
-13.754282124591
30
0
41
1
10
39.9793531462827
20
-14.4539604242906
30
0
41
1
10
40.8834346597321
20
-15.5779832454933
30
0
41
1
10
41.6209123582435
20
-16.6232048715665
30
0
41
1
10
41.7346118764498
20
-16.784350348295
30
0
41
1
10
41.8470600700509
20
-16.9476280762721
30
0
0
SPLINE
5
165
100
AcDbEntity
8
1
62
256
6
ByLayer
370
18
48
1
60
0
100
AcDbSpline
70
4
71
1
72
4
73
2
40
0
40
0
40
1
40
1
41
1
10
21.3843832709632
20
-12.1874247367104
30
0
41
1
10
21.4402043796607
20
-12.2132152867088
30
0
0
SPLINE
5
166
100
AcDbEntity
8
1
62
256
6
ByLayer
370
18
48
1
60
0
100
AcDbSpline
70
4
71
1
72
4
73
2
40
0
40
0
40
1
40
1
41
1
10
18.9929977654309
20
-13.9335564605844
30
0
41
1
10
18.9879520429719
20
-13.8720717493097
30
0
0
SPLINE
5
167
100
AcDbEntity
8
1
62
256
6
ByLayer
370
18
48
1
60
0
100
AcDbSpline
70
4
71
1
72
4
73
2
40
0
40
0
40
1
40
1
41
1
10
21.6783458841255
20
-15.115091432983
30
0
41
1
10
21.6275704978871
20
-15.1507855942596
30
0
0
SPLINE
5
168
100
AcDbEntity
8
1
62
256
6
ByLayer
370
18
48
1
60
0
100
AcDbSpline
70
4
71
1
72
4
73
2
40
0
40
0
40
1
40
1
41
1
10
19.6921387295542
20
-12.375623653869
30
0
41
1
10
19.7429141157928
20
-12.3399294925924
30
0
0
SPLINE
5
169
100
AcDbEntity
8
1
62
256
6
ByLayer
370
18
48
1
60
0
100
AcDbSpline
70
4
71
1
72
4
73
2
40
0
40
0
40
1
40
1
41
1
10
22.3774868482489
20
-13.5571586262674
30
0
41
1
10
22.382532570708
20
-13.6186433375425
30
0
0
SPLINE
5
16A
100
AcDbEntity
8
1
62
256
6
ByLayer
370
18
48
1
60
0
100
AcDbSpline
70
4
71
1
72
4
73
2
40
0
40
0
40
1
40
1
41
1
10
19.9861013427164
20
-15.3032903501415
30
0
41
1
10
19.9302802340191
20
-15.2774998001432
30
0
0
SPLINE
5
16B
100
AcDbEntity
8
1
62
256
6
ByLayer
370
18
48
1
60
0
100
AcDbSpline
70
4
71
3
72
8
73
4
40
0
40
0
40
0
40
0
40
1
40
1
40
1
40
1
41
1
10
31.7509519369213
20
-6.74755363680549
30
0
41
1
10
31.7906984611835
20
-6.91508392346469
30
0
41
1
10
31.8177489768681
20
-7.08624715587618
30
0
41
1
10
31.8316426499567
20
-7.25812096571556
30
0
0
SPLINE
5
16C
100
AcDbEntity
8
1
62
256
6
ByLayer
370
18
48
1
60
0
100
AcDbSpline
70
4
71
3
72
8
73
4
40
0
40
0
40
0
40
0
40
1
40
1
40
1
40
1
41
1
10
31.835769240738
20
-7.30878443402719
30
0
41
1
10
31.8343822448927
20
-7.29188317959293
30
0
41
1
10
31.8330066448408
20
-7.27499447323572
30
0
41
1
10
31.8316426499567
20
-7.25812096571556
30
0
0
SPLINE
5
16D
100
AcDbEntity
8
1
62
256
6
ByLayer
370
18
48
1
60
0
100
AcDbSpline
70
4
71
3
72
10
73
6
40
0
40
0
40
0
40
0
40
0.447341418834539
40
0.447341418834539
40
1
40
1
40
1
40
1
41
1
10
32.6788335142508
20
-7.81664672006102
30
0
41
1
10
32.5404735758102
20
-7.65723019204427
30
0
41
1
10
32.4021136302747
20
-7.49781365898363
30
0
41
1
10
32.0928197744342
20
-7.14144930022223
30
0
41
1
10
31.9218858605654
20
-6.94450147198952
30
0
41
1
10
31.7509519369221
20
-6.7475536368089
30
0
0
INSERT
5
180
100
AcDbEntity
8
SK2
62
256
6
ByLayer
370
25
48
1
60
0
100
AcDbBlockReference
2
DimnDraft3D11
10
0
20
0
30
0
41
1
42
1
43
1
50
0
210
0
220
0
230
1
0
LINE
5
72
100
AcDbEntity
8
1
62
256
6
ByLayer
370
18
48
1
60
0
100
AcDbLine
10
6.560383
20
-17.544492
30
0
11
7.740778
21
-18.397846
31
0
39
0
210
0
220
0
230
1
0
LINE
5
74
100
AcDbEntity
8
1
62
256
6
ByLayer
370
18
48
1
60
0
100
AcDbLine
10
20.978832
20
-11.824957
30
0
11
21.223141
21
-12.069266
31
0
39
0
210
0
220
0
230
1
0
LINE
5
75
100
AcDbEntity
8
1
62
256
6
ByLayer
370
18
48
1
60
0
100
AcDbLine
10
20.147343
20
-15.421449
30
0
11
19.903033
21
-15.177139
31
0
39
0
210
0
220
0
230
1
0
LINE
5
76
100
AcDbEntity
8
1
62
256
6
ByLayer
370
18
48
1
60
0
100
AcDbLine
10
16.026755
20
-17.572152
30
0
11
16.286659
21
-17.832056
31
0
39
0
210
0
220
0
230
1
0
LINE
5
77
100
AcDbEntity
8
1
62
256
6
ByLayer
370
18
48
1
60
0
100
AcDbLine
10
24.771941
20
-9.346774
30
0
11
24.512036
21
-9.08687
31
0
39
0
210
0
220
0
230
1
0
LINE
5
78
100
AcDbEntity
8
1
62
256
6
ByLayer
370
18
48
1
60
0
100
AcDbLine
10
50.787782
20
-10.620033
30
0
11
50.175009
21
-10.00726
31
0
39
0
210
0
220
0
230
1
0
LINE
5
79
100
AcDbEntity
8
1
62
256
6
ByLayer
370
18
48
1
60
0
100
AcDbLine
10
27.71228
20
-32.379338
30
0
11
28.370379
21
-33.037436
31
0
39
0
210
0
220
0
230
1
0
LINE
5
7A
100
AcDbEntity
8
1
62
256
6
ByLayer
370
18
48
1
60
0
100
AcDbLine
10
13.3024
20
-14.783876
30
0
11
12.534201
21
-14.228515
31
0
39
0
210
0
220
0
230
1
0
LINE
5
7B
100
AcDbEntity
8
1
62
256
6
ByLayer
370
18
48
1
60
0
100
AcDbLine
10
18.800809
20
-13.49069
30
0
11
18.709658
21
-13.399539
31
0
39
0
210
0
220
0
230
1
0
LINE
5
7C
100
AcDbEntity
8
1
62
256
6
ByLayer
370
18
48
1
60
0
100
AcDbLine
10
22.325366
20
-13.755715
30
0
11
22.569676
21
-14.000025
31
0
39
0
210
0
220
0
230
1
0
LINE
5
7D
100
AcDbEntity
8
80
62
256
6
ByLayer
370
18
48
1
60
0
100
AcDbLine
10
0
20
0
30
0
11
-5
21
0
31
0
39
0
210
0
220
0
230
1
0
LINE
5
7E
100
AcDbEntity
8
81
62
256
6
ByLayer
370
18
48
1
60
0
100
AcDbLine
10
53.175346
20
-35.425
30
0
11
63.175346
21
-35.425
31
0
39
0
210
0
220
0
230
1
0
LINE
5
7F
100
AcDbEntity
8
1
62
256
6
ByLayer
370
18
48
1
60
0
100
AcDbLine
10
33.016556
20
-8.605256
30
0
11
49.323439
21
-9.943475
31
0
39
0
210
0
220
0
230
1
0
LINE
5
80
100
AcDbEntity
8
1
62
256
6
ByLayer
370
18
48
1
60
0
100
AcDbLine
10
27.693821
20
-31.573093
30
0
11
27.64183
21
-31.521102
31
0
39
0
210
0
220
0
230
1
0
LINE
5
81
100
AcDbEntity
8
1
62
256
6
ByLayer
370
18
48
1
60
0
100
AcDbLine
10
31.711327
20
-7.589649
30
0
11
32.006737
21
-7.613892
31
0
39
0
210
0
220
0
230
1
0
LINE
5
82
100
AcDbEntity
8
1
62
256
6
ByLayer
370
18
48
1
60
0
100
AcDbLine
10
49.285103
20
-9.905139
30
0
11
49.323439
21
-9.943475
31
0
39
0
210
0
220
0
230
1
0
LINE
5
83
100
AcDbEntity
8
1
62
256
6
ByLayer
370
18
48
1
60
0
100
AcDbLine
10
30.911745
20
-7.081758
30
0
11
31.578428
21
-7.136469
31
0
39
0
210
0
220
0
230
1
0
LINE
5
84
100
AcDbEntity
8
1
62
256
6
ByLayer
370
18
48
1
60
0
100
AcDbLine
10
31.85346
20
-7.425534
30
0
11
32.461481
21
-8.173415
31
0
39
0
210
0
220
0
230
1
0
LINE
5
85
100
AcDbEntity
8
1
62
256
6
ByLayer
370
18
48
1
60
0
100
AcDbLine
10
13.706909
20
-21.21715
30
0
11
13.695938
21
-21.240465
31
0
39
0
210
0
220
0
230
1
0
LINE
5
86
100
AcDbEntity
8
1
62
256
6
ByLayer
370
18
48
1
60
0
100
AcDbLine
10
10.950769
20
-19.943983
30
0
11
5.814846
21
-30.858194
31
0
39
0
210
0
220
0
230
1
0
LINE
5
87
100
AcDbEntity
8
1
62
256
6
ByLayer
370
18
48
1
60
0
100
AcDbLine
10
22.031684
20
15.532869
30
0
11
15.140921
21
0.889494
31
0
39
0
210
0
220
0
230
1
0
LINE
5
88
100
AcDbEntity
8
1
62
256
6
ByLayer
370
18
48
1
60
0
100
AcDbLine
10
6.490573
20
-17.493127
30
0
11
1.319264
21
-28.482535
31
0
39
0
210
0
220
0
230
1
0
LINE
5
89
100
AcDbEntity
8
1
62
256
6
ByLayer
370
18
48
1
60
0
100
AcDbLine
10
22.802583
20
5.241986
30
0
11
19.672939
21
-1.408735
31
0
39
0
210
0
220
0
230
1
0
LINE
5
8A
100
AcDbEntity
8
1
62
256
6
ByLayer
370
18
48
1
60
0
100
AcDbLine
10
32.898664
20
-8.513414
30
0
11
40.724255
21
-9.190071
31
0
39
0
210
0
220
0
230
1
0
LINE
5
8B
100
AcDbEntity
8
1
62
256
6
ByLayer
370
18
48
1
60
0
100
AcDbLine
10
49.695598
20
-9.965799
30
0
11
50.348465
21
-10.022251
31
0
39
0
210
0
220
0
230
1
0
LINE
5
8C
100
AcDbEntity
8
1
62
256
6
ByLayer
370
18
48
1
60
0
100
AcDbLine
10
21.235586
20
16.026809
30
0
11
14.148847
21
0.966971
31
0
39
0
210
0
220
0
230
1
0
LINE
5
8D
100
AcDbEntity
8
1
62
256
6
ByLayer
370
18
48
1
60
0
100
AcDbLine
10
5.793063
20
-16.78968
30
0
11
0.946094
21
-27.089844
31
0
39
0
210
0
220
0
230
1
0
LINE
5
8E
100
AcDbEntity
8
1
62
256
6
ByLayer
370
18
48
1
60
0
100
AcDbLine
10
27.049052
20
-25.810317
30
0
11
27.610086
21
-32.646813
31
0
39
0
210
0
220
0
230
1
0
LINE
5
8F
100
AcDbEntity
8
1
62
256
6
ByLayer
370
18
48
1
60
0
100
AcDbLine
10
22.010892
20
15.553661
30
0
11
15.113004
21
0.895146
31
0
39
0
210
0
220
0
230
1
0
LINE
5
90
100
AcDbEntity
8
1
62
256
6
ByLayer
370
18
48
1
60
0
100
AcDbLine
10
6.468324
20
-17.47543
30
0
11
1.30817
21
-28.441133
31
0
39
0
210
0
220
0
230
1
0
LINE
5
91
100
AcDbEntity
8
1
62
256
6
ByLayer
370
18
48
1
60
0
100
AcDbLine
10
31.845628
20
-7.451984
30
0
11
31.877383
21
-7.45473
31
0
39
0
210
0
220
0
230
1
0
LINE
5
92
100
AcDbEntity
8
1
62
256
6
ByLayer
370
18
48
1
60
0
100
AcDbLine
10
31.890083
20
-7.470368
30
0
11
31.846829
21
-7.466628
31
0
39
0
210
0
220
0
230
1
0
LINE
5
93
100
AcDbEntity
8
1
62
256
6
ByLayer
370
18
48
1
60
0
100
AcDbLine
10
31.296557
20
-7.101638
30
0
11
31.569415
21
-7.125231
31
0
39
0
210
0
220
0
230
1
0
LINE
5
94
100
AcDbEntity
8
1
62
256
6
ByLayer
370
18
48
1
60
0
100
AcDbLine
10
31.988195
20
-7.591182
30
0
11
31.673661
21
-7.56537
31
0
39
0
210
0
220
0
230
1
0
LINE
5
95
100
AcDbEntity
8
1
62
256
6
ByLayer
370
18
48
1
60
0
100
AcDbLine
10
27.729937
20
-32.594619
30
0
11
27.17458
21
-25.827304
31
0
39
0
210
0
220
0
230
1
0
LINE
5
96
100
AcDbEntity
8
1
62
256
6
ByLayer
370
18
48
1
60
0
100
AcDbLine
10
18.720567
20
-13.412309
30
0
11
18.77052
21
-13.462263
31
0
39
0
210
0
220
0
230
1
0
LINE
5
97
100
AcDbEntity
8
1
62
256
6
ByLayer
370
18
48
1
60
0
100
AcDbLine
10
24.512036
20
-9.08687
30
0
11
24.511648
21
-9.086482
31
0
39
0
210
0
220
0
230
1
0
LINE
5
98
100
AcDbEntity
8
1
62
256
6
ByLayer
370
18
48
1
60
0
100
AcDbLine
10
27.693821
20
-31.573093
30
0
11
27.222804
21
-25.833517
31
0
39
0
210
0
220
0
230
1
0
LINE
5
99
100
AcDbEntity
8
1
62
256
6
ByLayer
370
18
48
1
60
0
100
AcDbLine
10
50.587993
20
-35.417104
30
0
11
29.834722
21
-33.713994
31
0
39
0
210
0
220
0
230
1
0
LINE
5
9A
100
AcDbEntity
8
1
62
256
6
ByLayer
370
18
48
1
60
0
100
AcDbLine
10
51.46434
20
-12.084376
30
0
11
53.16745
21
-32.837647
31
0
39
0
210
0
220
0
230
1
0
LINE
5
9B
100
AcDbEntity
8
1
62
256
6
ByLayer
370
18
48
1
60
0
100
AcDbLine
10
17.556252
20
-23.024013
30
0
11
13.695938
21
-21.240465
31
0
39
0
210
0
220
0
230
1
0
LINE
5
9C
100
AcDbEntity
8
1
62
256
6
ByLayer
370
18
48
1
60
0
100
AcDbLine
10
26.298705
20
-4.445663
30
0
11
22.438391
21
-2.662115
31
0
39
0
210
0
220
0
230
1
0
LINE
5
9D
100
AcDbEntity
8
1
62
256
6
ByLayer
370
18
48
1
60
0
100
AcDbLine
10
13.695938
20
-21.240465
30
0
11
13.723055
21
-21.224609
31
0
39
0
210
0
220
0
230
1
0
LINE
5
9E
100
AcDbEntity
8
1
62
256
6
ByLayer
370
18
48
1
60
0
100
AcDbLine
10
14.93129
20
-2.914292
30
0
11
25.747633
21
-7.911675
31
0
39
0
210
0
220
0
230
1
0
LINE
5
9F
100
AcDbEntity
8
1
62
256
6
ByLayer
370
18
48
1
60
0
100
AcDbLine
10
11.963411
20
-13.894965
30
0
11
9.164125
21
-12.604681
31
0
39
0
210
0
220
0
230
1
0
LINE
5
A0
100
AcDbEntity
8
1
62
256
6
ByLayer
370
18
48
1
60
0
100
AcDbLine
10
17.005572
20
-0.188074
30
0
11
16.000735
21
0.538362
31
0
39
0
210
0
220
0
230
1
0
LINE
5
A1
100
AcDbEntity
8
1
62
256
6
ByLayer
370
18
48
1
60
0
100
AcDbLine
10
11.223422
20
-1.074029
30
0
11
5.482596
21
-13.273704
31
0
39
0
210
0
220
0
230
1
0
LINE
5
A2
100
AcDbEntity
8
1
62
256
6
ByLayer
370
18
48
1
60
0
100
AcDbLine
10
22.440606
20
-2.699176
30
0
11
22.42594
21
-2.688574
31
0
39
0
210
0
220
0
230
1
0
LINE
5
A3
100
AcDbEntity
8
1
62
256
6
ByLayer
370
18
48
1
60
0
100
AcDbLine
10
8.759711
20
-16.029348
30
0
11
19.576054
21
-21.026731
31
0
39
0
210
0
220
0
230
1
0
LINE
5
A4
100
AcDbEntity
8
1
62
256
6
ByLayer
370
18
48
1
60
0
100
AcDbLine
10
5.298737
20
-13.606645
30
0
11
11.370307
21
-0.704114
31
0
39
0
210
0
220
0
230
1
0
LINE
5
A5
100
AcDbEntity
8
1
62
256
6
ByLayer
370
18
48
1
60
0
100
AcDbLine
10
22.42594
20
-2.688574
30
0
11
22.438391
21
-2.662115
31
0
39
0
210
0
220
0
230
1
0
LINE
5
A6
100
AcDbEntity
8
1
62
256
6
ByLayer
370
18
48
1
60
0
100
AcDbLine
10
12.662218
20
-5.444734
30
0
11
12.566096
21
-5.375244
31
0
39
0
210
0
220
0
230
1
0
LINE
5
A7
100
AcDbEntity
8
1
62
256
6
ByLayer
370
18
48
1
60
0
100
AcDbLine
10
17.005572
20
-0.188074
30
0
11
22.440606
21
-2.699176
31
0
39
0
210
0
220
0
230
1
0
LINE
5
A8
100
AcDbEntity
8
1
62
256
6
ByLayer
370
18
48
1
60
0
100
AcDbLine
10
13.723055
20
-21.224609
30
0
11
8.288021
21
-18.713507
31
0
39
0
210
0
220
0
230
1
0
LINE
5
A9
100
AcDbEntity
8
1
62
256
6
ByLayer
370
18
48
1
60
0
100
AcDbLine
10
19.786628
20
-1.469155
30
0
11
16.621252
21
0.212855
31
0
39
0
210
0
220
0
230
1
0
LINE
5
AA
100
AcDbEntity
8
1
62
256
6
ByLayer
370
18
48
1
60
0
100
AcDbLine
10
39.10538
20
-25.931968
30
0
11
37.263636
21
-26.687885
31
0
39
0
210
0
220
0
230
1
0
LINE
5
AB
100
AcDbEntity
8
1
62
256
6
ByLayer
370
18
48
1
60
0
100
AcDbLine
10
13.809466
20
-2.943581
30
0
11
11.223422
21
-1.074029
31
0
39
0
210
0
220
0
230
1
0
LINE
5
AC
100
AcDbEntity
8
1
62
256
6
ByLayer
370
18
48
1
60
0
100
AcDbLine
10
16.496784
20
-18.348882
30
0
11
18.605053
21
-19.320654
31
0
39
0
210
0
220
0
230
1
0
LINE
5
AD
100
AcDbEntity
8
1
62
256
6
ByLayer
370
18
48
1
60
0
100
AcDbLine
10
8.232099
20
-14.85906
30
0
11
9.260247
21
-12.674171
31
0
39
0
210
0
220
0
230
1
0
LINE
5
AE
100
AcDbEntity
8
1
62
256
6
ByLayer
370
18
48
1
60
0
100
AcDbLine
10
12.662218
20
-5.444734
30
0
11
13.690366
21
-3.259845
31
0
39
0
210
0
220
0
230
1
0
LINE
5
AF
100
AcDbEntity
8
1
62
256
6
ByLayer
370
18
48
1
60
0
100
AcDbLine
10
19.115542
20
-19.689707
30
0
11
18.605053
21
-19.320654
31
0
39
0
210
0
220
0
230
1
0
LINE
5
B0
100
AcDbEntity
8
1
62
256
6
ByLayer
370
18
48
1
60
0
100
AcDbLine
10
12.700435
20
-14.427789
30
0
11
11.963411
21
-13.894965
31
0
39
0
210
0
220
0
230
1
0
LINE
5
B1
100
AcDbEntity
8
1
62
256
6
ByLayer
370
18
48
1
60
0
100
AcDbLine
10
37.660309
20
-21.357351
30
0
11
43.342755
21
-23.614119
31
0
39
0
210
0
220
0
230
1
0
LINE
5
B2
100
AcDbEntity
8
1
62
256
6
ByLayer
370
18
48
1
60
0
100
AcDbLine
10
22.440606
20
-2.699176
30
0
11
22.438391
21
-2.662115
31
0
39
0
210
0
220
0
230
1
0
LINE
5
B3
100
AcDbEntity
8
1
62
256
6
ByLayer
370
18
48
1
60
0
100
AcDbLine
10
19.786628
20
-1.469155
30
0
11
22.42594
21
-2.688574
31
0
39
0
210
0
220
0
230
1
0
LINE
5
B4
100
AcDbEntity
8
1
62
256
6
ByLayer
370
18
48
1
60
0
100
AcDbLine
10
9.260247
20
-12.674171
30
0
11
9.164125
21
-12.604681
31
0
39
0
210
0
220
0
230
1
0
LINE
5
B5
100
AcDbEntity
8
1
62
256
6
ByLayer
370
18
48
1
60
0
100
AcDbLine
10
9.164125
20
-12.604681
30
0
11
12.566096
21
-5.375244
31
0
39
0
210
0
220
0
230
1
0
LINE
5
B6
100
AcDbEntity
8
1
62
256
6
ByLayer
370
18
48
1
60
0
100
AcDbLine
10
41.847118
20
-16.947712
30
0
11
42.446652
21
-18.831521
31
0
39
0
210
0
220
0
230
1
0
LINE
5
B7
100
AcDbEntity
8
1
62
256
6
ByLayer
370
18
48
1
60
0
100
AcDbLine
10
8.068639
20
-15.143256
30
0
11
5.482596
21
-13.273704
31
0
39
0
210
0
220
0
230
1
0
LINE
5
B8
100
AcDbEntity
8
1
62
256
6
ByLayer
370
18
48
1
60
0
100
AcDbLine
10
16.998482
20
-18.711579
30
0
11
19.115542
21
-19.689707
31
0
39
0
210
0
220
0
230
1
0
LINE
5
B9
100
AcDbEntity
8
1
62
256
6
ByLayer
370
18
48
1
60
0
100
AcDbLine
10
24.346073
20
-8.574447
30
0
11
22.229013
21
-7.59632
31
0
39
0
210
0
220
0
230
1
0
LINE
5
BA
100
AcDbEntity
8
1
62
256
6
ByLayer
370
18
48
1
60
0
100
AcDbLine
10
21.890617
20
-14.772381
30
0
11
22.134927
21
-15.016691
31
0
39
0
210
0
220
0
230
1
0
LINE
5
BB
100
AcDbEntity
8
1
62
256
6
ByLayer
370
18
48
1
60
0
100
AcDbLine
10
20.830881
20
-11.597812
30
0
11
21.075191
21
-11.842122
31
0
39
0
210
0
220
0
230
1
0
LINE
5
BC
100
AcDbEntity
8
1
62
256
6
ByLayer
370
18
48
1
60
0
100
AcDbLine
10
19.220271
20
-15.020476
30
0
11
19.464581
21
-15.264786
31
0
39
0
210
0
220
0
230
1
0
LINE
5
BD
100
AcDbEntity
8
1
62
256
6
ByLayer
370
18
48
1
60
0
100
AcDbLine
10
22.280566
20
-12.869145
30
0
11
22.524875
21
-13.113455
31
0
39
0
210
0
220
0
230
1
0
LINE
5
BE
100
AcDbEntity
8
1
62
256
6
ByLayer
370
18
48
1
60
0
100
AcDbLine
10
21.134993
20
-15.303571
30
0
11
21.379303
21
-15.547881
31
0
39
0
210
0
220
0
230
1
0
LINE
5
BF
100
AcDbEntity
8
1
62
256
6
ByLayer
370
18
48
1
60
0
100
AcDbLine
10
31.296557
20
-7.101638
30
0
11
31.450656
21
-6.979324
31
0
39
0
210
0
220
0
230
1
0
LINE
5
C0
100
AcDbEntity
8
1
62
256
6
ByLayer
370
18
48
1
60
0
100
AcDbLine
10
1.30817
20
-28.441133
30
0
11
1.319264
21
-28.482535
31
0
39
0
210
0
220
0
230
1
0
LINE
5
C1
100
AcDbEntity
8
1
62
256
6
ByLayer
370
18
48
1
60
0
100
AcDbLine
10
2.095864
20
24.953169
30
0
11
0.695923
21
-26.156196
31
0
39
0
210
0
220
0
230
1
0
LINE
5
C2
100
AcDbEntity
8
1
62
256
6
ByLayer
370
18
48
1
60
0
100
AcDbLine
10
43.905425
20
5.492264
30
0
11
49.605038
21
-0.207348
31
0
39
0
210
0
220
0
230
1
0
LINE
5
C3
100
AcDbEntity
8
1
62
256
6
ByLayer
370
18
48
1
60
0
100
AcDbLine
10
31.843886
20
-7.308872
30
0
11
31.85346
21
-7.425534
31
0
39
0
210
0
220
0
230
1
0
LINE
5
C4
100
AcDbEntity
8
1
62
256
6
ByLayer
370
18
48
1
60
0
100
AcDbLine
10
0.5
20
-25.425
30
0
11
0.5
21
24.927182
31
0
39
0
210
0
220
0
230
1
0
LINE
5
C5
100
AcDbEntity
8
1
62
256
6
ByLayer
370
18
48
1
60
0
100
AcDbLine
10
31.450656
20
-6.979324
30
0
11
31.846829
21
-7.466628
31
0
39
0
210
0
220
0
230
1
0
LINE
5
C6
100
AcDbEntity
8
1
62
256
6
ByLayer
370
18
48
1
60
0
100
AcDbLine
10
5.395718
20
24.951655
30
0
11
21.235586
21
16.026809
31
0
39
0
210
0
220
0
230
1
0
LINE
5
C7
100
AcDbEntity
8
1
62
256
6
ByLayer
370
18
48
1
60
0
100
AcDbLine
10
49.605038
20
-0.207348
30
0
11
28.976328
21
11.415731
31
0
39
0
210
0
220
0
230
1
0
LINE
5
C8
100
AcDbEntity
8
1
62
256
6
ByLayer
370
18
48
1
60
0
100
AcDbLine
10
22.031684
20
15.532869
30
0
11
25.907003
21
13.167867
31
0
39
0
210
0
220
0
230
1
0
LINE
5
C9
100
AcDbEntity
8
1
62
256
6
ByLayer
370
18
48
1
60
0
100
AcDbLine
10
27.610086
20
-32.646813
30
0
11
27.729937
21
-32.594619
31
0
39
0
210
0
220
0
230
1
0
LINE
5
CA
100
AcDbEntity
8
1
62
256
6
ByLayer
370
18
48
1
60
0
100
AcDbLine
10
22.802583
20
5.241986
30
0
11
25.907003
21
13.167867
31
0
39
0
210
0
220
0
230
1
0
LINE
5
CB
100
AcDbEntity
8
1
62
256
6
ByLayer
370
18
48
1
60
0
100
AcDbLine
10
31.843886
20
-7.308872
30
0
11
32.768853
21
-8.359993
31
0
39
0
210
0
220
0
230
1
0
LINE
5
CC
100
AcDbEntity
8
1
62
256
6
ByLayer
370
18
48
1
60
0
100
AcDbLine
10
1.319264
20
-28.482535
30
0
11
1.777895
21
-30.19417
31
0
39
0
210
0
220
0
230
1
0
LINE
5
CD
100
AcDbEntity
8
1
62
256
6
ByLayer
370
18
48
1
60
0
100
AcDbLine
10
1.777895
20
-30.19417
30
0
11
5.814846
21
-30.858194
31
0
39
0
210
0
220
0
230
1
0
LINE
5
CE
100
AcDbEntity
8
1
62
256
6
ByLayer
370
18
48
1
60
0
100
AcDbLine
10
31.436704
20
-6.809318
30
0
11
31.450656
21
-6.979324
31
0
39
0
210
0
220
0
230
1
0
LINE
5
CF
100
AcDbEntity
8
1
62
256
6
ByLayer
370
18
48
1
60
0
100
AcDbLine
10
29.183603
20
-5.31713
30
0
11
28.935789
21
-5.340154
31
0
39
0
210
0
220
0
230
1
0
LINE
5
D0
100
AcDbEntity
8
1
62
256
6
ByLayer
370
18
48
1
60
0
100
AcDbLine
10
27.610086
20
-32.646813
30
0
11
5.814846
21
-30.858194
31
0
39
0
210
0
220
0
230
1
0
LINE
5
D1
100
AcDbEntity
8
1
62
256
6
ByLayer
370
18
48
1
60
0
100
AcDbLine
10
31.845628
20
-7.451984
30
0
11
31.845846
21
-7.431577
31
0
39
0
210
0
220
0
230
1
0
LINE
5
D2
100
AcDbEntity
8
1
62
256
6
ByLayer
370
18
48
1
60
0
100
AcDbLine
10
31.845846
20
-7.431577
30
0
11
31.85346
21
-7.425534
31
0
39
0
210
0
220
0
230
1
0
LINE
5
D3
100
AcDbEntity
8
1
62
256
6
ByLayer
370
18
48
1
60
0
100
AcDbLine
10
31.835769
20
-7.308784
30
0
11
31.843886
21
-7.308872
31
0
39
0
210
0
220
0
230
1
0
LINE
5
D4
100
AcDbEntity
8
1
62
256
6
ByLayer
370
18
48
1
60
0
100
AcDbLine
10
31.835769
20
-7.308784
30
0
11
31.845846
21
-7.431577
31
0
39
0
210
0
220
0
230
1
0
LINE
5
D5
100
AcDbEntity
8
1
62
256
6
ByLayer
370
18
48
1
60
0
100
AcDbLine
10
5.395718
20
24.951655
30
0
11
2.095864
21
24.953169
31
0
39
0
210
0
220
0
230
1
0
LINE
5
D6
100
AcDbEntity
8
1
62
256
6
ByLayer
370
18
48
1
60
0
100
AcDbLine
10
50.400647
20
-9.902254
30
0
11
50.348465
21
-10.022251
31
0
39
0
210
0
220
0
230
1
0
LINE
5
D7
100
AcDbEntity
8
1
62
256
6
ByLayer
370
18
48
1
60
0
100
AcDbLine
10
0.5
20
24.927182
30
0
11
0
21
24.925
31
0
39
0
210
0
220
0
230
1
0
LINE
5
D8
100
AcDbEntity
8
1
62
256
6
ByLayer
370
18
48
1
60
0
100
AcDbLine
10
5.395718
20
24.951655
30
0
11
10.244924
21
24.707487
31
0
39
0
210
0
220
0
230
1
0
LINE
5
D9
100
AcDbEntity
8
1
62
256
6
ByLayer
370
18
48
1
60
0
100
AcDbLine
10
0.5
20
24.927182
30
0
11
2.095864
21
24.953169
31
0
39
0
210
0
220
0
230
1
0
LINE
5
DA
100
AcDbEntity
8
1
62
256
6
ByLayer
370
18
48
1
60
0
100
AcDbLine
10
32.770314
20
-8.377807
30
0
11
50.400647
21
-9.902254
31
0
39
0
210
0
220
0
230
1
0
LINE
5
DB
100
AcDbEntity
8
1
62
256
6
ByLayer
370
18
48
1
60
0
100
AcDbLine
10
31.845628
20
-7.451984
30
0
11
31.846829
21
-7.466628
31
0
39
0
210
0
220
0
230
1
0
LINE
5
DC
100
AcDbEntity
8
1
62
256
6
ByLayer
370
18
48
1
60
0
100
AcDbLine
10
0.695923
20
-26.156196
30
0
11
0.946094
21
-27.089844
31
0
39
0
210
0
220
0
230
1
0
LINE
5
DD
100
AcDbEntity
8
1
62
256
6
ByLayer
370
18
48
1
60
0
100
AcDbLine
10
0.5
20
-25.425
30
0
11
0
21
-24.925
31
0
39
0
210
0
220
0
230
1
0
LINE
5
DE
100
AcDbEntity
8
1
62
256
6
ByLayer
370
18
48
1
60
0
100
AcDbLine
10
32.768853
20
-8.359993
30
0
11
32.770314
21
-8.377807
31
0
39
0
210
0
220
0
230
1
0
LINE
5
DF
100
AcDbEntity
8
1
62
256
6
ByLayer
370
18
48
1
60
0
100
AcDbLine
10
10.244924
20
24.707487
30
0
11
43.905425
21
5.492264
31
0
39
0
210
0
220
0
230
1
0
LINE
5
E0
100
AcDbEntity
8
1
62
256
6
ByLayer
370
18
48
1
60
0
100
AcDbLine
10
0.695923
20
-26.156196
30
0
11
0.5
21
-25.425
31
0
39
0
210
0
220
0
230
1
0
LINE
5
E1
100
AcDbEntity
8
1
62
256
6
ByLayer
370
18
48
1
60
0
100
AcDbLine
10
49.605038
20
-0.207348
30
0
11
50.400647
21
-9.902254
31
0
39
0
210
0
220
0
230
1
0
LINE
5
E2
100
AcDbEntity
8
1
62
256
6
ByLayer
370
18
48
1
60
0
100
AcDbLine
10
31.272422
20
-6.807538
30
0
11
31.296557
21
-7.101638
31
0
39
0
210
0
220
0
230
1
0
LINE
5
E3
100
AcDbEntity
8
1
62
256
6
ByLayer
370
18
48
1
60
0
100
AcDbLine
10
0
20
-24.925
30
0
11
0
21
24.925
31
0
39
0
210
0
220
0
230
1
0
LINE
5
E4
100
AcDbEntity
8
1
62
256
6
ByLayer
370
18
48
1
60
0
100
AcDbLine
10
28.976328
20
11.415731
30
0
11
25.907003
21
13.167867
31
0
39
0
210
0
220
0
230
1
0
LINE
5
E5
100
AcDbEntity
8
1
62
256
6
ByLayer
370
18
48
1
60
0
100
AcDbLine
10
31.436704
20
-6.809318
30
0
11
31.831643
21
-7.258121
31
0
39
0
210
0
220
0
230
1
0
LINE
5
E6
100
AcDbEntity
8
1
62
256
6
ByLayer
370
18
48
1
60
0
100
AcDbLine
10
28.976328
20
11.415731
30
0
11
22.802583
21
5.241986
31
0
39
0
210
0
220
0
230
1
0
LINE
5
E7
100
AcDbEntity
8
1
62
256
6
ByLayer
370
18
48
1
60
0
100
AcDbLine
10
0.946094
20
-27.089844
30
0
11
1.30817
21
-28.441133
31
0
39
0
210
0
220
0
230
1
0
LINE
5
E8
100
AcDbEntity
8
1
62
256
6
ByLayer
370
18
48
1
60
0
100
AcDbLine
10
31.272422
20
-6.807538
30
0
11
31.436704
21
-6.809318
31
0
39
0
210
0
220
0
230
1
0
LINE
5
E9
100
AcDbEntity
8
1
62
256
6
ByLayer
370
18
48
1
60
0
100
AcDbLine
10
22.010892
20
15.553661
30
0
11
22.031684
21
15.532869
31
0
39
0
210
0
220
0
230
1
0
LINE
5
EA
100
AcDbEntity
8
SK1
62
256
6
ByLayer
370
18
48
1
60
0
100
AcDbLine
10
0
20
-24.925
30
0
11
-248.174654
21
-24.925
31
0
39
0
210
0
220
0
230
1
0
LINE
5
EC
100
AcDbEntity
8
SK1
62
256
6
ByLayer
370
18
48
1
60
0
100
AcDbLine
10
-248.174654
20
-24.925
30
0
11
-248.174654
21
24.925
31
0
39
0
210
0
220
0
230
1
0
LINE
5
ED
100
AcDbEntity
8
SK1
62
256
6
ByLayer
370
18
48
1
60
0
100
AcDbLine
10
0
20
-24.925
30
0
11
0
21
24.925
31
0
39
0
210
0
220
0
230
1
0
LINE
5
EE
100
AcDbEntity
8
SK1
62
256
6
ByLayer
370
18
48
1
60
0
100
AcDbLine
10
-248.174654
20
24.925
30
0
11
0
21
24.925
31
0
39
0
210
0
220
0
230
1
0
MTEXT
5
16E
100
AcDbEntity
8
SK6
62
256
6
ByLayer
370
18
48
1
60
0
100
AcDbMText
10
-111.624654
20
34.064073
30
0
210
0
220
0
230
1
1
\W0.7837;DCLNL 5050T 25
40
3.5
41
0
44
1.084337
50
0
71
7
72
5
7
iso_b_vert
0
DIMENSION
5
18E
100
AcDbEntity
8
2
62
256
6
ByLayer
370
13
48
1
60
0
100
AcDbDimension
2
DimnDraft3D2
10
49.602684
20
-35.335232
30
0
11
40.799587
21
-47.03017
31
0
70
34
71
5
72
1
41
1
210
0
220
0
230
1
3
Standard
100
AcDb2LineAngularDimension
13
53.175346
23
-35.425
33
0
14
53.175346
24
-30.6625
34
0
15
50.599334
25
-35.417022
35
0
16
37.490037
26
-50.079249
36
0
40
0
0
DIMENSION
5
1A3
100
AcDbEntity
8
2
62
256
6
ByLayer
370
13
48
1
60
0
100
AcDbDimension
2
DimnDraft3D3
10
75.425346
20
-35.425
30
0
11
75.425346
21
-10.531579
31
0
70
32
71
5
72
1
41
1
210
0
220
0
230
1
3
Standard
100
AcDbAlignedDimension
13
2
23
24.925
33
0
14
55.175346
24
-35.425
34
0
50
90
100
AcDbRotatedDimension
1001
ACAD
1000
DSTYLE
1002
{
1070
    74
1070
     0
1070
   279
1070
     0
1070
   172
1070
     1
1070
   173
1070
     1
1070
   340
1005
16F
1070
    77
1070
     1
1070
    73
1070
     0
1070
   171
1070
     3
1070
   274
1070
     4
1070
   177
1070
     2
1070
   176
1070
     2
1070
   178
1070
     7
1070
    78
1070
     8
1070
    41
1041
3.175
1070
   147
1041
2.25
1070
    42
1041
2.0
1070
    44
1041
2.0
1070
   140
1041
4.5
1070
   343
1005
18F
1070
   344
1005
18F
1002
}
0
DIMENSION
5
1B1
100
AcDbEntity
8
SK2
62
256
6
ByLayer
370
13
48
1
60
0
100
AcDbDimension
2
DimnDraft3D4
10
-255.924654
20
-24.925
30
0
11
-255.924654
21
-5.281579
31
0
70
32
71
5
72
1
41
1
210
0
220
0
230
1
3
Standard
100
AcDbAlignedDimension
13
-250.174654
23
24.925
33
0
14
-250.174654
24
-24.925
34
0
50
90
100
AcDbRotatedDimension
1001
ACAD
1000
DSTYLE
1002
{
1070
    74
1070
     0
1070
   279
1070
     0
1070
   172
1070
     1
1070
   173
1070
     1
1070
   340
1005
16F
1070
    77
1070
     1
1070
    73
1070
     0
1070
   171
1070
     3
1070
   274
1070
     4
1070
   177
1070
     2
1070
   176
1070
     2
1070
   178
1070
     7
1070
    78
1070
     8
1070
    41
1041
3.175
1070
   147
1041
2.25
1070
    42
1041
2.0
1070
    44
1041
2.0
1070
   140
1041
4.5
1070
   343
1005
18F
1070
   344
1005
18F
1002
}
0
DIMENSION
5
1BF
100
AcDbEntity
8
2
62
256
6
ByLayer
370
13
48
1
60
0
100
AcDbDimension
2
DimnDraft3D5
10
53.175346
20
-63.675
30
0
11
21.306094
21
-63.675
31
0
70
32
71
5
72
1
41
1
210
0
220
0
230
1
3
Standard
100
AcDbAlignedDimension
13
0
23
-26.925
33
0
14
53.175346
24
-37.425
34
0
50
0
100
AcDbRotatedDimension
1001
ACAD
1000
DSTYLE
1002
{
1070
   279
1070
     0
1070
   172
1070
     1
1070
   173
1070
     1
1070
   340
1005
16F
1070
    77
1070
     1
1070
    73
1070
     0
1070
   171
1070
     3
1070
   274
1070
     4
1070
   177
1070
     2
1070
   176
1070
     2
1070
   178
1070
     7
1070
    78
1070
     8
1070
    41
1041
3.175
1070
   147
1041
2.25
1070
    42
1041
2.0
1070
    44
1041
2.0
1070
   140
1041
4.5
1070
   343
1005
18F
1070
   344
1005
18F
1002
}
0
ENDSEC
0
SECTION
2
OBJECTS
0
DICTIONARY
5
229
330
0
100
AcDbDictionary
280
0
281
1
3
ACAD_GROUP
350
22a
3
ACAD_MLINESTYLE
350
22b
0
DICTIONARY
5
22a
330
0
100
AcDbDictionary
280
0
281
1
0
DICTIONARY
5
22b
330
0
100
AcDbDictionary
280
0
281
1
3
Standard
350
18
0
MLINESTYLE
5
18
330
22b
100
AcDbMlineStyle
2
Standard
70
0
3

62
256
51
90
52
90
71
2
49
-0.5
62
256
6
ByLayer
49
0.5
62
256
6
ByLayer
0
RASTERVARIABLES
5
218
330

100
AcDbRasterVariables
90
0
70
1
71
1
72
1
0
ENDSEC
0
EOF
