0
SECTION
2
HEADER
9
$ACADVER
1
AC1015
9
$DWGCODEPAGE
3
ANSI_1252
9
$HANDSEED
5
221
9
$ANGBASE
50
0
9
$ANGDIR
70
0
9
$ATTMODE
70
1
9
$AUNITS
70
0
9
$AUPREC
70
0
9
$CECOLOR
62
256
9
$CELTSCALE
40
1
9
$CELTYPE
6
ByLayer
9
$CELWEIGHT
370
18
9
$CLAYER
8
0
9
$CMLJUST
70
0
9
$CMLSCALE
40
1
9
$CMLSTYLE
2
Standard
9
$DIMSTYLE
2
Standard
9
$TEXTSIZE
40
0.2
9
$TEXTSTYLE
7
Standard
9
$LUNITS
70
2
9
$LUPREC
70
4
9
$EXTNAMES
290
1
9
$INSUNITS
70
4
9
$LTSCALE
40
1
9
$LWDISPLAY
290
1
9
$PDMODE
70
0
9
$PDSIZE
40
0
9
$PLINEGEN
70
0
0
ENDSEC
0
SECTION
2
CLASSES
0
CLASS
1
RASTERVARIABLES
2
AcDbRasterVariables
3
ISM
90
0
280
0
281
0
0
ENDSEC
0
SECTION
2
TABLES
0
TABLE
2
VPORT
5
217
100
AcDbSymbolTable
0
VPORT
5
1
100
AcDbSymbolTableRecord
100
AcDbViewportTableRecord
2
*Active
70
0
10
0
20
0
11
1
21
1
12
-1
22
1
13
0
23
0
14
0.5
24
0.5
15
10
25
10
16
0
26
0
36
1
17
0
27
0
37
0
0
ENDTAB
0
TABLE
2
LTYPE
5
218
100
AcDbSymbolTable
0
LTYPE
5
14
100
AcDbSymbolTableRecord
100
AcDbLinetypeTableRecord
70
0
2
ByBlock
3

72
65
73
0
40
0
0
LTYPE
5
15
100
AcDbSymbolTableRecord
100
AcDbLinetypeTableRecord
70
0
2
ByLayer
3

72
65
73
0
40
0
0
LTYPE
5
16
100
AcDbSymbolTableRecord
100
AcDbLinetypeTableRecord
70
0
2
CONTINUOUS
3
Solid line
72
65
73
0
40
0
0
LTYPE
5
6A
100
AcDbSymbolTableRecord
100
AcDbLinetypeTableRecord
70
0
2
CENTER
3
____ _ ____ _ ____ _ ____
72
65
73
4
40
47.5
49
22
74
0
49
-8.5
74
0
49
8.5
74
0
49
-8.5
74
0
0
LTYPE
5
6B
100
AcDbSymbolTableRecord
100
AcDbLinetypeTableRecord
70
0
2
DASHED
3
__ __ __ __ __ __ __ __ __
72
65
73
2
40
25.72
49
12.86
74
0
49
-12.86
74
0
0
ENDTAB
0
TABLE
2
LAYER
5
219
100
AcDbSymbolTable
0
LAYER
5
10
100
AcDbSymbolTableRecord
100
AcDbLayerTableRecord
2
0
70
0
62
7
6
CONTINUOUS
290
1
370
-3
390
0
0
LAYER
5
6D
100
AcDbSymbolTableRecord
100
AcDbLayerTableRecord
2
2
70
0
62
7
6
CONTINUOUS
290
1
370
-3
390
0
0
LAYER
5
6F
100
AcDbSymbolTableRecord
100
AcDbLayerTableRecord
2
80
70
0
62
-6
6
CONTINUOUS
290
1
370
-3
390
0
0
LAYER
5
71
100
AcDbSymbolTableRecord
100
AcDbLayerTableRecord
2
81
70
0
62
-3
6
CONTINUOUS
290
1
370
-3
390
0
0
LAYER
5
73
100
AcDbSymbolTableRecord
100
AcDbLayerTableRecord
2
1
70
0
62
4
6
CONTINUOUS
290
1
370
-3
390
0
0
LAYER
5
204
100
AcDbSymbolTableRecord
100
AcDbLayerTableRecord
2
SK1
70
0
62
4
6
CONTINUOUS
290
1
370
-3
390
0
0
LAYER
5
205
100
AcDbSymbolTableRecord
100
AcDbLayerTableRecord
2
SK6
70
0
62
5
6
CONTINUOUS
290
1
370
-3
390
0
0
LAYER
5
206
100
AcDbSymbolTableRecord
100
AcDbLayerTableRecord
2
SK2
70
0
62
7
6
CONTINUOUS
290
1
370
-3
390
0
0
ENDTAB
0
TABLE
2
STYLE
5
21a
100
AcDbSymbolTable
0
STYLE
5
11
100
AcDbSymbolTableRecord
100
AcDbTextStyleTableRecord
2
Standard
3
txt
70
0
71
0
40
0
41
1
42
0
50
0
0
STYLE
5
15A
100
AcDbSymbolTableRecord
100
AcDbTextStyleTableRecord
2
iso_b_vert
3
simplex.shx
70
0
71
0
40
0
41
1
42
0
50
0
0
STYLE
5
15B
100
AcDbSymbolTableRecord
100
AcDbTextStyleTableRecord
2
DWGDirectTextStyle
3
simplex
70
0
71
0
40
0
41
1
42
0
50
0
0
ENDTAB
0
TABLE
2
DIMSTYLE
5
21b
100
AcDbSymbolTable
100
AcDbDimStyleTable
0
DIMSTYLE
105
27
100
AcDbSymbolTableRecord
100
AcDbDimStyleTableRecord
2
Standard
70
0
3
<>
41
0.18
42
0.0625
44
0.18
140
0.18
147
0.09
73
0
74
0
77
1
271
2
275
0
278
52
280
0
340
11
0
ENDTAB
0
TABLE
2
VIEW
5
21c
100
AcDbSymbolTable
0
ENDTAB
0
TABLE
2
UCS
5
21d
100
AcDbSymbolTable
0
ENDTAB
0
TABLE
2
APPID
5
21e
100
AcDbSymbolTable
0
APPID
5
12
100
AcDbSymbolTableRecord
100
AcDbRegAppTableRecord
2
ACAD
70
0
0
ENDTAB
0
TABLE
2
BLOCK_RECORD
5
21f
100
AcDbSymbolTable
0
BLOCK_RECORD
5
1F
100
AcDbSymbolTableRecord
100
AcDbBlockTableRecord
2
*Model_Space
340
0
70
0
0
BLOCK_RECORD
5
1B
100
AcDbSymbolTableRecord
100
AcDbBlockTableRecord
2
*Paper_Space
340
0
70
0
0
BLOCK_RECORD
5
23
100
AcDbSymbolTableRecord
100
AcDbBlockTableRecord
2
*Paper_Space0
340
0
70
0
0
BLOCK_RECORD
5
15D
100
AcDbSymbolTableRecord
100
AcDbBlockTableRecord
2
DimnDraft3D11
340
0
70
0
0
BLOCK_RECORD
5
16C
100
AcDbSymbolTableRecord
100
AcDbBlockTableRecord
2
DimnDraft3D2
340
0
70
0
0
BLOCK_RECORD
5
17A
100
AcDbSymbolTableRecord
100
AcDbBlockTableRecord
2
_CLOSED
340
0
70
0
0
BLOCK_RECORD
5
181
100
AcDbSymbolTableRecord
100
AcDbBlockTableRecord
2
DimnDraft3D3
340
0
70
0
0
BLOCK_RECORD
5
18F
100
AcDbSymbolTableRecord
100
AcDbBlockTableRecord
2
DimnDraft3D4
340
0
70
0
0
BLOCK_RECORD
5
19D
100
AcDbSymbolTableRecord
100
AcDbBlockTableRecord
2
DimnDraft3D5
340
0
70
0
0
ENDTAB
0
ENDSEC
0
SECTION
2
BLOCKS
0
BLOCK
5
20
100
AcDbEntity
8
0
100
AcDbBlockBegin
2
*Model_Space
70
0
10
0
20
0
30
0
3
*Model_Space
0
ENDBLK
5
21
100
AcDbEntity
8
0
100
AcDbBlockEnd
0
BLOCK
5
1C
100
AcDbEntity
8
0
100
AcDbBlockBegin
2
*Paper_Space
70
0
10
0
20
0
30
0
3
*Paper_Space
0
ENDBLK
5
1D
100
AcDbEntity
8
0
100
AcDbBlockEnd
0
BLOCK
5
24
100
AcDbEntity
8
0
100
AcDbBlockBegin
2
*Paper_Space0
70
0
10
0
20
0
30
0
3
*Paper_Space0
0
ENDBLK
5
25
100
AcDbEntity
8
0
100
AcDbBlockEnd
0
BLOCK
5
15E
100
AcDbEntity
8
0
100
AcDbBlockBegin
2
DimnDraft3D11
70
0
10
0
20
0
30
0
3
DimnDraft3D11
0
LINE
5
160
100
AcDbEntity
8
SK2
62
256
6
ByLayer
370
25
48
1
60
0
100
AcDbLine
10
43.674858
20
-21.9125
30
0
11
43.674858
21
-60.1625
31
0
39
0
210
0
220
0
230
1
0
LINE
5
162
100
AcDbEntity
8
SK2
62
256
6
ByLayer
370
25
48
1
60
0
100
AcDbLine
10
-107.675142
20
-14.4375
30
0
11
-107.675142
21
-60.1625
31
0
39
0
210
0
220
0
230
1
0
LINE
5
163
100
AcDbEntity
8
SK2
62
256
6
ByLayer
370
25
48
1
60
0
100
AcDbLine
10
43.674858
20
-58.1625
30
0
11
-107.675142
21
-58.1625
31
0
39
0
210
0
220
0
230
1
0
LINE
5
164
100
AcDbEntity
8
SK2
62
256
6
ByLayer
370
25
48
1
60
0
100
AcDbLine
10
43.674858
20
-58.1625
30
0
11
40.499859
21
-58.580497
31
0
39
0
210
0
220
0
230
1
0
LINE
5
165
100
AcDbEntity
8
SK2
62
256
6
ByLayer
370
25
48
1
60
0
100
AcDbLine
10
43.674858
20
-58.1625
30
0
11
40.499856
21
-57.744503
31
0
39
0
210
0
220
0
230
1
0
LINE
5
166
100
AcDbEntity
8
SK2
62
256
6
ByLayer
370
25
48
1
60
0
100
AcDbLine
10
40.499859
20
-58.580497
30
0
11
40.499856
21
-57.744503
31
0
39
0
210
0
220
0
230
1
0
LINE
5
167
100
AcDbEntity
8
SK2
62
256
6
ByLayer
370
25
48
1
60
0
100
AcDbLine
10
-107.675142
20
-58.1625
30
0
11
-104.500144
21
-57.744503
31
0
39
0
210
0
220
0
230
1
0
LINE
5
168
100
AcDbEntity
8
SK2
62
256
6
ByLayer
370
25
48
1
60
0
100
AcDbLine
10
-107.675142
20
-58.1625
30
0
11
-104.500141
21
-58.580497
31
0
39
0
210
0
220
0
230
1
0
LINE
5
169
100
AcDbEntity
8
SK2
62
256
6
ByLayer
370
25
48
1
60
0
100
AcDbLine
10
-104.500144
20
-57.744503
30
0
11
-104.500141
21
-58.580497
31
0
39
0
210
0
220
0
230
1
0
MTEXT
5
16A
100
AcDbEntity
8
SK2
62
256
6
ByLayer
370
18
48
1
60
0
100
AcDbMText
10
-37.2758
20
-57.0375
30
0
210
0
220
0
230
1
1
\W0.6864;150.0
40
4.5
41
0
44
1.084337
50
0
71
7
72
5
7
iso_b_vert
0
ENDBLK
5
15F
100
AcDbEntity
8
0
100
AcDbBlockEnd
0
BLOCK
5
177
100
AcDbEntity
8
0
100
AcDbBlockBegin
2
DimnDraft3D2
70
0
10
0
20
0
30
0
3
DimnDraft3D2
0
MTEXT
5
16D
100
AcDbEntity
8
2
62
256
6
ByLayer
370
18
48
1
60
0
100
AcDbMText
10
26.786493
20
-31.604334
30
0
210
0
220
0
230
1
1
\W0.7399;95%%d
40
4.5
41
0
44
1.084337
50
312.65427684
71
7
72
5
7
iso_b_vert
0
LINE
5
16E
100
AcDbEntity
8
2
62
256
6
ByLayer
370
13
48
1
60
0
100
AcDbLine
10
43.674858
20
-21.9125
30
0
11
43.674858
21
-43.413006
31
0
39
0
210
0
220
0
230
1
0
LINE
5
16F
100
AcDbEntity
8
2
62
256
6
ByLayer
370
13
48
1
60
0
100
AcDbLine
10
39.396903
20
-19.663142
30
0
11
20.354457
21
-18.10043
31
0
39
0
210
0
220
0
230
1
0
ARC
5
170
100
AcDbEntity
8
2
62
256
6
ByLayer
370
13
48
1
60
0
100
AcDbCircle
39
0
10
43.674858
20
-20.014211
30
0
40
21.3987954573322
210
0
220
0
230
1
100
AcDbArc
50
175.308554
51
270
0
LINE
5
171
100
AcDbEntity
8
2
62
256
6
ByLayer
370
13
48
1
60
0
100
AcDbLine
10
43.674858
20
-41.413006
30
0
11
40.486562
21
-41.713188
31
0
39
0
210
0
220
0
230
1
0
LINE
5
172
100
AcDbEntity
8
2
62
256
6
ByLayer
370
13
48
1
60
0
100
AcDbLine
10
43.674858
20
-41.413006
30
0
11
40.517505
21
-40.877767
31
0
39
0
210
0
220
0
230
1
0
LINE
5
173
100
AcDbEntity
8
2
62
256
6
ByLayer
370
13
48
1
60
0
100
AcDbLine
10
40.486562
20
-41.713188
30
0
11
40.517505
21
-40.877767
31
0
39
0
210
0
220
0
230
1
0
LINE
5
174
100
AcDbEntity
8
2
62
256
6
ByLayer
370
13
48
1
60
0
100
AcDbLine
10
22.347756
20
-18.264009
30
0
11
22.622963
21
-21.454557
31
0
39
0
210
0
220
0
230
1
0
LINE
5
175
100
AcDbEntity
8
2
62
256
6
ByLayer
370
13
48
1
60
0
100
AcDbLine
10
22.347756
20
-18.264009
30
0
11
21.787811
21
-21.417074
31
0
39
0
210
0
220
0
230
1
0
LINE
5
176
100
AcDbEntity
8
2
62
256
6
ByLayer
370
13
48
1
60
0
100
AcDbLine
10
22.622963
20
-21.454557
30
0
11
21.787811
21
-21.417074
31
0
39
0
210
0
220
0
230
1
0
ENDBLK
5
178
100
AcDbEntity
8
0
100
AcDbBlockEnd
0
BLOCK
5
17B
100
AcDbEntity
8
0
100
AcDbBlockBegin
2
_CLOSED
70
0
10
0
20
0
30
0
3
_CLOSED
0
LINE
5
17D
100
AcDbEntity
8
0
62
256
6
ByLayer
370
-2
48
1
60
0
100
AcDbLine
10
-1
20
0.166667
30
0
11
0
21
0
31
0
39
0
210
0
220
0
230
1
0
LINE
5
17E
100
AcDbEntity
8
0
62
256
6
ByLayer
370
-2
48
1
60
0
100
AcDbLine
10
0
20
0
30
0
11
-1
21
-0.166667
31
0
39
0
210
0
220
0
230
1
0
LINE
5
17F
100
AcDbEntity
8
0
62
256
6
ByLayer
370
-2
48
1
60
0
100
AcDbLine
10
-1
20
0.166667
30
0
11
-1
21
-0.166667
31
0
39
0
210
0
220
0
230
1
0
LINE
5
180
100
AcDbEntity
8
0
62
256
6
ByLayer
370
-2
48
1
60
0
100
AcDbLine
10
0
20
0
30
0
11
-1
21
0
31
0
39
0
210
0
220
0
230
1
0
ENDBLK
5
17C
100
AcDbEntity
8
0
100
AcDbBlockEnd
0
BLOCK
5
18C
100
AcDbEntity
8
0
100
AcDbBlockBegin
2
DimnDraft3D3
70
0
10
0
20
0
30
0
3
DimnDraft3D3
0
MTEXT
5
182
100
AcDbEntity
8
2
62
256
6
ByLayer
370
18
48
1
60
0
100
AcDbMText
10
17.444008
20
-47.0375
30
0
210
0
220
0
230
1
1
\W0.7640;43.7
40
4.5
41
0
44
1.084337
50
0
71
7
72
5
7
iso_b_vert
0
LINE
5
183
100
AcDbEntity
8
2
62
256
6
ByLayer
370
13
48
1
60
0
100
AcDbLine
10
0
20
-14.4375
30
0
11
0
21
-50.1625
31
0
39
0
210
0
220
0
230
1
0
LINE
5
184
100
AcDbEntity
8
2
62
256
6
ByLayer
370
13
48
1
60
0
100
AcDbLine
10
43.674858
20
-21.9125
30
0
11
43.674858
21
-50.1625
31
0
39
0
210
0
220
0
230
1
0
LINE
5
185
100
AcDbEntity
8
2
62
256
6
ByLayer
370
13
48
1
60
0
100
AcDbLine
10
0
20
-48.1625
30
0
11
43.674858
21
-48.1625
31
0
39
0
210
0
220
0
230
1
0
LINE
5
186
100
AcDbEntity
8
2
62
256
6
ByLayer
370
13
48
1
60
0
100
AcDbLine
10
0
20
-48.1625
30
0
11
3.174998
21
-47.744503
31
0
39
0
210
0
220
0
230
1
0
LINE
5
187
100
AcDbEntity
8
2
62
256
6
ByLayer
370
13
48
1
60
0
100
AcDbLine
10
0
20
-48.1625
30
0
11
3.175002
21
-48.580497
31
0
39
0
210
0
220
0
230
1
0
LINE
5
188
100
AcDbEntity
8
2
62
256
6
ByLayer
370
13
48
1
60
0
100
AcDbLine
10
3.174998
20
-47.744503
30
0
11
3.175002
21
-48.580497
31
0
39
0
210
0
220
0
230
1
0
LINE
5
189
100
AcDbEntity
8
2
62
256
6
ByLayer
370
13
48
1
60
0
100
AcDbLine
10
43.674858
20
-48.1625
30
0
11
40.499859
21
-48.580497
31
0
39
0
210
0
220
0
230
1
0
LINE
5
18A
100
AcDbEntity
8
2
62
256
6
ByLayer
370
13
48
1
60
0
100
AcDbLine
10
43.674858
20
-48.1625
30
0
11
40.499856
21
-47.744503
31
0
39
0
210
0
220
0
230
1
0
LINE
5
18B
100
AcDbEntity
8
2
62
256
6
ByLayer
370
13
48
1
60
0
100
AcDbLine
10
40.499859
20
-48.580497
30
0
11
40.499856
21
-47.744503
31
0
39
0
210
0
220
0
230
1
0
ENDBLK
5
18D
100
AcDbEntity
8
0
100
AcDbBlockEnd
0
BLOCK
5
19A
100
AcDbEntity
8
0
100
AcDbBlockBegin
2
DimnDraft3D4
70
0
10
0
20
0
30
0
3
DimnDraft3D4
0
MTEXT
5
190
100
AcDbEntity
8
2
62
256
6
ByLayer
370
18
48
1
60
0
100
AcDbMText
10
64.799858
20
-7.894079
30
0
210
0
220
0
230
1
1
\W0.7346;32.0
40
4.5
41
0
44
1.084337
50
90
71
7
72
5
7
iso_b_vert
0
LINE
5
191
100
AcDbEntity
8
2
62
256
6
ByLayer
370
13
48
1
60
0
100
AcDbLine
10
2
20
12.4375
30
0
11
67.924857
21
12.4375
31
0
39
0
210
0
220
0
230
1
0
LINE
5
192
100
AcDbEntity
8
2
62
256
6
ByLayer
370
13
48
1
60
0
100
AcDbLine
10
45.674857
20
-19.9125
30
0
11
67.924857
21
-19.9125
31
0
39
0
210
0
220
0
230
1
0
LINE
5
193
100
AcDbEntity
8
2
62
256
6
ByLayer
370
13
48
1
60
0
100
AcDbLine
10
65.924858
20
12.4375
30
0
11
65.924858
21
-19.9125
31
0
39
0
210
0
220
0
230
1
0
LINE
5
194
100
AcDbEntity
8
2
62
256
6
ByLayer
370
13
48
1
60
0
100
AcDbLine
10
65.924858
20
12.4375
30
0
11
66.342854
21
9.262502
31
0
39
0
210
0
220
0
230
1
0
LINE
5
195
100
AcDbEntity
8
2
62
256
6
ByLayer
370
13
48
1
60
0
100
AcDbLine
10
65.924858
20
12.4375
30
0
11
65.506861
21
9.262498
31
0
39
0
210
0
220
0
230
1
0
LINE
5
196
100
AcDbEntity
8
2
62
256
6
ByLayer
370
13
48
1
60
0
100
AcDbLine
10
66.342854
20
9.262502
30
0
11
65.506861
21
9.262498
31
0
39
0
210
0
220
0
230
1
0
LINE
5
197
100
AcDbEntity
8
2
62
256
6
ByLayer
370
13
48
1
60
0
100
AcDbLine
10
65.924858
20
-19.9125
30
0
11
65.506861
21
-16.737502
31
0
39
0
210
0
220
0
230
1
0
LINE
5
198
100
AcDbEntity
8
2
62
256
6
ByLayer
370
13
48
1
60
0
100
AcDbLine
10
65.924858
20
-19.9125
30
0
11
66.342854
21
-16.737498
31
0
39
0
210
0
220
0
230
1
0
LINE
5
199
100
AcDbEntity
8
2
62
256
6
ByLayer
370
13
48
1
60
0
100
AcDbLine
10
65.506861
20
-16.737502
30
0
11
66.342854
21
-16.737498
31
0
39
0
210
0
220
0
230
1
0
ENDBLK
5
19B
100
AcDbEntity
8
0
100
AcDbBlockEnd
0
BLOCK
5
1A8
100
AcDbEntity
8
0
100
AcDbBlockBegin
2
DimnDraft3D5
70
0
10
0
20
0
30
0
3
DimnDraft3D5
0
MTEXT
5
19E
100
AcDbEntity
8
SK2
62
256
6
ByLayer
370
18
48
1
60
0
100
AcDbMText
10
-116.550142
20
-4.156579
30
0
210
0
220
0
230
1
1
\W0.7346;25.0
40
4.5
41
0
44
1.084337
50
90
71
7
72
5
7
iso_b_vert
0
LINE
5
19F
100
AcDbEntity
8
SK2
62
256
6
ByLayer
370
13
48
1
60
0
100
AcDbLine
10
-109.675142
20
12.4375
30
0
11
-117.425142
21
12.4375
31
0
39
0
210
0
220
0
230
1
0
LINE
5
1A0
100
AcDbEntity
8
SK2
62
256
6
ByLayer
370
13
48
1
60
0
100
AcDbLine
10
-109.675142
20
-12.4375
30
0
11
-117.425142
21
-12.4375
31
0
39
0
210
0
220
0
230
1
0
LINE
5
1A1
100
AcDbEntity
8
SK2
62
256
6
ByLayer
370
13
48
1
60
0
100
AcDbLine
10
-115.425142
20
12.4375
30
0
11
-115.425142
21
-12.4375
31
0
39
0
210
0
220
0
230
1
0
LINE
5
1A2
100
AcDbEntity
8
SK2
62
256
6
ByLayer
370
13
48
1
60
0
100
AcDbLine
10
-115.425142
20
12.4375
30
0
11
-115.007146
21
9.262502
31
0
39
0
210
0
220
0
230
1
0
LINE
5
1A3
100
AcDbEntity
8
SK2
62
256
6
ByLayer
370
13
48
1
60
0
100
AcDbLine
10
-115.425142
20
12.4375
30
0
11
-115.843139
21
9.262498
31
0
39
0
210
0
220
0
230
1
0
LINE
5
1A4
100
AcDbEntity
8
SK2
62
256
6
ByLayer
370
13
48
1
60
0
100
AcDbLine
10
-115.007146
20
9.262502
30
0
11
-115.843139
21
9.262498
31
0
39
0
210
0
220
0
230
1
0
LINE
5
1A5
100
AcDbEntity
8
SK2
62
256
6
ByLayer
370
13
48
1
60
0
100
AcDbLine
10
-115.425142
20
-12.4375
30
0
11
-115.843139
21
-9.262502
31
0
39
0
210
0
220
0
230
1
0
LINE
5
1A6
100
AcDbEntity
8
SK2
62
256
6
ByLayer
370
13
48
1
60
0
100
AcDbLine
10
-115.425142
20
-12.4375
30
0
11
-115.007146
21
-9.262498
31
0
39
0
210
0
220
0
230
1
0
LINE
5
1A7
100
AcDbEntity
8
SK2
62
256
6
ByLayer
370
13
48
1
60
0
100
AcDbLine
10
-115.843139
20
-9.262502
30
0
11
-115.007146
21
-9.262498
31
0
39
0
210
0
220
0
230
1
0
ENDBLK
5
1A9
100
AcDbEntity
8
0
100
AcDbBlockEnd
0
ENDSEC
0
SECTION
2
ENTITIES
0
ELLIPSE
5
CA
100
AcDbEntity
8
1
62
256
6
ByLayer
370
18
48
1
60
0
100
AcDbEllipse
10
9.001025
20
-0.165207
30
0
11
2.0817652655485
21
2.16015123988016
31
0
210
0
220
0
230
1
40
0.986455
41
0.060874281496436
42
0.156280282981037
0
ELLIPSE
5
CB
100
AcDbEntity
8
1
62
256
6
ByLayer
370
18
48
1
60
0
100
AcDbEllipse
10
18.818894
20
0.304615
30
0
11
-3.57369703919159
21
-3.70825962846094
31
0
210
0
220
0
230
1
40
0.986455
41
0.156280282981034
42
-3.13807235399526
0
ELLIPSE
5
CC
100
AcDbEntity
8
1
62
256
6
ByLayer
370
18
48
1
60
0
100
AcDbEllipse
10
32.655783
20
-8.893426
30
0
11
-2.82842712474784
21
-2.8284271247349
31
0
210
0
220
0
230
1
40
0.989133
41
2.87190080531257
42
-0.769008644197909
0
ELLIPSE
5
CD
100
AcDbEntity
8
1
62
256
6
ByLayer
370
18
48
1
60
0
100
AcDbEllipse
10
32.655783
20
-8.893426
30
0
11
-2.82842712474784
21
-2.8284271247349
31
0
210
0
220
0
230
1
40
0.989133
41
2.64835685159147
42
2.87190080531257
0
ELLIPSE
5
CE
100
AcDbEntity
8
1
62
256
6
ByLayer
370
18
48
1
60
0
100
AcDbEllipse
10
18.198862
20
2.267621
30
0
11
-0.318198051534674
21
-0.318198051533219
31
0
210
0
220
0
230
1
40
0.989133
41
2.42314011518003
42
2.796233736612
0
ELLIPSE
5
CF
100
AcDbEntity
8
1
62
256
6
ByLayer
370
18
48
1
60
0
100
AcDbEllipse
10
18.005382
20
0.857742
30
0
11
0.989949493663428
21
0.989949493658905
31
0
210
0
220
0
230
1
40
0.989133
41
-3.1124406460199
42
-0.136076033446261
0
ELLIPSE
5
D0
100
AcDbEntity
8
1
62
256
6
ByLayer
370
18
48
1
60
0
100
AcDbEllipse
10
18.062561
20
0.800563
30
0
11
0.989949493663428
21
0.989949493658905
31
0
210
0
220
0
230
1
40
0.989133
41
2.67069007507048
42
-3.05866088756549
0
ELLIPSE
5
D1
100
AcDbEntity
8
1
62
256
6
ByLayer
370
18
48
1
60
0
100
AcDbEllipse
10
18.062561
20
0.800563
30
0
11
0.989949493663428
21
0.989949493658905
31
0
210
0
220
0
230
1
40
0.989133
41
1.48318760704214
42
2.09709658756534
0
ELLIPSE
5
D2
100
AcDbEntity
8
1
62
256
6
ByLayer
370
18
48
1
60
0
100
AcDbEllipse
10
18.062561
20
0.800563
30
0
11
0.989949493663428
21
0.989949493658905
31
0
210
0
220
0
230
1
40
0.989133
41
0.266134084374549
42
0.84519985950696
0
ELLIPSE
5
D3
100
AcDbEntity
8
1
62
256
6
ByLayer
370
18
48
1
60
0
100
AcDbEllipse
10
18.062561
20
0.800563
30
0
11
0.989949493663428
21
0.989949493658905
31
0
210
0
220
0
230
1
40
0.989133
41
-0.781063466822045
42
-0.106742054852216
0
ELLIPSE
5
D4
100
AcDbEntity
8
1
62
256
6
ByLayer
370
18
48
1
60
0
100
AcDbEllipse
10
16.725115
20
0.171199
30
0
11
-0.318198051534674
21
-0.318198051533219
31
0
210
0
220
0
230
1
40
0.989133
41
0.345369760549657
42
1.06751838880863
0
ELLIPSE
5
D5
100
AcDbEntity
8
1
62
256
6
ByLayer
370
18
48
1
60
0
100
AcDbEllipse
10
19.400007
20
1.429928
30
0
11
-0.318198051534674
21
-0.318198051533219
31
0
210
0
220
0
230
1
40
0.989133
41
1.37594256398336
42
2.79615610031133
0
ELLIPSE
5
D6
100
AcDbEntity
8
1
62
256
6
ByLayer
370
18
48
1
60
0
100
AcDbEllipse
10
17.92626
20
-0.666495
30
0
11
-0.318198051534674
21
-0.318198051533219
31
0
210
0
220
0
230
1
40
0.989133
41
0.345401656471
42
2.11471594000521
0
ELLIPSE
5
D7
100
AcDbEntity
8
1
62
256
6
ByLayer
370
18
48
1
60
0
100
AcDbEllipse
10
19.921818
20
0.647984
30
0
11
0.353553390594082
21
0.353553390592466
31
0
210
0
220
0
230
1
40
0.989133
41
2.52793907665044
42
3.14158599185623
0
ELLIPSE
5
D8
100
AcDbEntity
8
1
62
256
6
ByLayer
370
18
48
1
60
0
100
AcDbEllipse
10
19.263706
20
-0.03713
30
0
11
-0.318198051534674
21
-0.318198051533219
31
0
210
0
220
0
230
1
40
0.989133
41
0.32874501278679
42
3.11202227657911
0
ELLIPSE
5
D9
100
AcDbEntity
8
1
62
256
6
ByLayer
370
18
48
1
60
0
100
AcDbEllipse
10
17.963797
20
0.899327
30
0
11
3.53553390594081
21
3.53553390592466
31
0
210
0
220
0
230
1
40
0.989133
41
0.790861284618483
42
3.14158700741869
0
ELLIPSE
5
DA
100
AcDbEntity
8
1
62
256
6
ByLayer
370
18
48
1
60
0
100
AcDbEllipse
10
17.963797
20
0.899327
30
0
11
3.53553390594081
21
3.53553390592466
31
0
210
0
220
0
230
1
40
0.989133
41
9.2434868593802E-05
42
0.790861284618483
0
ELLIPSE
5
DB
100
AcDbEntity
8
1
62
256
6
ByLayer
370
18
48
1
60
0
100
AcDbEllipse
10
33.421981
20
-9.659623
30
0
11
2.80721392131701
21
2.80721392130418
31
0
210
0
220
0
230
1
40
0.989133
41
-2.83863107348848
42
-1.35708255929548E-15
0
ELLIPSE
5
DC
100
AcDbEntity
8
1
62
256
6
ByLayer
370
18
48
1
60
0
100
AcDbEllipse
10
33.421981
20
-9.659623
30
0
11
2.80721392131701
21
2.80721392130418
31
0
210
0
220
0
230
1
40
0.989133
41
0
42
0.04770721104312
0
ELLIPSE
5
DD
100
AcDbEntity
8
1
62
256
6
ByLayer
370
18
48
1
60
0
100
AcDbEllipse
10
32.761824
20
-8.999467
30
0
11
2.80721392131701
21
2.80721392130418
31
0
210
0
220
0
230
1
40
0.989133
41
-0.511005347755206
42
-0.227771156160714
0
ELLIPSE
5
DE
100
AcDbEntity
8
1
62
256
6
ByLayer
370
18
48
1
60
0
100
AcDbEllipse
10
25.069023
20
-16.692268
30
0
11
0.842164176395102
21
0.842164176391254
31
0
210
0
220
0
230
1
40
0.989133
41
2.80864914159912
42
3.14159259036298
0
ELLIPSE
5
DF
100
AcDbEntity
8
1
62
256
6
ByLayer
370
18
48
1
60
0
100
AcDbEllipse
10
40.454626
20
-1.306665
30
0
11
0.842164176395102
21
0.842164176391254
31
0
210
0
220
0
230
1
40
0.989133
41
0
42
0.33294338568599
0
ELLIPSE
5
E0
100
AcDbEntity
8
1
62
256
6
ByLayer
370
18
48
1
60
0
100
AcDbEllipse
10
41.114782
20
-1.966822
30
0
11
-0.842164176395104
21
-0.842164176391253
31
0
210
0
220
0
230
1
40
0.989133
41
2.44346095279208
42
-2.44346095279206
0
ELLIPSE
5
E1
100
AcDbEntity
8
1
62
256
6
ByLayer
370
18
48
1
60
0
100
AcDbEllipse
10
25.729179
20
-17.352425
30
0
11
-0.842164176395104
21
-0.842164176391253
31
0
210
0
220
0
230
1
40
0.989133
41
-0.698131700797745
42
0.69813170079772
0
ELLIPSE
5
E2
100
AcDbEntity
8
1
62
256
6
ByLayer
370
18
48
1
60
0
100
AcDbEllipse
10
42.490276
20
-18.727919
30
0
11
-0.842164176395104
21
-0.842164176391253
31
0
210
0
220
0
230
1
40
0.989133
41
0.698131700797739
42
2.44346095279204
0
ELLIPSE
5
E3
100
AcDbEntity
8
1
62
256
6
ByLayer
370
18
48
1
60
0
100
AcDbEllipse
10
33.901721
20
-10.104983
30
0
11
-3.25997081239321
21
-1.65432299836847
31
0
210
0
220
0
230
1
40
0.828517
41
1.6755369400123
42
1.96427860548109
0
ELLIPSE
5
E4
100
AcDbEntity
8
1
62
256
6
ByLayer
370
18
48
1
60
0
100
AcDbEllipse
10
17.067796
20
8.814738
30
0
11
-1.1154325048345
21
4.4394716263611
31
0
210
0
220
0
230
1
40
0.611396
41
-0.61289471023765
42
-0.433588506855627
0
ELLIPSE
5
E5
100
AcDbEntity
8
1
62
256
6
ByLayer
370
18
48
1
60
0
100
AcDbEllipse
10
16.510378
20
5.693519
30
0
11
5.31754833543629
21
-3.73813853412347
31
0
210
0
220
0
230
1
40
0.02553
41
-2.32074655325947
42
-1.93922187042787
0
ELLIPSE
5
E6
100
AcDbEntity
8
1
62
256
6
ByLayer
370
18
48
1
60
0
100
AcDbEllipse
10
33.901721
20
-10.104983
30
0
11
-1.0770885957255
21
-3.56986581487394
31
0
210
0
220
0
230
1
40
0.834354
41
1.36991025336308
42
1.65865191880344
0
ELLIPSE
5
E7
100
AcDbEntity
8
1
62
256
6
ByLayer
370
18
48
1
60
0
100
AcDbEllipse
10
7.826969
20
0.996011
30
0
11
-3.08205525306168
21
-1.66308325902537
31
0
210
0
220
0
230
1
40
0.99535
41
-1.10568333559443
42
0.08467280491622
0
ELLIPSE
5
E8
100
AcDbEntity
8
1
62
256
6
ByLayer
370
18
48
1
60
0
100
AcDbEllipse
10
18.335691
20
8.29005
30
0
11
-5.08661641031454
21
4.06352952022035
31
0
210
0
220
0
230
1
40
0.382274
41
0.649847379370146
42
0.719077445293125
0
ELLIPSE
5
E9
100
AcDbEntity
8
1
62
256
6
ByLayer
370
18
48
1
60
0
100
AcDbEllipse
10
11.235599
20
-1.809918
30
0
11
-5.53662856783774
21
3.42434175930488
31
0
210
0
220
0
230
1
40
0.331421
41
-0.715123712280738
42
-0.64589364558445
0
ELLIPSE
5
EA
100
AcDbEntity
8
1
62
256
6
ByLayer
370
18
48
1
60
0
100
AcDbEllipse
10
9.074388
20
1.122506
30
0
11
0.052443462578197
21
1.99931230257627
31
0
210
0
220
0
230
1
40
0.711364
41
1.14698729841802
42
2.47309973747833
0
ELLIPSE
5
EB
100
AcDbEntity
8
1
62
256
6
ByLayer
370
18
48
1
60
0
100
AcDbEllipse
10
13.163708
20
15.980973
30
0
11
5.72659051508523
21
-4.02568765213297
31
0
210
0
220
0
230
1
40
0.02553
41
0.808573903783176
42
0.85456220982516
0
ELLIPSE
5
EC
100
AcDbEntity
8
1
62
256
6
ByLayer
370
18
48
1
60
0
100
AcDbEllipse
10
19.451006
20
9.643251
30
0
11
-3.39906683539996
21
2.97661128666446
31
0
210
0
220
0
230
1
40
0.538248
41
-0.486682321125052
42
0.753092446711519
0
ELLIPSE
5
ED
100
AcDbEntity
8
1
62
256
6
ByLayer
370
18
48
1
60
0
100
AcDbEllipse
10
14.760098
20
9.210499
30
0
11
1.89187077822314
21
0.648710226915973
31
0
210
0
220
0
230
1
40
0.690582
41
0.727308193800873
42
2.0534206328612
0
ELLIPSE
5
EE
100
AcDbEntity
8
1
62
256
6
ByLayer
370
18
48
1
60
0
100
AcDbEllipse
10
10.168866
20
-0.999074
30
0
11
-4.4253636625618
21
-0.0102968650091714
31
0
210
0
220
0
230
1
40
0.592583
41
0.522562806906608
42
0.701869010315754
0
ELLIPSE
5
EF
100
AcDbEntity
8
1
62
256
6
ByLayer
370
18
48
1
60
0
100
AcDbEllipse
10
14.725898
20
10.809823
30
0
11
-3.08205525307239
21
-1.66308325900626
31
0
210
0
220
0
230
1
40
0.99535
41
-2.29603947609871
42
-1.10568333558807
0
ELLIPSE
5
F0
100
AcDbEntity
8
1
62
256
6
ByLayer
370
18
48
1
60
0
100
AcDbEllipse
10
10.312935
20
-3.355769
30
0
11
-3.93441295159965
21
2.21878390030903
31
0
210
0
220
0
230
1
40
0.487866
41
-0.744146155174504
42
0.49562861266211
0
ELLIPSE
5
F1
100
AcDbEntity
8
1
62
256
6
ByLayer
370
18
48
1
60
0
100
AcDbEllipse
10
13.060913
20
0.786613
30
0
11
5.31754833543629
21
-3.73813853412347
31
0
210
0
220
0
230
1
40
0.02553
41
-2.32074655325951
42
-1.93922187042784
0
ELLIPSE
5
F2
100
AcDbEntity
8
1
62
256
6
ByLayer
370
18
48
1
60
0
100
AcDbEllipse
10
17.196315
20
-0.947972
30
0
11
0.353553390594082
21
0.353553390592466
31
0
210
0
220
0
230
1
40
0.989133
41
0.553556736781948
42
1.06751838880867
0
ELLIPSE
5
F3
100
AcDbEntity
8
1
62
256
6
ByLayer
370
18
48
1
60
0
100
AcDbEllipse
10
16.416426
20
0.740021
30
0
11
0.353553390594082
21
0.353553390592466
31
0
210
0
220
0
230
1
40
0.989133
41
-0.493640814414634
42
0.0203208376120746
0
ELLIPSE
5
F4
100
AcDbEntity
8
1
62
256
6
ByLayer
370
18
48
1
60
0
100
AcDbEllipse
10
18.275682
20
0.587442
30
0
11
-1.76776695297041
21
-1.76776695296233
31
0
210
0
220
0
230
1
40
0.989133
41
0
42
6.28318530717959
0
ELLIPSE
5
F5
100
AcDbEntity
8
1
62
256
6
ByLayer
370
18
48
1
60
0
100
AcDbEllipse
10
19.613128
20
1.216807
30
0
11
-0.318198051534674
21
-0.318198051533219
31
0
210
0
220
0
230
1
40
0.989133
41
1.37594256398339
42
-2.07407426478119
0
ELLIPSE
5
F6
100
AcDbEntity
8
1
62
256
6
ByLayer
370
18
48
1
60
0
100
AcDbEllipse
10
18.271181
20
0.591944
30
0
11
0.989949493663428
21
0.989949493658905
31
0
210
0
220
0
230
1
40
0.989133
41
0.0829317660243156
42
0.266134084374965
0
ELLIPSE
5
F7
100
AcDbEntity
8
1
62
256
6
ByLayer
370
18
48
1
60
0
100
AcDbEllipse
10
18.275682
20
0.587442
30
0
11
1.00762716319313
21
1.00762716318853
31
0
210
0
220
0
230
1
40
0.989133
41
0.044336020941633
42
0.304729829457256
0
ELLIPSE
5
F8
100
AcDbEntity
8
1
62
256
6
ByLayer
370
18
48
1
60
0
100
AcDbEllipse
10
18.062561
20
0.800563
30
0
11
0.989949493663428
21
0.989949493658905
31
0
210
0
220
0
230
1
40
0.989133
41
-1.82826101801866
42
-0.9642657851723
0
ELLIPSE
5
F9
100
AcDbEntity
8
1
62
256
6
ByLayer
370
18
48
1
60
0
100
AcDbEllipse
10
20.134939
20
0.434863
30
0
11
0.353553390594082
21
0.353553390592466
31
0
210
0
220
0
230
1
40
0.989133
41
2.64795183917513
42
-3.12127181597775
0
ELLIPSE
5
FA
100
AcDbEntity
8
1
62
256
6
ByLayer
370
18
48
1
60
0
100
AcDbEllipse
10
19.921818
20
0.647984
30
0
11
0.353553390594082
21
0.353553390592466
31
0
210
0
220
0
230
1
40
0.989133
41
1.37594256398341
42
2.00991697853485
0
ELLIPSE
5
FB
100
AcDbEntity
8
1
62
256
6
ByLayer
370
18
48
1
60
0
100
AcDbEllipse
10
17.495793
20
2.275435
30
0
11
0.353553390594082
21
0.353553390592466
31
0
210
0
220
0
230
1
40
0.989133
41
-1.54083836561121
42
-1.02687671358454
0
ELLIPSE
5
FC
100
AcDbEntity
8
1
62
256
6
ByLayer
370
18
48
1
60
0
100
AcDbEllipse
10
18.84245
20
-0.88743
30
0
11
0.353553390594082
21
0.353553390592466
31
0
210
0
220
0
230
1
40
0.989133
41
0.328745012786809
42
0.962719427338289
0
ELLIPSE
5
FD
100
AcDbEntity
8
1
62
256
6
ByLayer
370
18
48
1
60
0
100
AcDbEllipse
10
18.271181
20
0.591944
30
0
11
0.989949493663428
21
0.989949493658905
31
0
210
0
220
0
230
1
40
0.989133
41
-0.964265785172316
42
-0.78106346682206
0
ELLIPSE
5
FE
100
AcDbEntity
8
1
62
256
6
ByLayer
370
18
48
1
60
0
100
AcDbEllipse
10
19.476827
20
-0.250251
30
0
11
-0.318198051534674
21
-0.318198051533219
31
0
210
0
220
0
230
1
40
0.989133
41
0.328745012786869
42
-3.12127181597777
0
ELLIPSE
5
FF
100
AcDbEntity
8
1
62
256
6
ByLayer
370
18
48
1
60
0
100
AcDbEllipse
10
17.196315
20
-0.947972
30
0
11
0.353553390594082
21
0.353553390592466
31
0
210
0
220
0
230
1
40
0.989133
41
-0.718452538409746
42
-0.204490886383075
0
ELLIPSE
5
100
100
AcDbEntity
8
1
62
256
6
ByLayer
370
18
48
1
60
0
100
AcDbEllipse
10
18.062561
20
0.800563
30
0
11
0.989949493663428
21
0.989949493658905
31
0
210
0
220
0
230
1
40
0.989133
41
-2.87545856921524
42
-2.01146333636888
0
ELLIPSE
5
101
100
AcDbEntity
8
1
62
256
6
ByLayer
370
18
48
1
60
0
100
AcDbEllipse
10
19.055571
20
-1.100551
30
0
11
0.353553390594082
21
0.353553390592466
31
0
210
0
220
0
230
1
40
0.989133
41
0.328745012786783
42
0.842706664813526
0
ELLIPSE
5
102
100
AcDbEntity
8
1
62
256
6
ByLayer
370
18
48
1
60
0
100
AcDbEllipse
10
18.271181
20
0.591944
30
0
11
0.989949493663428
21
0.989949493658905
31
0
210
0
220
0
230
1
40
0.989133
41
2.17732686841752
42
2.36052918676774
0
ELLIPSE
5
103
100
AcDbEntity
8
1
62
256
6
ByLayer
370
18
48
1
60
0
100
AcDbEllipse
10
18.275682
20
0.587442
30
0
11
1.00762716319313
21
1.00762716318853
31
0
210
0
220
0
230
1
40
0.989133
41
2.13873112333484
42
2.39912493185046
0
ELLIPSE
5
104
100
AcDbEntity
8
1
62
256
6
ByLayer
370
18
48
1
60
0
100
AcDbEllipse
10
18.275682
20
0.587442
30
0
11
1.00762716319313
21
1.00762716318853
31
0
210
0
220
0
230
1
40
0.989133
41
-1.00286153025497
42
-0.742467721739337
0
ELLIPSE
5
105
100
AcDbEntity
8
1
62
256
6
ByLayer
370
18
48
1
60
0
100
AcDbEllipse
10
17.074537
20
1.425135
30
0
11
-0.318198051534674
21
-0.318198051533219
31
0
210
0
220
0
230
1
40
0.989133
41
-2.81284764080295
42
0.0203208376120583
0
ELLIPSE
5
106
100
AcDbEntity
8
1
62
256
6
ByLayer
370
18
48
1
60
0
100
AcDbEllipse
10
19.35505
20
2.122856
30
0
11
0.353553390594082
21
0.353553390592466
31
0
210
0
220
0
230
1
40
0.989133
41
-2.58803591680778
42
-2.0740742647811
0
ELLIPSE
5
107
100
AcDbEntity
8
1
62
256
6
ByLayer
370
18
48
1
60
0
100
AcDbEllipse
10
16.938236
20
-0.041923
30
0
11
-0.318198051534674
21
-0.318198051533219
31
0
210
0
220
0
230
1
40
0.989133
41
-1.76565008960643
42
1.06751838880867
0
ELLIPSE
5
108
100
AcDbEntity
8
1
62
256
6
ByLayer
370
18
48
1
60
0
100
AcDbEllipse
10
18.139382
20
-0.879616
30
0
11
-0.318198051534674
21
-0.318198051533219
31
0
210
0
220
0
230
1
40
0.989133
41
-0.718452538409812
42
2.11471594000526
0
ELLIPSE
5
109
100
AcDbEntity
8
1
62
256
6
ByLayer
370
18
48
1
60
0
100
AcDbEllipse
10
19.055571
20
-1.100551
30
0
11
0.353553390594082
21
0.353553390592466
31
0
210
0
220
0
230
1
40
0.989133
41
1.60075428797852
42
2.11471594000525
0
ELLIPSE
5
10A
100
AcDbEntity
8
1
62
256
6
ByLayer
370
18
48
1
60
0
100
AcDbEllipse
10
16.983193
20
-0.734851
30
0
11
0.353553390594082
21
0.353553390592466
31
0
210
0
220
0
230
1
40
0.989133
41
0.43354397425718
42
1.06751838880859
0
ELLIPSE
5
10B
100
AcDbEntity
8
1
62
256
6
ByLayer
370
18
48
1
60
0
100
AcDbEllipse
10
18.84245
20
-0.88743
30
0
11
0.353553390594082
21
0.353553390592466
31
0
210
0
220
0
230
1
40
0.989133
41
1.48074152545374
42
2.11471594000522
0
ELLIPSE
5
10C
100
AcDbEntity
8
1
62
256
6
ByLayer
370
18
48
1
60
0
100
AcDbEllipse
10
18.271181
20
0.591944
30
0
11
0.989949493663428
21
0.989949493658905
31
0
210
0
220
0
230
1
40
0.989133
41
1.1301293172209
42
1.3133316355718
0
ELLIPSE
5
10D
100
AcDbEntity
8
1
62
256
6
ByLayer
370
18
48
1
60
0
100
AcDbEllipse
10
17.495793
20
2.275435
30
0
11
0.353553390594082
21
0.353553390592466
31
0
210
0
220
0
230
1
40
0.989133
41
-2.81284764080298
42
-2.29888598877623
0
ELLIPSE
5
10E
100
AcDbEntity
8
1
62
256
6
ByLayer
370
18
48
1
60
0
100
AcDbEllipse
10
18.411983
20
2.0545
30
0
11
-0.318198051534674
21
-0.318198051533219
31
0
210
0
220
0
230
1
40
0.989133
41
2.42314011517994
42
-1.0268767135845
0
ELLIPSE
5
10F
100
AcDbEntity
8
1
62
256
6
ByLayer
370
18
48
1
60
0
100
AcDbEllipse
10
18.275682
20
0.587442
30
0
11
1.00762716319313
21
1.00762716318853
31
0
210
0
220
0
230
1
40
0.989133
41
1.09153357213823
42
1.35192738065385
0
ELLIPSE
5
110
100
AcDbEntity
8
1
62
256
6
ByLayer
370
18
48
1
60
0
100
AcDbEllipse
10
19.35505
20
2.122856
30
0
11
0.353553390594082
21
0.353553390592466
31
0
210
0
220
0
230
1
40
0.989133
41
2.42314011518001
42
2.93710176720674
0
ELLIPSE
5
111
100
AcDbEntity
8
1
62
256
6
ByLayer
370
18
48
1
60
0
100
AcDbEllipse
10
19.141929
20
2.335977
30
0
11
0.353553390594082
21
0.353553390592466
31
0
210
0
220
0
230
1
40
0.989133
41
2.42314011518003
42
3.05711452973147
0
ELLIPSE
5
112
100
AcDbEntity
8
1
62
256
6
ByLayer
370
18
48
1
60
0
100
AcDbEllipse
10
18.275682
20
0.587442
30
0
11
1.00762716319313
21
1.00762716318853
31
0
210
0
220
0
230
1
40
0.989133
41
-2.05005908145155
42
-1.78966527293595
0
ELLIPSE
5
113
100
AcDbEntity
8
1
62
256
6
ByLayer
370
18
48
1
60
0
100
AcDbEllipse
10
18.271181
20
0.591944
30
0
11
0.989949493663428
21
0.989949493658905
31
0
210
0
220
0
230
1
40
0.989133
41
-2.01146333636886
42
-1.82826101801866
0
ELLIPSE
5
114
100
AcDbEntity
8
1
62
256
6
ByLayer
370
18
48
1
60
0
100
AcDbEllipse
10
18.271181
20
0.591944
30
0
11
0.989949493663428
21
0.989949493658905
31
0
210
0
220
0
230
1
40
0.989133
41
-3.05866088756591
42
-2.87545856921483
0
ELLIPSE
5
115
100
AcDbEntity
8
1
62
256
6
ByLayer
370
18
48
1
60
0
100
AcDbEllipse
10
16.416426
20
0.740021
30
0
11
0.353553390594082
21
0.353553390592466
31
0
210
0
220
0
230
1
40
0.989133
41
-1.76565008960638
42
-1.25168843757962
0
ELLIPSE
5
116
100
AcDbEntity
8
1
62
256
6
ByLayer
370
18
48
1
60
0
100
AcDbEllipse
10
18.275682
20
0.587442
30
0
11
1.00762716319313
21
1.00762716318853
31
0
210
0
220
0
230
1
40
0.989133
41
-3.09725663264816
42
-2.83686282413254
0
ELLIPSE
5
117
100
AcDbEntity
8
1
62
256
6
ByLayer
370
18
48
1
60
0
100
AcDbEllipse
10
18.134882
20
0.728242
30
0
11
-3.53553390594082
21
-3.53553390592465
31
0
210
0
220
0
230
1
40
0.989133
41
0
42
6.28318530717959
0
ELLIPSE
5
118
100
AcDbEntity
8
1
62
256
6
ByLayer
370
18
48
1
60
0
100
AcDbEllipse
10
20.134939
20
0.434863
30
0
11
0.353553390594082
21
0.353553390592466
31
0
210
0
220
0
230
1
40
0.989133
41
1.37594256398338
42
1.88990421601008
0
ELLIPSE
5
119
100
AcDbEntity
8
1
62
256
6
ByLayer
370
18
48
1
60
0
100
AcDbEllipse
10
26.190584
20
-10.266568
30
0
11
-0.948511912286264
21
-3.85214828860102
31
0
210
0
220
0
230
1
40
0.533007
41
-1.00959045133923
42
-0.72436145019143
0
ELLIPSE
5
11A
100
AcDbEntity
8
1
62
256
6
ByLayer
370
18
48
1
60
0
100
AcDbEllipse
10
2.107804
20
-3.65768
30
0
11
-0.618768166579319
21
-1.85497269604661
31
0
210
0
220
0
230
1
40
0.304658
41
-0.921774199096975
42
0.649022127698739
0
POINT
5
6C
100
AcDbEntity
8
2
62
256
6
ByLayer
370
18
48
1
60
0
100
AcDbPoint
10
43.674858
20
44.7875
30
0
39
0
210
0
220
0
230
1
50
360
0
POINT
5
6E
100
AcDbEntity
8
80
62
256
6
ByLayer
370
18
48
1
60
0
100
AcDbPoint
10
0
20
0
30
0
39
0
210
0
220
0
230
1
50
360
0
POINT
5
70
100
AcDbEntity
8
81
62
256
6
ByLayer
370
18
48
1
60
0
100
AcDbPoint
10
43.674858
20
-19.9125
30
0
39
0
210
0
220
0
230
1
50
360
0
SPLINE
5
11B
100
AcDbEntity
8
1
62
256
6
ByLayer
370
18
48
1
60
0
100
AcDbSpline
70
4
71
3
72
8
73
4
40
0
40
0
40
0
40
0
40
1
40
1
40
1
40
1
41
1
10
5.7345278061467
20
-1.81977498721298
30
0
41
1
10
5.44211227659738
20
-1.57215907229801
30
0
41
1
10
5.15288128245257
20
-1.27819227650295
30
0
41
1
10
4.89595102761697
20
-0.920556591530413
30
0
0
SPLINE
5
11C
100
AcDbEntity
8
1
62
256
6
ByLayer
370
18
48
1
60
0
100
AcDbSpline
70
4
71
3
72
8
73
4
40
0
40
0
40
0
40
0
40
1
40
1
40
1
40
1
41
1
10
22.3367316400077
20
4.07089815350969
30
0
41
1
10
22.6577293816747
20
4.65827393169235
30
0
41
1
10
22.9011446632291
20
5.16994293043174
30
0
41
1
10
23.0463696467216
20
5.56258662123378
30
0
0
SPLINE
5
11D
100
AcDbEntity
8
1
62
256
6
ByLayer
370
18
48
1
60
0
100
AcDbSpline
70
4
71
3
72
12
73
8
40
0
40
0
40
0
40
0
40
0.35792801429622
40
0.35792801429622
40
0.886263242629129
40
0.886263242629129
40
1
40
1
40
1
40
1
41
1
10
7.49736591288999
20
2.02911270474527
30
0
41
1
10
7.42725557390392
20
1.92937987971243
30
0
41
1
10
7.35091913283335
20
1.83369778236593
30
0
41
1
10
7.16699728962405
20
1.6216148853286
30
0
41
1
10
7.05755856487568
20
1.51132325015712
30
0
41
1
10
6.93142216680755
20
1.39455984673265
30
0
41
1
10
6.90909269990189
20
1.37432414840012
30
0
41
1
10
6.88696092066689
20
1.35465951369022
30
0
0
SPLINE
5
11E
100
AcDbEntity
8
1
62
256
6
ByLayer
370
18
48
1
60
0
100
AcDbSpline
70
4
71
3
72
10
73
6
40
0
40
0
40
0
40
0
40
0.137559836752864
40
0.137559836752864
40
1
40
1
40
1
40
1
41
1
10
16.2270131535539
20
6.30170939586029
30
0
41
1
10
16.2483942558112
20
6.30197717155829
30
0
41
1
10
16.2697446571129
20
6.30251649699352
30
0
41
1
10
16.4234686483219
20
6.30836191918436
30
0
41
1
10
16.5547308216923
20
6.32396903228047
30
0
41
1
10
16.6819173982192
20
6.34959701390093
30
0
0
SPLINE
5
11F
100
AcDbEntity
8
1
62
256
6
ByLayer
370
18
48
1
60
0
100
AcDbSpline
70
4
71
3
72
10
73
6
40
0
40
0
40
0
40
0
40
0.5
40
0.5
40
1
40
1
40
1
40
1
41
1
10
30.153008485545
20
-13.4171284006794
30
0
41
1
10
30.2858898371993
20
-12.6494323637235
30
0
41
1
10
30.2104087574765
20
-11.9105548659003
30
0
41
1
10
30.0055997481568
20
-10.4485632814655
30
0
41
1
10
29.8158565000178
20
-9.73814649305422
30
0
41
1
10
29.4313395643316
20
-9.08200194915329
30
0
0
SPLINE
5
120
100
AcDbEntity
8
1
62
256
6
ByLayer
370
18
48
1
60
0
100
AcDbSpline
70
4
71
3
72
12
73
8
40
0
40
0
40
0
40
0
40
0.470394739545283
40
0.470394739545283
40
0.888179192190587
40
0.888179192190587
40
1
40
1
40
1
40
1
41
1
10
15.0961355815095
20
6.56631148632269
30
0
41
1
10
15.2584855937399
20
6.49049901486475
30
0
41
1
10
15.4335969362856
20
6.42525485908476
30
0
41
1
10
15.7721884584785
20
6.3381890740728
30
0
41
1
10
15.9383653989967
20
6.31178408341171
30
0
41
1
10
16.1414869886017
20
6.30195855979417
30
0
41
1
10
16.1845488648956
20
6.30117757554538
30
0
41
1
10
16.2270131535539
20
6.30170939586029
30
0
0
SPLINE
5
121
100
AcDbEntity
8
1
62
256
6
ByLayer
370
18
48
1
60
0
100
AcDbSpline
70
4
71
2
72
6
73
3
40
0
40
0
40
0
40
1
40
1
40
1
41
1
10
30.1519753656221
20
-13.4175412238314
30
0
41
1
10
28.3088640297366
20
-13.3177945797932
30
0
41
1
10
26.4722942204657
20
-13.0148066786649
30
0
0
SPLINE
5
122
100
AcDbEntity
8
1
62
256
6
ByLayer
370
18
48
1
60
0
100
AcDbSpline
70
4
71
3
72
10
73
6
40
0
40
0
40
0
40
0
40
0.5
40
0.5
40
1
40
1
40
1
40
1
41
1
10
32.1387734137163
20
-0.152418924684042
30
0
41
1
10
31.0621480570922
20
1.49617298909189
30
0
41
1
10
29.7902201345777
20
3.00391527207245
30
0
41
1
10
27.1512869219065
20
5.91970565505807
30
0
41
1
10
25.6657848069982
20
7.19653601322864
30
0
41
1
10
24.0842159238209
20
8.36860376047375
30
0
0
SPLINE
5
123
100
AcDbEntity
8
1
62
256
6
ByLayer
370
18
48
1
60
0
100
AcDbSpline
70
4
71
3
72
10
73
6
40
0
40
0
40
0
40
0
40
0.5
40
0.5
40
1
40
1
40
1
40
1
41
1
10
24.0295053524471
20
-1.9670691184925
30
0
41
1
10
24.4615093181988
20
-0.92685412852552
30
0
41
1
10
24.4599123737545
20
0.247606258701353
30
0
41
1
10
23.8303799881397
20
2.38204944310132
30
0
41
1
10
23.2017138071152
20
3.36952033965366
30
0
41
1
10
22.336731639893
20
4.07089815329968
30
0
0
SPLINE
5
124
100
AcDbEntity
8
1
62
256
6
ByLayer
370
18
48
1
60
0
100
AcDbSpline
70
4
71
3
72
12
73
8
40
0
40
0
40
0
40
0
40
0.465693311738346
40
0.465693311738346
40
0.925991506701028
40
0.925991506701028
40
1
40
1
40
1
40
1
41
1
10
12.2085055199584
20
0.585332546018776
30
0
41
1
10
12.1499033503468
20
0.747446005059913
30
0
41
1
10
12.0661374360758
20
0.914325186109551
30
0
41
1
10
11.8699636325049
20
1.22137327981304
30
0
41
1
10
11.7556734195455
20
1.36630731034191
30
0
41
1
10
11.6159489540447
20
1.51796015668148
30
0
41
1
10
11.596229112807
20
1.53882786433957
30
0
41
1
10
11.5763455891751
20
1.55936665429795
30
0
0
SPLINE
5
125
100
AcDbEntity
8
1
62
256
6
ByLayer
370
18
48
1
60
0
100
AcDbSpline
70
4
71
3
72
10
73
6
40
0
40
0
40
0
40
0
40
0.495114567541134
40
0.495114567541134
40
1
40
1
40
1
40
1
41
1
10
32.1387734137162
20
-0.152418924684014
30
0
41
1
10
32.3537642988859
20
-0.48162558199121
30
0
41
1
10
32.5924292088802
20
-0.793837006128342
30
0
41
1
10
33.1022450389028
20
-1.32808714652643
30
0
41
1
10
33.3819038948219
20
-1.55435160123463
30
0
41
1
10
33.660297325385
20
-1.70731738220482
30
0
0
SPLINE
5
126
100
AcDbEntity
8
1
62
256
6
ByLayer
370
18
48
1
60
0
100
AcDbSpline
70
4
71
3
72
8
73
4
40
0
40
0
40
0
40
0
40
1
40
1
40
1
40
1
41
1
10
36.6054358171561
20
-11.6979064915125
30
0
41
1
10
36.3777104585463
20
-11.6266938639143
30
0
41
1
10
36.150955640938
20
-11.5432278582986
30
0
41
1
10
35.9251928410011
20
-11.4472373251196
30
0
0
SPLINE
5
127
100
AcDbEntity
8
1
62
256
6
ByLayer
370
18
48
1
60
0
100
AcDbSpline
70
4
71
3
72
8
73
4
40
0
40
0
40
0
40
0
40
1
40
1
40
1
40
1
41
1
10
33.3061747488864
20
-9.70993173366051
30
0
41
1
10
32.8551878046161
20
-9.29324944841497
30
0
41
1
10
32.4152467815991
20
-8.818476016283
30
0
41
1
10
31.9939423481592
20
-8.30132597084389
30
0
0
SPLINE
5
128
100
AcDbEntity
8
1
62
256
6
ByLayer
370
18
48
1
60
0
100
AcDbSpline
70
4
71
3
72
8
73
4
40
0
40
0
40
0
40
0
40
1
40
1
40
1
40
1
41
1
10
35.9251928410012
20
-11.4472373251195
30
0
41
1
10
36.1005737234112
20
-11.6148926422513
30
0
41
1
10
36.2646154444004
20
-11.7876179986247
30
0
41
1
10
36.4175064212522
20
-11.9652383833737
30
0
0
SPLINE
5
129
100
AcDbEntity
8
1
62
256
6
ByLayer
370
18
48
1
60
0
100
AcDbSpline
70
4
71
3
72
8
73
4
40
0
40
0
40
0
40
0
40
1
40
1
40
1
40
1
41
1
10
11.5763455891753
20
1.5593666542978
30
0
41
1
10
10.1293148015518
20
1.6548315254347
30
0
41
1
10
8.78582393381177
20
1.78968426415057
30
0
41
1
10
7.7995422356062
20
1.9787001582902
30
0
0
SPLINE
5
12A
100
AcDbEntity
8
1
62
256
6
ByLayer
370
18
48
1
60
0
100
AcDbSpline
70
4
71
3
72
26
73
22
40
0
40
0
40
0
40
0
40
0.305559650062842
40
0.305559650062842
40
0.592938506760073
40
0.592938506760073
40
0.736855759596393
40
0.736855759596393
40
0.794364492020972
40
0.794364492020972
40
0.820930548617536
40
0.820930548617536
40
0.847991021748991
40
0.847991021748991
40
0.871122963339862
40
0.871122963339862
40
0.898335682818856
40
0.898335682818856
40
0.945305435562306
40
0.945305435562306
40
1
40
1
40
1
40
1
41
1
10
31.9939423481591
20
-8.30132597084389
30
0
41
1
10
31.8482533142725
20
-8.12233824991895
30
0
41
1
10
31.706724853144
20
-7.93195551705585
30
0
41
1
10
31.4487836342177
20
-7.53380834422219
30
0
41
1
10
31.3292835457781
20
-7.32701285031803
30
0
41
1
10
31.1793205780945
20
-6.98346754998266
30
0
41
1
10
31.1327663066574
20
-6.86158360969958
30
0
41
1
10
31.0901157887828
20
-6.6788018250692
30
0
41
1
10
31.08040338323
20
-6.62402603744655
30
0
41
1
10
31.0761942208626
20
-6.54392265130093
30
0
41
1
10
31.0764019032064
20
-6.51819375234626
30
0
41
1
10
31.0817141338498
20
-6.46885183598388
30
0
41
1
10
31.0871269728917
20
-6.44463495903292
30
0
41
1
10
31.1025931641292
20
-6.40693036685764
30
0
41
1
10
31.1120638655545
20
-6.3919739309313
30
0
41
1
10
31.1352899914666
20
-6.36712780994998
30
0
41
1
10
31.1497794381015
20
-6.35804228054854
30
0
41
1
10
31.1901565064314
20
-6.34242762728636
30
0
41
1
10
31.2174396113252
20
-6.34152781422662
30
0
41
1
10
31.2756686466955
20
-6.34825180109834
30
0
41
1
10
31.3071537530256
20
-6.35751134992091
30
0
41
1
10
31.338245689026
20
-6.3694043825337
30
0
0
SPLINE
5
12B
100
AcDbEntity
8
1
62
256
6
ByLayer
370
18
48
1
60
0
100
AcDbSpline
70
4
71
3
72
8
73
4
40
0
40
0
40
0
40
0
40
1
40
1
40
1
40
1
41
1
10
25.9862990977956
20
-12.6236748496329
30
0
41
1
10
26.1477838031904
20
-12.7550614011333
30
0
41
1
10
26.3093815402312
20
-12.8863053124375
30
0
41
1
10
26.4712859502285
20
-13.017159232459
30
0
0
SPLINE
5
12C
100
AcDbEntity
8
1
62
256
6
ByLayer
370
18
48
1
60
0
100
AcDbSpline
70
4
71
3
72
10
73
6
40
0
40
0
40
0
40
0
40
0.500000000000002
40
0.500000000000002
40
1
40
1
40
1
40
1
41
1
10
13.1870742160031
20
-7.13271520362079
30
0
41
1
10
14.8333478587053
20
-8.21180308512874
30
0
41
1
10
16.5460088881273
20
-9.16556218333989
30
0
41
1
10
20.2013365527693
20
-10.6388665305595
30
0
41
1
10
22.0573162617356
20
-11.3130641787151
30
0
41
1
10
23.9810462535757
20
-11.7568867862585
30
0
0
SPLINE
5
12D
100
AcDbEntity
8
1
62
256
6
ByLayer
370
18
48
1
60
0
100
AcDbSpline
70
4
71
3
72
8
73
4
40
0
40
0
40
0
40
0
40
1
40
1
40
1
40
1
41
1
10
17.0010180046873
20
13.4481908672095
30
0
41
1
10
16.5960384536357
20
13.7465445040851
30
0
41
1
10
16.1120382723085
20
14.0297281552748
30
0
41
1
10
15.5315181181062
20
14.2086692416458
30
0
0
SPLINE
5
12E
100
AcDbEntity
8
1
62
256
6
ByLayer
370
18
48
1
60
0
100
AcDbSpline
70
4
71
2
72
9
73
6
40
0
40
0
40
0
40
0.215578737060682
40
0.50117395656965
40
0.786769176078617
40
1
40
1
40
1
41
1.01987110935361
10
24.0295053524471
20
-1.96706911849248
30
0
41
1.01898440041077
10
24.9007517019284
20
-2.66093905754551
30
0
41
1.01588036664668
10
27.8269496712601
20
-5.02163832165984
30
0
41
1.01357557431911
10
29.6939240356125
20
-6.51100992660133
30
0
41
1.01293324595055
10
31.2797130494617
20
-7.79204219019327
30
0
41
1.0117874761266
10
31.9939423498898
20
-8.30132597207788
30
0
0
SPLINE
5
12F
100
AcDbEntity
8
1
62
256
6
ByLayer
370
18
48
1
60
0
100
AcDbSpline
70
4
71
3
72
8
73
4
40
0
40
0
40
0
40
0
40
1
40
1
40
1
40
1
41
1
10
34.2091929358183
20
-2.00989076571705
30
0
41
1
10
34.0264346574825
20
-1.90870173153473
30
0
41
1
10
33.8434138475207
20
-1.80793240663405
30
0
41
1
10
33.660297325385
20
-1.70731738220485
30
0
0
SPLINE
5
130
100
AcDbEntity
8
1
62
256
6
ByLayer
370
18
48
1
60
0
100
AcDbSpline
70
4
71
3
72
12
73
8
40
0
40
0
40
0
40
0
40
0.295831841262308
40
0.295831841262308
40
0.591663914161887
40
0.591663914161887
40
1
40
1
40
1
40
1
41
1
10
22.6776537070874
20
-3.89009481721897
30
0
41
1
10
22.8502202629746
20
-3.73259402354645
30
0
41
1
10
23.0130679576871
20
-3.56333862187913
30
0
41
1
10
23.3149681399367
20
-3.20607463347895
30
0
41
1
10
23.45471224991
20
-3.01724669005841
30
0
41
1
10
23.7557543423702
20
-2.55027474702794
30
0
41
1
10
23.9064947111276
20
-2.26323602884762
30
0
41
1
10
24.0295053524471
20
-1.9670691184925
30
0
0
SPLINE
5
131
100
AcDbEntity
8
1
62
256
6
ByLayer
370
18
48
1
60
0
100
AcDbSpline
70
4
71
3
72
10
73
6
40
0
40
0
40
0
40
0
40
0.493064313563139
40
0.493064313563139
40
1
40
1
40
1
40
1
41
1
10
25.9862990977956
20
-12.6236748496329
30
0
41
1
10
25.7463729856052
20
-12.4284671089464
30
0
41
1
10
25.4414035758171
20
-12.2542837586915
30
0
41
1
10
24.7603799423113
20
-11.9655276777057
30
0
41
1
10
24.3740622555283
20
-11.8475592753982
30
0
41
1
10
23.9810462535758
20
-11.7568867862584
30
0
0
SPLINE
5
132
100
AcDbEntity
8
1
62
256
6
ByLayer
370
18
48
1
60
0
100
AcDbSpline
70
4
71
3
72
8
73
4
40
0
40
0
40
0
40
0
40
1
40
1
40
1
40
1
41
1
10
12.3224712386886
20
0.148230890782685
30
0
41
1
10
12.5117443558798
20
-1.01487018268128
30
0
41
1
10
13.1707411542705
20
-2.07340061820639
30
0
41
1
10
14.2089204149597
20
-2.79743949072676
30
0
0
SPLINE
5
133
100
AcDbEntity
8
1
62
256
6
ByLayer
370
18
48
1
60
0
100
AcDbSpline
70
4
71
2
72
10
73
7
40
0
40
0
40
0
40
0.327809911387053
40
0.546349852311755
40
0.764889793236457
40
0.98342973416116
40
1
40
1
40
1
41
1.02275914691308
10
15.3226799726343
20
-5.42445754391768
30
0
41
1.0218723728006
10
17.3116231267233
20
-6.32836615525649
30
0
41
1.01941804929199
10
20.6755064215026
20
-7.172648822165
30
0
41
1.01588036664668
10
25.4023921853413
20
-8.13837006939435
30
0
41
1.01357557431911
10
28.0047593816275
20
-8.71417111810102
30
0
41
1.01317993487846
10
29.3383693925231
20
-9.05652555405683
30
0
41
1.01314306577263
10
29.4313395643322
20
-9.08200194915342
30
0
0
SPLINE
5
134
100
AcDbEntity
8
1
62
256
6
ByLayer
370
18
48
1
60
0
100
AcDbSpline
70
4
71
3
72
8
73
4
40
0
40
0
40
0
40
0
40
1
40
1
40
1
40
1
41
1
10
16.430433275798
20
-4.33088437321842
30
0
41
1
10
16.3244127552744
20
-4.26746129411194
30
0
41
1
10
16.2208846718562
20
-4.20060789070763
30
0
41
1
10
16.1199407224445
20
-4.13020834981208
30
0
0
SPLINE
5
135
100
AcDbEntity
8
1
62
256
6
ByLayer
370
18
48
1
60
0
100
AcDbSpline
70
4
71
3
72
8
73
4
40
0
40
0
40
0
40
0
40
1
40
1
40
1
40
1
41
1
10
16.2270131535539
20
6.30170939586029
30
0
41
1
10
16.1735136526459
20
7.94684860293296
30
0
41
1
10
16.0648569447685
20
9.49575485748932
30
0
41
1
10
15.8754127964551
20
10.5636993474815
30
0
0
SPLINE
5
136
100
AcDbEntity
8
1
62
256
6
ByLayer
370
18
48
1
60
0
100
AcDbSpline
70
4
71
3
72
8
73
4
40
0
40
0
40
0
40
0
40
1
40
1
40
1
40
1
41
1
10
20.1305014483222
20
5.62608282650891
30
0
41
1
10
19.093081200682
20
6.34959235407601
30
0
41
1
10
17.8463174419127
20
6.58422258315147
30
0
41
1
10
16.6819173982192
20
6.34959701390093
30
0
0
SPLINE
5
137
100
AcDbEntity
8
1
62
256
6
ByLayer
370
18
48
1
60
0
100
AcDbSpline
70
4
71
1
72
4
73
2
40
0
40
0
40
1
40
1
41
1
10
23.0463696467216
20
5.56258662123378
30
0
41
1
10
24.0842159238209
20
8.36860376047375
30
0
0
SPLINE
5
138
100
AcDbEntity
8
1
62
256
6
ByLayer
370
18
48
1
60
0
100
AcDbSpline
70
4
71
3
72
8
73
4
40
0
40
0
40
0
40
0
40
1
40
1
40
1
40
1
41
1
10
15.0961355815095
20
6.56631148632269
30
0
41
1
10
14.8851977007453
20
6.66481300070592
30
0
41
1
10
14.6877521021205
20
6.78286237493052
30
0
41
1
10
14.5062460505837
20
6.91314944291173
30
0
0
SPLINE
5
139
100
AcDbEntity
8
1
62
256
6
ByLayer
370
18
48
1
60
0
100
AcDbSpline
70
4
71
2
72
6
73
3
40
0
40
0
40
0
40
1
40
1
40
1
41
1
10
34.20731832893
20
-2.01163911815564
30
0
41
1
10
35.121347513018
20
-3.62695249037418
30
0
41
1
10
35.8458703059366
20
-5.31790519457593
30
0
0
SPLINE
5
13A
100
AcDbEntity
8
1
62
256
6
ByLayer
370
18
48
1
60
0
100
AcDbSpline
70
4
71
2
72
10
73
7
40
0
40
0
40
0
40
0.327809911400261
40
0.546349852333769
40
0.764889793267276
40
0.983429734200784
40
1
40
1
40
1
41
1.02275914691308
10
23.0463696467215
20
5.56258662123376
30
0
41
1.0218723728006
10
24.573338687816
20
4.0015141151416
30
0
41
1.01941804929199
10
26.5119162043585
20
1.12971633580798
30
0
41
1.01588036664668
10
29.0426935333368
20
-2.95999634322622
30
0
41
1.01357557431911
10
30.4897918485871
20
-5.17918167461085
30
0
41
1.01317993487853
10
31.2814685398622
20
-6.29244296512852
30
0
41
1.01314306577281
10
31.3382456890263
20
-6.36940438253404
30
0
0
SPLINE
5
13B
100
AcDbEntity
8
1
62
256
6
ByLayer
370
18
48
1
60
0
100
AcDbSpline
70
4
71
3
72
12
73
8
40
0
40
0
40
0
40
0
40
0.477525441753639
40
0.477525441753639
40
0.843795690072561
40
0.843795690072561
40
1
40
1
40
1
40
1
41
1
10
13.7858902799245
20
11.1684719221211
30
0
41
1
10
13.7369667726867
20
11.0496270235674
30
0
41
1
10
13.6799117011613
20
10.9236937515907
30
0
41
1
10
13.5603695452417
20
10.6922533551302
30
0
41
1
10
13.5011717850349
20
10.5869193426117
30
0
41
1
10
13.4067410622915
20
10.4377558768466
30
0
41
1
10
13.3768418183228
20
10.3927399563241
30
0
41
1
10
13.3459509699921
20
10.348797342207
30
0
0
SPLINE
5
13C
100
AcDbEntity
8
1
62
256
6
ByLayer
370
18
48
1
60
0
100
AcDbSpline
70
4
71
3
72
8
73
4
40
0
40
0
40
0
40
0
40
1
40
1
40
1
40
1
41
1
10
8.15172312236788
20
-0.423344817670085
30
0
41
1
10
9.18365553230737
20
-0.294325468097696
30
0
41
1
10
10.6514359240446
20
0.0928926920880713
30
0
41
1
10
12.2085055199584
20
0.58533254601889
30
0
0
SPLINE
5
13D
100
AcDbEntity
8
1
62
256
6
ByLayer
370
18
48
1
60
0
100
AcDbSpline
70
4
71
2
72
9
73
6
40
0
40
0
40
0
40
0.215578737053018
40
0.50117395656487
40
0.786769176076722
40
1
40
1
40
1
41
1.01987110935352
10
22.6776537070874
20
-3.89009481721897
30
0
41
1.01898440041071
10
23.6360275643645
20
-4.4600247979087
30
0
41
1.01588036664668
10
26.8933526823451
20
-6.34969159429179
30
0
41
1.01357557431911
10
28.9661679806647
20
-7.54625192285388
30
0
41
1.01293324595055
10
30.7485168478666
20
-8.54767536210299
30
0
41
1.01178747612661
10
31.4896986513978
20
-9.01861887470466
30
0
0
SPLINE
5
13E
100
AcDbEntity
8
1
62
256
6
ByLayer
370
18
48
1
60
0
100
AcDbSpline
70
4
71
3
72
8
73
4
40
0
40
0
40
0
40
0
40
1
40
1
40
1
40
1
41
1
10
31.4896986496018
20
-9.01861887356353
30
0
41
1
10
32.1334759022157
20
-9.21889211027022
30
0
41
1
10
32.7448952177172
20
-9.44981590646339
30
0
41
1
10
33.3061747488863
20
-9.70993173366054
30
0
0
SPLINE
5
13F
100
AcDbEntity
8
1
62
256
6
ByLayer
370
18
48
1
60
0
100
AcDbSpline
70
4
71
3
72
8
73
4
40
0
40
0
40
0
40
0
40
1
40
1
40
1
40
1
41
1
10
12.3224712386886
20
0.148230890782656
30
0
41
1
10
12.2986603029218
20
0.294551326360192
30
0
41
1
10
12.2604009135015
20
0.441772302237297
30
0
41
1
10
12.2085055199584
20
0.585332546018776
30
0
0
SPLINE
5
140
100
AcDbEntity
8
1
62
256
6
ByLayer
370
18
48
1
60
0
100
AcDbSpline
70
4
71
3
72
8
73
4
40
0
40
0
40
0
40
0
40
1
40
1
40
1
40
1
41
1
10
22.336731639893
20
4.07089815329968
30
0
41
1
10
22.2408412266087
20
4.14873143685125
30
0
41
1
10
22.142465705928
20
4.22291442603338
30
0
41
1
10
22.0415217558069
20
4.29331396742359
30
0
0
SPLINE
5
141
100
AcDbEntity
8
1
62
256
6
ByLayer
370
18
48
1
60
0
100
AcDbSpline
70
4
71
2
72
6
73
3
40
0
40
0
40
0
40
1
40
1
40
1
41
1.02275914691308
10
15.3226799726343
20
-5.42445754391769
30
0
41
1.02275914691308
10
14.2548770943187
20
-6.27858637376923
30
0
41
1.02275914691308
10
13.187074216003
20
-7.13271520362078
30
0
0
SPLINE
5
142
100
AcDbEntity
8
1
62
256
6
ByLayer
370
18
48
1
60
0
100
AcDbSpline
70
4
71
3
72
8
73
4
40
0
40
0
40
0
40
0
40
1
40
1
40
1
40
1
41
1
10
11.5763455891753
20
1.5593666542978
30
0
41
1
10
11.4140289462814
20
1.72703248138484
30
0
41
1
10
11.2382874224919
20
1.87595617071557
30
0
41
1
10
11.0567813709551
20
2.00624323869678
30
0
0
SPLINE
5
143
100
AcDbEntity
8
1
62
256
6
ByLayer
370
18
48
1
60
0
100
AcDbSpline
70
4
71
3
72
8
73
4
40
0
40
0
40
0
40
0
40
1
40
1
40
1
40
1
41
1
10
15.3226799726343
20
-5.42445754391767
30
0
41
1
10
15.6215135452293
20
-5.18542244215476
30
0
41
1
10
16.0014876731329
20
-4.81031228964861
30
0
41
1
10
16.4304332780328
20
-4.3308843745553
30
0
0
SPLINE
5
144
100
AcDbEntity
8
1
62
256
6
ByLayer
370
18
48
1
60
0
100
AcDbSpline
70
4
71
3
72
20
73
16
40
0
40
0
40
0
40
0
40
0.180139434362015
40
0.180139434362015
40
0.33873402784697
40
0.33873402784697
40
0.497328642471107
40
0.497328642471107
40
0.655923259311436
40
0.655923259311436
40
0.814517859427937
40
0.814517859427937
40
0.975792228009335
40
0.975792228009335
40
1
40
1
40
1
40
1
41
1
10
36.4175064212523
20
-11.9652383833738
30
0
41
1
10
36.4294062401189
20
-11.9496226029637
30
0
41
1
10
36.4412016040692
20
-11.9339199231672
30
0
41
1
10
36.463177296642
20
-11.904238975756
30
0
41
1
10
36.4733833029169
20
-11.8902773716032
30
0
41
1
10
36.4936217323542
20
-11.8622342039101
30
0
41
1
10
36.5036551880425
20
-11.8481512095496
30
0
41
1
10
36.5235443794549
20
-11.8198709978195
30
0
41
1
10
36.5334011306718
20
-11.8056723365262
30
0
41
1
10
36.5529329517519
20
-11.7771666369047
30
0
41
1
10
36.5626090182402
20
-11.7628581441558
30
0
41
1
10
36.5819376110577
20
-11.7338961046074
30
0
41
1
10
36.591587994862
20
-11.7192392873361
30
0
41
1
10
36.6025745353722
20
-11.7023250834918
30
0
41
1
10
36.6040062759094
20
-11.7001163504881
30
0
41
1
10
36.6054358171561
20
-11.6979064915125
30
0
0
SPLINE
5
145
100
AcDbEntity
8
1
62
256
6
ByLayer
370
18
48
1
60
0
100
AcDbSpline
70
4
71
3
72
14
73
10
40
0
40
0
40
0
40
0
40
0.272255003219807
40
0.272255003219807
40
0.545341763696484
40
0.545341763696484
40
0.807341289944265
40
0.807341289944265
40
1
40
1
40
1
40
1
41
1
10
36.1966463426487
20
-7.30567052848889
30
0
41
1
10
36.365888339676
20
-7.51723077584387
30
0
41
1
10
36.5196019993923
20
-7.7745584856558
30
0
41
1
10
36.7660422514965
20
-8.34791185043056
30
0
41
1
10
36.8616589412874
20
-8.67182416988328
30
0
41
1
10
36.980191251982
20
-9.32198121573666
30
0
41
1
10
37.0076729851437
20
-9.65520530675852
30
0
41
1
10
37.0065876398362
20
-10.2188732998701
30
0
41
1
10
36.9912014035395
20
-10.4565537651285
30
0
41
1
10
36.9632722868505
20
-10.6869606040986
30
0
0
SPLINE
5
146
100
AcDbEntity
8
1
62
256
6
ByLayer
370
18
48
1
60
0
100
AcDbSpline
70
4
71
3
72
10
73
6
40
0
40
0
40
0
40
0
40
0.500000000000001
40
0.500000000000001
40
1
40
1
40
1
40
1
41
1
10
31.338245689026
20
-6.3694043825337
30
0
41
1
10
32.1159313253204
20
-6.46536809443992
30
0
41
1
10
32.881440436849
20
-6.35926504388647
30
0
41
1
10
34.3872977283403
20
-5.96935072071395
30
0
41
1
10
35.1384696246805
20
-5.74653793063229
30
0
41
1
10
35.8458342051502
20
-5.31901335165648
30
0
0
SPLINE
5
147
100
AcDbEntity
8
1
62
256
6
ByLayer
370
18
48
1
60
0
100
AcDbSpline
70
4
71
3
72
12
73
8
40
0
40
0
40
0
40
0
40
0.250000000000001
40
0.250000000000001
40
0.500000000000002
40
0.500000000000002
40
1
40
1
40
1
40
1
41
1
10
17.1959287254319
20
13.1299147956278
30
0
41
1
10
16.7453856339181
20
13.3214424214787
30
0
41
1
10
16.2994587381113
20
13.3621443106556
30
0
41
1
10
15.5789552766141
20
13.2409090347447
30
0
41
1
10
15.2942260195121
20
13.0939339306876
30
0
41
1
10
14.5347505969492
20
12.5256066962002
30
0
41
1
10
14.1151219735386
20
11.9682409787042
30
0
41
1
10
13.7858902799245
20
11.1684719221211
30
0
0
SPLINE
5
148
100
AcDbEntity
8
1
62
256
6
ByLayer
370
18
48
1
60
0
100
AcDbSpline
70
4
71
3
72
14
73
10
40
0
40
0
40
0
40
0
40
0.1852444459161
40
0.1852444459161
40
0.469711312964412
40
0.469711312964412
40
0.755916846591525
40
0.755916846591525
40
1
40
1
40
1
40
1
41
1
10
35.6056716019285
20
-12.6181643827683
30
0
41
1
10
35.4084678747239
20
-12.7155507695559
30
0
41
1
10
35.2006542950255
20
-12.8049232247145
30
0
41
1
10
34.6577633334694
20
-13.0018473953054
30
0
41
1
10
34.3064115145897
20
-13.0955125847571
30
0
41
1
10
33.6096061248607
20
-13.2069701560233
30
0
41
1
10
33.2545243773777
20
-13.2253682740706
30
0
41
1
10
32.6485754020468
20
-13.1851216011526
30
0
41
1
10
32.3832320963365
20
-13.1372169817535
30
0
41
1
10
32.1472720398505
20
-13.0659555973389
30
0
0
SPLINE
5
149
100
AcDbEntity
8
1
62
256
6
ByLayer
370
18
48
1
60
0
100
AcDbSpline
70
4
71
3
72
8
73
4
40
0
40
0
40
0
40
0
40
1
40
1
40
1
40
1
41
1
10
13.4852520796066
20
10.0666927890468
30
0
41
1
10
13.964533507811
20
9.15728937538751
30
0
41
1
10
14.526272313311
20
7.90873230432572
30
0
41
1
10
15.0961355815095
20
6.56631148632269
30
0
0
SPLINE
5
14A
100
AcDbEntity
8
1
62
256
6
ByLayer
370
18
48
1
60
0
100
AcDbSpline
70
4
71
3
72
10
73
6
40
0
40
0
40
0
40
0
40
0.5
40
0.5
40
1
40
1
40
1
40
1
41
1
10
16.4304332780328
20
-4.3308843745553
30
0
41
1
10
17.3886063777191
20
-4.89953995225054
30
0
41
1
10
18.5283978829834
20
-5.1598504388264
30
0
41
1
10
20.7446199728209
20
-5.04028427132667
30
0
41
1
10
21.8432189398673
20
-4.65162622563022
30
0
41
1
10
22.6776537070874
20
-3.89009481721897
30
0
0
SPLINE
5
14B
100
AcDbEntity
8
1
62
256
6
ByLayer
370
18
48
1
60
0
100
AcDbSpline
70
4
71
3
72
12
73
8
40
0
40
0
40
0
40
0
40
0.499999999999999
40
0.499999999999999
40
0.749999999999999
40
0.749999999999999
40
1
40
1
40
1
40
1
41
1
10
6.88696092066718
20
1.35465951369119
30
0
41
1
10
6.26498488755513
20
0.802018383504816
30
0
41
1
10
5.91103960582771
20
0.258168652695417
30
0
41
1
10
5.67242296831446
20
-0.591167835227765
30
0
41
1
10
5.64347229341459
20
-0.891422331325742
30
0
41
1
10
5.79716585072774
20
-1.57614996337034
30
0
41
1
10
5.99643999041686
20
-1.96793767121875
30
0
41
1
10
6.33714403773823
20
-2.31684083255732
30
0
0
SPLINE
5
14C
100
AcDbEntity
8
1
62
256
6
ByLayer
370
18
48
1
60
0
100
AcDbSpline
70
4
71
3
72
14
73
10
40
0
40
0
40
0
40
0
40
0.125
40
0.125
40
0.25
40
0.25
40
0.5
40
0.5
40
1
40
1
40
1
40
1
41
1
10
29.4313395643318
20
-9.08200194915335
30
0
41
1
10
29.3787120585632
20
-9.02794830721547
30
0
41
1
10
29.3269312397947
20
-8.96564759732431
30
0
41
1
10
29.3879110012318
20
-8.82196630521187
30
0
41
1
10
29.529482951772
20
-8.77517277070254
30
0
41
1
10
29.8826448445521
20
-8.72243228695342
30
0
41
1
10
30.10649392799
20
-8.73947799600023
30
0
41
1
10
30.7433764406798
20
-8.81019337094679
30
0
41
1
10
31.12478359084
20
-8.90525542717944
30
0
41
1
10
31.4896986496018
20
-9.01861887356353
30
0
0
SPLINE
5
14D
100
AcDbEntity
8
1
62
256
6
ByLayer
370
18
48
1
60
0
100
AcDbSpline
70
4
71
3
72
10
73
6
40
0
40
0
40
0
40
0
40
0.355593196477793
40
0.355593196477793
40
1
40
1
40
1
40
1
41
1
10
16.8934749683054
20
0.885659575459925
30
0
41
1
10
16.8947728266779
20
0.87985752661146
30
0
41
1
10
16.8959954024049
20
0.873871515477703
30
0
41
1
10
16.8991804498761
20
0.856533536592224
30
0
41
1
10
16.900952518247
20
0.844706099732008
30
0
41
1
10
16.9023554331814
20
0.832186116913704
30
0
0
SPLINE
5
14E
100
AcDbEntity
8
1
62
256
6
ByLayer
370
18
48
1
60
0
100
AcDbSpline
70
4
71
3
72
10
73
6
40
0
40
0
40
0
40
0
40
0.2011575302314
40
0.2011575302314
40
1
40
1
40
1
40
1
41
1
10
18.6954267362835
20
-0.761586992074001
30
0
41
1
10
18.6977036134515
20
-0.758482201519456
30
0
41
1
10
18.7000463708219
20
-0.755380838375658
30
0
41
1
10
18.7119885192425
20
-0.740053329267738
30
0
41
1
10
18.7226364332442
20
-0.727858669042234
30
0
41
1
10
18.7345715626478
20
-0.715959184316944
30
0
0
SPLINE
5
14F
100
AcDbEntity
8
1
62
256
6
ByLayer
370
18
48
1
60
0
100
AcDbSpline
70
4
71
3
72
10
73
6
40
0
40
0
40
0
40
0
40
0.276054056492148
40
0.276054056492148
40
1
40
1
40
1
40
1
41
1
10
17.576334871058
20
1.79093020980514
30
0
41
1
10
17.5709395326926
20
1.78950432513267
30
0
41
1
10
17.5656385412133
20
1.78817978181627
30
0
41
1
10
17.5468590736553
20
1.7837424694782
30
0
41
1
10
17.5339074893793
20
1.78117099075189
30
0
41
1
10
17.5215638442388
20
1.77912377594529
30
0
0
SPLINE
5
150
100
AcDbEntity
8
1
62
256
6
ByLayer
370
18
48
1
60
0
100
AcDbSpline
70
4
71
3
72
10
73
6
40
0
40
0
40
0
40
0
40
0.201157530231642
40
0.201157530231642
40
1
40
1
40
1
40
1
41
1
10
17.8559377298446
20
1.93647078938184
30
0
41
1
10
17.8529924587773
20
1.93403439272655
30
0
41
1
10
17.8499916334577
20
1.93159109753188
30
0
41
1
10
17.834849036933
20
1.9194640365281
30
0
41
1
10
17.8218179001516
20
1.90965259908236
30
0
41
1
10
17.8077895612746
20
1.89984632383053
30
0
0
SPLINE
5
151
100
AcDbEntity
8
1
62
256
6
ByLayer
370
18
48
1
60
0
100
AcDbSpline
70
4
71
3
72
10
73
6
40
0
40
0
40
0
40
0
40
0.355593196477988
40
0.355593196477988
40
1
40
1
40
1
40
1
41
1
10
19.6578894978211
20
0.289224221849366
30
0
41
1
10
19.6554115630179
20
0.29620634712856
30
0
41
1
10
19.6530407751473
20
0.303340570405879
30
0
41
1
10
19.6467466137233
20
0.323787663244161
30
0
41
1
10
19.6430971629245
20
0.337492482532326
30
0
41
1
10
19.6400056907409
20
0.351701022599855
30
0
0
SPLINE
5
152
100
AcDbEntity
8
1
62
256
6
ByLayer
370
18
48
1
60
0
100
AcDbSpline
70
4
71
3
72
10
73
6
40
0
40
0
40
0
40
0
40
0.537616842495241
40
0.537616842495241
40
1
40
1
40
1
40
1
41
1
10
16.8787676180488
20
0.578301110166535
30
0
41
1
10
16.8755656967623
20
0.566907815086978
30
0
41
1
10
16.8721883500585
20
0.555913777926406
30
0
41
1
10
16.8656810079719
20
0.536233247533147
30
0
41
1
10
16.8625754864908
20
0.52741788309217
30
0
41
1
10
16.8593985389522
20
0.51888145518933
30
0
0
SPLINE
5
153
100
AcDbEntity
8
1
62
256
6
ByLayer
370
18
48
1
60
0
100
AcDbSpline
70
4
71
3
72
10
73
6
40
0
40
0
40
0
40
0
40
0.537616842495027
40
0.537616842495027
40
1
40
1
40
1
40
1
41
1
10
19.6635935058735
20
0.605586029347052
30
0
41
1
10
19.6682058284897
20
0.615568923096788
30
0
41
1
10
19.6731252679451
20
0.625020867505782
30
0
41
1
10
19.6826737890477
20
0.641660218883089
30
0
41
1
10
19.6872575374351
20
0.648997356417738
30
0
41
1
10
19.6919659271766
20
0.656002342117688
30
0
0
SPLINE
5
154
100
AcDbEntity
8
1
62
256
6
ByLayer
370
18
48
1
60
0
100
AcDbSpline
70
4
71
3
72
10
73
6
40
0
40
0
40
0
40
0
40
0.769561481283418
40
0.769561481283418
40
1
40
1
40
1
40
1
41
1
10
17.3132194715214
20
-0.463369315274861
30
0
41
1
10
17.3259670585359
20
-0.465333847014534
30
0
41
1
10
17.3392741387405
20
-0.468125684386479
30
0
41
1
10
17.357280060517
20
-0.473118514959196
30
0
41
1
10
17.3614884237229
20
-0.474366579054674
30
0
41
1
10
17.3657464338677
20
-0.475716637159309
30
0
0
SPLINE
5
155
100
AcDbEntity
8
1
62
256
6
ByLayer
370
18
48
1
60
0
100
AcDbSpline
70
4
71
3
72
10
73
6
40
0
40
0
40
0
40
0
40
0.230438518716451
40
0.230438518716451
40
1
40
1
40
1
40
1
41
1
10
17.5736133089517
20
-0.620685529882451
30
0
41
1
10
17.5770352883158
20
-0.624691590085547
30
0
41
1
10
17.5803716646966
20
-0.628705319353344
30
0
41
1
10
17.5944611796465
20
-0.646096237619048
30
0
41
1
10
17.6043935805725
20
-0.659511897692738
30
0
41
1
10
17.6135169277836
20
-0.67280042210362
30
0
0
SPLINE
5
156
100
AcDbEntity
8
1
62
256
6
ByLayer
370
18
48
1
60
0
100
AcDbSpline
70
4
71
3
72
10
73
6
40
0
40
0
40
0
40
0
40
0.230438518716909
40
0.230438518716909
40
1
40
1
40
1
40
1
41
1
10
18.9687478149703
20
1.80457266939621
30
0
41
1
10
18.9659312971007
20
1.80797326810489
30
0
41
1
10
18.9632245369539
20
1.81135738113875
30
0
41
1
10
18.9519531502277
20
1.82593017118066
30
0
41
1
10
18.9444245758865
20
1.83694200466951
30
0
41
1
10
18.9378475383439
20
1.84768421941197
30
0
0
SPLINE
5
157
100
AcDbEntity
8
1
62
256
6
ByLayer
370
18
48
1
60
0
100
AcDbSpline
70
4
71
3
72
10
73
6
40
0
40
0
40
0
40
0
40
0.27605405649223
40
0.27605405649223
40
1
40
1
40
1
40
1
41
1
10
18.9660262528639
20
-0.607043070291269
30
0
41
1
10
18.9721485226912
20
-0.606344117080624
30
0
41
1
10
18.97821130204
20
-0.605781361633717
30
0
41
1
10
18.9998452573545
20
-0.604198537052071
30
0
41
1
10
19.0150636143735
20
-0.603893831068888
30
0
41
1
10
19.02980062189
20
-0.604239978638276
30
0
0
SPLINE
5
158
100
AcDbEntity
8
1
62
256
6
ByLayer
370
18
48
1
60
0
100
AcDbSpline
70
4
71
3
72
10
73
6
40
0
40
0
40
0
40
0
40
0.769561481283538
40
0.769561481283538
40
1
40
1
40
1
40
1
41
1
10
19.2381449946061
20
1.63825311258321
30
0
41
1
10
19.2228510979231
20
1.64276395399133
30
0
41
1
10
19.2071401911337
20
1.64795961794812
30
0
41
1
10
19.1863161411334
20
1.6557705767446
30
0
41
1
10
19.1814781616936
20
1.65764825707401
30
0
41
1
10
19.1766146900544
20
1.65960377667309
30
0
0
INSERT
5
16B
100
AcDbEntity
8
SK2
62
256
6
ByLayer
370
25
48
1
60
0
100
AcDbBlockReference
2
DimnDraft3D11
10
0
20
0
30
0
41
1
42
1
43
1
50
0
210
0
220
0
230
1
0
LINE
5
72
100
AcDbEntity
8
1
62
256
6
ByLayer
370
18
48
1
60
0
100
AcDbLine
10
5.729923
20
-1.815369
30
0
11
6.533867
21
-2.500257
31
0
39
0
210
0
220
0
230
1
0
LINE
5
74
100
AcDbEntity
8
1
62
256
6
ByLayer
370
18
48
1
60
0
100
AcDbLine
10
16.769979
20
1.093575
30
0
11
16.747185
21
1.116369
31
0
39
0
210
0
220
0
230
1
0
LINE
5
75
100
AcDbEntity
8
1
62
256
6
ByLayer
370
18
48
1
60
0
100
AcDbLine
10
14.428263
20
-2.636207
30
0
11
14.599348
21
-2.807292
31
0
39
0
210
0
220
0
230
1
0
LINE
5
76
100
AcDbEntity
8
1
62
256
6
ByLayer
370
18
48
1
60
0
100
AcDbLine
10
21.670416
20
4.263776
30
0
11
21.499331
21
4.434861
31
0
39
0
210
0
220
0
230
1
0
LINE
5
77
100
AcDbEntity
8
1
62
256
6
ByLayer
370
18
48
1
60
0
100
AcDbLine
10
41.956946
20
-1.124657
30
0
11
41.29679
21
-0.464501
31
0
39
0
210
0
220
0
230
1
0
LINE
5
78
100
AcDbEntity
8
1
62
256
6
ByLayer
370
18
48
1
60
0
100
AcDbLine
10
11.31356
20
1.805557
30
0
11
10.950032
21
2.11525
31
0
39
0
210
0
220
0
230
1
0
LINE
5
79
100
AcDbEntity
8
1
62
256
6
ByLayer
370
18
48
1
60
0
100
AcDbLine
10
19.568264
20
0.294431
30
0
11
19.781386
21
0.081309
31
0
39
0
210
0
220
0
230
1
0
LINE
5
7A
100
AcDbEntity
8
1
62
256
6
ByLayer
370
18
48
1
60
0
100
AcDbLine
10
24.226858
20
-17.534432
30
0
11
24.887015
21
-18.194589
31
0
39
0
210
0
220
0
230
1
0
LINE
5
7B
100
AcDbEntity
8
80
62
256
6
ByLayer
370
18
48
1
60
0
100
AcDbLine
10
0
20
0
30
0
11
-5
21
0
31
0
39
0
210
0
220
0
230
1
0
LINE
5
7C
100
AcDbEntity
8
81
62
256
6
ByLayer
370
18
48
1
60
0
100
AcDbLine
10
43.674858
20
-19.9125
30
0
11
53.674858
21
-19.9125
31
0
39
0
210
0
220
0
230
1
0
LINE
5
7D
100
AcDbEntity
8
1
62
256
6
ByLayer
370
18
48
1
60
0
100
AcDbLine
10
8.495661
20
-3.887029
30
0
11
5.526605
21
-8.110548
31
0
39
0
210
0
220
0
230
1
0
LINE
5
7E
100
AcDbEntity
8
1
62
256
6
ByLayer
370
18
48
1
60
0
100
AcDbLine
10
4.968754
20
-1.014711
30
0
11
2.16247
21
-5.006685
31
0
39
0
210
0
220
0
230
1
0
LINE
5
7F
100
AcDbEntity
8
1
62
256
6
ByLayer
370
18
48
1
60
0
100
AcDbLine
10
20.61102
20
13.347219
30
0
11
17.137865
21
13.347219
31
0
39
0
210
0
220
0
230
1
0
LINE
5
80
100
AcDbEntity
8
1
62
256
6
ByLayer
370
18
48
1
60
0
100
AcDbLine
10
20.61102
20
13.347219
30
0
11
19.422483
21
11.656511
31
0
39
0
210
0
220
0
230
1
0
LINE
5
81
100
AcDbEntity
8
1
62
256
6
ByLayer
370
18
48
1
60
0
100
AcDbLine
10
23.906787
20
-11.735425
30
0
11
24.358953
21
-17.245303
31
0
39
0
210
0
220
0
230
1
0
LINE
5
82
100
AcDbEntity
8
1
62
256
6
ByLayer
370
18
48
1
60
0
100
AcDbLine
10
31.910891
20
0.160679
30
0
11
41.010082
21
-0.626103
31
0
39
0
210
0
220
0
230
1
0
LINE
5
83
100
AcDbEntity
8
1
62
256
6
ByLayer
370
18
48
1
60
0
100
AcDbLine
10
23.935601
20
-11.743791
30
0
11
23.947493
21
-11.888693
31
0
39
0
210
0
220
0
230
1
0
LINE
5
84
100
AcDbEntity
8
1
62
256
6
ByLayer
370
18
48
1
60
0
100
AcDbLine
10
32.007539
20
0.027814
30
0
11
34.267811
21
-0.167626
31
0
39
0
210
0
220
0
230
1
0
LINE
5
85
100
AcDbEntity
8
1
62
256
6
ByLayer
370
18
48
1
60
0
100
AcDbLine
10
41.010082
20
-0.626103
30
0
11
40.966149
21
-0.727129
31
0
39
0
210
0
220
0
230
1
0
LINE
5
86
100
AcDbEntity
8
1
62
256
6
ByLayer
370
18
48
1
60
0
100
AcDbLine
10
4.490747
20
-0.066435
30
0
11
1.28359
21
-4.628656
31
0
39
0
210
0
220
0
230
1
0
LINE
5
87
100
AcDbEntity
8
1
62
256
6
ByLayer
370
18
48
1
60
0
100
AcDbLine
10
12.334167
20
13.347219
30
0
11
2.993233
21
13.347219
31
0
39
0
210
0
220
0
230
1
0
LINE
5
88
100
AcDbEntity
8
1
62
256
6
ByLayer
370
18
48
1
60
0
100
AcDbLine
10
4.950157
20
-0.990797
30
0
11
1.956417
21
-5.249429
31
0
39
0
210
0
220
0
230
1
0
LINE
5
89
100
AcDbEntity
8
1
62
256
6
ByLayer
370
18
48
1
60
0
100
AcDbLine
10
16.750006
20
1.113401
30
0
11
16.7628
21
1.100608
31
0
39
0
210
0
220
0
230
1
0
LINE
5
8A
100
AcDbEntity
8
1
62
256
6
ByLayer
370
18
48
1
60
0
100
AcDbLine
10
32.052219
20
-0.033519
30
0
11
41.224467
21
-0.786236
31
0
39
0
210
0
220
0
230
1
0
LINE
5
8B
100
AcDbEntity
8
1
62
256
6
ByLayer
370
18
48
1
60
0
100
AcDbLine
10
24.548594
20
-17.46211
30
0
11
24.082645
21
-11.784288
31
0
39
0
210
0
220
0
230
1
0
LINE
5
8C
100
AcDbEntity
8
1
62
256
6
ByLayer
370
18
48
1
60
0
100
AcDbLine
10
24.548594
20
-17.46211
30
0
11
24.32935
21
-17.242866
31
0
39
0
210
0
220
0
230
1
0
LINE
5
8D
100
AcDbEntity
8
1
62
256
6
ByLayer
370
18
48
1
60
0
100
AcDbLine
10
41.005223
20
-0.566992
30
0
11
41.224467
21
-0.786236
31
0
39
0
210
0
220
0
230
1
0
LINE
5
8E
100
AcDbEntity
8
1
62
256
6
ByLayer
370
18
48
1
60
0
100
AcDbLine
10
42.295367
20
-1.857136
30
0
11
43.670861
21
-18.618233
31
0
39
0
210
0
220
0
230
1
0
LINE
5
8F
100
AcDbEntity
8
1
62
256
6
ByLayer
370
18
48
1
60
0
100
AcDbLine
10
42.380591
20
-19.908504
30
0
11
25.619494
21
-18.53301
31
0
39
0
210
0
220
0
230
1
0
LINE
5
90
100
AcDbEntity
8
1
62
256
6
ByLayer
370
18
48
1
60
0
100
AcDbLine
10
17.71674
20
12.83846
30
0
11
17.001018
21
13.448191
31
0
39
0
210
0
220
0
230
1
0
LINE
5
91
100
AcDbEntity
8
1
62
256
6
ByLayer
370
18
48
1
60
0
100
AcDbLine
10
8.151723
20
-0.423345
30
0
11
15.32268
21
-5.424458
31
0
39
0
210
0
220
0
230
1
0
LINE
5
92
100
AcDbEntity
8
1
62
256
6
ByLayer
370
18
48
1
60
0
100
AcDbLine
10
35.845476
20
-5.316985
30
0
11
36.196646
21
-7.305671
31
0
39
0
210
0
220
0
230
1
0
LINE
5
93
100
AcDbEntity
8
1
62
256
6
ByLayer
370
18
48
1
60
0
100
AcDbLine
10
32.147272
20
-13.065956
30
0
11
30.150972
21
-13.417487
31
0
39
0
210
0
220
0
230
1
0
LINE
5
94
100
AcDbEntity
8
1
62
256
6
ByLayer
370
18
48
1
60
0
100
AcDbLine
10
13.78589
20
11.168472
30
0
11
11.86402
21
12.805732
31
0
39
0
210
0
220
0
230
1
0
LINE
5
95
100
AcDbEntity
8
1
62
256
6
ByLayer
370
18
48
1
60
0
100
AcDbLine
10
11.86402
20
12.805732
30
0
11
4.965091
21
2.99192
31
0
39
0
210
0
220
0
230
1
0
LINE
5
96
100
AcDbEntity
8
1
62
256
6
ByLayer
370
18
48
1
60
0
100
AcDbLine
10
13.187074
20
-7.132715
30
0
11
8.724854
21
-4.020708
31
0
39
0
210
0
220
0
230
1
0
LINE
5
97
100
AcDbEntity
8
1
62
256
6
ByLayer
370
18
48
1
60
0
100
AcDbLine
10
19.602952
20
11.522993
30
0
11
19.621995
21
11.480611
31
0
39
0
210
0
220
0
230
1
0
LINE
5
98
100
AcDbEntity
8
1
62
256
6
ByLayer
370
18
48
1
60
0
100
AcDbLine
10
33.306175
20
-9.709932
30
0
11
35.925193
21
-11.447237
31
0
39
0
210
0
220
0
230
1
0
LINE
5
99
100
AcDbEntity
8
1
62
256
6
ByLayer
370
18
48
1
60
0
100
AcDbLine
10
16.119941
20
-4.130208
30
0
11
15.858103
21
-3.907147
31
0
39
0
210
0
220
0
230
1
0
LINE
5
9A
100
AcDbEntity
8
1
62
256
6
ByLayer
370
18
48
1
60
0
100
AcDbLine
10
6.886961
20
1.35466
30
0
11
4.965091
21
2.99192
31
0
39
0
210
0
220
0
230
1
0
LINE
5
9B
100
AcDbEntity
8
1
62
256
6
ByLayer
370
18
48
1
60
0
100
AcDbLine
10
10.725757
20
2.288246
30
0
11
9.366627
21
3.235199
31
0
39
0
210
0
220
0
230
1
0
LINE
5
9C
100
AcDbEntity
8
1
62
256
6
ByLayer
370
18
48
1
60
0
100
AcDbLine
10
24.084216
20
8.368604
30
0
11
19.621995
21
11.480611
31
0
39
0
210
0
220
0
230
1
0
LINE
5
9D
100
AcDbEntity
8
1
62
256
6
ByLayer
370
18
48
1
60
0
100
AcDbLine
10
11.056781
20
2.006243
30
0
11
10.725757
21
2.288246
31
0
39
0
210
0
220
0
230
1
0
LINE
5
9E
100
AcDbEntity
8
1
62
256
6
ByLayer
370
18
48
1
60
0
100
AcDbLine
10
17.71674
20
12.83846
30
0
11
19.602952
21
11.522993
31
0
39
0
210
0
220
0
230
1
0
LINE
5
9F
100
AcDbEntity
8
1
62
256
6
ByLayer
370
18
48
1
60
0
100
AcDbLine
10
7.497366
20
2.029113
30
0
11
13.345951
21
10.348797
31
0
39
0
210
0
220
0
230
1
0
LINE
5
A0
100
AcDbEntity
8
1
62
256
6
ByLayer
370
18
48
1
60
0
100
AcDbLine
10
15.875413
20
10.563699
30
0
11
23.04637
21
5.562587
31
0
39
0
210
0
220
0
230
1
0
LINE
5
A1
100
AcDbEntity
8
1
62
256
6
ByLayer
370
18
48
1
60
0
100
AcDbLine
10
22.041522
20
4.293314
30
0
11
20.130501
21
5.626083
31
0
39
0
210
0
220
0
230
1
0
LINE
5
A2
100
AcDbEntity
8
1
62
256
6
ByLayer
370
18
48
1
60
0
100
AcDbLine
10
8.679647
20
-4.015543
30
0
11
8.724854
21
-4.020708
31
0
39
0
210
0
220
0
230
1
0
LINE
5
A3
100
AcDbEntity
8
1
62
256
6
ByLayer
370
18
48
1
60
0
100
AcDbLine
10
9.366627
20
3.235199
30
0
11
12.816091
21
8.142105
31
0
39
0
210
0
220
0
230
1
0
LINE
5
A4
100
AcDbEntity
8
1
62
256
6
ByLayer
370
18
48
1
60
0
100
AcDbLine
10
14.20892
20
-2.797439
30
0
11
16.119941
21
-4.130208
31
0
39
0
210
0
220
0
230
1
0
LINE
5
A5
100
AcDbEntity
8
1
62
256
6
ByLayer
370
18
48
1
60
0
100
AcDbLine
10
8.679647
20
-4.015543
30
0
11
6.793435
21
-2.700076
31
0
39
0
210
0
220
0
230
1
0
LINE
5
A6
100
AcDbEntity
8
1
62
256
6
ByLayer
370
18
48
1
60
0
100
AcDbLine
10
19.602952
20
11.522993
30
0
11
17.192434
21
13.306861
31
0
39
0
210
0
220
0
230
1
0
LINE
5
A7
100
AcDbEntity
8
1
62
256
6
ByLayer
370
18
48
1
60
0
100
AcDbLine
10
18.757407
20
-0.398423
30
0
11
18.966026
21
-0.607043
31
0
39
0
210
0
220
0
230
1
0
LINE
5
A8
100
AcDbEntity
8
1
62
256
6
ByLayer
370
18
48
1
60
0
100
AcDbLine
10
19.454974
20
0.814206
30
0
11
19.663594
21
0.605586
31
0
39
0
210
0
220
0
230
1
0
LINE
5
A9
100
AcDbEntity
8
1
62
256
6
ByLayer
370
18
48
1
60
0
100
AcDbLine
10
19.064164
20
-0.439904
30
0
11
19.277285
21
-0.653025
31
0
39
0
210
0
220
0
230
1
0
LINE
5
AA
100
AcDbEntity
8
1
62
256
6
ByLayer
370
18
48
1
60
0
100
AcDbLine
10
18.360245
20
-0.771148
30
0
11
18.573366
21
-0.98427
31
0
39
0
210
0
220
0
230
1
0
LINE
5
AB
100
AcDbEntity
8
1
62
256
6
ByLayer
370
18
48
1
60
0
100
AcDbLine
10
19.640006
20
0.351701
30
0
11
19.431386
21
0.560321
31
0
39
0
210
0
220
0
230
1
0
LINE
5
AC
100
AcDbEntity
8
1
62
256
6
ByLayer
370
18
48
1
60
0
100
AcDbLine
10
16.847363
20
-0.257983
30
0
11
17.060484
21
-0.471104
31
0
39
0
210
0
220
0
230
1
0
LINE
5
AD
100
AcDbEntity
8
1
62
256
6
ByLayer
370
18
48
1
60
0
100
AcDbLine
10
17.365746
20
-0.475717
30
0
11
17.157127
21
-0.267097
31
0
39
0
210
0
220
0
230
1
0
LINE
5
AE
100
AcDbEntity
8
1
62
256
6
ByLayer
370
18
48
1
60
0
100
AcDbLine
10
18.734572
20
-0.715959
30
0
11
18.525952
21
-0.507339
31
0
39
0
210
0
220
0
230
1
0
LINE
5
AF
100
AcDbEntity
8
1
62
256
6
ByLayer
370
18
48
1
60
0
100
AcDbLine
10
18.645577
20
2.3
30
0
11
18.858699
21
2.086879
31
0
39
0
210
0
220
0
230
1
0
LINE
5
B0
100
AcDbEntity
8
1
62
256
6
ByLayer
370
18
48
1
60
0
100
AcDbLine
10
18.760128
20
2.013192
30
0
11
18.968748
21
1.804573
31
0
39
0
210
0
220
0
230
1
0
LINE
5
B1
100
AcDbEntity
8
1
62
256
6
ByLayer
370
18
48
1
60
0
100
AcDbLine
10
17.364994
20
-0.412066
30
0
11
17.573613
21
-0.620686
31
0
39
0
210
0
220
0
230
1
0
LINE
5
B2
100
AcDbEntity
8
1
62
256
6
ByLayer
370
18
48
1
60
0
100
AcDbLine
10
19.64718
20
1.059533
30
0
11
19.860302
21
0.846412
31
0
39
0
210
0
220
0
230
1
0
LINE
5
B3
100
AcDbEntity
8
1
62
256
6
ByLayer
370
18
48
1
60
0
100
AcDbLine
10
2.16247
20
-5.006685
30
0
11
5.526605
21
-8.110548
31
0
39
0
210
0
220
0
230
1
0
LINE
5
B4
100
AcDbEntity
8
1
62
256
6
ByLayer
370
18
48
1
60
0
100
AcDbLine
10
40.433761
20
6.396666
30
0
11
41.010082
21
-0.626103
31
0
39
0
210
0
220
0
230
1
0
LINE
5
B5
100
AcDbEntity
8
1
62
256
6
ByLayer
370
18
48
1
60
0
100
AcDbLine
10
2.993233
20
13.347219
30
0
11
1.28359
21
-4.628656
31
0
39
0
210
0
220
0
230
1
0
LINE
5
B6
100
AcDbEntity
8
1
62
256
6
ByLayer
370
18
48
1
60
0
100
AcDbLine
10
28.231717
20
13.347219
30
0
11
30.564523
21
13.347219
31
0
39
0
210
0
220
0
230
1
0
LINE
5
B7
100
AcDbEntity
8
1
62
256
6
ByLayer
370
18
48
1
60
0
100
AcDbLine
10
30.564523
20
13.347219
30
0
11
37.46379
21
9.366636
31
0
39
0
210
0
220
0
230
1
0
LINE
5
B8
100
AcDbEntity
8
1
62
256
6
ByLayer
370
18
48
1
60
0
100
AcDbLine
10
24.358953
20
-17.245303
30
0
11
4.810396
21
-15.641057
31
0
39
0
210
0
220
0
230
1
0
LINE
5
B9
100
AcDbEntity
8
1
62
256
6
ByLayer
370
18
48
1
60
0
100
AcDbLine
10
5.526605
20
-8.110548
30
0
11
4.810396
21
-15.641057
31
0
39
0
210
0
220
0
230
1
0
LINE
5
BA
100
AcDbEntity
8
1
62
256
6
ByLayer
370
18
48
1
60
0
100
AcDbLine
10
2.993233
20
13.347219
30
0
11
0.905758
21
13.347219
31
0
39
0
210
0
220
0
230
1
0
LINE
5
BB
100
AcDbEntity
8
1
62
256
6
ByLayer
370
18
48
1
60
0
100
AcDbLine
10
28.231717
20
13.347219
30
0
11
20.61102
21
13.347219
31
0
39
0
210
0
220
0
230
1
0
LINE
5
BC
100
AcDbEntity
8
1
62
256
6
ByLayer
370
18
48
1
60
0
100
AcDbLine
10
37.46379
20
9.366636
30
0
11
40.433761
21
6.396666
31
0
39
0
210
0
220
0
230
1
0
LINE
5
BD
100
AcDbEntity
8
1
62
256
6
ByLayer
370
18
48
1
60
0
100
AcDbLine
10
0
20
12.4375
30
0
11
0.905758
21
13.347219
31
0
39
0
210
0
220
0
230
1
0
LINE
5
BE
100
AcDbEntity
8
1
62
256
6
ByLayer
370
18
48
1
60
0
100
AcDbLine
10
40.433761
20
6.396666
30
0
11
28.231717
21
13.347219
31
0
39
0
210
0
220
0
230
1
0
LINE
5
BF
100
AcDbEntity
8
1
62
256
6
ByLayer
370
18
48
1
60
0
100
AcDbLine
10
1.956417
20
-5.249429
30
0
11
2.16247
21
-5.006685
31
0
39
0
210
0
220
0
230
1
0
LINE
5
C0
100
AcDbEntity
8
1
62
256
6
ByLayer
370
18
48
1
60
0
100
AcDbLine
10
24.358953
20
-17.245303
30
0
11
24.478803
21
-17.193109
31
0
39
0
210
0
220
0
230
1
0
LINE
5
C1
100
AcDbEntity
8
1
62
256
6
ByLayer
370
18
48
1
60
0
100
AcDbLine
10
0
20
-12.4375
30
0
11
0
21
12.4375
31
0
39
0
210
0
220
0
230
1
0
LINE
5
C2
100
AcDbEntity
8
1
62
256
6
ByLayer
370
18
48
1
60
0
100
AcDbLine
10
4.810396
20
-15.641057
30
0
11
2.83093
21
-15.26843
31
0
39
0
210
0
220
0
230
1
0
LINE
5
C3
100
AcDbEntity
8
1
62
256
6
ByLayer
370
18
48
1
60
0
100
AcDbLine
10
2.83093
20
-15.26843
30
0
11
0
21
-12.4375
31
0
39
0
210
0
220
0
230
1
0
LINE
5
C4
100
AcDbEntity
8
1
62
256
6
ByLayer
370
18
48
1
60
0
100
AcDbLine
10
24.478803
20
-17.193109
30
0
11
24.11964
21
-12.816514
31
0
39
0
210
0
220
0
230
1
0
LINE
5
C5
100
AcDbEntity
8
SK1
62
256
6
ByLayer
370
18
48
1
60
0
100
AcDbLine
10
-107.675142
20
12.4375
30
0
11
0
21
12.4375
31
0
39
0
210
0
220
0
230
1
0
LINE
5
C7
100
AcDbEntity
8
SK1
62
256
6
ByLayer
370
18
48
1
60
0
100
AcDbLine
10
-107.675142
20
-12.4375
30
0
11
-107.675142
21
12.4375
31
0
39
0
210
0
220
0
230
1
0
LINE
5
C8
100
AcDbEntity
8
SK1
62
256
6
ByLayer
370
18
48
1
60
0
100
AcDbLine
10
0
20
-12.4375
30
0
11
-107.675142
21
-12.4375
31
0
39
0
210
0
220
0
230
1
0
LINE
5
C9
100
AcDbEntity
8
SK1
62
256
6
ByLayer
370
18
48
1
60
0
100
AcDbLine
10
0
20
-12.4375
30
0
11
0
21
12.4375
31
0
39
0
210
0
220
0
230
1
0
MTEXT
5
159
100
AcDbEntity
8
SK6
62
256
6
ByLayer
370
18
48
1
60
0
100
AcDbMText
10
-46.125142
20
22.615708
30
0
210
0
220
0
230
1
1
\W0.7535;DCLNL 2525M 19
40
3.5
41
0
44
1.084337
50
0
71
7
72
5
7
iso_b_vert
0
DIMENSION
5
179
100
AcDbEntity
8
2
62
256
6
ByLayer
370
13
48
1
60
0
100
AcDbDimension
2
DimnDraft3D2
10
41.390202
20
-19.826721
30
0
11
31.246545
21
-31.464378
31
0
70
34
71
5
72
1
41
1
210
0
220
0
230
1
3
Standard
100
AcDb2LineAngularDimension
13
43.674858
23
-19.9125
33
0
14
43.674858
24
-17.53125
34
0
15
42.386852
25
-19.908511
35
0
16
27.936995
26
-34.513456
36
0
40
0
0
DIMENSION
5
18E
100
AcDbEntity
8
2
62
256
6
ByLayer
370
13
48
1
60
0
100
AcDbDimension
2
DimnDraft3D3
10
43.674858
20
-48.1625
30
0
11
16.319008
21
-48.1625
31
0
70
32
71
5
72
1
41
1
210
0
220
0
230
1
3
Standard
100
AcDbAlignedDimension
13
0
23
-14.4375
33
0
14
43.674858
24
-21.9125
34
0
50
0
100
AcDbRotatedDimension
1001
ACAD
1000
DSTYLE
1002
{
1070
   279
1070
     0
1070
   172
1070
     1
1070
   173
1070
     1
1070
   340
1005
15A
1070
    77
1070
     1
1070
    73
1070
     0
1070
   171
1070
     3
1070
   274
1070
     4
1070
   177
1070
     2
1070
   176
1070
     2
1070
   178
1070
     7
1070
    78
1070
     8
1070
    41
1041
3.175
1070
   147
1041
2.25
1070
    42
1041
2.0
1070
    44
1041
2.0
1070
   140
1041
4.5
1070
   343
1005
17A
1070
   344
1005
17A
1002
}
0
DIMENSION
5
19C
100
AcDbEntity
8
2
62
256
6
ByLayer
370
13
48
1
60
0
100
AcDbDimension
2
DimnDraft3D4
10
65.924858
20
-19.9125
30
0
11
65.924858
21
-9.019079
31
0
70
32
71
5
72
1
41
1
210
0
220
0
230
1
3
Standard
100
AcDbAlignedDimension
13
2
23
12.4375
33
0
14
45.674857
24
-19.9125
34
0
50
90
100
AcDbRotatedDimension
1001
ACAD
1000
DSTYLE
1002
{
1070
    74
1070
     0
1070
   279
1070
     0
1070
   172
1070
     1
1070
   173
1070
     1
1070
   340
1005
15A
1070
    77
1070
     1
1070
    73
1070
     0
1070
   171
1070
     3
1070
   274
1070
     4
1070
   177
1070
     2
1070
   176
1070
     2
1070
   178
1070
     7
1070
    78
1070
     8
1070
    41
1041
3.175
1070
   147
1041
2.25
1070
    42
1041
2.0
1070
    44
1041
2.0
1070
   140
1041
4.5
1070
   343
1005
17A
1070
   344
1005
17A
1002
}
0
DIMENSION
5
1AA
100
AcDbEntity
8
SK2
62
256
6
ByLayer
370
13
48
1
60
0
100
AcDbDimension
2
DimnDraft3D5
10
-115.425142
20
-12.4375
30
0
11
-115.425142
21
-5.281579
31
0
70
32
71
5
72
1
41
1
210
0
220
0
230
1
3
Standard
100
AcDbAlignedDimension
13
-109.675142
23
12.4375
33
0
14
-109.675142
24
-12.4375
34
0
50
90
100
AcDbRotatedDimension
1001
ACAD
1000
DSTYLE
1002
{
1070
    74
1070
     0
1070
   279
1070
     0
1070
   172
1070
     1
1070
   173
1070
     1
1070
   340
1005
15A
1070
    77
1070
     1
1070
    73
1070
     0
1070
   171
1070
     3
1070
   274
1070
     4
1070
   177
1070
     2
1070
   176
1070
     2
1070
   178
1070
     7
1070
    78
1070
     8
1070
    41
1041
3.175
1070
   147
1041
2.25
1070
    42
1041
2.0
1070
    44
1041
2.0
1070
   140
1041
4.5
1070
   343
1005
17A
1070
   344
1005
17A
1002
}
0
ENDSEC
0
SECTION
2
OBJECTS
0
DICTIONARY
5
214
330
0
100
AcDbDictionary
280
0
281
1
3
ACAD_GROUP
350
215
3
ACAD_MLINESTYLE
350
216
0
DICTIONARY
5
215
330
0
100
AcDbDictionary
280
0
281
1
0
DICTIONARY
5
216
330
0
100
AcDbDictionary
280
0
281
1
3
Standard
350
18
0
MLINESTYLE
5
18
330
216
100
AcDbMlineStyle
2
Standard
70
0
3

62
256
51
90
52
90
71
2
49
-0.5
62
256
6
ByLayer
49
0.5
62
256
6
ByLayer
0
RASTERVARIABLES
5
203
330

100
AcDbRasterVariables
90
0
70
1
71
1
72
1
0
ENDSEC
0
EOF
