0
SECTION
2
HEADER
9
$ACADVER
1
AC1015
9
$DWGCODEPAGE
3
ANSI_1252
9
$HANDSEED
5
228
9
$ANGBASE
50
0
9
$ANGDIR
70
0
9
$ATTMODE
70
1
9
$AUNITS
70
0
9
$AUPREC
70
0
9
$CECOLOR
62
256
9
$CELTSCALE
40
1
9
$CELTYPE
6
ByLayer
9
$CELWEIGHT
370
18
9
$CLAYER
8
0
9
$CMLJUST
70
0
9
$CMLSCALE
40
1
9
$CMLSTYLE
2
Standard
9
$DIMSTYLE
2
Standard
9
$TEXTSIZE
40
0.2
9
$TEXTSTYLE
7
Standard
9
$LUNITS
70
2
9
$LUPREC
70
4
9
$EXTNAMES
290
1
9
$INSUNITS
70
4
9
$LTSCALE
40
1
9
$LWDISPLAY
290
1
9
$PDMODE
70
0
9
$PDSIZE
40
0
9
$PLINEGEN
70
0
0
ENDSEC
0
SECTION
2
CLASSES
0
CLASS
1
RASTERVARIABLES
2
AcDbRasterVariables
3
ISM
90
0
280
0
281
0
0
ENDSEC
0
SECTION
2
TABLES
0
TABLE
2
VPORT
5
21e
100
AcDbSymbolTable
0
VPORT
5
1
100
AcDbSymbolTableRecord
100
AcDbViewportTableRecord
2
*Active
70
0
10
0
20
0
11
1
21
1
12
-1
22
1
13
0
23
0
14
0.5
24
0.5
15
10
25
10
16
0
26
0
36
1
17
0
27
0
37
0
0
ENDTAB
0
TABLE
2
LTYPE
5
21f
100
AcDbSymbolTable
0
LTYPE
5
14
100
AcDbSymbolTableRecord
100
AcDbLinetypeTableRecord
70
0
2
ByBlock
3

72
65
73
0
40
0
0
LTYPE
5
15
100
AcDbSymbolTableRecord
100
AcDbLinetypeTableRecord
70
0
2
ByLayer
3

72
65
73
0
40
0
0
LTYPE
5
16
100
AcDbSymbolTableRecord
100
AcDbLinetypeTableRecord
70
0
2
CONTINUOUS
3
Solid line
72
65
73
0
40
0
0
LTYPE
5
6A
100
AcDbSymbolTableRecord
100
AcDbLinetypeTableRecord
70
0
2
CENTER
3
____ _ ____ _ ____ _ ____
72
65
73
4
40
47.5
49
22
74
0
49
-8.5
74
0
49
8.5
74
0
49
-8.5
74
0
0
LTYPE
5
6B
100
AcDbSymbolTableRecord
100
AcDbLinetypeTableRecord
70
0
2
DASHED
3
__ __ __ __ __ __ __ __ __
72
65
73
2
40
25.72
49
12.86
74
0
49
-12.86
74
0
0
ENDTAB
0
TABLE
2
LAYER
5
220
100
AcDbSymbolTable
0
LAYER
5
10
100
AcDbSymbolTableRecord
100
AcDbLayerTableRecord
2
0
70
0
62
7
6
CONTINUOUS
290
1
370
-3
390
0
0
LAYER
5
6D
100
AcDbSymbolTableRecord
100
AcDbLayerTableRecord
2
2
70
0
62
7
6
CONTINUOUS
290
1
370
-3
390
0
0
LAYER
5
6F
100
AcDbSymbolTableRecord
100
AcDbLayerTableRecord
2
80
70
0
62
-6
6
CONTINUOUS
290
1
370
-3
390
0
0
LAYER
5
71
100
AcDbSymbolTableRecord
100
AcDbLayerTableRecord
2
81
70
0
62
-3
6
CONTINUOUS
290
1
370
-3
390
0
0
LAYER
5
73
100
AcDbSymbolTableRecord
100
AcDbLayerTableRecord
2
1
70
0
62
4
6
CONTINUOUS
290
1
370
-3
390
0
0
LAYER
5
20b
100
AcDbSymbolTableRecord
100
AcDbLayerTableRecord
2
SK1
70
0
62
4
6
CONTINUOUS
290
1
370
-3
390
0
0
LAYER
5
20c
100
AcDbSymbolTableRecord
100
AcDbLayerTableRecord
2
SK6
70
0
62
5
6
CONTINUOUS
290
1
370
-3
390
0
0
LAYER
5
20d
100
AcDbSymbolTableRecord
100
AcDbLayerTableRecord
2
SK2
70
0
62
7
6
CONTINUOUS
290
1
370
-3
390
0
0
ENDTAB
0
TABLE
2
STYLE
5
221
100
AcDbSymbolTable
0
STYLE
5
11
100
AcDbSymbolTableRecord
100
AcDbTextStyleTableRecord
2
Standard
3
txt
70
0
71
0
40
0
41
1
42
0
50
0
0
STYLE
5
161
100
AcDbSymbolTableRecord
100
AcDbTextStyleTableRecord
2
iso_b_vert
3
simplex.shx
70
0
71
0
40
0
41
1
42
0
50
0
0
STYLE
5
162
100
AcDbSymbolTableRecord
100
AcDbTextStyleTableRecord
2
DWGDirectTextStyle
3
simplex
70
0
71
0
40
0
41
1
42
0
50
0
0
ENDTAB
0
TABLE
2
DIMSTYLE
5
222
100
AcDbSymbolTable
100
AcDbDimStyleTable
0
DIMSTYLE
105
27
100
AcDbSymbolTableRecord
100
AcDbDimStyleTableRecord
2
Standard
70
0
3
<>
41
0.18
42
0.0625
44
0.18
140
0.18
147
0.09
73
0
74
0
77
1
271
2
275
0
278
52
280
0
340
11
0
ENDTAB
0
TABLE
2
VIEW
5
223
100
AcDbSymbolTable
0
ENDTAB
0
TABLE
2
UCS
5
224
100
AcDbSymbolTable
0
ENDTAB
0
TABLE
2
APPID
5
225
100
AcDbSymbolTable
0
APPID
5
12
100
AcDbSymbolTableRecord
100
AcDbRegAppTableRecord
2
ACAD
70
0
0
ENDTAB
0
TABLE
2
BLOCK_RECORD
5
226
100
AcDbSymbolTable
0
BLOCK_RECORD
5
1F
100
AcDbSymbolTableRecord
100
AcDbBlockTableRecord
2
*Model_Space
340
0
70
0
0
BLOCK_RECORD
5
1B
100
AcDbSymbolTableRecord
100
AcDbBlockTableRecord
2
*Paper_Space
340
0
70
0
0
BLOCK_RECORD
5
23
100
AcDbSymbolTableRecord
100
AcDbBlockTableRecord
2
*Paper_Space0
340
0
70
0
0
BLOCK_RECORD
5
164
100
AcDbSymbolTableRecord
100
AcDbBlockTableRecord
2
DimnDraft3D11
340
0
70
0
0
BLOCK_RECORD
5
173
100
AcDbSymbolTableRecord
100
AcDbBlockTableRecord
2
DimnDraft3D2
340
0
70
0
0
BLOCK_RECORD
5
181
100
AcDbSymbolTableRecord
100
AcDbBlockTableRecord
2
_CLOSED
340
0
70
0
0
BLOCK_RECORD
5
188
100
AcDbSymbolTableRecord
100
AcDbBlockTableRecord
2
DimnDraft3D3
340
0
70
0
0
BLOCK_RECORD
5
196
100
AcDbSymbolTableRecord
100
AcDbBlockTableRecord
2
DimnDraft3D4
340
0
70
0
0
BLOCK_RECORD
5
1A4
100
AcDbSymbolTableRecord
100
AcDbBlockTableRecord
2
DimnDraft3D5
340
0
70
0
0
ENDTAB
0
ENDSEC
0
SECTION
2
BLOCKS
0
BLOCK
5
20
100
AcDbEntity
8
0
100
AcDbBlockBegin
2
*Model_Space
70
0
10
0
20
0
30
0
3
*Model_Space
0
ENDBLK
5
21
100
AcDbEntity
8
0
100
AcDbBlockEnd
0
BLOCK
5
1C
100
AcDbEntity
8
0
100
AcDbBlockBegin
2
*Paper_Space
70
0
10
0
20
0
30
0
3
*Paper_Space
0
ENDBLK
5
1D
100
AcDbEntity
8
0
100
AcDbBlockEnd
0
BLOCK
5
24
100
AcDbEntity
8
0
100
AcDbBlockBegin
2
*Paper_Space0
70
0
10
0
20
0
30
0
3
*Paper_Space0
0
ENDBLK
5
25
100
AcDbEntity
8
0
100
AcDbBlockEnd
0
BLOCK
5
165
100
AcDbEntity
8
0
100
AcDbBlockBegin
2
DimnDraft3D11
70
0
10
0
20
0
30
0
3
DimnDraft3D11
0
LINE
5
167
100
AcDbEntity
8
SK2
62
256
6
ByLayer
370
25
48
1
60
0
100
AcDbLine
10
24.797
20
-14.4125
30
0
11
24.797
21
-52.6625
31
0
39
0
210
0
220
0
230
1
0
LINE
5
169
100
AcDbEntity
8
SK2
62
256
6
ByLayer
370
25
48
1
60
0
100
AcDbLine
10
-76.553
20
-9.9375
30
0
11
-76.553
21
-52.6625
31
0
39
0
210
0
220
0
230
1
0
LINE
5
16A
100
AcDbEntity
8
SK2
62
256
6
ByLayer
370
25
48
1
60
0
100
AcDbLine
10
24.797
20
-50.6625
30
0
11
-76.553
21
-50.6625
31
0
39
0
210
0
220
0
230
1
0
LINE
5
16B
100
AcDbEntity
8
SK2
62
256
6
ByLayer
370
25
48
1
60
0
100
AcDbLine
10
24.797
20
-50.6625
30
0
11
21.622002
21
-51.080497
31
0
39
0
210
0
220
0
230
1
0
LINE
5
16C
100
AcDbEntity
8
SK2
62
256
6
ByLayer
370
25
48
1
60
0
100
AcDbLine
10
24.797
20
-50.6625
30
0
11
21.621999
21
-50.244503
31
0
39
0
210
0
220
0
230
1
0
LINE
5
16D
100
AcDbEntity
8
SK2
62
256
6
ByLayer
370
25
48
1
60
0
100
AcDbLine
10
21.622002
20
-51.080497
30
0
11
21.621999
21
-50.244503
31
0
39
0
210
0
220
0
230
1
0
LINE
5
16E
100
AcDbEntity
8
SK2
62
256
6
ByLayer
370
25
48
1
60
0
100
AcDbLine
10
-76.553
20
-50.6625
30
0
11
-73.378001
21
-50.244503
31
0
39
0
210
0
220
0
230
1
0
LINE
5
16F
100
AcDbEntity
8
SK2
62
256
6
ByLayer
370
25
48
1
60
0
100
AcDbLine
10
-76.553
20
-50.6625
30
0
11
-73.377998
21
-51.080497
31
0
39
0
210
0
220
0
230
1
0
LINE
5
170
100
AcDbEntity
8
SK2
62
256
6
ByLayer
370
25
48
1
60
0
100
AcDbLine
10
-73.378001
20
-50.244503
30
0
11
-73.377998
21
-51.080497
31
0
39
0
210
0
220
0
230
1
0
MTEXT
5
171
100
AcDbEntity
8
SK2
62
256
6
ByLayer
370
18
48
1
60
0
100
AcDbMText
10
-31.153658
20
-49.5375
30
0
210
0
220
0
230
1
1
\W0.6864;100.0
40
4.5
41
0
44
1.084337
50
0
71
7
72
5
7
iso_b_vert
0
ENDBLK
5
166
100
AcDbEntity
8
0
100
AcDbBlockEnd
0
BLOCK
5
17E
100
AcDbEntity
8
0
100
AcDbBlockBegin
2
DimnDraft3D2
70
0
10
0
20
0
30
0
3
DimnDraft3D2
0
MTEXT
5
174
100
AcDbEntity
8
2
62
256
6
ByLayer
370
18
48
1
60
0
100
AcDbMText
10
7.891067
20
-24.086616
30
0
210
0
220
0
230
1
1
\W0.7399;95%%d
40
4.5
41
0
44
1.084337
50
312.65427684
71
7
72
5
7
iso_b_vert
0
LINE
5
175
100
AcDbEntity
8
2
62
256
6
ByLayer
370
13
48
1
60
0
100
AcDbLine
10
24.797
20
-14.4125
30
0
11
24.797
21
-35.902991
31
0
39
0
210
0
220
0
230
1
0
LINE
5
176
100
AcDbEntity
8
2
62
256
6
ByLayer
370
13
48
1
60
0
100
AcDbLine
10
20.948381
20
-12.164471
30
0
11
1.452791
21
-10.564572
31
0
39
0
210
0
220
0
230
1
0
ARC
5
177
100
AcDbEntity
8
2
62
256
6
ByLayer
370
13
48
1
60
0
100
AcDbCircle
39
0
10
24.797
20
-12.480307
30
0
40
21.4226837817216
210
0
220
0
230
1
100
AcDbArc
50
175.308554
51
270
0
LINE
5
178
100
AcDbEntity
8
2
62
256
6
ByLayer
370
13
48
1
60
0
100
AcDbLine
10
24.797
20
-33.902991
30
0
11
21.608717
21
-34.203304
31
0
39
0
210
0
220
0
230
1
0
LINE
5
179
100
AcDbEntity
8
2
62
256
6
ByLayer
370
13
48
1
60
0
100
AcDbLine
10
24.797
20
-33.902991
30
0
11
21.639625
21
-33.367882
31
0
39
0
210
0
220
0
230
1
0
LINE
5
17A
100
AcDbEntity
8
2
62
256
6
ByLayer
370
13
48
1
60
0
100
AcDbLine
10
21.608717
20
-34.203304
30
0
11
21.639625
21
-33.367882
31
0
39
0
210
0
220
0
230
1
0
LINE
5
17B
100
AcDbEntity
8
2
62
256
6
ByLayer
370
13
48
1
60
0
100
AcDbLine
10
3.446091
20
-10.728152
30
0
11
3.721166
21
-13.918711
31
0
39
0
210
0
220
0
230
1
0
LINE
5
17C
100
AcDbEntity
8
2
62
256
6
ByLayer
370
13
48
1
60
0
100
AcDbLine
10
3.446091
20
-10.728152
30
0
11
2.886015
21
-13.881193
31
0
39
0
210
0
220
0
230
1
0
LINE
5
17D
100
AcDbEntity
8
2
62
256
6
ByLayer
370
13
48
1
60
0
100
AcDbLine
10
3.721166
20
-13.918711
30
0
11
2.886015
21
-13.881193
31
0
39
0
210
0
220
0
230
1
0
ENDBLK
5
17F
100
AcDbEntity
8
0
100
AcDbBlockEnd
0
BLOCK
5
182
100
AcDbEntity
8
0
100
AcDbBlockBegin
2
_CLOSED
70
0
10
0
20
0
30
0
3
_CLOSED
0
LINE
5
184
100
AcDbEntity
8
0
62
256
6
ByLayer
370
-2
48
1
60
0
100
AcDbLine
10
-1
20
0.166667
30
0
11
0
21
0
31
0
39
0
210
0
220
0
230
1
0
LINE
5
185
100
AcDbEntity
8
0
62
256
6
ByLayer
370
-2
48
1
60
0
100
AcDbLine
10
0
20
0
30
0
11
-1
21
-0.166667
31
0
39
0
210
0
220
0
230
1
0
LINE
5
186
100
AcDbEntity
8
0
62
256
6
ByLayer
370
-2
48
1
60
0
100
AcDbLine
10
-1
20
0.166667
30
0
11
-1
21
-0.166667
31
0
39
0
210
0
220
0
230
1
0
LINE
5
187
100
AcDbEntity
8
0
62
256
6
ByLayer
370
-2
48
1
60
0
100
AcDbLine
10
0
20
0
30
0
11
-1
21
0
31
0
39
0
210
0
220
0
230
1
0
ENDBLK
5
183
100
AcDbEntity
8
0
100
AcDbBlockEnd
0
BLOCK
5
193
100
AcDbEntity
8
0
100
AcDbBlockBegin
2
DimnDraft3D3
70
0
10
0
20
0
30
0
3
DimnDraft3D3
0
MTEXT
5
189
100
AcDbEntity
8
2
62
256
6
ByLayer
370
18
48
1
60
0
100
AcDbMText
10
8.005079
20
-39.5375
30
0
210
0
220
0
230
1
1
\W0.7640;24.8
40
4.5
41
0
44
1.084337
50
0
71
7
72
5
7
iso_b_vert
0
LINE
5
18A
100
AcDbEntity
8
2
62
256
6
ByLayer
370
13
48
1
60
0
100
AcDbLine
10
0
20
-9.9375
30
0
11
0
21
-42.6625
31
0
39
0
210
0
220
0
230
1
0
LINE
5
18B
100
AcDbEntity
8
2
62
256
6
ByLayer
370
13
48
1
60
0
100
AcDbLine
10
24.797
20
-14.4125
30
0
11
24.797
21
-42.6625
31
0
39
0
210
0
220
0
230
1
0
LINE
5
18C
100
AcDbEntity
8
2
62
256
6
ByLayer
370
13
48
1
60
0
100
AcDbLine
10
0
20
-40.6625
30
0
11
24.797
21
-40.6625
31
0
39
0
210
0
220
0
230
1
0
LINE
5
18D
100
AcDbEntity
8
2
62
256
6
ByLayer
370
13
48
1
60
0
100
AcDbLine
10
0
20
-40.6625
30
0
11
3.174998
21
-40.244503
31
0
39
0
210
0
220
0
230
1
0
LINE
5
18E
100
AcDbEntity
8
2
62
256
6
ByLayer
370
13
48
1
60
0
100
AcDbLine
10
0
20
-40.6625
30
0
11
3.175002
21
-41.080497
31
0
39
0
210
0
220
0
230
1
0
LINE
5
18F
100
AcDbEntity
8
2
62
256
6
ByLayer
370
13
48
1
60
0
100
AcDbLine
10
3.174998
20
-40.244503
30
0
11
3.175002
21
-41.080497
31
0
39
0
210
0
220
0
230
1
0
LINE
5
190
100
AcDbEntity
8
2
62
256
6
ByLayer
370
13
48
1
60
0
100
AcDbLine
10
24.797
20
-40.6625
30
0
11
21.622002
21
-41.080497
31
0
39
0
210
0
220
0
230
1
0
LINE
5
191
100
AcDbEntity
8
2
62
256
6
ByLayer
370
13
48
1
60
0
100
AcDbLine
10
24.797
20
-40.6625
30
0
11
21.621999
21
-40.244503
31
0
39
0
210
0
220
0
230
1
0
LINE
5
192
100
AcDbEntity
8
2
62
256
6
ByLayer
370
13
48
1
60
0
100
AcDbLine
10
21.622002
20
-41.080497
30
0
11
21.621999
21
-40.244503
31
0
39
0
210
0
220
0
230
1
0
ENDBLK
5
194
100
AcDbEntity
8
0
100
AcDbBlockEnd
0
BLOCK
5
1A1
100
AcDbEntity
8
0
100
AcDbBlockBegin
2
DimnDraft3D4
70
0
10
0
20
0
30
0
3
DimnDraft3D4
0
MTEXT
5
197
100
AcDbEntity
8
2
62
256
6
ByLayer
370
18
48
1
60
0
100
AcDbMText
10
45.922
20
-6.394079
30
0
210
0
220
0
230
1
1
\W0.7346;20.0
40
4.5
41
0
44
1.084337
50
90
71
7
72
5
7
iso_b_vert
0
LINE
5
198
100
AcDbEntity
8
2
62
256
6
ByLayer
370
13
48
1
60
0
100
AcDbLine
10
2
20
7.9375
30
0
11
49.047
21
7.9375
31
0
39
0
210
0
220
0
230
1
0
LINE
5
199
100
AcDbEntity
8
2
62
256
6
ByLayer
370
13
48
1
60
0
100
AcDbLine
10
26.797
20
-12.4125
30
0
11
49.047
21
-12.4125
31
0
39
0
210
0
220
0
230
1
0
LINE
5
19A
100
AcDbEntity
8
2
62
256
6
ByLayer
370
13
48
1
60
0
100
AcDbLine
10
47.047
20
19.1875
30
0
11
47.047
21
-23.6625
31
0
39
0
210
0
220
0
230
1
0
LINE
5
19B
100
AcDbEntity
8
2
62
256
6
ByLayer
370
13
48
1
60
0
100
AcDbLine
10
47.047
20
7.9375
30
0
11
46.629003
21
11.112498
31
0
39
0
210
0
220
0
230
1
0
LINE
5
19C
100
AcDbEntity
8
2
62
256
6
ByLayer
370
13
48
1
60
0
100
AcDbLine
10
47.047
20
7.9375
30
0
11
47.464997
21
11.112502
31
0
39
0
210
0
220
0
230
1
0
LINE
5
19D
100
AcDbEntity
8
2
62
256
6
ByLayer
370
13
48
1
60
0
100
AcDbLine
10
46.629003
20
11.112498
30
0
11
47.464997
21
11.112502
31
0
39
0
210
0
220
0
230
1
0
LINE
5
19E
100
AcDbEntity
8
2
62
256
6
ByLayer
370
13
48
1
60
0
100
AcDbLine
10
47.047
20
-12.4125
30
0
11
47.464997
21
-15.587498
31
0
39
0
210
0
220
0
230
1
0
LINE
5
19F
100
AcDbEntity
8
2
62
256
6
ByLayer
370
13
48
1
60
0
100
AcDbLine
10
47.047
20
-12.4125
30
0
11
46.629003
21
-15.587502
31
0
39
0
210
0
220
0
230
1
0
LINE
5
1A0
100
AcDbEntity
8
2
62
256
6
ByLayer
370
13
48
1
60
0
100
AcDbLine
10
47.464997
20
-15.587498
30
0
11
46.629003
21
-15.587502
31
0
39
0
210
0
220
0
230
1
0
ENDBLK
5
1A2
100
AcDbEntity
8
0
100
AcDbBlockEnd
0
BLOCK
5
1AF
100
AcDbEntity
8
0
100
AcDbBlockBegin
2
DimnDraft3D5
70
0
10
0
20
0
30
0
3
DimnDraft3D5
0
MTEXT
5
1A5
100
AcDbEntity
8
SK2
62
256
6
ByLayer
370
18
48
1
60
0
100
AcDbMText
10
-85.428
20
-3.594079
30
0
210
0
220
0
230
1
1
\W0.6563;16.0
40
4.5
41
0
44
1.084337
50
90
71
7
72
5
7
iso_b_vert
0
LINE
5
1A6
100
AcDbEntity
8
SK2
62
256
6
ByLayer
370
13
48
1
60
0
100
AcDbLine
10
-78.553
20
7.9375
30
0
11
-86.303
21
7.9375
31
0
39
0
210
0
220
0
230
1
0
LINE
5
1A7
100
AcDbEntity
8
SK2
62
256
6
ByLayer
370
13
48
1
60
0
100
AcDbLine
10
-78.553
20
-7.9375
30
0
11
-86.303
21
-7.9375
31
0
39
0
210
0
220
0
230
1
0
LINE
5
1A8
100
AcDbEntity
8
SK2
62
256
6
ByLayer
370
13
48
1
60
0
100
AcDbLine
10
-84.303
20
19.1875
30
0
11
-84.303
21
-19.1875
31
0
39
0
210
0
220
0
230
1
0
LINE
5
1A9
100
AcDbEntity
8
SK2
62
256
6
ByLayer
370
13
48
1
60
0
100
AcDbLine
10
-84.303
20
7.9375
30
0
11
-84.720997
21
11.112498
31
0
39
0
210
0
220
0
230
1
0
LINE
5
1AA
100
AcDbEntity
8
SK2
62
256
6
ByLayer
370
13
48
1
60
0
100
AcDbLine
10
-84.303
20
7.9375
30
0
11
-83.885003
21
11.112502
31
0
39
0
210
0
220
0
230
1
0
LINE
5
1AB
100
AcDbEntity
8
SK2
62
256
6
ByLayer
370
13
48
1
60
0
100
AcDbLine
10
-84.720997
20
11.112498
30
0
11
-83.885003
21
11.112502
31
0
39
0
210
0
220
0
230
1
0
LINE
5
1AC
100
AcDbEntity
8
SK2
62
256
6
ByLayer
370
13
48
1
60
0
100
AcDbLine
10
-84.303
20
-7.9375
30
0
11
-83.885003
21
-11.112498
31
0
39
0
210
0
220
0
230
1
0
LINE
5
1AD
100
AcDbEntity
8
SK2
62
256
6
ByLayer
370
13
48
1
60
0
100
AcDbLine
10
-84.303
20
-7.9375
30
0
11
-84.720997
21
-11.112502
31
0
39
0
210
0
220
0
230
1
0
LINE
5
1AE
100
AcDbEntity
8
SK2
62
256
6
ByLayer
370
13
48
1
60
0
100
AcDbLine
10
-83.885003
20
-11.112498
30
0
11
-84.720997
21
-11.112502
31
0
39
0
210
0
220
0
230
1
0
ENDBLK
5
1B0
100
AcDbEntity
8
0
100
AcDbBlockEnd
0
ENDSEC
0
SECTION
2
ENTITIES
0
ELLIPSE
5
CF
100
AcDbEntity
8
1
62
256
6
ByLayer
370
18
48
1
60
0
100
AcDbEllipse
10
19.689121
20
-7.304621
30
0
11
1.34703841816345
21
1.34703841815729
31
0
210
0
220
0
230
1
40
0.989133
41
-2.86769082054828
42
-9.42715268661954E-16
0
ELLIPSE
5
D0
100
AcDbEntity
8
1
62
256
6
ByLayer
370
18
48
1
60
0
100
AcDbEllipse
10
19.689121
20
-7.304621
30
0
11
1.34703841816345
21
1.34703841815729
31
0
210
0
220
0
230
1
40
0.989133
41
0
42
0.078141395521428
0
ELLIPSE
5
D1
100
AcDbEntity
8
1
62
256
6
ByLayer
370
18
48
1
60
0
100
AcDbEllipse
10
19.358523
20
-6.974023
30
0
11
-1.34703841816345
21
-1.34703841815729
31
0
210
0
220
0
230
1
40
0.989133
41
2.94818270642973
42
-0.769008880426863
0
ELLIPSE
5
D2
100
AcDbEntity
8
1
62
256
6
ByLayer
370
18
48
1
60
0
100
AcDbEllipse
10
19.358523
20
-6.974023
30
0
11
-1.34703841816345
21
-1.34703841815729
31
0
210
0
220
0
230
1
40
0.989133
41
2.54645126421668
42
2.94818217594463
0
ELLIPSE
5
D3
100
AcDbEntity
8
1
62
256
6
ByLayer
370
18
48
1
60
0
100
AcDbEllipse
10
23.021696
20
-3.31085
30
0
11
0.561442784263403
21
0.561442784260834
31
0
210
0
220
0
230
1
40
0.989133
41
0
42
0.326856931129293
0
ELLIPSE
5
D4
100
AcDbEntity
8
1
62
256
6
ByLayer
370
18
48
1
60
0
100
AcDbEllipse
10
15.69535
20
-10.637196
30
0
11
0.561442784263403
21
0.561442784260834
31
0
210
0
220
0
230
1
40
0.989133
41
2.81473559615064
42
3.14159259036299
0
ELLIPSE
5
D5
100
AcDbEntity
8
1
62
256
6
ByLayer
370
18
48
1
60
0
100
AcDbEllipse
10
4.03518
20
-2.843329
30
0
11
2.0817652655485
21
2.16015123988016
31
0
210
0
220
0
230
1
40
0.986455
41
0.060572205146565
42
0.156280282981028
0
ELLIPSE
5
D6
100
AcDbEntity
8
1
62
256
6
ByLayer
370
18
48
1
60
0
100
AcDbEllipse
10
11.23266
20
-2.131709
30
0
11
-0.205060966544568
21
-0.20506096654363
31
0
210
0
220
0
230
1
40
0.989133
41
0.309701003274928
42
2.66168475219905
0
ELLIPSE
5
D7
100
AcDbEntity
8
1
62
256
6
ByLayer
370
18
48
1
60
0
100
AcDbEllipse
10
16.743484
20
-1.009467
30
0
11
1.29002132421482
21
1.29002132420892
31
0
210
0
220
0
230
1
40
0.989133
41
-0.698131700797722
42
0.660533517598181
0
ELLIPSE
5
D8
100
AcDbEntity
8
1
62
256
6
ByLayer
370
18
48
1
60
0
100
AcDbEllipse
10
16.083328
20
-0.349311
30
0
11
1.34226869441038
21
1.34226869440423
31
0
210
0
220
0
230
1
40
0.989133
41
-0.698131700797722
42
-0.331399743463154
0
ELLIPSE
5
D9
100
AcDbEntity
8
1
62
256
6
ByLayer
370
18
48
1
60
0
100
AcDbEllipse
10
16.067734
20
-0.333717
30
0
11
1.23620267723215
21
1.2362026772265
31
0
210
0
220
0
230
1
40
0.989133
41
-0.698131700797734
42
-0.1970965414987
0
ELLIPSE
5
DA
100
AcDbEntity
8
1
62
256
6
ByLayer
370
18
48
1
60
0
100
AcDbEllipse
10
9.883182
20
-1.190567
30
0
11
-0.205060966544568
21
-0.20506096654363
31
0
210
0
220
0
230
1
40
0.989133
41
0.353229769708026
42
0.567289649805858
0
ELLIPSE
5
DB
100
AcDbEntity
8
1
62
256
6
ByLayer
370
18
48
1
60
0
100
AcDbEllipse
10
10.94436
20
-0.079419
30
0
11
0.222738636074272
21
0.222738636073253
31
0
210
0
220
0
230
1
40
0.989133
41
3.08223018041555
42
-3.14159012966994
0
ELLIPSE
5
DC
100
AcDbEntity
8
1
62
256
6
ByLayer
370
18
48
1
60
0
100
AcDbEllipse
10
10.797491
20
-1.232199
30
0
11
0.636396103069349
21
0.636396103066437
31
0
210
0
220
0
230
1
40
0.989133
41
-3.10203363993165
42
-0.0288691914425461
0
ELLIPSE
5
DD
100
AcDbEntity
8
1
62
256
6
ByLayer
370
18
48
1
60
0
100
AcDbEllipse
10
10.833878
20
-1.268586
30
0
11
0.636396103069349
21
0.636396103066437
31
0
210
0
220
0
230
1
40
0.989133
41
0.83510523084098
42
1.44741634346092
0
ELLIPSE
5
DE
100
AcDbEntity
8
1
62
256
6
ByLayer
370
18
48
1
60
0
100
AcDbEllipse
10
10.833878
20
-1.268586
30
0
11
0.636396103069349
21
0.636396103066437
31
0
210
0
220
0
230
1
40
0.989133
41
-0.255573825305323
42
0.293954814394649
0
ELLIPSE
5
DF
100
AcDbEntity
8
1
62
256
6
ByLayer
370
18
48
1
60
0
100
AcDbEllipse
10
10.833878
20
-1.268586
30
0
11
0.636396103069349
21
0.636396103066437
31
0
210
0
220
0
230
1
40
0.989133
41
-3.14158949611601
42
-2.53695297788562
0
ELLIPSE
5
E0
100
AcDbEntity
8
1
62
256
6
ByLayer
370
18
48
1
60
0
100
AcDbEllipse
10
10.833878
20
-1.268586
30
0
11
0.636396103069349
21
0.636396103066437
31
0
210
0
220
0
230
1
40
0.989133
41
2.10215415115854
42
2.69903477809738
0
ELLIPSE
5
E1
100
AcDbEntity
8
1
62
256
6
ByLayer
370
18
48
1
60
0
100
AcDbEllipse
10
9.749772
20
-1.778736
30
0
11
0.222738636074272
21
0.222738636073253
31
0
210
0
220
0
230
1
40
0.989133
41
1.68772961148993E-06
42
0.567289649805898
0
ELLIPSE
5
E2
100
AcDbEntity
8
1
62
256
6
ByLayer
370
18
48
1
60
0
100
AcDbEllipse
10
11.385792
20
-0.483481
30
0
11
-0.205060966544568
21
-0.20506096654363
31
0
210
0
220
0
230
1
40
0.989133
41
1.87617130298617
42
2.78833570377235
0
ELLIPSE
5
E3
100
AcDbEntity
8
1
62
256
6
ByLayer
370
18
48
1
60
0
100
AcDbEllipse
10
10.755907
20
-1.190615
30
0
11
2.26274169980213
21
2.26274169979178
31
0
210
0
220
0
230
1
40
0.989133
41
0.790861447994066
42
3.14158704533068
0
ELLIPSE
5
E4
100
AcDbEntity
8
1
62
256
6
ByLayer
370
18
48
1
60
0
100
AcDbEllipse
10
10.755907
20
-1.190615
30
0
11
2.26274169980213
21
2.26274169979178
31
0
210
0
220
0
230
1
40
0.989133
41
9.24095939334047E-05
42
0.790861133810252
0
ELLIPSE
5
E5
100
AcDbEntity
8
1
62
256
6
ByLayer
370
18
48
1
60
0
100
AcDbEllipse
10
10.281964
20
-2.053691
30
0
11
-0.205060966544568
21
-0.20506096654363
31
0
210
0
220
0
230
1
40
0.989133
41
0.353266692666236
42
1.61448720100251
0
ELLIPSE
5
E6
100
AcDbEntity
8
1
62
256
6
ByLayer
370
18
48
1
60
0
100
AcDbEllipse
10
11.917984
20
-0.758436
30
0
11
0.222738636074272
21
0.222738636073253
31
0
210
0
220
0
230
1
40
0.989133
41
3.06252645700466
42
-3.1415918983186
0
ELLIPSE
5
E7
100
AcDbEntity
8
1
62
256
6
ByLayer
370
18
48
1
60
0
100
AcDbEllipse
10
11.784574
20
-1.346604
30
0
11
-0.205060966544568
21
-0.20506096654363
31
0
210
0
220
0
230
1
40
0.989133
41
0.82897375178961
42
2.78830248259815
0
ELLIPSE
5
E8
100
AcDbEntity
8
1
62
256
6
ByLayer
370
18
48
1
60
0
100
AcDbEllipse
10
10.723395
20
-2.457753
30
0
11
0.222738636074272
21
0.222738636073253
31
0
210
0
220
0
230
1
40
0.989133
41
2.52391975680566E-06
42
0.428132046983921
0
ELLIPSE
5
E9
100
AcDbEntity
8
1
62
256
6
ByLayer
370
18
48
1
60
0
100
AcDbEllipse
10
11.311403
20
-1.577358
30
0
11
-2.32463787986249
21
-2.41216888453284
31
0
210
0
220
0
230
1
40
0.986455
41
0.156280282981026
42
-3.13758130361808
0
ELLIPSE
5
EA
100
AcDbEntity
8
1
62
256
6
ByLayer
370
18
48
1
60
0
100
AcDbEllipse
10
6.782925
20
-2.278796
30
0
11
-3.59884832712568
21
0.244795226397388
31
0
210
0
220
0
230
1
40
0.441633
41
0.342187603459467
42
0.633811466988186
0
ELLIPSE
5
EB
100
AcDbEntity
8
1
62
256
6
ByLayer
370
18
48
1
60
0
100
AcDbEllipse
10
19.935627
20
-7.530253
30
0
11
-1.49135680545019
21
-0.763642317924652
31
0
210
0
220
0
230
1
40
0.824475
41
1.72428868592301
42
2.0053723709343
0
ELLIPSE
5
EC
100
AcDbEntity
8
1
62
256
6
ByLayer
370
18
48
1
60
0
100
AcDbEllipse
10
4.994894
20
-0.894439
30
0
11
0.282985318681077
21
1.77761618731687
31
0
210
0
220
0
230
1
40
0.79553
41
1.21480414950782
42
2.64503395595664
0
ELLIPSE
5
ED
100
AcDbEntity
8
1
62
256
6
ByLayer
370
18
48
1
60
0
100
AcDbEllipse
10
8.152469
20
4.530774
30
0
11
-2.20146803787698
21
-1.18791661364104
31
0
210
0
220
0
230
1
40
0.99535
41
-2.21947773172811
42
-1.10568333561775
0
ELLIPSE
5
EE
100
AcDbEntity
8
1
62
256
6
ByLayer
370
18
48
1
60
0
100
AcDbEllipse
10
7.345146
20
-1.41482
30
0
11
3.68137961684051
21
-2.58794206208548
31
0
210
0
220
0
230
1
40
0.02553
41
-2.38372964245498
42
-1.94485307362609
0
ELLIPSE
5
EF
100
AcDbEntity
8
1
62
256
6
ByLayer
370
18
48
1
60
0
100
AcDbEllipse
10
4.645514
20
-0.457914
30
0
11
-2.20146803800021
21
-1.18791661341336
31
0
210
0
220
0
230
1
40
0.99535
41
-1.10568333551317
42
0.00811106059771814
0
ELLIPSE
5
F0
100
AcDbEntity
8
1
62
256
6
ByLayer
370
18
48
1
60
0
100
AcDbEllipse
10
10.61397
20
3.235123
30
0
11
-3.60239664868607
21
2.70011590583392
31
0
210
0
220
0
230
1
40
0.223221
41
0.549363617880327
42
0.611011791784488
0
ELLIPSE
5
F1
100
AcDbEntity
8
1
62
256
6
ByLayer
370
18
48
1
60
0
100
AcDbEllipse
10
8.544438
20
4.15483
30
0
11
1.62447811879934
21
0.775287586345959
31
0
210
0
220
0
230
1
40
0.780905
41
0.570032818628273
42
2.00026262507707
0
ELLIPSE
5
F2
100
AcDbEntity
8
1
62
256
6
ByLayer
370
18
48
1
60
0
100
AcDbEllipse
10
10.28988
20
2.709892
30
0
11
-1.14831778085606
21
3.59576698895558
31
0
210
0
220
0
230
1
40
0.470983
41
-0.552170964399968
42
-0.260547100890562
0
ELLIPSE
5
F3
100
AcDbEntity
8
1
62
256
6
ByLayer
370
18
48
1
60
0
100
AcDbEllipse
10
9.874753
20
2.183578
30
0
11
3.68137961684051
21
-2.58794206208548
31
0
210
0
220
0
230
1
40
0.02553
41
-2.38372964245483
42
-1.94485307362603
0
ELLIPSE
5
F4
100
AcDbEntity
8
1
62
256
6
ByLayer
370
18
48
1
60
0
100
AcDbEllipse
10
6.386896
20
8.654883
30
0
11
4.90850615578735
21
-3.45058941611397
31
0
210
0
220
0
230
1
40
0.02553
41
0.80857390378313
42
0.810463024860331
0
ELLIPSE
5
F5
100
AcDbEntity
8
1
62
256
6
ByLayer
370
18
48
1
60
0
100
AcDbEllipse
10
5.683417
20
-3.922044
30
0
11
-2.29112180356009
21
1.4350893038338
31
0
210
0
220
0
230
1
40
0.303503
41
-0.620348604308292
42
0.121142279420673
0
ELLIPSE
5
F6
100
AcDbEntity
8
1
62
256
6
ByLayer
370
18
48
1
60
0
100
AcDbEllipse
10
11.654867
20
4.572418
30
0
11
-2.12265528406568
21
1.67444744022829
31
0
210
0
220
0
230
1
40
0.354399
41
-0.117711966623506
42
0.623778917107021
0
ELLIPSE
5
F7
100
AcDbEntity
8
1
62
256
6
ByLayer
370
18
48
1
60
0
100
AcDbEllipse
10
6.605928
20
-2.466364
30
0
11
-3.75858754182424
21
2.47800808077887
31
0
210
0
220
0
230
1
40
0.172209
41
-0.609347439595856
42
-0.547699255808503
0
ELLIPSE
5
F8
100
AcDbEntity
8
1
62
256
6
ByLayer
370
18
48
1
60
0
100
AcDbEllipse
10
19.935627
20
-7.530253
30
0
11
-0.498977414397498
21
-1.63519791060163
31
0
210
0
220
0
230
1
40
0.830433
41
1.32905028559742
42
1.61013397054097
0
ELLIPSE
5
F9
100
AcDbEntity
8
1
62
256
6
ByLayer
370
18
48
1
60
0
100
AcDbEllipse
10
12.058332
20
-0.898784
30
0
11
0.222738636074272
21
0.222738636073253
31
0
210
0
220
0
230
1
40
0.989133
41
-3.04750327154916
42
-2.57430300378391
0
ELLIPSE
5
FA
100
AcDbEntity
8
1
62
256
6
ByLayer
370
18
48
1
60
0
100
AcDbEllipse
10
10.833878
20
-1.268586
30
0
11
0.636396103069349
21
0.636396103066437
31
0
210
0
220
0
230
1
40
0.989133
41
-2.34996892769851
42
-1.48975542668901
0
ELLIPSE
5
FB
100
AcDbEntity
8
1
62
256
6
ByLayer
370
18
48
1
60
0
100
AcDbEllipse
10
9.89012
20
-1.919084
30
0
11
0.222738636074272
21
0.222738636073253
31
0
210
0
220
0
230
1
40
0.989133
41
0.0940893820406313
42
0.567289649805875
0
ELLIPSE
5
FC
100
AcDbEntity
8
1
62
256
6
ByLayer
370
18
48
1
60
0
100
AcDbEllipse
10
10.969724
20
-1.404432
30
0
11
0.636396103069349
21
0.636396103066437
31
0
210
0
220
0
230
1
40
0.989133
41
1.6518372269008
42
1.83882127708788
0
ELLIPSE
5
FD
100
AcDbEntity
8
1
62
256
6
ByLayer
370
18
48
1
60
0
100
AcDbEllipse
10
11.807501
20
-1.947603
30
0
11
0.222738636074272
21
0.222738636073253
31
0
210
0
220
0
230
1
40
0.989133
41
2.01532890580807
42
2.66168475219915
0
ELLIPSE
5
FE
100
AcDbEntity
8
1
62
256
6
ByLayer
370
18
48
1
60
0
100
AcDbEllipse
10
10.974226
20
-1.408934
30
0
11
0.654073772599053
21
0.65407377259606
31
0
210
0
220
0
230
1
40
0.989133
41
-2.59000598358024
42
-2.29691592200387
0
ELLIPSE
5
FF
100
AcDbEntity
8
1
62
256
6
ByLayer
370
18
48
1
60
0
100
AcDbEllipse
10
10.969724
20
-1.404432
30
0
11
0.636396103069349
21
0.636396103066437
31
0
210
0
220
0
230
1
40
0.989133
41
-2.5369529778934
42
-2.34996892769344
0
ELLIPSE
5
100
100
AcDbEntity
8
1
62
256
6
ByLayer
370
18
48
1
60
0
100
AcDbEllipse
10
10.723395
20
-2.457753
30
0
11
0.222738636074272
21
0.222738636073253
31
0
210
0
220
0
230
1
40
0.989133
41
0.968131354611448
42
1.6144872010025
0
ELLIPSE
5
101
100
AcDbEntity
8
1
62
256
6
ByLayer
370
18
48
1
60
0
100
AcDbEllipse
10
11.94785
20
-2.087951
30
0
11
0.222738636074272
21
0.222738636073253
31
0
210
0
220
0
230
1
40
0.989133
41
0.828973751789617
42
1.30217401955481
0
ELLIPSE
5
102
100
AcDbEntity
8
1
62
256
6
ByLayer
370
18
48
1
60
0
100
AcDbEllipse
10
10.863744
20
-2.598101
30
0
11
0.222738636074272
21
0.222738636073253
31
0
210
0
220
0
230
1
40
0.989133
41
-0.218223799407006
42
0.254976468358136
0
ELLIPSE
5
103
100
AcDbEntity
8
1
62
256
6
ByLayer
370
18
48
1
60
0
100
AcDbEllipse
10
10.974226
20
-1.408934
30
0
11
-1.34350288425751
21
-1.34350288425137
31
0
210
0
220
0
230
1
40
0.989133
41
0
42
6.28318530717959
0
ELLIPSE
5
104
100
AcDbEntity
8
1
62
256
6
ByLayer
370
18
48
1
60
0
100
AcDbEllipse
10
11.084709
20
-0.219767
30
0
11
0.222738636074272
21
0.222738636073253
31
0
210
0
220
0
230
1
40
0.989133
41
-2.00030572035251
42
-1.52710545258727
0
ELLIPSE
5
105
100
AcDbEntity
8
1
62
256
6
ByLayer
370
18
48
1
60
0
100
AcDbEllipse
10
11.807501
20
-1.947603
30
0
11
0.222738636074272
21
0.222738636073253
31
0
210
0
220
0
230
1
40
0.989133
41
0.828973751789555
42
1.47532959818064
0
ELLIPSE
5
106
100
AcDbEntity
8
1
62
256
6
ByLayer
370
18
48
1
60
0
100
AcDbEllipse
10
11.373008
20
-2.272058
30
0
11
-0.205060966544568
21
-0.20506096654363
31
0
210
0
220
0
230
1
40
0.989133
41
-0.218223799407099
42
2.66168475219911
0
ELLIPSE
5
107
100
AcDbEntity
8
1
62
256
6
ByLayer
370
18
48
1
60
0
100
AcDbEllipse
10
10.974226
20
-1.408934
30
0
11
0.654073772599053
21
0.65407377259606
31
0
210
0
220
0
230
1
40
0.989133
41
2.64598177240275
42
2.93907183397913
0
ELLIPSE
5
108
100
AcDbEntity
8
1
62
256
6
ByLayer
370
18
48
1
60
0
100
AcDbEllipse
10
10.969724
20
-1.404432
30
0
11
0.636396103069349
21
0.636396103066437
31
0
210
0
220
0
230
1
40
0.989133
41
-1.48975542668901
42
-1.30277137650192
0
ELLIPSE
5
109
100
AcDbEntity
8
1
62
256
6
ByLayer
370
18
48
1
60
0
100
AcDbEllipse
10
10.422312
20
-2.194039
30
0
11
-0.205060966544568
21
-0.20506096654363
31
0
210
0
220
0
230
1
40
0.989133
41
-1.26542135060368
42
1.61448720100256
0
ELLIPSE
5
10A
100
AcDbEntity
8
1
62
256
6
ByLayer
370
18
48
1
60
0
100
AcDbEllipse
10
11.52614
20
-0.623829
30
0
11
-0.205060966544568
21
-0.20506096654363
31
0
210
0
220
0
230
1
40
0.989133
41
1.87617130298618
42
-1.52710545258726
0
ELLIPSE
5
10B
100
AcDbEntity
8
1
62
256
6
ByLayer
370
18
48
1
60
0
100
AcDbEllipse
10
10.969724
20
-1.404432
30
0
11
0.636396103069349
21
0.636396103066437
31
0
210
0
220
0
230
1
40
0.989133
41
2.69903477808766
42
2.88601882828465
0
ELLIPSE
5
10C
100
AcDbEntity
8
1
62
256
6
ByLayer
370
18
48
1
60
0
100
AcDbEllipse
10
10.974226
20
-1.408934
30
0
11
0.654073772599053
21
0.65407377259606
31
0
210
0
220
0
230
1
40
0.989133
41
-1.54280843238362
42
-1.24971837080728
0
ELLIPSE
5
10D
100
AcDbEntity
8
1
62
256
6
ByLayer
370
18
48
1
60
0
100
AcDbEllipse
10
11.924922
20
-1.486953
30
0
11
-0.205060966544568
21
-0.20506096654363
31
0
210
0
220
0
230
1
40
0.989133
41
0.828973751789643
42
-2.57430300378388
0
ELLIPSE
5
10E
100
AcDbEntity
8
1
62
256
6
ByLayer
370
18
48
1
60
0
100
AcDbEllipse
10
11.084709
20
-0.219767
30
0
11
0.222738636074272
21
0.222738636073253
31
0
210
0
220
0
230
1
40
0.989133
41
2.92336885418278
42
-2.88661618523159
0
ELLIPSE
5
10F
100
AcDbEntity
8
1
62
256
6
ByLayer
370
18
48
1
60
0
100
AcDbEllipse
10
11.94785
20
-2.087951
30
0
11
0.222738636074272
21
0.222738636073253
31
0
210
0
220
0
230
1
40
0.989133
41
2.18848448443384
42
2.6616847521991
0
ELLIPSE
5
110
100
AcDbEntity
8
1
62
256
6
ByLayer
370
18
48
1
60
0
100
AcDbEllipse
10
10.833878
20
-1.268586
30
0
11
0.636396103069349
21
0.636396103066437
31
0
210
0
220
0
230
1
40
0.989133
41
-1.30277137650194
42
-0.442557875492422
0
ELLIPSE
5
111
100
AcDbEntity
8
1
62
256
6
ByLayer
370
18
48
1
60
0
100
AcDbEllipse
10
11.917984
20
-0.758436
30
0
11
0.222738636074272
21
0.222738636073253
31
0
210
0
220
0
230
1
40
0.989133
41
1.87617130298618
42
2.52252714937721
0
ELLIPSE
5
112
100
AcDbEntity
8
1
62
256
6
ByLayer
370
18
48
1
60
0
100
AcDbEllipse
10
10.974226
20
-1.408934
30
0
11
0.654073772599053
21
0.65407377259606
31
0
210
0
220
0
230
1
40
0.989133
41
1.59878422120616
42
1.8918742827825
0
ELLIPSE
5
113
100
AcDbEntity
8
1
62
256
6
ByLayer
370
18
48
1
60
0
100
AcDbEllipse
10
10.000603
20
-0.729917
30
0
11
0.222738636074272
21
0.222738636073253
31
0
210
0
220
0
230
1
40
0.989133
41
-2.31261890180019
42
-1.83941863403491
0
ELLIPSE
5
114
100
AcDbEntity
8
1
62
256
6
ByLayer
370
18
48
1
60
0
100
AcDbEllipse
10
10.974226
20
-1.408934
30
0
11
0.654073772599053
21
0.65407377259606
31
0
210
0
220
0
230
1
40
0.989133
41
0.551586670009563
42
0.844676731585919
0
ELLIPSE
5
115
100
AcDbEntity
8
1
62
256
6
ByLayer
370
18
48
1
60
0
100
AcDbEllipse
10
10.02353
20
-1.330915
30
0
11
-0.205060966544568
21
-0.20506096654363
31
0
210
0
220
0
230
1
40
0.989133
41
-2.31261890180025
42
0.567289649805914
0
ELLIPSE
5
116
100
AcDbEntity
8
1
62
256
6
ByLayer
370
18
48
1
60
0
100
AcDbEllipse
10
10.969724
20
-1.404432
30
0
11
0.636396103069349
21
0.636396103066437
31
0
210
0
220
0
230
1
40
0.989133
41
-0.442557875502148
42
-0.255573825305172
0
ELLIPSE
5
117
100
AcDbEntity
8
1
62
256
6
ByLayer
370
18
48
1
60
0
100
AcDbEllipse
10
12.058332
20
-0.898784
30
0
11
0.222738636074272
21
0.222738636073253
31
0
210
0
220
0
230
1
40
0.989133
41
1.87617130298614
42
2.34937157075138
0
ELLIPSE
5
118
100
AcDbEntity
8
1
62
256
6
ByLayer
370
18
48
1
60
0
100
AcDbEllipse
10
10.575445
20
-0.545811
30
0
11
-0.205060966544568
21
-0.20506096654363
31
0
210
0
220
0
230
1
40
0.989133
41
2.92336885418273
42
-0.479907901390709
0
ELLIPSE
5
119
100
AcDbEntity
8
1
62
256
6
ByLayer
370
18
48
1
60
0
100
AcDbEllipse
10
10.969724
20
-1.404432
30
0
11
0.636396103069349
21
0.636396103066437
31
0
210
0
220
0
230
1
40
0.989133
41
0.604639675704191
42
0.791623725891293
0
ELLIPSE
5
11A
100
AcDbEntity
8
1
62
256
6
ByLayer
370
18
48
1
60
0
100
AcDbEllipse
10
10.928589
20
-1.363297
30
0
11
-2.26274169980213
21
-2.26274169979178
31
0
210
0
220
0
230
1
40
0.989133
41
0
42
6.28318530717959
0
ELLIPSE
5
11B
100
AcDbEntity
8
1
62
256
6
ByLayer
370
18
48
1
60
0
100
AcDbEllipse
10
10.863744
20
-2.598101
30
0
11
0.222738636074272
21
0.222738636073253
31
0
210
0
220
0
230
1
40
0.989133
41
1.1412869332373
42
1.61448720100252
0
ELLIPSE
5
11C
100
AcDbEntity
8
1
62
256
6
ByLayer
370
18
48
1
60
0
100
AcDbEllipse
10
9.89012
20
-1.919084
30
0
11
0.222738636074272
21
0.222738636073253
31
0
210
0
220
0
230
1
40
0.989133
41
-1.26542135060361
42
-0.792221082838411
0
ELLIPSE
5
11D
100
AcDbEntity
8
1
62
256
6
ByLayer
370
18
48
1
60
0
100
AcDbEllipse
10
10.974226
20
-1.408934
30
0
11
0.654073772599053
21
0.65407377259606
31
0
210
0
220
0
230
1
40
0.989133
41
-0.495610881187042
42
-0.202520819610694
0
ELLIPSE
5
11E
100
AcDbEntity
8
1
62
256
6
ByLayer
370
18
48
1
60
0
100
AcDbEllipse
10
10.000603
20
-0.729917
30
0
11
0.222738636074272
21
0.222738636073253
31
0
210
0
220
0
230
1
40
0.989133
41
-0.953108169155963
42
-0.479907901390699
0
ELLIPSE
5
11F
100
AcDbEntity
8
1
62
256
6
ByLayer
370
18
48
1
60
0
100
AcDbEllipse
10
1.228791
20
-2.393361
30
0
11
-0.618768166580323
21
-1.8549726960494
31
0
210
0
220
0
230
1
40
0.304658
41
-0.921774199096302
42
0.649022127698196
0
ELLIPSE
5
120
100
AcDbEntity
8
1
62
256
6
ByLayer
370
18
48
1
60
0
100
AcDbEllipse
10
8.495955
20
7.94427
30
0
11
-0.977941403852357
21
-7.14454667138182E-05
31
0
210
0
220
0
230
1
40
0.003571
41
1.42293688074487
42
2.9937332075402
0
ELLIPSE
5
121
100
AcDbEntity
8
1
62
256
6
ByLayer
370
18
48
1
60
0
100
AcDbEllipse
10
24.007279
20
-11.622779
30
0
11
-0.561442784263403
21
-0.561442784260835
31
0
210
0
220
0
230
1
40
0.989133
41
0.698131700797719
42
2.44346095279204
0
ELLIPSE
5
122
100
AcDbEntity
8
1
62
256
6
ByLayer
370
18
48
1
60
0
100
AcDbEllipse
10
16.025948
20
-10.967794
30
0
11
-0.561442784263403
21
-0.561442784260835
31
0
210
0
220
0
230
1
40
0.989133
41
-0.698131700797732
42
0.698131700797732
0
ELLIPSE
5
123
100
AcDbEntity
8
1
62
256
6
ByLayer
370
18
48
1
60
0
100
AcDbEllipse
10
23.352294
20
-3.641448
30
0
11
-0.561442784263403
21
-0.561442784260835
31
0
210
0
220
0
230
1
40
0.989133
41
2.44346095279204
42
-2.44346095279207
0
POINT
5
6C
100
AcDbEntity
8
2
62
256
6
ByLayer
370
18
48
1
60
0
100
AcDbPoint
10
24.797
20
28.2875
30
0
39
0
210
0
220
0
230
1
50
360
0
POINT
5
6E
100
AcDbEntity
8
80
62
256
6
ByLayer
370
18
48
1
60
0
100
AcDbPoint
10
0
20
0
30
0
39
0
210
0
220
0
230
1
50
360
0
POINT
5
70
100
AcDbEntity
8
81
62
256
6
ByLayer
370
18
48
1
60
0
100
AcDbPoint
10
24.797
20
-12.4125
30
0
39
0
210
0
220
0
230
1
50
360
0
SPLINE
5
124
100
AcDbEntity
8
1
62
256
6
ByLayer
370
18
48
1
60
0
100
AcDbSpline
70
4
71
3
72
10
73
6
40
0
40
0
40
0
40
0
40
0.626461891730197
40
0.626461891730197
40
1
40
1
40
1
40
1
41
1
10
3.20008502596832
20
-2.51074605348512
30
0
41
1
10
3.03472706959883
20
-2.37042030447122
30
0
41
1
10
2.86936335802852
20
-2.20945312062142
30
0
41
1
10
2.62328640343404
20
-1.91335874394406
30
0
41
1
10
2.53463619375756
20
-1.7927777455894
30
0
41
1
10
2.45370829045223
20
-1.6635647625892
30
0
0
SPLINE
5
125
100
AcDbEntity
8
1
62
256
6
ByLayer
370
18
48
1
60
0
100
AcDbSpline
70
4
71
1
72
4
73
2
40
0
40
0
40
1
40
1
41
1
10
15.1884814393689
20
-10.9500154564181
30
0
41
1
10
15.0070370800332
20
-8.73902304912897
30
0
0
SPLINE
5
126
100
AcDbEntity
8
1
62
256
6
ByLayer
370
18
48
1
60
0
100
AcDbSpline
70
4
71
3
72
8
73
4
40
0
40
0
40
0
40
0
40
1
40
1
40
1
40
1
41
1
10
17.4184599938964
20
-3.72120737145312
30
0
41
1
10
18.4933235706762
20
-4.08270289503628
30
0
41
1
10
19.5640720686077
20
-3.45229350903185
30
0
41
1
10
20.6188594367628
20
-4.00640646834088
30
0
0
SPLINE
5
127
100
AcDbEntity
8
1
62
256
6
ByLayer
370
18
48
1
60
0
100
AcDbSpline
70
4
71
3
72
8
73
4
40
0
40
0
40
0
40
0
40
1
40
1
40
1
40
1
41
1
10
7.16077469069532
20
-2.07738167833543
30
0
41
1
10
7.3486205124041
20
-2.67283669945476
30
0
41
1
10
7.7495327878124
20
-3.21598017127064
30
0
41
1
10
8.30156138509741
20
-3.60097164462363
30
0
0
SPLINE
5
128
100
AcDbEntity
8
1
62
256
6
ByLayer
370
18
48
1
60
0
100
AcDbSpline
70
4
71
3
72
8
73
4
40
0
40
0
40
0
40
0
40
1
40
1
40
1
40
1
41
1
10
5.93848655930387
20
-0.556687610801106
30
0
41
1
10
5.06010989328084
20
-0.41129520489855
30
0
41
1
10
4.28289575510283
20
-0.246584578349882
30
0
41
1
10
3.76803894993273
20
-0.0638951895727189
30
0
0
SPLINE
5
129
100
AcDbEntity
8
1
62
256
6
ByLayer
370
18
48
1
60
0
100
AcDbSpline
70
4
71
3
72
10
73
6
40
0
40
0
40
0
40
0
40
0.106616270583438
40
0.106616270583438
40
1
40
1
40
1
40
1
41
1
10
18.0406506141062
20
-6.27569023583868
30
0
41
1
10
18.0185958709875
20
-6.24446872533403
30
0
41
1
10
17.9966534017599
20
-6.21300897444158
30
0
41
1
10
17.7921588288234
20
-5.91607239890504
30
0
41
1
10
17.6173005532245
20
-5.63385069043886
30
0
41
1
10
17.4518689938642
20
-5.3375497199539
30
0
0
SPLINE
5
12A
100
AcDbEntity
8
1
62
256
6
ByLayer
370
18
48
1
60
0
100
AcDbSpline
70
4
71
3
72
8
73
4
40
0
40
0
40
0
40
0
40
1
40
1
40
1
40
1
41
1
10
20.3120569096945
20
-3.32096736677002
30
0
41
1
10
20.2661730175643
20
-3.28255614598754
30
0
41
1
10
20.2198137226616
20
-3.24473140054192
30
0
41
1
10
20.1729751347994
20
-3.20752752283559
30
0
0
SPLINE
5
12B
100
AcDbEntity
8
1
62
256
6
ByLayer
370
18
48
1
60
0
100
AcDbSpline
70
4
71
3
72
14
73
10
40
0
40
0
40
0
40
0
40
0.262932482489332
40
0.262932482489332
40
0.526305718382449
40
0.526305718382449
40
0.786105451116563
40
0.786105451116563
40
1
40
1
40
1
40
1
41
1
10
20.9969249772255
20
-6.2699240982532
30
0
41
1
10
21.0707576341569
20
-6.36980070230695
30
0
41
1
10
21.1370960015809
20
-6.49023885799042
30
0
41
1
10
21.2422126907206
20
-6.75578642871119
30
0
41
1
10
21.2822531903624
20
-6.90434809112696
30
0
41
1
10
21.331734003901
20
-7.20515835423953
30
0
41
1
10
21.3423408138814
20
-7.3608079005374
30
0
41
1
10
21.3388348676901
20
-7.63696058641395
30
0
41
1
10
21.3288862674221
20
-7.76071758618841
30
0
41
1
10
21.3121220354359
20
-7.87999141533479
30
0
0
SPLINE
5
12C
100
AcDbEntity
8
1
62
256
6
ByLayer
370
18
48
1
60
0
100
AcDbSpline
70
4
71
3
72
8
73
4
40
0
40
0
40
0
40
0
40
1
40
1
40
1
40
1
41
1
10
6.04739041020272
20
-0.634780844509919
30
0
41
1
10
6.0107860025125
20
-0.608567704159441
30
0
41
1
10
5.97446800527771
20
-0.582524520416428
30
0
41
1
10
5.93848655930341
20
-0.556687610800793
30
0
0
SPLINE
5
12D
100
AcDbEntity
8
1
62
256
6
ByLayer
370
18
48
1
60
0
100
AcDbSpline
70
4
71
3
72
8
73
4
40
0
40
0
40
0
40
0
40
1
40
1
40
1
40
1
41
1
10
12.1534636106827
20
1.87840695008307
30
0
41
1
10
11.5942592281729
20
2.26840290352953
30
0
41
1
10
10.9507204084598
20
2.44564211408047
30
0
41
1
10
10.3150883242455
20
2.40966850945588
30
0
0
SPLINE
5
12E
100
AcDbEntity
8
1
62
256
6
ByLayer
370
18
48
1
60
0
100
AcDbSpline
70
4
71
3
72
8
73
4
40
0
40
0
40
0
40
0
40
1
40
1
40
1
40
1
41
1
10
3.66734289530086
20
0.0595751306689181
30
0
41
1
10
3.65036895728562
20
0.0354294937389739
30
0
41
1
10
3.63439263942743
20
0.0109697888206313
30
0
41
1
10
3.61933973624093
20
-0.0137823844222851
30
0
0
SPLINE
5
12F
100
AcDbEntity
8
1
62
256
6
ByLayer
370
18
48
1
60
0
100
AcDbSpline
70
4
71
3
72
8
73
4
40
0
40
0
40
0
40
0
40
1
40
1
40
1
40
1
41
1
10
18.8898129645355
20
-1.72681043275787
30
0
41
1
10
17.8066177202566
20
-0.0390450052417179
30
0
41
1
10
16.4658189815947
20
1.47601789356725
30
0
41
1
10
14.9094809311079
20
2.74892999111694
30
0
0
SPLINE
5
130
100
AcDbEntity
8
1
62
256
6
ByLayer
370
18
48
1
60
0
100
AcDbSpline
70
4
71
3
72
11
73
7
40
0
40
0
40
0
40
0
40
0.559926195718575
40
0.559926195718575
40
0.559926195718575
40
1
40
1
40
1
40
1
41
1
10
15.9829446675015
20
-9.16789772672698
30
0
41
1
10
15.7084813811013
20
-9.01290023345271
30
0
41
1
10
15.3785020395038
20
-8.86493620106228
30
0
41
1
10
15.0225814599625
20
-8.74330818668957
30
0
41
1
10
14.7408272135989
20
-8.64702488222198
30
0
41
1
10
14.4383585122968
20
-8.56432025768942
30
0
41
1
10
14.1311941658928
20
-8.4960045759685
30
0
0
SPLINE
5
131
100
AcDbEntity
8
1
62
256
6
ByLayer
370
18
48
1
60
0
100
AcDbSpline
70
4
71
3
72
8
73
4
40
0
40
0
40
0
40
0
40
1
40
1
40
1
40
1
41
1
10
8.46809399103151
20
3.04171027228986
30
0
41
1
10
8.50407543700581
20
3.01587336267426
30
0
41
1
10
8.54039343424014
20
2.98983017893153
30
0
41
1
10
8.57699784193039
20
2.96361703858105
30
0
0
SPLINE
5
132
100
AcDbEntity
8
1
62
256
6
ByLayer
370
18
48
1
60
0
100
AcDbSpline
70
4
71
3
72
16
73
12
40
0
40
0
40
0
40
0
40
0.151798394921707
40
0.151798394921707
40
0.302355402833643
40
0.302355402833643
40
0.469907609657965
40
0.469907609657965
40
0.750934341340613
40
0.750934341340613
40
1
40
1
40
1
40
1
41
1
10
3.61933973624093
20
-0.0137823844222851
30
0
41
1
10
3.5232968280354
20
-0.171710105952627
30
0
41
1
10
3.43519210979539
20
-0.340518139802668
30
0
41
1
10
3.2943482303416
20
-0.670906029807327
30
0
41
1
10
3.23899083669832
20
-0.83691102552649
30
0
41
1
10
3.15503908308432
20
-1.16687983375888
30
0
41
1
10
3.12885179373095
20
-1.33203817559763
30
0
41
1
10
3.09574894694896
20
-1.72757276394844
30
0
41
1
10
3.10938507449933
20
-1.93265395479938
30
0
41
1
10
3.18793872447552
20
-2.27680564993759
30
0
41
1
10
3.24870545997922
20
-2.42760835310006
30
0
41
1
10
3.35645114163017
20
-2.58150395643742
30
0
0
SPLINE
5
133
100
AcDbEntity
8
1
62
256
6
ByLayer
370
18
48
1
60
0
100
AcDbSpline
70
4
71
3
72
16
73
12
40
0
40
0
40
0
40
0
40
0.346164403850462
40
0.346164403850462
40
0.574058138681869
40
0.574058138681869
40
0.756733946461148
40
0.756733946461148
40
0.941193093213315
40
0.941193093213315
40
1
40
1
40
1
40
1
41
1
10
9.61659214570469
20
6.32362410982932
30
0
41
1
10
9.35537145550589
20
6.37820404593472
30
0
41
1
10
9.12976701871602
20
6.3518146261672
30
0
41
1
10
8.71611537103658
20
6.23103616918485
30
0
41
1
10
8.53592174065162
20
6.15879465676858
30
0
41
1
10
8.18481470364142
20
5.97109764831879
30
0
41
1
10
8.01662530370848
20
5.86443009840204
30
0
41
1
10
7.68572109221501
20
5.60719916371227
30
0
41
1
10
7.51830960379303
20
5.45147012726918
30
0
41
1
10
7.31966621297587
20
5.23006785718255
30
0
41
1
10
7.27232506759216
20
5.17426074723133
30
0
41
1
10
7.22693246912647
20
5.11806293285824
30
0
0
SPLINE
5
134
100
AcDbEntity
8
1
62
256
6
ByLayer
370
18
48
1
60
0
100
AcDbSpline
70
4
71
3
72
12
73
8
40
0
40
0
40
0
40
0
40
0.415356444741149
40
0.415356444741149
40
0.82525984321219
40
0.82525984321219
40
1
40
1
40
1
40
1
41
1
10
6.92572464584984
20
-1.55553986738386
30
0
41
1
10
6.83816156024213
20
-1.40838165315788
30
0
41
1
10
6.72750330354282
20
-1.26136330745351
30
0
41
1
10
6.48784131950652
20
-0.997002179397185
30
0
41
1
10
6.35626004729906
20
-0.875443898578624
30
0
41
1
10
6.1645396357421
20
-0.72106098879911
30
0
41
1
10
6.10611914653774
20
-0.676837654202956
30
0
41
1
10
6.04739041020272
20
-0.634780844509919
30
0
0
SPLINE
5
135
100
AcDbEntity
8
1
62
256
6
ByLayer
370
18
48
1
60
0
100
AcDbSpline
70
4
71
2
72
8
73
5
40
0
40
0
40
0
40
0.581603760044148
40
0.872405640066222
40
1
40
1
40
1
41
1.02990374504916
10
9.20217306886774
20
-5.92769680537124
30
0
41
1.02669755169729
10
10.9290274578597
20
-6.31700030981931
30
0
41
1.02039724512338
10
13.6696638286757
20
-6.55261202904389
30
0
41
1.01761724169577
10
15.0353089987948
20
-6.5383670311651
30
0
41
1.01686274329252
10
15.4105261497751
20
-6.57751811915879
30
0
0
SPLINE
5
136
100
AcDbEntity
8
1
62
256
6
ByLayer
370
18
48
1
60
0
100
AcDbSpline
70
4
71
3
72
8
73
4
40
0
40
0
40
0
40
0
40
1
40
1
40
1
40
1
41
1
10
16.8925276853101
20
-9.30715950663321
30
0
41
1
10
15.9766340453579
20
-8.56384523766863
30
0
41
1
10
16.1575386614723
20
-7.40605296238331
30
0
41
1
10
15.4105261497753
20
-6.57751811915881
30
0
0
SPLINE
5
137
100
AcDbEntity
8
1
62
256
6
ByLayer
370
18
48
1
60
0
100
AcDbSpline
70
4
71
3
72
8
73
4
40
0
40
0
40
0
40
0
40
1
40
1
40
1
40
1
41
1
10
7.17429865292331
20
5.04826310495415
30
0
41
1
10
7.19127259093858
20
5.07240874188412
30
0
41
1
10
7.20883102257881
20
5.09565263322008
30
0
41
1
10
7.22693246912647
20
5.11806293285821
30
0
0
SPLINE
5
138
100
AcDbEntity
8
1
62
256
6
ByLayer
370
18
48
1
60
0
100
AcDbSpline
70
4
71
2
72
6
73
3
40
0
40
0
40
0
40
1
40
1
40
1
41
1
10
16.8864739180454
20
-9.30965838398947
30
0
41
1
10
16.5129398044267
20
-9.29188327821376
30
0
41
1
10
16.1399678116379
20
-9.25687131146086
30
0
0
SPLINE
5
139
100
AcDbEntity
8
1
62
256
6
ByLayer
370
18
48
1
60
0
100
AcDbSpline
70
4
71
3
72
8
73
4
40
0
40
0
40
0
40
0
40
1
40
1
40
1
40
1
41
1
10
15.9829446675015
20
-9.16789772672698
30
0
41
1
10
16.0351941464923
20
-9.19740454483258
30
0
41
1
10
16.0878647701077
20
-9.22625134705279
30
0
41
1
10
16.1409251082286
20
-9.25445398458982
30
0
0
SPLINE
5
13A
100
AcDbEntity
8
1
62
256
6
ByLayer
370
18
48
1
60
0
100
AcDbSpline
70
4
71
3
72
10
73
6
40
0
40
0
40
0
40
0
40
0.20784579536769
40
0.20784579536769
40
1
40
1
40
1
40
1
41
1
10
9.73853470643388
20
2.44571726073508
30
0
41
1
10
9.77886384982438
20
2.43847608528128
30
0
41
1
10
9.81927553700424
20
2.43220911273915
30
0
41
1
10
10.0123022424643
20
2.40699743984547
30
0
41
1
10
10.165825496144
20
2.40122097809834
30
0
41
1
10
10.3150883242455
20
2.40966850945588
30
0
0
SPLINE
5
13B
100
AcDbEntity
8
1
62
256
6
ByLayer
370
18
48
1
60
0
100
AcDbSpline
70
4
71
3
72
12
73
8
40
0
40
0
40
0
40
0
40
0.501637567130152
40
0.501637567130152
40
0.886957471304439
40
0.886957471304439
40
1
40
1
40
1
40
1
41
1
10
8.57699784193039
20
2.96361703858105
30
0
41
1
10
8.74381804797864
20
2.84415378947065
30
0
41
1
10
8.92919032976954
20
2.73257599065911
30
0
41
1
10
9.2766892321317
20
2.57299571300743
30
0
41
1
10
9.43775427959307
20
2.51508969426652
30
0
41
1
10
9.64424837174008
20
2.46424168862333
30
0
41
1
10
9.69160090987018
20
2.45414431440048
30
0
41
1
10
9.73853470643391
20
2.44571726073508
30
0
0
SPLINE
5
13C
100
AcDbEntity
8
1
62
256
6
ByLayer
370
18
48
1
60
0
100
AcDbSpline
70
4
71
3
72
15
73
11
40
0
40
0
40
0
40
0
40
0.225043240787981
40
0.225043240787981
40
0.520482827227111
40
0.520482827227111
40
0.820975208236875
40
0.820975208236875
40
0.820975208236875
40
1
40
1
40
1
40
1
41
1
10
14.787993496107
20
-3.07462843851141
30
0
41
1
10
14.8932021946202
20
-2.81203234213382
30
0
41
1
10
14.9585697687651
20
-2.52780833185841
30
0
41
1
10
15.0166469435509
20
-1.87433731086699
30
0
41
1
10
14.9831212489483
20
-1.49494350127853
30
0
41
1
10
14.8053019108917
20
-0.767554888761964
30
0
41
1
10
14.6564700319132
20
-0.409050764918078
30
0
41
1
10
14.4589839895898
20
-0.0862106671738729
30
0
41
1
10
14.3403627096051
20
0.107705344176708
30
0
41
1
10
14.2027189744246
20
0.291229776273411
30
0
41
1
10
14.0498839780557
20
0.457570189706359
30
0
0
SPLINE
5
13D
100
AcDbEntity
8
1
62
256
6
ByLayer
370
18
48
1
60
0
100
AcDbSpline
70
4
71
3
72
24
73
20
40
0
40
0
40
0
40
0
40
0.142613444608223
40
0.142613444608223
40
0.190795218269489
40
0.190795218269489
40
0.226951176162321
40
0.226951176162321
40
0.263437466712855
40
0.263437466712855
40
0.296119365572352
40
0.296119365572352
40
0.352324850832279
40
0.352324850832279
40
0.455294648588097
40
0.455294648588097
40
0.662705158043615
40
0.662705158043615
40
1
40
1
40
1
40
1
41
1
10
15.4105261497753
20
-6.57751811915881
30
0
41
1
10
15.3373986381905
20
-6.53677087350391
30
0
41
1
10
15.2667000880794
20
-6.49231782147154
30
0
41
1
10
15.2090469926768
20
-6.41734499530324
30
0
41
1
10
15.1978726035769
20
-6.39653527227085
30
0
41
1
10
15.1908293590977
20
-6.35744865605326
30
0
41
1
10
15.1919735998995
20
-6.33947230943497
30
0
41
1
10
15.2052357623936
20
-6.30335343425273
30
0
41
1
10
15.2177429572759
20
-6.28475641628751
30
0
41
1
10
15.2498449478784
20
-6.25199496956509
30
0
41
1
10
15.2687999491106
20
-6.23718677154699
30
0
41
1
10
15.3252299443224
20
-6.20056219289577
30
0
41
1
10
15.3670071085325
20
-6.18053174323387
30
0
41
1
10
15.4884543965852
20
-6.13201706211316
30
0
41
1
10
15.573494203704
20
-6.10871787982532
30
0
41
1
10
15.8266578398631
20
-6.05386962975112
30
0
41
1
10
15.9990556220197
20
-6.03607861051256
30
0
41
1
10
16.4340280138078
20
-6.01752568956957
30
0
41
1
10
16.6943621631765
20
-6.03477925141672
30
0
41
1
10
16.9379847625106
20
-6.06855639990869
30
0
0
SPLINE
5
13E
100
AcDbEntity
8
1
62
256
6
ByLayer
370
18
48
1
60
0
100
AcDbSpline
70
4
71
3
72
8
73
4
40
0
40
0
40
0
40
0
40
1
40
1
40
1
40
1
41
1
10
9.20217306886778
20
-5.92769680537123
30
0
41
1
10
9.44347082064181
20
-5.78999076711102
30
0
41
1
10
9.83106410208981
20
-5.42074912101236
30
0
41
1
10
10.2890111390123
20
-4.89231797588369
30
0
0
SPLINE
5
13F
100
AcDbEntity
8
1
62
256
6
ByLayer
370
18
48
1
60
0
100
AcDbSpline
70
4
71
1
72
4
73
2
40
0
40
0
40
1
40
1
41
1
10
14.7151252111285
20
1.9145458562675
30
0
41
1
10
14.9094809311079
20
2.74892999111694
30
0
0
SPLINE
5
140
100
AcDbEntity
8
1
62
256
6
ByLayer
370
18
48
1
60
0
100
AcDbSpline
70
4
71
2
72
6
73
3
40
0
40
0
40
0
40
1
40
1
40
1
41
1.02990374504916
10
9.20217306886774
20
-5.92769680537124
30
0
41
1.02990374504916
10
8.87469268389903
20
-6.11458634781587
30
0
41
1.02990374504916
10
8.54721229893031
20
-6.30147589026049
30
0
0
SPLINE
5
141
100
AcDbEntity
8
1
62
256
6
ByLayer
370
18
48
1
60
0
100
AcDbSpline
70
4
71
3
72
16
73
12
40
0
40
0
40
0
40
0
40
0.283825424659828
40
0.283825424659828
40
0.572792249827488
40
0.572792249827488
40
0.572792249827488
40
0.894188232602854
40
0.894188232602854
40
0.894188232602854
40
1
40
1
40
1
40
1
41
1
10
10.2890111390123
20
-4.89231797588369
30
0
41
1
10
10.6179734962208
20
-5.02841272606622
30
0
41
1
10
10.9750431015854
20
-5.11565360915657
30
0
41
1
10
11.693795837754
20
-5.18576936359045
30
0
41
1
10
12.0646672997625
20
-5.16834759149475
30
0
41
1
10
12.4199019242437
20
-5.09615865265846
30
0
41
1
10
12.8126935288797
20
-5.01633757901203
30
0
41
1
10
13.2006322385687
20
-4.86476475774572
30
0
41
1
10
13.5373939613565
20
-4.64268307318201
30
0
41
1
10
13.6503240789287
20
-4.56820990995911
30
0
41
1
10
13.758451053619
20
-4.48540727670712
30
0
41
1
10
13.8594076992902
20
-4.39555322850757
30
0
0
SPLINE
5
142
100
AcDbEntity
8
1
62
256
6
ByLayer
370
18
48
1
60
0
100
AcDbSpline
70
4
71
2
72
8
73
5
40
0
40
0
40
0
40
0.145991510278039
40
0.56347020758608
40
1
40
1
40
1
41
1.02393576174182
10
14.7879934957268
20
-3.07462843819516
30
0
41
1.02323174907608
10
14.9916339369221
20
-3.24397185401123
30
0
41
1.02039724512338
10
15.7697678174947
20
-3.89748189337421
30
0
41
1.01644464721285
10
16.8626272809892
20
-4.8972097539761
30
0
41
1.01495409538129
10
17.4518689939212
20
-5.33754971999649
30
0
0
SPLINE
5
143
100
AcDbEntity
8
1
62
256
6
ByLayer
370
18
48
1
60
0
100
AcDbSpline
70
4
71
3
72
8
73
4
40
0
40
0
40
0
40
0
40
1
40
1
40
1
40
1
41
1
10
10.2890111215969
20
-4.89231796848773
30
0
41
1
10
10.0605010603274
20
-4.79527429854906
30
0
41
1
10
9.84486505683273
20
-4.6772904392198
30
0
41
1
10
9.64334160099099
20
-4.53674552440694
30
0
0
SPLINE
5
144
100
AcDbEntity
8
1
62
256
6
ByLayer
370
18
48
1
60
0
100
AcDbSpline
70
4
71
2
72
8
73
5
40
0
40
0
40
0
40
0.58160376007072
40
0.872405640106079
40
1
40
1
40
1
41
1.02990374504916
10
14.7151252111285
20
1.91454585626749
30
0
41
1.02669755169729
10
15.6588147804102
20
0.4111807010669
30
0
41
1.02039724512338
10
16.8048998525321
20
-2.09269997779056
30
0
41
1.01761724169607
10
17.2530543255597
20
-3.38359685263434
30
0
41
1.01686274329306
10
17.4184599938963
20
-3.72120737145298
30
0
0
SPLINE
5
145
100
AcDbEntity
8
1
62
256
6
ByLayer
370
18
48
1
60
0
100
AcDbSpline
70
4
71
3
72
10
73
6
40
0
40
0
40
0
40
0
40
0.560518156563275
40
0.560518156563275
40
1
40
1
40
1
40
1
41
1
10
18.8898129645355
20
-1.72681043275787
30
0
41
1
10
19.1044997775466
20
-2.06132166945102
30
0
41
1
10
19.3411998858642
20
-2.37952891233942
30
0
41
1
10
19.7779465193705
20
-2.86489202475619
30
0
41
1
10
19.9787577906495
20
-3.05326073875895
30
0
41
1
10
20.1729751347994
20
-3.20752752283559
30
0
0
SPLINE
5
146
100
AcDbEntity
8
1
62
256
6
ByLayer
370
18
48
1
60
0
100
AcDbSpline
70
4
71
3
72
8
73
4
40
0
40
0
40
0
40
0
40
1
40
1
40
1
40
1
41
1
10
8.5472122989303
20
-6.30147589026049
30
0
41
1
10
10.286549328806
20
-7.32634753119925
30
0
41
1
10
12.156597956123
20
-8.05683939363792
30
0
41
1
10
14.1311941658928
20
-8.4960045759685
30
0
0
SPLINE
5
147
100
AcDbEntity
8
1
62
256
6
ByLayer
370
18
48
1
60
0
100
AcDbSpline
70
4
71
2
72
8
73
5
40
0
40
0
40
0
40
0.145991510275427
40
0.563470207592135
40
1
40
1
40
1
41
1.02393576174177
10
13.8594076988264
20
-4.39555322824488
30
0
41
1.02323174907605
10
14.090205219617
20
-4.52626536216746
30
0
41
1.02039724512338
10
14.9793678474222
20
-5.02183563427329
30
0
41
1.01644464721292
10
16.3105504282532
20
-5.68254591054781
30
0
41
1.01495409538139
10
16.9379847625281
20
-6.06855639991939
30
0
0
SPLINE
5
148
100
AcDbEntity
8
1
62
256
6
ByLayer
370
18
48
1
60
0
100
AcDbSpline
70
4
71
3
72
25
73
21
40
0
40
0
40
0
40
0
40
0.442411593548776
40
0.442411593548776
40
0.442411593548776
40
0.583396916265377
40
0.583396916265377
40
0.651602530488656
40
0.651602530488656
40
0.706341521306448
40
0.706341521306448
40
0.742475286987736
40
0.742475286987736
40
0.778972968742936
40
0.778972968742936
40
0.811539464980188
40
0.811539464980188
40
0.868309796146677
40
0.868309796146677
40
1
40
1
40
1
40
1
41
1
10
17.4518689938642
20
-5.3375497199539
30
0
41
1
10
17.2979209756013
20
-5.06162040140484
30
0
41
1
10
17.1587253024428
20
-4.74520112946874
30
0
41
1
10
17.0747964363208
20
-4.39861556213711
30
0
41
1
10
17.0475507672524
20
-4.28610414493673
30
0
41
1
10
17.0258598060765
20
-4.16878326977297
30
0
41
1
10
17.0109825349863
20
-3.9932577079658
30
0
41
1
10
17.0088794070627
20
-3.9350367160248
30
0
41
1
10
17.0137023083751
20
-3.83292384658137
30
0
41
1
10
17.0190155913296
20
-3.78758605617978
30
0
41
1
10
17.0361468962965
20
-3.71961329051032
30
0
41
1
10
17.0453862805123
20
-3.69404697623153
30
0
41
1
10
17.0688097783381
20
-3.6512160319416
30
0
41
1
10
17.0834149285022
20
-3.63361061895893
30
0
41
1
10
17.1137144626867
20
-3.61088614973789
30
0
41
1
10
17.1294119953932
20
-3.60426374986889
30
0
41
1
10
17.1728867686861
20
-3.59557822500966
30
0
41
1
10
17.2017128421293
20
-3.59986218674709
30
0
41
1
10
17.2944708012572
20
-3.62947379052326
30
0
41
1
10
17.357555633474
20
-3.67342068618404
30
0
41
1
10
17.4184599938964
20
-3.72120737145312
30
0
0
SPLINE
5
149
100
AcDbEntity
8
1
62
256
6
ByLayer
370
18
48
1
60
0
100
AcDbSpline
70
4
71
3
72
14
73
10
40
0
40
0
40
0
40
0
40
0.30439177600898
40
0.30439177600898
40
0.577373879687161
40
0.577373879687161
40
0.851610378463919
40
0.851610378463919
40
1
40
1
40
1
40
1
41
1
10
20.7858429627519
20
-8.62862991050545
30
0
41
1
10
20.6368726876078
20
-8.70568880909281
30
0
41
1
10
20.4734220856723
20
-8.77398410212547
30
0
41
1
10
20.1516952104927
20
-8.87315474640008
30
0
41
1
10
19.9908623904153
20
-8.90788658783308
30
0
41
1
10
19.6774811230231
20
-8.94319078261913
30
0
41
1
10
19.5207825228789
20
-8.94392561896822
30
0
41
1
10
19.3011275827817
20
-8.91887409423745
30
0
41
1
10
19.2267408218353
20
-8.90500306649483
30
0
41
1
10
19.1573114090085
20
-8.88679716976282
30
0
0
SPLINE
5
14A
100
AcDbEntity
8
1
62
256
6
ByLayer
370
18
48
1
60
0
100
AcDbSpline
70
4
71
3
72
10
73
6
40
0
40
0
40
0
40
0
40
0.679966690484312
40
0.679966690484312
40
1
40
1
40
1
40
1
41
1
10
7.16077469069532
20
-2.07738167833543
30
0
41
1
10
7.12263579908716
20
-1.95648468791313
30
0
41
1
10
7.07375648463656
20
-1.83601374885148
30
0
41
1
10
6.98754982327583
20
-1.66383842540608
30
0
41
1
10
6.95766639320922
20
-1.6092210558441
30
0
41
1
10
6.92572464584984
20
-1.55553986738386
30
0
0
SPLINE
5
14B
100
AcDbEntity
8
1
62
256
6
ByLayer
370
18
48
1
60
0
100
AcDbSpline
70
4
71
3
72
10
73
6
40
0
40
0
40
0
40
0
40
0.759976532001889
40
0.759976532001889
40
1
40
1
40
1
40
1
41
1
10
16.9379847625106
20
-6.06855639990869
30
0
41
1
10
17.227668001922
20
-6.10880274144125
30
0
41
1
10
17.5103425876822
20
-6.15844248143895
30
0
41
1
10
17.8703855719507
20
-6.23580040399727
30
0
41
1
10
17.9559783676529
20
-6.25529407134869
30
0
41
1
10
18.0406506141062
20
-6.27569023583868
30
0
0
SPLINE
5
14C
100
AcDbEntity
8
1
62
256
6
ByLayer
370
18
48
1
60
0
100
AcDbSpline
70
4
71
3
72
10
73
6
40
0
40
0
40
0
40
0
40
0.715855354518052
40
0.715855354518052
40
1
40
1
40
1
40
1
41
1
10
9.83349102831579
20
6.36766945418756
30
0
41
1
10
9.58829802836581
20
6.5490860062944
30
0
41
1
10
9.29676643481352
20
6.72754281018189
30
0
41
1
10
8.82826377219246
20
6.91329836826975
30
0
41
1
10
8.68711451190634
20
6.95919881729935
30
0
41
1
10
8.54022966191454
20
6.99458722722355
30
0
0
SPLINE
5
14D
100
AcDbEntity
8
1
62
256
6
ByLayer
370
18
48
1
60
0
100
AcDbSpline
70
4
71
3
72
12
73
8
40
0
40
0
40
0
40
0
40
0.369659083875781
40
0.369659083875781
40
0.727704501586109
40
0.727704501586109
40
1
40
1
40
1
40
1
41
1
10
4.07238260399961
20
-2.35011839951559
30
0
41
1
10
4.29571801877307
20
-2.34365606802203
30
0
41
1
10
4.58950494599705
20
-2.29397089576636
30
0
41
1
10
5.24704990204472
20
-2.1328511153587
30
0
41
1
10
5.61612175221055
20
-2.02166794118799
30
0
41
1
10
6.29960135255138
20
-1.79017882439055
30
0
41
1
10
6.61042400449733
20
-1.67691376107962
30
0
41
1
10
6.92572464584973
20
-1.55553986738369
30
0
0
SPLINE
5
14E
100
AcDbEntity
8
1
62
256
6
ByLayer
370
18
48
1
60
0
100
AcDbSpline
70
4
71
3
72
8
73
4
40
0
40
0
40
0
40
0
40
1
40
1
40
1
40
1
41
1
10
14.0498839780557
20
0.457570189706359
30
0
41
1
10
13.8841254982366
20
0.636646489940205
30
0
41
1
10
13.6968541180189
20
0.802027595280265
30
0
41
1
10
13.4952438265763
20
0.942633070299763
30
0
0
SPLINE
5
14F
100
AcDbEntity
8
1
62
256
6
ByLayer
370
18
48
1
60
0
100
AcDbSpline
70
4
71
2
72
6
73
3
40
0
40
0
40
0
40
1
40
1
40
1
41
1
10
20.3140100537028
20
-3.31924455587176
30
0
41
1
10
20.4746129360246
20
-3.65635421221768
30
0
41
1
10
20.6191463182093
20
-3.99988569423076
30
0
0
SPLINE
5
150
100
AcDbEntity
8
1
62
256
6
ByLayer
370
18
48
1
60
0
100
AcDbSpline
70
4
71
3
72
8
73
4
40
0
40
0
40
0
40
0
40
1
40
1
40
1
40
1
41
1
10
9.73853470643388
20
2.44571726073508
30
0
41
1
10
9.77522382181397
20
3.70815692539978
30
0
41
1
10
9.7436678806819
20
4.85961904652027
30
0
41
1
10
9.58533474626037
20
5.49212426212313
30
0
0
SPLINE
5
151
100
AcDbEntity
8
1
62
256
6
ByLayer
370
18
48
1
60
0
100
AcDbSpline
70
4
71
3
72
8
73
4
40
0
40
0
40
0
40
0
40
1
40
1
40
1
40
1
41
1
10
14.0498840035532
20
0.457570234776881
30
0
41
1
10
14.4062801040384
20
1.08755228235395
30
0
41
1
10
14.6435215375809
20
1.60714574881834
30
0
41
1
10
14.7151252111285
20
1.9145458562675
30
0
0
SPLINE
5
152
100
AcDbEntity
8
1
62
256
6
ByLayer
370
18
48
1
60
0
100
AcDbSpline
70
4
71
3
72
12
73
8
40
0
40
0
40
0
40
0
40
0.391502209781614
40
0.391502209781614
40
0.886018843801027
40
0.886018843801027
40
1
40
1
40
1
40
1
41
1
10
7.31758233012178
20
4.98537420496277
30
0
41
1
10
7.44347131904209
20
4.80869183140038
30
0
41
1
10
7.58343604356554
20
4.59098215866641
30
0
41
1
10
7.91694316021486
20
4.03934414932073
30
0
41
1
10
8.11871314799606
20
3.68359660965012
30
0
41
1
10
8.3716980537759
20
3.22036497170473
30
0
41
1
10
8.41979483394852
20
3.13155947923053
30
0
41
1
10
8.46809399103225
20
3.0417102722904
30
0
0
SPLINE
5
153
100
AcDbEntity
8
1
62
256
6
ByLayer
370
18
48
1
60
0
100
AcDbSpline
70
4
71
3
72
12
73
8
40
0
40
0
40
0
40
0
40
0.307573270173411
40
0.307573270173411
40
0.64885282065766
40
0.64885282065766
40
1
40
1
40
1
40
1
41
1
10
13.8594076992902
20
-4.39555322850757
30
0
41
1
10
13.9840868285468
20
-4.28455697381168
30
0
41
1
10
14.101290195572
20
-4.16419505258247
30
0
41
1
10
14.3286886075647
20
-3.89490747073347
30
0
41
1
10
14.4374910855794
20
-3.74337240718356
30
0
41
1
10
14.6318856333828
20
-3.42205997491459
30
0
41
1
10
14.7174152322416
20
-3.25072590343831
30
0
41
1
10
14.787993496107
20
-3.07462843851141
30
0
0
SPLINE
5
154
100
AcDbEntity
8
1
62
256
6
ByLayer
370
18
48
1
60
0
100
AcDbSpline
70
4
71
3
72
10
73
6
40
0
40
0
40
0
40
0
40
0.315026012182619
40
0.315026012182619
40
1
40
1
40
1
40
1
41
1
10
10.9704068966409
20
-2.29949440276087
30
0
41
1
10
10.9766221711513
20
-2.30203798178044
30
0
41
1
10
10.9826417834786
20
-2.30472667080176
30
0
41
1
10
11.0010540578122
20
-2.31357011435384
30
0
41
1
10
11.012775523301
20
-2.32014161002462
30
0
41
1
10
11.0237117437175
20
-2.32699436735839
30
0
0
SPLINE
5
155
100
AcDbEntity
8
1
62
256
6
ByLayer
370
18
48
1
60
0
100
AcDbSpline
70
4
71
3
72
8
73
4
40
0
40
0
40
0
40
0
40
1
40
1
40
1
40
1
41
1
10
10.3092098375597
20
-0.780525270294589
30
0
41
1
10
10.3046737640902
20
-0.79525023743426
30
0
41
1
10
10.2987251885384
20
-0.811250292019821
30
0
41
1
10
10.2907924013483
20
-0.828535674980429
30
0
0
SPLINE
5
156
100
AcDbEntity
8
1
62
256
6
ByLayer
370
18
48
1
60
0
100
AcDbSpline
70
4
71
3
72
10
73
6
40
0
40
0
40
0
40
0
40
0.629893813379213
40
0.629893813379213
40
1
40
1
40
1
40
1
41
1
10
11.1922613863337
20
-0.512827734789198
30
0
41
1
10
11.1813572049917
20
-0.515479110364367
30
0
41
1
10
11.169837425365
20
-0.517872954377737
30
0
41
1
10
11.1505017054415
20
-0.521075018382135
30
0
41
1
10
11.1430948285344
20
-0.522132769249623
30
0
41
1
10
11.1354540091545
20
-0.523026890270813
30
0
0
SPLINE
5
157
100
AcDbEntity
8
1
62
256
6
ByLayer
370
18
48
1
60
0
100
AcDbSpline
70
4
71
3
72
10
73
6
40
0
40
0
40
0
40
0
40
0.315026012182643
40
0.315026012182643
40
1
40
1
40
1
40
1
41
1
10
10.9690420173115
20
-0.509370345295935
30
0
41
1
10
10.9636274533597
20
-0.507627476834926
30
0
41
1
10
10.9584695576824
20
-0.505800504463764
30
0
41
1
10
10.9429258438663
20
-0.499825621429068
30
0
41
1
10
10.9333839890126
20
-0.495433736393409
30
0
41
1
10
10.9247405124427
20
-0.490873722906372
30
0
0
SPLINE
5
158
100
AcDbEntity
8
1
62
256
6
ByLayer
370
18
48
1
60
0
100
AcDbSpline
70
4
71
3
72
10
73
6
40
0
40
0
40
0
40
0
40
0.516155291935644
40
0.516155291935644
40
1
40
1
40
1
40
1
41
1
10
10.0911745793219
20
-1.67663158064255
30
0
41
1
10
10.0969002862415
20
-1.68120919713945
30
0
41
1
10
10.1026955539919
20
-1.6863087170278
30
0
41
1
10
10.1140035448107
20
-1.69740171378601
30
0
41
1
10
10.119534449475
20
-1.70334320912116
30
0
41
1
10
10.1250628491749
20
-1.70994115873125
30
0
0
SPLINE
5
159
100
AcDbEntity
8
1
62
256
6
ByLayer
370
18
48
1
60
0
100
AcDbSpline
70
4
71
3
72
8
73
4
40
0
40
0
40
0
40
0
40
1
40
1
40
1
40
1
41
1
10
11.6392424186006
20
-2.03734281997015
30
0
41
1
10
11.6404325676138
20
-2.01927192837414
30
0
41
1
10
11.6432527525641
20
-2.00014348318709
30
0
41
1
10
11.6486565126055
20
-1.98032907307774
30
0
0
SPLINE
5
15A
100
AcDbEntity
8
1
62
256
6
ByLayer
370
18
48
1
60
0
100
AcDbSpline
70
4
71
3
72
8
73
4
40
0
40
0
40
0
40
0
40
1
40
1
40
1
40
1
41
1
10
10.1941840518627
20
-0.965962247941007
30
0
41
1
10
10.1802288604066
20
-0.979812785533909
30
0
41
1
10
10.1667220549257
20
-0.991488251285745
30
0
41
1
10
10.1539040221948
20
-1.00144971502513
30
0
0
SPLINE
5
15B
100
AcDbEntity
8
1
62
256
6
ByLayer
370
18
48
1
60
0
100
AcDbSpline
70
4
71
3
72
10
73
6
40
0
40
0
40
0
40
0
40
0.629893813379448
40
0.629893813379448
40
1
40
1
40
1
40
1
41
1
10
10.7561908698234
20
-2.30504035547236
30
0
41
1
10
10.7649835897086
20
-2.30027751844042
30
0
41
1
10
10.774489089455
20
-2.29586939454671
30
0
41
1
10
10.7909069694744
20
-2.28974949063823
30
0
41
1
10
10.7972920816964
20
-2.28766997508558
30
0
41
1
10
10.8039949047972
20
-2.28583785778534
30
0
0
SPLINE
5
15C
100
AcDbEntity
8
1
62
256
6
ByLayer
370
18
48
1
60
0
100
AcDbSpline
70
4
71
3
72
10
73
6
40
0
40
0
40
0
40
0
40
0.516155291935588
40
0.516155291935588
40
1
40
1
40
1
40
1
41
1
10
11.8572776768384
20
-1.14123650962222
30
0
41
1
10
11.84982140689
20
-1.13492833009647
30
0
41
1
10
11.8423623847065
20
-1.1281650557751
30
0
41
1
10
11.828040544652
20
-1.11405820978115
30
0
41
1
10
11.8211404911878
20
-1.10674756564609
30
0
41
1
10
11.8143860647766
20
-1.09892358932464
30
0
0
SPLINE
5
15D
100
AcDbEntity
8
1
62
256
6
ByLayer
370
18
48
1
60
0
100
AcDbSpline
70
4
71
3
72
10
73
6
40
0
40
0
40
0
40
0
40
0.123732606265411
40
0.123732606265411
40
1
40
1
40
1
40
1
41
1
10
11.7445824224308
20
-0.947840471382648
30
0
41
1
10
11.7443472959983
20
-0.9455803997472
30
0
41
1
10
11.7441497151432
20
-0.943346924342194
30
0
41
1
10
11.7428490527064
20
-0.92566903028964
30
0
41
1
10
11.7434181357963
20
-0.911449380104074
30
0
41
1
10
11.745062618328
20
-0.898358053013595
30
0
0
SPLINE
5
15E
100
AcDbEntity
8
1
62
256
6
ByLayer
370
18
48
1
60
0
100
AcDbSpline
70
4
71
3
72
10
73
6
40
0
40
0
40
0
40
0
40
0.123732606265389
40
0.123732606265389
40
1
40
1
40
1
40
1
41
1
10
10.194866491523
20
-1.86102427667549
30
0
41
1
10
10.195417566997
20
-1.86360029735255
30
0
41
1
10
10.1959405460565
20
-1.86615917096191
30
0
41
1
10
10.1999155778387
20
-1.88651143435979
30
0
41
1
10
10.2021028428535
20
-1.90348743265008
30
0
41
1
10
10.2033896378322
20
-1.91951003725114
30
0
0
SPLINE
5
15F
100
AcDbEntity
8
1
62
256
6
ByLayer
370
18
48
1
60
0
100
AcDbSpline
70
4
71
3
72
8
73
4
40
0
40
0
40
0
40
0
40
1
40
1
40
1
40
1
41
1
10
11.7452648620911
20
-1.84290250011719
30
0
41
1
10
11.7617490806959
20
-1.831580989673
30
0
41
1
10
11.7783842767783
20
-1.82303391452268
30
0
41
1
10
11.7945482339655
20
-1.81641837523961
30
0
0
INSERT
5
172
100
AcDbEntity
8
SK2
62
256
6
ByLayer
370
25
48
1
60
0
100
AcDbBlockReference
2
DimnDraft3D11
10
0
20
0
30
0
41
1
42
1
43
1
50
0
210
0
220
0
230
1
0
LINE
5
72
100
AcDbEntity
8
1
62
256
6
ByLayer
370
18
48
1
60
0
100
AcDbLine
10
23.913737
20
-3.080005
30
0
11
23.583139
21
-2.749407
31
0
39
0
210
0
220
0
230
1
0
LINE
5
74
100
AcDbEntity
8
1
62
256
6
ByLayer
370
18
48
1
60
0
100
AcDbLine
10
15.133907
20
-11.198639
30
0
11
15.464505
21
-11.529237
31
0
39
0
210
0
220
0
230
1
0
LINE
5
75
100
AcDbEntity
8
1
62
256
6
ByLayer
370
18
48
1
60
0
100
AcDbLine
10
3.196374
20
-2.507573
30
0
11
3.63619
21
-2.882257
31
0
39
0
210
0
220
0
230
1
0
LINE
5
76
100
AcDbEntity
8
1
62
256
6
ByLayer
370
18
48
1
60
0
100
AcDbLine
10
10.721622
20
-0.302158
30
0
11
10.86197
21
-0.442506
31
0
39
0
210
0
220
0
230
1
0
LINE
5
77
100
AcDbEntity
8
1
62
256
6
ByLayer
370
18
48
1
60
0
100
AcDbLine
10
10.11019
20
-1.693677
30
0
11
9.972511
21
-1.555997
31
0
39
0
210
0
220
0
230
1
0
LINE
5
78
100
AcDbEntity
8
1
62
256
6
ByLayer
370
18
48
1
60
0
100
AcDbLine
10
8.493216
20
-3.453408
30
0
11
8.665847
21
-3.626039
31
0
39
0
210
0
220
0
230
1
0
LINE
5
79
100
AcDbEntity
8
1
62
256
6
ByLayer
370
18
48
1
60
0
100
AcDbLine
10
13.191331
20
0.899445
30
0
11
13.018648
21
1.072127
31
0
39
0
210
0
220
0
230
1
0
LINE
5
7A
100
AcDbEntity
8
1
62
256
6
ByLayer
370
18
48
1
60
0
100
AcDbLine
10
11.695245
20
-0.981174
30
0
11
11.832925
21
-1.118854
31
0
39
0
210
0
220
0
230
1
0
LINE
5
7B
100
AcDbEntity
8
1
62
256
6
ByLayer
370
18
48
1
60
0
100
AcDbLine
10
11.086482
20
-2.375362
30
0
11
10.946134
21
-2.235014
31
0
39
0
210
0
220
0
230
1
0
LINE
5
7C
100
AcDbEntity
8
1
62
256
6
ByLayer
370
18
48
1
60
0
100
AcDbLine
10
6.298289
20
-0.830458
30
0
11
5.984255
21
-0.562929
31
0
39
0
210
0
220
0
230
1
0
LINE
5
7D
100
AcDbEntity
8
80
62
256
6
ByLayer
370
18
48
1
60
0
100
AcDbLine
10
0
20
0
30
0
11
-5
21
0
31
0
39
0
210
0
220
0
230
1
0
LINE
5
7E
100
AcDbEntity
8
81
62
256
6
ByLayer
370
18
48
1
60
0
100
AcDbLine
10
24.797
20
-12.4125
30
0
11
34.797
21
-12.4125
31
0
39
0
210
0
220
0
230
1
0
LINE
5
7F
100
AcDbEntity
8
1
62
256
6
ByLayer
370
18
48
1
60
0
100
AcDbLine
10
19.487379
20
-2.531217
30
0
11
23.425417
21
-2.854391
31
0
39
0
210
0
220
0
230
1
0
LINE
5
80
100
AcDbEntity
8
1
62
256
6
ByLayer
370
18
48
1
60
0
100
AcDbLine
10
15.238891
20
-11.040917
30
0
11
15.051248
21
-8.754391
31
0
39
0
210
0
220
0
230
1
0
LINE
5
81
100
AcDbEntity
8
1
62
256
6
ByLayer
370
18
48
1
60
0
100
AcDbLine
10
23.351968
20
-2.780942
30
0
11
23.425417
21
-2.854391
31
0
39
0
210
0
220
0
230
1
0
LINE
5
82
100
AcDbEntity
8
1
62
256
6
ByLayer
370
18
48
1
60
0
100
AcDbLine
10
15.238891
20
-11.040917
30
0
11
15.160271
21
-10.962297
31
0
39
0
210
0
220
0
230
1
0
LINE
5
83
100
AcDbEntity
8
1
62
256
6
ByLayer
370
18
48
1
60
0
100
AcDbLine
10
18.551897
20
-0.841452
30
0
11
18.590671
21
-1.313933
31
0
39
0
210
0
220
0
230
1
0
LINE
5
84
100
AcDbEntity
8
1
62
256
6
ByLayer
370
18
48
1
60
0
100
AcDbLine
10
14.889783
20
-8.706417
30
0
11
15.077856
21
-10.998192
31
0
39
0
210
0
220
0
230
1
0
LINE
5
85
100
AcDbEntity
8
1
62
256
6
ByLayer
370
18
48
1
60
0
100
AcDbLine
10
12.763811
20
7.953566
30
0
11
11.027563
21
5.483731
31
0
39
0
210
0
220
0
230
1
0
LINE
5
86
100
AcDbEntity
8
1
62
256
6
ByLayer
370
18
48
1
60
0
100
AcDbLine
10
4.64345
20
-3.597749
30
0
11
3.259886
21
-5.565886
31
0
39
0
210
0
220
0
230
1
0
LINE
5
87
100
AcDbEntity
8
1
62
256
6
ByLayer
370
18
48
1
60
0
100
AcDbLine
10
19.346119
20
-2.35847
30
0
11
23.383861
21
-2.707602
31
0
39
0
210
0
220
0
230
1
0
LINE
5
88
100
AcDbEntity
8
1
62
256
6
ByLayer
370
18
48
1
60
0
100
AcDbLine
10
9.499244
20
7.944692
30
0
11
8.778052
21
6.918788
31
0
39
0
210
0
220
0
230
1
0
LINE
5
89
100
AcDbEntity
8
1
62
256
6
ByLayer
370
18
48
1
60
0
100
AcDbLine
10
2.601706
20
-1.867141
30
0
11
1.283457
21
-3.742366
31
0
39
0
210
0
220
0
230
1
0
LINE
5
8A
100
AcDbEntity
8
1
62
256
6
ByLayer
370
18
48
1
60
0
100
AcDbLine
10
17.964983
20
-0.174491
30
0
11
17.990513
21
-0.485588
31
0
39
0
210
0
220
0
230
1
0
LINE
5
8B
100
AcDbEntity
8
1
62
256
6
ByLayer
370
18
48
1
60
0
100
AcDbLine
10
23.383861
20
-2.707602
30
0
11
23.339694
21
-2.809168
31
0
39
0
210
0
220
0
230
1
0
LINE
5
8C
100
AcDbEntity
8
1
62
256
6
ByLayer
370
18
48
1
60
0
100
AcDbLine
10
19.447332
20
-2.482153
30
0
11
20.091287
21
-2.537834
31
0
39
0
210
0
220
0
230
1
0
LINE
5
8D
100
AcDbEntity
8
1
62
256
6
ByLayer
370
18
48
1
60
0
100
AcDbLine
10
9.463226
20
7.943826
30
0
11
8.749121
21
6.928002
31
0
39
0
210
0
220
0
230
1
0
LINE
5
8E
100
AcDbEntity
8
1
62
256
6
ByLayer
370
18
48
1
60
0
100
AcDbLine
10
2.583707
20
-1.842375
30
0
11
1.077403
21
-3.98511
31
0
39
0
210
0
220
0
230
1
0
LINE
5
8F
100
AcDbEntity
8
1
62
256
6
ByLayer
370
18
48
1
60
0
100
AcDbLine
10
8.351884
20
7.940805
30
0
11
7.67301
21
6.975099
31
0
39
0
210
0
220
0
230
1
0
LINE
5
90
100
AcDbEntity
8
1
62
256
6
ByLayer
370
18
48
1
60
0
100
AcDbLine
10
2.175584
20
-0.845057
30
0
11
0.404576
21
-3.364338
31
0
39
0
210
0
220
0
230
1
0
LINE
5
91
100
AcDbEntity
8
1
62
256
6
ByLayer
370
18
48
1
60
0
100
AcDbLine
10
17.800701
20
-0.172711
30
0
11
17.80541
21
-0.230101
31
0
39
0
210
0
220
0
230
1
0
LINE
5
92
100
AcDbEntity
8
1
62
256
6
ByLayer
370
18
48
1
60
0
100
AcDbLine
10
10.731732
20
-0.301702
30
0
11
10.819555
21
-0.389525
31
0
39
0
210
0
220
0
230
1
0
LINE
5
93
100
AcDbEntity
8
1
62
256
6
ByLayer
370
18
48
1
60
0
100
AcDbLine
10
8.547212
20
-6.301476
30
0
11
4.829125
21
-3.708436
31
0
39
0
210
0
220
0
230
1
0
LINE
5
94
100
AcDbEntity
8
1
62
256
6
ByLayer
370
18
48
1
60
0
100
AcDbLine
10
3.667343
20
0.059575
30
0
11
2.601315
21
0.967735
31
0
39
0
210
0
220
0
230
1
0
LINE
5
95
100
AcDbEntity
8
1
62
256
6
ByLayer
370
18
48
1
60
0
100
AcDbLine
10
9.643342
20
-4.536746
30
0
11
9.385452
21
-4.317047
31
0
39
0
210
0
220
0
230
1
0
LINE
5
96
100
AcDbEntity
8
1
62
256
6
ByLayer
370
18
48
1
60
0
100
AcDbLine
10
11.163974
20
5.383065
30
0
11
11.191393
21
5.34197
31
0
39
0
210
0
220
0
230
1
0
LINE
5
97
100
AcDbEntity
8
1
62
256
6
ByLayer
370
18
48
1
60
0
100
AcDbLine
10
20.616865
20
-3.994467
30
0
11
20.996925
21
-6.269924
31
0
39
0
210
0
220
0
230
1
0
LINE
5
98
100
AcDbEntity
8
1
62
256
6
ByLayer
370
18
48
1
60
0
100
AcDbLine
10
4.782465
20
-3.694711
30
0
11
4.829125
21
-3.708436
31
0
39
0
210
0
220
0
230
1
0
LINE
5
99
100
AcDbEntity
8
1
62
256
6
ByLayer
370
18
48
1
60
0
100
AcDbLine
10
5.759912
20
-0.389876
30
0
11
4.62592
21
0.400216
31
0
39
0
210
0
220
0
230
1
0
LINE
5
9A
100
AcDbEntity
8
1
62
256
6
ByLayer
370
18
48
1
60
0
100
AcDbLine
10
8.301561
20
-3.600972
30
0
11
8.049535
21
-3.386268
31
0
39
0
210
0
220
0
230
1
0
LINE
5
9B
100
AcDbEntity
8
1
62
256
6
ByLayer
370
18
48
1
60
0
100
AcDbLine
10
18.040651
20
-6.27569
30
0
11
21.134608
21
-8.324035
31
0
39
0
210
0
220
0
230
1
0
LINE
5
9C
100
AcDbEntity
8
1
62
256
6
ByLayer
370
18
48
1
60
0
100
AcDbLine
10
8.049535
20
-3.386268
30
0
11
9.385452
21
-4.317047
31
0
39
0
210
0
220
0
230
1
0
LINE
5
9D
100
AcDbEntity
8
1
62
256
6
ByLayer
370
18
48
1
60
0
100
AcDbLine
10
9.585335
20
5.492124
30
0
11
14.715125
21
1.914546
31
0
39
0
210
0
220
0
230
1
0
LINE
5
9E
100
AcDbEntity
8
1
62
256
6
ByLayer
370
18
48
1
60
0
100
AcDbLine
10
4.782465
20
-3.694711
30
0
11
3.819034
21
-3.022803
31
0
39
0
210
0
220
0
230
1
0
LINE
5
9F
100
AcDbEntity
8
1
62
256
6
ByLayer
370
18
48
1
60
0
100
AcDbLine
10
13.495244
20
0.942633
30
0
11
12.153464
21
1.878407
31
0
39
0
210
0
220
0
230
1
0
LINE
5
A0
100
AcDbEntity
8
1
62
256
6
ByLayer
370
18
48
1
60
0
100
AcDbLine
10
4.62592
20
0.400216
30
0
11
7.155527
21
3.998614
31
0
39
0
210
0
220
0
230
1
0
LINE
5
A1
100
AcDbEntity
8
1
62
256
6
ByLayer
370
18
48
1
60
0
100
AcDbLine
10
4.072383
20
-2.350118
30
0
11
9.202173
21
-5.927697
31
0
39
0
210
0
220
0
230
1
0
LINE
5
A2
100
AcDbEntity
8
1
62
256
6
ByLayer
370
18
48
1
60
0
100
AcDbLine
10
19.157311
20
-8.886797
30
0
11
16.880581
21
-9.309377
31
0
39
0
210
0
220
0
230
1
0
LINE
5
A3
100
AcDbEntity
8
1
62
256
6
ByLayer
370
18
48
1
60
0
100
AcDbLine
10
3.667343
20
0.059575
30
0
11
7.174299
21
5.048263
31
0
39
0
210
0
220
0
230
1
0
LINE
5
A4
100
AcDbEntity
8
1
62
256
6
ByLayer
370
18
48
1
60
0
100
AcDbLine
10
14.909481
20
2.74893
30
0
11
11.191393
21
5.34197
31
0
39
0
210
0
220
0
230
1
0
LINE
5
A5
100
AcDbEntity
8
1
62
256
6
ByLayer
370
18
48
1
60
0
100
AcDbLine
10
10.200543
20
6.054974
30
0
11
9.833491
21
6.367669
31
0
39
0
210
0
220
0
230
1
0
LINE
5
A6
100
AcDbEntity
8
1
62
256
6
ByLayer
370
18
48
1
60
0
100
AcDbLine
10
10.200543
20
6.054974
30
0
11
11.163974
21
5.383065
31
0
39
0
210
0
220
0
230
1
0
LINE
5
A7
100
AcDbEntity
8
1
62
256
6
ByLayer
370
18
48
1
60
0
100
AcDbLine
10
7.174299
20
5.048263
30
0
11
6.108271
21
5.956423
31
0
39
0
210
0
220
0
230
1
0
LINE
5
A8
100
AcDbEntity
8
1
62
256
6
ByLayer
370
18
48
1
60
0
100
AcDbLine
10
6.108271
20
5.956423
30
0
11
2.601315
21
0.967735
31
0
39
0
210
0
220
0
230
1
0
LINE
5
A9
100
AcDbEntity
8
1
62
256
6
ByLayer
370
18
48
1
60
0
100
AcDbLine
10
8.301561
20
-3.600972
30
0
11
9.643342
21
-4.536746
31
0
39
0
210
0
220
0
230
1
0
LINE
5
AA
100
AcDbEntity
8
1
62
256
6
ByLayer
370
18
48
1
60
0
100
AcDbLine
10
11.163974
20
5.383065
30
0
11
9.840089
21
6.362787
31
0
39
0
210
0
220
0
230
1
0
LINE
5
AB
100
AcDbEntity
8
1
62
256
6
ByLayer
370
18
48
1
60
0
100
AcDbLine
10
11.640892
20
-0.615277
30
0
11
11.781241
21
-0.755626
31
0
39
0
210
0
220
0
230
1
0
LINE
5
AC
100
AcDbEntity
8
1
62
256
6
ByLayer
370
18
48
1
60
0
100
AcDbLine
10
10.83456
20
-2.163648
30
0
11
10.970407
21
-2.299494
31
0
39
0
210
0
220
0
230
1
0
LINE
5
AD
100
AcDbEntity
8
1
62
256
6
ByLayer
370
18
48
1
60
0
100
AcDbLine
10
9.819233
20
-1.472499
30
0
11
9.959582
21
-1.612848
31
0
39
0
210
0
220
0
230
1
0
LINE
5
AE
100
AcDbEntity
8
1
62
256
6
ByLayer
370
18
48
1
60
0
100
AcDbLine
10
10.493559
20
-2.247373
30
0
11
10.633907
21
-2.387722
31
0
39
0
210
0
220
0
230
1
0
LINE
5
AF
100
AcDbEntity
8
1
62
256
6
ByLayer
370
18
48
1
60
0
100
AcDbLine
10
11.648657
20
-1.980329
30
0
11
11.51281
21
-1.844483
31
0
39
0
210
0
220
0
230
1
0
LINE
5
B0
100
AcDbEntity
8
1
62
256
6
ByLayer
370
18
48
1
60
0
100
AcDbLine
10
10.803995
20
-2.285838
30
0
11
10.668148
21
-2.149991
31
0
39
0
210
0
220
0
230
1
0
LINE
5
B1
100
AcDbEntity
8
1
62
256
6
ByLayer
370
18
48
1
60
0
100
AcDbLine
10
11.814386
20
-1.098924
30
0
11
11.67854
21
-0.963077
31
0
39
0
210
0
220
0
230
1
0
LINE
5
B2
100
AcDbEntity
8
1
62
256
6
ByLayer
370
18
48
1
60
0
100
AcDbLine
10
11.508204
20
-2.04346
30
0
11
11.648552
21
-2.183808
31
0
39
0
210
0
220
0
230
1
0
LINE
5
B3
100
AcDbEntity
8
1
62
256
6
ByLayer
370
18
48
1
60
0
100
AcDbLine
10
11.609418
20
-1.707056
30
0
11
11.745265
21
-1.842903
31
0
39
0
210
0
220
0
230
1
0
LINE
5
B4
100
AcDbEntity
8
1
62
256
6
ByLayer
370
18
48
1
60
0
100
AcDbLine
10
11.795564
20
-1.634686
30
0
11
11.935912
21
-1.775034
31
0
39
0
210
0
220
0
230
1
0
LINE
5
B5
100
AcDbEntity
8
1
62
256
6
ByLayer
370
18
48
1
60
0
100
AcDbLine
10
11.608736
20
-0.811994
30
0
11
11.744582
21
-0.94784
31
0
39
0
210
0
220
0
230
1
0
LINE
5
B6
100
AcDbEntity
8
1
62
256
6
ByLayer
370
18
48
1
60
0
100
AcDbLine
10
2.838758
20
-9.993794
30
0
11
1.87484
21
-9.81234
31
0
39
0
210
0
220
0
230
1
0
LINE
5
B7
100
AcDbEntity
8
1
62
256
6
ByLayer
370
18
48
1
60
0
100
AcDbLine
10
1.87484
20
-9.81234
30
0
11
0
21
-7.9375
31
0
39
0
210
0
220
0
230
1
0
LINE
5
B8
100
AcDbEntity
8
1
62
256
6
ByLayer
370
18
48
1
60
0
100
AcDbLine
10
17.800701
20
-0.172711
30
0
11
17.964983
21
-0.174491
31
0
39
0
210
0
220
0
230
1
0
LINE
5
B9
100
AcDbEntity
8
1
62
256
6
ByLayer
370
18
48
1
60
0
100
AcDbLine
10
15.077856
20
-10.998192
30
0
11
15.188481
21
-10.950015
31
0
39
0
210
0
220
0
230
1
0
LINE
5
BA
100
AcDbEntity
8
1
62
256
6
ByLayer
370
18
48
1
60
0
100
AcDbLine
10
15.077856
20
-10.998192
30
0
11
2.838758
21
-9.993794
31
0
39
0
210
0
220
0
230
1
0
LINE
5
BB
100
AcDbEntity
8
1
62
256
6
ByLayer
370
18
48
1
60
0
100
AcDbLine
10
3.259886
20
-5.565886
30
0
11
2.838758
21
-9.993794
31
0
39
0
210
0
220
0
230
1
0
LINE
5
BC
100
AcDbEntity
8
1
62
256
6
ByLayer
370
18
48
1
60
0
100
AcDbLine
10
0
20
7.9375
30
0
11
1.480082
21
7.943958
31
0
39
0
210
0
220
0
230
1
0
LINE
5
BD
100
AcDbEntity
8
1
62
256
6
ByLayer
370
18
48
1
60
0
100
AcDbLine
10
23.191293
20
-0.361063
30
0
11
16.946839
21
7.951646
31
0
39
0
210
0
220
0
230
1
0
LINE
5
BE
100
AcDbEntity
8
1
62
256
6
ByLayer
370
18
48
1
60
0
100
AcDbLine
10
12.763811
20
7.953566
30
0
11
9.499244
21
7.944692
31
0
39
0
210
0
220
0
230
1
0
LINE
5
BF
100
AcDbEntity
8
1
62
256
6
ByLayer
370
18
48
1
60
0
100
AcDbLine
10
16.946839
20
7.951646
30
0
11
12.763811
21
7.953566
31
0
39
0
210
0
220
0
230
1
0
LINE
5
C0
100
AcDbEntity
8
1
62
256
6
ByLayer
370
18
48
1
60
0
100
AcDbLine
10
1.077403
20
-3.98511
30
0
11
1.283457
21
-3.742366
31
0
39
0
210
0
220
0
230
1
0
LINE
5
C1
100
AcDbEntity
8
1
62
256
6
ByLayer
370
18
48
1
60
0
100
AcDbLine
10
8.351884
20
7.940805
30
0
11
1.480082
21
7.943958
31
0
39
0
210
0
220
0
230
1
0
LINE
5
C2
100
AcDbEntity
8
1
62
256
6
ByLayer
370
18
48
1
60
0
100
AcDbLine
10
0
20
-7.9375
30
0
11
0
21
7.9375
31
0
39
0
210
0
220
0
230
1
0
LINE
5
C3
100
AcDbEntity
8
1
62
256
6
ByLayer
370
18
48
1
60
0
100
AcDbLine
10
17.964983
20
-0.174491
30
0
11
18.551897
21
-0.841452
31
0
39
0
210
0
220
0
230
1
0
LINE
5
C4
100
AcDbEntity
8
1
62
256
6
ByLayer
370
18
48
1
60
0
100
AcDbLine
10
1.480082
20
7.943958
30
0
11
0.404576
21
-3.364338
31
0
39
0
210
0
220
0
230
1
0
LINE
5
C5
100
AcDbEntity
8
1
62
256
6
ByLayer
370
18
48
1
60
0
100
AcDbLine
10
9.499244
20
7.944692
30
0
11
9.463226
21
7.943826
31
0
39
0
210
0
220
0
230
1
0
LINE
5
C6
100
AcDbEntity
8
1
62
256
6
ByLayer
370
18
48
1
60
0
100
AcDbLine
10
23.191293
20
-0.361063
30
0
11
23.383861
21
-2.707602
31
0
39
0
210
0
220
0
230
1
0
LINE
5
C7
100
AcDbEntity
8
1
62
256
6
ByLayer
370
18
48
1
60
0
100
AcDbLine
10
1.283457
20
-3.742366
30
0
11
3.259886
21
-5.565886
31
0
39
0
210
0
220
0
230
1
0
LINE
5
C8
100
AcDbEntity
8
SK1
62
256
6
ByLayer
370
18
48
1
60
0
100
AcDbLine
10
0
20
-7.9375
30
0
11
0
21
7.9375
31
0
39
0
210
0
220
0
230
1
0
LINE
5
CA
100
AcDbEntity
8
SK1
62
256
6
ByLayer
370
18
48
1
60
0
100
AcDbLine
10
-76.553
20
7.9375
30
0
11
0
21
7.9375
31
0
39
0
210
0
220
0
230
1
0
LINE
5
CB
100
AcDbEntity
8
SK1
62
256
6
ByLayer
370
18
48
1
60
0
100
AcDbLine
10
0
20
-7.9375
30
0
11
-76.553
21
-7.9375
31
0
39
0
210
0
220
0
230
1
0
LINE
5
CC
100
AcDbEntity
8
SK1
62
256
6
ByLayer
370
18
48
1
60
0
100
AcDbLine
10
-76.553
20
-7.9375
30
0
11
-76.553
21
7.9375
31
0
39
0
210
0
220
0
230
1
0
LINE
5
CD
100
AcDbEntity
8
1
62
256
6
ByLayer
370
18
48
1
60
0
100
AcDbLine
10
24.139351
20
-3.568324
30
0
11
24.794336
21
-11.549656
31
0
39
0
210
0
220
0
230
1
0
LINE
5
CE
100
AcDbEntity
8
1
62
256
6
ByLayer
370
18
48
1
60
0
100
AcDbLine
10
23.934156
20
-12.409836
30
0
11
15.952825
21
-11.754851
31
0
39
0
210
0
220
0
230
1
0
MTEXT
5
160
100
AcDbEntity
8
SK6
62
256
6
ByLayer
370
18
48
1
60
0
100
AcDbMText
10
-40.003
20
17.070533
30
0
210
0
220
0
230
1
1
\W0.7318;DCLNL 1616H 09
40
3.5
41
0
44
1.084337
50
0
71
7
72
5
7
iso_b_vert
0
DIMENSION
5
180
100
AcDbEntity
8
2
62
256
6
ByLayer
370
13
48
1
60
0
100
AcDbDimension
2
DimnDraft3D2
10
22.94168
20
-12.328051
30
0
11
12.351118
21
-23.94666
31
0
70
34
71
5
72
1
41
1
210
0
220
0
230
1
3
Standard
100
AcDb2LineAngularDimension
13
24.797
23
-12.4125
33
0
14
24.797
24
-10.825
34
0
15
23.938329
25
-12.409841
35
0
16
9.041568
26
-26.995739
36
0
40
0
0
DIMENSION
5
195
100
AcDbEntity
8
2
62
256
6
ByLayer
370
13
48
1
60
0
100
AcDbDimension
2
DimnDraft3D3
10
24.797
20
-40.6625
30
0
11
6.880079
21
-40.6625
31
0
70
32
71
5
72
1
41
1
210
0
220
0
230
1
3
Standard
100
AcDbAlignedDimension
13
0
23
-9.9375
33
0
14
24.797
24
-14.4125
34
0
50
0
100
AcDbRotatedDimension
1001
ACAD
1000
DSTYLE
1002
{
1070
   279
1070
     0
1070
   172
1070
     1
1070
   173
1070
     1
1070
   340
1005
161
1070
    77
1070
     1
1070
    73
1070
     0
1070
   171
1070
     3
1070
   274
1070
     4
1070
   177
1070
     2
1070
   176
1070
     2
1070
   178
1070
     7
1070
    78
1070
     8
1070
    41
1041
3.175
1070
   147
1041
2.25
1070
    42
1041
2.0
1070
    44
1041
2.0
1070
   140
1041
4.5
1070
   343
1005
181
1070
   344
1005
181
1002
}
0
DIMENSION
5
1A3
100
AcDbEntity
8
2
62
256
6
ByLayer
370
13
48
1
60
0
100
AcDbDimension
2
DimnDraft3D4
10
47.047
20
-12.4125
30
0
11
47.047
21
-7.519079
31
0
70
32
71
5
72
1
41
1
210
0
220
0
230
1
3
Standard
100
AcDbAlignedDimension
13
2
23
7.9375
33
0
14
26.797
24
-12.4125
34
0
50
90
100
AcDbRotatedDimension
1001
ACAD
1000
DSTYLE
1002
{
1070
    74
1070
     0
1070
   279
1070
     0
1070
   172
1070
     1
1070
   173
1070
     1
1070
   340
1005
161
1070
    77
1070
     1
1070
    73
1070
     0
1070
   171
1070
     3
1070
   274
1070
     4
1070
   177
1070
     2
1070
   176
1070
     2
1070
   178
1070
     7
1070
    78
1070
     8
1070
    41
1041
3.175
1070
   147
1041
2.25
1070
    42
1041
2.0
1070
    44
1041
2.0
1070
   140
1041
4.5
1070
   343
1005
181
1070
   344
1005
181
1002
}
0
DIMENSION
5
1B1
100
AcDbEntity
8
SK2
62
256
6
ByLayer
370
13
48
1
60
0
100
AcDbDimension
2
DimnDraft3D5
10
-84.303
20
-7.9375
30
0
11
-84.303
21
-4.719079
31
0
70
32
71
5
72
1
41
1
210
0
220
0
230
1
3
Standard
100
AcDbAlignedDimension
13
-78.553
23
7.9375
33
0
14
-78.553
24
-7.9375
34
0
50
90
100
AcDbRotatedDimension
1001
ACAD
1000
DSTYLE
1002
{
1070
    74
1070
     0
1070
   279
1070
     0
1070
   172
1070
     1
1070
   173
1070
     1
1070
   340
1005
161
1070
    77
1070
     1
1070
    73
1070
     0
1070
   171
1070
     3
1070
   274
1070
     4
1070
   177
1070
     2
1070
   176
1070
     2
1070
   178
1070
     7
1070
    78
1070
     8
1070
    41
1041
3.175
1070
   147
1041
2.25
1070
    42
1041
2.0
1070
    44
1041
2.0
1070
   140
1041
4.5
1070
   343
1005
181
1070
   344
1005
181
1002
}
0
ENDSEC
0
SECTION
2
OBJECTS
0
DICTIONARY
5
21b
330
0
100
AcDbDictionary
280
0
281
1
3
ACAD_GROUP
350
21c
3
ACAD_MLINESTYLE
350
21d
0
DICTIONARY
5
21c
330
0
100
AcDbDictionary
280
0
281
1
0
DICTIONARY
5
21d
330
0
100
AcDbDictionary
280
0
281
1
3
Standard
350
18
0
MLINESTYLE
5
18
330
21d
100
AcDbMlineStyle
2
Standard
70
0
3

62
256
51
90
52
90
71
2
49
-0.5
62
256
6
ByLayer
49
0.5
62
256
6
ByLayer
0
RASTERVARIABLES
5
20a
330

100
AcDbRasterVariables
90
0
70
1
71
1
72
1
0
ENDSEC
0
EOF
