0
SECTION
2
HEADER
9
$ACADVER
1
AC1015
9
$DWGCODEPAGE
3
ANSI_1252
9
$HANDSEED
5
212
9
$ANGBASE
50
0
9
$ANGDIR
70
0
9
$ATTMODE
70
1
9
$AUNITS
70
0
9
$AUPREC
70
0
9
$CECOLOR
62
256
9
$CELTSCALE
40
1
9
$CELTYPE
6
ByLayer
9
$CELWEIGHT
370
18
9
$CLAYER
8
0
9
$CMLJUST
70
0
9
$CMLSCALE
40
1
9
$CMLSTYLE
2
Standard
9
$DIMSTYLE
2
Standard
9
$TEXTSIZE
40
0.2
9
$TEXTSTYLE
7
Standard
9
$LUNITS
70
2
9
$LUPREC
70
4
9
$EXTNAMES
290
1
9
$INSUNITS
70
4
9
$LTSCALE
40
1
9
$LWDISPLAY
290
1
9
$PDMODE
70
0
9
$PDSIZE
40
0
9
$PLINEGEN
70
0
0
ENDSEC
0
SECTION
2
CLASSES
0
CLASS
1
RASTERVARIABLES
2
AcDbRasterVariables
3
ISM
90
0
280
0
281
0
0
ENDSEC
0
SECTION
2
TABLES
0
TABLE
2
VPORT
5
208
100
AcDbSymbolTable
0
VPORT
5
1
100
AcDbSymbolTableRecord
100
AcDbViewportTableRecord
2
*Active
70
0
10
0
20
0
11
1
21
1
12
-1
22
1
13
0
23
0
14
0.5
24
0.5
15
10
25
10
16
0
26
0
36
1
17
0
27
0
37
0
0
ENDTAB
0
TABLE
2
LTYPE
5
209
100
AcDbSymbolTable
0
LTYPE
5
14
100
AcDbSymbolTableRecord
100
AcDbLinetypeTableRecord
70
0
2
ByBlock
3

72
65
73
0
40
0
0
LTYPE
5
15
100
AcDbSymbolTableRecord
100
AcDbLinetypeTableRecord
70
0
2
ByLayer
3

72
65
73
0
40
0
0
LTYPE
5
16
100
AcDbSymbolTableRecord
100
AcDbLinetypeTableRecord
70
0
2
CONTINUOUS
3
Solid line
72
65
73
0
40
0
0
LTYPE
5
6A
100
AcDbSymbolTableRecord
100
AcDbLinetypeTableRecord
70
0
2
CENTER
3
____ _ ____ _ ____ _ ____
72
65
73
4
40
47.5
49
22
74
0
49
-8.5
74
0
49
8.5
74
0
49
-8.5
74
0
0
LTYPE
5
6B
100
AcDbSymbolTableRecord
100
AcDbLinetypeTableRecord
70
0
2
DASHED
3
__ __ __ __ __ __ __ __ __
72
65
73
2
40
25.72
49
12.86
74
0
49
-12.86
74
0
0
ENDTAB
0
TABLE
2
LAYER
5
20a
100
AcDbSymbolTable
0
LAYER
5
10
100
AcDbSymbolTableRecord
100
AcDbLayerTableRecord
2
0
70
0
62
7
6
CONTINUOUS
290
1
370
-3
390
0
0
LAYER
5
6D
100
AcDbSymbolTableRecord
100
AcDbLayerTableRecord
2
2
70
0
62
7
6
CONTINUOUS
290
1
370
-3
390
0
0
LAYER
5
6F
100
AcDbSymbolTableRecord
100
AcDbLayerTableRecord
2
80
70
0
62
-6
6
CONTINUOUS
290
1
370
-3
390
0
0
LAYER
5
71
100
AcDbSymbolTableRecord
100
AcDbLayerTableRecord
2
81
70
0
62
-3
6
CONTINUOUS
290
1
370
-3
390
0
0
LAYER
5
73
100
AcDbSymbolTableRecord
100
AcDbLayerTableRecord
2
1
70
0
62
4
6
CONTINUOUS
290
1
370
-3
390
0
0
LAYER
5
1f5
100
AcDbSymbolTableRecord
100
AcDbLayerTableRecord
2
SK1
70
0
62
4
6
CONTINUOUS
290
1
370
-3
390
0
0
LAYER
5
1f6
100
AcDbSymbolTableRecord
100
AcDbLayerTableRecord
2
SK6
70
0
62
5
6
CONTINUOUS
290
1
370
-3
390
0
0
LAYER
5
1f7
100
AcDbSymbolTableRecord
100
AcDbLayerTableRecord
2
SK2
70
0
62
7
6
CONTINUOUS
290
1
370
-3
390
0
0
ENDTAB
0
TABLE
2
STYLE
5
20b
100
AcDbSymbolTable
0
STYLE
5
11
100
AcDbSymbolTableRecord
100
AcDbTextStyleTableRecord
2
Standard
3
txt
70
0
71
0
40
0
41
1
42
0
50
0
0
STYLE
5
14B
100
AcDbSymbolTableRecord
100
AcDbTextStyleTableRecord
2
iso_b_vert
3
simplex.shx
70
0
71
0
40
0
41
1
42
0
50
0
0
STYLE
5
14C
100
AcDbSymbolTableRecord
100
AcDbTextStyleTableRecord
2
DWGDirectTextStyle
3
simplex
70
0
71
0
40
0
41
1
42
0
50
0
0
ENDTAB
0
TABLE
2
DIMSTYLE
5
20c
100
AcDbSymbolTable
100
AcDbDimStyleTable
0
DIMSTYLE
105
27
100
AcDbSymbolTableRecord
100
AcDbDimStyleTableRecord
2
Standard
70
0
3
<>
41
0.18
42
0.0625
44
0.18
140
0.18
147
0.09
73
0
74
0
77
1
271
2
275
0
278
52
280
0
340
11
0
ENDTAB
0
TABLE
2
VIEW
5
20d
100
AcDbSymbolTable
0
ENDTAB
0
TABLE
2
UCS
5
20e
100
AcDbSymbolTable
0
ENDTAB
0
TABLE
2
APPID
5
20f
100
AcDbSymbolTable
0
APPID
5
12
100
AcDbSymbolTableRecord
100
AcDbRegAppTableRecord
2
ACAD
70
0
0
ENDTAB
0
TABLE
2
BLOCK_RECORD
5
210
100
AcDbSymbolTable
0
BLOCK_RECORD
5
1F
100
AcDbSymbolTableRecord
100
AcDbBlockTableRecord
2
*Model_Space
340
0
70
0
0
BLOCK_RECORD
5
1B
100
AcDbSymbolTableRecord
100
AcDbBlockTableRecord
2
*Paper_Space
340
0
70
0
0
BLOCK_RECORD
5
23
100
AcDbSymbolTableRecord
100
AcDbBlockTableRecord
2
*Paper_Space0
340
0
70
0
0
BLOCK_RECORD
5
14E
100
AcDbSymbolTableRecord
100
AcDbBlockTableRecord
2
DimnDraft3D1
340
0
70
0
0
BLOCK_RECORD
5
15C
100
AcDbSymbolTableRecord
100
AcDbBlockTableRecord
2
_CLOSED
340
0
70
0
0
BLOCK_RECORD
5
163
100
AcDbSymbolTableRecord
100
AcDbBlockTableRecord
2
DimnDraft3D2
340
0
70
0
0
BLOCK_RECORD
5
172
100
AcDbSymbolTableRecord
100
AcDbBlockTableRecord
2
DimnDraft3D3
340
0
70
0
0
BLOCK_RECORD
5
180
100
AcDbSymbolTableRecord
100
AcDbBlockTableRecord
2
DimnDraft3D4
340
0
70
0
0
BLOCK_RECORD
5
18E
100
AcDbSymbolTableRecord
100
AcDbBlockTableRecord
2
DimnDraft3D5
340
0
70
0
0
ENDTAB
0
ENDSEC
0
SECTION
2
BLOCKS
0
BLOCK
5
20
100
AcDbEntity
8
0
100
AcDbBlockBegin
2
*Model_Space
70
0
10
0
20
0
30
0
3
*Model_Space
0
ENDBLK
5
21
100
AcDbEntity
8
0
100
AcDbBlockEnd
0
BLOCK
5
1C
100
AcDbEntity
8
0
100
AcDbBlockBegin
2
*Paper_Space
70
0
10
0
20
0
30
0
3
*Paper_Space
0
ENDBLK
5
1D
100
AcDbEntity
8
0
100
AcDbBlockEnd
0
BLOCK
5
24
100
AcDbEntity
8
0
100
AcDbBlockBegin
2
*Paper_Space0
70
0
10
0
20
0
30
0
3
*Paper_Space0
0
ENDBLK
5
25
100
AcDbEntity
8
0
100
AcDbBlockEnd
0
BLOCK
5
159
100
AcDbEntity
8
0
100
AcDbBlockBegin
2
DimnDraft3D1
70
0
10
0
20
0
30
0
3
DimnDraft3D1
0
MTEXT
5
14F
100
AcDbEntity
8
2
62
256
6
ByLayer
370
18
48
1
60
0
100
AcDbMText
10
42.366158
20
0.045533
30
0
210
0
220
0
230
1
1
\W0.7399;75%%d
40
4.5
41
0
44
1.084337
50
52.5000000000002
71
7
72
5
7
iso_b_vert
0
LINE
5
150
100
AcDbEntity
8
2
62
256
6
ByLayer
370
13
48
1
60
0
100
AcDbLine
10
22.70712
20
14.549597
30
0
11
29.540916
21
-10.954475
31
0
39
0
210
0
220
0
230
1
0
LINE
5
151
100
AcDbEntity
8
2
62
256
6
ByLayer
370
13
48
1
60
0
100
AcDbLine
10
23.270135
20
19.9125
30
0
11
53.225979
21
19.9125
31
0
39
0
210
0
220
0
230
1
0
ARC
5
152
100
AcDbEntity
8
2
62
256
6
ByLayer
370
13
48
1
60
0
100
AcDbCircle
39
0
10
21.270135
20
19.9125
30
0
40
29.9558441234257
210
0
220
0
230
1
100
AcDbArc
50
285
51
0
0
LINE
5
153
100
AcDbEntity
8
2
62
256
6
ByLayer
370
13
48
1
60
0
100
AcDbLine
10
29.023277
20
-9.022623
30
0
11
31.94843
21
-7.719236
31
0
39
0
210
0
220
0
230
1
0
LINE
5
154
100
AcDbEntity
8
2
62
256
6
ByLayer
370
13
48
1
60
0
100
AcDbLine
10
29.023277
20
-9.022623
30
0
11
32.186102
21
-8.520732
31
0
39
0
210
0
220
0
230
1
0
LINE
5
155
100
AcDbEntity
8
2
62
256
6
ByLayer
370
13
48
1
60
0
100
AcDbLine
10
31.94843
20
-7.719236
30
0
11
32.186102
21
-8.520732
31
0
39
0
210
0
220
0
230
1
0
LINE
5
156
100
AcDbEntity
8
2
62
256
6
ByLayer
370
13
48
1
60
0
100
AcDbLine
10
51.225979
20
19.9125
30
0
11
51.559788
21
16.72755
31
0
39
0
210
0
220
0
230
1
0
LINE
5
157
100
AcDbEntity
8
2
62
256
6
ByLayer
370
13
48
1
60
0
100
AcDbLine
10
51.225979
20
19.9125
30
0
11
50.724088
21
16.749675
31
0
39
0
210
0
220
0
230
1
0
LINE
5
158
100
AcDbEntity
8
2
62
256
6
ByLayer
370
13
48
1
60
0
100
AcDbLine
10
51.559788
20
16.72755
30
0
11
50.724088
21
16.749675
31
0
39
0
210
0
220
0
230
1
0
ENDBLK
5
15A
100
AcDbEntity
8
0
100
AcDbBlockEnd
0
BLOCK
5
15D
100
AcDbEntity
8
0
100
AcDbBlockBegin
2
_CLOSED
70
0
10
0
20
0
30
0
3
_CLOSED
0
LINE
5
15F
100
AcDbEntity
8
0
62
256
6
ByLayer
370
-2
48
1
60
0
100
AcDbLine
10
-1
20
0.166667
30
0
11
0
21
0
31
0
39
0
210
0
220
0
230
1
0
LINE
5
160
100
AcDbEntity
8
0
62
256
6
ByLayer
370
-2
48
1
60
0
100
AcDbLine
10
0
20
0
30
0
11
-1
21
-0.166667
31
0
39
0
210
0
220
0
230
1
0
LINE
5
161
100
AcDbEntity
8
0
62
256
6
ByLayer
370
-2
48
1
60
0
100
AcDbLine
10
-1
20
0.166667
30
0
11
-1
21
-0.166667
31
0
39
0
210
0
220
0
230
1
0
LINE
5
162
100
AcDbEntity
8
0
62
256
6
ByLayer
370
-2
48
1
60
0
100
AcDbLine
10
0
20
0
30
0
11
-1
21
0
31
0
39
0
210
0
220
0
230
1
0
ENDBLK
5
15E
100
AcDbEntity
8
0
100
AcDbBlockEnd
0
BLOCK
5
16F
100
AcDbEntity
8
0
100
AcDbBlockBegin
2
DimnDraft3D2
70
0
10
0
20
0
30
0
3
DimnDraft3D2
0
MTEXT
5
164
100
AcDbEntity
8
SK2
62
256
6
ByLayer
370
18
48
1
60
0
100
AcDbMText
10
-158.954865
20
-4.156579
30
0
210
0
220
0
230
1
1
\W0.7346;25.0
40
4.5
41
0
44
1.084337
50
90
71
7
72
5
7
iso_b_vert
0
LINE
5
166
100
AcDbEntity
8
SK2
62
256
6
ByLayer
370
13
48
1
60
0
100
AcDbLine
10
-152.079865
20
-12.4375
30
0
11
-159.829865
21
-12.4375
31
0
39
0
210
0
220
0
230
1
0
LINE
5
167
100
AcDbEntity
8
SK2
62
256
6
ByLayer
370
13
48
1
60
0
100
AcDbLine
10
-152.079865
20
12.4375
30
0
11
-159.829865
21
12.4375
31
0
39
0
210
0
220
0
230
1
0
LINE
5
168
100
AcDbEntity
8
SK2
62
256
6
ByLayer
370
13
48
1
60
0
100
AcDbLine
10
-157.829865
20
-12.4375
30
0
11
-157.829865
21
12.4375
31
0
39
0
210
0
220
0
230
1
0
LINE
5
169
100
AcDbEntity
8
SK2
62
256
6
ByLayer
370
13
48
1
60
0
100
AcDbLine
10
-157.829865
20
-12.4375
30
0
11
-158.247862
21
-9.262502
31
0
39
0
210
0
220
0
230
1
0
LINE
5
16A
100
AcDbEntity
8
SK2
62
256
6
ByLayer
370
13
48
1
60
0
100
AcDbLine
10
-157.829865
20
-12.4375
30
0
11
-157.411869
21
-9.262498
31
0
39
0
210
0
220
0
230
1
0
LINE
5
16B
100
AcDbEntity
8
SK2
62
256
6
ByLayer
370
13
48
1
60
0
100
AcDbLine
10
-158.247862
20
-9.262502
30
0
11
-157.411869
21
-9.262498
31
0
39
0
210
0
220
0
230
1
0
LINE
5
16C
100
AcDbEntity
8
SK2
62
256
6
ByLayer
370
13
48
1
60
0
100
AcDbLine
10
-157.829865
20
12.4375
30
0
11
-157.411869
21
9.262502
31
0
39
0
210
0
220
0
230
1
0
LINE
5
16D
100
AcDbEntity
8
SK2
62
256
6
ByLayer
370
13
48
1
60
0
100
AcDbLine
10
-157.829865
20
12.4375
30
0
11
-158.247862
21
9.262498
31
0
39
0
210
0
220
0
230
1
0
LINE
5
16E
100
AcDbEntity
8
SK2
62
256
6
ByLayer
370
13
48
1
60
0
100
AcDbLine
10
-157.411869
20
9.262502
30
0
11
-158.247862
21
9.262498
31
0
39
0
210
0
220
0
230
1
0
ENDBLK
5
170
100
AcDbEntity
8
0
100
AcDbBlockEnd
0
BLOCK
5
17D
100
AcDbEntity
8
0
100
AcDbBlockBegin
2
DimnDraft3D3
70
0
10
0
20
0
30
0
3
DimnDraft3D3
0
MTEXT
5
173
100
AcDbEntity
8
2
62
256
6
ByLayer
370
18
48
1
60
0
100
AcDbMText
10
60.395135
20
-0.419079
30
0
210
0
220
0
230
1
1
\W0.7346;32.0
40
4.5
41
0
44
1.084337
50
90
71
7
72
5
7
iso_b_vert
0
LINE
5
174
100
AcDbEntity
8
2
62
256
6
ByLayer
370
13
48
1
60
0
100
AcDbLine
10
2
20
-12.4375
30
0
11
63.520135
21
-12.4375
31
0
39
0
210
0
220
0
230
1
0
LINE
5
175
100
AcDbEntity
8
2
62
256
6
ByLayer
370
13
48
1
60
0
100
AcDbLine
10
23.270135
20
19.9125
30
0
11
63.520135
21
19.9125
31
0
39
0
210
0
220
0
230
1
0
LINE
5
176
100
AcDbEntity
8
2
62
256
6
ByLayer
370
13
48
1
60
0
100
AcDbLine
10
61.520135
20
-12.4375
30
0
11
61.520135
21
19.9125
31
0
39
0
210
0
220
0
230
1
0
LINE
5
177
100
AcDbEntity
8
2
62
256
6
ByLayer
370
13
48
1
60
0
100
AcDbLine
10
61.520135
20
-12.4375
30
0
11
61.102138
21
-9.262502
31
0
39
0
210
0
220
0
230
1
0
LINE
5
178
100
AcDbEntity
8
2
62
256
6
ByLayer
370
13
48
1
60
0
100
AcDbLine
10
61.520135
20
-12.4375
30
0
11
61.938131
21
-9.262498
31
0
39
0
210
0
220
0
230
1
0
LINE
5
179
100
AcDbEntity
8
2
62
256
6
ByLayer
370
13
48
1
60
0
100
AcDbLine
10
61.102138
20
-9.262502
30
0
11
61.938131
21
-9.262498
31
0
39
0
210
0
220
0
230
1
0
LINE
5
17A
100
AcDbEntity
8
2
62
256
6
ByLayer
370
13
48
1
60
0
100
AcDbLine
10
61.520135
20
19.9125
30
0
11
61.938131
21
16.737502
31
0
39
0
210
0
220
0
230
1
0
LINE
5
17B
100
AcDbEntity
8
2
62
256
6
ByLayer
370
13
48
1
60
0
100
AcDbLine
10
61.520135
20
19.9125
30
0
11
61.102138
21
16.737498
31
0
39
0
210
0
220
0
230
1
0
LINE
5
17C
100
AcDbEntity
8
2
62
256
6
ByLayer
370
13
48
1
60
0
100
AcDbLine
10
61.938131
20
16.737502
30
0
11
61.102138
21
16.737498
31
0
39
0
210
0
220
0
230
1
0
ENDBLK
5
17E
100
AcDbEntity
8
0
100
AcDbBlockEnd
0
BLOCK
5
18B
100
AcDbEntity
8
0
100
AcDbBlockBegin
2
DimnDraft3D4
70
0
10
0
20
0
30
0
3
DimnDraft3D4
0
MTEXT
5
181
100
AcDbEntity
8
2
62
256
6
ByLayer
370
18
48
1
60
0
100
AcDbMText
10
7.040988
20
36.7875
30
0
210
0
220
0
230
1
1
\W0.6563;21.3
40
4.5
41
0
44
1.084337
50
0
71
7
72
5
7
iso_b_vert
0
LINE
5
182
100
AcDbEntity
8
2
62
256
6
ByLayer
370
13
48
1
60
0
100
AcDbLine
10
0
20
14.4375
30
0
11
0
21
37.6625
31
0
39
0
210
0
220
0
230
1
0
LINE
5
183
100
AcDbEntity
8
2
62
256
6
ByLayer
370
13
48
1
60
0
100
AcDbLine
10
21.270135
20
21.9125
30
0
11
21.270135
21
37.6625
31
0
39
0
210
0
220
0
230
1
0
LINE
5
184
100
AcDbEntity
8
2
62
256
6
ByLayer
370
13
48
1
60
0
100
AcDbLine
10
0
20
35.6625
30
0
11
21.270135
21
35.6625
31
0
39
0
210
0
220
0
230
1
0
LINE
5
185
100
AcDbEntity
8
2
62
256
6
ByLayer
370
13
48
1
60
0
100
AcDbLine
10
0
20
35.6625
30
0
11
3.174998
21
36.080497
31
0
39
0
210
0
220
0
230
1
0
LINE
5
186
100
AcDbEntity
8
2
62
256
6
ByLayer
370
13
48
1
60
0
100
AcDbLine
10
0
20
35.6625
30
0
11
3.175002
21
35.244503
31
0
39
0
210
0
220
0
230
1
0
LINE
5
187
100
AcDbEntity
8
2
62
256
6
ByLayer
370
13
48
1
60
0
100
AcDbLine
10
3.174998
20
36.080497
30
0
11
3.175002
21
35.244503
31
0
39
0
210
0
220
0
230
1
0
LINE
5
188
100
AcDbEntity
8
2
62
256
6
ByLayer
370
13
48
1
60
0
100
AcDbLine
10
21.270135
20
35.6625
30
0
11
18.095136
21
35.244503
31
0
39
0
210
0
220
0
230
1
0
LINE
5
189
100
AcDbEntity
8
2
62
256
6
ByLayer
370
13
48
1
60
0
100
AcDbLine
10
21.270135
20
35.6625
30
0
11
18.095133
21
36.080497
31
0
39
0
210
0
220
0
230
1
0
LINE
5
18A
100
AcDbEntity
8
2
62
256
6
ByLayer
370
13
48
1
60
0
100
AcDbLine
10
18.095136
20
35.244503
30
0
11
18.095133
21
36.080497
31
0
39
0
210
0
220
0
230
1
0
ENDBLK
5
18C
100
AcDbEntity
8
0
100
AcDbBlockEnd
0
BLOCK
5
199
100
AcDbEntity
8
0
100
AcDbBlockBegin
2
DimnDraft3D5
70
0
10
0
20
0
30
0
3
DimnDraft3D5
0
MTEXT
5
18F
100
AcDbEntity
8
SK2
62
256
6
ByLayer
370
18
48
1
60
0
100
AcDbMText
10
-69.680523
20
46.7875
30
0
210
0
220
0
230
1
1
\W0.6864;170.0
40
4.5
41
0
44
1.084337
50
0
71
7
72
5
7
iso_b_vert
0
LINE
5
190
100
AcDbEntity
8
SK2
62
256
6
ByLayer
370
13
48
1
60
0
100
AcDbLine
10
21.270135
20
21.9125
30
0
11
21.270135
21
47.6625
31
0
39
0
210
0
220
0
230
1
0
LINE
5
191
100
AcDbEntity
8
SK2
62
256
6
ByLayer
370
13
48
1
60
0
100
AcDbLine
10
-150.079865
20
14.4375
30
0
11
-150.079865
21
47.6625
31
0
39
0
210
0
220
0
230
1
0
LINE
5
192
100
AcDbEntity
8
SK2
62
256
6
ByLayer
370
13
48
1
60
0
100
AcDbLine
10
21.270135
20
45.6625
30
0
11
-150.079865
21
45.6625
31
0
39
0
210
0
220
0
230
1
0
LINE
5
193
100
AcDbEntity
8
SK2
62
256
6
ByLayer
370
13
48
1
60
0
100
AcDbLine
10
21.270135
20
45.6625
30
0
11
18.095136
21
45.244503
31
0
39
0
210
0
220
0
230
1
0
LINE
5
194
100
AcDbEntity
8
SK2
62
256
6
ByLayer
370
13
48
1
60
0
100
AcDbLine
10
21.270135
20
45.6625
30
0
11
18.095133
21
46.080497
31
0
39
0
210
0
220
0
230
1
0
LINE
5
195
100
AcDbEntity
8
SK2
62
256
6
ByLayer
370
13
48
1
60
0
100
AcDbLine
10
18.095136
20
45.244503
30
0
11
18.095133
21
46.080497
31
0
39
0
210
0
220
0
230
1
0
LINE
5
196
100
AcDbEntity
8
SK2
62
256
6
ByLayer
370
13
48
1
60
0
100
AcDbLine
10
-150.079865
20
45.6625
30
0
11
-146.904867
21
46.080497
31
0
39
0
210
0
220
0
230
1
0
LINE
5
197
100
AcDbEntity
8
SK2
62
256
6
ByLayer
370
13
48
1
60
0
100
AcDbLine
10
-150.079865
20
45.6625
30
0
11
-146.904864
21
45.244503
31
0
39
0
210
0
220
0
230
1
0
LINE
5
198
100
AcDbEntity
8
SK2
62
256
6
ByLayer
370
13
48
1
60
0
100
AcDbLine
10
-146.904867
20
46.080497
30
0
11
-146.904864
21
45.244503
31
0
39
0
210
0
220
0
230
1
0
ENDBLK
5
19A
100
AcDbEntity
8
0
100
AcDbBlockEnd
0
ENDSEC
0
SECTION
2
ENTITIES
0
ELLIPSE
5
D3
100
AcDbEntity
8
1
62
256
6
ByLayer
370
18
48
1
60
0
100
AcDbEllipse
10
11.922824
20
-0.290154
30
0
11
-0.329089653438081
21
0.19000000000001
31
0
210
0
220
0
230
1
40
0.989133
41
-0.637535989716574
42
-0.318251799204752
0
ELLIPSE
5
D4
100
AcDbEntity
8
1
62
256
6
ByLayer
370
18
48
1
60
0
100
AcDbEllipse
10
14.01638
20
-0.869404
30
0
11
-0.329089653438081
21
0.19000000000001
31
0
210
0
220
0
230
1
40
0.989133
41
-2.82335018409856
42
-1.99138430531806
0
ELLIPSE
5
D5
100
AcDbEntity
8
1
62
256
6
ByLayer
370
18
48
1
60
0
100
AcDbEllipse
10
11.599589
20
0.443728
30
0
11
0.368060796608378
21
-0.212500000000015
31
0
210
0
220
0
230
1
40
0.989133
41
-0.637535989716469
42
1.75681497116269E-05
0
ELLIPSE
5
D6
100
AcDbEntity
8
1
62
256
6
ByLayer
370
18
48
1
60
0
100
AcDbEllipse
10
12.247663
20
0.908865
30
0
11
-0.329089653438081
21
0.19000000000001
31
0
210
0
220
0
230
1
40
0.989133
41
-1.6847335409133
42
-0.318248284418843
0
ELLIPSE
5
D7
100
AcDbEntity
8
1
62
256
6
ByLayer
370
18
48
1
60
0
100
AcDbEllipse
10
14.664454
20
-0.404266
30
0
11
0.368060796608378
21
-0.212500000000015
31
0
210
0
220
0
230
1
40
0.989133
41
-3.14157333159598
42
-1.99138430531793
0
ELLIPSE
5
D8
100
AcDbEntity
8
1
62
256
6
ByLayer
370
18
48
1
60
0
100
AcDbEllipse
10
14.341219
20
0.329615
30
0
11
-0.329089653438081
21
0.19000000000001
31
0
210
0
220
0
230
1
40
0.989133
41
-2.82331030462559
42
-0.9441867541214
0
ELLIPSE
5
D9
100
AcDbEntity
8
1
62
256
6
ByLayer
370
18
48
1
60
0
100
AcDbEllipse
10
12.722467
20
1.548208
30
0
11
0.368060796608378
21
-0.212500000000015
31
0
210
0
220
0
230
1
40
0.989133
41
-1.68473354091314
42
-7.27096798974118E-06
0
ELLIPSE
5
DA
100
AcDbEntity
8
1
62
256
6
ByLayer
370
18
48
1
60
0
100
AcDbEllipse
10
13.073212
20
-0.082131
30
0
11
3.46410161513767
21
-2.00000000000014
31
0
210
0
220
0
230
1
40
0.989133
41
3.14154602698523
42
-1.05191586252642
0
ELLIPSE
5
DB
100
AcDbEntity
8
1
62
256
6
ByLayer
370
18
48
1
60
0
100
AcDbEllipse
10
13.073212
20
-0.082131
30
0
11
3.46410161513767
21
-2.00000000000014
31
0
210
0
220
0
230
1
40
0.989133
41
-1.05191586252641
42
-2.49037018872797E-16
0
ELLIPSE
5
DC
100
AcDbEntity
8
1
62
256
6
ByLayer
370
18
48
1
60
0
100
AcDbEllipse
10
13.456861
20
1.21875
30
0
11
-0.329089653438081
21
0.19000000000001
31
0
210
0
220
0
230
1
40
0.989133
41
-2.73193109210968
42
-0.150006811943617
0
ELLIPSE
5
DD
100
AcDbEntity
8
1
62
256
6
ByLayer
370
18
48
1
60
0
100
AcDbEllipse
10
13.132021
20
0.019731
30
0
11
0.995929214352081
21
-0.575000000000041
31
0
210
0
220
0
230
1
40
0.989133
41
-1.58792514398278
42
-1.05191567725068
0
ELLIPSE
5
DE
100
AcDbEntity
8
1
62
256
6
ByLayer
370
18
48
1
60
0
100
AcDbEllipse
10
13.132021
20
0.019731
30
0
11
0.995929214352081
21
-0.575000000000041
31
0
210
0
220
0
230
1
40
0.989133
41
-2.89119516677445
42
-2.17883888904398
0
ELLIPSE
5
DF
100
AcDbEntity
8
1
62
256
6
ByLayer
370
18
48
1
60
0
100
AcDbEllipse
10
13.132021
20
0.019731
30
0
11
0.995929214352081
21
-0.575000000000041
31
0
210
0
220
0
230
1
40
0.989133
41
-0.425241632855664
42
-2.47054482898917E-16
0
ELLIPSE
5
E0
100
AcDbEntity
8
1
62
256
6
ByLayer
370
18
48
1
60
0
100
AcDbEllipse
10
13.132021
20
0.019731
30
0
11
0.995929214352081
21
-0.575000000000041
31
0
210
0
220
0
230
1
40
0.989133
41
0
42
3.14154626943193
0
ELLIPSE
5
E1
100
AcDbEntity
8
1
62
256
6
ByLayer
370
18
48
1
60
0
100
AcDbEllipse
10
13.132021
20
0.019731
30
0
11
0.995929214352081
21
-0.575000000000041
31
0
210
0
220
0
230
1
40
0.989133
41
-1.05191567725068
42
-0.922987082292972
0
ELLIPSE
5
E2
100
AcDbEntity
8
1
62
256
6
ByLayer
370
18
48
1
60
0
100
AcDbEllipse
10
13.095265
20
-0.043933
30
0
11
0.995929214352081
21
-0.575000000000041
31
0
210
0
220
0
230
1
40
0.989133
41
0.0323510266207572
42
3.07704501971714
0
ELLIPSE
5
E3
100
AcDbEntity
8
1
62
256
6
ByLayer
370
18
48
1
60
0
100
AcDbEllipse
10
16.510388
20
13.274547
30
0
11
2.2343455417638
21
-1.29000000000009
31
0
210
0
220
0
230
1
40
0.989133
41
0.498430259186214
42
-3.1182301452231
0
ELLIPSE
5
E4
100
AcDbEntity
8
1
62
256
6
ByLayer
370
18
48
1
60
0
100
AcDbEllipse
10
16.510388
20
13.274547
30
0
11
2.2343455417638
21
-1.29000000000009
31
0
210
0
220
0
230
1
40
0.989133
41
-1.05191588001482
42
0
0
ELLIPSE
5
E5
100
AcDbEntity
8
1
62
256
6
ByLayer
370
18
48
1
60
0
100
AcDbEllipse
10
16.510388
20
13.274547
30
0
11
2.2343455417638
21
-1.29000000000009
31
0
210
0
220
0
230
1
40
0.989133
41
0
42
0.432358909440242
0
ELLIPSE
5
E6
100
AcDbEntity
8
1
62
256
6
ByLayer
370
18
48
1
60
0
100
AcDbEllipse
10
23.218051
20
7.679629
30
0
11
0.687624170604828
21
-0.397000000000029
31
0
210
0
220
0
230
1
40
0.989133
41
-0.96539429711841
42
-8.81175490669012E-06
0
ELLIPSE
5
E7
100
AcDbEntity
8
1
62
256
6
ByLayer
370
18
48
1
60
0
100
AcDbEllipse
10
10.922596
20
8.933906
30
0
11
2.07449981477646
21
-1.19771302649513
31
0
210
0
220
0
230
1
40
0.989133
41
-2.53619062391326
42
-2.26293422312506
0
ELLIPSE
5
E8
100
AcDbEntity
8
1
62
256
6
ByLayer
370
18
48
1
60
0
100
AcDbEllipse
10
10.096421
20
7.78531
30
0
11
-2.16355194177546
21
1.24912729598989
31
0
210
0
220
0
230
1
40
0.989133
41
-0.824549501887015
42
-0.408366737789774
0
ELLIPSE
5
E9
100
AcDbEntity
8
1
62
256
6
ByLayer
370
18
48
1
60
0
100
AcDbEllipse
10
10.085394
20
7.766211
30
0
11
-2.0336481312078
21
1.17412729598989
31
0
210
0
220
0
230
1
40
0.989133
41
-0.890439249670486
42
-0.335622516229932
0
ELLIPSE
5
EA
100
AcDbEntity
8
1
62
256
6
ByLayer
370
18
48
1
60
0
100
AcDbEllipse
10
16.972449
20
-7.08232
30
0
11
-2.63765797236398
21
1.42925169960533
31
0
210
0
220
0
230
1
40
0.9865
41
0.0891024469650805
42
0.229639942064445
0
ELLIPSE
5
EB
100
AcDbEntity
8
1
62
256
6
ByLayer
370
18
48
1
60
0
100
AcDbEllipse
10
13.25166
20
0.600342
30
0
11
-3.64876019510351
21
1.97713151778737
31
0
210
0
220
0
230
1
40
0.9865
41
-2.91195271152535
42
-0.00470332398158555
0
ELLIPSE
5
EC
100
AcDbEntity
8
1
62
256
6
ByLayer
370
18
48
1
60
0
100
AcDbEllipse
10
12.703156
20
-1.429603
30
0
11
-2.28597024271545
21
1.23868480632462
31
0
210
0
220
0
230
1
40
0.9865
41
1.69504552710966
42
1.90131070300615
0
ELLIPSE
5
ED
100
AcDbEntity
8
1
62
256
6
ByLayer
370
18
48
1
60
0
100
AcDbEllipse
10
22.277726
20
7.279714
30
0
11
1.03111149638079
21
-0.595312500000021
31
0
210
0
220
0
230
1
40
0.989133
41
-0.490337187803913
42
-8.69820155180365E-06
0
ELLIPSE
5
EE
100
AcDbEntity
8
1
62
256
6
ByLayer
370
18
48
1
60
0
100
AcDbEllipse
10
15.140955
20
-7.427087
30
0
11
-1.93485010899285
21
2.29716956573067
31
0
210
0
220
0
230
1
40
0.994282
41
2.1743474987555
42
-3.05714874535956
0
ELLIPSE
5
EF
100
AcDbEntity
8
1
62
256
6
ByLayer
370
18
48
1
60
0
100
AcDbEllipse
10
3.231963
20
-8.669542
30
0
11
1.86664554666585
21
6.74652758114221
31
0
210
0
220
0
230
1
40
0.037276
41
0.80602947665323
42
0.820810513393185
0
ELLIPSE
5
F0
100
AcDbEntity
8
1
62
256
6
ByLayer
370
18
48
1
60
0
100
AcDbEllipse
10
7.050749
20
-5.188669
30
0
11
-1.93485010891399
21
2.29716956580356
31
0
210
0
220
0
230
1
40
0.994282
41
1.12265843572774
42
2.17434749879064
0
ELLIPSE
5
F1
100
AcDbEntity
8
1
62
256
6
ByLayer
370
18
48
1
60
0
100
AcDbEllipse
10
14.656841
20
-3.733331
30
0
11
1.46665007238031
21
5.30084309946888
31
0
210
0
220
0
230
1
40
0.037276
41
-2.41648249963859
42
-1.97471476035269
0
ELLIPSE
5
F2
100
AcDbEntity
8
1
62
256
6
ByLayer
370
18
48
1
60
0
100
AcDbEllipse
10
18.625464
20
-4.727037
30
0
11
-0.728975838400512
21
-3.42905569188463
31
0
210
0
220
0
230
1
40
0.335188
41
-0.625034491354066
42
0.0981836150458491
0
ELLIPSE
5
F3
100
AcDbEntity
8
1
62
256
6
ByLayer
370
18
48
1
60
0
100
AcDbEllipse
10
16.756968
20
13.757415
30
0
11
-1.59254046504385
21
1.55469798806571
31
0
210
0
220
0
230
1
40
0.791036
41
-1.97054971883608
42
-1.11533838535901
0
ELLIPSE
5
F4
100
AcDbEntity
8
1
62
256
6
ByLayer
370
18
48
1
60
0
100
AcDbEllipse
10
7.405038
20
-4.714321
30
0
11
1.32746285225867
21
-1.49594196942037
31
0
210
0
220
0
230
1
40
0.766835
41
-2.49959251838408
42
-1.08691702412446
0
ELLIPSE
5
F5
100
AcDbEntity
8
1
62
256
6
ByLayer
370
18
48
1
60
0
100
AcDbEllipse
10
5.783884
20
-1.173998
30
0
11
-1.15073777053856
21
-3.31184056247348
31
0
210
0
220
0
230
1
40
0.409411
41
-0.0920409377179758
42
0.631177168681337
0
ELLIPSE
5
F6
100
AcDbEntity
8
1
62
256
6
ByLayer
370
18
48
1
60
0
100
AcDbEllipse
10
15.507817
20
-6.956218
30
0
11
1.94940248931974
21
0.447023416203214
31
0
210
0
220
0
230
1
40
0.790712
41
-1.9523757137926
42
-0.539700219532988
0
ELLIPSE
5
F7
100
AcDbEntity
8
1
62
256
6
ByLayer
370
18
48
1
60
0
100
AcDbEllipse
10
16.771506
20
-4.31842
30
0
11
-1.27786330701733
21
-5.35293362808449
31
0
210
0
220
0
230
1
40
0.200196
41
-0.61187550553328
42
-0.558883209211371
0
ELLIPSE
5
F8
100
AcDbEntity
8
1
62
256
6
ByLayer
370
18
48
1
60
0
100
AcDbEllipse
10
8.276159
20
-2.341597
30
0
11
-3.58150699504878
21
-2.48993660189196
31
0
210
0
220
0
230
1
40
0.518425
41
-0.55290021302556
42
-0.193284479695835
0
ELLIPSE
5
F9
100
AcDbEntity
8
1
62
256
6
ByLayer
370
18
48
1
60
0
100
AcDbEllipse
10
7.533955
20
-1.762551
30
0
11
-1.66254699684487
21
-5.24635052257084
31
0
210
0
220
0
230
1
40
0.274645
41
0.561908394873323
42
0.614900684171268
0
ELLIPSE
5
FA
100
AcDbEntity
8
1
62
256
6
ByLayer
370
18
48
1
60
0
100
AcDbEllipse
10
16.756968
20
13.757415
30
0
11
-2.3022264116518
21
0.0190641654411175
31
0
210
0
220
0
230
1
40
0.801371
41
-1.74052445238013
42
-0.885313118900144
0
ELLIPSE
5
FB
100
AcDbEntity
8
1
62
256
6
ByLayer
370
18
48
1
60
0
100
AcDbEllipse
10
9.648618
20
-2.347644
30
0
11
1.46665007238031
21
5.30084309946888
31
0
210
0
220
0
230
1
40
0.037276
41
-2.41648249963869
42
-1.97471476035269
0
ELLIPSE
5
FC
100
AcDbEntity
8
1
62
256
6
ByLayer
370
18
48
1
60
0
100
AcDbEllipse
10
16.366365
20
-4.580015
30
0
11
-1.11041793126489
21
3.94676944442351
31
0
210
0
220
0
230
1
40
0.480311
41
-2.8243897706431
42
-2.4647740372714
0
ELLIPSE
5
FD
100
AcDbEntity
8
1
62
256
6
ByLayer
370
18
48
1
60
0
100
AcDbEllipse
10
13.19568
20
0.129991
30
0
11
-3.46410161513769
21
2.00000000000011
31
0
210
0
220
0
230
1
40
0.989133
41
0
42
6.28318530717959
0
ELLIPSE
5
FE
100
AcDbEntity
8
1
62
256
6
ByLayer
370
18
48
1
60
0
100
AcDbEllipse
10
14.134
20
-0.665681
30
0
11
-0.329089653438081
21
0.19000000000001
31
0
210
0
220
0
230
1
40
0.989133
41
1.45685911267665
42
-1.99138430531803
0
ELLIPSE
5
FF
100
AcDbEntity
8
1
62
256
6
ByLayer
370
18
48
1
60
0
100
AcDbEllipse
10
12.924802
20
-0.975565
30
0
11
-0.329089653438081
21
0.19000000000001
31
0
210
0
220
0
230
1
40
0.989133
41
0.409661561480054
42
-3.03858185651459
0
ELLIPSE
5
100
100
AcDbEntity
8
1
62
256
6
ByLayer
370
18
48
1
60
0
100
AcDbEllipse
10
12.126763
20
-0.881026
30
0
11
0.368060796608378
21
-0.212500000000015
31
0
210
0
220
0
230
1
40
0.989133
41
0.409661561480061
42
2.19740589946845
0
ELLIPSE
5
101
100
AcDbEntity
8
1
62
256
6
ByLayer
370
18
48
1
60
0
100
AcDbEllipse
10
14.458839
20
0.533338
30
0
11
-0.329089653438081
21
0.19000000000001
31
0
210
0
220
0
230
1
40
0.989133
41
2.50405666387314
42
-0.944186754121388
0
ELLIPSE
5
102
100
AcDbEntity
8
1
62
256
6
ByLayer
370
18
48
1
60
0
100
AcDbEllipse
10
14.254899
20
1.124211
30
0
11
0.368060796608378
21
-0.212500000000015
31
0
210
0
220
0
230
1
40
0.989133
41
-2.73193109210976
42
-0.944186754121467
0
ELLIPSE
5
103
100
AcDbEntity
8
1
62
256
6
ByLayer
370
18
48
1
60
0
100
AcDbEllipse
10
13.249641
20
0.223454
30
0
11
-1.99185842870417
21
1.15000000000006
31
0
210
0
220
0
230
1
40
0.989133
41
0
42
6.28318530717959
0
ELLIPSE
5
104
100
AcDbEntity
8
1
62
256
6
ByLayer
370
18
48
1
60
0
100
AcDbEllipse
10
11.717209
20
0.647451
30
0
11
0.368060796608378
21
-0.212500000000015
31
0
210
0
220
0
230
1
40
0.989133
41
-0.637535989716587
42
1.15020834827191
0
ELLIPSE
5
105
100
AcDbEntity
8
1
62
256
6
ByLayer
370
18
48
1
60
0
100
AcDbEllipse
10
13.659195
20
-1.305023
30
0
11
0.368060796608378
21
-0.212500000000015
31
0
210
0
220
0
230
1
40
0.989133
41
1.45685911267659
42
-3.03858185651454
0
ELLIPSE
5
106
100
AcDbEntity
8
1
62
256
6
ByLayer
370
18
48
1
60
0
100
AcDbEllipse
10
12.365283
20
1.112589
30
0
11
-0.329089653438081
21
0.19000000000001
31
0
210
0
220
0
230
1
40
0.989133
41
-1.68473354091307
42
1.15020834827178
0
ELLIPSE
5
107
100
AcDbEntity
8
1
62
256
6
ByLayer
370
18
48
1
60
0
100
AcDbEllipse
10
12.040443
20
-0.08643
30
0
11
-0.329089653438081
21
0.19000000000001
31
0
210
0
220
0
230
1
40
0.989133
41
-0.637535989716574
42
2.19740589946845
0
ELLIPSE
5
108
100
AcDbEntity
8
1
62
256
6
ByLayer
370
18
48
1
60
0
100
AcDbEllipse
10
14.372519
20
1.327934
30
0
11
0.368060796608378
21
-0.212500000000015
31
0
210
0
220
0
230
1
40
0.989133
41
-2.73193109210973
42
-0.944186754121322
0
ELLIPSE
5
109
100
AcDbEntity
8
1
62
256
6
ByLayer
370
18
48
1
60
0
100
AcDbEllipse
10
12.840087
20
1.751931
30
0
11
0.368060796608378
21
-0.212500000000015
31
0
210
0
220
0
230
1
40
0.989133
41
-1.68473354091321
42
0.103010797075219
0
ELLIPSE
5
10A
100
AcDbEntity
8
1
62
256
6
ByLayer
370
18
48
1
60
0
100
AcDbEllipse
10
13.574481
20
1.422473
30
0
11
-0.329089653438081
21
0.19000000000001
31
0
210
0
220
0
230
1
40
0.989133
41
-2.73193109210974
42
0.103010797075198
0
ELLIPSE
5
10B
100
AcDbEntity
8
1
62
256
6
ByLayer
370
18
48
1
60
0
100
AcDbEllipse
10
14.782073
20
-0.200543
30
0
11
0.368060796608378
21
-0.212500000000015
31
0
210
0
220
0
230
1
40
0.989133
41
2.50405666387328
42
-1.99138430531801
0
ELLIPSE
5
10C
100
AcDbEntity
8
1
62
256
6
ByLayer
370
18
48
1
60
0
100
AcDbEllipse
10
10.975879
20
9.171017
30
0
11
-1.35203119507465
21
2.21966421038819
31
0
210
0
220
0
230
1
40
0.525221
41
-0.539034131667181
42
-0.466532860485279
0
ELLIPSE
5
10D
100
AcDbEntity
8
1
62
256
6
ByLayer
370
18
48
1
60
0
100
AcDbEllipse
10
10.29858
20
8.135459
30
0
11
-2.13583986753939
21
1.23312772246989
31
0
210
0
220
0
230
1
40
0.989133
41
-0.837913482376614
42
-0.836113817479769
0
ELLIPSE
5
10E
100
AcDbEntity
8
1
62
256
6
ByLayer
370
18
48
1
60
0
100
AcDbEllipse
10
10.913142
20
9.199913
30
0
11
2.05159516186173
21
-1.18448901896912
31
0
210
0
220
0
230
1
40
0.989133
41
2.35540234659325
42
-3.11363632438665
0
ELLIPSE
5
10F
100
AcDbEntity
8
1
62
256
6
ByLayer
370
18
48
1
60
0
100
AcDbEllipse
10
1.84654
20
-6.006832
30
0
11
-0.501315348038266
21
0.763600462917051
31
0
210
0
220
0
230
1
40
0.766712
41
-0.57563396257135
42
0.995162364222534
0
ELLIPSE
5
110
100
AcDbEntity
8
1
62
256
6
ByLayer
370
18
48
1
60
0
100
AcDbEllipse
10
10.331551
20
8.15162
30
0
11
-1.51874886635864
21
2.01021249989016
31
0
210
0
220
0
230
1
40
0.848538
41
-0.479910430576836
42
-0.463682136308656
0
ELLIPSE
5
111
100
AcDbEntity
8
1
62
256
6
ByLayer
370
18
48
1
60
0
100
AcDbEllipse
10
10.90536
20
9.13169
30
0
11
2.07449981477646
21
-1.19771302649513
31
0
210
0
220
0
230
1
40
0.989133
41
-3.14052677348305
42
-2.53619062391327
0
ELLIPSE
5
112
100
AcDbEntity
8
1
62
256
6
ByLayer
370
18
48
1
60
0
100
AcDbEllipse
10
17.196171
20
-10.253805
30
0
11
-0.329885982717739
21
-0.73878079634747
31
0
210
0
220
0
230
1
40
0.015199
41
-2.99649072571181
42
-1.42569439896425
0
ELLIPSE
5
113
100
AcDbEntity
8
1
62
256
6
ByLayer
370
18
48
1
60
0
100
AcDbEllipse
10
23.56797
20
8.285706
30
0
11
-0.687624170604832
21
0.397000000000022
31
0
210
0
220
0
230
1
40
0.989133
41
2.17619835647136
42
-2.36165769871385
0
ELLIPSE
5
114
100
AcDbEntity
8
1
62
256
6
ByLayer
370
18
48
1
60
0
100
AcDbEllipse
10
20.663604
20
19.124947
30
0
11
-0.687624170604832
21
0.397000000000022
31
0
210
0
220
0
230
1
40
0.989133
41
-2.36165769871388
42
-0.96539429711841
0
ELLIPSE
5
115
100
AcDbEntity
8
1
62
256
6
ByLayer
370
18
48
1
60
0
100
AcDbEllipse
10
9.452806
20
18.263388
30
0
11
-0.687624170604832
21
0.397000000000022
31
0
210
0
220
0
230
1
40
0.989133
41
-0.965394297118433
42
0.779934954875903
0
POINT
5
6C
100
AcDbEntity
8
2
62
256
6
ByLayer
370
18
48
1
60
0
100
AcDbPoint
10
21.270135
20
19.9125
30
0
39
0
210
0
220
0
230
1
50
360
0
POINT
5
6E
100
AcDbEntity
8
80
62
256
6
ByLayer
370
18
48
1
60
0
100
AcDbPoint
10
0
20
0
30
0
39
0
210
0
220
0
230
1
50
360
0
POINT
5
70
100
AcDbEntity
8
81
62
256
6
ByLayer
370
18
48
1
60
0
100
AcDbPoint
10
21.270135
20
19.9125
30
0
39
0
210
0
220
0
230
1
50
360
0
SPLINE
5
116
100
AcDbEntity
8
1
62
256
6
ByLayer
370
18
48
1
60
0
100
AcDbSpline
70
4
71
3
72
8
73
4
40
0
40
0
40
0
40
0
40
1
40
1
40
1
40
1
41
1
10
9.53480663197115
20
10.2046348750641
30
0
41
1
10
9.58069366672987
20
10.1697794002325
30
0
41
1
10
9.62645021587127
20
10.1342466491675
30
0
41
1
10
9.67203957855008
20
10.0979824779027
30
0
0
SPLINE
5
117
100
AcDbEntity
8
1
62
256
6
ByLayer
370
18
48
1
60
0
100
AcDbSpline
70
4
71
3
72
10
73
6
40
0
40
0
40
0
40
0
40
0.494493118310529
40
0.494493118310529
40
1
40
1
40
1
40
1
41
1
10
17.9922953368261
20
-8.39070110455563
30
0
41
1
10
17.9092452093892
20
-8.58373532057948
30
0
41
1
10
17.8105741102051
20
-8.78004353818508
30
0
41
1
10
17.5710901293933
20
-9.17203948907786
30
0
41
1
10
17.4278135858119
20
-9.36941842524175
30
0
41
1
10
17.2615543175758
20
-9.5538117850499
30
0
0
SPLINE
5
118
100
AcDbEntity
8
1
62
256
6
ByLayer
370
18
48
1
60
0
100
AcDbSpline
70
4
71
3
72
8
73
4
40
0
40
0
40
0
40
0
40
1
40
1
40
1
40
1
41
1
10
15.1212261596779
20
15.0753003820842
30
0
41
1
10
15.0534148915089
20
15.0253606104605
30
0
41
1
10
14.9897375878988
20
14.973335756109
30
0
41
1
10
14.931186080705
20
14.9202555349616
30
0
0
SPLINE
5
119
100
AcDbEntity
8
1
62
256
6
ByLayer
370
18
48
1
60
0
100
AcDbSpline
70
4
71
3
72
8
73
4
40
0
40
0
40
0
40
0
40
1
40
1
40
1
40
1
41
1
10
6.96170232048939
20
-6.46560215561266
30
0
41
1
10
6.93904891139641
20
-6.45933435566789
30
0
41
1
10
6.91673655172292
20
-6.45262855432958
30
0
41
1
10
6.8947489478586
20
-6.44550485013608
30
0
0
SPLINE
5
11A
100
AcDbEntity
8
1
62
256
6
ByLayer
370
18
48
1
60
0
100
AcDbSpline
70
4
71
3
72
8
73
4
40
0
40
0
40
0
40
0
40
1
40
1
40
1
40
1
41
1
10
9.39144831902831
20
-3.75341446738415
30
0
41
1
10
8.42260084484013
20
-4.72597462645945
30
0
41
1
10
7.54138720586241
20
-5.64767806061101
30
0
41
1
10
7.00715044782248
20
-6.31133959816214
30
0
0
SPLINE
5
11B
100
AcDbEntity
8
1
62
256
6
ByLayer
370
18
48
1
60
0
100
AcDbSpline
70
4
71
3
72
8
73
4
40
0
40
0
40
0
40
0
40
1
40
1
40
1
40
1
41
1
10
16.9055257656643
20
-2.02983857878431
30
0
41
1
10
16.6647463907348
20
-2.91858259844767
30
0
41
1
10
16.1340603798072
20
-3.66309783595349
30
0
41
1
10
15.4192645993076
20
-4.14538823697217
30
0
0
SPLINE
5
11C
100
AcDbEntity
8
1
62
256
6
ByLayer
370
18
48
1
60
0
100
AcDbSpline
70
4
71
3
72
8
73
4
40
0
40
0
40
0
40
0
40
1
40
1
40
1
40
1
41
1
10
15.1099298911529
20
-8.55323618593948
30
0
41
1
10
15.0744468886676
20
-7.73948483495209
30
0
41
1
10
14.8444242968892
20
-6.50165047937492
30
0
41
1
10
14.5365765272365
20
-5.17698096753779
30
0
0
SPLINE
5
11D
100
AcDbEntity
8
1
62
256
6
ByLayer
370
18
48
1
60
0
100
AcDbSpline
70
4
71
3
72
8
73
4
40
0
40
0
40
0
40
0
40
1
40
1
40
1
40
1
41
1
10
12.7991690633943
20
13.5487852102157
30
0
41
1
10
13.1387160394514
20
13.7793236155144
30
0
41
1
10
13.4800958951768
20
14.0097553912774
30
0
41
1
10
13.8215318536808
20
14.2388628975517
30
0
0
SPLINE
5
11E
100
AcDbEntity
8
1
62
256
6
ByLayer
370
18
48
1
60
0
100
AcDbSpline
70
4
71
3
72
8
73
4
40
0
40
0
40
0
40
0
40
1
40
1
40
1
40
1
41
1
10
15.2466246989043
20
-4.27322916064529
30
0
41
1
10
15.3026542800809
20
-4.22785148698378
30
0
41
1
10
15.3603438445785
20
-4.1851435282062
30
0
41
1
10
15.4192645993076
20
-4.1453882369722
30
0
0
SPLINE
5
11F
100
AcDbEntity
8
1
62
256
6
ByLayer
370
18
48
1
60
0
100
AcDbSpline
70
4
71
3
72
11
73
7
40
0
40
0
40
0
40
0
40
0.423407924939465
40
0.740963868644064
40
0.899741840496364
40
1
40
1
40
1
40
1
41
1.02805999725225
10
19.3375136235128
20
-0.0721612143705977
30
0
41
1.02767136955277
10
19.4607177736863
20
0.782383061354674
30
0
41
1.02349884684923
10
19.0872280245335
20
4.02610368619274
30
0
41
1.01876555595691
10
18.2173208181854
20
8.14901117134183
30
0
41
1.01635405201137
10
17.8871677875278
20
9.70241699101096
30
0
41
1.01722454828226
10
17.9627322619114
20
10.1845716234397
30
0
41
1.01774327987904
10
18.0021943185485
20
10.3824338818612
30
0
0
SPLINE
5
120
100
AcDbEntity
8
1
62
256
6
ByLayer
370
18
48
1
60
0
100
AcDbSpline
70
4
71
3
72
8
73
4
40
0
40
0
40
0
40
0
40
1
40
1
40
1
40
1
41
1
10
5.65496714395522
20
-4.1257654594443
30
0
41
1
10
6.39785723494839
20
-3.67519600049934
30
0
41
1
10
7.76302487868463
20
-3.12942735771227
30
0
41
1
10
9.2461829588558
20
-2.61301244656258
30
0
0
SPLINE
5
121
100
AcDbEntity
8
1
62
256
6
ByLayer
370
18
48
1
60
0
100
AcDbSpline
70
4
71
3
72
8
73
4
40
0
40
0
40
0
40
0
40
1
40
1
40
1
40
1
41
1
10
20.5080718794912
20
7.12378173466851
30
0
41
1
10
20.3980342345654
20
7.93231583142551
30
0
41
1
10
20.3713416769076
20
8.71602167527377
30
0
41
1
10
20.4334079194519
20
9.3661844362141
30
0
0
SPLINE
5
122
100
AcDbEntity
8
1
62
256
6
ByLayer
370
18
48
1
60
0
100
AcDbSpline
70
4
71
3
72
8
73
4
40
0
40
0
40
0
40
0
40
1
40
1
40
1
40
1
41
1
10
19.8495161148766
20
11.5980781592316
30
0
41
1
10
19.6793611335783
20
11.9696421331617
30
0
41
1
10
19.5063617654538
20
12.3423935949459
30
0
41
1
10
19.3313923138489
20
12.7143813973504
30
0
0
SPLINE
5
123
100
AcDbEntity
8
1
62
256
6
ByLayer
370
18
48
1
60
0
100
AcDbSpline
70
4
71
3
72
10
73
6
40
0
40
0
40
0
40
0
40
0.264715639145581
40
0.264715639145581
40
1
40
1
40
1
40
1
41
1
10
16.5928021671032
20
13.0196882506844
30
0
41
1
10
16.6190599268005
20
12.9148144876322
30
0
41
1
10
16.646537419633
20
12.8093815724934
30
0
41
1
10
16.7542737860329
20
12.4094798691322
30
0
41
1
10
16.8414456555546
20
12.1119841918789
30
0
41
1
10
16.9345814487057
20
11.8124934221831
30
0
0
SPLINE
5
124
100
AcDbEntity
8
1
62
256
6
ByLayer
370
18
48
1
60
0
100
AcDbSpline
70
4
71
3
72
20
73
16
40
0
40
0
40
0
40
0
40
0.332873226652392
40
0.332873226652392
40
0.501657261698206
40
0.501657261698206
40
0.631212321676499
40
0.631212321676499
40
0.722542323637654
40
0.722542323637654
40
0.814765347404174
40
0.814765347404174
40
0.896421359038789
40
0.896421359038789
40
1
40
1
40
1
40
1
41
1
10
16.9345814487057
20
11.8124934221831
30
0
41
1
10
16.9972663777173
20
11.6107901301347
30
0
41
1
10
17.0707029576188
20
11.4034397638579
30
0
41
1
10
17.2133818530001
20
11.0881015783491
30
0
41
1
10
17.2676581538512
20
10.9802536327335
30
0
41
1
10
17.3789108160166
20
10.7949795490225
30
0
41
1
10
17.4333660515788
20
10.7148633392428
30
0
41
1
10
17.5351283192773
20
10.5913679791664
30
0
41
1
10
17.580767077058
20
10.5432139310624
30
0
41
1
10
17.6735288927401
20
10.462731570841
30
0
41
1
10
17.7219349486409
20
10.4296741630545
30
0
41
1
10
17.8075270505122
20
10.3878170021025
30
0
41
1
10
17.8463636250245
20
10.3760434248979
30
0
41
1
10
17.926482375458
20
10.3654030155101
30
0
41
1
10
17.9667780071923
20
10.3703838946764
30
0
41
1
10
18.0021943185484
20
10.3824338818608
30
0
0
SPLINE
5
125
100
AcDbEntity
8
1
62
256
6
ByLayer
370
18
48
1
60
0
100
AcDbSpline
70
4
71
3
72
8
73
4
40
0
40
0
40
0
40
0
40
1
40
1
40
1
40
1
41
1.02417048357497
10
12.7990983055028
20
13.54872768773
30
0
41
1.02233815524058
10
12.2391247869533
20
13.0934959032506
30
0
41
1.02059845272928
10
11.7173728522949
20
12.6114642183271
30
0
41
1.01923193651505
10
11.311134132585
20
12.2117305036892
30
0
0
SPLINE
5
126
100
AcDbEntity
8
1
62
256
6
ByLayer
370
18
48
1
60
0
100
AcDbSpline
70
4
71
3
72
12
73
8
40
0
40
0
40
0
40
0
40
0.108853988607131
40
0.502629237162304
40
0.699516861439891
40
0.896404485717478
40
1
40
1
40
1
40
1
41
1.02441262532206
10
15.696240426222
20
4.66751492403081
30
0
41
1.02394775682001
10
15.7563729201287
20
5.00158026197317
30
0
41
1.02173322384668
10
16.0334451434055
20
6.58418822692394
30
0
41
1.01876555595691
10
16.3731741960191
20
8.81813856029478
30
0
41
1.01610930227499
10
16.5686060046636
20
10.320286513938
30
0
41
1.01814069306376
10
16.7473734180173
20
10.9903823396962
30
0
41
1.02005196006971
10
16.8862575965636
20
11.591984214063
30
0
41
1.02076673234773
10
16.9345814487034
20
11.8124934221729
30
0
0
SPLINE
5
127
100
AcDbEntity
8
1
62
256
6
ByLayer
370
18
48
1
60
0
100
AcDbSpline
70
4
71
3
72
8
73
4
40
0
40
0
40
0
40
0
40
1
40
1
40
1
40
1
41
1.01923193622652
10
20.4560703715751
20
9.68148734816264
30
0
41
1.02059843499303
10
20.3079782788808
20
10.2345881243448
30
0
41
1.02233811057541
10
20.1019673444885
20
10.9179695812488
30
0
41
1.02417041321379
10
19.8495576854724
20
11.5979661683895
30
0
0
SPLINE
5
128
100
AcDbEntity
8
1
62
256
6
ByLayer
370
18
48
1
60
0
100
AcDbSpline
70
4
71
3
72
8
73
4
40
0
40
0
40
0
40
0
40
1
40
1
40
1
40
1
41
1
10
17.5785222001849
20
0.778563751444779
30
0
41
1
10
17.5587792274114
20
0.495203850703234
30
0
41
1
10
17.5120708301748
20
0.208988143388183
30
0
41
1
10
17.4371961506142
20
-0.0673828028490959
30
0
0
SPLINE
5
129
100
AcDbEntity
8
1
62
256
6
ByLayer
370
18
48
1
60
0
100
AcDbSpline
70
4
71
2
72
6
73
3
40
0
40
0
40
0
40
1
40
1
40
1
41
1.02805999725224
10
7.63070487604547
20
3.16690690642242
30
0
41
0.93055444607248
10
8.3175847820641
20
3.20883404676519
30
0
41
0.937301687719828
10
9.75215655445813
20
2.9439815106919
30
0
0
SPLINE
5
12A
100
AcDbEntity
8
1
62
256
6
ByLayer
370
18
48
1
60
0
100
AcDbSpline
70
4
71
3
72
8
73
4
40
0
40
0
40
0
40
0
40
1
40
1
40
1
40
1
41
1
10
11.1860138175105
20
11.9247757724301
30
0
41
1
10
11.2253912129598
20
12.0213081268383
30
0
41
1
10
11.2671678495835
20
12.116953176922
30
0
41
1
10
11.311096645709
20
12.2116936169925
30
0
0
SPLINE
5
12B
100
AcDbEntity
8
1
62
256
6
ByLayer
370
18
48
1
60
0
100
AcDbSpline
70
4
71
3
72
10
73
6
40
0
40
0
40
0
40
0
40
0.967465556419484
40
0.967465556419484
40
1
40
1
40
1
40
1
41
1
10
15.7361957895374
20
12.1440656609346
30
0
41
1
10
16.0263446000825
20
12.4238840848753
30
0
41
1
10
16.3054187156491
20
12.7063425223115
30
0
41
1
10
16.5752900469535
20
13.0005215383042
30
0
41
1
10
16.5840568446252
20
13.0101035602123
30
0
41
1
10
16.5928021671139
20
13.019688250696
30
0
0
SPLINE
5
12C
100
AcDbEntity
8
1
62
256
6
ByLayer
370
18
48
1
60
0
100
AcDbSpline
70
4
71
3
72
10
73
6
40
0
40
0
40
0
40
0
40
0.5
40
0.5
40
1
40
1
40
1
40
1
41
1
10
20.5080718794912
20
7.12378173466826
30
0
41
1
10
20.6860896666558
20
5.81574346422991
30
0
41
1
10
20.7603583712
20
4.50193432557606
30
0
41
1
10
20.6616217466349
20
1.86056184605852
30
0
41
1
10
20.5336470402444
20
0.536953263471787
30
0
41
1
10
20.1984486668644
20
-0.748421568925977
30
0
0
SPLINE
5
12D
100
AcDbEntity
8
1
62
256
6
ByLayer
370
18
48
1
60
0
100
AcDbSpline
70
4
71
3
72
8
73
4
40
0
40
0
40
0
40
0
40
1
40
1
40
1
40
1
41
1
10
9.7521565475671
20
2.94398149709272
30
0
41
1
10
9.62115890912588
20
2.68560102426218
30
0
41
1
10
9.51773308992233
20
2.41912205135756
30
0
41
1
10
9.44330167092119
20
2.14438723018901
30
0
0
SPLINE
5
12E
100
AcDbEntity
8
1
62
256
6
ByLayer
370
18
48
1
60
0
100
AcDbSpline
70
4
71
3
72
11
73
7
40
0
40
0
40
0
40
0
40
0.423407924946042
40
0.740963868655574
40
0.89974184051034
40
1
40
1
40
1
40
1
41
1.02805999725224
10
7.63070487604547
20
3.16690690642242
30
0
41
1.02767136955277
10
7.96201850994869
20
3.96387094749208
30
0
41
1.02349884684923
10
9.97047895709839
20
6.54854783862977
30
0
41
1.01876555595691
10
12.8068199770782
20
9.64600161252365
30
0
41
1.01635405201144
10
13.8601363373387
20
10.8166257794732
30
0
41
1.01722454828215
10
14.0239959432799
20
11.2743507016166
30
0
41
1.0177432798788
10
14.0830812737853
20
11.4667835451897
30
0
0
SPLINE
5
12F
100
AcDbEntity
8
1
62
256
6
ByLayer
370
18
48
1
60
0
100
AcDbSpline
70
4
71
3
72
8
73
4
40
0
40
0
40
0
40
0
40
1
40
1
40
1
40
1
41
1
10
15.0519087818653
20
-8.70402002037412
30
0
41
1
10
15.0745621909584
20
-8.71028782031885
30
0
41
1
10
15.0972081932973
20
-8.71602120717421
30
0
41
1
10
15.1198474573024
20
-8.72124497257425
30
0
0
SPLINE
5
130
100
AcDbEntity
8
1
62
256
6
ByLayer
370
18
48
1
60
0
100
AcDbSpline
70
4
71
3
72
10
73
6
40
0
40
0
40
0
40
0
40
0.5
40
0.5
40
1
40
1
40
1
40
1
41
1
10
6.8947489478586
20
-6.44550485013608
30
0
41
1
10
6.20660155808446
20
-6.22255384208074
30
0
41
1
10
5.61042276327328
20
-5.84913444691489
30
0
41
1
10
4.84626628453441
20
-5.15516999484663
30
0
41
1
10
4.6204844322499
20
-4.85410192696722
30
0
41
1
10
4.51339487640359
20
-4.42851836478968
30
0
0
SPLINE
5
131
100
AcDbEntity
8
1
62
256
6
ByLayer
370
18
48
1
60
0
100
AcDbSpline
70
4
71
3
72
15
73
11
40
0
40
0
40
0
40
0
40
0.22760447994975
40
0.22760447994975
40
0.479423709218441
40
0.479423709218441
40
0.785574270382838
40
0.785574270382838
40
0.785574270382838
40
1
40
1
40
1
40
1
41
1
10
15.6962404262221
20
4.66751492403071
30
0
41
1
10
15.9881775878281
20
4.48756578534324
30
0
41
1
10
16.2563555315811
20
4.26112693903625
30
0
41
1
10
16.7406381553732
20
3.72605534879972
30
0
41
1
10
16.9545736801973
20
3.40558480626149
30
0
41
1
10
17.3255048321805
20
2.65538824584357
30
0
41
1
10
17.4661998968852
20
2.20634154041548
30
0
41
1
10
17.5362189571099
20
1.75125494266686
30
0
41
1
10
17.5855618887084
20
1.43055216842171
30
0
41
1
10
17.6006500387997
20
1.10228061620808
30
0
41
1
10
17.5785222007755
20
0.778563759920445
30
0
0
SPLINE
5
132
100
AcDbEntity
8
1
62
256
6
ByLayer
370
18
48
1
60
0
100
AcDbSpline
70
4
71
3
72
15
73
11
40
0
40
0
40
0
40
0
40
0.322163720426459
40
0.322163720426459
40
0.644833452600234
40
0.644833452600234
40
0.912233455904557
40
0.912233455904557
40
0.912233455904557
40
1
40
1
40
1
40
1
41
1
10
9.75215655446152
20
2.94398151069129
30
0
41
1
10
9.97120135971613
20
3.37575979410303
30
0
41
1
10
10.2683355237954
20
3.77525934778299
30
0
41
1
10
10.9647652632037
20
4.45023908787005
30
0
41
1
10
11.3733091333952
20
4.73546550171494
30
0
41
1
10
12.177708689183
20
5.11174837217891
30
0
41
1
10
12.5738844002448
20
5.23122164300736
30
0
41
1
10
12.9730344769465
20
5.28211185676983
30
0
41
1
10
13.1056815575239
20
5.29902388730562
30
0
41
1
10
13.2393407109748
20
5.30859027724944
30
0
41
1
10
13.3724184731502
20
5.31047559494979
30
0
0
SPLINE
5
133
100
AcDbEntity
8
1
62
256
6
ByLayer
370
18
48
1
60
0
100
AcDbSpline
70
4
71
3
72
8
73
4
40
0
40
0
40
0
40
0
40
1
40
1
40
1
40
1
41
1
10
15.2466246989043
20
-4.27322916064529
30
0
41
1
10
16.2296038440868
20
-5.47282842889348
30
0
41
1
10
17.0539837815746
20
-6.62265148729344
30
0
41
1
10
17.3617758914225
20
-7.36483358023733
30
0
0
SPLINE
5
134
100
AcDbEntity
8
1
62
256
6
ByLayer
370
18
48
1
60
0
100
AcDbSpline
70
4
71
3
72
8
73
4
40
0
40
0
40
0
40
0
40
1
40
1
40
1
40
1
41
1
10
9.15831227954817
20
-2.41309282648072
30
0
41
1
10
9.19019914386041
20
-2.47772279441236
30
0
41
1
10
9.21953305728721
20
-2.54436345893984
30
0
41
1
10
9.24618295885364
20
-2.61301244655405
30
0
0
SPLINE
5
135
100
AcDbEntity
8
1
62
256
6
ByLayer
370
18
48
1
60
0
100
AcDbSpline
70
4
71
3
72
11
73
7
40
0
40
0
40
0
40
0
40
0.656642656743971
40
0.656642656743971
40
0.656642656743971
40
1
40
1
40
1
40
1
41
1
10
4.32030944258867
20
-4.02000438275468
30
0
41
1
10
4.20933554092437
20
-4.37294232090775
30
0
41
1
10
4.12207909235315
20
-4.77885064761895
30
0
41
1
10
4.10783402753191
20
-5.21499858096052
30
0
41
1
10
4.10032468916233
20
-5.44491556988231
30
0
41
1
10
4.11329950122769
20
-5.68552650853502
30
0
41
1
10
4.15390341767016
20
-5.92715527393594
30
0
0
SPLINE
5
136
100
AcDbEntity
8
1
62
256
6
ByLayer
370
18
48
1
60
0
100
AcDbSpline
70
4
71
3
72
8
73
4
40
0
40
0
40
0
40
0
40
1
40
1
40
1
40
1
41
1
10
9.15831227954823
20
-2.41309282648081
30
0
41
1
10
8.76829123297068
20
-1.62257772640265
30
0
41
1
10
8.67011479400196
20
-0.709533348122932
30
0
41
1
10
8.91163128597134
20
0.1819314542538
30
0
0
SPLINE
5
137
100
AcDbEntity
8
1
62
256
6
ByLayer
370
18
48
1
60
0
100
AcDbSpline
70
4
71
3
72
12
73
8
40
0
40
0
40
0
40
0
40
0.46693897235862
40
0.46693897235862
40
0.928803236876552
40
0.928803236876552
40
1
40
1
40
1
40
1
41
1
10
9.24618295885364
20
-2.61301244655402
30
0
41
1
10
9.30893724904035
20
-2.77466476932241
30
0
41
1
10
9.35402544160206
20
-2.95528406946758
30
0
41
1
10
9.40231423186685
20
-3.31392128426683
30
0
41
1
10
9.40715737186576
20
-3.49675318952734
30
0
41
1
10
9.39560216214682
20
-3.69922638370016
30
0
41
1
10
9.39369176426374
20
-3.7263921065794
30
0
41
1
10
9.39144831902831
20
-3.75341446738415
30
0
0
SPLINE
5
138
100
AcDbEntity
8
1
62
256
6
ByLayer
370
18
48
1
60
0
100
AcDbSpline
70
4
71
3
72
10
73
6
40
0
40
0
40
0
40
0
40
0.5
40
0.5
40
1
40
1
40
1
40
1
41
1
10
18.0126678520343
20
-8.1635298177365
30
0
41
1
10
17.7423519080278
20
-8.48643540472722
30
0
41
1
10
17.4373147183617
20
-8.64062957576601
30
0
41
1
10
16.5078050679965
20
-8.8620137956114
30
0
41
1
10
15.8266959048653
20
-8.8843426096098
30
0
41
1
10
15.1198474573024
20
-8.72124497257425
30
0
0
SPLINE
5
139
100
AcDbEntity
8
1
62
256
6
ByLayer
370
18
48
1
60
0
100
AcDbSpline
70
4
71
3
72
8
73
4
40
0
40
0
40
0
40
0
40
1
40
1
40
1
40
1
41
1
10
9.39144831902831
20
-3.75341446738415
30
0
41
1
10
9.37036351941788
20
-4.00738147026834
30
0
41
1
10
9.32198260251755
20
-4.24957841327
30
0
41
1
10
9.25388409418133
20
-4.48127637072645
30
0
0
SPLINE
5
13A
100
AcDbEntity
8
1
62
256
6
ByLayer
370
18
48
1
60
0
100
AcDbSpline
70
4
71
3
72
10
73
6
40
0
40
0
40
0
40
0
40
0.5
40
0.5
40
1
40
1
40
1
40
1
41
1
10
18.0021943185484
20
10.3824338818608
30
0
41
1
10
18.4259300508702
20
10.5265613569688
30
0
41
1
10
18.8122834979712
20
10.7236718986412
30
0
41
1
10
19.3594629574553
20
11.4375399756125
30
0
41
1
10
19.5010519587636
20
11.9785420448416
30
0
41
1
10
19.3313923138489
20
12.7143813973504
30
0
0
SPLINE
5
13B
100
AcDbEntity
8
1
62
256
6
ByLayer
370
18
48
1
60
0
100
AcDbSpline
70
4
71
3
72
12
73
8
40
0
40
0
40
0
40
0
40
0.286978363858297
40
0.286978363858297
40
0.569998995185618
40
0.569998995185618
40
1
40
1
40
1
40
1
41
1
10
13.3724184731497
20
5.31047559494911
30
0
41
1
10
13.605032746599
20
5.3137597272291
30
0
41
1
10
13.8392775279186
20
5.29775552624807
30
0
41
1
10
14.2980217801971
20
5.22853745350568
30
0
41
1
10
14.5241863971505
20
5.17560291543018
30
0
41
1
10
15.0766687467334
20
4.99875126821229
30
0
41
1
10
15.399126851278
20
4.85063328328346
30
0
41
1
10
15.6962404262221
20
4.66751492403071
30
0
0
SPLINE
5
13C
100
AcDbEntity
8
1
62
256
6
ByLayer
370
18
48
1
60
0
100
AcDbSpline
70
4
71
2
72
6
73
3
40
0
40
0
40
0
40
1
40
1
40
1
41
0.937301687603847
10
17.5785222230166
20
0.778563751512546
30
0
41
0.930554446910518
10
18.8815999140216
20
0.285956821604429
30
0
41
1.02805999725225
10
19.3375136235128
20
-0.0721612143705977
30
0
0
SPLINE
5
13D
100
AcDbEntity
8
1
62
256
6
ByLayer
370
18
48
1
60
0
100
AcDbSpline
70
4
71
3
72
10
73
6
40
0
40
0
40
0
40
0
40
0.5
40
0.5
40
1
40
1
40
1
40
1
41
1
10
6.33361956419935
20
3.08773283621042
30
0
41
1
10
6.69414436145422
20
4.37020782208091
30
0
41
1
10
7.24549034176869
20
5.56009637768011
30
0
41
1
10
8.48389789487396
20
7.87402428892042
30
0
41
1
10
9.21885177769548
20
8.98255236377722
30
0
41
1
10
10.0352260715205
20
10.0214340088558
30
0
0
SPLINE
5
13E
100
AcDbEntity
8
1
62
256
6
ByLayer
370
18
48
1
60
0
100
AcDbSpline
70
4
71
3
72
8
73
4
40
0
40
0
40
0
40
0
40
1
40
1
40
1
40
1
41
1
10
18.7061396161683
20
13.8757922727735
30
0
41
1
10
18.6800493799408
20
13.9522913759339
30
0
41
1
10
18.6493772292768
20
14.0304210651846
30
0
41
1
10
18.6145125036672
20
14.1087694787699
30
0
0
SPLINE
5
13F
100
AcDbEntity
8
1
62
256
6
ByLayer
370
18
48
1
60
0
100
AcDbSpline
70
4
71
3
72
8
73
4
40
0
40
0
40
0
40
0
40
1
40
1
40
1
40
1
41
1
10
20.4560840060183
20
9.68143642540937
30
0
41
1
10
20.4508887766571
20
9.57597908852796
30
0
41
1
10
20.4433993185105
20
9.47084737908432
30
0
41
1
10
20.4334079194519
20
9.3661844362141
30
0
0
SPLINE
5
140
100
AcDbEntity
8
1
62
256
6
ByLayer
370
18
48
1
60
0
100
AcDbSpline
70
4
71
3
72
12
73
8
40
0
40
0
40
0
40
0
40
0.471343086678526
40
0.471343086678526
40
0.892619726108218
40
0.892619726108218
40
1
40
1
40
1
40
1
41
1
10
14.5365765272365
20
-5.17698096753779
30
0
41
1
10
14.6182295511433
20
-5.01868963600919
30
0
41
1
10
14.715350994447
20
-4.8602268510536
30
0
41
1
10
14.9249216341891
20
-4.58254023942396
30
0
41
1
10
15.0370964585915
20
-4.4582404294502
30
0
41
1
10
15.1848245344692
20
-4.32470456625717
30
0
41
1
10
15.2156052332813
20
-4.29835144709898
30
0
41
1
10
15.2466246989043
20
-4.27322916064529
30
0
0
SPLINE
5
141
100
AcDbEntity
8
1
62
256
6
ByLayer
370
18
48
1
60
0
100
AcDbSpline
70
4
71
3
72
8
73
4
40
0
40
0
40
0
40
0
40
1
40
1
40
1
40
1
41
1
10
14.5365765272365
20
-5.17698096753779
30
0
41
1
10
14.4192991329311
20
-5.40433317097887
30
0
41
1
10
14.330205650036
20
-5.63526566288425
30
0
41
1
10
14.2621071416997
20
-5.86696362034067
30
0
0
SPLINE
5
142
100
AcDbEntity
8
1
62
256
6
ByLayer
370
18
48
1
60
0
100
AcDbSpline
70
4
71
3
72
20
73
16
40
0
40
0
40
0
40
0
40
0.110576036200128
40
0.110576036200128
40
0.197179369122813
40
0.197179369122813
40
0.28429111738737
40
0.28429111738737
40
0.365904217918084
40
0.365904217918084
40
0.497270233392073
40
0.497270233392073
40
0.733496364826705
40
0.733496364826705
40
1
40
1
40
1
40
1
41
1
10
14.0830812738098
20
11.4667835452697
30
0
41
1
10
14.1138404666252
20
11.4349777901163
30
0
41
1
10
14.1535269013412
20
11.4071863402862
30
0
41
1
10
14.2428898209616
20
11.3726835738468
30
0
41
1
10
14.2895790158507
20
11.3625845077517
30
0
41
1
10
14.3933852282463
20
11.3565983020261
30
0
41
1
10
14.451916318105
20
11.3608077663325
30
0
41
1
10
14.5673273431722
20
11.3815575777113
30
0
41
1
10
14.6253238792391
20
11.3974043210948
30
0
41
1
10
14.7722434093809
20
11.448249365084
30
0
41
1
10
14.8611610252879
20
11.4896017096989
30
0
41
1
10
15.0924758505089
20
11.6153846384372
30
0
41
1
10
15.227148961931
20
11.7099071023865
30
0
41
1
10
15.4897795134392
20
11.9152875195452
30
0
41
1
10
15.6171070902801
20
12.0291687233774
30
0
41
1
10
15.7361957895374
20
12.1440656609346
30
0
0
SPLINE
5
143
100
AcDbEntity
8
1
62
256
6
ByLayer
370
18
48
1
60
0
100
AcDbSpline
70
4
71
3
72
12
73
8
40
0
40
0
40
0
40
0
40
0.108854002841679
40
0.502629245107337
40
0.699516866240167
40
0.896404487372996
40
1
40
1
40
1
40
1
41
1.0244126255267
10
13.3724184232967
20
5.31047545441806
30
0
41
1.02394775696077
10
13.4857099535993
20
5.62983267085365
30
0
41
1.02173322391444
10
14.0264936269536
20
7.13947636705949
30
0
41
1.01876555595691
10
14.8119771648859
20
9.25009432577004
30
0
41
1.01610930227499
10
15.3548097216059
20
10.6561226013298
30
0
41
1.01814069306376
10
15.5155351861943
20
11.3312103170495
30
0
41
1.0200519600697
10
15.6756502252142
20
11.9269379856559
30
0
41
1.02076673234771
10
15.7361957895326
20
12.1440656609172
30
0
0
SPLINE
5
144
100
AcDbEntity
8
1
62
256
6
ByLayer
370
18
48
1
60
0
100
AcDbSpline
70
4
71
1
72
4
73
2
40
0
40
0
40
1
40
1
41
1
10
7.63070487604546
20
3.16690690642241
30
0
41
1
10
6.33361956419935
20
3.08773283621042
30
0
0
SPLINE
5
145
100
AcDbEntity
8
1
62
256
6
ByLayer
370
18
48
1
60
0
100
AcDbSpline
70
4
71
2
72
6
73
3
40
0
40
0
40
0
40
1
40
1
40
1
41
1.02805999725224
10
19.3375136235128
20
-0.0721612143705977
30
0
41
1.02805999725224
10
19.7679811451886
20
-0.410291391648289
30
0
41
1.02805999725224
10
20.1984486668644
20
-0.748421568925981
30
0
0
SPLINE
5
146
100
AcDbEntity
8
1
62
256
6
ByLayer
370
18
48
1
60
0
100
AcDbSpline
70
4
71
3
72
11
73
7
40
0
40
0
40
0
40
0
40
0.564783939443777
40
0.564783939443777
40
0.564783939443777
40
1
40
1
40
1
40
1
41
1
10
11.1860138175104
20
11.9247757724301
30
0
41
1
10
11.0500381032631
20
11.5914359034812
30
0
41
1
10
10.8705152900493
20
11.2209027110635
30
0
41
1
10
10.639059784976
20
10.8603963663556
30
0
41
1
10
10.45923142885
20
10.5803025171241
30
0
41
1
10
10.2526934069703
20
10.2981732752827
30
0
41
1
10
10.0352260715207
20
10.0214340088561
30
0
0
SPLINE
5
147
100
AcDbEntity
8
1
62
256
6
ByLayer
370
18
48
1
60
0
100
AcDbSpline
70
4
71
3
72
10
73
6
40
0
40
0
40
0
40
0
40
0.5
40
0.5
40
1
40
1
40
1
40
1
41
1
10
13.8215318536654
20
14.2388628975341
30
0
41
1
10
13.3449160077502
20
13.6935944286435
30
0
41
1
10
13.2377387308571
20
13.1356670973803
30
0
41
1
10
13.4476278520281
20
12.2164743962427
30
0
41
1
10
13.7374847835571
20
11.8240805536117
30
0
41
1
10
14.0830812738094
20
11.4667835452684
30
0
0
SPLINE
5
148
100
AcDbEntity
8
1
62
256
6
ByLayer
370
18
48
1
60
0
100
AcDbSpline
70
4
71
3
72
10
73
6
40
0
40
0
40
0
40
0
40
0.60834142572423
40
0.60834142572423
40
1
40
1
40
1
40
1
41
1
10
10.4139800400885
20
11.4404514274057
30
0
41
1
10
10.2764137382585
20
11.2553710388049
30
0
41
1
10
10.1389074756181
20
11.0700612635648
30
0
41
1
10
9.91296464694597
20
10.7650956287171
30
0
41
1
10
9.82449537235112
20
10.6455647048381
30
0
41
1
10
9.73604826223414
20
10.5259491223723
30
0
0
SPLINE
5
149
100
AcDbEntity
8
1
62
256
6
ByLayer
370
18
48
1
60
0
100
AcDbSpline
70
4
71
3
72
8
73
4
40
0
40
0
40
0
40
0
40
1
40
1
40
1
40
1
41
1
10
9.77623128168568
20
10.5306496426424
30
0
41
1
10
9.69573763231432
20
10.4220497394164
30
0
41
1
10
9.61526299780456
20
10.3133771974023
30
0
41
1
10
9.53480663197121
20
10.2046348750642
30
0
0
LINE
5
72
100
AcDbEntity
8
1
62
256
6
ByLayer
370
18
48
1
60
0
100
AcDbLine
10
16.537313
20
-2.082131
30
0
11
16.659782
21
-1.870009
31
0
39
0
210
0
220
0
230
1
0
LINE
5
74
100
AcDbEntity
8
1
62
256
6
ByLayer
370
18
48
1
60
0
100
AcDbLine
10
9.731578
20
2.129991
30
0
11
9.60911
21
1.917869
31
0
39
0
210
0
220
0
230
1
0
LINE
5
75
100
AcDbEntity
8
1
62
256
6
ByLayer
370
18
48
1
60
0
100
AcDbLine
10
17.997539
20
-8.378495
30
0
11
18.288473
21
-7.702549
31
0
39
0
210
0
220
0
230
1
0
LINE
5
76
100
AcDbEntity
8
1
62
256
6
ByLayer
370
18
48
1
60
0
100
AcDbLine
10
23.905675
20
7.282629
30
0
11
24.255594
21
7.888706
31
0
39
0
210
0
220
0
230
1
0
LINE
5
77
100
AcDbEntity
8
1
62
256
6
ByLayer
370
18
48
1
60
0
100
AcDbLine
10
23.308838
20
6.684402
30
0
11
23.446938
21
6.923598
31
0
39
0
210
0
220
0
230
1
0
LINE
5
78
100
AcDbEntity
8
1
62
256
6
ByLayer
370
18
48
1
60
0
100
AcDbLine
10
14.424077
20
-5.415648
30
0
11
14.219963
21
-5.889879
31
0
39
0
210
0
220
0
230
1
0
LINE
5
79
100
AcDbEntity
8
1
62
256
6
ByLayer
370
18
48
1
60
0
100
AcDbLine
10
13.291135
20
-1.092523
30
0
11
13.222112
21
-1.212074
31
0
39
0
210
0
220
0
230
1
0
LINE
5
7A
100
AcDbEntity
8
1
62
256
6
ByLayer
370
18
48
1
60
0
100
AcDbLine
10
11.96765
20
0.231228
30
0
11
12.08527
21
0.434951
31
0
39
0
210
0
220
0
230
1
0
LINE
5
7B
100
AcDbEntity
8
1
62
256
6
ByLayer
370
18
48
1
60
0
100
AcDbLine
10
14.414012
20
0.011957
30
0
11
14.296393
21
-0.191766
31
0
39
0
210
0
220
0
230
1
0
LINE
5
7C
100
AcDbEntity
8
1
62
256
6
ByLayer
370
18
48
1
60
0
100
AcDbLine
10
13.090528
20
1.335708
30
0
11
13.208148
21
1.539431
31
0
39
0
210
0
220
0
230
1
0
LINE
5
7D
100
AcDbEntity
8
1
62
256
6
ByLayer
370
18
48
1
60
0
100
AcDbLine
10
8.765182
20
18.660388
30
0
11
8.544159
21
18.277566
31
0
39
0
210
0
220
0
230
1
0
LINE
5
7E
100
AcDbEntity
8
80
62
256
6
ByLayer
370
18
48
1
60
0
100
AcDbLine
10
0
20
0
30
0
11
-5
21
0
31
0
39
0
210
0
220
0
230
1
0
LINE
5
7F
100
AcDbEntity
8
81
62
256
6
ByLayer
370
18
48
1
60
0
100
AcDbLine
10
21.270135
20
19.9125
30
0
11
31.270135
21
19.9125
31
0
39
0
210
0
220
0
230
1
0
LINE
5
80
100
AcDbEntity
8
1
62
256
6
ByLayer
370
18
48
1
60
0
100
AcDbLine
10
13.232821
20
-1.198031
30
0
11
13.271472
21
-1.131086
31
0
39
0
210
0
220
0
230
1
0
LINE
5
81
100
AcDbEntity
8
1
62
256
6
ByLayer
370
18
48
1
60
0
100
AcDbLine
10
16.537313
20
-2.082131
30
0
11
16.537415
21
-2.081954
31
0
39
0
210
0
220
0
230
1
0
LINE
5
82
100
AcDbEntity
8
1
62
256
6
ByLayer
370
18
48
1
60
0
100
AcDbLine
10
20.492644
20
7.258905
30
0
11
23.636397
21
7.500505
31
0
39
0
210
0
220
0
230
1
0
LINE
5
83
100
AcDbEntity
8
1
62
256
6
ByLayer
370
18
48
1
60
0
100
AcDbLine
10
8.687783
20
18.067334
30
0
11
10.624542
21
10.839253
31
0
39
0
210
0
220
0
230
1
0
LINE
5
84
100
AcDbEntity
8
1
62
256
6
ByLayer
370
18
48
1
60
0
100
AcDbLine
10
22.909865
20
6.865486
30
0
11
23.286478
21
6.894429
31
0
39
0
210
0
220
0
230
1
0
LINE
5
85
100
AcDbEntity
8
1
62
256
6
ByLayer
370
18
48
1
60
0
100
AcDbLine
10
8.687783
20
18.067334
30
0
11
8.662092
21
18.022835
31
0
39
0
210
0
220
0
230
1
0
LINE
5
86
100
AcDbEntity
8
1
62
256
6
ByLayer
370
18
48
1
60
0
100
AcDbLine
10
10.073904
20
10.98227
30
0
11
10.253748
21
10.311084
31
0
39
0
210
0
220
0
230
1
0
LINE
5
87
100
AcDbEntity
8
1
62
256
6
ByLayer
370
18
48
1
60
0
100
AcDbLine
10
22.910034
20
7.291655
30
0
11
20.486207
21
7.105382
31
0
39
0
210
0
220
0
230
1
0
LINE
5
88
100
AcDbEntity
8
1
62
256
6
ByLayer
370
18
48
1
60
0
100
AcDbLine
10
18.97419
20
-6.370584
30
0
11
18.697867
21
-6.29413
31
0
39
0
210
0
220
0
230
1
0
LINE
5
89
100
AcDbEntity
8
1
62
256
6
ByLayer
370
18
48
1
60
0
100
AcDbLine
10
4.814886
20
-2.452954
30
0
11
4.418938
21
-2.343402
31
0
39
0
210
0
220
0
230
1
0
LINE
5
8A
100
AcDbEntity
8
1
62
256
6
ByLayer
370
18
48
1
60
0
100
AcDbLine
10
17.535669
20
-9.496598
30
0
11
17.343351
21
-9.443387
31
0
39
0
210
0
220
0
230
1
0
LINE
5
8B
100
AcDbEntity
8
1
62
256
6
ByLayer
370
18
48
1
60
0
100
AcDbLine
10
4.145308
20
-5.79172
30
0
11
1.935721
21
-5.180366
31
0
39
0
210
0
220
0
230
1
0
LINE
5
8C
100
AcDbEntity
8
1
62
256
6
ByLayer
370
18
48
1
60
0
100
AcDbLine
10
22.910034
20
7.389929
30
0
11
20.498905
21
7.204632
31
0
39
0
210
0
220
0
230
1
0
LINE
5
8D
100
AcDbEntity
8
1
62
256
6
ByLayer
370
18
48
1
60
0
100
AcDbLine
10
10.41398
20
11.440451
30
0
11
10.355477
21
11.662664
31
0
39
0
210
0
220
0
230
1
0
LINE
5
8E
100
AcDbEntity
8
1
62
256
6
ByLayer
370
18
48
1
60
0
100
AcDbLine
10
8.627973
20
18.224195
30
0
11
8.624197
21
18.238535
31
0
39
0
210
0
220
0
230
1
0
LINE
5
8F
100
AcDbEntity
8
1
62
256
6
ByLayer
370
18
48
1
60
0
100
AcDbLine
10
17.520967
20
-9.522063
30
0
11
17.325243
21
-9.46791
31
0
39
0
210
0
220
0
230
1
0
LINE
5
90
100
AcDbEntity
8
1
62
256
6
ByLayer
370
18
48
1
60
0
100
AcDbLine
10
4.147145
20
-5.821762
30
0
11
1.744718
21
-5.157053
31
0
39
0
210
0
220
0
230
1
0
LINE
5
91
100
AcDbEntity
8
1
62
256
6
ByLayer
370
18
48
1
60
0
100
AcDbLine
10
17.137361
20
-10.355667
30
0
11
16.401096
21
-10.151955
31
0
39
0
210
0
220
0
230
1
0
LINE
5
92
100
AcDbEntity
8
1
62
256
6
ByLayer
370
18
48
1
60
0
100
AcDbLine
10
4.592766
20
-6.884798
30
0
11
1.082527
21
-5.913576
31
0
39
0
210
0
220
0
230
1
0
LINE
5
93
100
AcDbEntity
8
1
62
256
6
ByLayer
370
18
48
1
60
0
100
AcDbLine
10
9.771907
20
10.529752
30
0
11
9.76323
21
10.562706
31
0
39
0
210
0
220
0
230
1
0
LINE
5
94
100
AcDbEntity
8
1
62
256
6
ByLayer
370
18
48
1
60
0
100
AcDbLine
10
9.766589
20
10.567275
30
0
11
9.776231
21
10.53065
31
0
39
0
210
0
220
0
230
1
0
LINE
5
95
100
AcDbEntity
8
1
62
256
6
ByLayer
370
18
48
1
60
0
100
AcDbLine
10
10.253776
20
10.310979
30
0
11
10.073918
21
10.982219
31
0
39
0
210
0
220
0
230
1
0
LINE
5
96
100
AcDbEntity
8
1
62
256
6
ByLayer
370
18
48
1
60
0
100
AcDbLine
10
9.784905
20
9.675712
30
0
11
9.61436
21
10.312196
31
0
39
0
210
0
220
0
230
1
0
LINE
5
97
100
AcDbEntity
8
1
62
256
6
ByLayer
370
18
48
1
60
0
100
AcDbLine
10
18.419307
20
-7.322751
30
0
11
18.791988
21
-5.947143
31
0
39
0
210
0
220
0
230
1
0
LINE
5
98
100
AcDbEntity
8
1
62
256
6
ByLayer
370
18
48
1
60
0
100
AcDbLine
10
16.720704
20
-2.459246
30
0
11
17.248607
21
-0.505543
31
0
39
0
210
0
220
0
230
1
0
LINE
5
99
100
AcDbEntity
8
1
62
256
6
ByLayer
370
18
48
1
60
0
100
AcDbLine
10
14.358615
20
-10.314792
30
0
11
6.268409
21
-8.076374
31
0
39
0
210
0
220
0
230
1
0
LINE
5
9A
100
AcDbEntity
8
1
62
256
6
ByLayer
370
18
48
1
60
0
100
AcDbLine
10
17.361776
20
-7.364834
30
0
11
19.337514
21
-0.072161
31
0
39
0
210
0
220
0
230
1
0
LINE
5
9B
100
AcDbEntity
8
1
62
256
6
ByLayer
370
18
48
1
60
0
100
AcDbLine
10
4.550382
20
-3.485463
30
0
11
4.320309
21
-4.020004
31
0
39
0
210
0
220
0
230
1
0
LINE
5
9C
100
AcDbEntity
8
1
62
256
6
ByLayer
370
18
48
1
60
0
100
AcDbLine
10
14.931186
20
14.920256
30
0
11
14.716763
21
14.815002
31
0
39
0
210
0
220
0
230
1
0
LINE
5
9D
100
AcDbEntity
8
1
62
256
6
ByLayer
370
18
48
1
60
0
100
AcDbLine
10
20.198449
20
-0.748422
30
0
11
18.791493
21
-5.941656
31
0
39
0
210
0
220
0
230
1
0
LINE
5
9E
100
AcDbEntity
8
1
62
256
6
ByLayer
370
18
48
1
60
0
100
AcDbLine
10
4.923063
20
-2.109855
30
0
11
4.550382
21
-3.485463
31
0
39
0
210
0
220
0
230
1
0
LINE
5
9F
100
AcDbEntity
8
1
62
256
6
ByLayer
370
18
48
1
60
0
100
AcDbLine
10
18.837604
20
13.674838
30
0
11
18.70614
21
13.875792
31
0
39
0
210
0
220
0
230
1
0
LINE
5
A0
100
AcDbEntity
8
1
62
256
6
ByLayer
370
18
48
1
60
0
100
AcDbLine
10
8.911631
20
0.181931
30
0
11
9.443302
21
2.144387
31
0
39
0
210
0
220
0
230
1
0
LINE
5
A1
100
AcDbEntity
8
1
62
256
6
ByLayer
370
18
48
1
60
0
100
AcDbLine
10
16.592802
20
13.019688
30
0
11
17.160905
21
15.572623
31
0
39
0
210
0
220
0
230
1
0
LINE
5
A2
100
AcDbEntity
8
1
62
256
6
ByLayer
370
18
48
1
60
0
100
AcDbLine
10
14.262107
20
-5.866964
30
0
11
14.08309
21
-6.282885
31
0
39
0
210
0
220
0
230
1
0
LINE
5
A3
100
AcDbEntity
8
1
62
256
6
ByLayer
370
18
48
1
60
0
100
AcDbLine
10
5.654967
20
-4.125765
30
0
11
7.630705
21
3.166907
31
0
39
0
210
0
220
0
230
1
0
LINE
5
A4
100
AcDbEntity
8
1
62
256
6
ByLayer
370
18
48
1
60
0
100
AcDbLine
10
15.311377
20
15.197675
30
0
11
15.121226
21
15.0753
31
0
39
0
210
0
220
0
230
1
0
LINE
5
A5
100
AcDbEntity
8
1
62
256
6
ByLayer
370
18
48
1
60
0
100
AcDbLine
10
14.716763
20
14.815002
30
0
11
13.821532
21
14.238863
31
0
39
0
210
0
220
0
230
1
0
LINE
5
A6
100
AcDbEntity
8
1
62
256
6
ByLayer
370
18
48
1
60
0
100
AcDbLine
10
18.50963
20
14.312774
30
0
11
18.614513
21
14.108769
31
0
39
0
210
0
220
0
230
1
0
LINE
5
A7
100
AcDbEntity
8
1
62
256
6
ByLayer
370
18
48
1
60
0
100
AcDbLine
10
6.961702
20
-6.465602
30
0
11
15.051909
21
-8.70402
31
0
39
0
210
0
220
0
230
1
0
LINE
5
A8
100
AcDbEntity
8
1
62
256
6
ByLayer
370
18
48
1
60
0
100
AcDbLine
10
15.051909
20
-8.70402
30
0
11
14.358615
21
-10.314792
31
0
39
0
210
0
220
0
230
1
0
LINE
5
A9
100
AcDbEntity
8
1
62
256
6
ByLayer
370
18
48
1
60
0
100
AcDbLine
10
6.33362
20
3.087733
30
0
11
4.926664
21
-2.105502
31
0
39
0
210
0
220
0
230
1
0
LINE
5
AA
100
AcDbEntity
8
1
62
256
6
ByLayer
370
18
48
1
60
0
100
AcDbLine
10
18.837604
20
13.674838
30
0
11
19.331392
21
12.714381
31
0
39
0
210
0
220
0
230
1
0
LINE
5
AB
100
AcDbEntity
8
1
62
256
6
ByLayer
370
18
48
1
60
0
100
AcDbLine
10
4.923063
20
-2.109855
30
0
11
4.926664
21
-2.105502
31
0
39
0
210
0
220
0
230
1
0
LINE
5
AC
100
AcDbEntity
8
1
62
256
6
ByLayer
370
18
48
1
60
0
100
AcDbLine
10
18.791988
20
-5.947143
30
0
11
18.791493
21
-5.941656
31
0
39
0
210
0
220
0
230
1
0
LINE
5
AD
100
AcDbEntity
8
1
62
256
6
ByLayer
370
18
48
1
60
0
100
AcDbLine
10
17.437196
20
-0.067383
30
0
11
17.248607
21
-0.505543
31
0
39
0
210
0
220
0
230
1
0
LINE
5
AE
100
AcDbEntity
8
1
62
256
6
ByLayer
370
18
48
1
60
0
100
AcDbLine
10
17.437196
20
-0.067383
30
0
11
16.905526
21
-2.029839
31
0
39
0
210
0
220
0
230
1
0
LINE
5
AF
100
AcDbEntity
8
1
62
256
6
ByLayer
370
18
48
1
60
0
100
AcDbLine
10
14.08309
20
-6.282885
30
0
11
13.690211
21
-7.736881
31
0
39
0
210
0
220
0
230
1
0
LINE
5
B0
100
AcDbEntity
8
1
62
256
6
ByLayer
370
18
48
1
60
0
100
AcDbLine
10
6.961702
20
-6.465602
30
0
11
6.268409
21
-8.076374
31
0
39
0
210
0
220
0
230
1
0
LINE
5
B1
100
AcDbEntity
8
1
62
256
6
ByLayer
370
18
48
1
60
0
100
AcDbLine
10
4.923063
20
-2.109855
30
0
11
4.342912
21
-3.94825
31
0
39
0
210
0
220
0
230
1
0
LINE
5
B2
100
AcDbEntity
8
1
62
256
6
ByLayer
370
18
48
1
60
0
100
AcDbLine
10
8.681988
20
-6.351193
30
0
11
13.690211
21
-7.736881
31
0
39
0
210
0
220
0
230
1
0
LINE
5
B3
100
AcDbEntity
8
1
62
256
6
ByLayer
370
18
48
1
60
0
100
AcDbLine
10
13.833575
20
1.174123
30
0
11
13.951194
21
1.377846
31
0
39
0
210
0
220
0
230
1
0
LINE
5
B4
100
AcDbEntity
8
1
62
256
6
ByLayer
370
18
48
1
60
0
100
AcDbLine
10
14.322303
20
-0.649836
30
0
11
14.439923
21
-0.446113
31
0
39
0
210
0
220
0
230
1
0
LINE
5
B5
100
AcDbEntity
8
1
62
256
6
ByLayer
370
18
48
1
60
0
100
AcDbLine
10
14.300472
20
0.704704
30
0
11
14.418092
21
0.908427
31
0
39
0
210
0
220
0
230
1
0
LINE
5
B6
100
AcDbEntity
8
1
62
256
6
ByLayer
370
18
48
1
60
0
100
AcDbLine
10
11.770241
20
0.056275
30
0
11
11.887861
21
0.259998
31
0
39
0
210
0
220
0
230
1
0
LINE
5
B7
100
AcDbEntity
8
1
62
256
6
ByLayer
370
18
48
1
60
0
100
AcDbLine
10
12.471794
20
1.210667
30
0
11
12.589414
21
1.41439
31
0
39
0
210
0
220
0
230
1
0
LINE
5
B8
100
AcDbEntity
8
1
62
256
6
ByLayer
370
18
48
1
60
0
100
AcDbLine
10
0
20
-12.4375
30
0
11
0
21
12.4375
31
0
39
0
210
0
220
0
230
1
0
LINE
5
B9
100
AcDbEntity
8
1
62
256
6
ByLayer
370
18
48
1
60
0
100
AcDbLine
10
16.211759
20
-12.440984
30
0
11
17.137361
21
-10.355667
31
0
39
0
210
0
220
0
230
1
0
LINE
5
BA
100
AcDbEntity
8
1
62
256
6
ByLayer
370
18
48
1
60
0
100
AcDbLine
10
22.910034
20
2.496599
30
0
11
22.910034
21
7.291655
31
0
39
0
210
0
220
0
230
1
0
LINE
5
BB
100
AcDbEntity
8
1
62
256
6
ByLayer
370
18
48
1
60
0
100
AcDbLine
10
22.910034
20
7.389929
30
0
11
22.910034
21
7.291655
31
0
39
0
210
0
220
0
230
1
0
LINE
5
BC
100
AcDbEntity
8
1
62
256
6
ByLayer
370
18
48
1
60
0
100
AcDbLine
10
17.535669
20
-9.496598
30
0
11
18.97419
21
-6.370584
31
0
39
0
210
0
220
0
230
1
0
LINE
5
BD
100
AcDbEntity
8
1
62
256
6
ByLayer
370
18
48
1
60
0
100
AcDbLine
10
1.744718
20
-5.157053
30
0
11
1.935721
21
-5.180366
31
0
39
0
210
0
220
0
230
1
0
LINE
5
BE
100
AcDbEntity
8
1
62
256
6
ByLayer
370
18
48
1
60
0
100
AcDbLine
10
2.364555
20
14.802055
30
0
11
5.645095
21
18.082595
31
0
39
0
210
0
220
0
230
1
0
LINE
5
BF
100
AcDbEntity
8
1
62
256
6
ByLayer
370
18
48
1
60
0
100
AcDbLine
10
16.211759
20
-12.440984
30
0
11
1.865204
21
-12.445639
31
0
39
0
210
0
220
0
230
1
0
LINE
5
C0
100
AcDbEntity
8
1
62
256
6
ByLayer
370
18
48
1
60
0
100
AcDbLine
10
8.624197
20
18.238535
30
0
11
8.49486
21
18.301602
31
0
39
0
210
0
220
0
230
1
0
LINE
5
C1
100
AcDbEntity
8
1
62
256
6
ByLayer
370
18
48
1
60
0
100
AcDbLine
10
0
20
-12.4375
30
0
11
1.865204
21
-12.445639
31
0
39
0
210
0
220
0
230
1
0
LINE
5
C2
100
AcDbEntity
8
1
62
256
6
ByLayer
370
18
48
1
60
0
100
AcDbLine
10
4.418938
20
-2.343402
30
0
11
2.364555
21
14.802055
31
0
39
0
210
0
220
0
230
1
0
LINE
5
C3
100
AcDbEntity
8
1
62
256
6
ByLayer
370
18
48
1
60
0
100
AcDbLine
10
17.520967
20
-9.522063
30
0
11
17.535669
21
-9.496598
31
0
39
0
210
0
220
0
230
1
0
LINE
5
C4
100
AcDbEntity
8
1
62
256
6
ByLayer
370
18
48
1
60
0
100
AcDbLine
10
22.910034
20
2.496599
30
0
11
18.97419
21
-6.370584
31
0
39
0
210
0
220
0
230
1
0
LINE
5
C5
100
AcDbEntity
8
1
62
256
6
ByLayer
370
18
48
1
60
0
100
AcDbLine
10
1.865204
20
-12.445639
30
0
11
1.082527
21
-5.913576
31
0
39
0
210
0
220
0
230
1
0
LINE
5
C6
100
AcDbEntity
8
1
62
256
6
ByLayer
370
18
48
1
60
0
100
AcDbLine
10
8.49486
20
18.301602
30
0
11
10.292709
21
11.472878
31
0
39
0
210
0
220
0
230
1
0
LINE
5
C7
100
AcDbEntity
8
1
62
256
6
ByLayer
370
18
48
1
60
0
100
AcDbLine
10
1.935721
20
-5.180366
30
0
11
4.418938
21
-2.343402
31
0
39
0
210
0
220
0
230
1
0
LINE
5
C8
100
AcDbEntity
8
1
62
256
6
ByLayer
370
18
48
1
60
0
100
AcDbLine
10
8.542588
20
8.751
30
0
11
8.525352
21
8.948784
31
0
39
0
210
0
220
0
230
1
0
LINE
5
C9
100
AcDbEntity
8
1
62
256
6
ByLayer
370
18
48
1
60
0
100
AcDbLine
10
8.49486
20
18.301602
30
0
11
5.645095
21
18.082595
31
0
39
0
210
0
220
0
230
1
0
LINE
5
CA
100
AcDbEntity
8
1
62
256
6
ByLayer
370
18
48
1
60
0
100
AcDbLine
10
2.364555
20
14.802055
30
0
11
0
21
12.4375
31
0
39
0
210
0
220
0
230
1
0
LINE
5
CB
100
AcDbEntity
8
SK1
62
256
6
ByLayer
370
18
48
1
60
0
100
AcDbLine
10
0
20
12.4375
30
0
11
-150.079865
21
12.4375
31
0
39
0
210
0
220
0
230
1
0
LINE
5
CD
100
AcDbEntity
8
SK1
62
256
6
ByLayer
370
18
48
1
60
0
100
AcDbLine
10
-150.079865
20
12.4375
30
0
11
-150.079865
21
-12.4375
31
0
39
0
210
0
220
0
230
1
0
LINE
5
CE
100
AcDbEntity
8
SK1
62
256
6
ByLayer
370
18
48
1
60
0
100
AcDbLine
10
-150.079865
20
-12.4375
30
0
11
0
21
-12.4375
31
0
39
0
210
0
220
0
230
1
0
LINE
5
CF
100
AcDbEntity
8
SK1
62
256
6
ByLayer
370
18
48
1
60
0
100
AcDbLine
10
0
20
12.4375
30
0
11
0
21
-12.4375
31
0
39
0
210
0
220
0
230
1
0
LINE
5
D0
100
AcDbEntity
8
1
62
256
6
ByLayer
370
18
48
1
60
0
100
AcDbLine
10
20.595177
20
19.910148
30
0
11
9.384379
21
19.048589
31
0
39
0
210
0
220
0
230
1
0
LINE
5
D1
100
AcDbEntity
8
1
62
256
6
ByLayer
370
18
48
1
60
0
100
AcDbLine
10
24.332992
20
8.48176
30
0
11
21.428626
21
19.321002
31
0
39
0
210
0
220
0
230
1
0
LINE
5
D2
100
AcDbEntity
8
1
62
256
6
ByLayer
370
18
48
1
60
0
100
AcDbLine
10
23.286478
20
6.894429
30
0
11
23.636397
21
7.500505
31
0
39
0
210
0
220
0
230
1
0
MTEXT
5
14A
100
AcDbEntity
8
SK6
62
256
6
ByLayer
370
18
48
1
60
0
100
AcDbMText
10
-78.529865
20
-23.316569
30
0
210
0
220
0
230
1
1
\W0.7446;DCKNR 3225P 12
40
3.5
41
0
44
1.084337
50
0
71
7
72
5
7
iso_b_vert
0
DIMENSION
5
15B
100
AcDbEntity
8
2
62
256
6
ByLayer
370
13
48
1
60
0
100
AcDbDimension
2
DimnDraft3D1
10
21.270135
20
19.9125
30
0
11
41.465613
21
4.415964
31
0
70
34
71
5
72
1
41
1
210
0
220
0
230
1
3
Standard
100
AcDb2LineAngularDimension
13
21.270135
23
19.9125
33
0
14
22.189482
24
16.481449
34
0
15
19.682635
25
19.9125
35
0
16
45.035704
26
1.676538
36
0
40
0
0
DIMENSION
5
171
100
AcDbEntity
8
SK2
62
256
6
ByLayer
370
13
48
1
60
0
100
AcDbDimension
2
DimnDraft3D2
10
-157.829865
20
12.4375
30
0
11
-157.829865
21
-5.281579
31
0
70
32
71
5
72
1
41
1
210
0
220
0
230
1
3
Standard
100
AcDbAlignedDimension
13
-152.079865
23
-12.4375
33
0
14
-152.079865
24
12.4375
34
0
50
90
100
AcDbRotatedDimension
1001
ACAD
1000
DSTYLE
1002
{
1070
    74
1070
     0
1070
   279
1070
     0
1070
   172
1070
     1
1070
   173
1070
     1
1070
   340
1005
14B
1070
    77
1070
     1
1070
    73
1070
     0
1070
   171
1070
     3
1070
   274
1070
     4
1070
   177
1070
     2
1070
   176
1070
     2
1070
   178
1070
     7
1070
    78
1070
     8
1070
    41
1041
3.175
1070
   147
1041
2.25
1070
    42
1041
2.0
1070
    44
1041
2.0
1070
   140
1041
4.5
1070
   343
1005
15C
1070
   344
1005
15C
1002
}
0
DIMENSION
5
17F
100
AcDbEntity
8
2
62
256
6
ByLayer
370
13
48
1
60
0
100
AcDbDimension
2
DimnDraft3D3
10
61.520135
20
19.9125
30
0
11
61.520135
21
-1.544079
31
0
70
32
71
5
72
1
41
1
210
0
220
0
230
1
3
Standard
100
AcDbAlignedDimension
13
2
23
-12.4375
33
0
14
23.270135
24
19.9125
34
0
50
90
100
AcDbRotatedDimension
1001
ACAD
1000
DSTYLE
1002
{
1070
    74
1070
     0
1070
   279
1070
     0
1070
   172
1070
     1
1070
   173
1070
     1
1070
   340
1005
14B
1070
    77
1070
     1
1070
    73
1070
     0
1070
   171
1070
     3
1070
   274
1070
     4
1070
   177
1070
     2
1070
   176
1070
     2
1070
   178
1070
     7
1070
    78
1070
     8
1070
    41
1041
3.175
1070
   147
1041
2.25
1070
    42
1041
2.0
1070
    44
1041
2.0
1070
   140
1041
4.5
1070
   343
1005
15C
1070
   344
1005
15C
1002
}
0
DIMENSION
5
18D
100
AcDbEntity
8
2
62
256
6
ByLayer
370
13
48
1
60
0
100
AcDbDimension
2
DimnDraft3D4
10
21.270135
20
35.6625
30
0
11
5.915988
21
35.6625
31
0
70
32
71
5
72
1
41
1
210
0
220
0
230
1
3
Standard
100
AcDbAlignedDimension
13
0
23
14.4375
33
0
14
21.270135
24
21.9125
34
0
50
0
100
AcDbRotatedDimension
1001
ACAD
1000
DSTYLE
1002
{
1070
   279
1070
     0
1070
   172
1070
     1
1070
   173
1070
     1
1070
   340
1005
14B
1070
    77
1070
     1
1070
    73
1070
     0
1070
   171
1070
     3
1070
   274
1070
     4
1070
   177
1070
     2
1070
   176
1070
     2
1070
   178
1070
     7
1070
    78
1070
     8
1070
    41
1041
3.175
1070
   147
1041
2.25
1070
    42
1041
2.0
1070
    44
1041
2.0
1070
   140
1041
4.5
1070
   343
1005
15C
1070
   344
1005
15C
1002
}
0
DIMENSION
5
19B
100
AcDbEntity
8
SK2
62
256
6
ByLayer
370
13
48
1
60
0
100
AcDbDimension
2
DimnDraft3D5
10
-150.079865
20
45.6625
30
0
11
-70.805523
21
45.6625
31
0
70
32
71
5
72
1
41
1
210
0
220
0
230
1
3
Standard
100
AcDbAlignedDimension
13
21.270135
23
21.9125
33
0
14
-150.079865
24
14.4375
34
0
50
0
100
AcDbRotatedDimension
1001
ACAD
1000
DSTYLE
1002
{
1070
   279
1070
     0
1070
   172
1070
     1
1070
   173
1070
     1
1070
   340
1005
14B
1070
    77
1070
     1
1070
    73
1070
     0
1070
   171
1070
     3
1070
   274
1070
     4
1070
   177
1070
     2
1070
   176
1070
     2
1070
   178
1070
     7
1070
    78
1070
     8
1070
    41
1041
3.175
1070
   147
1041
2.25
1070
    42
1041
2.0
1070
    44
1041
2.0
1070
   140
1041
4.5
1070
   343
1005
15C
1070
   344
1005
15C
1002
}
0
ENDSEC
0
SECTION
2
OBJECTS
0
DICTIONARY
5
205
330
0
100
AcDbDictionary
280
0
281
1
3
ACAD_GROUP
350
206
3
ACAD_MLINESTYLE
350
207
0
DICTIONARY
5
206
330
0
100
AcDbDictionary
280
0
281
1
0
DICTIONARY
5
207
330
0
100
AcDbDictionary
280
0
281
1
3
Standard
350
18
0
MLINESTYLE
5
18
330
207
100
AcDbMlineStyle
2
Standard
70
0
3

62
256
51
90
52
90
71
2
49
-0.5
62
256
6
ByLayer
49
0.5
62
256
6
ByLayer
0
RASTERVARIABLES
5
1f4
330

100
AcDbRasterVariables
90
0
70
1
71
1
72
1
0
ENDSEC
0
EOF
