0
SECTION
2
HEADER
9
$ACADVER
1
AC1015
9
$DWGCODEPAGE
3
ANSI_1252
9
$HANDSEED
5
20d
9
$ANGBASE
50
0
9
$ANGDIR
70
0
9
$ATTMODE
70
1
9
$AUNITS
70
0
9
$AUPREC
70
0
9
$CECOLOR
62
256
9
$CELTSCALE
40
1
9
$CELTYPE
6
ByLayer
9
$CELWEIGHT
370
18
9
$CLAYER
8
0
9
$CMLJUST
70
0
9
$CMLSCALE
40
1
9
$CMLSTYLE
2
Standard
9
$DIMSTYLE
2
Standard
9
$TEXTSIZE
40
0.2
9
$TEXTSTYLE
7
Standard
9
$LUNITS
70
2
9
$LUPREC
70
4
9
$EXTNAMES
290
1
9
$INSUNITS
70
4
9
$LTSCALE
40
1
9
$LWDISPLAY
290
1
9
$PDMODE
70
0
9
$PDSIZE
40
0
9
$PLINEGEN
70
0
0
ENDSEC
0
SECTION
2
CLASSES
0
CLASS
1
RASTERVARIABLES
2
AcDbRasterVariables
3
ISM
90
0
280
0
281
0
0
ENDSEC
0
SECTION
2
TABLES
0
TABLE
2
VPORT
5
203
100
AcDbSymbolTable
0
VPORT
5
1
100
AcDbSymbolTableRecord
100
AcDbViewportTableRecord
2
*Active
70
0
10
0
20
0
11
1
21
1
12
-1
22
1
13
0
23
0
14
0.5
24
0.5
15
10
25
10
16
0
26
0
36
1
17
0
27
0
37
0
0
ENDTAB
0
TABLE
2
LTYPE
5
204
100
AcDbSymbolTable
0
LTYPE
5
14
100
AcDbSymbolTableRecord
100
AcDbLinetypeTableRecord
70
0
2
ByBlock
3

72
65
73
0
40
0
0
LTYPE
5
15
100
AcDbSymbolTableRecord
100
AcDbLinetypeTableRecord
70
0
2
ByLayer
3

72
65
73
0
40
0
0
LTYPE
5
16
100
AcDbSymbolTableRecord
100
AcDbLinetypeTableRecord
70
0
2
CONTINUOUS
3
Solid line
72
65
73
0
40
0
0
LTYPE
5
6A
100
AcDbSymbolTableRecord
100
AcDbLinetypeTableRecord
70
0
2
CENTER
3
____ _ ____ _ ____ _ ____
72
65
73
4
40
47.5
49
22
74
0
49
-8.5
74
0
49
8.5
74
0
49
-8.5
74
0
0
LTYPE
5
6B
100
AcDbSymbolTableRecord
100
AcDbLinetypeTableRecord
70
0
2
DASHED
3
__ __ __ __ __ __ __ __ __
72
65
73
2
40
25.72
49
12.86
74
0
49
-12.86
74
0
0
ENDTAB
0
TABLE
2
LAYER
5
205
100
AcDbSymbolTable
0
LAYER
5
10
100
AcDbSymbolTableRecord
100
AcDbLayerTableRecord
2
0
70
0
62
7
6
CONTINUOUS
290
1
370
-3
390
0
0
LAYER
5
6D
100
AcDbSymbolTableRecord
100
AcDbLayerTableRecord
2
2
70
0
62
7
6
CONTINUOUS
290
1
370
-3
390
0
0
LAYER
5
6F
100
AcDbSymbolTableRecord
100
AcDbLayerTableRecord
2
80
70
0
62
-6
6
CONTINUOUS
290
1
370
-3
390
0
0
LAYER
5
71
100
AcDbSymbolTableRecord
100
AcDbLayerTableRecord
2
81
70
0
62
-3
6
CONTINUOUS
290
1
370
-3
390
0
0
LAYER
5
73
100
AcDbSymbolTableRecord
100
AcDbLayerTableRecord
2
1
70
0
62
4
6
CONTINUOUS
290
1
370
-3
390
0
0
LAYER
5
1f0
100
AcDbSymbolTableRecord
100
AcDbLayerTableRecord
2
SK1
70
0
62
4
6
CONTINUOUS
290
1
370
-3
390
0
0
LAYER
5
1f1
100
AcDbSymbolTableRecord
100
AcDbLayerTableRecord
2
SK6
70
0
62
5
6
CONTINUOUS
290
1
370
-3
390
0
0
LAYER
5
1f2
100
AcDbSymbolTableRecord
100
AcDbLayerTableRecord
2
SK2
70
0
62
7
6
CONTINUOUS
290
1
370
-3
390
0
0
ENDTAB
0
TABLE
2
STYLE
5
206
100
AcDbSymbolTable
0
STYLE
5
11
100
AcDbSymbolTableRecord
100
AcDbTextStyleTableRecord
2
Standard
3
txt
70
0
71
0
40
0
41
1
42
0
50
0
0
STYLE
5
146
100
AcDbSymbolTableRecord
100
AcDbTextStyleTableRecord
2
iso_b_vert
3
simplex.shx
70
0
71
0
40
0
41
1
42
0
50
0
0
STYLE
5
147
100
AcDbSymbolTableRecord
100
AcDbTextStyleTableRecord
2
DWGDirectTextStyle
3
simplex
70
0
71
0
40
0
41
1
42
0
50
0
0
ENDTAB
0
TABLE
2
DIMSTYLE
5
207
100
AcDbSymbolTable
100
AcDbDimStyleTable
0
DIMSTYLE
105
27
100
AcDbSymbolTableRecord
100
AcDbDimStyleTableRecord
2
Standard
70
0
3
<>
41
0.18
42
0.0625
44
0.18
140
0.18
147
0.09
73
0
74
0
77
1
271
2
275
0
278
52
280
0
340
11
0
ENDTAB
0
TABLE
2
VIEW
5
208
100
AcDbSymbolTable
0
ENDTAB
0
TABLE
2
UCS
5
209
100
AcDbSymbolTable
0
ENDTAB
0
TABLE
2
APPID
5
20a
100
AcDbSymbolTable
0
APPID
5
12
100
AcDbSymbolTableRecord
100
AcDbRegAppTableRecord
2
ACAD
70
0
0
ENDTAB
0
TABLE
2
BLOCK_RECORD
5
20b
100
AcDbSymbolTable
0
BLOCK_RECORD
5
1F
100
AcDbSymbolTableRecord
100
AcDbBlockTableRecord
2
*Model_Space
340
0
70
0
0
BLOCK_RECORD
5
1B
100
AcDbSymbolTableRecord
100
AcDbBlockTableRecord
2
*Paper_Space
340
0
70
0
0
BLOCK_RECORD
5
23
100
AcDbSymbolTableRecord
100
AcDbBlockTableRecord
2
*Paper_Space0
340
0
70
0
0
BLOCK_RECORD
5
149
100
AcDbSymbolTableRecord
100
AcDbBlockTableRecord
2
DimnDraft3D1
340
0
70
0
0
BLOCK_RECORD
5
157
100
AcDbSymbolTableRecord
100
AcDbBlockTableRecord
2
_CLOSED
340
0
70
0
0
BLOCK_RECORD
5
15E
100
AcDbSymbolTableRecord
100
AcDbBlockTableRecord
2
DimnDraft3D2
340
0
70
0
0
BLOCK_RECORD
5
16D
100
AcDbSymbolTableRecord
100
AcDbBlockTableRecord
2
DimnDraft3D3
340
0
70
0
0
BLOCK_RECORD
5
17B
100
AcDbSymbolTableRecord
100
AcDbBlockTableRecord
2
DimnDraft3D4
340
0
70
0
0
BLOCK_RECORD
5
189
100
AcDbSymbolTableRecord
100
AcDbBlockTableRecord
2
DimnDraft3D5
340
0
70
0
0
ENDTAB
0
ENDSEC
0
SECTION
2
BLOCKS
0
BLOCK
5
20
100
AcDbEntity
8
0
100
AcDbBlockBegin
2
*Model_Space
70
0
10
0
20
0
30
0
3
*Model_Space
0
ENDBLK
5
21
100
AcDbEntity
8
0
100
AcDbBlockEnd
0
BLOCK
5
1C
100
AcDbEntity
8
0
100
AcDbBlockBegin
2
*Paper_Space
70
0
10
0
20
0
30
0
3
*Paper_Space
0
ENDBLK
5
1D
100
AcDbEntity
8
0
100
AcDbBlockEnd
0
BLOCK
5
24
100
AcDbEntity
8
0
100
AcDbBlockBegin
2
*Paper_Space0
70
0
10
0
20
0
30
0
3
*Paper_Space0
0
ENDBLK
5
25
100
AcDbEntity
8
0
100
AcDbBlockEnd
0
BLOCK
5
154
100
AcDbEntity
8
0
100
AcDbBlockBegin
2
DimnDraft3D1
70
0
10
0
20
0
30
0
3
DimnDraft3D1
0
MTEXT
5
14A
100
AcDbEntity
8
2
62
256
6
ByLayer
370
18
48
1
60
0
100
AcDbMText
10
18.430892
20
23.153389
30
0
210
0
220
0
230
1
1
\W0.7399;75%%d
40
4.5
41
0
44
1.084337
50
37.5
71
7
72
5
7
iso_b_vert
0
LINE
5
14B
100
AcDbEntity
8
2
62
256
6
ByLayer
370
13
48
1
60
0
100
AcDbLine
10
34.188719
20
9.4125
30
0
11
34.188719
21
30.368344
31
0
39
0
210
0
220
0
230
1
0
LINE
5
14C
100
AcDbEntity
8
2
62
256
6
ByLayer
370
13
48
1
60
0
100
AcDbLine
10
28.825816
20
8.849486
30
0
11
12.015076
21
13.35391
31
0
39
0
210
0
220
0
230
1
0
ARC
5
14D
100
AcDbEntity
8
2
62
256
6
ByLayer
370
13
48
1
60
0
100
AcDbCircle
39
0
10
34.188719
20
7.4125
30
0
40
20.9558441220057
210
0
220
0
230
1
100
AcDbArc
50
90
51
165
0
LINE
5
14E
100
AcDbEntity
8
2
62
256
6
ByLayer
370
13
48
1
60
0
100
AcDbLine
10
34.188719
20
28.368344
30
0
11
31.031788
21
27.830644
31
0
39
0
210
0
220
0
230
1
0
LINE
5
14F
100
AcDbEntity
8
2
62
256
6
ByLayer
370
13
48
1
60
0
100
AcDbLine
10
34.188719
20
28.368344
30
0
11
31.000187
21
28.66604
31
0
39
0
210
0
220
0
230
1
0
LINE
5
150
100
AcDbEntity
8
2
62
256
6
ByLayer
370
13
48
1
60
0
100
AcDbLine
10
31.031788
20
27.830644
30
0
11
31.000187
21
28.66604
31
0
39
0
210
0
220
0
230
1
0
LINE
5
151
100
AcDbEntity
8
2
62
256
6
ByLayer
370
13
48
1
60
0
100
AcDbLine
10
13.946928
20
12.836272
30
0
11
14.484628
21
15.993203
31
0
39
0
210
0
220
0
230
1
0
LINE
5
152
100
AcDbEntity
8
2
62
256
6
ByLayer
370
13
48
1
60
0
100
AcDbLine
10
13.946928
20
12.836272
30
0
11
15.283382
21
15.746469
31
0
39
0
210
0
220
0
230
1
0
LINE
5
153
100
AcDbEntity
8
2
62
256
6
ByLayer
370
13
48
1
60
0
100
AcDbLine
10
14.484628
20
15.993203
30
0
11
15.283382
21
15.746469
31
0
39
0
210
0
220
0
230
1
0
ENDBLK
5
155
100
AcDbEntity
8
0
100
AcDbBlockEnd
0
BLOCK
5
158
100
AcDbEntity
8
0
100
AcDbBlockBegin
2
_CLOSED
70
0
10
0
20
0
30
0
3
_CLOSED
0
LINE
5
15A
100
AcDbEntity
8
0
62
256
6
ByLayer
370
-2
48
1
60
0
100
AcDbLine
10
-1
20
0.166667
30
0
11
0
21
0
31
0
39
0
210
0
220
0
230
1
0
LINE
5
15B
100
AcDbEntity
8
0
62
256
6
ByLayer
370
-2
48
1
60
0
100
AcDbLine
10
0
20
0
30
0
11
-1
21
-0.166667
31
0
39
0
210
0
220
0
230
1
0
LINE
5
15C
100
AcDbEntity
8
0
62
256
6
ByLayer
370
-2
48
1
60
0
100
AcDbLine
10
-1
20
0.166667
30
0
11
-1
21
-0.166667
31
0
39
0
210
0
220
0
230
1
0
LINE
5
15D
100
AcDbEntity
8
0
62
256
6
ByLayer
370
-2
48
1
60
0
100
AcDbLine
10
0
20
0
30
0
11
-1
21
0
31
0
39
0
210
0
220
0
230
1
0
ENDBLK
5
159
100
AcDbEntity
8
0
100
AcDbBlockEnd
0
BLOCK
5
16A
100
AcDbEntity
8
0
100
AcDbBlockBegin
2
DimnDraft3D2
70
0
10
0
20
0
30
0
3
DimnDraft3D2
0
MTEXT
5
15F
100
AcDbEntity
8
SK2
62
256
6
ByLayer
370
18
48
1
60
0
100
AcDbMText
10
-101.036281
20
-4.156579
30
0
210
0
220
0
230
1
1
\W0.7346;20.0
40
4.5
41
0
44
1.084337
50
90
71
7
72
5
7
iso_b_vert
0
LINE
5
161
100
AcDbEntity
8
SK2
62
256
6
ByLayer
370
13
48
1
60
0
100
AcDbLine
10
-94.161281
20
-9.9375
30
0
11
-101.911281
21
-9.9375
31
0
39
0
210
0
220
0
230
1
0
LINE
5
162
100
AcDbEntity
8
SK2
62
256
6
ByLayer
370
13
48
1
60
0
100
AcDbLine
10
-94.161281
20
9.9375
30
0
11
-101.911281
21
9.9375
31
0
39
0
210
0
220
0
230
1
0
LINE
5
163
100
AcDbEntity
8
SK2
62
256
6
ByLayer
370
13
48
1
60
0
100
AcDbLine
10
-99.911281
20
-21.1875
30
0
11
-99.911281
21
21.1875
31
0
39
0
210
0
220
0
230
1
0
LINE
5
164
100
AcDbEntity
8
SK2
62
256
6
ByLayer
370
13
48
1
60
0
100
AcDbLine
10
-99.911281
20
-9.9375
30
0
11
-99.493284
21
-13.112498
31
0
39
0
210
0
220
0
230
1
0
LINE
5
165
100
AcDbEntity
8
SK2
62
256
6
ByLayer
370
13
48
1
60
0
100
AcDbLine
10
-99.911281
20
-9.9375
30
0
11
-100.329278
21
-13.112502
31
0
39
0
210
0
220
0
230
1
0
LINE
5
166
100
AcDbEntity
8
SK2
62
256
6
ByLayer
370
13
48
1
60
0
100
AcDbLine
10
-99.493284
20
-13.112498
30
0
11
-100.329278
21
-13.112502
31
0
39
0
210
0
220
0
230
1
0
LINE
5
167
100
AcDbEntity
8
SK2
62
256
6
ByLayer
370
13
48
1
60
0
100
AcDbLine
10
-99.911281
20
9.9375
30
0
11
-100.329278
21
13.112498
31
0
39
0
210
0
220
0
230
1
0
LINE
5
168
100
AcDbEntity
8
SK2
62
256
6
ByLayer
370
13
48
1
60
0
100
AcDbLine
10
-99.911281
20
9.9375
30
0
11
-99.493284
21
13.112502
31
0
39
0
210
0
220
0
230
1
0
LINE
5
169
100
AcDbEntity
8
SK2
62
256
6
ByLayer
370
13
48
1
60
0
100
AcDbLine
10
-100.329278
20
13.112498
30
0
11
-99.493284
21
13.112502
31
0
39
0
210
0
220
0
230
1
0
ENDBLK
5
16B
100
AcDbEntity
8
0
100
AcDbBlockEnd
0
BLOCK
5
178
100
AcDbEntity
8
0
100
AcDbBlockBegin
2
DimnDraft3D3
70
0
10
0
20
0
30
0
3
DimnDraft3D3
0
MTEXT
5
16E
100
AcDbEntity
8
2
62
256
6
ByLayer
370
18
48
1
60
0
100
AcDbMText
10
55.313719
20
-4.856579
30
0
210
0
220
0
230
1
1
\W0.6563;17.0
40
4.5
41
0
44
1.084337
50
90
71
7
72
5
7
iso_b_vert
0
LINE
5
16F
100
AcDbEntity
8
2
62
256
6
ByLayer
370
13
48
1
60
0
100
AcDbLine
10
2
20
-9.9375
30
0
11
58.438719
21
-9.9375
31
0
39
0
210
0
220
0
230
1
0
LINE
5
170
100
AcDbEntity
8
2
62
256
6
ByLayer
370
13
48
1
60
0
100
AcDbLine
10
36.188719
20
7.4125
30
0
11
58.438719
21
7.4125
31
0
39
0
210
0
220
0
230
1
0
LINE
5
171
100
AcDbEntity
8
2
62
256
6
ByLayer
370
13
48
1
60
0
100
AcDbLine
10
56.438719
20
-21.1875
30
0
11
56.438719
21
18.6625
31
0
39
0
210
0
220
0
230
1
0
LINE
5
172
100
AcDbEntity
8
2
62
256
6
ByLayer
370
13
48
1
60
0
100
AcDbLine
10
56.438719
20
-9.9375
30
0
11
56.856716
21
-13.112498
31
0
39
0
210
0
220
0
230
1
0
LINE
5
173
100
AcDbEntity
8
2
62
256
6
ByLayer
370
13
48
1
60
0
100
AcDbLine
10
56.438719
20
-9.9375
30
0
11
56.020722
21
-13.112502
31
0
39
0
210
0
220
0
230
1
0
LINE
5
174
100
AcDbEntity
8
2
62
256
6
ByLayer
370
13
48
1
60
0
100
AcDbLine
10
56.856716
20
-13.112498
30
0
11
56.020722
21
-13.112502
31
0
39
0
210
0
220
0
230
1
0
LINE
5
175
100
AcDbEntity
8
2
62
256
6
ByLayer
370
13
48
1
60
0
100
AcDbLine
10
56.438719
20
7.4125
30
0
11
56.020722
21
10.587498
31
0
39
0
210
0
220
0
230
1
0
LINE
5
176
100
AcDbEntity
8
2
62
256
6
ByLayer
370
13
48
1
60
0
100
AcDbLine
10
56.438719
20
7.4125
30
0
11
56.856716
21
10.587502
31
0
39
0
210
0
220
0
230
1
0
LINE
5
177
100
AcDbEntity
8
2
62
256
6
ByLayer
370
13
48
1
60
0
100
AcDbLine
10
56.020722
20
10.587498
30
0
11
56.856716
21
10.587502
31
0
39
0
210
0
220
0
230
1
0
ENDBLK
5
179
100
AcDbEntity
8
0
100
AcDbBlockEnd
0
BLOCK
5
186
100
AcDbEntity
8
0
100
AcDbBlockBegin
2
DimnDraft3D4
70
0
10
0
20
0
30
0
3
DimnDraft3D4
0
MTEXT
5
17C
100
AcDbEntity
8
2
62
256
6
ByLayer
370
18
48
1
60
0
100
AcDbMText
10
12.700938
20
38.2875
30
0
210
0
220
0
230
1
1
\W0.7640;34.2
40
4.5
41
0
44
1.084337
50
0
71
7
72
5
7
iso_b_vert
0
LINE
5
17D
100
AcDbEntity
8
2
62
256
6
ByLayer
370
13
48
1
60
0
100
AcDbLine
10
0
20
11.9375
30
0
11
0
21
39.1625
31
0
39
0
210
0
220
0
230
1
0
LINE
5
17E
100
AcDbEntity
8
2
62
256
6
ByLayer
370
13
48
1
60
0
100
AcDbLine
10
34.188719
20
9.4125
30
0
11
34.188719
21
39.1625
31
0
39
0
210
0
220
0
230
1
0
LINE
5
17F
100
AcDbEntity
8
2
62
256
6
ByLayer
370
13
48
1
60
0
100
AcDbLine
10
0
20
37.1625
30
0
11
34.188719
21
37.1625
31
0
39
0
210
0
220
0
230
1
0
LINE
5
180
100
AcDbEntity
8
2
62
256
6
ByLayer
370
13
48
1
60
0
100
AcDbLine
10
0
20
37.1625
30
0
11
3.174998
21
37.580497
31
0
39
0
210
0
220
0
230
1
0
LINE
5
181
100
AcDbEntity
8
2
62
256
6
ByLayer
370
13
48
1
60
0
100
AcDbLine
10
0
20
37.1625
30
0
11
3.175002
21
36.744503
31
0
39
0
210
0
220
0
230
1
0
LINE
5
182
100
AcDbEntity
8
2
62
256
6
ByLayer
370
13
48
1
60
0
100
AcDbLine
10
3.174998
20
37.580497
30
0
11
3.175002
21
36.744503
31
0
39
0
210
0
220
0
230
1
0
LINE
5
183
100
AcDbEntity
8
2
62
256
6
ByLayer
370
13
48
1
60
0
100
AcDbLine
10
34.188719
20
37.1625
30
0
11
31.013721
21
36.744503
31
0
39
0
210
0
220
0
230
1
0
LINE
5
184
100
AcDbEntity
8
2
62
256
6
ByLayer
370
13
48
1
60
0
100
AcDbLine
10
34.188719
20
37.1625
30
0
11
31.013717
21
37.580497
31
0
39
0
210
0
220
0
230
1
0
LINE
5
185
100
AcDbEntity
8
2
62
256
6
ByLayer
370
13
48
1
60
0
100
AcDbLine
10
31.013721
20
36.744503
30
0
11
31.013717
21
37.580497
31
0
39
0
210
0
220
0
230
1
0
ENDBLK
5
187
100
AcDbEntity
8
0
100
AcDbBlockEnd
0
BLOCK
5
194
100
AcDbEntity
8
0
100
AcDbBlockBegin
2
DimnDraft3D5
70
0
10
0
20
0
30
0
3
DimnDraft3D5
0
MTEXT
5
18A
100
AcDbEntity
8
SK2
62
256
6
ByLayer
370
18
48
1
60
0
100
AcDbMText
10
-34.261939
20
48.2875
30
0
210
0
220
0
230
1
1
\W0.6864;125.0
40
4.5
41
0
44
1.084337
50
0
71
7
72
5
7
iso_b_vert
0
LINE
5
18B
100
AcDbEntity
8
SK2
62
256
6
ByLayer
370
13
48
1
60
0
100
AcDbLine
10
34.188719
20
9.4125
30
0
11
34.188719
21
49.1625
31
0
39
0
210
0
220
0
230
1
0
LINE
5
18C
100
AcDbEntity
8
SK2
62
256
6
ByLayer
370
13
48
1
60
0
100
AcDbLine
10
-92.161281
20
11.9375
30
0
11
-92.161281
21
49.1625
31
0
39
0
210
0
220
0
230
1
0
LINE
5
18D
100
AcDbEntity
8
SK2
62
256
6
ByLayer
370
13
48
1
60
0
100
AcDbLine
10
34.188719
20
47.1625
30
0
11
-92.161281
21
47.1625
31
0
39
0
210
0
220
0
230
1
0
LINE
5
18E
100
AcDbEntity
8
SK2
62
256
6
ByLayer
370
13
48
1
60
0
100
AcDbLine
10
34.188719
20
47.1625
30
0
11
31.013721
21
46.744503
31
0
39
0
210
0
220
0
230
1
0
LINE
5
18F
100
AcDbEntity
8
SK2
62
256
6
ByLayer
370
13
48
1
60
0
100
AcDbLine
10
34.188719
20
47.1625
30
0
11
31.013717
21
47.580497
31
0
39
0
210
0
220
0
230
1
0
LINE
5
190
100
AcDbEntity
8
SK2
62
256
6
ByLayer
370
13
48
1
60
0
100
AcDbLine
10
31.013721
20
46.744503
30
0
11
31.013717
21
47.580497
31
0
39
0
210
0
220
0
230
1
0
LINE
5
191
100
AcDbEntity
8
SK2
62
256
6
ByLayer
370
13
48
1
60
0
100
AcDbLine
10
-92.161281
20
47.1625
30
0
11
-88.986283
21
47.580497
31
0
39
0
210
0
220
0
230
1
0
LINE
5
192
100
AcDbEntity
8
SK2
62
256
6
ByLayer
370
13
48
1
60
0
100
AcDbLine
10
-92.161281
20
47.1625
30
0
11
-88.986279
21
46.744503
31
0
39
0
210
0
220
0
230
1
0
LINE
5
193
100
AcDbEntity
8
SK2
62
256
6
ByLayer
370
13
48
1
60
0
100
AcDbLine
10
-88.986283
20
47.580497
30
0
11
-88.986279
21
46.744503
31
0
39
0
210
0
220
0
230
1
0
ENDBLK
5
195
100
AcDbEntity
8
0
100
AcDbBlockEnd
0
ENDSEC
0
SECTION
2
ENTITIES
0
ELLIPSE
5
D2
100
AcDbEntity
8
1
62
256
6
ByLayer
370
18
48
1
60
0
100
AcDbEllipse
10
7.697762
20
-9.945099
30
0
11
-0.830067170215568
21
4.01022069654698E-05
31
0
210
0
220
0
230
1
40
0.004209
41
-2.99762355091506
42
-1.42682722411994
0
ELLIPSE
5
D3
100
AcDbEntity
8
1
62
256
6
ByLayer
370
18
48
1
60
0
100
AcDbEllipse
10
23.476132
20
-2.944492
30
0
11
1.18448901896904
21
-2.05159516186177
31
0
210
0
220
0
230
1
40
0.989133
41
-0.027956329202966
42
0.786190306996526
0
ELLIPSE
5
D4
100
AcDbEntity
8
1
62
256
6
ByLayer
370
18
48
1
60
0
100
AcDbEllipse
10
22.04243
20
-3.77224
30
0
11
1.17412729598983
21
-2.03364813120783
31
0
210
0
220
0
230
1
40
0.989133
41
0.335622516229935
42
0.890439249670492
0
ELLIPSE
5
D5
100
AcDbEntity
8
1
62
256
6
ByLayer
370
18
48
1
60
0
100
AcDbEllipse
10
23.447237
20
-2.881756
30
0
11
-2.21966408062905
21
1.35203116713444
31
0
210
0
220
0
230
1
40
0.525221
41
-2.67505977376916
42
-2.60255850060661
0
ELLIPSE
5
D6
100
AcDbEntity
8
1
62
256
6
ByLayer
370
18
48
1
60
0
100
AcDbEllipse
10
22.061529
20
-3.761214
30
0
11
1.24912729598983
21
-2.16355194177549
31
0
210
0
220
0
230
1
40
0.989133
41
0.408366737789769
42
0.824549501887015
0
ELLIPSE
5
D7
100
AcDbEntity
8
1
62
256
6
ByLayer
370
18
48
1
60
0
100
AcDbEllipse
10
23.210125
20
-2.935038
30
0
11
1.19771302649505
21
-2.0744998147765
31
0
210
0
220
0
230
1
40
0.989133
41
-0.874342770180208
42
-0.605402029676535
0
ELLIPSE
5
D8
100
AcDbEntity
8
1
62
256
6
ByLayer
370
18
48
1
60
0
100
AcDbEllipse
10
22.427743
20
-3.52606
30
0
11
-2.01036095480571
21
1.51870403212971
31
0
210
0
220
0
230
1
40
0.848528
41
-2.67796072704872
42
-2.66173276124142
0
ELLIPSE
5
D9
100
AcDbEntity
8
1
62
256
6
ByLayer
370
18
48
1
60
0
100
AcDbEllipse
10
22.411678
20
-3.559055
30
0
11
1.23312772246983
21
-2.13583986753943
31
0
210
0
220
0
230
1
40
0.989133
41
0.836113817479755
42
0.83791348237662
0
ELLIPSE
5
DA
100
AcDbEntity
8
1
62
256
6
ByLayer
370
18
48
1
60
0
100
AcDbEllipse
10
23.407909
20
-2.952274
30
0
11
1.19771302649505
21
-2.0744998147765
31
0
210
0
220
0
230
1
40
0.989133
41
-0.60540202967653
42
-0.00106588010656986
0
ELLIPSE
5
DB
100
AcDbEntity
8
1
62
256
6
ByLayer
370
18
48
1
60
0
100
AcDbEllipse
10
28.033634
20
2.899334
30
0
11
-1.55469798806215
21
1.59254046504224
31
0
210
0
220
0
230
1
40
0.791036
41
-2.02625426823075
42
-1.1710429347522
0
ELLIPSE
5
DC
100
AcDbEntity
8
1
62
256
6
ByLayer
370
18
48
1
60
0
100
AcDbEllipse
10
10.542888
20
0.799207
30
0
11
5.30084309946888
21
1.46665007238032
31
0
210
0
220
0
230
1
40
0.037276
41
1.97471476035272
42
2.41648249963875
0
ELLIPSE
5
DD
100
AcDbEntity
8
1
62
256
6
ByLayer
370
18
48
1
60
0
100
AcDbEllipse
10
7.320001
20
1.650183
30
0
11
-0.447023416203217
21
-1.94940248931974
31
0
210
0
220
0
230
1
40
0.790712
41
-2.6018924340568
42
-1.1892169397972
0
ELLIPSE
5
DE
100
AcDbEntity
8
1
62
256
6
ByLayer
370
18
48
1
60
0
100
AcDbEllipse
10
11.934622
20
-5.581476
30
0
11
-2.48993660176657
21
-3.5815069947054
31
0
210
0
220
0
230
1
40
0.518425
41
0.193284479713862
42
0.552900213059283
0
ELLIPSE
5
DF
100
AcDbEntity
8
1
62
256
6
ByLayer
370
18
48
1
60
0
100
AcDbEllipse
10
9.696204
20
2.508731
30
0
11
-3.94676944449828
21
1.11041793132046
31
0
210
0
220
0
230
1
40
0.480311
41
-0.676818616307556
42
-0.317202882940485
0
ELLIPSE
5
E0
100
AcDbEntity
8
1
62
256
6
ByLayer
370
18
48
1
60
0
100
AcDbEllipse
10
12.513666
20
-6.32368
30
0
11
-5.24634805809793
21
-1.6625466337989
31
0
210
0
220
0
230
1
40
0.274646
41
-0.614900833066077
42
-0.56190852977793
0
ELLIPSE
5
E1
100
AcDbEntity
8
1
62
256
6
ByLayer
370
18
48
1
60
0
100
AcDbEllipse
10
13.102221
20
-8.07375
30
0
11
-3.31184056244142
21
-1.15073777053268
31
0
210
0
220
0
230
1
40
0.409411
41
-0.631177168684924
42
0.0920409377178539
0
ELLIPSE
5
E2
100
AcDbEntity
8
1
62
256
6
ByLayer
370
18
48
1
60
0
100
AcDbEllipse
10
28.033634
20
2.899334
30
0
11
-0.0190641654538998
21
2.30222641166092
31
0
210
0
220
0
230
1
40
0.801371
41
-2.25627953469393
42
-1.40106820121723
0
ELLIPSE
5
E3
100
AcDbEntity
8
1
62
256
6
ByLayer
370
18
48
1
60
0
100
AcDbEllipse
10
14.876561
20
-0.605974
30
0
11
-1.97713151778731
21
3.64876019510354
31
0
210
0
220
0
230
1
40
0.9865
41
3.05273537020984
42
-0.229639942064433
0
ELLIPSE
5
E4
100
AcDbEntity
8
1
62
256
6
ByLayer
370
18
48
1
60
0
100
AcDbEllipse
10
7.193899
20
3.114815
30
0
11
1.42925169960529
21
-2.637657972364
31
0
210
0
220
0
230
1
40
0.9865
41
-0.229639942064432
42
-0.0891024469650673
0
ELLIPSE
5
E5
100
AcDbEntity
8
1
62
256
6
ByLayer
370
18
48
1
60
0
100
AcDbEllipse
10
11.928575
20
-4.209016
30
0
11
5.30084309946888
21
1.46665007238032
31
0
210
0
220
0
230
1
40
0.037276
41
1.97471476035271
42
2.41648249963874
0
ELLIPSE
5
E6
100
AcDbEntity
8
1
62
256
6
ByLayer
370
18
48
1
60
0
100
AcDbEllipse
10
12.846616
20
-1.154479
30
0
11
-1.23868480632458
21
2.28597024271547
31
0
210
0
220
0
230
1
40
0.9865
41
1.24028196674937
42
1.44654714262634
0
ELLIPSE
5
E7
100
AcDbEntity
8
1
62
256
6
ByLayer
370
18
48
1
60
0
100
AcDbEllipse
10
5.606677
20
-10.625672
30
0
11
6.74652758114221
21
1.86664554666587
31
0
210
0
220
0
230
1
40
0.037276
41
-0.820810513393125
42
-0.806029476653152
0
ELLIPSE
5
E8
100
AcDbEntity
8
1
62
256
6
ByLayer
370
18
48
1
60
0
100
AcDbEllipse
10
6.849132
20
1.283321
30
0
11
-2.29716956581442
21
1.93485010889892
31
0
210
0
220
0
230
1
40
0.994282
41
-0.084443908271811
42
0.967245154792032
0
ELLIPSE
5
E9
100
AcDbEntity
8
1
62
256
6
ByLayer
370
18
48
1
60
0
100
AcDbEllipse
10
9.08755
20
-6.806886
30
0
11
-2.29716956577919
21
1.93485010894066
31
0
210
0
220
0
230
1
40
0.994282
41
0.967245154810917
42
2.01893421787437
0
ELLIPSE
5
EA
100
AcDbEntity
8
1
62
256
6
ByLayer
370
18
48
1
60
0
100
AcDbEllipse
10
9.957798
20
2.913871
30
0
11
-5.35293272033131
21
-1.27786297844871
31
0
210
0
220
0
230
1
40
0.200196
41
0.558883257812567
42
0.611875559585587
0
ELLIPSE
5
EB
100
AcDbEntity
8
1
62
256
6
ByLayer
370
18
48
1
60
0
100
AcDbEllipse
10
9.549182
20
4.767829
30
0
11
-3.42905569191323
21
-0.728975838409865
31
0
210
0
220
0
230
1
40
0.335188
41
-0.0981836150456995
42
0.625034491351003
0
ELLIPSE
5
EC
100
AcDbEntity
8
1
62
256
6
ByLayer
370
18
48
1
60
0
100
AcDbEllipse
10
9.561898
20
-6.452597
30
0
11
1.49594196942037
21
-1.32746285225867
31
0
210
0
220
0
230
1
40
0.766835
41
-2.05467562946532
42
-0.642000135205723
0
ELLIPSE
5
ED
100
AcDbEntity
8
1
62
256
6
ByLayer
370
18
48
1
60
0
100
AcDbEllipse
10
13.871953
20
0.806819
30
0
11
0.212500000000001
21
-0.368060796608386
31
0
210
0
220
0
230
1
40
0.989133
41
-1.15020834827181
42
-1.9321993752583E-05
0
ELLIPSE
5
EE
100
AcDbEntity
8
1
62
256
6
ByLayer
370
18
48
1
60
0
100
AcDbEllipse
10
14.809557
20
0.601205
30
0
11
-0.189999999999986
21
0.329089653438095
31
0
210
0
220
0
230
1
40
0.989133
41
-2.19740589946836
42
0.637535989716596
0
ELLIPSE
5
EF
100
AcDbEntity
8
1
62
256
6
ByLayer
370
18
48
1
60
0
100
AcDbEllipse
10
14.075676
20
0.924439
30
0
11
0.212500000000001
21
-0.368060796608386
31
0
210
0
220
0
230
1
40
0.989133
41
-1.15020834827183
42
0.637535989716546
0
ELLIPSE
5
F0
100
AcDbEntity
8
1
62
256
6
ByLayer
370
18
48
1
60
0
100
AcDbEllipse
10
14.194088
20
-0.784423
30
0
11
2.00000000000001
21
-3.46410161513775
31
0
210
0
220
0
230
1
40
0.989133
41
3.14156346650318
42
-0.528343043247713
0
ELLIPSE
5
F1
100
AcDbEntity
8
1
62
256
6
ByLayer
370
18
48
1
60
0
100
AcDbEllipse
10
14.194088
20
-0.784423
30
0
11
2.00000000000001
21
-3.46410161513775
31
0
210
0
220
0
230
1
40
0.989133
41
-0.5283430432477
42
-2.52544582518893E-16
0
ELLIPSE
5
F2
100
AcDbEntity
8
1
62
256
6
ByLayer
370
18
48
1
60
0
100
AcDbEllipse
10
14.189789
20
-1.817191
30
0
11
-0.189999999999986
21
0.329089653438095
31
0
210
0
220
0
230
1
40
0.989133
41
0.944186754121423
42
-2.50405666387316
0
ELLIPSE
5
F3
100
AcDbEntity
8
1
62
256
6
ByLayer
370
18
48
1
60
0
100
AcDbEllipse
10
13.610538
20
0.276365
30
0
11
-0.189999999999986
21
0.329089653438095
31
0
210
0
220
0
230
1
40
0.989133
41
-1.15020834827179
42
1.68473354091321
0
ELLIPSE
5
F4
100
AcDbEntity
8
1
62
256
6
ByLayer
370
18
48
1
60
0
100
AcDbEllipse
10
14.499673
20
-0.607993
30
0
11
-1.14999999999992
21
1.99185842870426
31
0
210
0
220
0
230
1
40
0.989133
41
0
42
6.28318530717959
0
ELLIPSE
5
F5
100
AcDbEntity
8
1
62
256
6
ByLayer
370
18
48
1
60
0
100
AcDbEllipse
10
13.986065
20
-1.934811
30
0
11
-0.189999999999986
21
0.329089653438095
31
0
210
0
220
0
230
1
40
0.989133
41
-2.82334085438501
42
-2.50405666387319
0
ELLIPSE
5
F6
100
AcDbEntity
8
1
62
256
6
ByLayer
370
18
48
1
60
0
100
AcDbEllipse
10
14.29595
20
-0.725613
30
0
11
0.575000000000002
21
-0.995929214352102
31
0
210
0
220
0
230
1
40
0.989133
41
-0.962731283275614
42
-0.52834361307747
0
ELLIPSE
5
F7
100
AcDbEntity
8
1
62
256
6
ByLayer
370
18
48
1
60
0
100
AcDbEllipse
10
14.29595
20
-0.725613
30
0
11
0.575000000000002
21
-0.995929214352102
31
0
210
0
220
0
230
1
40
0.989133
41
-2.2185822077684
42
-1.55364423813477
0
ELLIPSE
5
F8
100
AcDbEntity
8
1
62
256
6
ByLayer
370
18
48
1
60
0
100
AcDbEllipse
10
14.29595
20
-0.725613
30
0
11
0.575000000000002
21
-0.995929214352102
31
0
210
0
220
0
230
1
40
0.989133
41
6.90321098116265E-05
42
-2.71642669197062
0
ELLIPSE
5
F9
100
AcDbEntity
8
1
62
256
6
ByLayer
370
18
48
1
60
0
100
AcDbEllipse
10
14.29595
20
-0.725613
30
0
11
0.575000000000002
21
-0.995929214352102
31
0
210
0
220
0
230
1
40
0.989133
41
-0.528342736416282
42
-0.256265259497326
0
ELLIPSE
5
FA
100
AcDbEntity
8
1
62
256
6
ByLayer
370
18
48
1
60
0
100
AcDbEllipse
10
15.698692
20
-0.283154
30
0
11
-0.189999999999986
21
0.329089653438095
31
0
210
0
220
0
230
1
40
0.989133
41
3.03858185651463
42
-0.409661561479955
0
ELLIPSE
5
FB
100
AcDbEntity
8
1
62
256
6
ByLayer
370
18
48
1
60
0
100
AcDbEllipse
10
13.406815
20
0.158745
30
0
11
-0.189999999999986
21
0.329089653438095
31
0
210
0
220
0
230
1
40
0.989133
41
-1.15020834827173
42
-0.318242469491241
0
ELLIPSE
5
FC
100
AcDbEntity
8
1
62
256
6
ByLayer
370
18
48
1
60
0
100
AcDbEllipse
10
16.02815
20
-1.017548
30
0
11
0.212500000000001
21
-0.368060796608386
31
0
210
0
220
0
230
1
40
0.989133
41
3.03858185651462
42
-1.45685911267662
0
ELLIPSE
5
FD
100
AcDbEntity
8
1
62
256
6
ByLayer
370
18
48
1
60
0
100
AcDbEllipse
10
12.971196
20
-0.198439
30
0
11
0.212500000000001
21
-0.368060796608386
31
0
210
0
220
0
230
1
40
0.989133
41
-0.103010797075245
42
1.6847335409132
0
ELLIPSE
5
FE
100
AcDbEntity
8
1
62
256
6
ByLayer
370
18
48
1
60
0
100
AcDbEllipse
10
14.719947
20
-2.258045
30
0
11
0.212500000000001
21
-0.368060796608386
31
0
210
0
220
0
230
1
40
0.989133
41
3.14157508544015
42
-2.50405666387326
0
ELLIPSE
5
FF
100
AcDbEntity
8
1
62
256
6
ByLayer
370
18
48
1
60
0
100
AcDbEllipse
10
15.824427
20
-1.135167
30
0
11
0.212500000000001
21
-0.368060796608386
31
0
210
0
220
0
230
1
40
0.989133
41
-3.14158538262175
42
-1.4568591126766
0
ELLIPSE
5
100
100
AcDbEntity
8
1
62
256
6
ByLayer
370
18
48
1
60
0
100
AcDbEllipse
10
15.494969
20
-0.400774
30
0
11
-0.189999999999986
21
0.329089653438095
31
0
210
0
220
0
230
1
40
0.989133
41
-2.99158584164609
42
-0.409661561480024
0
ELLIPSE
5
101
100
AcDbEntity
8
1
62
256
6
ByLayer
370
18
48
1
60
0
100
AcDbEllipse
10
15.604153
20
0.514884
30
0
11
0.212500000000001
21
-0.368060796608386
31
0
210
0
220
0
230
1
40
0.989133
41
-2.19740589946838
42
-0.409661561480012
0
ELLIPSE
5
102
100
AcDbEntity
8
1
62
256
6
ByLayer
370
18
48
1
60
0
100
AcDbEllipse
10
14.92367
20
-2.140425
30
0
11
0.212500000000001
21
-0.368060796608386
31
0
210
0
220
0
230
1
40
0.989133
41
1.99138430531802
42
-2.50405666387319
0
ELLIPSE
5
103
100
AcDbEntity
8
1
62
256
6
ByLayer
370
18
48
1
60
0
100
AcDbEllipse
10
15.185085
20
-1.609972
30
0
11
-0.189999999999986
21
0.329089653438095
31
0
210
0
220
0
230
1
40
0.989133
41
-2.82334436917104
42
-1.45685911267658
0
ELLIPSE
5
104
100
AcDbEntity
8
1
62
256
6
ByLayer
370
18
48
1
60
0
100
AcDbEllipse
10
13.300654
20
-0.932833
30
0
11
-0.189999999999986
21
0.329089653438095
31
0
210
0
220
0
230
1
40
0.989133
41
-0.103010797075205
42
2.73193109210979
0
ELLIPSE
5
105
100
AcDbEntity
8
1
62
256
6
ByLayer
370
18
48
1
60
0
100
AcDbEllipse
10
14.40621
20
-0.661954
30
0
11
-1.99999999999986
21
3.46410161513784
31
0
210
0
220
0
230
1
40
0.989133
41
0
42
6.28318530717959
0
ELLIPSE
5
106
100
AcDbEntity
8
1
62
256
6
ByLayer
370
18
48
1
60
0
100
AcDbEllipse
10
15.40043
20
0.397265
30
0
11
0.212500000000001
21
-0.368060796608386
31
0
210
0
220
0
230
1
40
0.989133
41
-2.19740589946838
42
-0.409661561480055
0
ELLIPSE
5
107
100
AcDbEntity
8
1
62
256
6
ByLayer
370
18
48
1
60
0
100
AcDbEllipse
10
14.232286
20
-0.762369
30
0
11
0.575000000000002
21
-0.995929214352102
31
0
210
0
220
0
230
1
40
0.989133
41
3.1092638563938
42
-0.800350450550289
0
ELLIPSE
5
108
100
AcDbEntity
8
1
62
256
6
ByLayer
370
18
48
1
60
0
100
AcDbEllipse
10
14.232286
20
-0.762369
30
0
11
0.575000000000002
21
-0.995929214352102
31
0
210
0
220
0
230
1
40
0.989133
41
0.0645698625321591
42
3.1092638563938
0
ELLIPSE
5
109
100
AcDbEntity
8
1
62
256
6
ByLayer
370
18
48
1
60
0
100
AcDbEllipse
10
13.395193
20
-1.730871
30
0
11
0.212500000000001
21
-0.368060796608386
31
0
210
0
220
0
230
1
40
0.989133
41
0.944186754121394
42
2.73193109210981
0
ELLIPSE
5
10A
100
AcDbEntity
8
1
62
256
6
ByLayer
370
18
48
1
60
0
100
AcDbEllipse
10
15.388808
20
-1.492352
30
0
11
-0.189999999999986
21
0.329089653438095
31
0
210
0
220
0
230
1
40
0.989133
41
1.99138430531807
42
-1.45685911267663
0
ELLIPSE
5
10B
100
AcDbEntity
8
1
62
256
6
ByLayer
370
18
48
1
60
0
100
AcDbEllipse
10
14.605834
20
0.483585
30
0
11
-0.189999999999986
21
0.329089653438095
31
0
210
0
220
0
230
1
40
0.989133
41
-2.19740589946838
42
-0.318282348964194
0
ELLIPSE
5
10C
100
AcDbEntity
8
1
62
256
6
ByLayer
370
18
48
1
60
0
100
AcDbEllipse
10
27.550766
20
2.652753
30
0
11
1.29000000000001
21
-2.23434554176385
31
0
210
0
220
0
230
1
40
0.989133
41
-0.0233619712764588
42
-1.74018661511726E-16
0
ELLIPSE
5
10D
100
AcDbEntity
8
1
62
256
6
ByLayer
370
18
48
1
60
0
100
AcDbEllipse
10
27.550766
20
2.652753
30
0
11
1.29000000000001
21
-2.23434554176385
31
0
210
0
220
0
230
1
40
0.989133
41
0
42
2.6432610384927
0
ELLIPSE
5
10E
100
AcDbEntity
8
1
62
256
6
ByLayer
370
18
48
1
60
0
100
AcDbEllipse
10
22.561925
20
9.710335
30
0
11
-0.396999999999971
21
0.687624170604861
31
0
210
0
220
0
230
1
40
0.989133
41
-0.779934954875906
42
0.965394297118425
0
ELLIPSE
5
10F
100
AcDbEntity
8
1
62
256
6
ByLayer
370
18
48
1
60
0
100
AcDbEllipse
10
33.401166
20
6.805969
30
0
11
-0.396999999999971
21
0.687624170604861
31
0
210
0
220
0
230
1
40
0.989133
41
-2.17619835647136
42
-0.77993495487593
0
ELLIPSE
5
110
100
AcDbEntity
8
1
62
256
6
ByLayer
370
18
48
1
60
0
100
AcDbEllipse
10
32.539607
20
-4.404829
30
0
11
-0.396999999999971
21
0.687624170604861
31
0
210
0
220
0
230
1
40
0.989133
41
2.3616576987139
42
-2.17619835647137
0
POINT
5
6C
100
AcDbEntity
8
2
62
256
6
ByLayer
370
18
48
1
60
0
100
AcDbPoint
10
34.188719
20
7.4125
30
0
39
0
210
0
220
0
230
1
50
360
0
POINT
5
6E
100
AcDbEntity
8
80
62
256
6
ByLayer
370
18
48
1
60
0
100
AcDbPoint
10
0
20
0
30
0
39
0
210
0
220
0
230
1
50
360
0
POINT
5
70
100
AcDbEntity
8
81
62
256
6
ByLayer
370
18
48
1
60
0
100
AcDbPoint
10
34.188719
20
7.4125
30
0
39
0
210
0
220
0
230
1
50
360
0
SPLINE
5
111
100
AcDbEntity
8
1
62
256
6
ByLayer
370
18
48
1
60
0
100
AcDbSpline
70
4
71
3
72
8
73
4
40
0
40
0
40
0
40
0
40
1
40
1
40
1
40
1
41
1
10
24.4808538896735
20
-4.32282788088318
30
0
41
1
10
24.4459984148418
20
-4.27694084612452
30
0
41
1
10
24.4104656637769
20
-4.23118429698309
30
0
41
1
10
24.374201492512
20
-4.18559493430425
30
0
0
SPLINE
5
112
100
AcDbEntity
8
1
62
256
6
ByLayer
370
18
48
1
60
0
100
AcDbSpline
70
4
71
3
72
10
73
6
40
0
40
0
40
0
40
0
40
0.60834142572423
40
0.60834142572423
40
1
40
1
40
1
40
1
41
1
10
25.716670442015
20
-3.44365447276584
30
0
41
1
10
25.5315900534143
20
-3.58122077459584
30
0
41
1
10
25.3462802781742
20
-3.71872703723622
30
0
41
1
10
25.0413146433265
20
-3.9446698659084
30
0
41
1
10
24.9217837194475
20
-4.03313914050321
30
0
41
1
10
24.8021681369817
20
-4.12158625062017
30
0
0
SPLINE
5
113
100
AcDbEntity
8
1
62
256
6
ByLayer
370
18
48
1
60
0
100
AcDbSpline
70
4
71
3
72
8
73
4
40
0
40
0
40
0
40
0
40
1
40
1
40
1
40
1
41
1
10
24.8068686572517
20
-4.08140323116862
30
0
41
1
10
24.6982687540257
20
-4.16189688054001
30
0
41
1
10
24.5895962120116
20
-4.24237151504977
30
0
41
1
10
24.4808538896735
20
-4.32282788088315
30
0
0
SPLINE
5
114
100
AcDbEntity
8
1
62
256
6
ByLayer
370
18
48
1
60
0
100
AcDbSpline
70
4
71
3
72
8
73
4
40
0
40
0
40
0
40
0
40
1
40
1
40
1
40
1
41
1
10
28.3849884933792
20
4.75687799081291
30
0
41
1
10
28.306640079794
20
4.79174271642239
30
0
41
1
10
28.228510390543
20
4.82241486708625
30
0
41
1
10
28.1520112873827
20
4.84850510331384
30
0
0
SPLINE
5
115
100
AcDbEntity
8
1
62
256
6
ByLayer
370
18
48
1
60
0
100
AcDbSpline
70
4
71
3
72
11
73
7
40
0
40
0
40
0
40
0
40
0.564783939443774
40
0.564783939443774
40
0.564783939443774
40
1
40
1
40
1
40
1
41
1
10
23.6424034508133
20
6.57577340663372
30
0
41
1
10
23.2809875102932
20
6.54127169293452
30
0
41
1
10
22.8663618836775
20
6.5211100524767
30
0
41
1
10
22.4350379550481
20
6.5456071485865
30
0
41
1
10
22.0999226895087
20
6.56464006172411
30
0
41
1
10
21.7500921513783
20
6.6027915919172
30
0
41
1
10
21.4000007492911
20
6.65043736658868
30
0
0
SPLINE
5
116
100
AcDbEntity
8
1
62
256
6
ByLayer
370
18
48
1
60
0
100
AcDbSpline
70
4
71
3
72
8
73
4
40
0
40
0
40
0
40
0
40
1
40
1
40
1
40
1
41
1
10
5.57219899423518
20
1.194274269011
30
0
41
1
10
5.56593119429044
20
1.21692767810404
30
0
41
1
10
5.56019780743509
20
1.23957368044287
30
0
41
1
10
5.55497404203504
20
1.26221294444798
30
0
0
SPLINE
5
117
100
AcDbEntity
8
1
62
256
6
ByLayer
370
18
48
1
60
0
100
AcDbSpline
70
4
71
2
72
6
73
3
40
0
40
0
40
0
40
1
40
1
40
1
41
1.02805999725224
10
17.4431259210318
20
-6.22692963680887
30
0
41
1.02805999725224
10
17.4035388859258
20
-6.87547229273196
30
0
41
1.02805999725224
10
17.3639518508198
20
-7.52401494865502
30
0
0
SPLINE
5
118
100
AcDbEntity
8
1
62
256
6
ByLayer
370
18
48
1
60
0
100
AcDbSpline
70
4
71
3
72
11
73
7
40
0
40
0
40
0
40
0
40
0.423407924939465
40
0.740963868644064
40
0.899741840496364
40
1
40
1
40
1
40
1
41
1.02805999725225
10
17.4431259210318
20
-6.2269296368089
30
0
41
1.02767136955277
10
18.2400899621312
20
-5.89561600290059
30
0
41
1.02349884684923
10
20.8247668533096
20
-3.8871555557479
30
0
41
1.01876555595691
10
23.9222206271544
20
-1.0508145357756
30
0
41
1.01635405201137
10
25.0928447941146
20
0.0025018245116069
30
0
41
1.01722454828226
10
25.5505697162783
20
0.166361430446272
30
0
41
1.01774327987904
10
25.7430025598855
20
0.225446760960728
30
0
0
SPLINE
5
119
100
AcDbEntity
8
1
62
256
6
ByLayer
370
18
48
1
60
0
100
AcDbSpline
70
4
71
3
72
8
73
4
40
0
40
0
40
0
40
0
40
1
40
1
40
1
40
1
41
1
10
11.6632065680227
20
-4.61145155398808
30
0
41
1
10
11.7314126257592
20
-4.63792950782261
30
0
41
1
10
11.7982064725262
20
-4.66729241449531
30
0
41
1
10
11.8631261881286
20
-4.69932223330619
30
0
0
SPLINE
5
11A
100
AcDbEntity
8
1
62
256
6
ByLayer
370
18
48
1
60
0
100
AcDbSpline
70
4
71
3
72
10
73
6
40
0
40
0
40
0
40
0
40
0.5
40
0.5
40
1
40
1
40
1
40
1
41
1
10
9.84770064981967
20
-9.34423963645071
30
0
41
1
10
9.42024312964372
20
-9.23667853671134
30
0
41
1
10
9.11850744008729
20
-9.0084634837003
30
0
41
1
10
8.43034061233277
20
-8.2509031146495
30
0
41
1
10
8.05313213923296
20
-7.64938772573828
30
0
41
1
10
7.83071416447325
20
-6.96288556499581
30
0
0
SPLINE
5
11B
100
AcDbEntity
8
1
62
256
6
ByLayer
370
18
48
1
60
0
100
AcDbSpline
70
4
71
3
72
8
73
4
40
0
40
0
40
0
40
0
40
1
40
1
40
1
40
1
41
1
10
29.1964745495712
20
1.07355156785059
30
0
41
1
10
29.2495547707186
20
1.13210307504451
30
0
41
1
10
29.3015796250698
20
1.19578037865452
30
0
41
1
10
29.3515193966935
20
1.26359164682361
30
0
0
SPLINE
5
11C
100
AcDbEntity
8
1
62
256
6
ByLayer
370
18
48
1
60
0
100
AcDbSpline
70
4
71
3
72
12
73
8
40
0
40
0
40
0
40
0
40
0.471343086678512
40
0.471343086678512
40
0.892619726108217
40
0.892619726108217
40
1
40
1
40
1
40
1
41
1
10
10.5228045472252
20
-4.46618619382605
30
0
41
1
10
10.6996261238029
20
-4.45150614694353
30
0
41
1
10
10.8848964989422
20
-4.4512740926732
30
0
41
1
10
11.2306723037815
20
-4.48779496226285
30
0
41
1
10
11.3952962589301
20
-4.5213617641129
30
0
41
1
10
11.586781806365
20
-4.58307845601917
30
0
41
1
10
11.625445881278
20
-4.59679265485863
30
0
41
1
10
11.6632065680227
20
-4.61145155398808
30
0
0
SPLINE
5
11D
100
AcDbEntity
8
1
62
256
6
ByLayer
370
18
48
1
60
0
100
AcDbSpline
70
4
71
3
72
8
73
4
40
0
40
0
40
0
40
0
40
1
40
1
40
1
40
1
41
1.01923193622652
10
26.4879494337475
20
-2.54650046613279
30
0
41
1.02059843499303
10
26.8876780551935
20
-2.14026692697093
30
0
41
1.02233811057541
10
27.3697025667437
20
-1.6185230994001
30
0
41
1.02417041321379
10
27.8249292526962
20
-1.05855767173399
30
0
0
SPLINE
5
11E
100
AcDbEntity
8
1
62
256
6
ByLayer
370
18
48
1
60
0
100
AcDbSpline
70
4
71
3
72
15
73
11
40
0
40
0
40
0
40
0
40
0.227604479949748
40
0.227604479949748
40
0.479423709218442
40
0.479423709218442
40
0.785574270382839
40
0.785574270382839
40
0.785574270382839
40
1
40
1
40
1
40
1
41
1
10
19.5866946095594
20
-0.485216039704852
30
0
41
1
10
19.581863864146
20
-0.826200898189455
30
0
41
1
10
19.5254518499463
20
-1.17254278890346
30
0
41
1
10
19.3159049500277
20
-1.86478845967466
30
0
41
1
10
19.1515510614924
20
-2.21509787893635
30
0
41
1
10
18.6998570665835
20
-2.92303025026371
30
0
41
1
10
18.3875212072267
20
-3.27644264763674
30
0
41
1
10
18.033200723444
20
-3.57061772610624
30
0
41
1
10
17.7835085490685
20
-3.7779250039863
30
0
41
1
10
17.509441003178
20
-3.95874379740684
30
0
41
1
10
17.2202005253006
20
-4.10547795839284
30
0
0
SPLINE
5
11F
100
AcDbEntity
8
1
62
256
6
ByLayer
370
18
48
1
60
0
100
AcDbSpline
70
4
71
3
72
20
73
16
40
0
40
0
40
0
40
0
40
0.110576036200126
40
0.110576036200126
40
0.197179369122806
40
0.197179369122806
40
0.284291117387368
40
0.284291117387368
40
0.365904217918077
40
0.365904217918077
40
0.497270233392069
40
0.497270233392069
40
0.733496364826711
40
0.733496364826711
40
1
40
1
40
1
40
1
41
1
10
24.6586528964621
20
4.14455980569576
30
0
41
1
10
24.6458053313797
20
4.10679932029433
30
0
41
1
10
24.6409974790003
20
4.0634172397308
30
0
41
1
10
24.6551170223402
20
3.97704687427665
30
0
41
1
10
24.6695376151072
20
3.93511584070879
30
0
41
1
10
24.7162309821059
20
3.84852479692387
30
0
41
1
10
24.7492981102795
20
3.80275701463961
30
0
41
1
10
24.8255610641833
20
3.7175295479324
30
0
41
1
10
24.8687000949857
20
3.67688487696711
30
0
41
1
10
24.9874900525368
20
3.57823436079656
30
0
41
1
10
25.0687838627222
20
3.52279345101363
30
0
41
1
10
25.2964425264609
20
3.3859036873896
30
0
41
1
10
25.4479038706733
20
3.31478533142771
30
0
41
1
10
25.7619757789271
20
3.18457743333369
30
0
41
1
10
25.9269569128511
20
3.12721698069072
30
0
41
1
10
26.0887124367929
20
3.0769469358514
30
0
0
SPLINE
5
120
100
AcDbEntity
8
1
62
256
6
ByLayer
370
18
48
1
60
0
100
AcDbSpline
70
4
71
3
72
10
73
6
40
0
40
0
40
0
40
0
40
0.5
40
0.5
40
1
40
1
40
1
40
1
41
1
10
25.7430025598851
20
0.225446760960637
30
0
41
1
10
26.0998778794593
20
-0.119741849683322
30
0
41
1
10
26.4830261690612
20
-0.405775723132905
30
0
41
1
10
27.4078276523329
20
-0.62096276966912
30
0
41
1
10
27.9603454291067
20
-0.520994438500367
30
0
41
1
10
28.5150819124382
20
-0.0361026587428341
30
0
0
SPLINE
5
121
100
AcDbEntity
8
1
62
256
6
ByLayer
370
18
48
1
60
0
100
AcDbSpline
70
4
71
3
72
12
73
8
40
0
40
0
40
0
40
0
40
0.286978363858298
40
0.286978363858298
40
0.569998995185618
40
0.569998995185618
40
1
40
1
40
1
40
1
41
1
10
18.9437339386393
20
1.83860591336699
30
0
41
1
10
19.0664834826058
20
1.63944207212541
30
0
41
1
10
19.1734297856019
20
1.42931273663504
30
0
41
1
10
19.3501762774484
20
0.999079045593334
30
0
41
1
10
19.421075997018
20
0.777675437189032
30
0
41
1
10
19.5532272532642
20
0.213343394989352
30
0
41
1
10
19.5915938938683
20
-0.138200949331576
30
0
41
1
10
19.5866946095594
20
-0.485216039704852
30
0
0
SPLINE
5
122
100
AcDbEntity
8
1
62
256
6
ByLayer
370
18
48
1
60
0
100
AcDbSpline
70
4
71
3
72
8
73
4
40
0
40
0
40
0
40
0
40
1
40
1
40
1
40
1
41
1
10
26.4879126315925
20
-2.54653786709147
30
0
41
1
10
26.3931721915218
20
-2.59046666322274
30
0
41
1
10
26.2975271414379
20
-2.63224329985243
30
0
41
1
10
26.2009947870295
20
-2.67162069530772
30
0
0
SPLINE
5
123
100
AcDbEntity
8
1
62
256
6
ByLayer
370
18
48
1
60
0
100
AcDbSpline
70
4
71
3
72
8
73
4
40
0
40
0
40
0
40
0
40
1
40
1
40
1
40
1
41
1
10
7.8106168589967
20
-6.89593219236491
30
0
41
1
10
7.81688465894143
20
-6.91858560145798
30
0
41
1
10
7.82359046027977
20
-6.9408979611315
30
0
41
1
10
7.83071416447325
20
-6.96288556499581
30
0
0
SPLINE
5
124
100
AcDbEntity
8
1
62
256
6
ByLayer
370
18
48
1
60
0
100
AcDbSpline
70
4
71
3
72
8
73
4
40
0
40
0
40
0
40
0
40
1
40
1
40
1
40
1
41
1
10
23.6424034508135
20
6.57577340663372
30
0
41
1
10
23.7470663936803
20
6.58576480569738
30
0
41
1
10
23.8521981031206
20
6.59325426384908
30
0
41
1
10
23.9576554399989
20
6.59844949321527
30
0
0
SPLINE
5
125
100
AcDbEntity
8
1
62
256
6
ByLayer
370
18
48
1
60
0
100
AcDbSpline
70
4
71
3
72
8
73
4
40
0
40
0
40
0
40
0
40
1
40
1
40
1
40
1
41
1
10
9.09923804707154
20
0.678942014382187
30
0
41
1
10
8.87188584363048
20
0.561664620076698
30
0
41
1
10
8.6409533517251
20
0.472571137181603
30
0
41
1
10
8.40925539426866
20
0.404472628845383
30
0
0
SPLINE
5
126
100
AcDbEntity
8
1
62
256
6
ByLayer
370
18
48
1
60
0
100
AcDbSpline
70
4
71
3
72
10
73
6
40
0
40
0
40
0
40
0
40
0.496184326218736
40
0.496184326218736
40
1
40
1
40
1
40
1
41
1
10
5.88647512388221
20
4.13507253464994
30
0
41
1
10
5.69313268570676
20
4.05193684426186
30
0
41
1
10
5.49649540294891
20
3.95313505160877
30
0
41
1
10
5.10417952553144
20
3.71345561653894
30
0
41
1
10
4.90680058936755
20
3.5701790729575
30
0
41
1
10
4.72240722955939
20
3.4039198047214
30
0
0
SPLINE
5
127
100
AcDbEntity
8
1
62
256
6
ByLayer
370
18
48
1
60
0
100
AcDbSpline
70
4
71
3
72
8
73
4
40
0
40
0
40
0
40
0
40
1
40
1
40
1
40
1
41
1
10
15.0547827593169
20
3.72088768686112
30
0
41
1
10
14.765729825689
20
3.70074805417264
30
0
41
1
10
14.4835710329288
20
3.65399305676084
30
0
41
1
10
14.2088362117602
20
3.57956163775972
30
0
0
SPLINE
5
128
100
AcDbEntity
8
1
62
256
6
ByLayer
370
18
48
1
60
0
100
AcDbSpline
70
4
71
3
72
10
73
6
40
0
40
0
40
0
40
0
40
0.5
40
0.5
40
1
40
1
40
1
40
1
41
1
10
26.9906004114744
20
5.4737578012375
30
0
41
1
10
26.2673200628469
20
5.640521764928
30
0
41
1
10
25.7178995524097
20
5.50259869302695
30
0
41
1
10
25.0063603608505
20
4.96197568178255
30
0
41
1
10
24.8029506745614
20
4.56879622997857
30
0
41
1
10
24.6586528964608
20
4.14455980569551
30
0
0
SPLINE
5
129
100
AcDbEntity
8
1
62
256
6
ByLayer
370
18
48
1
60
0
100
AcDbSpline
70
4
71
3
72
10
73
6
40
0
40
0
40
0
40
0
40
0.5
40
0.5
40
1
40
1
40
1
40
1
41
1
10
24.2976530234786
20
-3.82240844138192
30
0
41
1
10
23.2636786120655
20
-4.6349265313745
30
0
41
1
10
22.1713304587636
20
-5.36107365751243
30
0
41
1
10
19.8475070365087
20
-6.60751262814711
30
0
41
1
10
18.642615734522
20
-7.16456151488006
30
0
41
1
10
17.3639518508197
20
-7.52401494865504
30
0
0
SPLINE
5
12A
100
AcDbEntity
8
1
62
256
6
ByLayer
370
18
48
1
60
0
100
AcDbSpline
70
4
71
3
72
8
73
4
40
0
40
0
40
0
40
0
40
1
40
1
40
1
40
1
41
1
10
7.96487941644722
20
-6.85048406503191
30
0
41
1
10
8.62237306921122
20
-6.32121235406214
30
0
41
1
10
9.55113004809186
20
-5.43415138902125
30
0
41
1
10
10.5228045472252
20
-4.46618619382605
30
0
0
SPLINE
5
12B
100
AcDbEntity
8
1
62
256
6
ByLayer
370
18
48
1
60
0
100
AcDbSpline
70
4
71
3
72
15
73
11
40
0
40
0
40
0
40
0
40
0.322163720426458
40
0.322163720426458
40
0.64483345260023
40
0.64483345260023
40
0.912233455904556
40
0.912233455904556
40
0.912233455904556
40
1
40
1
40
1
40
1
41
1
10
15.0547827745298
20
3.72088768792108
30
0
41
1
10
15.5380274073179
20
3.75392013202375
30
0
41
1
10
16.0336924883588
20
3.70348783719282
30
0
41
1
10
16.9699543764844
20
3.45557802517888
30
0
41
1
10
17.4238180927026
20
3.25462417165806
30
0
41
1
10
18.1589325724811
20
2.76211583105928
30
0
41
1
10
18.4646777800255
20
2.48505780425813
30
0
41
1
10
18.7137055411418
20
2.16808883496836
30
0
41
1
10
18.7964633994586
20
2.06275249441856
30
0
41
1
10
18.8735043431433
20
1.95254160052619
30
0
41
1
10
18.9437339386402
20
1.83860591336688
30
0
0
SPLINE
5
12C
100
AcDbEntity
8
1
62
256
6
ByLayer
370
18
48
1
60
0
100
AcDbSpline
70
4
71
3
72
10
73
6
40
0
40
0
40
0
40
0
40
0.5
40
0.5
40
1
40
1
40
1
40
1
41
1
10
13.5277974456833
20
6.34081415400999
30
0
41
1
10
14.8170033824762
20
6.67701159777951
30
0
41
1
10
16.1247658337963
20
6.8023316033196
30
0
41
1
10
18.7534884764509
20
6.90299163832827
30
0
41
1
10
20.0857545404871
20
6.82930002460947
30
0
41
1
10
21.4000007492908
20
6.65043736658876
30
0
0
SPLINE
5
12D
100
AcDbEntity
8
1
62
256
6
ByLayer
370
18
48
1
60
0
100
AcDbSpline
70
4
71
3
72
8
73
4
40
0
40
0
40
0
40
0
40
1
40
1
40
1
40
1
41
1
10
11.6632065680227
20
-4.61145155398808
30
0
41
1
10
11.1463193877554
20
-6.09596600434614
30
0
41
1
10
10.6016461098379
20
-7.45874992988493
30
0
41
1
10
10.150453555165
20
-8.20266736889917
30
0
0
SPLINE
5
12E
100
AcDbEntity
8
1
62
256
6
ByLayer
370
18
48
1
60
0
100
AcDbSpline
70
4
71
3
72
8
73
4
40
0
40
0
40
0
40
0
40
1
40
1
40
1
40
1
41
1
10
9.09923804707154
20
0.678942014382187
30
0
41
1
10
7.77336112809957
20
0.9870703805083
30
0
41
1
10
6.54436790289873
20
1.2164795131759
30
0
41
1
10
5.72298282866984
20
1.25229537829856
30
0
0
SPLINE
5
12F
100
AcDbEntity
8
1
62
256
6
ByLayer
370
18
48
1
60
0
100
AcDbSpline
70
4
71
3
72
12
73
8
40
0
40
0
40
0
40
0
40
0.46693897235861
40
0.46693897235861
40
0.928803236876543
40
0.928803236876543
40
1
40
1
40
1
40
1
41
1
10
10.0029898539857
20
1.38899018607668
30
0
41
1
10
9.89544212886352
20
1.25619682077061
30
0
41
1
10
9.76309940693528
20
1.12680128928241
30
0
41
1
10
9.48016851983857
20
0.901468325902385
30
0
41
1
10
9.32627026173515
20
0.801737970993685
30
0
41
1
10
9.14757916567487
20
0.704228263303577
30
0
41
1
10
9.1234285647426
20
0.691420454601484
30
0
41
1
10
9.09923804707154
20
0.678942014382187
30
0
0
SPLINE
5
130
100
AcDbEntity
8
1
62
256
6
ByLayer
370
18
48
1
60
0
100
AcDbSpline
70
4
71
3
72
8
73
4
40
0
40
0
40
0
40
0
40
1
40
1
40
1
40
1
41
1
10
10.1308307776371
20
1.56163008645322
30
0
41
1
10
10.6149234409654
20
2.27909697442567
30
0
41
1
10
11.3549156334483
20
2.80637476084044
30
0
41
1
10
12.246380435825
20
3.04789125280982
30
0
0
SPLINE
5
131
100
AcDbEntity
8
1
62
256
6
ByLayer
370
18
48
1
60
0
100
AcDbSpline
70
4
71
3
72
8
73
4
40
0
40
0
40
0
40
0
40
1
40
1
40
1
40
1
41
1
10
24.2976530234788
20
-3.82240844138175
30
0
41
1
10
24.9367807812022
20
-3.3201688702332
30
0
41
1
10
25.6013389743691
20
-2.91623178157926
30
0
41
1
10
26.2009947870295
20
-2.67162069530775
30
0
0
SPLINE
5
132
100
AcDbEntity
8
1
62
256
6
ByLayer
370
18
48
1
60
0
100
AcDbSpline
70
4
71
3
72
10
73
6
40
0
40
0
40
0
40
0
40
0.264715639145585
40
0.264715639145585
40
1
40
1
40
1
40
1
41
1
10
27.2959072652936
20
2.73516765424884
30
0
41
1
10
27.2179731959752
20
2.6640585693803
30
0
41
1
10
27.1402101105562
20
2.59153032212822
30
0
41
1
10
26.8471683264424
20
2.31304800131693
30
0
41
1
10
26.632983693335
20
2.09911275484254
30
0
41
1
10
26.4202846755435
20
1.87856127668294
30
0
0
SPLINE
5
133
100
AcDbEntity
8
1
62
256
6
ByLayer
370
18
48
1
60
0
100
AcDbSpline
70
4
71
3
72
10
73
6
40
0
40
0
40
0
40
0
40
0.655488757716274
40
0.655488757716274
40
1
40
1
40
1
40
1
41
1
10
10.2562146318547
20
-9.53732507026567
30
0
41
1
10
9.90327669370157
20
-9.64829897192996
30
0
41
1
10
9.49736836699037
20
-9.73555542050119
30
0
41
1
10
8.83130344472698
20
-9.75730982369205
30
0
41
1
10
8.59069250607433
20
-9.74433501162667
30
0
41
1
10
8.34906374067339
20
-9.70373109518417
30
0
0
SPLINE
5
134
100
AcDbEntity
8
1
62
256
6
ByLayer
370
18
48
1
60
0
100
AcDbSpline
70
4
71
3
72
20
73
16
40
0
40
0
40
0
40
0
40
0.33287322665239
40
0.33287322665239
40
0.501657261698204
40
0.501657261698204
40
0.631212321676504
40
0.631212321676504
40
0.722542323637658
40
0.722542323637658
40
0.81476534740418
40
0.81476534740418
40
0.89642135903879
40
0.89642135903879
40
1
40
1
40
1
40
1
41
1
10
26.4202846755435
20
1.87856127668294
30
0
41
1
10
26.2770123471134
20
1.730061972915
30
0
41
1
10
26.1346157389152
20
1.56873929648185
30
0
41
1
10
25.9348962391966
20
1.29354311430865
30
0
41
1
10
25.8695669110203
20
1.19414641292406
30
0
41
1
10
25.767119445004
20
1.00604279840994
30
0
41
1
10
25.7262669479409
20
0.918589077955488
30
0
41
1
10
25.6729755466184
20
0.766616540519578
30
0
41
1
10
25.6554327235049
20
0.701618614190579
30
0
41
1
10
25.6350661204134
20
0.577106928611329
30
0
41
1
10
25.6322982877458
20
0.516038824125673
30
0
41
1
10
25.6419935022737
20
0.415307644820416
30
0
41
1
10
25.6527387413706
20
0.37275554029597
30
0
41
1
10
25.6869042777039
20
0.290934307454904
30
0
41
1
10
25.7131713086317
20
0.254296420550929
30
0
41
1
10
25.7430025598851
20
0.225446760960637
30
0
0
SPLINE
5
135
100
AcDbEntity
8
1
62
256
6
ByLayer
370
18
48
1
60
0
100
AcDbSpline
70
4
71
3
72
10
73
6
40
0
40
0
40
0
40
0
40
0.967465556419481
40
0.967465556419481
40
1
40
1
40
1
40
1
41
1
10
26.0887124367929
20
3.0769469358514
30
0
41
1
10
26.4827106603445
20
2.95442116623318
30
0
41
1
10
26.8735055622781
20
2.84193998782297
30
0
41
1
10
27.2701031602173
20
2.74164474456927
30
0
41
1
10
27.2830094073186
20
2.73839695436607
30
0
41
1
10
27.2959072653094
20
2.73516765424489
30
0
0
SPLINE
5
136
100
AcDbEntity
8
1
62
256
6
ByLayer
370
18
48
1
60
0
100
AcDbSpline
70
4
71
1
72
4
73
2
40
0
40
0
40
1
40
1
41
1
10
14.2040578002387
20
5.47987911065837
30
0
41
1
10
13.5277974456833
20
6.34081415400999
30
0
0
SPLINE
5
137
100
AcDbEntity
8
1
62
256
6
ByLayer
370
18
48
1
60
0
100
AcDbSpline
70
4
71
3
72
8
73
4
40
0
40
0
40
0
40
0
40
1
40
1
40
1
40
1
41
1
10
27.8250042252329
20
-1.05846544884179
30
0
41
1
10
28.0555426304882
20
-0.718918472845786
30
0
41
1
10
28.2859744062072
20
-0.377538617183518
30
0
41
1
10
28.5150819124382
20
-0.0361026587429194
30
0
0
SPLINE
5
138
100
AcDbEntity
8
1
62
256
6
ByLayer
370
18
48
1
60
0
100
AcDbSpline
70
4
71
3
72
10
73
6
40
0
40
0
40
0
40
0
40
0.5
40
0.5
40
1
40
1
40
1
40
1
41
1
10
5.55497404203504
20
1.26221294444798
30
0
41
1
10
5.39148553519197
20
1.97075538170731
30
0
41
1
10
5.41321493391095
20
2.64567289400083
30
0
41
1
10
5.63634993840987
20
3.58321273340553
30
0
41
1
10
5.79119921606258
20
3.88590245029934
30
0
41
1
10
6.11268919687279
20
4.15503333917999
30
0
0
SPLINE
5
139
100
AcDbEntity
8
1
62
256
6
ByLayer
370
18
48
1
60
0
100
AcDbSpline
70
4
71
3
72
8
73
4
40
0
40
0
40
0
40
0
40
1
40
1
40
1
40
1
41
1
10
10.5228045472252
20
-4.46618619382605
30
0
41
1
10
10.268837544341
20
-4.48727099343648
30
0
41
1
10
10.0266406013393
20
-4.53565191033678
30
0
41
1
10
9.79494264388291
20
-4.60375041867303
30
0
0
SPLINE
5
13A
100
AcDbEntity
8
1
62
256
6
ByLayer
370
18
48
1
60
0
100
AcDbSpline
70
4
71
3
72
8
73
4
40
0
40
0
40
0
40
0
40
1
40
1
40
1
40
1
41
1
10
10.1308307776372
20
1.56163008645331
30
0
41
1
10
10.0912529209919
20
1.50297230501801
30
0
41
1
10
10.0486622100856
20
1.44538362313975
30
0
41
1
10
10.0029898539857
20
1.38899018607668
30
0
0
SPLINE
5
13B
100
AcDbEntity
8
1
62
256
6
ByLayer
370
18
48
1
60
0
100
AcDbSpline
70
4
71
3
72
8
73
4
40
0
40
0
40
0
40
0
40
1
40
1
40
1
40
1
41
1.02417048357497
10
25.8742112484272
20
5.99191349738055
30
0
41
1.02233815524058
10
25.1942061088152
20
6.24432754893852
30
0
41
1.02059845272928
10
24.5108143056185
20
6.45034184397378
30
0
41
1.01923193651505
10
23.9577064797316
20
6.59843582745101
30
0
0
SPLINE
5
13C
100
AcDbEntity
8
1
62
256
6
ByLayer
370
18
48
1
60
0
100
AcDbSpline
70
4
71
3
72
12
73
8
40
0
40
0
40
0
40
0
40
0.108853988607132
40
0.502629237162305
40
0.699516861439892
40
0.896404485717479
40
1
40
1
40
1
40
1
41
1.02441262532206
10
19.5866946095595
20
-0.485216039704841
30
0
41
1.02394775682001
10
19.9060517812152
20
-0.371924524955519
30
0
41
1.02173322384668
10
21.4156954297329
20
0.168859131985747
30
0
41
1.01876555595691
10
23.5263133403822
20
0.954342652032364
30
0
41
1.01610930227499
10
24.9323416159388
20
1.49717520875141
30
0
41
1.01814069306376
10
25.6074293316596
20
1.65790067334007
30
0
41
1.02005196006971
10
26.2031570002696
20
1.81801571236095
30
0
41
1.02076673234773
10
26.4202846755333
20
1.87856127668011
30
0
0
SPLINE
5
13D
100
AcDbEntity
8
1
62
256
6
ByLayer
370
18
48
1
60
0
100
AcDbSpline
70
4
71
2
72
6
73
3
40
0
40
0
40
0
40
1
40
1
40
1
41
0.937301687603847
10
17.2202005298211
20
-4.10547798287837
30
0
41
0.930554446910518
10
17.4850530609764
20
-5.54004973731242
30
0
41
1.02805999725225
10
17.4431259210318
20
-6.2269296368089
30
0
0
SPLINE
5
13E
100
AcDbEntity
8
1
62
256
6
ByLayer
370
18
48
1
60
0
100
AcDbSpline
70
4
71
3
72
8
73
4
40
0
40
0
40
0
40
0
40
1
40
1
40
1
40
1
41
1
10
17.2202005177244
20
-4.10547796223398
30
0
41
1
10
16.9669089695213
20
-4.23389554121903
30
0
41
1
10
16.6969771910357
20
-4.33945816237267
30
0
41
1
10
16.4206062447984
20
-4.41433284193323
30
0
0
SPLINE
5
13F
100
AcDbEntity
8
1
62
256
6
ByLayer
370
18
48
1
60
0
100
AcDbSpline
70
4
71
3
72
8
73
4
40
0
40
0
40
0
40
0
40
1
40
1
40
1
40
1
41
1
10
25.8742971731716
20
5.99188160234903
30
0
41
1
10
26.2458611471696
20
5.82172662102283
30
0
41
1
10
26.6186126090237
20
5.64872725286841
30
0
41
1
10
26.9906004114977
20
5.47375780123213
30
0
0
SPLINE
5
140
100
AcDbEntity
8
1
62
256
6
ByLayer
370
18
48
1
60
0
100
AcDbSpline
70
4
71
2
72
6
73
3
40
0
40
0
40
0
40
1
40
1
40
1
41
1.02805999725224
10
14.2040578002387
20
5.4798791106584
30
0
41
0.93055444607248
10
14.5621758396142
20
5.02396539683815
30
0
41
0.937301687719828
10
15.0547827745286
20
3.72088768792416
30
0
0
SPLINE
5
141
100
AcDbEntity
8
1
62
256
6
ByLayer
370
18
48
1
60
0
100
AcDbSpline
70
4
71
3
72
8
73
4
40
0
40
0
40
0
40
0
40
1
40
1
40
1
40
1
41
1
10
14.4581504688632
20
-4.94600322688302
30
0
41
1
10
13.5694064491998
20
-5.18678260181244
30
0
41
1
10
12.6506982244547
20
-5.08789124335132
30
0
41
1
10
11.8631261881286
20
-4.69932223330619
30
0
0
SPLINE
5
142
100
AcDbEntity
8
1
62
256
6
ByLayer
370
18
48
1
60
0
100
AcDbSpline
70
4
71
3
72
12
73
8
40
0
40
0
40
0
40
0
40
0.108854002841676
40
0.502629245107335
40
0.699516866240164
40
0.896404487372994
40
1
40
1
40
1
40
1
41
1.0244126255267
10
18.9437337916362
20
1.83860588690584
30
0
41
1.02394775696077
10
19.2777991762028
20
1.89873838969973
30
0
41
1.02173322391444
10
20.8604071906611
20
2.17581062281372
30
0
41
1.01876555595691
10
23.0943575749013
20
2.51553968316407
30
0
41
1.01610930227499
10
24.5965055285476
20
2.71097149180934
30
0
41
1.01814069306376
10
25.2666013543047
20
2.8897389051627
30
0
41
1.0200519600697
10
25.868203228668
20
3.02862308370823
30
0
41
1.02076673234771
10
26.0887124367753
20
3.07694693584751
30
0
0
SPLINE
5
143
100
AcDbEntity
8
1
62
256
6
ByLayer
370
18
48
1
60
0
100
AcDbSpline
70
4
71
3
72
8
73
4
40
0
40
0
40
0
40
0
40
1
40
1
40
1
40
1
41
1
10
6.91138543437199
20
3.50414137856808
30
0
41
1
10
7.65254257580318
20
3.19677432881207
30
0
41
1
10
8.80448663478353
20
2.37107120350322
30
0
41
1
10
10.0029898539795
20
1.38899018607063
30
0
0
SPLINE
5
144
100
AcDbEntity
8
1
62
256
6
ByLayer
370
18
48
1
60
0
100
AcDbSpline
70
4
71
3
72
11
73
7
40
0
40
0
40
0
40
0
40
0.423407924946042
40
0.740963868655573
40
0.899741840510338
40
1
40
1
40
1
40
1
41
1.02805999725224
10
14.2040578002387
20
5.4798791106584
30
0
41
1.02767136955277
10
15.0586020759358
20
5.60308326082127
30
0
41
1.02349884684923
10
18.3023227007373
20
5.2295935116505
30
0
41
1.01876555595691
10
22.4252301859325
20
4.35968630532075
30
0
41
1.01635405201144
10
23.9786360055785
20
4.02953327468112
30
0
41
1.01722454828215
10
24.4607906379928
20
4.10509774905029
30
0
41
1.0177432798788
10
24.6586528963798
20
4.14455980567934
30
0
0
LINE
5
72
100
AcDbEntity
8
1
62
256
6
ByLayer
370
18
48
1
60
0
100
AcDbLine
10
6.57367
20
4.430839
30
0
11
5.897724
21
4.139905
31
0
39
0
210
0
220
0
230
1
0
LINE
5
74
100
AcDbEntity
8
1
62
256
6
ByLayer
370
18
48
1
60
0
100
AcDbLine
10
13.064145
20
-0.635522
30
0
11
13.183696
21
-0.5665
31
0
39
0
210
0
220
0
230
1
0
LINE
5
75
100
AcDbEntity
8
1
62
256
6
ByLayer
370
18
48
1
60
0
100
AcDbLine
10
14.71117
20
-1.772365
30
0
11
14.507447
21
-1.889984
31
0
39
0
210
0
220
0
230
1
0
LINE
5
76
100
AcDbEntity
8
1
62
256
6
ByLayer
370
18
48
1
60
0
100
AcDbLine
10
32.553785
20
-5.313476
30
0
11
32.936607
21
-5.092453
31
0
39
0
210
0
220
0
230
1
0
LINE
5
77
100
AcDbEntity
8
1
62
256
6
ByLayer
370
18
48
1
60
0
100
AcDbLine
10
8.38634
20
0.362329
30
0
11
8.860571
21
0.566443
31
0
39
0
210
0
220
0
230
1
0
LINE
5
78
100
AcDbEntity
8
1
62
256
6
ByLayer
370
18
48
1
60
0
100
AcDbLine
10
22.164925
20
10.397959
30
0
11
21.610904
21
10.078096
31
0
39
0
210
0
220
0
230
1
0
LINE
5
79
100
AcDbEntity
8
1
62
256
6
ByLayer
370
18
48
1
60
0
100
AcDbLine
10
14.084453
20
0.438758
30
0
11
14.288176
21
0.556378
31
0
39
0
210
0
220
0
230
1
0
LINE
5
7A
100
AcDbEntity
8
1
62
256
6
ByLayer
370
18
48
1
60
0
100
AcDbLine
10
15.81565
20
-0.649487
30
0
11
15.611927
21
-0.767107
31
0
39
0
210
0
220
0
230
1
0
LINE
5
7B
100
AcDbEntity
8
1
62
256
6
ByLayer
370
18
48
1
60
0
100
AcDbLine
10
16.194088
20
-4.248524
30
0
11
16.40621
21
-4.126056
31
0
39
0
210
0
220
0
230
1
0
LINE
5
7C
100
AcDbEntity
8
1
62
256
6
ByLayer
370
18
48
1
60
0
100
AcDbLine
10
12.40621
20
2.802147
30
0
11
12.194088
21
2.679679
31
0
39
0
210
0
220
0
230
1
0
LINE
5
7D
100
AcDbEntity
8
80
62
256
6
ByLayer
370
18
48
1
60
0
100
AcDbLine
10
0
20
0
30
0
11
-5
21
0
31
0
39
0
210
0
220
0
230
1
0
LINE
5
7E
100
AcDbEntity
8
81
62
256
6
ByLayer
370
18
48
1
60
0
100
AcDbLine
10
34.188719
20
7.4125
30
0
11
44.188719
21
7.4125
31
0
39
0
210
0
220
0
230
1
0
LINE
5
7F
100
AcDbEntity
8
SK1
62
256
6
ByLayer
370
18
48
1
60
0
100
AcDbLine
10
-92.161281
20
9.9375
30
0
11
-92.161281
21
-9.9375
31
0
39
0
210
0
220
0
230
1
0
LINE
5
81
100
AcDbEntity
8
SK1
62
256
6
ByLayer
370
18
48
1
60
0
100
AcDbLine
10
-92.161281
20
-9.9375
30
0
11
0
21
-9.9375
31
0
39
0
210
0
220
0
230
1
0
LINE
5
82
100
AcDbEntity
8
SK1
62
256
6
ByLayer
370
18
48
1
60
0
100
AcDbLine
10
0
20
9.9375
30
0
11
0
21
-9.9375
31
0
39
0
210
0
220
0
230
1
0
LINE
5
83
100
AcDbEntity
8
SK1
62
256
6
ByLayer
370
18
48
1
60
0
100
AcDbLine
10
0
20
9.9375
30
0
11
-92.161281
21
9.9375
31
0
39
0
210
0
220
0
230
1
0
LINE
5
84
100
AcDbEntity
8
1
62
256
6
ByLayer
370
18
48
1
60
0
100
AcDbLine
10
0
20
-9.9375
30
0
11
1.704291
21
-9.944936
31
0
39
0
210
0
220
0
230
1
0
LINE
5
85
100
AcDbEntity
8
1
62
256
6
ByLayer
370
18
48
1
60
0
100
AcDbLine
10
1.704291
20
-9.944936
30
0
11
0.37074
21
10.30824
31
0
39
0
210
0
220
0
230
1
0
LINE
5
86
100
AcDbEntity
8
1
62
256
6
ByLayer
370
18
48
1
60
0
100
AcDbLine
10
0.37074
20
10.30824
30
0
11
0
21
9.9375
31
0
39
0
210
0
220
0
230
1
0
LINE
5
87
100
AcDbEntity
8
1
62
256
6
ByLayer
370
18
48
1
60
0
100
AcDbLine
10
21.383402
20
6.652009
30
0
11
21.645977
21
10.068695
31
0
39
0
210
0
220
0
230
1
0
LINE
5
88
100
AcDbEntity
8
1
62
256
6
ByLayer
370
18
48
1
60
0
100
AcDbLine
10
32.225639
20
-9.945439
30
0
11
12.076156
21
-9.95676
31
0
39
0
210
0
220
0
230
1
0
LINE
5
89
100
AcDbEntity
8
1
62
256
6
ByLayer
370
18
48
1
60
0
100
AcDbLine
10
24.805971
20
-4.085728
30
0
11
24.838925
21
-4.094404
31
0
39
0
210
0
220
0
230
1
0
LINE
5
8A
100
AcDbEntity
8
1
62
256
6
ByLayer
370
18
48
1
60
0
100
AcDbLine
10
0.897832
20
10.835332
30
0
11
1.830049
21
10.835332
31
0
39
0
210
0
220
0
230
1
0
LINE
5
8B
100
AcDbEntity
8
1
62
256
6
ByLayer
370
18
48
1
60
0
100
AcDbLine
10
8.519242
20
-9.944638
30
0
11
8.454471
21
-9.710538
31
0
39
0
210
0
220
0
230
1
0
LINE
5
8C
100
AcDbEntity
8
1
62
256
6
ByLayer
370
18
48
1
60
0
100
AcDbLine
10
4.80833
20
3.467534
30
0
11
2.76979
21
10.835332
31
0
39
0
210
0
220
0
230
1
0
LINE
5
8D
100
AcDbEntity
8
1
62
256
6
ByLayer
370
18
48
1
60
0
100
AcDbLine
10
21.645977
20
10.068695
30
0
11
18.784852
21
10.835332
31
0
39
0
210
0
220
0
230
1
0
LINE
5
8E
100
AcDbEntity
8
1
62
256
6
ByLayer
370
18
48
1
60
0
100
AcDbLine
10
18.784852
20
10.835332
30
0
11
6.32335
21
10.835332
31
0
39
0
210
0
220
0
230
1
0
LINE
5
8F
100
AcDbEntity
8
1
62
256
6
ByLayer
370
18
48
1
60
0
100
AcDbLine
10
12.076156
20
-9.95676
30
0
11
11.823213
21
-9.042558
31
0
39
0
210
0
220
0
230
1
0
LINE
5
90
100
AcDbEntity
8
1
62
256
6
ByLayer
370
18
48
1
60
0
100
AcDbLine
10
7.982136
20
4.840062
30
0
11
6.32335
21
10.835332
31
0
39
0
210
0
220
0
230
1
0
LINE
5
91
100
AcDbEntity
8
1
62
256
6
ByLayer
370
18
48
1
60
0
100
AcDbLine
10
1.830049
20
10.835332
30
0
11
2.76979
21
10.835332
31
0
39
0
210
0
220
0
230
1
0
LINE
5
92
100
AcDbEntity
8
1
62
256
6
ByLayer
370
18
48
1
60
0
100
AcDbLine
10
21.737405
20
9.97962
30
0
11
21.480813
21
6.640781
31
0
39
0
210
0
220
0
230
1
0
LINE
5
93
100
AcDbEntity
8
1
62
256
6
ByLayer
370
18
48
1
60
0
100
AcDbLine
10
2.76979
20
10.835332
30
0
11
2.799323
21
10.835332
31
0
39
0
210
0
220
0
230
1
0
LINE
5
94
100
AcDbEntity
8
1
62
256
6
ByLayer
370
18
48
1
60
0
100
AcDbLine
10
0
20
-9.9375
30
0
11
0
21
9.9375
31
0
39
0
210
0
220
0
230
1
0
LINE
5
95
100
AcDbEntity
8
1
62
256
6
ByLayer
370
18
48
1
60
0
100
AcDbLine
10
0.37074
20
10.30824
30
0
11
0.897832
21
10.835332
31
0
39
0
210
0
220
0
230
1
0
LINE
5
96
100
AcDbEntity
8
1
62
256
6
ByLayer
370
18
48
1
60
0
100
AcDbLine
10
8.549015
20
-9.945503
30
0
11
8.519242
21
-9.944638
31
0
39
0
210
0
220
0
230
1
0
LINE
5
97
100
AcDbEntity
8
1
62
256
6
ByLayer
370
18
48
1
60
0
100
AcDbLine
10
25.71667
20
-3.443654
30
0
11
25.938883
21
-3.502158
31
0
39
0
210
0
220
0
230
1
0
LINE
5
98
100
AcDbEntity
8
1
62
256
6
ByLayer
370
18
48
1
60
0
100
AcDbLine
10
32.500414
20
-5.229662
30
0
11
32.514754
21
-5.233437
31
0
39
0
210
0
220
0
230
1
0
LINE
5
99
100
AcDbEntity
8
1
62
256
6
ByLayer
370
18
48
1
60
0
100
AcDbLine
10
32.225639
20
-9.945439
30
0
11
32.577821
21
-5.362775
31
0
39
0
210
0
220
0
230
1
0
LINE
5
9A
100
AcDbEntity
8
1
62
256
6
ByLayer
370
18
48
1
60
0
100
AcDbLine
10
21.645977
20
10.068695
30
0
11
21.737405
21
9.97962
31
0
39
0
210
0
220
0
230
1
0
LINE
5
9B
100
AcDbEntity
8
1
62
256
6
ByLayer
370
18
48
1
60
0
100
AcDbLine
10
7.578671
20
-9.941636
30
0
11
7.391392
21
-9.264761
31
0
39
0
210
0
220
0
230
1
0
LINE
5
9C
100
AcDbEntity
8
1
62
256
6
ByLayer
370
18
48
1
60
0
100
AcDbLine
10
4.124288
20
2.543374
30
0
11
1.830049
21
10.835332
31
0
39
0
210
0
220
0
230
1
0
LINE
5
9D
100
AcDbEntity
8
1
62
256
6
ByLayer
370
18
48
1
60
0
100
AcDbLine
10
24.843494
20
-4.091046
30
0
11
24.806869
21
-4.081403
31
0
39
0
210
0
220
0
230
1
0
LINE
5
9E
100
AcDbEntity
8
1
62
256
6
ByLayer
370
18
48
1
60
0
100
AcDbLine
10
23.225003
20
-5.332283
30
0
11
23.027219
21
-5.315047
31
0
39
0
210
0
220
0
230
1
0
LINE
5
9F
100
AcDbEntity
8
1
62
256
6
ByLayer
370
18
48
1
60
0
100
AcDbLine
10
8.549015
20
-9.945503
30
0
11
8.48451
21
-9.712368
31
0
39
0
210
0
220
0
230
1
0
LINE
5
A0
100
AcDbEntity
8
1
62
256
6
ByLayer
370
18
48
1
60
0
100
AcDbLine
10
4.832827
20
3.485735
30
0
11
2.799323
21
10.835332
31
0
39
0
210
0
220
0
230
1
0
LINE
5
A1
100
AcDbEntity
8
1
62
256
6
ByLayer
370
18
48
1
60
0
100
AcDbLine
10
2.799323
20
10.835332
30
0
11
6.32335
21
10.835332
31
0
39
0
210
0
220
0
230
1
0
LINE
5
A2
100
AcDbEntity
8
1
62
256
6
ByLayer
370
18
48
1
60
0
100
AcDbLine
10
25.749097
20
-3.564925
30
0
11
32.577821
21
-5.362775
31
0
39
0
210
0
220
0
230
1
0
LINE
5
A3
100
AcDbEntity
8
1
62
256
6
ByLayer
370
18
48
1
60
0
100
AcDbLine
10
7.578671
20
-9.941636
30
0
11
1.704291
21
-9.944936
31
0
39
0
210
0
220
0
230
1
0
LINE
5
A4
100
AcDbEntity
8
1
62
256
6
ByLayer
370
18
48
1
60
0
100
AcDbLine
10
12.076156
20
-9.95676
30
0
11
8.549015
21
-9.945503
31
0
39
0
210
0
220
0
230
1
0
LINE
5
A5
100
AcDbEntity
8
1
62
256
6
ByLayer
370
18
48
1
60
0
100
AcDbLine
10
32.577821
20
-5.362775
30
0
11
32.514754
21
-5.233437
31
0
39
0
210
0
220
0
230
1
0
LINE
5
A6
100
AcDbEntity
8
1
62
256
6
ByLayer
370
18
48
1
60
0
100
AcDbLine
10
25.258439
20
-3.783717
30
0
11
24.590815
21
-3.604827
31
0
39
0
210
0
220
0
230
1
0
LINE
5
A7
100
AcDbEntity
8
1
62
256
6
ByLayer
370
18
48
1
60
0
100
AcDbLine
10
24.588415
20
-4.243275
30
0
11
23.946741
21
-4.071339
31
0
39
0
210
0
220
0
230
1
0
LINE
5
A8
100
AcDbEntity
8
1
62
256
6
ByLayer
370
18
48
1
60
0
100
AcDbLine
10
6.199845
20
-7.589226
30
0
11
3.961427
21
0.500981
31
0
39
0
210
0
220
0
230
1
0
LINE
5
A9
100
AcDbEntity
8
1
62
256
6
ByLayer
370
18
48
1
60
0
100
AcDbLine
10
5.572199
20
1.194274
30
0
11
7.810617
21
-6.895932
31
0
39
0
210
0
220
0
230
1
0
LINE
5
AA
100
AcDbEntity
8
1
62
256
6
ByLayer
370
18
48
1
60
0
100
AcDbLine
10
28.588993
20
4.651996
30
0
11
28.384988
21
4.756878
31
0
39
0
210
0
220
0
230
1
0
LINE
5
AB
100
AcDbEntity
8
1
62
256
6
ByLayer
370
18
48
1
60
0
100
AcDbLine
10
16.420606
20
-4.414333
30
0
11
14.45815
21
-4.946003
31
0
39
0
210
0
220
0
230
1
0
LINE
5
AC
100
AcDbEntity
8
1
62
256
6
ByLayer
370
18
48
1
60
0
100
AcDbLine
10
27.295907
20
2.735168
30
0
11
29.848842
21
3.303271
31
0
39
0
210
0
220
0
230
1
0
LINE
5
AD
100
AcDbEntity
8
1
62
256
6
ByLayer
370
18
48
1
60
0
100
AcDbLine
10
17.363952
20
-7.524015
30
0
11
12.170717
21
-8.930971
31
0
39
0
210
0
220
0
230
1
0
LINE
5
AE
100
AcDbEntity
8
1
62
256
6
ByLayer
370
18
48
1
60
0
100
AcDbLine
10
8.329076
20
4.934354
30
0
11
6.953468
21
4.561672
31
0
39
0
210
0
220
0
230
1
0
LINE
5
AF
100
AcDbEntity
8
1
62
256
6
ByLayer
370
18
48
1
60
0
100
AcDbLine
10
10.790756
20
-9.307253
30
0
11
10.256215
21
-9.537325
31
0
39
0
210
0
220
0
230
1
0
LINE
5
B0
100
AcDbEntity
8
1
62
256
6
ByLayer
370
18
48
1
60
0
100
AcDbLine
10
8.409255
20
0.404473
30
0
11
7.993334
21
0.225455
31
0
39
0
210
0
220
0
230
1
0
LINE
5
B1
100
AcDbEntity
8
1
62
256
6
ByLayer
370
18
48
1
60
0
100
AcDbLine
10
6.539338
20
-0.167423
30
0
11
7.925026
21
-5.175647
31
0
39
0
210
0
220
0
230
1
0
LINE
5
B2
100
AcDbEntity
8
1
62
256
6
ByLayer
370
18
48
1
60
0
100
AcDbLine
10
6.911385
20
3.504141
30
0
11
14.204058
21
5.479879
31
0
39
0
210
0
220
0
230
1
0
LINE
5
B3
100
AcDbEntity
8
1
62
256
6
ByLayer
370
18
48
1
60
0
100
AcDbLine
10
12.24638
20
3.047891
30
0
11
14.208836
21
3.579562
31
0
39
0
210
0
220
0
230
1
0
LINE
5
B4
100
AcDbEntity
8
1
62
256
6
ByLayer
370
18
48
1
60
0
100
AcDbLine
10
10.150454
20
-8.202667
30
0
11
17.443126
21
-6.22693
31
0
39
0
210
0
220
0
230
1
0
LINE
5
B5
100
AcDbEntity
8
1
62
256
6
ByLayer
370
18
48
1
60
0
100
AcDbLine
10
11.816973
20
2.86307
30
0
11
13.770676
21
3.390973
31
0
39
0
210
0
220
0
230
1
0
LINE
5
B6
100
AcDbEntity
8
1
62
256
6
ByLayer
370
18
48
1
60
0
100
AcDbLine
10
5.572199
20
1.194274
30
0
11
3.961427
21
0.500981
31
0
39
0
210
0
220
0
230
1
0
LINE
5
B7
100
AcDbEntity
8
1
62
256
6
ByLayer
370
18
48
1
60
0
100
AcDbLine
10
12.166364
20
-8.934572
30
0
11
12.170717
21
-8.930971
31
0
39
0
210
0
220
0
230
1
0
LINE
5
B8
100
AcDbEntity
8
1
62
256
6
ByLayer
370
18
48
1
60
0
100
AcDbLine
10
7.810617
20
-6.895932
30
0
11
6.199845
21
-7.589226
31
0
39
0
210
0
220
0
230
1
0
LINE
5
B9
100
AcDbEntity
8
1
62
256
6
ByLayer
370
18
48
1
60
0
100
AcDbLine
10
10.790756
20
-9.307253
30
0
11
12.166364
21
-8.934572
31
0
39
0
210
0
220
0
230
1
0
LINE
5
BA
100
AcDbEntity
8
1
62
256
6
ByLayer
370
18
48
1
60
0
100
AcDbLine
10
27.951057
20
4.97997
30
0
11
26.9906
21
5.473758
31
0
39
0
210
0
220
0
230
1
0
LINE
5
BB
100
AcDbEntity
8
1
62
256
6
ByLayer
370
18
48
1
60
0
100
AcDbLine
10
29.091221
20
0.859129
30
0
11
29.196475
21
1.073552
31
0
39
0
210
0
220
0
230
1
0
LINE
5
BC
100
AcDbEntity
8
1
62
256
6
ByLayer
370
18
48
1
60
0
100
AcDbLine
10
29.473894
20
1.453742
30
0
11
29.351519
21
1.263592
31
0
39
0
210
0
220
0
230
1
0
LINE
5
BD
100
AcDbEntity
8
1
62
256
6
ByLayer
370
18
48
1
60
0
100
AcDbLine
10
8.329076
20
4.934354
30
0
11
8.334563
21
4.933858
31
0
39
0
210
0
220
0
230
1
0
LINE
5
BE
100
AcDbEntity
8
1
62
256
6
ByLayer
370
18
48
1
60
0
100
AcDbLine
10
12.166364
20
-8.934572
30
0
11
10.327969
21
-9.514723
31
0
39
0
210
0
220
0
230
1
0
LINE
5
BF
100
AcDbEntity
8
1
62
256
6
ByLayer
370
18
48
1
60
0
100
AcDbLine
10
28.152011
20
4.848505
30
0
11
27.951057
21
4.97997
31
0
39
0
210
0
220
0
230
1
0
LINE
5
C0
100
AcDbEntity
8
1
62
256
6
ByLayer
370
18
48
1
60
0
100
AcDbLine
10
13.527797
20
6.340814
30
0
11
8.334563
21
4.933858
31
0
39
0
210
0
220
0
230
1
0
LINE
5
C1
100
AcDbEntity
8
1
62
256
6
ByLayer
370
18
48
1
60
0
100
AcDbLine
10
29.091221
20
0.859129
30
0
11
28.515082
21
-0.036103
31
0
39
0
210
0
220
0
230
1
0
LINE
5
C2
100
AcDbEntity
8
1
62
256
6
ByLayer
370
18
48
1
60
0
100
AcDbLine
10
7.993334
20
0.225455
30
0
11
6.539338
21
-0.167423
31
0
39
0
210
0
220
0
230
1
0
LINE
5
C3
100
AcDbEntity
8
1
62
256
6
ByLayer
370
18
48
1
60
0
100
AcDbLine
10
14.208836
20
3.579562
30
0
11
13.770676
21
3.390973
31
0
39
0
210
0
220
0
230
1
0
LINE
5
C4
100
AcDbEntity
8
1
62
256
6
ByLayer
370
18
48
1
60
0
100
AcDbLine
10
15.450342
20
-0.02406
30
0
11
15.654065
21
0.09356
31
0
39
0
210
0
220
0
230
1
0
LINE
5
C5
100
AcDbEntity
8
1
62
256
6
ByLayer
370
18
48
1
60
0
100
AcDbLine
10
16.194088
20
-4.248524
30
0
11
16.194325
21
-4.248388
31
0
39
0
210
0
220
0
230
1
0
LINE
5
C6
100
AcDbEntity
8
1
62
256
6
ByLayer
370
18
48
1
60
0
100
AcDbLine
10
14.980923
20
0.442837
30
0
11
15.184646
21
0.560457
31
0
39
0
210
0
220
0
230
1
0
LINE
5
C7
100
AcDbEntity
8
1
62
256
6
ByLayer
370
18
48
1
60
0
100
AcDbLine
10
15.486886
20
-1.38584
30
0
11
15.690609
21
-1.268221
31
0
39
0
210
0
220
0
230
1
0
LINE
5
C8
100
AcDbEntity
8
1
62
256
6
ByLayer
370
18
48
1
60
0
100
AcDbLine
10
13.078188
20
-0.624813
30
0
11
13.145133
21
-0.586162
31
0
39
0
210
0
220
0
230
1
0
LINE
5
C9
100
AcDbEntity
8
1
62
256
6
ByLayer
370
18
48
1
60
0
100
AcDbLine
10
13.626383
20
0.464668
30
0
11
13.830106
21
0.582288
31
0
39
0
210
0
220
0
230
1
0
LINE
5
CA
100
AcDbEntity
8
1
62
256
6
ByLayer
370
18
48
1
60
0
100
AcDbLine
10
14.332494
20
-2.087394
30
0
11
14.536217
21
-1.969774
31
0
39
0
210
0
220
0
230
1
0
LINE
5
CB
100
AcDbEntity
8
1
62
256
6
ByLayer
370
18
48
1
60
0
100
AcDbLine
10
25.125634
20
-3.235816
30
0
11
32.343553
21
-5.169851
31
0
39
0
210
0
220
0
230
1
0
LINE
5
CC
100
AcDbEntity
8
1
62
256
6
ByLayer
370
18
48
1
60
0
100
AcDbLine
10
33.597221
20
7.570992
30
0
11
22.757979
21
10.475358
31
0
39
0
210
0
220
0
230
1
0
LINE
5
CD
100
AcDbEntity
8
1
62
256
6
ByLayer
370
18
48
1
60
0
100
AcDbLine
10
32.299054
20
-5.195543
30
0
11
32.343553
21
-5.169851
31
0
39
0
210
0
220
0
230
1
0
LINE
5
CE
100
AcDbEntity
8
1
62
256
6
ByLayer
370
18
48
1
60
0
100
AcDbLine
10
21.776724
20
9.778762
30
0
11
21.535057
21
6.634133
31
0
39
0
210
0
220
0
230
1
0
LINE
5
CF
100
AcDbEntity
8
1
62
256
6
ByLayer
370
18
48
1
60
0
100
AcDbLine
10
33.324808
20
-4.473256
30
0
11
34.186367
21
6.737542
31
0
39
0
210
0
220
0
230
1
0
LINE
5
D0
100
AcDbEntity
8
1
62
256
6
ByLayer
370
18
48
1
60
0
100
AcDbLine
10
24.59086
20
-3.604839
30
0
11
25.258489
21
-3.78373
31
0
39
0
210
0
220
0
230
1
0
LINE
5
D1
100
AcDbEntity
8
1
62
256
6
ByLayer
370
18
48
1
60
0
100
AcDbLine
10
21.776724
20
9.778762
30
0
11
21.719422
21
9.745678
31
0
39
0
210
0
220
0
230
1
0
MTEXT
5
145
100
AcDbEntity
8
SK6
62
256
6
ByLayer
370
18
48
1
60
0
100
AcDbMText
10
-43.111281
20
-20.394196
30
0
210
0
220
0
230
1
1
\W0.7446;DCBNR 2020K 12
40
3.5
41
0
44
1.084337
50
0
71
7
72
5
7
iso_b_vert
0
DIMENSION
5
156
100
AcDbEntity
8
2
62
256
6
ByLayer
370
13
48
1
60
0
100
AcDbDimension
2
DimnDraft3D1
10
30.757668
20
8.331847
30
0
11
18.692183
21
27.607979
31
0
70
34
71
5
72
1
41
1
210
0
220
0
230
1
3
Standard
100
AcDb2LineAngularDimension
13
34.188719
23
7.4125
33
0
14
34.188719
24
5.825
34
0
15
34.188719
25
7.4125
35
0
16
21.431609
26
24.037889
36
0
40
0
0
DIMENSION
5
16C
100
AcDbEntity
8
SK2
62
256
6
ByLayer
370
13
48
1
60
0
100
AcDbDimension
2
DimnDraft3D2
10
-99.911281
20
9.9375
30
0
11
-99.911281
21
-5.281579
31
0
70
32
71
5
72
1
41
1
210
0
220
0
230
1
3
Standard
100
AcDbAlignedDimension
13
-94.161281
23
-9.9375
33
0
14
-94.161281
24
9.9375
34
0
50
90
100
AcDbRotatedDimension
1001
ACAD
1000
DSTYLE
1002
{
1070
    74
1070
     0
1070
   279
1070
     0
1070
   172
1070
     1
1070
   173
1070
     1
1070
   340
1005
146
1070
    77
1070
     1
1070
    73
1070
     0
1070
   171
1070
     3
1070
   274
1070
     4
1070
   177
1070
     2
1070
   176
1070
     2
1070
   178
1070
     7
1070
    78
1070
     8
1070
    41
1041
3.175
1070
   147
1041
2.25
1070
    42
1041
2.0
1070
    44
1041
2.0
1070
   140
1041
4.5
1070
   343
1005
157
1070
   344
1005
157
1002
}
0
DIMENSION
5
17A
100
AcDbEntity
8
2
62
256
6
ByLayer
370
13
48
1
60
0
100
AcDbDimension
2
DimnDraft3D3
10
56.438719
20
7.4125
30
0
11
56.438719
21
-5.981579
31
0
70
32
71
5
72
1
41
1
210
0
220
0
230
1
3
Standard
100
AcDbAlignedDimension
13
2
23
-9.9375
33
0
14
36.188719
24
7.4125
34
0
50
90
100
AcDbRotatedDimension
1001
ACAD
1000
DSTYLE
1002
{
1070
    74
1070
     0
1070
   279
1070
     0
1070
   172
1070
     1
1070
   173
1070
     1
1070
   340
1005
146
1070
    77
1070
     1
1070
    73
1070
     0
1070
   171
1070
     3
1070
   274
1070
     4
1070
   177
1070
     2
1070
   176
1070
     2
1070
   178
1070
     7
1070
    78
1070
     8
1070
    41
1041
3.175
1070
   147
1041
2.25
1070
    42
1041
2.0
1070
    44
1041
2.0
1070
   140
1041
4.5
1070
   343
1005
157
1070
   344
1005
157
1002
}
0
DIMENSION
5
188
100
AcDbEntity
8
2
62
256
6
ByLayer
370
13
48
1
60
0
100
AcDbDimension
2
DimnDraft3D4
10
34.188719
20
37.1625
30
0
11
11.575938
21
37.1625
31
0
70
32
71
5
72
1
41
1
210
0
220
0
230
1
3
Standard
100
AcDbAlignedDimension
13
0
23
11.9375
33
0
14
34.188719
24
9.4125
34
0
50
0
100
AcDbRotatedDimension
1001
ACAD
1000
DSTYLE
1002
{
1070
   279
1070
     0
1070
   172
1070
     1
1070
   173
1070
     1
1070
   340
1005
146
1070
    77
1070
     1
1070
    73
1070
     0
1070
   171
1070
     3
1070
   274
1070
     4
1070
   177
1070
     2
1070
   176
1070
     2
1070
   178
1070
     7
1070
    78
1070
     8
1070
    41
1041
3.175
1070
   147
1041
2.25
1070
    42
1041
2.0
1070
    44
1041
2.0
1070
   140
1041
4.5
1070
   343
1005
157
1070
   344
1005
157
1002
}
0
DIMENSION
5
196
100
AcDbEntity
8
SK2
62
256
6
ByLayer
370
13
48
1
60
0
100
AcDbDimension
2
DimnDraft3D5
10
-92.161281
20
47.1625
30
0
11
-35.386939
21
47.1625
31
0
70
32
71
5
72
1
41
1
210
0
220
0
230
1
3
Standard
100
AcDbAlignedDimension
13
34.188719
23
9.4125
33
0
14
-92.161281
24
11.9375
34
0
50
0
100
AcDbRotatedDimension
1001
ACAD
1000
DSTYLE
1002
{
1070
   279
1070
     0
1070
   172
1070
     1
1070
   173
1070
     1
1070
   340
1005
146
1070
    77
1070
     1
1070
    73
1070
     0
1070
   171
1070
     3
1070
   274
1070
     4
1070
   177
1070
     2
1070
   176
1070
     2
1070
   178
1070
     7
1070
    78
1070
     8
1070
    41
1041
3.175
1070
   147
1041
2.25
1070
    42
1041
2.0
1070
    44
1041
2.0
1070
   140
1041
4.5
1070
   343
1005
157
1070
   344
1005
157
1002
}
0
ENDSEC
0
SECTION
2
OBJECTS
0
DICTIONARY
5
200
330
0
100
AcDbDictionary
280
0
281
1
3
ACAD_GROUP
350
201
3
ACAD_MLINESTYLE
350
202
0
DICTIONARY
5
201
330
0
100
AcDbDictionary
280
0
281
1
0
DICTIONARY
5
202
330
0
100
AcDbDictionary
280
0
281
1
3
Standard
350
18
0
MLINESTYLE
5
18
330
202
100
AcDbMlineStyle
2
Standard
70
0
3

62
256
51
90
52
90
71
2
49
-0.5
62
256
6
ByLayer
49
0.5
62
256
6
ByLayer
0
RASTERVARIABLES
5
1ef
330

100
AcDbRasterVariables
90
0
70
1
71
1
72
1
0
ENDSEC
0
EOF
