0
SECTION
2
HEADER
9
$ACADVER
1
AC1015
9
$DWGCODEPAGE
3
ANSI_1252
9
$HANDSEED
5
227
9
$ANGBASE
50
0
9
$ANGDIR
70
0
9
$ATTMODE
70
1
9
$AUNITS
70
0
9
$AUPREC
70
0
9
$CECOLOR
62
256
9
$CELTSCALE
40
1
9
$CELTYPE
6
ByLayer
9
$CELWEIGHT
370
18
9
$CLAYER
8
0
9
$CMLJUST
70
0
9
$CMLSCALE
40
1
9
$CMLSTYLE
2
Standard
9
$DIMSTYLE
2
Standard
9
$TEXTSIZE
40
0.2
9
$TEXTSTYLE
7
Standard
9
$LUNITS
70
2
9
$LUPREC
70
4
9
$EXTNAMES
290
1
9
$INSUNITS
70
4
9
$LTSCALE
40
1
9
$LWDISPLAY
290
1
9
$PDMODE
70
0
9
$PDSIZE
40
0
9
$PLINEGEN
70
0
0
ENDSEC
0
SECTION
2
CLASSES
0
CLASS
1
RASTERVARIABLES
2
AcDbRasterVariables
3
ISM
90
0
280
0
281
0
0
ENDSEC
0
SECTION
2
TABLES
0
TABLE
2
VPORT
5
21d
100
AcDbSymbolTable
0
VPORT
5
1
100
AcDbSymbolTableRecord
100
AcDbViewportTableRecord
2
*Active
70
0
10
0
20
0
11
1
21
1
12
-1
22
1
13
0
23
0
14
0.5
24
0.5
15
10
25
10
16
0
26
0
36
1
17
0
27
0
37
0
0
ENDTAB
0
TABLE
2
LTYPE
5
21e
100
AcDbSymbolTable
0
LTYPE
5
14
100
AcDbSymbolTableRecord
100
AcDbLinetypeTableRecord
70
0
2
ByBlock
3

72
65
73
0
40
0
0
LTYPE
5
15
100
AcDbSymbolTableRecord
100
AcDbLinetypeTableRecord
70
0
2
ByLayer
3

72
65
73
0
40
0
0
LTYPE
5
16
100
AcDbSymbolTableRecord
100
AcDbLinetypeTableRecord
70
0
2
CONTINUOUS
3
Solid line
72
65
73
0
40
0
0
LTYPE
5
6A
100
AcDbSymbolTableRecord
100
AcDbLinetypeTableRecord
70
0
2
CENTER
3
____ _ ____ _ ____ _ ____
72
65
73
4
40
47.5
49
22
74
0
49
-8.5
74
0
49
8.5
74
0
49
-8.5
74
0
0
LTYPE
5
6B
100
AcDbSymbolTableRecord
100
AcDbLinetypeTableRecord
70
0
2
DASHED
3
__ __ __ __ __ __ __ __ __
72
65
73
2
40
25.72
49
12.86
74
0
49
-12.86
74
0
0
ENDTAB
0
TABLE
2
LAYER
5
21f
100
AcDbSymbolTable
0
LAYER
5
10
100
AcDbSymbolTableRecord
100
AcDbLayerTableRecord
2
0
70
0
62
7
6
CONTINUOUS
290
1
370
-3
390
0
0
LAYER
5
6D
100
AcDbSymbolTableRecord
100
AcDbLayerTableRecord
2
2
70
0
62
7
6
CONTINUOUS
290
1
370
-3
390
0
0
LAYER
5
6F
100
AcDbSymbolTableRecord
100
AcDbLayerTableRecord
2
80
70
0
62
-6
6
CONTINUOUS
290
1
370
-3
390
0
0
LAYER
5
71
100
AcDbSymbolTableRecord
100
AcDbLayerTableRecord
2
81
70
0
62
-3
6
CONTINUOUS
290
1
370
-3
390
0
0
LAYER
5
73
100
AcDbSymbolTableRecord
100
AcDbLayerTableRecord
2
1
70
0
62
4
6
CONTINUOUS
290
1
370
-3
390
0
0
LAYER
5
20a
100
AcDbSymbolTableRecord
100
AcDbLayerTableRecord
2
SK1
70
0
62
4
6
CONTINUOUS
290
1
370
-3
390
0
0
LAYER
5
20b
100
AcDbSymbolTableRecord
100
AcDbLayerTableRecord
2
SK6
70
0
62
5
6
CONTINUOUS
290
1
370
-3
390
0
0
LAYER
5
20c
100
AcDbSymbolTableRecord
100
AcDbLayerTableRecord
2
SK2
70
0
62
7
6
CONTINUOUS
290
1
370
-3
390
0
0
ENDTAB
0
TABLE
2
STYLE
5
220
100
AcDbSymbolTable
0
STYLE
5
11
100
AcDbSymbolTableRecord
100
AcDbTextStyleTableRecord
2
Standard
3
txt
70
0
71
0
40
0
41
1
42
0
50
0
0
STYLE
5
160
100
AcDbSymbolTableRecord
100
AcDbTextStyleTableRecord
2
iso_b_vert
3
simplex.shx
70
0
71
0
40
0
41
1
42
0
50
0
0
STYLE
5
161
100
AcDbSymbolTableRecord
100
AcDbTextStyleTableRecord
2
DWGDirectTextStyle
3
simplex
70
0
71
0
40
0
41
1
42
0
50
0
0
ENDTAB
0
TABLE
2
DIMSTYLE
5
221
100
AcDbSymbolTable
100
AcDbDimStyleTable
0
DIMSTYLE
105
27
100
AcDbSymbolTableRecord
100
AcDbDimStyleTableRecord
2
Standard
70
0
3
<>
41
0.18
42
0.0625
44
0.18
140
0.18
147
0.09
73
0
74
0
77
1
271
2
275
0
278
52
280
0
340
11
0
ENDTAB
0
TABLE
2
VIEW
5
222
100
AcDbSymbolTable
0
ENDTAB
0
TABLE
2
UCS
5
223
100
AcDbSymbolTable
0
ENDTAB
0
TABLE
2
APPID
5
224
100
AcDbSymbolTable
0
APPID
5
12
100
AcDbSymbolTableRecord
100
AcDbRegAppTableRecord
2
ACAD
70
0
0
ENDTAB
0
TABLE
2
BLOCK_RECORD
5
225
100
AcDbSymbolTable
0
BLOCK_RECORD
5
1F
100
AcDbSymbolTableRecord
100
AcDbBlockTableRecord
2
*Model_Space
340
0
70
0
0
BLOCK_RECORD
5
1B
100
AcDbSymbolTableRecord
100
AcDbBlockTableRecord
2
*Paper_Space
340
0
70
0
0
BLOCK_RECORD
5
23
100
AcDbSymbolTableRecord
100
AcDbBlockTableRecord
2
*Paper_Space0
340
0
70
0
0
BLOCK_RECORD
5
163
100
AcDbSymbolTableRecord
100
AcDbBlockTableRecord
2
DimnDraft3D11
340
0
70
0
0
BLOCK_RECORD
5
172
100
AcDbSymbolTableRecord
100
AcDbBlockTableRecord
2
DimnDraft3D2
340
0
70
0
0
BLOCK_RECORD
5
180
100
AcDbSymbolTableRecord
100
AcDbBlockTableRecord
2
_CLOSED
340
0
70
0
0
BLOCK_RECORD
5
187
100
AcDbSymbolTableRecord
100
AcDbBlockTableRecord
2
DimnDraft3D3
340
0
70
0
0
BLOCK_RECORD
5
195
100
AcDbSymbolTableRecord
100
AcDbBlockTableRecord
2
DimnDraft3D4
340
0
70
0
0
BLOCK_RECORD
5
1A3
100
AcDbSymbolTableRecord
100
AcDbBlockTableRecord
2
DimnDraft3D5
340
0
70
0
0
ENDTAB
0
ENDSEC
0
SECTION
2
BLOCKS
0
BLOCK
5
20
100
AcDbEntity
8
0
100
AcDbBlockBegin
2
*Model_Space
70
0
10
0
20
0
30
0
3
*Model_Space
0
ENDBLK
5
21
100
AcDbEntity
8
0
100
AcDbBlockEnd
0
BLOCK
5
1C
100
AcDbEntity
8
0
100
AcDbBlockBegin
2
*Paper_Space
70
0
10
0
20
0
30
0
3
*Paper_Space
0
ENDBLK
5
1D
100
AcDbEntity
8
0
100
AcDbBlockEnd
0
BLOCK
5
24
100
AcDbEntity
8
0
100
AcDbBlockBegin
2
*Paper_Space0
70
0
10
0
20
0
30
0
3
*Paper_Space0
0
ENDBLK
5
25
100
AcDbEntity
8
0
100
AcDbBlockEnd
0
BLOCK
5
164
100
AcDbEntity
8
0
100
AcDbBlockBegin
2
DimnDraft3D11
70
0
10
0
20
0
30
0
3
DimnDraft3D11
0
LINE
5
166
100
AcDbEntity
8
SK2
62
256
6
ByLayer
370
25
48
1
60
0
100
AcDbLine
10
41.624223
20
-11.9125
30
0
11
41.624223
21
-50.1625
31
0
39
0
210
0
220
0
230
1
0
LINE
5
168
100
AcDbEntity
8
SK2
62
256
6
ByLayer
370
25
48
1
60
0
100
AcDbLine
10
-129.725777
20
-14.4375
30
0
11
-129.725777
21
-50.1625
31
0
39
0
210
0
220
0
230
1
0
LINE
5
169
100
AcDbEntity
8
SK2
62
256
6
ByLayer
370
25
48
1
60
0
100
AcDbLine
10
41.624223
20
-48.1625
30
0
11
-129.725777
21
-48.1625
31
0
39
0
210
0
220
0
230
1
0
LINE
5
16A
100
AcDbEntity
8
SK2
62
256
6
ByLayer
370
25
48
1
60
0
100
AcDbLine
10
41.624223
20
-48.1625
30
0
11
38.449225
21
-48.580497
31
0
39
0
210
0
220
0
230
1
0
LINE
5
16B
100
AcDbEntity
8
SK2
62
256
6
ByLayer
370
25
48
1
60
0
100
AcDbLine
10
41.624223
20
-48.1625
30
0
11
38.449222
21
-47.744503
31
0
39
0
210
0
220
0
230
1
0
LINE
5
16C
100
AcDbEntity
8
SK2
62
256
6
ByLayer
370
25
48
1
60
0
100
AcDbLine
10
38.449225
20
-48.580497
30
0
11
38.449222
21
-47.744503
31
0
39
0
210
0
220
0
230
1
0
LINE
5
16D
100
AcDbEntity
8
SK2
62
256
6
ByLayer
370
25
48
1
60
0
100
AcDbLine
10
-129.725777
20
-48.1625
30
0
11
-126.550778
21
-47.744503
31
0
39
0
210
0
220
0
230
1
0
LINE
5
16E
100
AcDbEntity
8
SK2
62
256
6
ByLayer
370
25
48
1
60
0
100
AcDbLine
10
-129.725777
20
-48.1625
30
0
11
-126.550775
21
-48.580497
31
0
39
0
210
0
220
0
230
1
0
LINE
5
16F
100
AcDbEntity
8
SK2
62
256
6
ByLayer
370
25
48
1
60
0
100
AcDbLine
10
-126.550778
20
-47.744503
30
0
11
-126.550775
21
-48.580497
31
0
39
0
210
0
220
0
230
1
0
MTEXT
5
170
100
AcDbEntity
8
SK2
62
256
6
ByLayer
370
18
48
1
60
0
100
AcDbMText
10
-49.326435
20
-47.0375
30
0
210
0
220
0
230
1
1
\W0.6864;170.0
40
4.5
41
0
44
1.084337
50
0
71
7
72
5
7
iso_b_vert
0
ENDBLK
5
165
100
AcDbEntity
8
0
100
AcDbBlockEnd
0
BLOCK
5
17D
100
AcDbEntity
8
0
100
AcDbBlockBegin
2
DimnDraft3D2
70
0
10
0
20
0
30
0
3
DimnDraft3D2
0
MTEXT
5
173
100
AcDbEntity
8
2
62
256
6
ByLayer
370
18
48
1
60
0
100
AcDbMText
10
26.922768
20
-24.276697
30
0
210
0
220
0
230
1
1
\W0.7399;75%%d
40
4.5
41
0
44
1.084337
50
322.5
71
7
72
5
7
iso_b_vert
0
LINE
5
174
100
AcDbEntity
8
2
62
256
6
ByLayer
370
13
48
1
60
0
100
AcDbLine
10
36.698001
20
-11.232477
30
0
11
18.9534
21
-15.987129
31
0
39
0
210
0
220
0
230
1
0
LINE
5
175
100
AcDbEntity
8
2
62
256
6
ByLayer
370
13
48
1
60
0
100
AcDbLine
10
41.624223
20
-11.9125
30
0
11
41.624223
21
-33.383063
31
0
39
0
210
0
220
0
230
1
0
ARC
5
176
100
AcDbEntity
8
2
62
256
6
ByLayer
370
13
48
1
60
0
100
AcDbCircle
39
0
10
41.624223
20
-9.9125
30
0
40
21.4705627491871
210
0
220
0
230
1
100
AcDbArc
50
195
51
270
0
LINE
5
177
100
AcDbEntity
8
2
62
256
6
ByLayer
370
13
48
1
60
0
100
AcDbLine
10
20.885252
20
-15.469491
30
0
11
22.219076
21
-18.38089
31
0
39
0
210
0
220
0
230
1
0
LINE
5
178
100
AcDbEntity
8
2
62
256
6
ByLayer
370
13
48
1
60
0
100
AcDbLine
10
20.885252
20
-15.469491
30
0
11
21.420102
21
-18.626909
31
0
39
0
210
0
220
0
230
1
0
LINE
5
179
100
AcDbEntity
8
2
62
256
6
ByLayer
370
13
48
1
60
0
100
AcDbLine
10
22.219076
20
-18.38089
30
0
11
21.420102
21
-18.626909
31
0
39
0
210
0
220
0
230
1
0
LINE
5
17A
100
AcDbEntity
8
2
62
256
6
ByLayer
370
13
48
1
60
0
100
AcDbLine
10
41.624223
20
-31.383063
30
0
11
38.435965
21
-31.683637
31
0
39
0
210
0
220
0
230
1
0
LINE
5
17B
100
AcDbEntity
8
2
62
256
6
ByLayer
370
13
48
1
60
0
100
AcDbLine
10
41.624223
20
-31.383063
30
0
11
38.466805
21
-30.848213
31
0
39
0
210
0
220
0
230
1
0
LINE
5
17C
100
AcDbEntity
8
2
62
256
6
ByLayer
370
13
48
1
60
0
100
AcDbLine
10
38.435965
20
-31.683637
30
0
11
38.466805
21
-30.848213
31
0
39
0
210
0
220
0
230
1
0
ENDBLK
5
17E
100
AcDbEntity
8
0
100
AcDbBlockEnd
0
BLOCK
5
181
100
AcDbEntity
8
0
100
AcDbBlockBegin
2
_CLOSED
70
0
10
0
20
0
30
0
3
_CLOSED
0
LINE
5
183
100
AcDbEntity
8
0
62
256
6
ByLayer
370
-2
48
1
60
0
100
AcDbLine
10
-1
20
0.166667
30
0
11
0
21
0
31
0
39
0
210
0
220
0
230
1
0
LINE
5
184
100
AcDbEntity
8
0
62
256
6
ByLayer
370
-2
48
1
60
0
100
AcDbLine
10
0
20
0
30
0
11
-1
21
-0.166667
31
0
39
0
210
0
220
0
230
1
0
LINE
5
185
100
AcDbEntity
8
0
62
256
6
ByLayer
370
-2
48
1
60
0
100
AcDbLine
10
-1
20
0.166667
30
0
11
-1
21
-0.166667
31
0
39
0
210
0
220
0
230
1
0
LINE
5
186
100
AcDbEntity
8
0
62
256
6
ByLayer
370
-2
48
1
60
0
100
AcDbLine
10
0
20
0
30
0
11
-1
21
0
31
0
39
0
210
0
220
0
230
1
0
ENDBLK
5
182
100
AcDbEntity
8
0
100
AcDbBlockEnd
0
BLOCK
5
192
100
AcDbEntity
8
0
100
AcDbBlockBegin
2
DimnDraft3D3
70
0
10
0
20
0
30
0
3
DimnDraft3D3
0
MTEXT
5
188
100
AcDbEntity
8
2
62
256
6
ByLayer
370
18
48
1
60
0
100
AcDbMText
10
16.98119
20
-37.0375
30
0
210
0
220
0
230
1
1
\W0.6856;41.6
40
4.5
41
0
44
1.084337
50
0
71
7
72
5
7
iso_b_vert
0
LINE
5
189
100
AcDbEntity
8
2
62
256
6
ByLayer
370
13
48
1
60
0
100
AcDbLine
10
0
20
-14.4375
30
0
11
0
21
-40.1625
31
0
39
0
210
0
220
0
230
1
0
LINE
5
18A
100
AcDbEntity
8
2
62
256
6
ByLayer
370
13
48
1
60
0
100
AcDbLine
10
41.624223
20
-11.9125
30
0
11
41.624223
21
-40.1625
31
0
39
0
210
0
220
0
230
1
0
LINE
5
18B
100
AcDbEntity
8
2
62
256
6
ByLayer
370
13
48
1
60
0
100
AcDbLine
10
0
20
-38.1625
30
0
11
41.624223
21
-38.1625
31
0
39
0
210
0
220
0
230
1
0
LINE
5
18C
100
AcDbEntity
8
2
62
256
6
ByLayer
370
13
48
1
60
0
100
AcDbLine
10
0
20
-38.1625
30
0
11
3.174998
21
-37.744503
31
0
39
0
210
0
220
0
230
1
0
LINE
5
18D
100
AcDbEntity
8
2
62
256
6
ByLayer
370
13
48
1
60
0
100
AcDbLine
10
0
20
-38.1625
30
0
11
3.175002
21
-38.580497
31
0
39
0
210
0
220
0
230
1
0
LINE
5
18E
100
AcDbEntity
8
2
62
256
6
ByLayer
370
13
48
1
60
0
100
AcDbLine
10
3.174998
20
-37.744503
30
0
11
3.175002
21
-38.580497
31
0
39
0
210
0
220
0
230
1
0
LINE
5
18F
100
AcDbEntity
8
2
62
256
6
ByLayer
370
13
48
1
60
0
100
AcDbLine
10
41.624223
20
-38.1625
30
0
11
38.449225
21
-38.580497
31
0
39
0
210
0
220
0
230
1
0
LINE
5
190
100
AcDbEntity
8
2
62
256
6
ByLayer
370
13
48
1
60
0
100
AcDbLine
10
41.624223
20
-38.1625
30
0
11
38.449222
21
-37.744503
31
0
39
0
210
0
220
0
230
1
0
LINE
5
191
100
AcDbEntity
8
2
62
256
6
ByLayer
370
13
48
1
60
0
100
AcDbLine
10
38.449225
20
-38.580497
30
0
11
38.449222
21
-37.744503
31
0
39
0
210
0
220
0
230
1
0
ENDBLK
5
193
100
AcDbEntity
8
0
100
AcDbBlockEnd
0
BLOCK
5
1A0
100
AcDbEntity
8
0
100
AcDbBlockBegin
2
DimnDraft3D4
70
0
10
0
20
0
30
0
3
DimnDraft3D4
0
MTEXT
5
196
100
AcDbEntity
8
2
62
256
6
ByLayer
370
18
48
1
60
0
100
AcDbMText
10
62.749223
20
-2.894079
30
0
210
0
220
0
230
1
1
\W0.7346;22.0
40
4.5
41
0
44
1.084337
50
90
71
7
72
5
7
iso_b_vert
0
LINE
5
197
100
AcDbEntity
8
2
62
256
6
ByLayer
370
13
48
1
60
0
100
AcDbLine
10
2
20
12.4375
30
0
11
65.874223
21
12.4375
31
0
39
0
210
0
220
0
230
1
0
LINE
5
198
100
AcDbEntity
8
2
62
256
6
ByLayer
370
13
48
1
60
0
100
AcDbLine
10
43.624223
20
-9.9125
30
0
11
65.874223
21
-9.9125
31
0
39
0
210
0
220
0
230
1
0
LINE
5
199
100
AcDbEntity
8
2
62
256
6
ByLayer
370
13
48
1
60
0
100
AcDbLine
10
63.874223
20
12.4375
30
0
11
63.874223
21
-9.9125
31
0
39
0
210
0
220
0
230
1
0
LINE
5
19A
100
AcDbEntity
8
2
62
256
6
ByLayer
370
13
48
1
60
0
100
AcDbLine
10
63.874223
20
12.4375
30
0
11
64.29222
21
9.262502
31
0
39
0
210
0
220
0
230
1
0
LINE
5
19B
100
AcDbEntity
8
2
62
256
6
ByLayer
370
13
48
1
60
0
100
AcDbLine
10
63.874223
20
12.4375
30
0
11
63.456226
21
9.262498
31
0
39
0
210
0
220
0
230
1
0
LINE
5
19C
100
AcDbEntity
8
2
62
256
6
ByLayer
370
13
48
1
60
0
100
AcDbLine
10
64.29222
20
9.262502
30
0
11
63.456226
21
9.262498
31
0
39
0
210
0
220
0
230
1
0
LINE
5
19D
100
AcDbEntity
8
2
62
256
6
ByLayer
370
13
48
1
60
0
100
AcDbLine
10
63.874223
20
-9.9125
30
0
11
63.456226
21
-6.737502
31
0
39
0
210
0
220
0
230
1
0
LINE
5
19E
100
AcDbEntity
8
2
62
256
6
ByLayer
370
13
48
1
60
0
100
AcDbLine
10
63.874223
20
-9.9125
30
0
11
64.29222
21
-6.737498
31
0
39
0
210
0
220
0
230
1
0
LINE
5
19F
100
AcDbEntity
8
2
62
256
6
ByLayer
370
13
48
1
60
0
100
AcDbLine
10
63.456226
20
-6.737502
30
0
11
64.29222
21
-6.737498
31
0
39
0
210
0
220
0
230
1
0
ENDBLK
5
1A1
100
AcDbEntity
8
0
100
AcDbBlockEnd
0
BLOCK
5
1AE
100
AcDbEntity
8
0
100
AcDbBlockBegin
2
DimnDraft3D5
70
0
10
0
20
0
30
0
3
DimnDraft3D5
0
MTEXT
5
1A4
100
AcDbEntity
8
SK2
62
256
6
ByLayer
370
18
48
1
60
0
100
AcDbMText
10
-138.600777
20
-4.156579
30
0
210
0
220
0
230
1
1
\W0.7346;25.0
40
4.5
41
0
44
1.084337
50
90
71
7
72
5
7
iso_b_vert
0
LINE
5
1A5
100
AcDbEntity
8
SK2
62
256
6
ByLayer
370
13
48
1
60
0
100
AcDbLine
10
-131.725777
20
12.4375
30
0
11
-139.475777
21
12.4375
31
0
39
0
210
0
220
0
230
1
0
LINE
5
1A6
100
AcDbEntity
8
SK2
62
256
6
ByLayer
370
13
48
1
60
0
100
AcDbLine
10
-131.725777
20
-12.4375
30
0
11
-139.475777
21
-12.4375
31
0
39
0
210
0
220
0
230
1
0
LINE
5
1A7
100
AcDbEntity
8
SK2
62
256
6
ByLayer
370
13
48
1
60
0
100
AcDbLine
10
-137.475777
20
12.4375
30
0
11
-137.475777
21
-12.4375
31
0
39
0
210
0
220
0
230
1
0
LINE
5
1A8
100
AcDbEntity
8
SK2
62
256
6
ByLayer
370
13
48
1
60
0
100
AcDbLine
10
-137.475777
20
12.4375
30
0
11
-137.05778
21
9.262502
31
0
39
0
210
0
220
0
230
1
0
LINE
5
1A9
100
AcDbEntity
8
SK2
62
256
6
ByLayer
370
13
48
1
60
0
100
AcDbLine
10
-137.475777
20
12.4375
30
0
11
-137.893774
21
9.262498
31
0
39
0
210
0
220
0
230
1
0
LINE
5
1AA
100
AcDbEntity
8
SK2
62
256
6
ByLayer
370
13
48
1
60
0
100
AcDbLine
10
-137.05778
20
9.262502
30
0
11
-137.893774
21
9.262498
31
0
39
0
210
0
220
0
230
1
0
LINE
5
1AB
100
AcDbEntity
8
SK2
62
256
6
ByLayer
370
13
48
1
60
0
100
AcDbLine
10
-137.475777
20
-12.4375
30
0
11
-137.893774
21
-9.262502
31
0
39
0
210
0
220
0
230
1
0
LINE
5
1AC
100
AcDbEntity
8
SK2
62
256
6
ByLayer
370
13
48
1
60
0
100
AcDbLine
10
-137.475777
20
-12.4375
30
0
11
-137.05778
21
-9.262498
31
0
39
0
210
0
220
0
230
1
0
LINE
5
1AD
100
AcDbEntity
8
SK2
62
256
6
ByLayer
370
13
48
1
60
0
100
AcDbLine
10
-137.893774
20
-9.262502
30
0
11
-137.05778
21
-9.262498
31
0
39
0
210
0
220
0
230
1
0
ENDBLK
5
1AF
100
AcDbEntity
8
0
100
AcDbBlockEnd
0
ENDSEC
0
SECTION
2
ENTITIES
0
ELLIPSE
5
D9
100
AcDbEntity
8
1
62
256
6
ByLayer
370
18
48
1
60
0
100
AcDbEllipse
10
33.338912
20
-3.959566
30
0
11
1.58750000000002
21
2.74963065701558
31
0
210
0
220
0
230
1
40
0.989133
41
-2.60840131487648
42
-0.017569174923056
0
ELLIPSE
5
DA
100
AcDbEntity
8
1
62
256
6
ByLayer
370
18
48
1
60
0
100
AcDbEllipse
10
17.112101
20
0.168572
30
0
11
2.50000000000003
21
4.33012701892218
31
0
210
0
220
0
230
1
40
0.989133
41
-1.03299065879922
42
-2.4693248068514E-16
0
ELLIPSE
5
DB
100
AcDbEntity
8
1
62
256
6
ByLayer
370
18
48
1
60
0
100
AcDbEllipse
10
17.112101
20
0.168572
30
0
11
2.50000000000003
21
4.33012701892218
31
0
210
0
220
0
230
1
40
0.989133
41
0
42
0.295996854376601
0
ELLIPSE
5
DC
100
AcDbEntity
8
1
62
256
6
ByLayer
370
18
48
1
60
0
100
AcDbEllipse
10
9.024822
20
-3.856802
30
0
11
1.42925169960528
21
2.63765797236401
31
0
210
0
220
0
230
1
40
0.9865
41
0.0892487394620094
42
0.229639942064431
0
ELLIPSE
5
DD
100
AcDbEntity
8
1
62
256
6
ByLayer
370
18
48
1
60
0
100
AcDbEllipse
10
17.967386
20
-0.062397
30
0
11
-2.45354875098908
21
-4.52797951922488
31
0
210
0
220
0
230
1
40
0.9865
41
0.229639942064428
42
-3.05268634065744
0
ELLIPSE
5
DE
100
AcDbEntity
8
1
62
256
6
ByLayer
370
18
48
1
60
0
100
AcDbEllipse
10
26.91054
20
4.954638
30
0
11
1.74912729598984
21
3.02957734555992
31
0
210
0
220
0
230
1
40
0.989133
41
-0.965394297118343
42
-0.353765615300053
0
ELLIPSE
5
DF
100
AcDbEntity
8
1
62
256
6
ByLayer
370
18
48
1
60
0
100
AcDbEllipse
10
26.891441
20
4.965665
30
0
11
1.67412729598984
21
2.89967353499225
31
0
210
0
220
0
230
1
40
0.989133
41
-0.965394297118348
42
-0.28801284448105
0
ELLIPSE
5
E0
100
AcDbEntity
8
1
62
256
6
ByLayer
370
18
48
1
60
0
100
AcDbEllipse
10
28.234574
20
3.940446
30
0
11
-1.69715012845493
21
-2.93955025055596
31
0
210
0
220
0
230
1
40
0.989133
41
-1.90132781258048
42
-1.81521353357132
0
ELLIPSE
5
E1
100
AcDbEntity
8
1
62
256
6
ByLayer
370
18
48
1
60
0
100
AcDbEllipse
10
17.233061
20
0.098735
30
0
11
0.700000000000008
21
1.21243556529821
31
0
210
0
220
0
230
1
40
0.989133
41
1.5832830216628
42
2.20116089918983
0
ELLIPSE
5
E2
100
AcDbEntity
8
1
62
256
6
ByLayer
370
18
48
1
60
0
100
AcDbEllipse
10
16.86762
20
1.524722
30
0
11
-0.225000000000002
21
-0.389711431702996
31
0
210
0
220
0
230
1
40
0.989133
41
2.50494336925821
42
2.79622749116853
0
ELLIPSE
5
E3
100
AcDbEntity
8
1
62
256
6
ByLayer
370
18
48
1
60
0
100
AcDbEllipse
10
17.163031
20
0.139167
30
0
11
0.700000000000008
21
1.21243556529821
31
0
210
0
220
0
230
1
40
0.989133
41
-3.11243067028358
42
-0.140778310053258
0
ELLIPSE
5
E4
100
AcDbEntity
8
1
62
256
6
ByLayer
370
18
48
1
60
0
100
AcDbEllipse
10
17.233061
20
0.098735
30
0
11
0.700000000000008
21
1.21243556529821
31
0
210
0
220
0
230
1
40
0.989133
41
2.75281704605758
42
-2.97685763348731
0
ELLIPSE
5
E5
100
AcDbEntity
8
1
62
256
6
ByLayer
370
18
48
1
60
0
100
AcDbEllipse
10
17.233061
20
0.098735
30
0
11
0.700000000000008
21
1.21243556529821
31
0
210
0
220
0
230
1
40
0.989133
41
0.347937338452757
42
0.936155972858307
0
ELLIPSE
5
E6
100
AcDbEntity
8
1
62
256
6
ByLayer
370
18
48
1
60
0
100
AcDbEllipse
10
17.233061
20
0.098735
30
0
11
0.700000000000008
21
1.21243556529821
31
0
210
0
220
0
230
1
40
0.989133
41
-0.699260212743894
42
-0.0819494291464976
0
ELLIPSE
5
E7
100
AcDbEntity
8
1
62
256
6
ByLayer
370
18
48
1
60
0
100
AcDbEllipse
10
16.18452
20
-0.944174
30
0
11
-0.225000000000002
21
-0.389711431702996
31
0
210
0
220
0
230
1
40
0.989133
41
0.34536540818659
42
1.14932164288692
0
ELLIPSE
5
E8
100
AcDbEntity
8
1
62
256
6
ByLayer
370
18
48
1
60
0
100
AcDbEllipse
10
18.281603
20
1.141644
30
0
11
-0.225000000000002
21
-0.389711431702996
31
0
210
0
220
0
230
1
40
0.989133
41
1.45774581806156
42
2.79624117087085
0
ELLIPSE
5
E9
100
AcDbEntity
8
1
62
256
6
ByLayer
370
18
48
1
60
0
100
AcDbEllipse
10
17.598503
20
-1.327251
30
0
11
-0.225000000000002
21
-0.389711431702996
31
0
210
0
220
0
230
1
40
0.989133
41
0.345396954052808
42
2.19651919408344
0
ELLIPSE
5
EA
100
AcDbEntity
8
1
62
256
6
ByLayer
370
18
48
1
60
0
100
AcDbEllipse
10
19.036607
20
0.581994
30
0
11
0.250000000000003
21
0.433012701892218
31
0
210
0
220
0
230
1
40
0.989133
41
2.6097423307286
42
3.14158663920273
0
ELLIPSE
5
EB
100
AcDbEntity
8
1
62
256
6
ByLayer
370
18
48
1
60
0
100
AcDbEllipse
10
18.647044
20
-0.284342
30
0
11
-0.225000000000002
21
-0.389711431702996
31
0
210
0
220
0
230
1
40
0.989133
41
0.410548266864948
42
2.99311319358127
0
ELLIPSE
5
EC
100
AcDbEntity
8
1
62
256
6
ByLayer
370
18
48
1
60
0
100
AcDbEllipse
10
27.281097
20
-12.529397
30
0
11
-0.595500000000004
21
-1.03143625590726
31
0
210
0
220
0
230
1
40
0.989133
41
-0.965394297118414
42
0.77993495487588
0
ELLIPSE
5
ED
100
AcDbEntity
8
1
62
256
6
ByLayer
370
18
48
1
60
0
100
AcDbEllipse
10
40.442894
20
-9.002704
30
0
11
-0.595500000000004
21
-1.03143625590726
31
0
210
0
220
0
230
1
40
0.989133
41
0.779934954875904
42
2.17619835647138
0
ELLIPSE
5
EE
100
AcDbEntity
8
1
62
256
6
ByLayer
370
18
48
1
60
0
100
AcDbEllipse
10
39.396726
20
4.610264
30
0
11
-0.595500000000004
21
-1.03143625590726
31
0
210
0
220
0
230
1
40
0.989133
41
2.17619835647137
42
-2.36165769871388
0
ELLIPSE
5
EF
100
AcDbEntity
8
1
62
256
6
ByLayer
370
18
48
1
60
0
100
AcDbEllipse
10
13.664047
20
4.33625
30
0
11
5.30084309946888
21
-1.46665007238032
31
0
210
0
220
0
230
1
40
0.037276
41
-2.3296195116547
42
-1.92420033964145
0
ELLIPSE
5
F0
100
AcDbEntity
8
1
62
256
6
ByLayer
370
18
48
1
60
0
100
AcDbEllipse
10
14.14454
20
6.448599
30
0
11
-2.69292506735797
21
4.04030709945398
31
0
210
0
220
0
230
1
40
0.562635
41
-0.571906642845146
42
0.54606603132441
0
ELLIPSE
5
F1
100
AcDbEntity
8
1
62
256
6
ByLayer
370
18
48
1
60
0
100
AcDbEllipse
10
7.817669
20
12.04037
30
0
11
6.74652758114221
21
-1.86664554666586
31
0
210
0
220
0
230
1
40
0.037276
41
0.806029476653121
42
0.83670853381037
0
ELLIPSE
5
F2
100
AcDbEntity
8
1
62
256
6
ByLayer
370
18
48
1
60
0
100
AcDbEllipse
10
33.942872
20
-4.267277
30
0
11
-1.97443518744377
21
-2.031256112015
31
0
210
0
220
0
230
1
40
0.785786
41
1.57351890778263
42
2.02322888379082
0
ELLIPSE
5
F3
100
AcDbEntity
8
1
62
256
6
ByLayer
370
18
48
1
60
0
100
AcDbEllipse
10
8.258315
20
-2.593639
30
0
11
-2.68003116012749
21
-2.25732512703607
31
0
210
0
220
0
230
1
40
0.994282
41
-0.967245154787327
42
0.204989675923903
0
ELLIPSE
5
F4
100
AcDbEntity
8
1
62
256
6
ByLayer
370
18
48
1
60
0
100
AcDbEllipse
10
33.942872
20
-4.267277
30
0
11
-0.0281092230284109
21
-2.93249433650221
31
0
210
0
220
0
230
1
40
0.796432
41
1.40453015910516
42
1.85424013514509
0
ELLIPSE
5
F5
100
AcDbEntity
8
1
62
256
6
ByLayer
370
18
48
1
60
0
100
AcDbEllipse
10
11.120292
20
7.750267
30
0
11
-2.68003116008797
21
-2.25732512707857
31
0
210
0
220
0
230
1
40
0.994282
41
-2.13947998551581
42
-0.967245154803972
0
ELLIPSE
5
F6
100
AcDbEntity
8
1
62
256
6
ByLayer
370
18
48
1
60
0
100
AcDbEllipse
10
11.282563
20
-3.895308
30
0
11
-4.38745501958151
21
-1.34439754964941
31
0
210
0
220
0
230
1
40
0.529564
41
-0.418666593460083
42
0.699306080710237
0
ELLIPSE
5
F7
100
AcDbEntity
8
1
62
256
6
ByLayer
370
18
48
1
60
0
100
AcDbEllipse
10
12.065178
20
-1.442469
30
0
11
5.30084309946888
21
-1.46665007238032
31
0
210
0
220
0
230
1
40
0.037276
41
-2.32961951165468
42
-1.92420033964144
0
ELLIPSE
5
F8
100
AcDbEntity
8
1
62
256
6
ByLayer
370
18
48
1
60
0
100
AcDbEllipse
10
17.233061
20
0.098735
30
0
11
0.700000000000008
21
1.21243556529821
31
0
210
0
220
0
230
1
40
0.989133
41
-2.79365531513708
42
-1.92966008229071
0
ELLIPSE
5
F9
100
AcDbEntity
8
1
62
256
6
ByLayer
370
18
48
1
60
0
100
AcDbEllipse
10
17.494082
20
-0.051965
30
0
11
0.712500000000008
21
1.23408620039282
31
0
210
0
220
0
230
1
40
0.989133
41
0.126139275019831
42
0.386533083535431
0
ELLIPSE
5
FA
100
AcDbEntity
8
1
62
256
6
ByLayer
370
18
48
1
60
0
100
AcDbEllipse
10
17.488568
20
-0.048782
30
0
11
0.700000000000008
21
1.21243556529821
31
0
210
0
220
0
230
1
40
0.989133
41
-0.882462531094128
42
-0.699260212743889
0
ELLIPSE
5
FB
100
AcDbEntity
8
1
62
256
6
ByLayer
370
18
48
1
60
0
100
AcDbEllipse
10
18.536306
20
-1.226218
30
0
11
0.250000000000003
21
0.433012701892218
31
0
210
0
220
0
230
1
40
0.989133
41
0.410548266865051
42
1.04452268141651
0
ELLIPSE
5
FC
100
AcDbEntity
8
1
62
256
6
ByLayer
370
18
48
1
60
0
100
AcDbEllipse
10
18.797327
20
-1.376918
30
0
11
0.250000000000003
21
0.433012701892218
31
0
210
0
220
0
230
1
40
0.989133
41
1.68255754205675
42
2.19651919408346
0
ELLIPSE
5
FD
100
AcDbEntity
8
1
62
256
6
ByLayer
370
18
48
1
60
0
100
AcDbEllipse
10
18.536306
20
-1.226218
30
0
11
0.250000000000003
21
0.433012701892218
31
0
210
0
220
0
230
1
40
0.989133
41
1.56254477953195
42
2.19651919408342
0
ELLIPSE
5
FE
100
AcDbEntity
8
1
62
256
6
ByLayer
370
18
48
1
60
0
100
AcDbEllipse
10
19.297627
20
0.431294
30
0
11
0.250000000000003
21
0.433012701892218
31
0
210
0
220
0
230
1
40
0.989133
41
1.45774581806165
42
1.97170747008831
0
ELLIPSE
5
FF
100
AcDbEntity
8
1
62
256
6
ByLayer
370
18
48
1
60
0
100
AcDbEllipse
10
17.494082
20
-0.051965
30
0
11
0.712500000000008
21
1.23408620039282
31
0
210
0
220
0
230
1
40
0.989133
41
-1.96825582737339
42
-1.70786201885779
0
ELLIPSE
5
100
100
AcDbEntity
8
1
62
256
6
ByLayer
370
18
48
1
60
0
100
AcDbEllipse
10
19.036607
20
0.581994
30
0
11
0.250000000000003
21
0.433012701892218
31
0
210
0
220
0
230
1
40
0.989133
41
1.45774581806159
42
2.09172023261301
0
ELLIPSE
5
101
100
AcDbEntity
8
1
62
256
6
ByLayer
370
18
48
1
60
0
100
AcDbEllipse
10
16.190837
20
1.272988
30
0
11
0.250000000000003
21
0.433012701892218
31
0
210
0
220
0
230
1
40
0.989133
41
-2.7310443867248
42
-2.2170827346981
0
ELLIPSE
5
102
100
AcDbEntity
8
1
62
256
6
ByLayer
370
18
48
1
60
0
100
AcDbEllipse
10
17.488568
20
-0.048782
30
0
11
0.700000000000008
21
1.21243556529821
31
0
210
0
220
0
230
1
40
0.989133
41
-1.92966008229073
42
-1.74645776394049
0
ELLIPSE
5
103
100
AcDbEntity
8
1
62
256
6
ByLayer
370
18
48
1
60
0
100
AcDbEllipse
10
17.488568
20
-0.048782
30
0
11
0.700000000000008
21
1.21243556529821
31
0
210
0
220
0
230
1
40
0.989133
41
-2.97685763348775
42
-2.79365531513669
0
ELLIPSE
5
104
100
AcDbEntity
8
1
62
256
6
ByLayer
370
18
48
1
60
0
100
AcDbEllipse
10
16.993781
20
-1.860177
30
0
11
0.250000000000003
21
0.433012701892218
31
0
210
0
220
0
230
1
40
0.989133
41
-0.636649284331598
42
-0.122687632304822
0
ELLIPSE
5
105
100
AcDbEntity
8
1
62
256
6
ByLayer
370
18
48
1
60
0
100
AcDbEllipse
10
17.494082
20
-0.051965
30
0
11
0.712500000000008
21
1.23408620039282
31
0
210
0
220
0
230
1
40
0.989133
41
1.1733368262164
42
1.43373063473204
0
ELLIPSE
5
106
100
AcDbEntity
8
1
62
256
6
ByLayer
370
18
48
1
60
0
100
AcDbEllipse
10
17.488568
20
-0.048782
30
0
11
0.700000000000008
21
1.21243556529821
31
0
210
0
220
0
230
1
40
0.989133
41
2.2591301224957
42
2.4423324408459
0
ELLIPSE
5
107
100
AcDbEntity
8
1
62
256
6
ByLayer
370
18
48
1
60
0
100
AcDbEllipse
10
16.44554
20
-1.094874
30
0
11
-0.225000000000002
21
-0.389711431702996
31
0
210
0
220
0
230
1
40
0.989133
41
-1.68384683552823
42
1.14932164288692
0
ELLIPSE
5
108
100
AcDbEntity
8
1
62
256
6
ByLayer
370
18
48
1
60
0
100
AcDbEllipse
10
17.233061
20
0.098735
30
0
11
0.700000000000008
21
1.21243556529821
31
0
210
0
220
0
230
1
40
0.989133
41
-1.7464577639405
42
-0.882462531094125
0
ELLIPSE
5
109
100
AcDbEntity
8
1
62
256
6
ByLayer
370
18
48
1
60
0
100
AcDbEllipse
10
17.488568
20
-0.048782
30
0
11
0.700000000000008
21
1.21243556529821
31
0
210
0
220
0
230
1
40
0.989133
41
0.164735020102503
42
0.347937338453155
0
ELLIPSE
5
10A
100
AcDbEntity
8
1
62
256
6
ByLayer
370
18
48
1
60
0
100
AcDbEllipse
10
17.494082
20
-0.051965
30
0
11
0.712500000000008
21
1.23408620039282
31
0
210
0
220
0
230
1
40
0.989133
41
2.22053437741302
42
2.48092818592865
0
ELLIPSE
5
10B
100
AcDbEntity
8
1
62
256
6
ByLayer
370
18
48
1
60
0
100
AcDbEllipse
10
16.732761
20
-1.709476
30
0
11
0.250000000000003
21
0.433012701892218
31
0
210
0
220
0
230
1
40
0.989133
41
0.515347228335395
42
1.14932164288683
0
ELLIPSE
5
10C
100
AcDbEntity
8
1
62
256
6
ByLayer
370
18
48
1
60
0
100
AcDbEllipse
10
17.494082
20
-0.051965
30
0
11
-1.25000000000001
21
-2.16506350946109
31
0
210
0
220
0
230
1
40
0.989133
41
0
42
6.28318530717959
0
ELLIPSE
5
10D
100
AcDbEntity
8
1
62
256
6
ByLayer
370
18
48
1
60
0
100
AcDbEllipse
10
17.494082
20
-0.051965
30
0
11
0.712500000000008
21
1.23408620039282
31
0
210
0
220
0
230
1
40
0.989133
41
-0.921058276176794
42
-0.660664467661163
0
ELLIPSE
5
10E
100
AcDbEntity
8
1
62
256
6
ByLayer
370
18
48
1
60
0
100
AcDbEllipse
10
19.297627
20
0.431294
30
0
11
0.250000000000003
21
0.433012701892218
31
0
210
0
220
0
230
1
40
0.989133
41
2.72975509325328
42
-3.03946856189961
0
ELLIPSE
5
10F
100
AcDbEntity
8
1
62
256
6
ByLayer
370
18
48
1
60
0
100
AcDbEllipse
10
16.993781
20
-1.860177
30
0
11
0.250000000000003
21
0.433012701892218
31
0
210
0
220
0
230
1
40
0.989133
41
0.635359990860231
42
1.14932164288689
0
ELLIPSE
5
110
100
AcDbEntity
8
1
62
256
6
ByLayer
370
18
48
1
60
0
100
AcDbEllipse
10
15.690536
20
-0.535223
30
0
11
0.250000000000003
21
0.433012701892218
31
0
210
0
220
0
230
1
40
0.989133
41
-1.68384683552821
42
-1.16988518350149
0
ELLIPSE
5
111
100
AcDbEntity
8
1
62
256
6
ByLayer
370
18
48
1
60
0
100
AcDbEllipse
10
17.494082
20
-0.051965
30
0
11
0.712500000000008
21
1.23408620039282
31
0
210
0
220
0
230
1
40
0.989133
41
-3.01545337856998
42
-2.75505957005437
0
ELLIPSE
5
112
100
AcDbEntity
8
1
62
256
6
ByLayer
370
18
48
1
60
0
100
AcDbEllipse
10
16.190837
20
1.272988
30
0
11
0.250000000000003
21
0.433012701892218
31
0
210
0
220
0
230
1
40
0.989133
41
-1.45903511153303
42
-0.945073459506312
0
ELLIPSE
5
113
100
AcDbEntity
8
1
62
256
6
ByLayer
370
18
48
1
60
0
100
AcDbEllipse
10
18.797327
20
-1.376918
30
0
11
0.250000000000003
21
0.433012701892218
31
0
210
0
220
0
230
1
40
0.989133
41
0.410548266865051
42
0.924509918891761
0
ELLIPSE
5
114
100
AcDbEntity
8
1
62
256
6
ByLayer
370
18
48
1
60
0
100
AcDbEllipse
10
17.859523
20
-1.477951
30
0
11
-0.225000000000002
21
-0.389711431702996
31
0
210
0
220
0
230
1
40
0.989133
41
-0.636649284331625
42
2.1965191940834
0
ELLIPSE
5
115
100
AcDbEntity
8
1
62
256
6
ByLayer
370
18
48
1
60
0
100
AcDbEllipse
10
17.488568
20
-0.048782
30
0
11
0.700000000000008
21
1.21243556529821
31
0
210
0
220
0
230
1
40
0.989133
41
1.21193257129909
42
1.39513488964997
0
ELLIPSE
5
116
100
AcDbEntity
8
1
62
256
6
ByLayer
370
18
48
1
60
0
100
AcDbEllipse
10
16.080099
20
0.331113
30
0
11
-0.225000000000002
21
-0.389711431702996
31
0
210
0
220
0
230
1
40
0.989133
41
-2.73104438672483
42
0.102124091690236
0
ELLIPSE
5
117
100
AcDbEntity
8
1
62
256
6
ByLayer
370
18
48
1
60
0
100
AcDbEllipse
10
17.12864
20
1.374021
30
0
11
-0.225000000000002
21
-0.389711431702996
31
0
210
0
220
0
230
1
40
0.989133
41
2.50494336925824
42
-0.945073459506353
0
ELLIPSE
5
118
100
AcDbEntity
8
1
62
256
6
ByLayer
370
18
48
1
60
0
100
AcDbEllipse
10
17.733362
20
1.906947
30
0
11
0.250000000000003
21
0.433012701892218
31
0
210
0
220
0
230
1
40
0.989133
41
2.50494336925823
42
3.13891778380966
0
ELLIPSE
5
119
100
AcDbEntity
8
1
62
256
6
ByLayer
370
18
48
1
60
0
100
AcDbEllipse
10
17.994382
20
1.756247
30
0
11
0.250000000000003
21
0.433012701892218
31
0
210
0
220
0
230
1
40
0.989133
41
2.50494336925823
42
3.01890502128497
0
ELLIPSE
5
11A
100
AcDbEntity
8
1
62
256
6
ByLayer
370
18
48
1
60
0
100
AcDbEllipse
10
17.321637
20
0.047596
30
0
11
-2.50000000000002
21
-4.33012701892218
31
0
210
0
220
0
230
1
40
0.989133
41
0
42
6.28318530717959
0
ELLIPSE
5
11B
100
AcDbEntity
8
1
62
256
6
ByLayer
370
18
48
1
60
0
100
AcDbEllipse
10
17.994382
20
1.756247
30
0
11
0.250000000000003
21
0.433012701892218
31
0
210
0
220
0
230
1
40
0.989133
41
-2.50623266272957
42
-1.99227101070287
0
ELLIPSE
5
11C
100
AcDbEntity
8
1
62
256
6
ByLayer
370
18
48
1
60
0
100
AcDbEllipse
10
18.908064
20
-0.435042
30
0
11
-0.225000000000002
21
-0.389711431702996
31
0
210
0
220
0
230
1
40
0.989133
41
0.410548266864963
42
-3.03946856189956
0
ELLIPSE
5
11D
100
AcDbEntity
8
1
62
256
6
ByLayer
370
18
48
1
60
0
100
AcDbEllipse
10
18.542623
20
0.990944
30
0
11
-0.225000000000002
21
-0.389711431702996
31
0
210
0
220
0
230
1
40
0.989133
41
1.4577458180616
42
-1.99227101070296
0
ELLIPSE
5
11E
100
AcDbEntity
8
1
62
256
6
ByLayer
370
18
48
1
60
0
100
AcDbEllipse
10
15.690536
20
-0.535223
30
0
11
0.250000000000003
21
0.433012701892218
31
0
210
0
220
0
230
1
40
0.989133
41
-0.411837560336417
42
0.102124091690299
0
ELLIPSE
5
11F
100
AcDbEntity
8
1
62
256
6
ByLayer
370
18
48
1
60
0
100
AcDbEllipse
10
10.40927
20
12.447278
30
0
11
-0.830067170215892
21
-4.01022069641763E-05
31
0
210
0
220
0
230
1
40
0.004209
41
1.42682722412037
42
2.99762355091512
0
ELLIPSE
5
120
100
AcDbEntity
8
1
62
256
6
ByLayer
370
18
48
1
60
0
100
AcDbEllipse
10
28.527593
20
4.021032
30
0
11
-1.67523835646112
21
-2.90159794817881
31
0
210
0
220
0
230
1
40
0.989133
41
2.17619835647132
42
-2.53619062391325
0
ELLIPSE
5
121
100
AcDbEntity
8
1
62
256
6
ByLayer
370
18
48
1
60
0
100
AcDbEllipse
10
28.230918
20
3.995178
30
0
11
-1.67523835646112
21
-2.90159794817881
31
0
210
0
220
0
230
1
40
0.989133
41
-2.53619062391325
42
-1.89145238763668
0
POINT
5
6C
100
AcDbEntity
8
2
62
256
6
ByLayer
370
18
48
1
60
0
100
AcDbPoint
10
41.624223
20
34.7875
30
0
39
0
210
0
220
0
230
1
50
360
0
POINT
5
6E
100
AcDbEntity
8
80
62
256
6
ByLayer
370
18
48
1
60
0
100
AcDbPoint
10
0
20
0
30
0
39
0
210
0
220
0
230
1
50
360
0
POINT
5
70
100
AcDbEntity
8
81
62
256
6
ByLayer
370
18
48
1
60
0
100
AcDbPoint
10
41.624223
20
-9.9125
30
0
39
0
210
0
220
0
230
1
50
360
0
SPLINE
5
122
100
AcDbEntity
8
1
62
256
6
ByLayer
370
18
48
1
60
0
100
AcDbSpline
70
4
71
3
72
8
73
4
40
0
40
0
40
0
40
0
40
1
40
1
40
1
40
1
41
1
10
7.04989959712924
20
-5.88476167720177
30
0
41
1
10
6.73300346925839
20
-5.74897436179398
30
0
41
1
10
6.40857145129996
20
-5.57553573038814
30
0
41
1
10
6.09126200609512
20
-5.34612268077436
30
0
0
SPLINE
5
123
100
AcDbEntity
8
1
62
256
6
ByLayer
370
18
48
1
60
0
100
AcDbSpline
70
4
71
3
72
10
73
6
40
0
40
0
40
0
40
0
40
0.5
40
0.5
40
1
40
1
40
1
40
1
41
1
10
23.5399176594049
20
-0.333754077453335
30
0
41
1
10
23.5766490500569
20
0.798482146625474
30
0
41
1
10
23.1553628723815
20
1.91025081499512
30
0
41
1
10
21.7993526664894
20
3.69455612380185
30
0
41
1
10
20.8587037552265
20
4.39212279108742
30
0
41
1
10
19.784674679227
20
4.7354067431329
30
0
0
SPLINE
5
124
100
AcDbEntity
8
1
62
256
6
ByLayer
370
18
48
1
60
0
100
AcDbSpline
70
4
71
3
72
20
73
16
40
0
40
0
40
0
40
0
40
0.118962056339779
40
0.118962056339779
40
0.191173230286444
40
0.191173230286444
40
0.263712164126314
40
0.263712164126314
40
0.33330682258875
40
0.33330682258875
40
0.451479822004392
40
0.451479822004392
40
0.654414534009028
40
0.654414534009028
40
1
40
1
40
1
40
1
41
1
10
29.9681156471203
20
-5.78084940611635
30
0
41
1
10
29.9413197352092
20
-5.73788759342307
30
0
41
1
10
29.925526774673
20
-5.68577172565639
30
0
41
1
10
29.9355192757466
20
-5.58596587189035
30
0
41
1
10
29.9479328906081
20
-5.54355755902907
30
0
41
1
10
29.9916946328041
20
-5.45486757210909
30
0
41
1
10
30.0237248228831
20
-5.40749935263156
30
0
41
1
10
30.0995355490358
20
-5.31704018916426
30
0
41
1
10
30.143440126748
20
-5.27285532504234
30
0
41
1
10
30.2693820652993
20
-5.16039209435803
30
0
41
1
10
30.35864871066
20
-5.09449756985225
30
0
41
1
10
30.6034070766866
20
-4.93398976305826
30
0
41
1
10
30.7658800451833
20
-4.84834563447629
30
0
41
1
10
31.1943715057779
20
-4.65004183018286
30
0
41
1
10
31.4613777525304
20
-4.55597941395106
30
0
41
1
10
31.7197231969004
20
-4.47664808648366
30
0
0
SPLINE
5
125
100
AcDbEntity
8
1
62
256
6
ByLayer
370
18
48
1
60
0
100
AcDbSpline
70
4
71
3
72
12
73
8
40
0
40
0
40
0
40
0
40
0.500000000000006
40
0.500000000000006
40
0.750000000000003
40
0.750000000000003
40
1
40
1
40
1
40
1
41
1
10
32.1005932579909
20
-3.10008766959146
30
0
41
1
10
31.8337422142588
20
-2.82655198746073
30
0
41
1
10
31.5687265148147
20
-2.52574410415133
30
0
41
1
10
31.2414509001255
20
-1.93475662877978
30
0
41
1
10
31.143291061181
20
-1.70543525891745
30
0
41
1
10
31.0960959743944
20
-1.28634014782284
30
0
41
1
10
31.1681458850377
20
-1.14380617795922
30
0
41
1
10
31.2688337726752
20
-1.07972619348271
30
0
0
SPLINE
5
126
100
AcDbEntity
8
1
62
256
6
ByLayer
370
18
48
1
60
0
100
AcDbSpline
70
4
71
3
72
8
73
4
40
0
40
0
40
0
40
0
40
1
40
1
40
1
40
1
41
1
10
10.9416043012395
20
-1.4344767442295
30
0
41
1
10
9.56778400165229
20
-2.09834733613815
30
0
41
1
10
8.23362179664565
20
-2.69663562869309
30
0
41
1
10
7.20567807051907
20
-3.10510991869472
30
0
0
SPLINE
5
127
100
AcDbEntity
8
1
62
256
6
ByLayer
370
18
48
1
60
0
100
AcDbSpline
70
4
71
3
72
10
73
6
40
0
40
0
40
0
40
0
40
0.731096563947345
40
0.731096563947345
40
1
40
1
40
1
40
1
41
1
10
11.2394066820957
20
-1.62381119451828
30
0
41
1
10
11.1724109596766
20
-1.57429925645869
30
0
41
1
10
11.0983487191134
20
-1.52570615413785
30
0
41
1
10
10.9969429699344
20
-1.46554431013684
30
0
41
1
10
10.9692301236968
20
-1.44971743847336
30
0
41
1
10
10.9416043012395
20
-1.4344767442295
30
0
0
SPLINE
5
128
100
AcDbEntity
8
1
62
256
6
ByLayer
370
18
48
1
60
0
100
AcDbSpline
70
4
71
3
72
8
73
4
40
0
40
0
40
0
40
0
40
1
40
1
40
1
40
1
41
1
10
19.7846746901544
20
4.735406810906
30
0
41
1
10
19.9098258269033
20
5.51161038002766
30
0
41
1
10
19.9708394323086
20
6.15614027687801
30
0
41
1
10
19.960753011809
20
6.59544674363508
30
0
0
SPLINE
5
129
100
AcDbEntity
8
1
62
256
6
ByLayer
370
18
48
1
60
0
100
AcDbSpline
70
4
71
2
72
8
73
5
40
0
40
0
40
0
40
0.210534309729082
40
0.210534309729082
40
1
40
1
40
1
41
1
10
33.1408325194985
20
-7.26628385322095
30
0
41
1
10
32.6770544699915
20
-7.46425629390831
30
0
41
1
10
32.2049790418562
20
-7.64138420178367
30
0
41
1
10
30.4957191922625
20
-8.28271735138159
30
0
41
1
10
28.9571846953107
20
-8.6753555304505
30
0
0
SPLINE
5
12A
100
AcDbEntity
8
1
62
256
6
ByLayer
370
18
48
1
60
0
100
AcDbSpline
70
4
71
3
72
11
73
7
40
0
40
0
40
0
40
0
40
0.425230898249526
40
0.74415407193667
40
0.956769521061433
40
1
40
1
40
1
40
1
41
1.0258173342201
10
19.9607530118089
20
6.59544674363507
30
0
41
1.02559001729416
10
21.0290415251764
20
6.19375590937493
30
0
41
1.0228008665691
10
24.4896339297407
20
4.0243320143196
30
0
41
1.01953314781965
10
29.0227603857463
20
0.488883904787672
30
0
41
1.01775466813744
10
30.589357732982
20
-0.728215363026232
30
0
41
1.01823166218986
10
31.171579387742
20
-1.03234027026825
30
0
41
1.01834276704995
10
31.2688337726751
20
-1.07972619348272
30
0
0
SPLINE
5
12B
100
AcDbEntity
8
1
62
256
6
ByLayer
370
18
48
1
60
0
100
AcDbSpline
70
4
71
3
72
8
73
4
40
0
40
0
40
0
40
0
40
1
40
1
40
1
40
1
41
1
10
10.2806426701079
20
8.00858733315704
30
0
41
1
10
10.9315867011982
20
7.05258267317885
30
0
41
1
10
11.7561369293539
20
5.81204885516229
30
0
41
1
10
12.5889654735596
20
4.51950182712346
30
0
0
SPLINE
5
12C
100
AcDbEntity
8
1
62
256
6
ByLayer
370
18
48
1
60
0
100
AcDbSpline
70
4
71
3
72
14
73
10
40
0
40
0
40
0
40
0
40
0.26499896415096
40
0.26499896415096
40
0.633007150607464
40
0.633007150607464
40
0.984533813617862
40
0.984533813617862
40
1
40
1
40
1
40
1
41
1
10
35.2468647866833
20
-1.80232348951853
30
0
41
1
10
35.3526555844952
20
-1.90416772714178
30
0
41
1
10
35.4571180212121
20
-2.0227119835931
30
0
41
1
10
35.6915208897078
20
-2.33649388707565
30
0
41
1
10
35.8186903374982
20
-2.54868304591542
30
0
41
1
10
36.0285015574765
20
-2.9847386660181
30
0
41
1
10
36.1155524383838
20
-3.21257939139491
30
0
41
1
10
36.1870879894475
20
-3.44857149255162
30
0
41
1
10
36.1900977890439
20
-3.45861428309817
30
0
41
1
10
36.1930738274355
20
-3.46865820686941
30
0
0
SPLINE
5
12D
100
AcDbEntity
8
1
62
256
6
ByLayer
370
18
48
1
60
0
100
AcDbSpline
70
4
71
3
72
8
73
4
40
0
40
0
40
0
40
0
40
1
40
1
40
1
40
1
41
1
10
11.9526544497944
20
-2.42653783624445
30
0
41
1
10
11.7820424895015
20
-2.12043973260242
30
0
41
1
10
11.5357145471679
20
-1.84279199108676
30
0
41
1
10
11.2394066820957
20
-1.62381119451828
30
0
0
SPLINE
5
12E
100
AcDbEntity
8
1
62
256
6
ByLayer
370
18
48
1
60
0
100
AcDbSpline
70
4
71
3
72
8
73
4
40
0
40
0
40
0
40
0
40
1
40
1
40
1
40
1
41
1
10
12.3888972208899
20
10.9765984194894
30
0
41
1
10
11.8900895800795
20
11.1328409623533
30
0
41
1
10
11.3080773893204
20
11.2462423960203
30
0
41
1
10
10.6723817718691
20
11.2111990386675
30
0
0
SPLINE
5
12F
100
AcDbEntity
8
1
62
256
6
ByLayer
370
18
48
1
60
0
100
AcDbSpline
70
4
71
2
72
6
73
3
40
0
40
0
40
0
40
1
40
1
40
1
41
1.0258173342201
10
16.2826741996411
20
-6.69805731568051
30
0
41
1.0258173342201
10
15.735770022673
20
-7.47520806823014
30
0
41
1.0258173342201
10
15.1888658457049
20
-8.2523588207798
30
0
0
SPLINE
5
130
100
AcDbEntity
8
1
62
256
6
ByLayer
370
18
48
1
60
0
100
AcDbSpline
70
4
71
3
72
10
73
6
40
0
40
0
40
0
40
0
40
0.579529299651679
40
0.579529299651679
40
1
40
1
40
1
40
1
41
1
10
29.6671089474265
20
3.6705365200248
30
0
41
1
10
30.0317027774658
20
3.37819970902825
30
0
41
1
10
30.4093716977135
20
3.10643665624642
30
0
41
1
10
31.0435442831681
20
2.72387788351477
30
0
41
1
10
31.3105425961733
20
2.58872246018291
30
0
41
1
10
31.5615442809459
20
2.48755869053446
30
0
0
SPLINE
5
131
100
AcDbEntity
8
1
62
256
6
ByLayer
370
18
48
1
60
0
100
AcDbSpline
70
4
71
3
72
10
73
6
40
0
40
0
40
0
40
0
40
0.5
40
0.5
40
1
40
1
40
1
40
1
41
1
10
29.6671089474266
20
3.67053652002477
30
0
41
1
10
28.2219367929354
20
4.82929726740053
30
0
41
1
10
26.6902119627027
20
5.84749912477196
30
0
41
1
10
23.4393572688666
20
7.5795628148289
30
0
41
1
10
21.7103669976439
20
8.31124917210434
30
0
41
1
10
19.9098928489453
20
8.81062292504168
30
0
0
SPLINE
5
132
100
AcDbEntity
8
1
62
256
6
ByLayer
370
18
48
1
60
0
100
AcDbSpline
70
4
71
3
72
8
73
4
40
0
40
0
40
0
40
0
40
1
40
1
40
1
40
1
41
1
10
12.5889654735596
20
4.51950182712346
30
0
41
1
10
12.3086779416331
20
4.5335185021338
30
0
41
1
10
12.0356726612003
20
4.58338929815773
30
0
41
1
10
11.7781677523996
20
4.65846292985952
30
0
0
SPLINE
5
133
100
AcDbEntity
8
1
62
256
6
ByLayer
370
18
48
1
60
0
100
AcDbSpline
70
4
71
3
72
8
73
4
40
0
40
0
40
0
40
0
40
1
40
1
40
1
40
1
41
1
10
31.9946924519833
20
2.30144481167758
30
0
41
1
10
31.8518131002753
20
2.3672466854195
30
0
41
1
10
31.7072004093657
20
2.42885341516268
30
0
41
1
10
31.5615442809459
20
2.48755869053443
30
0
0
SPLINE
5
134
100
AcDbEntity
8
1
62
256
6
ByLayer
370
18
48
1
60
0
100
AcDbSpline
70
4
71
3
72
10
73
6
40
0
40
0
40
0
40
0
40
0.5
40
0.5
40
1
40
1
40
1
40
1
41
1
10
33.138022225737
20
-7.2689291862242
30
0
41
1
10
32.2341269553952
20
-7.43724008085781
30
0
41
1
10
31.5963656109814
20
-7.24488689643528
30
0
41
1
10
30.5769974094445
20
-6.6860909608173
30
0
41
1
10
30.2621022770838
20
-6.23638455130663
30
0
41
1
10
29.9681156471203
20
-5.78084940611635
30
0
0
SPLINE
5
135
100
AcDbEntity
8
1
62
256
6
ByLayer
370
18
48
1
60
0
100
AcDbSpline
70
4
71
3
72
8
73
4
40
0
40
0
40
0
40
0
40
1
40
1
40
1
40
1
41
1
10
10.1403656617441
20
7.63471871301246
30
0
41
1
10
10.1768401310185
20
7.76654664006915
30
0
41
1
10
10.2241493002829
20
7.8907210063758
30
0
41
1
10
10.2806426701079
20
8.00858733315704
30
0
0
SPLINE
5
136
100
AcDbEntity
8
1
62
256
6
ByLayer
370
18
48
1
60
0
100
AcDbSpline
70
4
71
3
72
16
73
12
40
0
40
0
40
0
40
0
40
0.107738294188995
40
0.107738294188995
40
0.260376815889414
40
0.260376815889414
40
0.501548994683954
40
0.501548994683954
40
0.879664328740044
40
0.879664328740044
40
1
40
1
40
1
40
1
41
1
10
7.20567807051907
20
-3.10510991869472
30
0
41
1
10
7.20056126620898
20
-3.15843418332364
30
0
41
1
10
7.19342967434449
20
-3.21399700965193
30
0
41
1
10
7.17539400942962
20
-3.34200323642068
30
0
41
1
10
7.16381365200527
20
-3.41465932183749
30
0
41
1
10
7.13515054889785
20
-3.58689176980476
30
0
41
1
10
7.11802139093862
20
-3.68167336283852
30
0
41
1
10
7.07605785555484
20
-3.89245313922982
30
0
41
1
10
7.05108866446358
20
-3.99466313680148
30
0
41
1
10
7.01635597836315
20
-4.09979820235978
30
0
41
1
10
7.00774691294902
20
-4.12320323672935
30
0
41
1
10
6.9989451029665
20
-4.14464939205601
30
0
0
SPLINE
5
137
100
AcDbEntity
8
1
62
256
6
ByLayer
370
18
48
1
60
0
100
AcDbSpline
70
4
71
3
72
10
73
6
40
0
40
0
40
0
40
0
40
0.5
40
0.5
40
1
40
1
40
1
40
1
41
1
10
17.0426096879802
20
-5.17510740122302
30
0
41
1
10
18.1413579401801
20
-5.42193439630302
30
0
41
1
10
19.311479209997
20
-5.30872607298221
30
0
41
1
10
21.3892238263116
20
-4.49033287507703
30
0
41
1
10
22.3135471411398
20
-3.76793949422117
30
0
41
1
10
22.8649697334431
20
-2.77318603413371
30
0
0
SPLINE
5
138
100
AcDbEntity
8
1
62
256
6
ByLayer
370
18
48
1
60
0
100
AcDbSpline
70
4
71
3
72
8
73
4
40
0
40
0
40
0
40
0
40
1
40
1
40
1
40
1
41
1
10
15.1888658457049
20
-8.25235882077979
30
0
41
1
10
18.8020565661434
20
-9.20807071378545
30
0
41
1
10
22.5392280101546
20
-9.2864692287541
30
0
41
1
10
26.2313025048711
20
-8.74733411940633
30
0
0
SPLINE
5
139
100
AcDbEntity
8
1
62
256
6
ByLayer
370
18
48
1
60
0
100
AcDbSpline
70
4
71
3
72
8
73
4
40
0
40
0
40
0
40
0
40
1
40
1
40
1
40
1
41
1
10
6.99894510296292
20
-4.14464939204359
30
0
41
1
10
6.99413827205206
20
-4.15636153335842
30
0
41
1
10
6.98936254629103
20
-4.16781796224279
30
0
41
1
10
6.9846083363671
20
-4.17901647030888
30
0
0
SPLINE
5
13A
100
AcDbEntity
8
1
62
256
6
ByLayer
370
18
48
1
60
0
100
AcDbSpline
70
4
71
3
72
8
73
4
40
0
40
0
40
0
40
0
40
1
40
1
40
1
40
1
41
1
10
17.471485663038
20
5.36742448693474
30
0
41
1
10
16.249268359843
20
5.69854876094411
30
0
41
1
10
14.9933926416576
20
5.49363374455933
30
0
41
1
10
13.9733121191233
20
4.87662838217548
30
0
0
SPLINE
5
13B
100
AcDbEntity
8
1
62
256
6
ByLayer
370
18
48
1
60
0
100
AcDbSpline
70
4
71
3
72
10
73
6
40
0
40
0
40
0
40
0
40
0.914968234315961
40
0.914968234315961
40
1
40
1
40
1
40
1
41
1
10
31.7197231969004
20
-4.47664808648366
30
0
41
1
10
32.1432033896077
20
-4.34653470787384
30
0
41
1
10
32.5634223243043
20
-4.22500019758016
30
0
41
1
10
33.0185576533186
20
-4.10114720806678
30
0
41
1
10
33.0572342951739
20
-4.09068930229361
30
0
41
1
10
33.0958751533324
20
-4.08031028718102
30
0
0
SPLINE
5
13C
100
AcDbEntity
8
1
62
256
6
ByLayer
370
18
48
1
60
0
100
AcDbSpline
70
4
71
3
72
10
73
6
40
0
40
0
40
0
40
0
40
0.731297369966808
40
0.731297369966808
40
1
40
1
40
1
40
1
41
1
10
12.5889654735596
20
4.51950182712346
30
0
41
1
10
12.6733618643344
20
4.5152813155174
30
0
41
1
10
12.7616862994798
20
4.51530145660408
30
0
41
1
10
12.8791585748462
20
4.52286236263089
30
0
41
1
10
12.9108264812927
20
4.52566512308655
30
0
41
1
10
12.9418404305068
20
4.52921355045009
30
0
0
SPLINE
5
13D
100
AcDbEntity
8
1
62
256
6
ByLayer
370
18
48
1
60
0
100
AcDbSpline
70
4
71
3
72
8
73
4
40
0
40
0
40
0
40
0
40
1
40
1
40
1
40
1
41
1
10
12.9418404305067
20
4.52921355045007
30
0
41
1
10
13.3148656719996
20
4.57189282889581
30
0
41
1
10
13.6679215633004
20
4.69191001298643
30
0
41
1
10
13.9733121191233
20
4.87662838217551
30
0
0
SPLINE
5
13E
100
AcDbEntity
8
1
62
256
6
ByLayer
370
18
48
1
60
0
100
AcDbSpline
70
4
71
3
72
10
73
6
40
0
40
0
40
0
40
0
40
0.311681797709787
40
0.311681797709787
40
1
40
1
40
1
40
1
41
1
10
33.0958751533512
20
-4.08031028717585
30
0
41
1
10
32.9919615248027
20
-3.98209580808236
30
0
41
1
10
32.8881981340939
20
-3.88265373717155
30
0
41
1
10
32.5558006333611
20
-3.56010272801407
30
0
41
1
10
32.3276791063821
20
-3.33294614057092
30
0
41
1
10
32.1005932579909
20
-3.10008766959146
30
0
0
SPLINE
5
13F
100
AcDbEntity
8
1
62
256
6
ByLayer
370
18
48
1
60
0
100
AcDbSpline
70
4
71
2
72
10
73
7
40
0
40
0
40
0
40
0.030364284240822
40
0.030364284240822
40
0.440077053271163
40
0.440077053271163
40
1
40
1
40
1
41
1
10
31.9946786035304
20
2.30141975005301
30
0
41
1
10
32.0241201488962
20
2.27223561366262
30
0
41
1
10
32.0527273531669
20
2.24361022309918
30
0
41
1
10
32.5366777374081
20
1.7593521798758
30
0
41
1
10
33.1232319705011
20
1.10311349561184
30
0
41
1
10
34.134406815667
20
-0.028192038496087
30
0
41
1
10
34.8686207806487
20
-1.02127972017286
30
0
0
SPLINE
5
140
100
AcDbEntity
8
1
62
256
6
ByLayer
370
18
48
1
60
0
100
AcDbSpline
70
4
71
2
72
6
73
3
40
0
40
0
40
0
40
1
40
1
40
1
41
0.943993461863076
10
17.0426096879803
20
-5.17510740122302
30
0
41
0.955129617927099
10
16.6146177933763
20
-6.2263655193122
30
0
41
1.0258173342201
10
16.2826741996411
20
-6.69805731568051
30
0
0
SPLINE
5
141
100
AcDbEntity
8
1
62
256
6
ByLayer
370
18
48
1
60
0
100
AcDbSpline
70
4
71
3
72
11
73
7
40
0
40
0
40
0
40
0
40
0.0598016998855018
40
0.468392215040456
40
0.740785891810425
40
1
40
1
40
1
40
1
41
1.02298250505371
10
23.5399176593254
20
-0.333754077428634
30
0
41
1.02281639303115
10
23.770946389066
20
-0.405539415994352
30
0
41
1.02150796927554
10
25.5969906612469
20
-0.97601227621636
30
0
41
1.01953314781965
10
28.5443180736013
20
-1.93829536152736
30
0
41
1.0172623798868
10
30.7021235710427
20
-2.68793997640318
30
0
41
1.01931548101
10
31.5256890280379
20
-2.92060199972899
30
0
41
1.02052415826788
10
32.1005932578213
20
-3.1000876695385
30
0
0
SPLINE
5
142
100
AcDbEntity
8
1
62
256
6
ByLayer
370
18
48
1
60
0
100
AcDbSpline
70
4
71
3
72
8
73
4
40
0
40
0
40
0
40
0
40
1
40
1
40
1
40
1
41
1
10
28.4826116363764
20
-8.64048007620931
30
0
41
1
10
28.6401676331894
20
-8.65617622727601
30
0
41
1
10
28.7983163549141
20
-8.6688603292516
30
0
41
1
10
28.957125991244
20
-8.67708613838596
30
0
0
SPLINE
5
143
100
AcDbEntity
8
1
62
256
6
ByLayer
370
18
48
1
60
0
100
AcDbSpline
70
4
71
3
72
11
73
7
40
0
40
0
40
0
40
0
40
0.0598016998824423
40
0.468392215028713
40
0.740785891792894
40
1
40
1
40
1
40
1
41
1.0229825050537
10
22.864969733362
20
-2.77318603411595
30
0
41
1.02281639303114
10
23.1015286327037
20
-2.82498394557879
30
0
41
1.02150796927553
10
24.9734287231746
20
-3.22972231837329
30
0
41
1.01953314781965
10
28.0241278400345
20
-3.81839400395862
30
0
41
1.01726237988674
10
30.2881338084577
20
-4.18420334410719
30
0
41
1.01931548101018
10
31.125506635791
20
-4.36696205034213
30
0
41
1.02052415826821
10
31.7197231969003
20
-4.47664808648366
30
0
0
SPLINE
5
144
100
AcDbEntity
8
1
62
256
6
ByLayer
370
18
48
1
60
0
100
AcDbSpline
70
4
71
3
72
14
73
10
40
0
40
0
40
0
40
0
40
0.0560617400824574
40
0.0560617400824574
40
0.432699965147825
40
0.432699965147825
40
0.81134530467092
40
0.81134530467092
40
1
40
1
40
1
40
1
41
1
10
35.5443738170671
20
-5.81322357958152
30
0
41
1
10
35.5166266688296
20
-5.83833099604047
30
0
41
1
10
35.4884892842931
20
-5.863254815142
30
0
41
1
10
35.2703376687967
20
-6.05229801835287
30
0
41
1
10
35.0607699604184
20
-6.20902344605682
30
0
41
1
10
34.6305793277598
20
-6.47765965510428
30
0
41
1
10
34.4040810644774
20
-6.59267407482676
30
0
41
1
10
34.0793750651167
20
-6.72029060245964
30
0
41
1
10
33.972089756607
20
-6.75614559460695
30
0
41
1
10
33.8682651931531
20
-6.78492996117385
30
0
0
SPLINE
5
145
100
AcDbEntity
8
1
62
256
6
ByLayer
370
18
48
1
60
0
100
AcDbSpline
70
4
71
3
72
12
73
8
40
0
40
0
40
0
40
0
40
0.274077856982879
40
0.274077856982879
40
0.548155363965174
40
0.548155363965174
40
1
40
1
40
1
40
1
41
1
10
22.8649697334431
20
-2.77318603413371
30
0
41
1
10
22.9782712633466
20
-2.56876708898778
30
0
41
1
10
23.0785574499995
20
-2.35633354391143
30
0
41
1
10
23.2504624178598
20
-1.92132838527709
30
0
41
1
10
23.32247544268
20
-1.69776023200507
30
0
41
1
10
23.4733383002898
20
-1.09917261360786
30
0
41
1
10
23.5275195552578
20
-0.715333786423258
30
0
41
1
10
23.539917659405
20
-0.333754077453364
30
0
0
SPLINE
5
146
100
AcDbEntity
8
1
62
256
6
ByLayer
370
18
48
1
60
0
100
AcDbSpline
70
4
71
3
72
8
73
4
40
0
40
0
40
0
40
0
40
1
40
1
40
1
40
1
41
1
10
17.0426096881325
20
-5.17510740125763
30
0
41
1
10
16.9688610111865
20
-5.15846563480125
30
0
41
1
10
16.895734260072
20
-5.14033046760451
30
0
41
1
10
16.823236141532
20
-5.12068920838993
30
0
0
SPLINE
5
147
100
AcDbEntity
8
1
62
256
6
ByLayer
370
18
48
1
60
0
100
AcDbSpline
70
4
71
1
72
4
73
2
40
0
40
0
40
1
40
1
41
1
10
19.960753011809
20
6.59544674363508
30
0
41
1
10
19.9098928489453
20
8.81062292504168
30
0
0
SPLINE
5
148
100
AcDbEntity
8
1
62
256
6
ByLayer
370
18
48
1
60
0
100
AcDbSpline
70
4
71
3
72
8
73
4
40
0
40
0
40
0
40
0
40
1
40
1
40
1
40
1
41
1
10
28.4826116363764
20
-8.64048007620931
30
0
41
1
10
27.8302192364464
20
-8.575486995202
30
0
41
1
10
27.0425908890639
20
-8.62886574821005
30
0
41
1
10
26.2313025048711
20
-8.74733411940633
30
0
0
SPLINE
5
149
100
AcDbEntity
8
1
62
256
6
ByLayer
370
18
48
1
60
0
100
AcDbSpline
70
4
71
3
72
16
73
12
40
0
40
0
40
0
40
0
40
0.474320436274421
40
0.474320436274421
40
0.658954025821057
40
0.658954025821057
40
0.845504004041771
40
0.845504004041771
40
0.957858191960715
40
0.957858191960715
40
1
40
1
40
1
40
1
41
1
10
10.6555122055115
20
9.07110592567568
30
0
41
1
10
10.6377248245051
20
8.96649933843534
30
0
41
1
10
10.6012870257382
20
8.83659421207975
30
0
41
1
10
10.5228460760035
20
8.61022235597105
30
0
41
1
10
10.4974072961302
20
8.54037744617764
30
0
41
1
10
10.4406310934413
20
8.39009410903415
30
0
41
1
10
10.408703452385
20
8.30785502887713
30
0
41
1
10
10.3530733088333
20
8.17153293085997
30
0
41
1
10
10.3306461077081
20
8.11808314790235
30
0
41
1
10
10.2986479779594
20
8.04687239180089
30
0
41
1
10
10.2896799932585
20
8.02744257381624
30
0
41
1
10
10.2806426701079
20
8.00858733315704
30
0
0
SPLINE
5
14A
100
AcDbEntity
8
1
62
256
6
ByLayer
370
18
48
1
60
0
100
AcDbSpline
70
4
71
3
72
8
73
4
40
0
40
0
40
0
40
0
40
1
40
1
40
1
40
1
41
1
10
12.9418404305067
20
4.52921355045007
30
0
41
1
10
12.0982000663292
20
6.29867590328561
30
0
41
1
10
11.2159681860483
20
8.03854179110198
30
0
41
1
10
10.6555122055115
20
9.07110592567568
30
0
0
SPLINE
5
14B
100
AcDbEntity
8
1
62
256
6
ByLayer
370
18
48
1
60
0
100
AcDbSpline
70
4
71
3
72
8
73
4
40
0
40
0
40
0
40
0
40
1
40
1
40
1
40
1
41
1
10
11.9526544497944
20
-2.42653783624445
30
0
41
1
10
12.5217934052899
20
-3.44764066330831
30
0
41
1
10
13.4908983856537
20
-4.21788909478914
30
0
41
1
10
14.7267589955329
20
-4.55270962641907
30
0
0
SPLINE
5
14C
100
AcDbEntity
8
1
62
256
6
ByLayer
370
18
48
1
60
0
100
AcDbSpline
70
4
71
3
72
8
73
4
40
0
40
0
40
0
40
0
40
1
40
1
40
1
40
1
41
1
10
7.2783885346563
20
-2.70918811974676
30
0
41
1
10
7.24191406538193
20
-2.84101604680342
30
0
41
1
10
7.21835811718779
20
-2.97296607986664
30
0
41
1
10
7.20567807051913
20
-3.10510991869472
30
0
0
SPLINE
5
14D
100
AcDbEntity
8
1
62
256
6
ByLayer
370
18
48
1
60
0
100
AcDbSpline
70
4
71
3
72
8
73
4
40
0
40
0
40
0
40
0
40
1
40
1
40
1
40
1
41
1
10
6.99894510296292
20
-4.14464939204359
30
0
41
1
10
7.98060771102178
20
-3.66266302107232
30
0
41
1
10
9.60978659590592
20
-2.68910715111537
30
0
41
1
10
11.2394066820957
20
-1.62381119451828
30
0
0
SPLINE
5
14E
100
AcDbEntity
8
1
62
256
6
ByLayer
370
18
48
1
60
0
100
AcDbSpline
70
4
71
3
72
8
73
4
40
0
40
0
40
0
40
0
40
1
40
1
40
1
40
1
41
1
10
10.662687148535
20
9.11448758900667
30
0
41
1
10
10.6604057446661
20
9.10026105578817
30
0
41
1
10
10.6580080167613
20
9.08578365125945
30
0
41
1
10
10.6555122055112
20
9.07110592567574
30
0
0
SPLINE
5
14F
100
AcDbEntity
8
1
62
256
6
ByLayer
370
18
48
1
60
0
100
AcDbSpline
70
4
71
3
72
8
73
4
40
0
40
0
40
0
40
0
40
1
40
1
40
1
40
1
41
1
10
19.784674679227
20
4.73540674313287
30
0
41
1
10
19.7130137650203
20
4.75835117011289
30
0
41
1
10
19.6407832015574
20
4.77971633497603
30
0
41
1
10
19.5679628090371
20
4.79944490496385
30
0
0
SPLINE
5
150
100
AcDbEntity
8
1
62
256
6
ByLayer
370
18
48
1
60
0
100
AcDbSpline
70
4
71
3
72
10
73
6
40
0
40
0
40
0
40
0
40
0.5
40
0.5
40
1
40
1
40
1
40
1
41
1
10
31.2688337726752
20
-1.07972619348271
30
0
41
1
10
31.7751907736797
20
-0.767270370322109
30
0
41
1
10
32.2974994653553
20
-0.469365761968248
30
0
41
1
10
33.4970615428368
20
-0.371878039793756
30
0
41
1
10
34.1647670533944
20
-0.463546423107289
30
0
41
1
10
34.8676164014444
20
-1.01773981318843
30
0
0
SPLINE
5
151
100
AcDbEntity
8
1
62
256
6
ByLayer
370
18
48
1
60
0
100
AcDbSpline
70
4
71
3
72
11
73
7
40
0
40
0
40
0
40
0
40
0.425230898251466
40
0.744154071940066
40
0.956769521065799
40
1
40
1
40
1
40
1
41
1.0258173342201
10
16.2826741996411
20
-6.69805731568051
30
0
41
1.02559001729416
10
17.4070031701117
20
-6.89720380998223
30
0
41
1.0228008665691
10
21.4883903695092
20
-6.8229188155559
30
0
41
1.01953314781965
10
27.213568229722
20
-6.04999263850971
30
0
41
1.01775466813745
10
29.1967279378069
20
-5.76153052029934
30
0
41
1.01823166218985
10
29.8591683582683
20
-5.77572458543797
30
0
41
1.01834276704992
10
29.9681156471203
20
-5.78084940611637
30
0
0
SPLINE
5
152
100
AcDbEntity
8
1
62
256
6
ByLayer
370
18
48
1
60
0
100
AcDbSpline
70
4
71
3
72
8
73
4
40
0
40
0
40
0
40
0
40
1
40
1
40
1
40
1
41
1
10
10.9416043012395
20
-1.4344767442295
30
0
41
1
10
10.6950698564529
20
-1.29846790324794
30
0
41
1
10
10.4368027577993
20
-1.19532960282504
30
0
41
1
10
10.1792978489986
20
-1.12025597112327
30
0
0
SPLINE
5
153
100
AcDbEntity
8
1
62
256
6
ByLayer
370
18
48
1
60
0
100
AcDbSpline
70
4
71
3
72
10
73
6
40
0
40
0
40
0
40
0
40
0.53761684249526
40
0.53761684249526
40
1
40
1
40
1
40
1
41
1
10
16.1809395006662
20
-0.531021290056572
30
0
41
1
10
16.1817192904053
20
-0.542891214965152
30
0
41
1
10
16.1821957693485
20
-0.554451521380855
30
0
41
1
10
16.1826061551089
20
-0.575315853066172
30
0
41
1
10
16.1826070779275
20
-0.584731774845608
30
0
41
1
10
16.1824453377379
20
-0.593912139649262
30
0
0
SPLINE
5
154
100
AcDbEntity
8
1
62
256
6
ByLayer
370
18
48
1
60
0
100
AcDbSpline
70
4
71
3
72
10
73
6
40
0
40
0
40
0
40
0
40
0.276054056492455
40
0.276054056492455
40
1
40
1
40
1
40
1
41
1
10
18.5470411369072
20
-0.942404186708643
30
0
41
1
10
18.5525557672877
20
-0.939720405301671
30
0
41
1
10
18.5580592384103
20
-0.937186602704514
30
0
41
1
10
18.5778368717917
20
-0.928552270042474
30
0
41
1
10
18.5920146378329
20
-0.923252623576246
30
0
41
1
10
18.6059544514188
20
-0.918734049169757
30
0
0
SPLINE
5
155
100
AcDbEntity
8
1
62
256
6
ByLayer
370
18
48
1
60
0
100
AcDbSpline
70
4
71
3
72
10
73
6
40
0
40
0
40
0
40
0
40
0.276054056492011
40
0.276054056492011
40
1
40
1
40
1
40
1
41
1
10
16.4300950970675
20
0.844840654878254
30
0
41
1
10
16.42547077578
20
0.841642853276738
30
0
41
1
10
16.4209003041255
20
0.838570383185555
30
0
41
1
10
16.4046187037802
20
0.82791761490904
30
0
41
1
10
16.3932171669863
20
0.82101511173957
30
0
41
1
10
16.3822086232631
20
0.814804167888781
30
0
0
SPLINE
5
156
100
AcDbEntity
8
1
62
256
6
ByLayer
370
18
48
1
60
0
100
AcDbSpline
70
4
71
3
72
10
73
6
40
0
40
0
40
0
40
0
40
0.230438518716693
40
0.230438518716693
40
1
40
1
40
1
40
1
41
1
10
17.7377237133885
20
1.3270801790203
30
0
41
1
10
17.7339081332226
20
1.32929822351863
30
0
41
1
10
17.7302008836579
20
1.33153651089648
30
0
41
1
10
17.7145961038415
20
1.34129921549439
30
0
41
1
10
17.7037286457456
20
1.34899540273932
30
0
41
1
10
17.6938448228586
20
1.35675136689761
30
0
0
SPLINE
5
157
100
AcDbEntity
8
1
62
256
6
ByLayer
370
18
48
1
60
0
100
AcDbSpline
70
4
71
3
72
10
73
6
40
0
40
0
40
0
40
0
40
0.230438518716846
40
0.230438518716846
40
1
40
1
40
1
40
1
41
1
10
17.2394125205863
20
-1.42464371085075
30
0
41
1
10
17.2439696395386
20
-1.42728988296702
30
0
41
1
10
17.2484480113998
20
-1.42997337801029
30
0
41
1
10
17.2675042929254
20
-1.44172880804916
30
0
41
1
10
17.2813158369206
20
-1.45112476408059
30
0
41
1
10
17.2943182518216
20
-1.46068124817762
30
0
0
SPLINE
5
158
100
AcDbEntity
8
1
62
256
6
ByLayer
370
18
48
1
60
0
100
AcDbSpline
70
4
71
3
72
10
73
6
40
0
40
0
40
0
40
0
40
0.201157530231751
40
0.201157530231751
40
1
40
1
40
1
40
1
41
1
10
16.6443536823263
20
1.07554106332805
30
0
41
1
10
16.6424164108768
20
1.07229088791703
30
0
41
1
10
16.6404288266509
20
1.06901496028144
30
0
41
1
10
16.6303278671744
20
1.05266809885313
30
0
41
1
10
16.6214150055765
20
1.03916900623744
30
0
41
1
10
16.611552758832
20
1.02532358120743
30
0
0
SPLINE
5
159
100
AcDbEntity
8
1
62
256
6
ByLayer
370
18
48
1
60
0
100
AcDbSpline
70
4
71
3
72
10
73
6
40
0
40
0
40
0
40
0
40
0.537616842494901
40
0.537616842494901
40
1
40
1
40
1
40
1
41
1
10
18.7961967333089
20
0.433457758225984
30
0
41
1
10
18.7971443321817
20
0.444330374854474
30
0
41
1
10
18.7985565308803
20
0.454800252725306
30
0
41
1
10
18.8018708282208
20
0.47351413761956
30
0
41
1
10
18.803680363369
20
0.481884791004603
30
0
41
1
10
18.805717736944
20
0.489982258368286
30
0
0
SPLINE
5
15A
100
AcDbEntity
8
1
62
256
6
ByLayer
370
18
48
1
60
0
100
AcDbSpline
70
4
71
3
72
10
73
6
40
0
40
0
40
0
40
0
40
0.769561481283312
40
0.769561481283312
40
1
40
1
40
1
40
1
41
1
10
16.9408094502678
20
-1.36490830750299
30
0
41
1
10
16.9535533997989
20
-1.36232705294054
30
0
41
1
10
16.9670992674364
20
-1.36034279288327
30
0
41
1
10
16.9858255882469
20
-1.35882346139746
30
0
41
1
10
16.9902288495588
20
-1.35854618685912
30
0
41
1
10
16.9947125793735
20
-1.35834937008795
30
0
0
SPLINE
5
15B
100
AcDbEntity
8
1
62
256
6
ByLayer
370
18
48
1
60
0
100
AcDbSpline
70
4
71
3
72
10
73
6
40
0
40
0
40
0
40
0
40
0.355593196477812
40
0.355593196477812
40
1
40
1
40
1
40
1
41
1
10
16.0910815952545
20
-0.237402303527063
30
0
41
1
10
16.0942900428112
20
-0.242361569690217
30
0
41
1
10
16.0974886098579
20
-0.247520914858825
30
0
41
1
10
16.1064115735921
20
-0.262595765545399
30
0
41
1
10
16.1121143334651
20
-0.273027049139273
30
0
41
1
10
16.1176972212186
20
-0.284244022965794
30
0
0
SPLINE
5
15C
100
AcDbEntity
8
1
62
256
6
ByLayer
370
18
48
1
60
0
100
AcDbSpline
70
4
71
3
72
10
73
6
40
0
40
0
40
0
40
0
40
0.355593196477841
40
0.355593196477841
40
1
40
1
40
1
40
1
41
1
10
18.8970814794245
20
0.133472422247706
30
0
41
1
10
18.8924277336081
20
0.13926613175019
30
0
41
1
10
18.8878228940779
20
0.145237388715714
30
0
41
1
10
18.8750920439488
20
0.162510723637439
30
0
41
1
10
18.867089960502
20
0.174269522315569
30
0
41
1
10
18.8594390127565
20
0.186680491135149
30
0
0
SPLINE
5
15D
100
AcDbEntity
8
1
62
256
6
ByLayer
370
18
48
1
60
0
100
AcDbSpline
70
4
71
3
72
10
73
6
40
0
40
0
40
0
40
0
40
0.769561481283252
40
0.769561481283252
40
1
40
1
40
1
40
1
41
1
10
18.0473536244124
20
1.26097842622295
30
0
41
1
10
18.0314910828674
20
1.26019769159925
30
0
41
1
10
18.0150011293306
20
1.2599132003285
30
0
41
1
10
17.9928233068107
20
1.26038659428366
30
0
41
1
10
17.9876489232024
20
1.26055452741076
30
0
41
1
10
17.9824236546013
20
1.26078583825751
30
0
0
SPLINE
5
15E
100
AcDbEntity
8
1
62
256
6
ByLayer
370
18
48
1
60
0
100
AcDbSpline
70
4
71
3
72
10
73
6
40
0
40
0
40
0
40
0
40
0.201157530231549
40
0.201157530231549
40
1
40
1
40
1
40
1
41
1
10
18.3438093923546
20
-1.17947094460845
30
0
41
1
10
18.3449280485735
20
-1.17574814147369
30
0
41
1
10
18.3461096642732
20
-1.17200688769253
30
0
41
1
10
18.35229087588
20
-1.15339695877648
30
0
41
1
10
18.3582848860826
20
-1.13821266652204
30
0
41
1
10
18.3655834751431
20
-1.12288711303802
30
0
0
INSERT
5
171
100
AcDbEntity
8
SK2
62
256
6
ByLayer
370
25
48
1
60
0
100
AcDbBlockReference
2
DimnDraft3D11
10
0
20
0
30
0
41
1
42
1
43
1
50
0
210
0
220
0
230
1
0
LINE
5
72
100
AcDbEntity
8
1
62
256
6
ByLayer
370
18
48
1
60
0
100
AcDbLine
10
39.992226
20
5.6417
30
0
11
39.570491
21
5.885189
31
0
39
0
210
0
220
0
230
1
0
LINE
5
74
100
AcDbEntity
8
1
62
256
6
ByLayer
370
18
48
1
60
0
100
AcDbLine
10
7.047727
20
-5.883017
30
0
11
7.937061
21
-6.265795
31
0
39
0
210
0
220
0
230
1
0
LINE
5
75
100
AcDbEntity
8
1
62
256
6
ByLayer
370
18
48
1
60
0
100
AcDbLine
10
14.614481
20
-4.162929
30
0
11
14.821637
21
-4.282531
31
0
39
0
210
0
220
0
230
1
0
LINE
5
76
100
AcDbEntity
8
1
62
256
6
ByLayer
370
18
48
1
60
0
100
AcDbLine
10
19.821637
20
4.377723
30
0
11
19.612101
21
4.498699
31
0
39
0
210
0
220
0
230
1
0
LINE
5
77
100
AcDbEntity
8
1
62
256
6
ByLayer
370
18
48
1
60
0
100
AcDbLine
10
26.093667
20
-13.219082
30
0
11
26.685597
21
-13.560833
31
0
39
0
210
0
220
0
230
1
0
LINE
5
78
100
AcDbEntity
8
1
62
256
6
ByLayer
370
18
48
1
60
0
100
AcDbLine
10
10.624206
20
-1.279469
30
0
11
10.217139
21
-1.104263
31
0
39
0
210
0
220
0
230
1
0
LINE
5
79
100
AcDbEntity
8
1
62
256
6
ByLayer
370
18
48
1
60
0
100
AcDbLine
10
15.940536
20
-0.102211
30
0
11
15.80056
21
-0.021395
31
0
39
0
210
0
220
0
230
1
0
LINE
5
7A
100
AcDbEntity
8
1
62
256
6
ByLayer
370
18
48
1
60
0
100
AcDbLine
10
18.786607
20
0.148981
30
0
11
19.047627
21
-0.001719
31
0
39
0
210
0
220
0
230
1
0
LINE
5
7B
100
AcDbEntity
8
80
62
256
6
ByLayer
370
18
48
1
60
0
100
AcDbLine
10
0
20
0
30
0
11
-5
21
0
31
0
39
0
210
0
220
0
230
1
0
LINE
5
7C
100
AcDbEntity
8
81
62
256
6
ByLayer
370
18
48
1
60
0
100
AcDbLine
10
41.624223
20
-9.9125
30
0
11
51.624223
21
-9.9125
31
0
39
0
210
0
220
0
230
1
0
LINE
5
7D
100
AcDbEntity
8
1
62
256
6
ByLayer
370
18
48
1
60
0
100
AcDbLine
10
30.097096
20
3.344768
30
0
11
39.102645
21
5.757798
31
0
39
0
210
0
220
0
230
1
0
LINE
5
7E
100
AcDbEntity
8
1
62
256
6
ByLayer
370
18
48
1
60
0
100
AcDbLine
10
26.103296
20
-12.632037
30
0
11
25.808163
21
-8.791691
31
0
39
0
210
0
220
0
230
1
0
LINE
5
7F
100
AcDbEntity
8
1
62
256
6
ByLayer
370
18
48
1
60
0
100
AcDbLine
10
26.103296
20
-12.632037
30
0
11
26.045992
21
-12.598952
31
0
39
0
210
0
220
0
230
1
0
LINE
5
80
100
AcDbEntity
8
1
62
256
6
ByLayer
370
18
48
1
60
0
100
AcDbLine
10
39.060879
20
5.781911
30
0
11
39.102645
21
5.757798
31
0
39
0
210
0
220
0
230
1
0
LINE
5
81
100
AcDbEntity
8
1
62
256
6
ByLayer
370
18
48
1
60
0
100
AcDbLine
10
31.175692
20
4.317224
30
0
11
29.427204
21
3.848718
31
0
39
0
210
0
220
0
230
1
0
LINE
5
82
100
AcDbEntity
8
1
62
256
6
ByLayer
370
18
48
1
60
0
100
AcDbLine
10
25.656347
20
-8.80747
30
0
11
26.008676
21
-13.392051
31
0
39
0
210
0
220
0
230
1
0
LINE
5
83
100
AcDbEntity
8
1
62
256
6
ByLayer
370
18
48
1
60
0
100
AcDbLine
10
10.028228
20
-6.86565
30
0
11
7.849603
21
-14.739748
31
0
39
0
210
0
220
0
230
1
0
LINE
5
84
100
AcDbEntity
8
1
62
256
6
ByLayer
370
18
48
1
60
0
100
AcDbLine
10
15.375521
20
12.460815
30
0
11
14.758021
21
10.229015
31
0
39
0
210
0
220
0
230
1
0
LINE
5
85
100
AcDbEntity
8
1
62
256
6
ByLayer
370
18
48
1
60
0
100
AcDbLine
10
11.260522
20
12.447682
30
0
11
10.919786
21
11.216177
31
0
39
0
210
0
220
0
230
1
0
LINE
5
86
100
AcDbEntity
8
1
62
256
6
ByLayer
370
18
48
1
60
0
100
AcDbLine
10
6.298518
20
-5.486251
30
0
11
3.738238
21
-14.739748
31
0
39
0
210
0
220
0
230
1
0
LINE
5
87
100
AcDbEntity
8
1
62
256
6
ByLayer
370
18
48
1
60
0
100
AcDbLine
10
26.100104
20
-13.302976
30
0
11
25.753854
21
-8.797492
31
0
39
0
210
0
220
0
230
1
0
LINE
5
88
100
AcDbEntity
8
1
62
256
6
ByLayer
370
18
48
1
60
0
100
AcDbLine
10
31.810915
20
3.851614
30
0
11
31.866468
21
3.977569
31
0
39
0
210
0
220
0
230
1
0
LINE
5
89
100
AcDbEntity
8
1
62
256
6
ByLayer
370
18
48
1
60
0
100
AcDbLine
10
30.898404
20
4.526419
30
0
11
31.662475
21
3.949596
31
0
39
0
210
0
220
0
230
1
0
LINE
5
8A
100
AcDbEntity
8
1
62
256
6
ByLayer
370
18
48
1
60
0
100
AcDbLine
10
39.375401
20
5.833836
30
0
11
39.724548
21
5.925759
31
0
39
0
210
0
220
0
230
1
0
LINE
5
8B
100
AcDbEntity
8
1
62
256
6
ByLayer
370
18
48
1
60
0
100
AcDbLine
10
10.290178
20
12.443815
30
0
11
9.894492
21
11.013705
31
0
39
0
210
0
220
0
230
1
0
LINE
5
8C
100
AcDbEntity
8
1
62
256
6
ByLayer
370
18
48
1
60
0
100
AcDbLine
10
5.523492
20
-4.784193
30
0
11
2.768965
21
-14.739748
31
0
39
0
210
0
220
0
230
1
0
LINE
5
8D
100
AcDbEntity
8
1
62
256
6
ByLayer
370
18
48
1
60
0
100
AcDbLine
10
11.230749
20
12.446816
30
0
11
10.890142
21
11.215775
31
0
39
0
210
0
220
0
230
1
0
LINE
5
8E
100
AcDbEntity
8
1
62
256
6
ByLayer
370
18
48
1
60
0
100
AcDbLine
10
6.273722
20
-5.469129
30
0
11
3.708705
21
-14.739748
31
0
39
0
210
0
220
0
230
1
0
LINE
5
8F
100
AcDbEntity
8
1
62
256
6
ByLayer
370
18
48
1
60
0
100
AcDbLine
10
30.897174
20
4.496671
30
0
11
30.927391
21
4.504627
31
0
39
0
210
0
220
0
230
1
0
LINE
5
90
100
AcDbEntity
8
1
62
256
6
ByLayer
370
18
48
1
60
0
100
AcDbLine
10
30.202589
20
5.254217
30
0
11
30.244151
21
4.713403
31
0
39
0
210
0
220
0
230
1
0
LINE
5
91
100
AcDbEntity
8
1
62
256
6
ByLayer
370
18
48
1
60
0
100
AcDbLine
10
30.268225
20
4.719846
30
0
11
30.399516
21
4.872371
31
0
39
0
210
0
220
0
230
1
0
LINE
5
92
100
AcDbEntity
8
1
62
256
6
ByLayer
370
18
48
1
60
0
100
AcDbLine
10
15.816969
20
-0.033878
30
0
11
15.895569
21
-0.079257
31
0
39
0
210
0
220
0
230
1
0
LINE
5
93
100
AcDbEntity
8
1
62
256
6
ByLayer
370
18
48
1
60
0
100
AcDbLine
10
28.787706
20
4.323142
30
0
11
30.51432
21
4.785786
31
0
39
0
210
0
220
0
230
1
0
LINE
5
94
100
AcDbEntity
8
1
62
256
6
ByLayer
370
18
48
1
60
0
100
AcDbLine
10
29.42718
20
3.848712
30
0
11
31.175643
21
4.317211
31
0
39
0
210
0
220
0
230
1
0
LINE
5
95
100
AcDbEntity
8
1
62
256
6
ByLayer
370
18
48
1
60
0
100
AcDbLine
10
40.736975
20
-10.150237
30
0
11
27.575178
21
-13.67693
31
0
39
0
210
0
220
0
230
1
0
LINE
5
96
100
AcDbEntity
8
1
62
256
6
ByLayer
370
18
48
1
60
0
100
AcDbLine
10
40.574527
20
4.712904
30
0
11
41.620695
21
-8.900063
31
0
39
0
210
0
220
0
230
1
0
LINE
5
97
100
AcDbEntity
8
1
62
256
6
ByLayer
370
18
48
1
60
0
100
AcDbLine
10
14.726759
20
-4.55271
30
0
11
16.823236
21
-5.120689
31
0
39
0
210
0
220
0
230
1
0
LINE
5
98
100
AcDbEntity
8
1
62
256
6
ByLayer
370
18
48
1
60
0
100
AcDbLine
10
19.909893
20
8.810623
30
0
11
14.990761
21
10.143319
31
0
39
0
210
0
220
0
230
1
0
LINE
5
99
100
AcDbEntity
8
1
62
256
6
ByLayer
370
18
48
1
60
0
100
AcDbLine
10
7.278389
20
-2.709188
30
0
11
10.140366
21
7.634719
31
0
39
0
210
0
220
0
230
1
0
LINE
5
9A
100
AcDbEntity
8
1
62
256
6
ByLayer
370
18
48
1
60
0
100
AcDbLine
10
9.824257
20
-0.967443
30
0
11
8.378165
21
-0.576699
31
0
39
0
210
0
220
0
230
1
0
LINE
5
9B
100
AcDbEntity
8
1
62
256
6
ByLayer
370
18
48
1
60
0
100
AcDbLine
10
10.140366
20
7.634719
30
0
11
7.751302
21
8.662997
31
0
39
0
210
0
220
0
230
1
0
LINE
5
9C
100
AcDbEntity
8
1
62
256
6
ByLayer
370
18
48
1
60
0
100
AcDbLine
10
13.110486
20
10.666019
30
0
11
14.970192
21
10.162186
31
0
39
0
210
0
220
0
230
1
0
LINE
5
9D
100
AcDbEntity
8
1
62
256
6
ByLayer
370
18
48
1
60
0
100
AcDbLine
10
10.662687
20
9.114488
30
0
11
19.960753
21
6.595447
31
0
39
0
210
0
220
0
230
1
0
LINE
5
9E
100
AcDbEntity
8
1
62
256
6
ByLayer
370
18
48
1
60
0
100
AcDbLine
10
6.984608
20
-4.179016
30
0
11
16.282674
21
-6.698057
31
0
39
0
210
0
220
0
230
1
0
LINE
5
9F
100
AcDbEntity
8
1
62
256
6
ByLayer
370
18
48
1
60
0
100
AcDbLine
10
34.870663
20
-1.024042
30
0
11
35.246865
21
-1.802323
31
0
39
0
210
0
220
0
230
1
0
LINE
5
A0
100
AcDbEntity
8
1
62
256
6
ByLayer
370
18
48
1
60
0
100
AcDbLine
10
13.110486
20
10.666019
30
0
11
12.388897
21
10.976598
31
0
39
0
210
0
220
0
230
1
0
LINE
5
A1
100
AcDbEntity
8
1
62
256
6
ByLayer
370
18
48
1
60
0
100
AcDbLine
10
10.242866
20
-6.92356
30
0
11
8.38316
21
-6.419727
31
0
39
0
210
0
220
0
230
1
0
LINE
5
A2
100
AcDbEntity
8
1
62
256
6
ByLayer
370
18
48
1
60
0
100
AcDbLine
10
16.823236
20
-5.120689
30
0
11
16.595023
21
-5.022464
31
0
39
0
210
0
220
0
230
1
0
LINE
5
A3
100
AcDbEntity
8
1
62
256
6
ByLayer
370
18
48
1
60
0
100
AcDbLine
10
33.095875
20
-4.08031
30
0
11
36.241545
21
-4.774686
31
0
39
0
210
0
220
0
230
1
0
LINE
5
A4
100
AcDbEntity
8
1
62
256
6
ByLayer
370
18
48
1
60
0
100
AcDbLine
10
8.378165
20
-0.576699
30
0
11
9.977035
21
5.20202
31
0
39
0
210
0
220
0
230
1
0
LINE
5
A5
100
AcDbEntity
8
1
62
256
6
ByLayer
370
18
48
1
60
0
100
AcDbLine
10
7.751302
20
8.662997
30
0
11
4.889325
21
-1.680909
31
0
39
0
210
0
220
0
230
1
0
LINE
5
A6
100
AcDbEntity
8
1
62
256
6
ByLayer
370
18
48
1
60
0
100
AcDbLine
10
15.188866
20
-8.252359
30
0
11
10.269734
21
-6.919663
31
0
39
0
210
0
220
0
230
1
0
LINE
5
A7
100
AcDbEntity
8
1
62
256
6
ByLayer
370
18
48
1
60
0
100
AcDbLine
10
14.970192
20
10.162186
30
0
11
12.538961
21
10.929421
31
0
39
0
210
0
220
0
230
1
0
LINE
5
A8
100
AcDbEntity
8
1
62
256
6
ByLayer
370
18
48
1
60
0
100
AcDbLine
10
19.567963
20
4.799445
30
0
11
17.471486
21
5.367424
31
0
39
0
210
0
220
0
230
1
0
LINE
5
A9
100
AcDbEntity
8
1
62
256
6
ByLayer
370
18
48
1
60
0
100
AcDbLine
10
10.242866
20
-6.92356
30
0
11
10.269734
21
-6.919663
31
0
39
0
210
0
220
0
230
1
0
LINE
5
AA
100
AcDbEntity
8
1
62
256
6
ByLayer
370
18
48
1
60
0
100
AcDbLine
10
7.278389
20
-2.709188
30
0
11
4.889325
21
-1.680909
31
0
39
0
210
0
220
0
230
1
0
LINE
5
AB
100
AcDbEntity
8
1
62
256
6
ByLayer
370
18
48
1
60
0
100
AcDbLine
10
10.179298
20
-1.120256
30
0
11
9.824257
21
-0.967443
31
0
39
0
210
0
220
0
230
1
0
LINE
5
AC
100
AcDbEntity
8
1
62
256
6
ByLayer
370
18
48
1
60
0
100
AcDbLine
10
33.868265
20
-6.78493
30
0
11
33.144151
21
-7.264867
31
0
39
0
210
0
220
0
230
1
0
LINE
5
AD
100
AcDbEntity
8
1
62
256
6
ByLayer
370
18
48
1
60
0
100
AcDbLine
10
14.970192
20
10.162186
30
0
11
14.990761
21
10.143319
31
0
39
0
210
0
220
0
230
1
0
LINE
5
AE
100
AcDbEntity
8
1
62
256
6
ByLayer
370
18
48
1
60
0
100
AcDbLine
10
16.444213
20
-1.306685
30
0
11
16.705233
21
-1.457386
31
0
39
0
210
0
220
0
230
1
0
LINE
5
AF
100
AcDbEntity
8
1
62
256
6
ByLayer
370
18
48
1
60
0
100
AcDbLine
10
17.482217
20
1.474597
30
0
11
17.737724
21
1.32708
31
0
39
0
210
0
220
0
230
1
0
LINE
5
B0
100
AcDbEntity
8
1
62
256
6
ByLayer
370
18
48
1
60
0
100
AcDbLine
10
18.639236
20
0.876547
30
0
11
18.900256
21
0.725846
31
0
39
0
210
0
220
0
230
1
0
LINE
5
B1
100
AcDbEntity
8
1
62
256
6
ByLayer
370
18
48
1
60
0
100
AcDbLine
10
18.291534
20
-0.794887
30
0
11
18.547041
21
-0.942404
31
0
39
0
210
0
220
0
230
1
0
LINE
5
B2
100
AcDbEntity
8
1
62
256
6
ByLayer
370
18
48
1
60
0
100
AcDbLine
10
18.365583
20
-1.122887
30
0
11
18.110077
21
-0.97537
31
0
39
0
210
0
220
0
230
1
0
LINE
5
B3
100
AcDbEntity
8
1
62
256
6
ByLayer
370
18
48
1
60
0
100
AcDbLine
10
16.994713
20
-1.358349
30
0
11
16.739206
21
-1.210832
31
0
39
0
210
0
220
0
230
1
0
LINE
5
B4
100
AcDbEntity
8
1
62
256
6
ByLayer
370
18
48
1
60
0
100
AcDbLine
10
16.983906
20
-1.277127
30
0
11
17.239413
21
-1.424644
31
0
39
0
210
0
220
0
230
1
0
LINE
5
B5
100
AcDbEntity
8
1
62
256
6
ByLayer
370
18
48
1
60
0
100
AcDbLine
10
18.042725
20
-1.279393
30
0
11
18.303746
21
-1.430093
31
0
39
0
210
0
220
0
230
1
0
LINE
5
B6
100
AcDbEntity
8
1
62
256
6
ByLayer
370
18
48
1
60
0
100
AcDbLine
10
18.594589
20
-0.730494
30
0
11
18.85561
21
-0.881194
31
0
39
0
210
0
220
0
230
1
0
LINE
5
B7
100
AcDbEntity
8
1
62
256
6
ByLayer
370
18
48
1
60
0
100
AcDbLine
10
18.54069
20
0.580975
30
0
11
18.796197
21
0.433458
31
0
39
0
210
0
220
0
230
1
0
LINE
5
B8
100
AcDbEntity
8
1
62
256
6
ByLayer
370
18
48
1
60
0
100
AcDbLine
10
17.277708
20
1.705776
30
0
11
17.538728
21
1.555076
31
0
39
0
210
0
220
0
230
1
0
LINE
5
B9
100
AcDbEntity
8
1
62
256
6
ByLayer
370
18
48
1
60
0
100
AcDbLine
10
18.859439
20
0.18668
30
0
11
18.603932
21
0.334197
31
0
39
0
210
0
220
0
230
1
0
LINE
5
BA
100
AcDbEntity
8
1
62
256
6
ByLayer
370
18
48
1
60
0
100
AcDbLine
10
31.866468
20
3.977569
30
0
11
31.840938
21
4.309776
31
0
39
0
210
0
220
0
230
1
0
LINE
5
BB
100
AcDbEntity
8
1
62
256
6
ByLayer
370
18
48
1
60
0
100
AcDbLine
10
39.792052
20
6.064198
30
0
11
39.724548
21
5.925759
31
0
39
0
210
0
220
0
230
1
0
LINE
5
BC
100
AcDbEntity
8
1
62
256
6
ByLayer
370
18
48
1
60
0
100
AcDbLine
10
20.979004
20
-14.739748
30
0
11
7.849603
21
-14.739748
31
0
39
0
210
0
220
0
230
1
0
LINE
5
BD
100
AcDbEntity
8
1
62
256
6
ByLayer
370
18
48
1
60
0
100
AcDbLine
10
27.975088
20
7.32409
30
0
11
28.271764
21
7.349944
31
0
39
0
210
0
220
0
230
1
0
LINE
5
BE
100
AcDbEntity
8
1
62
256
6
ByLayer
370
18
48
1
60
0
100
AcDbLine
10
30.399516
20
4.872371
30
0
11
30.897174
21
4.496672
31
0
39
0
210
0
220
0
230
1
0
LINE
5
BF
100
AcDbEntity
8
1
62
256
6
ByLayer
370
18
48
1
60
0
100
AcDbLine
10
39.3015
20
12.447372
30
0
11
15.375521
21
12.460815
31
0
39
0
210
0
220
0
230
1
0
LINE
5
C0
100
AcDbEntity
8
1
62
256
6
ByLayer
370
18
48
1
60
0
100
AcDbLine
10
30.202589
20
5.254217
30
0
11
30.370025
21
5.256117
31
0
39
0
210
0
220
0
230
1
0
LINE
5
C1
100
AcDbEntity
8
1
62
256
6
ByLayer
370
18
48
1
60
0
100
AcDbLine
10
0
20
-12.4375
30
0
11
0
21
12.4375
31
0
39
0
210
0
220
0
230
1
0
LINE
5
C2
100
AcDbEntity
8
1
62
256
6
ByLayer
370
18
48
1
60
0
100
AcDbLine
10
15.375521
20
12.460815
30
0
11
11.260522
21
12.447682
31
0
39
0
210
0
220
0
230
1
0
LINE
5
C3
100
AcDbEntity
8
1
62
256
6
ByLayer
370
18
48
1
60
0
100
AcDbLine
10
11.260522
20
12.447682
30
0
11
11.230749
21
12.446816
31
0
39
0
210
0
220
0
230
1
0
LINE
5
C4
100
AcDbEntity
8
1
62
256
6
ByLayer
370
18
48
1
60
0
100
AcDbLine
10
10.290178
20
12.443815
30
0
11
2.456017
21
12.448216
31
0
39
0
210
0
220
0
230
1
0
LINE
5
C5
100
AcDbEntity
8
1
62
256
6
ByLayer
370
18
48
1
60
0
100
AcDbLine
10
3.708705
20
-14.739748
30
0
11
3.738238
21
-14.739748
31
0
39
0
210
0
220
0
230
1
0
LINE
5
C6
100
AcDbEntity
8
1
62
256
6
ByLayer
370
18
48
1
60
0
100
AcDbLine
10
26.008676
20
-13.392051
30
0
11
26.100104
21
-13.302976
31
0
39
0
210
0
220
0
230
1
0
LINE
5
C7
100
AcDbEntity
8
1
62
256
6
ByLayer
370
18
48
1
60
0
100
AcDbLine
10
39.3015
20
12.447372
30
0
11
39.792052
21
6.064198
31
0
39
0
210
0
220
0
230
1
0
LINE
5
C8
100
AcDbEntity
8
1
62
256
6
ByLayer
370
18
48
1
60
0
100
AcDbLine
10
0
20
12.4375
30
0
11
2.456017
21
12.448216
31
0
39
0
210
0
220
0
230
1
0
LINE
5
C9
100
AcDbEntity
8
1
62
256
6
ByLayer
370
18
48
1
60
0
100
AcDbLine
10
2.768965
20
-14.739748
30
0
11
3.708705
21
-14.739748
31
0
39
0
210
0
220
0
230
1
0
LINE
5
CA
100
AcDbEntity
8
1
62
256
6
ByLayer
370
18
48
1
60
0
100
AcDbLine
10
0.766941
20
-13.204441
30
0
11
0
21
-12.4375
31
0
39
0
210
0
220
0
230
1
0
LINE
5
CB
100
AcDbEntity
8
1
62
256
6
ByLayer
370
18
48
1
60
0
100
AcDbLine
10
0.766941
20
-13.204441
30
0
11
2.302248
21
-14.739748
31
0
39
0
210
0
220
0
230
1
0
LINE
5
CC
100
AcDbEntity
8
1
62
256
6
ByLayer
370
18
48
1
60
0
100
AcDbLine
10
26.008676
20
-13.392051
30
0
11
20.979004
21
-14.739748
31
0
39
0
210
0
220
0
230
1
0
LINE
5
CD
100
AcDbEntity
8
1
62
256
6
ByLayer
370
18
48
1
60
0
100
AcDbLine
10
30.370025
20
5.256117
30
0
11
31.840938
21
4.309776
31
0
39
0
210
0
220
0
230
1
0
LINE
5
CE
100
AcDbEntity
8
1
62
256
6
ByLayer
370
18
48
1
60
0
100
AcDbLine
10
2.456017
20
12.448216
30
0
11
0.766941
21
-13.204441
31
0
39
0
210
0
220
0
230
1
0
LINE
5
CF
100
AcDbEntity
8
1
62
256
6
ByLayer
370
18
48
1
60
0
100
AcDbLine
10
31.866468
20
3.977569
30
0
11
39.792052
21
6.064198
31
0
39
0
210
0
220
0
230
1
0
LINE
5
D0
100
AcDbEntity
8
1
62
256
6
ByLayer
370
18
48
1
60
0
100
AcDbLine
10
2.302248
20
-14.739748
30
0
11
2.768965
21
-14.739748
31
0
39
0
210
0
220
0
230
1
0
LINE
5
D1
100
AcDbEntity
8
1
62
256
6
ByLayer
370
18
48
1
60
0
100
AcDbLine
10
30.370025
20
5.256117
30
0
11
30.399516
21
4.872371
31
0
39
0
210
0
220
0
230
1
0
LINE
5
D2
100
AcDbEntity
8
1
62
256
6
ByLayer
370
18
48
1
60
0
100
AcDbLine
10
3.738238
20
-14.739748
30
0
11
7.849603
21
-14.739748
31
0
39
0
210
0
220
0
230
1
0
LINE
5
D3
100
AcDbEntity
8
1
62
256
6
ByLayer
370
18
48
1
60
0
100
AcDbLine
10
30.897174
20
4.496668
30
0
11
30.898404
21
4.526419
31
0
39
0
210
0
220
0
230
1
0
LINE
5
D4
100
AcDbEntity
8
SK1
62
256
6
ByLayer
370
18
48
1
60
0
100
AcDbLine
10
0
20
-12.4375
30
0
11
-129.725777
21
-12.4375
31
0
39
0
210
0
220
0
230
1
0
LINE
5
D6
100
AcDbEntity
8
SK1
62
256
6
ByLayer
370
18
48
1
60
0
100
AcDbLine
10
-129.725777
20
-12.4375
30
0
11
-129.725777
21
12.4375
31
0
39
0
210
0
220
0
230
1
0
LINE
5
D7
100
AcDbEntity
8
SK1
62
256
6
ByLayer
370
18
48
1
60
0
100
AcDbLine
10
-129.725777
20
12.4375
30
0
11
0
21
12.4375
31
0
39
0
210
0
220
0
230
1
0
LINE
5
D8
100
AcDbEntity
8
SK1
62
256
6
ByLayer
370
18
48
1
60
0
100
AcDbLine
10
0
20
-12.4375
30
0
11
0
21
12.4375
31
0
39
0
210
0
220
0
230
1
0
MTEXT
5
15F
100
AcDbEntity
8
SK6
62
256
6
ByLayer
370
18
48
1
60
0
100
AcDbMText
10
-58.175777
20
20.423033
30
0
210
0
220
0
230
1
1
\W0.7470;DCBNL 3225P 16
40
3.5
41
0
44
1.084337
50
0
71
7
72
5
7
iso_b_vert
0
DIMENSION
5
17F
100
AcDbEntity
8
2
62
256
6
ByLayer
370
13
48
1
60
0
100
AcDbDimension
2
DimnDraft3D2
10
41.624223
20
-7.53125
30
0
11
31.293199
21
-23.376153
31
0
70
34
71
5
72
1
41
1
210
0
220
0
230
1
3
Standard
100
AcDb2LineAngularDimension
13
41.624223
23
-9.9125
33
0
14
38.629853
24
-10.714839
34
0
15
41.624223
25
-9.9125
35
0
16
28.553773
26
-26.946243
36
0
40
0
0
DIMENSION
5
194
100
AcDbEntity
8
2
62
256
6
ByLayer
370
13
48
1
60
0
100
AcDbDimension
2
DimnDraft3D3
10
41.624223
20
-38.1625
30
0
11
15.85619
21
-38.1625
31
0
70
32
71
5
72
1
41
1
210
0
220
0
230
1
3
Standard
100
AcDbAlignedDimension
13
0
23
-14.4375
33
0
14
41.624223
24
-11.9125
34
0
50
0
100
AcDbRotatedDimension
1001
ACAD
1000
DSTYLE
1002
{
1070
   279
1070
     0
1070
   172
1070
     1
1070
   173
1070
     1
1070
   340
1005
160
1070
    77
1070
     1
1070
    73
1070
     0
1070
   171
1070
     3
1070
   274
1070
     4
1070
   177
1070
     2
1070
   176
1070
     2
1070
   178
1070
     7
1070
    78
1070
     8
1070
    41
1041
3.175
1070
   147
1041
2.25
1070
    42
1041
2.0
1070
    44
1041
2.0
1070
   140
1041
4.5
1070
   343
1005
180
1070
   344
1005
180
1002
}
0
DIMENSION
5
1A2
100
AcDbEntity
8
2
62
256
6
ByLayer
370
13
48
1
60
0
100
AcDbDimension
2
DimnDraft3D4
10
63.874223
20
-9.9125
30
0
11
63.874223
21
-4.019079
31
0
70
32
71
5
72
1
41
1
210
0
220
0
230
1
3
Standard
100
AcDbAlignedDimension
13
2
23
12.4375
33
0
14
43.624223
24
-9.9125
34
0
50
90
100
AcDbRotatedDimension
1001
ACAD
1000
DSTYLE
1002
{
1070
    74
1070
     0
1070
   279
1070
     0
1070
   172
1070
     1
1070
   173
1070
     1
1070
   340
1005
160
1070
    77
1070
     1
1070
    73
1070
     0
1070
   171
1070
     3
1070
   274
1070
     4
1070
   177
1070
     2
1070
   176
1070
     2
1070
   178
1070
     7
1070
    78
1070
     8
1070
    41
1041
3.175
1070
   147
1041
2.25
1070
    42
1041
2.0
1070
    44
1041
2.0
1070
   140
1041
4.5
1070
   343
1005
180
1070
   344
1005
180
1002
}
0
DIMENSION
5
1B0
100
AcDbEntity
8
SK2
62
256
6
ByLayer
370
13
48
1
60
0
100
AcDbDimension
2
DimnDraft3D5
10
-137.475777
20
-12.4375
30
0
11
-137.475777
21
-5.281579
31
0
70
32
71
5
72
1
41
1
210
0
220
0
230
1
3
Standard
100
AcDbAlignedDimension
13
-131.725777
23
12.4375
33
0
14
-131.725777
24
-12.4375
34
0
50
90
100
AcDbRotatedDimension
1001
ACAD
1000
DSTYLE
1002
{
1070
    74
1070
     0
1070
   279
1070
     0
1070
   172
1070
     1
1070
   173
1070
     1
1070
   340
1005
160
1070
    77
1070
     1
1070
    73
1070
     0
1070
   171
1070
     3
1070
   274
1070
     4
1070
   177
1070
     2
1070
   176
1070
     2
1070
   178
1070
     7
1070
    78
1070
     8
1070
    41
1041
3.175
1070
   147
1041
2.25
1070
    42
1041
2.0
1070
    44
1041
2.0
1070
   140
1041
4.5
1070
   343
1005
180
1070
   344
1005
180
1002
}
0
ENDSEC
0
SECTION
2
OBJECTS
0
DICTIONARY
5
21a
330
0
100
AcDbDictionary
280
0
281
1
3
ACAD_GROUP
350
21b
3
ACAD_MLINESTYLE
350
21c
0
DICTIONARY
5
21b
330
0
100
AcDbDictionary
280
0
281
1
0
DICTIONARY
5
21c
330
0
100
AcDbDictionary
280
0
281
1
3
Standard
350
18
0
MLINESTYLE
5
18
330
21c
100
AcDbMlineStyle
2
Standard
70
0
3

62
256
51
90
52
90
71
2
49
-0.5
62
256
6
ByLayer
49
0.5
62
256
6
ByLayer
0
RASTERVARIABLES
5
209
330

100
AcDbRasterVariables
90
0
70
1
71
1
72
1
0
ENDSEC
0
EOF
