0
SECTION
2
HEADER
9
$ACADVER
1
AC1015
9
$DWGCODEPAGE
3
ANSI_1252
9
$HANDSEED
5
199
9
$ANGBASE
50
0
9
$ANGDIR
70
0
9
$ATTMODE
70
1
9
$AUNITS
70
0
9
$AUPREC
70
0
9
$CECOLOR
62
256
9
$CELTSCALE
40
1
9
$CELTYPE
6
ByLayer
9
$CELWEIGHT
370
18
9
$CLAYER
8
0
9
$CMLJUST
70
0
9
$CMLSCALE
40
1
9
$CMLSTYLE
2
Standard
9
$DIMSTYLE
2
Standard
9
$TEXTSIZE
40
0.2
9
$TEXTSTYLE
7
Standard
9
$LUNITS
70
2
9
$LUPREC
70
4
9
$EXTNAMES
290
1
9
$INSUNITS
70
4
9
$LTSCALE
40
1
9
$LWDISPLAY
290
1
9
$PDMODE
70
0
9
$PDSIZE
40
0
9
$PLINEGEN
70
0
0
ENDSEC
0
SECTION
2
CLASSES
0
CLASS
1
RASTERVARIABLES
2
AcDbRasterVariables
3
ISM
90
0
280
0
281
0
0
ENDSEC
0
SECTION
2
TABLES
0
TABLE
2
VPORT
5
18f
100
AcDbSymbolTable
0
VPORT
5
1
100
AcDbSymbolTableRecord
100
AcDbViewportTableRecord
2
*Active
70
0
10
0
20
0
11
1
21
1
12
-1
22
1
13
0
23
0
14
0.5
24
0.5
15
10
25
10
16
0
26
0
36
1
17
0
27
0
37
0
0
ENDTAB
0
TABLE
2
LTYPE
5
190
100
AcDbSymbolTable
0
LTYPE
5
14
100
AcDbSymbolTableRecord
100
AcDbLinetypeTableRecord
70
0
2
ByBlock
3

72
65
73
0
40
0
0
LTYPE
5
15
100
AcDbSymbolTableRecord
100
AcDbLinetypeTableRecord
70
0
2
ByLayer
3

72
65
73
0
40
0
0
LTYPE
5
16
100
AcDbSymbolTableRecord
100
AcDbLinetypeTableRecord
70
0
2
CONTINUOUS
3
Solid line
72
65
73
0
40
0
0
LTYPE
5
6A
100
AcDbSymbolTableRecord
100
AcDbLinetypeTableRecord
70
0
2
CENTER
3
____ _ ____ _ ____ _ ____
72
65
73
4
40
47.5
49
22
74
0
49
-8.5
74
0
49
8.5
74
0
49
-8.5
74
0
0
LTYPE
5
6B
100
AcDbSymbolTableRecord
100
AcDbLinetypeTableRecord
70
0
2
DASHED
3
__ __ __ __ __ __ __ __ __
72
65
73
2
40
25.72
49
12.86
74
0
49
-12.86
74
0
0
ENDTAB
0
TABLE
2
LAYER
5
191
100
AcDbSymbolTable
0
LAYER
5
10
100
AcDbSymbolTableRecord
100
AcDbLayerTableRecord
2
0
70
0
62
7
6
CONTINUOUS
290
1
370
-3
390
0
0
LAYER
5
6D
100
AcDbSymbolTableRecord
100
AcDbLayerTableRecord
2
80
70
0
62
-6
6
CONTINUOUS
290
1
370
-3
390
0
0
LAYER
5
6F
100
AcDbSymbolTableRecord
100
AcDbLayerTableRecord
2
81
70
0
62
-3
6
CONTINUOUS
290
1
370
-3
390
0
0
LAYER
5
71
100
AcDbSymbolTableRecord
100
AcDbLayerTableRecord
2
1
70
0
62
4
6
CONTINUOUS
290
1
370
-3
390
0
0
LAYER
5
F6
100
AcDbSymbolTableRecord
100
AcDbLayerTableRecord
2
2
70
0
62
7
6
CONTINUOUS
290
1
370
-3
390
0
0
LAYER
5
17a
100
AcDbSymbolTableRecord
100
AcDbLayerTableRecord
2
SK1
70
0
62
4
6
CONTINUOUS
290
1
370
-3
390
0
0
LAYER
5
17b
100
AcDbSymbolTableRecord
100
AcDbLayerTableRecord
2
SK3
70
0
62
1
6
DASHED
290
1
370
-3
390
0
0
LAYER
5
17c
100
AcDbSymbolTableRecord
100
AcDbLayerTableRecord
2
SK4
70
0
62
2
6
CENTER
290
1
370
-3
390
0
0
LAYER
5
17d
100
AcDbSymbolTableRecord
100
AcDbLayerTableRecord
2
SK6
70
0
62
5
6
CONTINUOUS
290
1
370
-3
390
0
0
LAYER
5
17e
100
AcDbSymbolTableRecord
100
AcDbLayerTableRecord
2
SK2
70
0
62
7
6
CONTINUOUS
290
1
370
-3
390
0
0
ENDTAB
0
TABLE
2
STYLE
5
192
100
AcDbSymbolTable
0
STYLE
5
11
100
AcDbSymbolTableRecord
100
AcDbTextStyleTableRecord
2
Standard
3
txt
70
0
71
0
40
0
41
1
42
0
50
0
0
STYLE
5
DB
100
AcDbSymbolTableRecord
100
AcDbTextStyleTableRecord
2
iso_b_vert
3
simplex.shx
70
0
71
0
40
0
41
1
42
0
50
0
0
STYLE
5
DC
100
AcDbSymbolTableRecord
100
AcDbTextStyleTableRecord
2
DWGDirectTextStyle
3
simplex
70
0
71
0
40
0
41
1
42
0
50
0
0
ENDTAB
0
TABLE
2
DIMSTYLE
5
193
100
AcDbSymbolTable
100
AcDbDimStyleTable
0
DIMSTYLE
105
27
100
AcDbSymbolTableRecord
100
AcDbDimStyleTableRecord
2
Standard
70
0
3
<>
41
0.18
42
0.0625
44
0.18
140
0.18
147
0.09
73
0
74
0
77
1
271
2
275
0
278
52
280
0
340
11
0
ENDTAB
0
TABLE
2
VIEW
5
194
100
AcDbSymbolTable
0
ENDTAB
0
TABLE
2
UCS
5
195
100
AcDbSymbolTable
0
ENDTAB
0
TABLE
2
APPID
5
196
100
AcDbSymbolTable
0
APPID
5
12
100
AcDbSymbolTableRecord
100
AcDbRegAppTableRecord
2
ACAD
70
0
0
ENDTAB
0
TABLE
2
BLOCK_RECORD
5
197
100
AcDbSymbolTable
0
BLOCK_RECORD
5
1F
100
AcDbSymbolTableRecord
100
AcDbBlockTableRecord
2
*Model_Space
340
0
70
0
0
BLOCK_RECORD
5
1B
100
AcDbSymbolTableRecord
100
AcDbBlockTableRecord
2
*Paper_Space
340
0
70
0
0
BLOCK_RECORD
5
23
100
AcDbSymbolTableRecord
100
AcDbBlockTableRecord
2
*Paper_Space0
340
0
70
0
0
BLOCK_RECORD
5
DE
100
AcDbSymbolTableRecord
100
AcDbBlockTableRecord
2
DimnDraft3D1
340
0
70
0
0
BLOCK_RECORD
5
ED
100
AcDbSymbolTableRecord
100
AcDbBlockTableRecord
2
_CLOSED
340
0
70
0
0
BLOCK_RECORD
5
F4
100
AcDbSymbolTableRecord
100
AcDbBlockTableRecord
2
DimnDraft3D2
340
0
70
0
0
BLOCK_RECORD
5
103
100
AcDbSymbolTableRecord
100
AcDbBlockTableRecord
2
DimnDraft3D3
340
0
70
0
0
BLOCK_RECORD
5
112
100
AcDbSymbolTableRecord
100
AcDbBlockTableRecord
2
DimnDraft3D4
340
0
70
0
0
ENDTAB
0
ENDSEC
0
SECTION
2
BLOCKS
0
BLOCK
5
20
100
AcDbEntity
8
0
100
AcDbBlockBegin
2
*Model_Space
70
0
10
0
20
0
30
0
3
*Model_Space
0
ENDBLK
5
21
100
AcDbEntity
8
0
100
AcDbBlockEnd
0
BLOCK
5
1C
100
AcDbEntity
8
0
100
AcDbBlockBegin
2
*Paper_Space
70
0
10
0
20
0
30
0
3
*Paper_Space
0
ENDBLK
5
1D
100
AcDbEntity
8
0
100
AcDbBlockEnd
0
BLOCK
5
24
100
AcDbEntity
8
0
100
AcDbBlockBegin
2
*Paper_Space0
70
0
10
0
20
0
30
0
3
*Paper_Space0
0
ENDBLK
5
25
100
AcDbEntity
8
0
100
AcDbBlockEnd
0
BLOCK
5
EA
100
AcDbEntity
8
0
100
AcDbBlockBegin
2
DimnDraft3D1
70
0
10
0
20
0
30
0
3
DimnDraft3D1
0
MTEXT
5
DF
100
AcDbEntity
8
SK2
62
256
6
ByLayer
370
18
48
1
60
0
100
AcDbMText
10
-22.002632
20
-24.659559
30
0
210
0
220
0
230
1
1
\W0.6562;70
40
3
41
0
44
1.084337
50
0
71
7
72
5
7
iso_b_vert
0
LINE
5
E1
100
AcDbEntity
8
SK2
62
256
6
ByLayer
370
13
48
1
60
0
100
AcDbLine
10
14
20
-5
30
0
11
14
21
-27.409559
31
0
39
0
210
0
220
0
230
1
0
LINE
5
E2
100
AcDbEntity
8
SK2
62
256
6
ByLayer
370
13
48
1
60
0
100
AcDbLine
10
-56
20
-7
30
0
11
-56
21
-27.409559
31
0
39
0
210
0
220
0
230
1
0
LINE
5
E3
100
AcDbEntity
8
SK2
62
256
6
ByLayer
370
13
48
1
60
0
100
AcDbLine
10
14
20
-25.409559
30
0
11
-56
21
-25.409559
31
0
39
0
210
0
220
0
230
1
0
LINE
5
E4
100
AcDbEntity
8
SK2
62
256
6
ByLayer
370
13
48
1
60
0
100
AcDbLine
10
14
20
-25.409559
30
0
11
10.825002
21
-25.827556
31
0
39
0
210
0
220
0
230
1
0
LINE
5
E5
100
AcDbEntity
8
SK2
62
256
6
ByLayer
370
13
48
1
60
0
100
AcDbLine
10
14
20
-25.409559
30
0
11
10.824998
21
-24.991562
31
0
39
0
210
0
220
0
230
1
0
LINE
5
E6
100
AcDbEntity
8
SK2
62
256
6
ByLayer
370
13
48
1
60
0
100
AcDbLine
10
10.825002
20
-25.827556
30
0
11
10.824998
21
-24.991562
31
0
39
0
210
0
220
0
230
1
0
LINE
5
E7
100
AcDbEntity
8
SK2
62
256
6
ByLayer
370
13
48
1
60
0
100
AcDbLine
10
-56
20
-25.409559
30
0
11
-52.825002
21
-24.991562
31
0
39
0
210
0
220
0
230
1
0
LINE
5
E8
100
AcDbEntity
8
SK2
62
256
6
ByLayer
370
13
48
1
60
0
100
AcDbLine
10
-56
20
-25.409559
30
0
11
-52.824998
21
-25.827556
31
0
39
0
210
0
220
0
230
1
0
LINE
5
E9
100
AcDbEntity
8
SK2
62
256
6
ByLayer
370
13
48
1
60
0
100
AcDbLine
10
-52.825002
20
-24.991562
30
0
11
-52.824998
21
-25.827556
31
0
39
0
210
0
220
0
230
1
0
ENDBLK
5
EB
100
AcDbEntity
8
0
100
AcDbBlockEnd
0
BLOCK
5
EE
100
AcDbEntity
8
0
100
AcDbBlockBegin
2
_CLOSED
70
0
10
0
20
0
30
0
3
_CLOSED
0
LINE
5
F0
100
AcDbEntity
8
0
62
256
6
ByLayer
370
-2
48
1
60
0
100
AcDbLine
10
-1
20
0.166667
30
0
11
0
21
0
31
0
39
0
210
0
220
0
230
1
0
LINE
5
F1
100
AcDbEntity
8
0
62
256
6
ByLayer
370
-2
48
1
60
0
100
AcDbLine
10
0
20
0
30
0
11
-1
21
-0.166667
31
0
39
0
210
0
220
0
230
1
0
LINE
5
F2
100
AcDbEntity
8
0
62
256
6
ByLayer
370
-2
48
1
60
0
100
AcDbLine
10
-1
20
0.166667
30
0
11
-1
21
-0.166667
31
0
39
0
210
0
220
0
230
1
0
LINE
5
F3
100
AcDbEntity
8
0
62
256
6
ByLayer
370
-2
48
1
60
0
100
AcDbLine
10
0
20
0
30
0
11
-1
21
0
31
0
39
0
210
0
220
0
230
1
0
ENDBLK
5
EF
100
AcDbEntity
8
0
100
AcDbBlockEnd
0
BLOCK
5
100
100
AcDbEntity
8
0
100
AcDbBlockBegin
2
DimnDraft3D2
70
0
10
0
20
0
30
0
3
DimnDraft3D2
0
MTEXT
5
F5
100
AcDbEntity
8
2
62
256
6
ByLayer
370
18
48
1
60
0
100
AcDbMText
10
-27.002632
20
-16.614972
30
0
210
0
220
0
230
1
1
\W0.6562;50
40
3
41
0
44
1.084337
50
0
71
7
72
5
7
iso_b_vert
0
LINE
5
F7
100
AcDbEntity
8
2
62
256
6
ByLayer
370
13
48
1
60
0
100
AcDbLine
10
-51
20
-5.316625
30
0
11
-51
21
-19.364972
31
0
39
0
210
0
220
0
230
1
0
LINE
5
F8
100
AcDbEntity
8
2
62
256
6
ByLayer
370
13
48
1
60
0
100
AcDbLine
10
-1
20
-5.316625
30
0
11
-1
21
-19.364972
31
0
39
0
210
0
220
0
230
1
0
LINE
5
F9
100
AcDbEntity
8
2
62
256
6
ByLayer
370
13
48
1
60
0
100
AcDbLine
10
-51
20
-17.364972
30
0
11
-1
21
-17.364972
31
0
39
0
210
0
220
0
230
1
0
LINE
5
FA
100
AcDbEntity
8
2
62
256
6
ByLayer
370
13
48
1
60
0
100
AcDbLine
10
-51
20
-17.364972
30
0
11
-47.825002
21
-16.946976
31
0
39
0
210
0
220
0
230
1
0
LINE
5
FB
100
AcDbEntity
8
2
62
256
6
ByLayer
370
13
48
1
60
0
100
AcDbLine
10
-51
20
-17.364972
30
0
11
-47.824998
21
-17.782969
31
0
39
0
210
0
220
0
230
1
0
LINE
5
FC
100
AcDbEntity
8
2
62
256
6
ByLayer
370
13
48
1
60
0
100
AcDbLine
10
-47.825002
20
-16.946976
30
0
11
-47.824998
21
-17.782969
31
0
39
0
210
0
220
0
230
1
0
LINE
5
FD
100
AcDbEntity
8
2
62
256
6
ByLayer
370
13
48
1
60
0
100
AcDbLine
10
-1
20
-17.364972
30
0
11
-4.174998
21
-17.782969
31
0
39
0
210
0
220
0
230
1
0
LINE
5
FE
100
AcDbEntity
8
2
62
256
6
ByLayer
370
13
48
1
60
0
100
AcDbLine
10
-1
20
-17.364972
30
0
11
-4.175002
21
-16.946976
31
0
39
0
210
0
220
0
230
1
0
LINE
5
FF
100
AcDbEntity
8
2
62
256
6
ByLayer
370
13
48
1
60
0
100
AcDbLine
10
-4.174998
20
-17.782969
30
0
11
-4.175002
21
-16.946976
31
0
39
0
210
0
220
0
230
1
0
ENDBLK
5
101
100
AcDbEntity
8
0
100
AcDbBlockEnd
0
BLOCK
5
10F
100
AcDbEntity
8
0
100
AcDbBlockBegin
2
DimnDraft3D3
70
0
10
0
20
0
30
0
3
DimnDraft3D3
0
MTEXT
5
104
100
AcDbEntity
8
SK2
62
256
6
ByLayer
370
18
48
1
60
0
100
AcDbMText
10
37.761763
20
-4.33956
30
0
210
0
220
0
230
1
1
%%c
40
3
41
0
44
1.084337
50
90
71
7
72
5
7
iso_b_vert
0
MTEXT
5
105
100
AcDbEntity
8
SK2
62
256
6
ByLayer
370
18
48
1
60
0
100
AcDbMText
10
37.761763
20
3.137003
30
0
210
0
220
0
230
1
1
\W0.5144;12
40
3
41
0
44
1.084337
50
90
71
7
72
5
7
iso_b_vert
0
LINE
5
106
100
AcDbEntity
8
SK2
62
256
6
ByLayer
370
13
48
1
60
0
100
AcDbLine
10
2
20
-6
30
0
11
41.261763
21
-6
31
0
39
0
210
0
220
0
230
1
0
LINE
5
107
100
AcDbEntity
8
SK2
62
256
6
ByLayer
370
13
48
1
60
0
100
AcDbLine
10
15.75
20
6
30
0
11
41.261763
21
6
31
0
39
0
210
0
220
0
230
1
0
LINE
5
108
100
AcDbEntity
8
SK2
62
256
6
ByLayer
370
13
48
1
60
0
100
AcDbLine
10
39.261763
20
6
30
0
11
39.261763
21
-6.612998
31
0
39
0
210
0
220
0
230
1
0
LINE
5
109
100
AcDbEntity
8
SK2
62
256
6
ByLayer
370
13
48
1
60
0
100
AcDbLine
10
39.261763
20
-6
30
0
11
38.843767
21
-2.825002
31
0
39
0
210
0
220
0
230
1
0
LINE
5
10A
100
AcDbEntity
8
SK2
62
256
6
ByLayer
370
13
48
1
60
0
100
AcDbLine
10
39.261763
20
-6
30
0
11
39.67976
21
-2.824998
31
0
39
0
210
0
220
0
230
1
0
LINE
5
10B
100
AcDbEntity
8
SK2
62
256
6
ByLayer
370
13
48
1
60
0
100
AcDbLine
10
38.843767
20
-2.825002
30
0
11
39.67976
21
-2.824998
31
0
39
0
210
0
220
0
230
1
0
LINE
5
10C
100
AcDbEntity
8
SK2
62
256
6
ByLayer
370
13
48
1
60
0
100
AcDbLine
10
39.261763
20
6
30
0
11
39.67976
21
2.825002
31
0
39
0
210
0
220
0
230
1
0
LINE
5
10D
100
AcDbEntity
8
SK2
62
256
6
ByLayer
370
13
48
1
60
0
100
AcDbLine
10
39.261763
20
6
30
0
11
38.843767
21
2.824998
31
0
39
0
210
0
220
0
230
1
0
LINE
5
10E
100
AcDbEntity
8
SK2
62
256
6
ByLayer
370
13
48
1
60
0
100
AcDbLine
10
39.67976
20
2.825002
30
0
11
38.843767
21
2.824998
31
0
39
0
210
0
220
0
230
1
0
ENDBLK
5
110
100
AcDbEntity
8
0
100
AcDbBlockEnd
0
BLOCK
5
11E
100
AcDbEntity
8
0
100
AcDbBlockBegin
2
DimnDraft3D4
70
0
10
0
20
0
30
0
3
DimnDraft3D4
0
MTEXT
5
113
100
AcDbEntity
8
2
62
256
6
ByLayer
370
18
48
1
60
0
100
AcDbMText
10
27.911168
20
11.394814
30
0
210
0
220
0
230
1
1
%%c
40
3
41
0
44
1.084337
50
90
71
7
72
5
7
iso_b_vert
0
MTEXT
5
114
100
AcDbEntity
8
2
62
256
6
ByLayer
370
18
48
1
60
0
100
AcDbMText
10
27.911168
20
18.871376
30
0
210
0
220
0
230
1
1
\W0.5211;6
40
3
41
0
44
1.084337
50
90
71
7
72
5
7
iso_b_vert
0
LINE
5
115
100
AcDbEntity
8
2
62
256
6
ByLayer
370
13
48
1
60
0
100
AcDbLine
10
16
20
-3
30
0
11
31.411168
21
-3
31
0
39
0
210
0
220
0
230
1
0
LINE
5
116
100
AcDbEntity
8
2
62
256
6
ByLayer
370
13
48
1
60
0
100
AcDbLine
10
16
20
3
30
0
11
31.411168
21
3
31
0
39
0
210
0
220
0
230
1
0
LINE
5
117
100
AcDbEntity
8
2
62
256
6
ByLayer
370
13
48
1
60
0
100
AcDbLine
10
29.411168
20
19.424008
30
0
11
29.411168
21
-10.5
31
0
39
0
210
0
220
0
230
1
0
LINE
5
118
100
AcDbEntity
8
2
62
256
6
ByLayer
370
13
48
1
60
0
100
AcDbLine
10
29.411168
20
-3
30
0
11
29.829165
21
-6.174998
31
0
39
0
210
0
220
0
230
1
0
LINE
5
119
100
AcDbEntity
8
2
62
256
6
ByLayer
370
13
48
1
60
0
100
AcDbLine
10
29.411168
20
-3
30
0
11
28.993172
21
-6.175002
31
0
39
0
210
0
220
0
230
1
0
LINE
5
11A
100
AcDbEntity
8
2
62
256
6
ByLayer
370
13
48
1
60
0
100
AcDbLine
10
29.829165
20
-6.174998
30
0
11
28.993172
21
-6.175002
31
0
39
0
210
0
220
0
230
1
0
LINE
5
11B
100
AcDbEntity
8
2
62
256
6
ByLayer
370
13
48
1
60
0
100
AcDbLine
10
29.411168
20
3
30
0
11
28.993172
21
6.174998
31
0
39
0
210
0
220
0
230
1
0
LINE
5
11C
100
AcDbEntity
8
2
62
256
6
ByLayer
370
13
48
1
60
0
100
AcDbLine
10
29.411168
20
3
30
0
11
29.829165
21
6.175002
31
0
39
0
210
0
220
0
230
1
0
LINE
5
11D
100
AcDbEntity
8
2
62
256
6
ByLayer
370
13
48
1
60
0
100
AcDbLine
10
28.993172
20
6.174998
30
0
11
29.829165
21
6.175002
31
0
39
0
210
0
220
0
230
1
0
ENDBLK
5
11F
100
AcDbEntity
8
0
100
AcDbBlockEnd
0
ENDSEC
0
SECTION
2
ENTITIES
0
ARC
5
BA
100
AcDbEntity
8
1
62
256
6
ByLayer
370
18
48
0.05
60
0
100
AcDbCircle
39
0
10
-7
20
0
30
0
40
3
210
0
220
0
230
-1
100
AcDbArc
50
270
51
90
0
ARC
5
BB
100
AcDbEntity
8
1
62
256
6
ByLayer
370
18
48
0.05
60
0
100
AcDbCircle
39
0
10
-7
20
0
30
0
40
3
210
0
220
0
230
-1
100
AcDbArc
50
90
51
270
0
CIRCLE
5
B9
100
AcDbEntity
8
1
62
256
6
ByLayer
370
18
48
1
60
0
100
AcDbCircle
10
-7
20
0
30
0
40
3
39
0
210
0
220
0
230
-1
0
ELLIPSE
5
BC
100
AcDbEntity
8
1
62
256
6
ByLayer
370
18
48
1
60
0
100
AcDbEllipse
10
14
20
0
30
0
11
-7.02872005389764E-15
21
5.99999999999999
31
0
210
0
220
0
230
-1
40
0.140541
41
-2.40461733809403
42
-0.736975315495756
0
ELLIPSE
5
BD
100
AcDbEntity
8
1
62
256
6
ByLayer
370
18
48
1
60
0
100
AcDbEllipse
10
2.485506
20
-3.514494
30
0
11
0.720938087646262
21
0.720938087646262
31
0
210
0
220
0
230
-1
40
0.980815
41
2.3658796718609
42
-2.36587967186089
0
ELLIPSE
5
BE
100
AcDbEntity
8
1
62
256
6
ByLayer
370
18
48
1
60
0
100
AcDbEllipse
10
11.514494
20
-3.514494
30
0
11
-0.720938087646141
21
0.72093808764614
31
0
210
0
220
0
230
-1
40
0.980815
41
2.36587967186082
42
-2.36587967186083
0
ELLIPSE
5
BF
100
AcDbEntity
8
1
62
256
6
ByLayer
370
18
48
1
60
0
100
AcDbEllipse
10
11.514494
20
3.514494
30
0
11
0.720938087646114
21
0.720938087646114
31
0
210
0
220
0
230
-1
40
0.980815
41
-0.775712981728983
42
0.775712981728983
0
ELLIPSE
5
C0
100
AcDbEntity
8
1
62
256
6
ByLayer
370
18
48
1
60
0
100
AcDbEllipse
10
2.485506
20
3.514494
30
0
11
-0.720938087646186
21
0.720938087646186
31
0
210
0
220
0
230
-1
40
0.980815
41
-0.775712981728942
42
0.775712981728943
0
ELLIPSE
5
C1
100
AcDbEntity
8
1
62
256
6
ByLayer
370
18
48
1
60
0
100
AcDbEllipse
10
0
20
0
30
0
11
-7.02872005389756E-15
21
5.99999999999992
31
0
210
0
220
0
230
-1
40
0.140541
41
0.736975315495754
42
2.40461733809405
0
ELLIPSE
5
C2
100
AcDbEntity
8
SK1
62
256
6
ByLayer
370
18
48
0.05
60
0
100
AcDbEllipse
10
-43.5
20
0
30
0
11
-8.99999999999907
21
0
31
0
210
0
220
0
230
-1
40
0.666667
41
-0.585685543457237
42
0.585685543457111
0
ELLIPSE
5
C3
100
AcDbEntity
8
1
62
256
6
ByLayer
370
18
48
0.05
60
0
100
AcDbEllipse
10
-8.5
20
0
30
0
11
-9.00000000000036
21
0
31
0
210
0
220
0
230
-1
40
0.666667
41
2.55590711013276
42
-2.55590711013257
0
ELLIPSE
5
C4
100
AcDbEntity
8
1
62
256
6
ByLayer
370
18
48
1
60
0
100
AcDbEllipse
10
-8.5
20
0
30
0
11
-8.99999999999969
21
0
31
0
210
0
220
0
230
-1
40
0.666667
41
2.55590711013264
42
-2.55590711013264
0
ELLIPSE
5
C5
100
AcDbEntity
8
SK1
62
256
6
ByLayer
370
18
48
1
60
0
100
AcDbEllipse
10
-43.5
20
0
30
0
11
-9.00000000000012
21
0
31
0
210
0
220
0
230
-1
40
0.666667
41
-0.585685543457136
42
0.585685543457147
0
POINT
5
6C
100
AcDbEntity
8
80
62
256
6
ByLayer
370
18
48
1
60
0
100
AcDbPoint
10
0
20
0
30
0
39
0
210
0
220
0
230
1
50
360
0
POINT
5
6E
100
AcDbEntity
8
81
62
256
6
ByLayer
370
18
48
1
60
0
100
AcDbPoint
10
14
20
0
30
0
39
0
210
0
220
0
230
1
50
360
0
SPLINE
5
C6
100
AcDbEntity
8
1
62
256
6
ByLayer
370
18
48
1
60
0
100
AcDbSpline
70
4
71
3
72
15
73
11
40
0
40
0
40
0
40
0
40
0.0169637082874337
40
0.0376228263808104
40
0.0744117959107194
40
0.208227887186548
40
0.449366547787927
40
0.69066317240447
40
0.845403231750928
40
1
40
1
40
1
40
1
41
1
10
1.22269789311166
20
5.76757017562991
30
0
41
1
10
1.2055634232181
20
5.76744430958592
30
0
41
1
10
1.16961917884539
20
5.7657662057908
30
0
41
1
10
1.10639185475291
20
5.75486537922861
30
0
41
1
10
0.987585103248492
20
5.71309189879989
30
0
41
1
10
0.839451727954767
20
5.59241151130168
30
0
41
1
10
0.673430871810432
20
5.36006115542135
30
0
41
1
10
0.576445723782427
20
5.05123997900353
30
0
41
1
10
0.53898772501541
20
4.73756625920391
30
0
41
1
10
0.552502276393675
20
4.54421906722499
30
0
41
1
10
0.566703816456283
20
4.44302811480215
30
0
0
SPLINE
5
C7
100
AcDbEntity
8
1
62
256
6
ByLayer
370
18
48
1
60
0
100
AcDbSpline
70
4
71
3
72
15
73
11
40
0
40
0
40
0
40
0
40
0.0169637082874333
40
0.0376228263808101
40
0.0744117959107216
40
0.208227887186558
40
0.449366547787941
40
0.690663172404489
40
0.845403231750937
40
1
40
1
40
1
40
1
41
1
10
12.7773021068883
20
-5.76757017562991
30
0
41
1
10
12.7944365767819
20
-5.76744430958591
30
0
41
1
10
12.8303808211546
20
-5.7657662057908
30
0
41
1
10
12.8936081452471
20
-5.75486537922861
30
0
41
1
10
13.0124148967515
20
-5.71309189879989
30
0
41
1
10
13.1605482720452
20
-5.59241151130167
30
0
41
1
10
13.3265691281896
20
-5.36006115542133
30
0
41
1
10
13.4235542762176
20
-5.05123997900351
30
0
41
1
10
13.4610122749846
20
-4.73756625920389
30
0
41
1
10
13.4474977236063
20
-4.54421906722498
30
0
41
1
10
13.4332961835437
20
-4.44302811480215
30
0
0
SPLINE
5
C8
100
AcDbEntity
8
1
62
256
6
ByLayer
370
18
48
1
60
0
100
AcDbSpline
70
4
71
3
72
16
73
12
40
0
40
0
40
0
40
0
40
0.173534658649554
40
0.347281871109932
40
0.601040681590693
40
0.853970444726045
40
0.902051553359671
40
0.952526198844268
40
0.973345150144321
40
0.990891037892704
40
1
40
1
40
1
40
1
41
1
10
0.566703816456275
20
-4.44302811480215
30
0
41
1
10
0.551087943193707
20
-4.55677203851904
30
0
41
1
10
0.537862689936041
20
-4.77267536209659
30
0
41
1
10
0.590058882243916
20
-5.10850578431942
30
0
41
1
10
0.700910968760624
20
-5.42438679707056
30
0
41
1
10
0.862344352153208
20
-5.62141617571739
30
0
41
1
10
1.01125535654261
20
-5.71774589152066
30
0
41
1
10
1.07660371990534
20
-5.74647582518208
30
0
41
1
10
1.14396704160853
20
-5.76206036951686
30
0
41
1
10
1.18795626866915
20
-5.76690811024344
30
0
41
1
10
1.21368736035347
20
-5.76755724942124
30
0
41
1
10
1.22269789311316
20
-5.76757017562884
30
0
0
SPLINE
5
C9
100
AcDbEntity
8
1
62
256
6
ByLayer
370
18
48
1
60
0
100
AcDbSpline
70
4
71
3
72
16
73
12
40
0
40
0
40
0
40
0
40
0.173534658649554
40
0.347281871109932
40
0.601040681590693
40
0.853970444726045
40
0.902051553359669
40
0.952526198844266
40
0.97334515014432
40
0.990891037892703
40
1
40
1
40
1
40
1
41
1
10
13.4332961835437
20
4.44302811480215
30
0
41
1
10
13.4489120568063
20
4.55677203851905
30
0
41
1
10
13.462137310064
20
4.77267536209659
30
0
41
1
10
13.4099411177561
20
5.10850578431942
30
0
41
1
10
13.2990890312394
20
5.42438679707055
30
0
41
1
10
13.1376556478468
20
5.6214161757174
30
0
41
1
10
12.9887446434574
20
5.71774589152065
30
0
41
1
10
12.9233962800947
20
5.7464758251821
30
0
41
1
10
12.8560329583915
20
5.76206036951684
30
0
41
1
10
12.8120437313308
20
5.76690811024349
30
0
41
1
10
12.7863126396466
20
5.76755724942119
30
0
41
1
10
12.7773021068868
20
5.76757017562884
30
0
0
SPLINE
5
CA
100
AcDbEntity
8
SK3
62
256
6
ByLayer
370
18
48
0.05
60
0
100
AcDbSpline
70
4
71
3
72
12
73
8
40
0
40
0
40
0
40
0
40
0.213495707722439
40
0.42700155946179
40
0.640093451845461
40
0.851591905707964
40
1
40
1
40
1
40
1
41
1
10
-5.75
20
-6
30
0
41
1
10
-5.89563820033802
20
-6.00076543318867
30
0
41
1
10
-6.16913415351198
20
-5.99993377029856
30
0
41
1
10
-6.54597721856012
20
-5.99660673605576
30
0
41
1
10
-6.82831616881212
20
-5.97627040488512
30
0
41
1
10
-6.97412107265686
20
-5.93185171381063
30
0
41
1
10
-6.99998309561791
20
-5.88844926237284
30
0
41
1
10
-6.99999903016712
20
-5.8680154063084
30
0
0
SPLINE
5
CB
100
AcDbEntity
8
SK1
62
256
6
ByLayer
370
18
48
0.05
60
0
100
AcDbSpline
70
4
71
3
72
12
73
8
40
0
40
0
40
0
40
0
40
0.213495707722439
40
0.42700155946179
40
0.640093451845461
40
0.851591905707964
40
1
40
1
40
1
40
1
41
1
10
-5.75
20
6
30
0
41
1
10
-5.60436179966197
20
6.00076543318867
30
0
41
1
10
-5.33086584648801
20
5.99993377029856
30
0
41
1
10
-4.95402278143987
20
5.99660673605576
30
0
41
1
10
-4.67168383118788
20
5.97627040488512
30
0
41
1
10
-4.52587892734314
20
5.93185171381063
30
0
41
1
10
-4.50001690438209
20
5.88844926237284
30
0
41
1
10
-4.50000096983288
20
5.8680154063084
30
0
0
SPLINE
5
CC
100
AcDbEntity
8
SK3
62
256
6
ByLayer
370
18
48
0.05
60
0
100
AcDbSpline
70
4
71
3
72
12
73
8
40
0
40
0
40
0
40
0
40
0.210129588582199
40
0.420299003961798
40
0.62885726380193
40
0.831404150453336
40
1
40
1
40
1
40
1
41
1
10
-5.74999999999999
20
-3
30
0
41
1
10
-5.89547181630152
20
-3.00152622059269
30
0
41
1
10
-6.16865959508795
20
-2.99986369874968
30
0
41
1
10
-6.54448616519316
20
-2.99326755561527
30
0
41
1
10
-6.82344228027301
20
-2.95317334103196
30
0
41
1
10
-6.97264891812726
20
-2.86332294203913
30
0
41
1
10
-7.00085173335788
20
-2.77346180674283
30
0
41
1
10
-6.99999785858836
20
-2.72611632644476
30
0
0
SPLINE
5
CD
100
AcDbEntity
8
SK3
62
256
6
ByLayer
370
18
48
0.05
60
0
100
AcDbSpline
70
4
71
3
72
12
73
8
40
0
40
0
40
0
40
0
40
0.210129588582199
40
0.420299003961798
40
0.62885726380193
40
0.831404150453336
40
1
40
1
40
1
40
1
41
1
10
-5.75
20
3
30
0
41
1
10
-5.60452818369848
20
3.00152622059269
30
0
41
1
10
-5.33134040491204
20
2.99986369874968
30
0
41
1
10
-4.95551383480681
20
2.99326755561527
30
0
41
1
10
-4.67655771972699
20
2.95317334103196
30
0
41
1
10
-4.52735108187272
20
2.86332294203913
30
0
41
1
10
-4.49914826664211
20
2.77346180674283
30
0
41
1
10
-4.50000214141164
20
2.72611632644476
30
0
0
SPLINE
5
CE
100
AcDbEntity
8
SK3
62
256
6
ByLayer
370
18
48
0.05
60
0
100
AcDbSpline
70
4
71
3
72
12
73
8
40
0
40
0
40
0
40
0
40
0.151096592177804
40
0.370846300781695
40
0.572968741302718
40
0.774996522129681
40
1
40
1
40
1
40
1
41
1
10
-6.99999442990095
20
2.7254645380471
30
0
41
1
10
-7.00086389486515
20
2.76791897587069
30
0
41
1
10
-6.9760278715884
20
2.85927946946673
30
0
41
1
10
-6.83354261218882
20
2.9508965937241
30
0
41
1
10
-6.55555383863864
20
2.99213829907815
30
0
41
1
10
-6.18365227743436
20
2.99997785619106
30
0
41
1
10
-5.90652786580632
20
3.001833454698
30
0
41
1
10
-5.75
20
3
30
0
0
SPLINE
5
CF
100
AcDbEntity
8
SK3
62
256
6
ByLayer
370
18
48
0.05
60
0
100
AcDbSpline
70
4
71
3
72
21
73
17
40
0
40
0
40
0
40
0
40
0.0146547510494404
40
0.11089822422982
40
0.223274372747254
40
0.290497645878861
40
0.357626038085171
40
0.427428391871718
40
0.484626319640521
40
0.542111404275464
40
0.608876726004433
40
0.713721684536712
40
0.783881528068398
40
0.854026101182225
40
0.969606398711596
40
1
40
1
40
1
40
1
41
1
10
-4.50000214141164
20
2.72611632644476
30
0
41
1
10
-4.50007592622472
20
2.71691317311742
30
0
41
1
10
-4.50381029032069
20
2.64595226191194
30
0
41
1
10
-4.56570072076525
20
2.47766112063639
30
0
41
1
10
-4.7385984670544
20
2.23745838837034
30
0
41
1
10
-4.95094044282256
20
2.01968290972392
30
0
41
1
10
-5.16433565697994
20
1.84993974635556
30
0
41
1
10
-5.40756267899088
20
1.71505996981827
30
0
41
1
10
-5.67778126651999
20
1.64745031021788
30
0
41
1
10
-5.95564838601492
20
1.66855504372802
30
0
41
1
10
-6.26859581106039
20
1.79735519081586
30
0
41
1
10
-6.53092392113143
20
2.00006120691601
30
0
41
1
10
-6.73924261758597
20
2.21557482320307
30
0
41
1
10
-6.90758348180057
20
2.43810549690295
30
0
41
1
10
-6.98981825452529
20
2.61073420064805
30
0
41
1
10
-6.99966054667873
20
2.70624421031323
30
0
41
1
10
-6.99999442990095
20
2.7254645380471
30
0
0
SPLINE
5
D0
100
AcDbEntity
8
SK1
62
256
6
ByLayer
370
18
48
0.05
60
0
100
AcDbSpline
70
4
71
3
72
12
73
8
40
0
40
0
40
0
40
0
40
0.197405507950987
40
0.412663422701565
40
0.623679485423341
40
0.835507655636022
40
1
40
1
40
1
40
1
41
1
10
-6.99999913552014
20
5.86803396245283
30
0
41
1
10
-6.99959040909484
20
5.89522297061977
30
0
41
1
10
-6.96005448968323
20
5.94281719899108
30
0
41
1
10
-6.77035395295319
20
5.9834002036684
30
0
41
1
10
-6.46278512766907
20
5.99841124782865
30
0
41
1
10
-6.10351507725069
20
5.99989169407529
30
0
41
1
10
-5.86067954760523
20
6.00034594288605
30
0
41
1
10
-5.75
20
6
30
0
0
SPLINE
5
D1
100
AcDbEntity
8
SK3
62
256
6
ByLayer
370
18
48
0.05
60
0
100
AcDbSpline
70
4
71
3
72
18
73
14
40
0
40
0
40
0
40
0
40
0.0311445510695874
40
0.137323456098602
40
0.248110248041505
40
0.361188660462466
40
0.46907085487004
40
0.567900251096024
40
0.663600200639203
40
0.764302019011764
40
0.873175226371903
40
0.986277067714348
40
1
40
1
40
1
40
1
41
1
10
-4.50000096983288
20
5.8680154063084
30
0
41
1
10
-4.50010657910421
20
5.85926530166288
30
0
41
1
10
-4.50888249852801
20
5.8194096883021
30
0
41
1
10
-4.59458291426486
20
5.73280124605098
30
0
41
1
10
-4.83782576528113
20
5.60834129901393
30
0
41
1
10
-5.19395887604741
20
5.5010755771115
30
0
41
1
10
-5.61120919450723
20
5.44700750083088
30
0
41
1
10
-6.02233910978364
20
5.45869939258436
30
0
41
1
10
-6.39061354072513
20
5.52339265186793
30
0
41
1
10
-6.70194187409779
20
5.62595480391987
30
0
41
1
10
-6.92750059879983
20
5.74768988378361
30
0
41
1
10
-6.99628917781407
20
5.82822859595492
30
0
41
1
10
-6.99996999081556
20
5.86420136467914
30
0
41
1
10
-6.99999913552014
20
5.86803396245283
30
0
0
SPLINE
5
D2
100
AcDbEntity
8
SK3
62
256
6
ByLayer
370
18
48
0.05
60
0
100
AcDbSpline
70
4
71
3
72
12
73
8
40
0
40
0
40
0
40
0
40
0.151096592177804
40
0.370846300781695
40
0.572968741302718
40
0.774996522129683
40
1
40
1
40
1
40
1
41
1
10
-4.50000557009905
20
-2.7254645380471
30
0
41
1
10
-4.49913610513484
20
-2.76791897587069
30
0
41
1
10
-4.5239721284116
20
-2.85927946946673
30
0
41
1
10
-4.66645738781118
20
-2.95089659372411
30
0
41
1
10
-4.94444616136134
20
-2.99213829907815
30
0
41
1
10
-5.31634772256564
20
-2.99997785619106
30
0
41
1
10
-5.59347213419368
20
-3.001833454698
30
0
41
1
10
-5.75
20
-3
30
0
0
SPLINE
5
D3
100
AcDbEntity
8
SK3
62
256
6
ByLayer
370
18
48
0.05
60
0
100
AcDbSpline
70
4
71
3
72
21
73
17
40
0
40
0
40
0
40
0
40
0.0146547510494404
40
0.11089822422982
40
0.223274372747254
40
0.290497645878861
40
0.357626038085171
40
0.427428391871718
40
0.484626319640521
40
0.542111404275464
40
0.608876726004433
40
0.713721684536713
40
0.783881528068398
40
0.854026101182225
40
0.969606398711596
40
1
40
1
40
1
40
1
41
1
10
-6.99999785858836
20
-2.72611632644476
30
0
41
1
10
-6.99992407377528
20
-2.71691317311742
30
0
41
1
10
-6.99618970967929
20
-2.64595226191193
30
0
41
1
10
-6.93429927923475
20
-2.47766112063639
30
0
41
1
10
-6.76140153294558
20
-2.23745838837034
30
0
41
1
10
-6.54905955717744
20
-2.01968290972392
30
0
41
1
10
-6.33566434302006
20
-1.84993974635556
30
0
41
1
10
-6.09243732100911
20
-1.71505996981827
30
0
41
1
10
-5.82221873348001
20
-1.64745031021788
30
0
41
1
10
-5.54435161398508
20
-1.66855504372802
30
0
41
1
10
-5.23140418893959
20
-1.79735519081586
30
0
41
1
10
-4.96907607886855
20
-2.00006120691601
30
0
41
1
10
-4.76075738241403
20
-2.21557482320308
30
0
41
1
10
-4.5924165181994
20
-2.43810549690295
30
0
41
1
10
-4.51018174547472
20
-2.61073420064805
30
0
41
1
10
-4.50033945332127
20
-2.70624421031323
30
0
41
1
10
-4.50000557009905
20
-2.7254645380471
30
0
0
SPLINE
5
D4
100
AcDbEntity
8
SK3
62
256
6
ByLayer
370
18
48
0.05
60
0
100
AcDbSpline
70
4
71
3
72
12
73
8
40
0
40
0
40
0
40
0
40
0.197405507950987
40
0.412663422701566
40
0.623679485423341
40
0.835507655636022
40
1
40
1
40
1
40
1
41
1
10
-4.50000086447986
20
-5.86803396245283
30
0
41
1
10
-4.50040959090515
20
-5.89522297061977
30
0
41
1
10
-4.53994551031676
20
-5.94281719899108
30
0
41
1
10
-4.7296460470468
20
-5.9834002036684
30
0
41
1
10
-5.03721487233092
20
-5.99841124782865
30
0
41
1
10
-5.3964849227493
20
-5.99989169407529
30
0
41
1
10
-5.63932045239476
20
-6.00034594288605
30
0
41
1
10
-5.75
20
-6
30
0
0
SPLINE
5
D5
100
AcDbEntity
8
SK3
62
256
6
ByLayer
370
18
48
0.05
60
0
100
AcDbSpline
70
4
71
3
72
18
73
14
40
0
40
0
40
0
40
0
40
0.0311445510695874
40
0.137323456098602
40
0.248110248041504
40
0.361188660462466
40
0.46907085487004
40
0.567900251096024
40
0.663600200639203
40
0.764302019011764
40
0.873175226371903
40
0.986277067714348
40
1
40
1
40
1
40
1
41
1
10
-6.99999903016712
20
-5.8680154063084
30
0
41
1
10
-6.99989342089579
20
-5.85926530166288
30
0
41
1
10
-6.99111750147199
20
-5.8194096883021
30
0
41
1
10
-6.90541708573512
20
-5.73280124605099
30
0
41
1
10
-6.66217423471887
20
-5.60834129901392
30
0
41
1
10
-6.30604112395258
20
-5.5010755771115
30
0
41
1
10
-5.88879080549276
20
-5.44700750083088
30
0
41
1
10
-5.47766089021637
20
-5.45869939258436
30
0
41
1
10
-5.10938645927486
20
-5.52339265186793
30
0
41
1
10
-4.79805812590222
20
-5.62595480391987
30
0
41
1
10
-4.57249940120013
20
-5.74768988378361
30
0
41
1
10
-4.50371082218597
20
-5.82822859595492
30
0
41
1
10
-4.50003000918441
20
-5.86420136467914
30
0
41
1
10
-4.50000086447986
20
-5.86803396245283
30
0
0
SPLINE
5
D6
100
AcDbEntity
8
1
62
256
6
ByLayer
370
18
48
1
60
0
100
AcDbSpline
70
4
71
3
72
8
73
4
40
0
40
0
40
0
40
0
40
1
40
1
40
1
40
1
41
1
10
13.75
20
6
30
0
41
1
10
9.16666666666022
20
6
30
0
41
1
10
4.58333333332044
20
6
30
0
41
1
10
-1.9341E-11
20
6
30
0
0
SPLINE
5
D7
100
AcDbEntity
8
1
62
256
6
ByLayer
370
18
48
1
60
0
100
AcDbSpline
70
4
71
3
72
8
73
4
40
0
40
0
40
0
40
0
40
1
40
1
40
1
40
1
41
1
10
13.75
20
-6
30
0
41
1
10
9.16666666665961
20
-6
30
0
41
1
10
4.58333333331921
20
-6
30
0
41
1
10
-2.11884E-11
20
-6
30
0
0
SPLINE
5
D8
100
AcDbEntity
8
SK1
62
256
6
ByLayer
370
18
48
1
60
0
100
AcDbSpline
70
4
71
3
72
12
73
8
40
0
40
0
40
0
40
0
40
0.104545454545132
40
0.104545454545132
40
0.763636363636281
40
0.763636363636281
40
1
40
1
40
1
40
1
41
1
10
-1.9341E-11
20
6
30
0
41
1
10
-1.91666666667942
20
6
30
0
41
1
10
-3.8333333333395
20
6
30
0
41
1
10
-17.8333333333331
20
6
30
0
41
1
10
-29.9166666666665
20
6
30
0
41
1
10
-46.3333333333333
20
6
30
0
41
1
10
-50.6666666666667
20
6
30
0
41
1
10
-55
20
6
30
0
0
SPLINE
5
D9
100
AcDbEntity
8
SK1
62
256
6
ByLayer
370
18
48
1
60
0
100
AcDbSpline
70
4
71
3
72
12
73
8
40
0
40
0
40
0
40
0
40
0.104545454545111
40
0.104545454545111
40
0.763636363636272
40
0.763636363636272
40
1
40
1
40
1
40
1
41
1
10
-2.11884E-11
20
-6
30
0
41
1
10
-1.91666666668081
20
-6
30
0
41
1
10
-3.83333333334044
20
-6
30
0
41
1
10
-17.8333333333334
20
-6
30
0
41
1
10
-29.9166666666667
20
-6
30
0
41
1
10
-46.3333333333333
20
-6
30
0
41
1
10
-50.6666666666667
20
-6
30
0
41
1
10
-55
20
-6
30
0
0
LINE
5
70
100
AcDbEntity
8
1
62
256
6
ByLayer
370
18
48
1
60
0
100
AcDbLine
10
11.534053
20
-4.524321
30
0
11
12.777302
21
-5.76757
31
0
39
0
210
0
220
0
230
1
0
LINE
5
72
100
AcDbEntity
8
1
62
256
6
ByLayer
370
18
48
1
60
0
100
AcDbLine
10
2.465947
20
-4.524321
30
0
11
11.534053
21
-4.524321
31
0
39
0
210
0
220
0
230
1
0
LINE
5
73
100
AcDbEntity
8
1
62
256
6
ByLayer
370
18
48
1
60
0
100
AcDbLine
10
1.222698
20
-5.76757
30
0
11
2.465947
21
-4.524321
31
0
39
0
210
0
220
0
230
1
0
LINE
5
74
100
AcDbEntity
8
1
62
256
6
ByLayer
370
18
48
1
60
0
100
AcDbLine
10
12.777302
20
-5.76757
30
0
11
1.222698
21
-5.76757
31
0
39
0
210
0
220
0
230
1
0
LINE
5
75
100
AcDbEntity
8
1
62
256
6
ByLayer
370
18
48
1
60
0
100
AcDbLine
10
13.433296
20
-4.443028
30
0
11
12.524321
21
-3.534053
31
0
39
0
210
0
220
0
230
1
0
LINE
5
76
100
AcDbEntity
8
1
62
256
6
ByLayer
370
18
48
1
60
0
100
AcDbLine
10
12.524321
20
3.534053
30
0
11
13.433296
21
4.443028
31
0
39
0
210
0
220
0
230
1
0
LINE
5
77
100
AcDbEntity
8
1
62
256
6
ByLayer
370
18
48
1
60
0
100
AcDbLine
10
12.524321
20
-3.534053
30
0
11
12.524321
21
3.534053
31
0
39
0
210
0
220
0
230
1
0
LINE
5
78
100
AcDbEntity
8
1
62
256
6
ByLayer
370
18
48
1
60
0
100
AcDbLine
10
11.534053
20
4.524321
30
0
11
2.465947
21
4.524321
31
0
39
0
210
0
220
0
230
1
0
LINE
5
79
100
AcDbEntity
8
1
62
256
6
ByLayer
370
18
48
1
60
0
100
AcDbLine
10
1.475679
20
3.534053
30
0
11
1.475679
21
-3.534053
31
0
39
0
210
0
220
0
230
1
0
LINE
5
7A
100
AcDbEntity
8
1
62
256
6
ByLayer
370
18
48
1
60
0
100
AcDbLine
10
2.465947
20
4.524321
30
0
11
1.222698
21
5.76757
31
0
39
0
210
0
220
0
230
1
0
LINE
5
7B
100
AcDbEntity
8
1
62
256
6
ByLayer
370
18
48
1
60
0
100
AcDbLine
10
0.566704
20
4.443028
30
0
11
1.475679
21
3.534053
31
0
39
0
210
0
220
0
230
1
0
LINE
5
7C
100
AcDbEntity
8
1
62
256
6
ByLayer
370
18
48
1
60
0
100
AcDbLine
10
12.777302
20
5.76757
30
0
11
11.534053
21
4.524321
31
0
39
0
210
0
220
0
230
1
0
LINE
5
7D
100
AcDbEntity
8
1
62
256
6
ByLayer
370
18
48
1
60
0
100
AcDbLine
10
1.222698
20
5.76757
30
0
11
12.777302
21
5.76757
31
0
39
0
210
0
220
0
230
1
0
LINE
5
7E
100
AcDbEntity
8
1
62
256
6
ByLayer
370
18
48
1
60
0
100
AcDbLine
10
1.475679
20
-3.534053
30
0
11
0.566704
21
-4.443028
31
0
39
0
210
0
220
0
230
1
0
LINE
5
7F
100
AcDbEntity
8
SK1
62
256
6
ByLayer
370
18
48
0.05
60
0
100
AcDbLine
10
-1
20
-3.316625
30
0
11
-42
21
-3.316625
31
0
39
0
210
0
220
0
230
1
0
LINE
5
81
100
AcDbEntity
8
SK1
62
256
6
ByLayer
370
18
48
0.05
60
0
100
AcDbLine
10
-51
20
3.316625
30
0
11
-42
21
3.316625
31
0
39
0
210
0
220
0
230
1
0
LINE
5
82
100
AcDbEntity
8
SK1
62
256
6
ByLayer
370
18
48
1
60
0
100
AcDbLine
10
-1
20
3.316625
30
0
11
-42
21
3.316625
31
0
39
0
210
0
220
0
230
1
0
LINE
5
83
100
AcDbEntity
8
SK1
62
256
6
ByLayer
370
18
48
1
60
0
100
AcDbLine
10
-51
20
-3.316625
30
0
11
-42
21
-3.316625
31
0
39
0
210
0
220
0
230
1
0
LINE
5
84
100
AcDbEntity
8
SK1
62
256
6
ByLayer
370
18
48
1
60
0
100
AcDbLine
10
-51
20
-3.316625
30
0
11
-51
21
3.316625
31
0
39
0
210
0
220
0
230
1
0
LINE
5
85
100
AcDbEntity
8
1
62
256
6
ByLayer
370
18
48
1
60
0
100
AcDbLine
10
13.75
20
6
30
0
11
14
21
5.75
31
0
39
0
210
0
220
0
230
1
0
LINE
5
86
100
AcDbEntity
8
1
62
256
6
ByLayer
370
18
48
1
60
0
100
AcDbLine
10
14
20
-5.75
30
0
11
13.75
21
-6
31
0
39
0
210
0
220
0
230
1
0
LINE
5
87
100
AcDbEntity
8
SK1
62
256
6
ByLayer
370
18
48
1
60
0
100
AcDbLine
10
-1
20
-3.316625
30
0
11
-1
21
3.316625
31
0
39
0
210
0
220
0
230
1
0
LINE
5
88
100
AcDbEntity
8
SK1
62
256
6
ByLayer
370
18
48
1
60
0
100
AcDbLine
10
-55
20
-6
30
0
11
-56
21
-5
31
0
39
0
210
0
220
0
230
1
0
LINE
5
89
100
AcDbEntity
8
SK1
62
256
6
ByLayer
370
18
48
1
60
0
100
AcDbLine
10
-56
20
5
30
0
11
-55
21
6
31
0
39
0
210
0
220
0
230
1
0
LINE
5
8A
100
AcDbEntity
8
SK3
62
256
6
ByLayer
370
18
48
0.05
60
0
100
AcDbLine
10
7
20
3
30
0
11
14
21
3
31
0
39
0
210
0
220
0
230
1
0
LINE
5
8C
100
AcDbEntity
8
SK3
62
256
6
ByLayer
370
18
48
0.05
60
0
100
AcDbLine
10
-5.75
20
3
30
0
11
7
21
3
31
0
39
0
210
0
220
0
230
1
0
LINE
5
8D
100
AcDbEntity
8
SK3
62
256
6
ByLayer
370
18
48
0.05
60
0
100
AcDbLine
10
-14
20
3
30
0
11
-5.75
21
3
31
0
39
0
210
0
220
0
230
1
0
LINE
5
8E
100
AcDbEntity
8
SK3
62
256
6
ByLayer
370
18
48
0.05
60
0
100
AcDbLine
10
-5.75
20
-3
30
0
11
-14
21
-3
31
0
39
0
210
0
220
0
230
1
0
LINE
5
8F
100
AcDbEntity
8
SK3
62
256
6
ByLayer
370
18
48
0.05
60
0
100
AcDbLine
10
7
20
-3
30
0
11
-5.75
21
-3
31
0
39
0
210
0
220
0
230
1
0
LINE
5
90
100
AcDbEntity
8
SK3
62
256
6
ByLayer
370
18
48
0.05
60
0
100
AcDbLine
10
14
20
-3
30
0
11
7
21
-3
31
0
39
0
210
0
220
0
230
1
0
LINE
5
91
100
AcDbEntity
8
SK3
62
256
6
ByLayer
370
18
48
0.05
60
0
100
AcDbLine
10
-56
20
1
30
0
11
-14
21
1
31
0
39
0
210
0
220
0
230
1
0
LINE
5
92
100
AcDbEntity
8
SK3
62
256
6
ByLayer
370
18
48
0.05
60
0
100
AcDbLine
10
-14
20
-1
30
0
11
-56
21
-1
31
0
39
0
210
0
220
0
230
1
0
LINE
5
93
100
AcDbEntity
8
SK3
62
256
6
ByLayer
370
18
48
0.05
60
0
100
AcDbLine
10
-4.5
20
5.865076
30
0
11
-4.5
21
2.722783
31
0
39
0
210
0
220
0
230
1
0
LINE
5
94
100
AcDbEntity
8
SK3
62
256
6
ByLayer
370
18
48
0.05
60
0
100
AcDbLine
10
-7
20
2.719272
30
0
11
-7
21
5.866318
31
0
39
0
210
0
220
0
230
1
0
LINE
5
95
100
AcDbEntity
8
SK3
62
256
6
ByLayer
370
18
48
0.05
60
0
100
AcDbLine
10
-4.5
20
-2.719272
30
0
11
-4.5
21
-5.866318
31
0
39
0
210
0
220
0
230
1
0
LINE
5
96
100
AcDbEntity
8
SK3
62
256
6
ByLayer
370
18
48
0.05
60
0
100
AcDbLine
10
-7
20
-5.865076
30
0
11
-7
21
-2.722783
31
0
39
0
210
0
220
0
230
1
0
LINE
5
97
100
AcDbEntity
8
SK1
62
256
6
ByLayer
370
18
48
0.05
60
0
100
AcDbLine
10
-1
20
-3.316625
30
0
11
-1
21
3.316625
31
0
39
0
210
0
220
0
230
1
0
LINE
5
98
100
AcDbEntity
8
SK1
62
256
6
ByLayer
370
18
48
0.05
60
0
100
AcDbLine
10
-51
20
-3.316625
30
0
11
-51
21
3.316625
31
0
39
0
210
0
220
0
230
1
0
LINE
5
99
100
AcDbEntity
8
1
62
256
6
ByLayer
370
18
48
1
60
0
100
AcDbLine
10
13.75
20
6
30
0
11
13.75
21
0
31
0
39
0
210
0
220
0
230
1
0
LINE
5
9A
100
AcDbEntity
8
1
62
256
6
ByLayer
370
18
48
0.05
60
0
100
AcDbLine
10
13.75
20
-6
30
0
11
13.75
21
6
31
0
39
0
210
0
220
0
230
1
0
LINE
5
9B
100
AcDbEntity
8
SK1
62
256
6
ByLayer
370
18
48
0.05
60
0
100
AcDbLine
10
-55
20
6
30
0
11
-55
21
0
31
0
39
0
210
0
220
0
230
1
0
LINE
5
9C
100
AcDbEntity
8
SK1
62
256
6
ByLayer
370
18
48
1
60
0
100
AcDbLine
10
-55
20
-6
30
0
11
-55
21
6
31
0
39
0
210
0
220
0
230
1
0
LINE
5
9D
100
AcDbEntity
8
1
62
256
6
ByLayer
370
18
48
1
60
0
100
AcDbLine
10
13.75
20
0
30
0
11
13.75
21
-6
31
0
39
0
210
0
220
0
230
1
0
LINE
5
9E
100
AcDbEntity
8
SK1
62
256
6
ByLayer
370
18
48
0.05
60
0
100
AcDbLine
10
-55
20
0
30
0
11
-55
21
-6
31
0
39
0
210
0
220
0
230
1
0
LINE
5
9F
100
AcDbEntity
8
1
62
256
6
ByLayer
370
18
48
1
60
0
100
AcDbLine
10
14
20
-5.75
30
0
11
14
21
0
31
0
39
0
210
0
220
0
230
1
0
LINE
5
A0
100
AcDbEntity
8
1
62
256
6
ByLayer
370
18
48
0.05
60
0
100
AcDbLine
10
14
20
5.75
30
0
11
14
21
-5.75
31
0
39
0
210
0
220
0
230
1
0
LINE
5
A1
100
AcDbEntity
8
1
62
256
6
ByLayer
370
18
48
1
60
0
100
AcDbLine
10
14
20
0
30
0
11
14
21
5.75
31
0
39
0
210
0
220
0
230
1
0
LINE
5
A2
100
AcDbEntity
8
SK1
62
256
6
ByLayer
370
18
48
0.05
60
0
100
AcDbLine
10
-56
20
-5
30
0
11
-56
21
0
31
0
39
0
210
0
220
0
230
1
0
LINE
5
A3
100
AcDbEntity
8
SK1
62
256
6
ByLayer
370
18
48
1
60
0
100
AcDbLine
10
-56
20
5
30
0
11
-56
21
-5
31
0
39
0
210
0
220
0
230
1
0
LINE
5
A4
100
AcDbEntity
8
SK1
62
256
6
ByLayer
370
18
48
0.05
60
0
100
AcDbLine
10
-56
20
0
30
0
11
-56
21
5
31
0
39
0
210
0
220
0
230
1
0
LINE
5
A5
100
AcDbEntity
8
SK3
62
256
6
ByLayer
370
18
48
0.05
60
0
100
AcDbLine
10
-14
20
-3
30
0
11
-14
21
0
31
0
39
0
210
0
220
0
230
1
0
LINE
5
A6
100
AcDbEntity
8
SK3
62
256
6
ByLayer
370
18
48
0.05
60
0
100
AcDbLine
10
-14
20
3
30
0
11
-14
21
-3
31
0
39
0
210
0
220
0
230
1
0
LINE
5
A7
100
AcDbEntity
8
1
62
256
6
ByLayer
370
18
48
0.05
60
0
100
AcDbLine
10
14
20
-3
30
0
11
14
21
0
31
0
39
0
210
0
220
0
230
1
0
LINE
5
A8
100
AcDbEntity
8
1
62
256
6
ByLayer
370
18
48
0.05
60
0
100
AcDbLine
10
14
20
3
30
0
11
14
21
-3
31
0
39
0
210
0
220
0
230
1
0
LINE
5
A9
100
AcDbEntity
8
SK3
62
256
6
ByLayer
370
18
48
0.05
60
0
100
AcDbLine
10
-14
20
0
30
0
11
-14
21
3
31
0
39
0
210
0
220
0
230
1
0
LINE
5
AA
100
AcDbEntity
8
1
62
256
6
ByLayer
370
18
48
0.05
60
0
100
AcDbLine
10
14
20
0
30
0
11
14
21
3
31
0
39
0
210
0
220
0
230
1
0
LINE
5
AB
100
AcDbEntity
8
SK3
62
256
6
ByLayer
370
18
48
0.05
60
0
100
AcDbLine
10
-14
20
-1
30
0
11
-14
21
0
31
0
39
0
210
0
220
0
230
1
0
LINE
5
AC
100
AcDbEntity
8
SK3
62
256
6
ByLayer
370
18
48
0.05
60
0
100
AcDbLine
10
-14
20
1
30
0
11
-14
21
-1
31
0
39
0
210
0
220
0
230
1
0
LINE
5
AD
100
AcDbEntity
8
SK1
62
256
6
ByLayer
370
18
48
0.05
60
0
100
AcDbLine
10
-56
20
-1
30
0
11
-56
21
0
31
0
39
0
210
0
220
0
230
1
0
LINE
5
AE
100
AcDbEntity
8
SK1
62
256
6
ByLayer
370
18
48
0.05
60
0
100
AcDbLine
10
-56
20
1
30
0
11
-56
21
-1
31
0
39
0
210
0
220
0
230
1
0
LINE
5
AF
100
AcDbEntity
8
SK3
62
256
6
ByLayer
370
18
48
0.05
60
0
100
AcDbLine
10
-14
20
0
30
0
11
-14
21
1
31
0
39
0
210
0
220
0
230
1
0
LINE
5
B0
100
AcDbEntity
8
SK1
62
256
6
ByLayer
370
18
48
0.05
60
0
100
AcDbLine
10
-56
20
0
30
0
11
-56
21
1
31
0
39
0
210
0
220
0
230
1
0
LINE
5
B1
100
AcDbEntity
8
80
62
256
6
ByLayer
370
18
48
1
60
0
100
AcDbLine
10
0
20
0
30
0
11
-10.333903
21
0
31
0
39
0
210
0
220
0
230
1
0
LINE
5
B2
100
AcDbEntity
8
SK4
62
256
6
ByLayer
370
13
48
0.05
60
0
100
AcDbLine
10
24
20
0
30
0
11
-66
21
0
31
0
39
0
210
0
220
0
230
1
0
LINE
5
B4
100
AcDbEntity
8
81
62
256
6
ByLayer
370
18
48
1
60
0
100
AcDbLine
10
24.333903
20
0
30
0
11
14
21
0
31
0
39
0
210
0
220
0
230
1
0
LINE
5
B5
100
AcDbEntity
8
SK1
62
256
6
ByLayer
370
18
48
0.05
60
0
100
AcDbLine
10
-42
20
-3.316625
30
0
11
-51
21
-3.316625
31
0
39
0
210
0
220
0
230
1
0
LINE
5
B6
100
AcDbEntity
8
SK1
62
256
6
ByLayer
370
18
48
1
60
0
100
AcDbLine
10
-42
20
-3.316625
30
0
11
-1
21
-3.316625
31
0
39
0
210
0
220
0
230
1
0
LINE
5
B7
100
AcDbEntity
8
SK1
62
256
6
ByLayer
370
18
48
1
60
0
100
AcDbLine
10
-42
20
3.316625
30
0
11
-51
21
3.316625
31
0
39
0
210
0
220
0
230
1
0
LINE
5
B8
100
AcDbEntity
8
SK1
62
256
6
ByLayer
370
18
48
0.05
60
0
100
AcDbLine
10
-42
20
3.316625
30
0
11
-1
21
3.316625
31
0
39
0
210
0
220
0
230
1
0
MTEXT
5
DA
100
AcDbEntity
8
SK6
62
256
6
ByLayer
370
18
48
1
60
0
100
AcDbMText
10
-19.785061
20
-41.388625
30
0
210
0
220
0
230
1
1
\W0.7414;CXS-A12-06
40
3
41
0
44
1.084337
50
0
71
7
72
5
7
iso_b_vert
0
DIMENSION
5
EC
100
AcDbEntity
8
SK2
62
256
6
ByLayer
370
13
48
1
60
0
100
AcDbDimension
2
DimnDraft3D1
10
-56
20
-25.409559
30
0
11
-22.752632
21
-25.409559
31
0
70
32
71
5
72
1
41
1
210
0
220
0
230
1
3
Standard
100
AcDbAlignedDimension
13
14
23
-5
33
0
14
-56
24
-7
34
0
50
0
100
AcDbRotatedDimension
1001
ACAD
1000
DSTYLE
1002
{
1070
   279
1070
     0
1070
   172
1070
     1
1070
   173
1070
     1
1070
   340
1005
DB
1070
    77
1070
     1
1070
    73
1070
     0
1070
   171
1070
     3
1070
   274
1070
     4
1070
   177
1070
     7
1070
   176
1070
     7
1070
   178
1070
     7
1070
    78
1070
     8
1070
    41
1041
3.175
1070
   147
1041
1.5
1070
    42
1041
2.0
1070
    44
1041
2.0
1070
   140
1041
3.0
1070
   343
1005
ED
1070
   344
1005
ED
1002
}
0
DIMENSION
5
102
100
AcDbEntity
8
2
62
256
6
ByLayer
370
13
48
1
60
0
100
AcDbDimension
2
DimnDraft3D2
10
-1
20
-17.364972
30
0
11
-27.752632
21
-17.364972
31
0
70
32
71
5
72
1
41
1
210
0
220
0
230
1
3
Standard
100
AcDbAlignedDimension
13
-51
23
-5.316625
33
0
14
-1
24
-5.316625
34
0
50
0
100
AcDbRotatedDimension
1001
ACAD
1000
DSTYLE
1002
{
1070
   279
1070
     0
1070
   172
1070
     1
1070
   173
1070
     1
1070
   340
1005
DB
1070
    77
1070
     1
1070
    73
1070
     0
1070
   171
1070
     3
1070
   274
1070
     4
1070
   177
1070
     7
1070
   176
1070
     7
1070
   178
1070
     7
1070
    78
1070
     8
1070
    41
1041
3.175
1070
   147
1041
1.5
1070
    42
1041
2.0
1070
    44
1041
2.0
1070
   140
1041
3.0
1070
   343
1005
ED
1070
   344
1005
ED
1002
}
0
DIMENSION
5
111
100
AcDbEntity
8
SK2
62
256
6
ByLayer
370
13
48
1
60
0
100
AcDbDimension
2
DimnDraft3D3
10
39.261763
20
6
30
0
11
39.261763
21
-6.612998
31
0
70
32
71
5
72
1
41
1
210
0
220
0
230
1
3
Standard
100
AcDbAlignedDimension
13
2
23
-6
33
0
14
15.75
24
6
34
0
50
90
100
AcDbRotatedDimension
1001
ACAD
1000
DSTYLE
1002
{
1070
    74
1070
     0
1070
   279
1070
     0
1070
   172
1070
     1
1070
   173
1070
     1
1070
   340
1005
DB
1070
    77
1070
     1
1070
    73
1070
     0
1070
   171
1070
     3
1070
   274
1070
     4
1070
   177
1070
     7
1070
   176
1070
     7
1070
   178
1070
     7
1070
    78
1070
     8
1070
    41
1041
3.175
1070
   147
1041
1.5
1070
    42
1041
2.0
1070
    44
1041
2.0
1070
   140
1041
3.0
1070
   343
1005
ED
1070
   344
1005
ED
1002
}
0
DIMENSION
5
120
100
AcDbEntity
8
2
62
256
6
ByLayer
370
13
48
1
60
0
100
AcDbDimension
2
DimnDraft3D4
10
29.411168
20
3
30
0
11
29.411168
21
9.121376
31
0
70
32
71
5
72
1
41
1
210
0
220
0
230
1
3
Standard
100
AcDbAlignedDimension
13
16
23
-3
33
0
14
16
24
3
34
0
50
90
100
AcDbRotatedDimension
1001
ACAD
1000
DSTYLE
1002
{
1070
    74
1070
     0
1070
   279
1070
     0
1070
   172
1070
     1
1070
   173
1070
     1
1070
   340
1005
DB
1070
    77
1070
     1
1070
    73
1070
     0
1070
   171
1070
     3
1070
   274
1070
     4
1070
   177
1070
     7
1070
   176
1070
     7
1070
   178
1070
     7
1070
    78
1070
     8
1070
    41
1041
3.175
1070
   147
1041
1.5
1070
    42
1041
2.0
1070
    44
1041
2.0
1070
   140
1041
3.0
1070
   343
1005
ED
1070
   344
1005
ED
1002
}
0
ENDSEC
0
SECTION
2
OBJECTS
0
DICTIONARY
5
18c
330
0
100
AcDbDictionary
280
0
281
1
3
ACAD_GROUP
350
18d
3
ACAD_MLINESTYLE
350
18e
0
DICTIONARY
5
18d
330
0
100
AcDbDictionary
280
0
281
1
0
DICTIONARY
5
18e
330
0
100
AcDbDictionary
280
0
281
1
3
Standard
350
18
0
MLINESTYLE
5
18
330
18e
100
AcDbMlineStyle
2
Standard
70
0
3

62
256
51
90
52
90
71
2
49
-0.5
62
256
6
ByLayer
49
0.5
62
256
6
ByLayer
0
RASTERVARIABLES
5
179
330

100
AcDbRasterVariables
90
0
70
1
71
1
72
1
0
ENDSEC
0
EOF
