0
SECTION
2
HEADER
9
$ACADVER
1
AC1015
9
$DWGCODEPAGE
3
ANSI_1252
9
$HANDSEED
5
196
9
$ANGBASE
50
0
9
$ANGDIR
70
0
9
$ATTMODE
70
1
9
$AUNITS
70
0
9
$AUPREC
70
0
9
$CECOLOR
62
256
9
$CELTSCALE
40
1
9
$CELTYPE
6
ByLayer
9
$CELWEIGHT
370
18
9
$CLAYER
8
0
9
$CMLJUST
70
0
9
$CMLSCALE
40
1
9
$CMLSTYLE
2
Standard
9
$DIMSTYLE
2
Standard
9
$TEXTSIZE
40
0.2
9
$TEXTSTYLE
7
Standard
9
$LUNITS
70
2
9
$LUPREC
70
4
9
$EXTNAMES
290
1
9
$INSUNITS
70
4
9
$LTSCALE
40
1
9
$LWDISPLAY
290
1
9
$PDMODE
70
0
9
$PDSIZE
40
0
9
$PLINEGEN
70
0
0
ENDSEC
0
SECTION
2
CLASSES
0
CLASS
1
RASTERVARIABLES
2
AcDbRasterVariables
3
ISM
90
0
280
0
281
0
0
ENDSEC
0
SECTION
2
TABLES
0
TABLE
2
VPORT
5
18c
100
AcDbSymbolTable
0
VPORT
5
1
100
AcDbSymbolTableRecord
100
AcDbViewportTableRecord
2
*Active
70
0
10
0
20
0
11
1
21
1
12
-1
22
1
13
0
23
0
14
0.5
24
0.5
15
10
25
10
16
0
26
0
36
1
17
0
27
0
37
0
0
ENDTAB
0
TABLE
2
LTYPE
5
18d
100
AcDbSymbolTable
0
LTYPE
5
14
100
AcDbSymbolTableRecord
100
AcDbLinetypeTableRecord
70
0
2
ByBlock
3

72
65
73
0
40
0
0
LTYPE
5
15
100
AcDbSymbolTableRecord
100
AcDbLinetypeTableRecord
70
0
2
ByLayer
3

72
65
73
0
40
0
0
LTYPE
5
16
100
AcDbSymbolTableRecord
100
AcDbLinetypeTableRecord
70
0
2
CONTINUOUS
3
Solid line
72
65
73
0
40
0
0
LTYPE
5
6A
100
AcDbSymbolTableRecord
100
AcDbLinetypeTableRecord
70
0
2
CENTER
3
____ _ ____ _ ____ _ ____
72
65
73
4
40
47.5
49
22
74
0
49
-8.5
74
0
49
8.5
74
0
49
-8.5
74
0
0
LTYPE
5
6B
100
AcDbSymbolTableRecord
100
AcDbLinetypeTableRecord
70
0
2
DASHED
3
__ __ __ __ __ __ __ __ __
72
65
73
2
40
25.72
49
12.86
74
0
49
-12.86
74
0
0
ENDTAB
0
TABLE
2
LAYER
5
18e
100
AcDbSymbolTable
0
LAYER
5
10
100
AcDbSymbolTableRecord
100
AcDbLayerTableRecord
2
0
70
0
62
7
6
CONTINUOUS
290
1
370
-3
390
0
0
LAYER
5
6D
100
AcDbSymbolTableRecord
100
AcDbLayerTableRecord
2
80
70
0
62
-6
6
CONTINUOUS
290
1
370
-3
390
0
0
LAYER
5
6F
100
AcDbSymbolTableRecord
100
AcDbLayerTableRecord
2
81
70
0
62
-3
6
CONTINUOUS
290
1
370
-3
390
0
0
LAYER
5
71
100
AcDbSymbolTableRecord
100
AcDbLayerTableRecord
2
1
70
0
62
4
6
CONTINUOUS
290
1
370
-3
390
0
0
LAYER
5
F3
100
AcDbSymbolTableRecord
100
AcDbLayerTableRecord
2
2
70
0
62
7
6
CONTINUOUS
290
1
370
-3
390
0
0
LAYER
5
177
100
AcDbSymbolTableRecord
100
AcDbLayerTableRecord
2
SK1
70
0
62
4
6
CONTINUOUS
290
1
370
-3
390
0
0
LAYER
5
178
100
AcDbSymbolTableRecord
100
AcDbLayerTableRecord
2
SK3
70
0
62
1
6
DASHED
290
1
370
-3
390
0
0
LAYER
5
179
100
AcDbSymbolTableRecord
100
AcDbLayerTableRecord
2
SK4
70
0
62
2
6
CENTER
290
1
370
-3
390
0
0
LAYER
5
17a
100
AcDbSymbolTableRecord
100
AcDbLayerTableRecord
2
SK6
70
0
62
5
6
CONTINUOUS
290
1
370
-3
390
0
0
LAYER
5
17b
100
AcDbSymbolTableRecord
100
AcDbLayerTableRecord
2
SK2
70
0
62
7
6
CONTINUOUS
290
1
370
-3
390
0
0
ENDTAB
0
TABLE
2
STYLE
5
18f
100
AcDbSymbolTable
0
STYLE
5
11
100
AcDbSymbolTableRecord
100
AcDbTextStyleTableRecord
2
Standard
3
txt
70
0
71
0
40
0
41
1
42
0
50
0
0
STYLE
5
D8
100
AcDbSymbolTableRecord
100
AcDbTextStyleTableRecord
2
iso_b_vert
3
simplex.shx
70
0
71
0
40
0
41
1
42
0
50
0
0
STYLE
5
D9
100
AcDbSymbolTableRecord
100
AcDbTextStyleTableRecord
2
DWGDirectTextStyle
3
simplex
70
0
71
0
40
0
41
1
42
0
50
0
0
ENDTAB
0
TABLE
2
DIMSTYLE
5
190
100
AcDbSymbolTable
100
AcDbDimStyleTable
0
DIMSTYLE
105
27
100
AcDbSymbolTableRecord
100
AcDbDimStyleTableRecord
2
Standard
70
0
3
<>
41
0.18
42
0.0625
44
0.18
140
0.18
147
0.09
73
0
74
0
77
1
271
2
275
0
278
52
280
0
340
11
0
ENDTAB
0
TABLE
2
VIEW
5
191
100
AcDbSymbolTable
0
ENDTAB
0
TABLE
2
UCS
5
192
100
AcDbSymbolTable
0
ENDTAB
0
TABLE
2
APPID
5
193
100
AcDbSymbolTable
0
APPID
5
12
100
AcDbSymbolTableRecord
100
AcDbRegAppTableRecord
2
ACAD
70
0
0
ENDTAB
0
TABLE
2
BLOCK_RECORD
5
194
100
AcDbSymbolTable
0
BLOCK_RECORD
5
1F
100
AcDbSymbolTableRecord
100
AcDbBlockTableRecord
2
*Model_Space
340
0
70
0
0
BLOCK_RECORD
5
1B
100
AcDbSymbolTableRecord
100
AcDbBlockTableRecord
2
*Paper_Space
340
0
70
0
0
BLOCK_RECORD
5
23
100
AcDbSymbolTableRecord
100
AcDbBlockTableRecord
2
*Paper_Space0
340
0
70
0
0
BLOCK_RECORD
5
DB
100
AcDbSymbolTableRecord
100
AcDbBlockTableRecord
2
DimnDraft3D1
340
0
70
0
0
BLOCK_RECORD
5
EA
100
AcDbSymbolTableRecord
100
AcDbBlockTableRecord
2
_CLOSED
340
0
70
0
0
BLOCK_RECORD
5
F1
100
AcDbSymbolTableRecord
100
AcDbBlockTableRecord
2
DimnDraft3D2
340
0
70
0
0
BLOCK_RECORD
5
100
100
AcDbSymbolTableRecord
100
AcDbBlockTableRecord
2
DimnDraft3D3
340
0
70
0
0
BLOCK_RECORD
5
10F
100
AcDbSymbolTableRecord
100
AcDbBlockTableRecord
2
DimnDraft3D4
340
0
70
0
0
ENDTAB
0
ENDSEC
0
SECTION
2
BLOCKS
0
BLOCK
5
20
100
AcDbEntity
8
0
100
AcDbBlockBegin
2
*Model_Space
70
0
10
0
20
0
30
0
3
*Model_Space
0
ENDBLK
5
21
100
AcDbEntity
8
0
100
AcDbBlockEnd
0
BLOCK
5
1C
100
AcDbEntity
8
0
100
AcDbBlockBegin
2
*Paper_Space
70
0
10
0
20
0
30
0
3
*Paper_Space
0
ENDBLK
5
1D
100
AcDbEntity
8
0
100
AcDbBlockEnd
0
BLOCK
5
24
100
AcDbEntity
8
0
100
AcDbBlockBegin
2
*Paper_Space0
70
0
10
0
20
0
30
0
3
*Paper_Space0
0
ENDBLK
5
25
100
AcDbEntity
8
0
100
AcDbBlockEnd
0
BLOCK
5
E7
100
AcDbEntity
8
0
100
AcDbBlockBegin
2
DimnDraft3D1
70
0
10
0
20
0
30
0
3
DimnDraft3D1
0
MTEXT
5
DC
100
AcDbEntity
8
SK2
62
256
6
ByLayer
370
18
48
1
60
0
100
AcDbMText
10
-19.502632
20
21.876084
30
0
210
0
220
0
230
1
1
\W0.6562;65
40
3
41
0
44
1.084337
50
0
71
7
72
5
7
iso_b_vert
0
LINE
5
DE
100
AcDbEntity
8
SK2
62
256
6
ByLayer
370
13
48
1
60
0
100
AcDbLine
10
14
20
6.75
30
0
11
14
21
23.126084
31
0
39
0
210
0
220
0
230
1
0
LINE
5
DF
100
AcDbEntity
8
SK2
62
256
6
ByLayer
370
13
48
1
60
0
100
AcDbLine
10
-51
20
3
30
0
11
-51
21
23.126084
31
0
39
0
210
0
220
0
230
1
0
LINE
5
E0
100
AcDbEntity
8
SK2
62
256
6
ByLayer
370
13
48
1
60
0
100
AcDbLine
10
14
20
21.126084
30
0
11
-51
21
21.126084
31
0
39
0
210
0
220
0
230
1
0
LINE
5
E1
100
AcDbEntity
8
SK2
62
256
6
ByLayer
370
13
48
1
60
0
100
AcDbLine
10
14
20
21.126084
30
0
11
10.825002
21
20.708087
31
0
39
0
210
0
220
0
230
1
0
LINE
5
E2
100
AcDbEntity
8
SK2
62
256
6
ByLayer
370
13
48
1
60
0
100
AcDbLine
10
14
20
21.126084
30
0
11
10.824998
21
21.544081
31
0
39
0
210
0
220
0
230
1
0
LINE
5
E3
100
AcDbEntity
8
SK2
62
256
6
ByLayer
370
13
48
1
60
0
100
AcDbLine
10
10.825002
20
20.708087
30
0
11
10.824998
21
21.544081
31
0
39
0
210
0
220
0
230
1
0
LINE
5
E4
100
AcDbEntity
8
SK2
62
256
6
ByLayer
370
13
48
1
60
0
100
AcDbLine
10
-51
20
21.126084
30
0
11
-47.825002
21
21.544081
31
0
39
0
210
0
220
0
230
1
0
LINE
5
E5
100
AcDbEntity
8
SK2
62
256
6
ByLayer
370
13
48
1
60
0
100
AcDbLine
10
-51
20
21.126084
30
0
11
-47.824998
21
20.708087
31
0
39
0
210
0
220
0
230
1
0
LINE
5
E6
100
AcDbEntity
8
SK2
62
256
6
ByLayer
370
13
48
1
60
0
100
AcDbLine
10
-47.825002
20
21.544081
30
0
11
-47.824998
21
20.708087
31
0
39
0
210
0
220
0
230
1
0
ENDBLK
5
E8
100
AcDbEntity
8
0
100
AcDbBlockEnd
0
BLOCK
5
EB
100
AcDbEntity
8
0
100
AcDbBlockBegin
2
_CLOSED
70
0
10
0
20
0
30
0
3
_CLOSED
0
LINE
5
ED
100
AcDbEntity
8
0
62
256
6
ByLayer
370
-2
48
1
60
0
100
AcDbLine
10
-1
20
0.166667
30
0
11
0
21
0
31
0
39
0
210
0
220
0
230
1
0
LINE
5
EE
100
AcDbEntity
8
0
62
256
6
ByLayer
370
-2
48
1
60
0
100
AcDbLine
10
0
20
0
30
0
11
-1
21
-0.166667
31
0
39
0
210
0
220
0
230
1
0
LINE
5
EF
100
AcDbEntity
8
0
62
256
6
ByLayer
370
-2
48
1
60
0
100
AcDbLine
10
-1
20
0.166667
30
0
11
-1
21
-0.166667
31
0
39
0
210
0
220
0
230
1
0
LINE
5
F0
100
AcDbEntity
8
0
62
256
6
ByLayer
370
-2
48
1
60
0
100
AcDbLine
10
0
20
0
30
0
11
-1
21
0
31
0
39
0
210
0
220
0
230
1
0
ENDBLK
5
EC
100
AcDbEntity
8
0
100
AcDbBlockEnd
0
BLOCK
5
FD
100
AcDbEntity
8
0
100
AcDbBlockBegin
2
DimnDraft3D2
70
0
10
0
20
0
30
0
3
DimnDraft3D2
0
MTEXT
5
F2
100
AcDbEntity
8
2
62
256
6
ByLayer
370
18
48
1
60
0
100
AcDbMText
10
-24.660526
20
13.034667
30
0
210
0
220
0
230
1
1
\W0.7183;45
40
3
41
0
44
1.084337
50
0
71
7
72
5
7
iso_b_vert
0
LINE
5
F4
100
AcDbEntity
8
2
62
256
6
ByLayer
370
13
48
1
60
0
100
AcDbLine
10
-46
20
5
30
0
11
-46
21
14.284667
31
0
39
0
210
0
220
0
230
1
0
LINE
5
F5
100
AcDbEntity
8
2
62
256
6
ByLayer
370
13
48
1
60
0
100
AcDbLine
10
-1
20
5
30
0
11
-1
21
14.284667
31
0
39
0
210
0
220
0
230
1
0
LINE
5
F6
100
AcDbEntity
8
2
62
256
6
ByLayer
370
13
48
1
60
0
100
AcDbLine
10
-46
20
12.284667
30
0
11
-1
21
12.284667
31
0
39
0
210
0
220
0
230
1
0
LINE
5
F7
100
AcDbEntity
8
2
62
256
6
ByLayer
370
13
48
1
60
0
100
AcDbLine
10
-46
20
12.284667
30
0
11
-42.825002
21
12.702664
31
0
39
0
210
0
220
0
230
1
0
LINE
5
F8
100
AcDbEntity
8
2
62
256
6
ByLayer
370
13
48
1
60
0
100
AcDbLine
10
-46
20
12.284667
30
0
11
-42.824998
21
11.866671
31
0
39
0
210
0
220
0
230
1
0
LINE
5
F9
100
AcDbEntity
8
2
62
256
6
ByLayer
370
13
48
1
60
0
100
AcDbLine
10
-42.825002
20
12.702664
30
0
11
-42.824998
21
11.866671
31
0
39
0
210
0
220
0
230
1
0
LINE
5
FA
100
AcDbEntity
8
2
62
256
6
ByLayer
370
13
48
1
60
0
100
AcDbLine
10
-1
20
12.284667
30
0
11
-4.174998
21
11.866671
31
0
39
0
210
0
220
0
230
1
0
LINE
5
FB
100
AcDbEntity
8
2
62
256
6
ByLayer
370
13
48
1
60
0
100
AcDbLine
10
-1
20
12.284667
30
0
11
-4.175002
21
12.702664
31
0
39
0
210
0
220
0
230
1
0
LINE
5
FC
100
AcDbEntity
8
2
62
256
6
ByLayer
370
13
48
1
60
0
100
AcDbLine
10
-4.174998
20
11.866671
30
0
11
-4.175002
21
12.702664
31
0
39
0
210
0
220
0
230
1
0
ENDBLK
5
FE
100
AcDbEntity
8
0
100
AcDbBlockEnd
0
BLOCK
5
10C
100
AcDbEntity
8
0
100
AcDbBlockBegin
2
DimnDraft3D3
70
0
10
0
20
0
30
0
3
DimnDraft3D3
0
MTEXT
5
101
100
AcDbEntity
8
2
62
256
6
ByLayer
370
18
48
1
60
0
100
AcDbMText
10
25.605568
20
-14.871513
30
0
210
0
220
0
230
1
1
%%c
40
3
41
0
44
1.084337
50
90
71
7
72
5
7
iso_b_vert
0
MTEXT
5
102
100
AcDbEntity
8
2
62
256
6
ByLayer
370
18
48
1
60
0
100
AcDbMText
10
25.605568
20
-7.39495
30
0
210
0
220
0
230
1
1
\W0.6198;4
40
3
41
0
44
1.084337
50
90
71
7
72
5
7
iso_b_vert
0
LINE
5
103
100
AcDbEntity
8
2
62
256
6
ByLayer
370
13
48
1
60
0
100
AcDbLine
10
16
20
-2
30
0
11
29.105568
21
-2
31
0
39
0
210
0
220
0
230
1
0
LINE
5
104
100
AcDbEntity
8
2
62
256
6
ByLayer
370
13
48
1
60
0
100
AcDbLine
10
16
20
2
30
0
11
29.105568
21
2
31
0
39
0
210
0
220
0
230
1
0
LINE
5
105
100
AcDbEntity
8
2
62
256
6
ByLayer
370
13
48
1
60
0
100
AcDbLine
10
27.105568
20
9.5
30
0
11
27.105568
21
-17.14495
31
0
39
0
210
0
220
0
230
1
0
LINE
5
106
100
AcDbEntity
8
2
62
256
6
ByLayer
370
13
48
1
60
0
100
AcDbLine
10
27.105568
20
-2
30
0
11
27.523564
21
-5.174998
31
0
39
0
210
0
220
0
230
1
0
LINE
5
107
100
AcDbEntity
8
2
62
256
6
ByLayer
370
13
48
1
60
0
100
AcDbLine
10
27.105568
20
-2
30
0
11
26.687571
21
-5.175002
31
0
39
0
210
0
220
0
230
1
0
LINE
5
108
100
AcDbEntity
8
2
62
256
6
ByLayer
370
13
48
1
60
0
100
AcDbLine
10
27.523564
20
-5.174998
30
0
11
26.687571
21
-5.175002
31
0
39
0
210
0
220
0
230
1
0
LINE
5
109
100
AcDbEntity
8
2
62
256
6
ByLayer
370
13
48
1
60
0
100
AcDbLine
10
27.105568
20
2
30
0
11
26.687571
21
5.174998
31
0
39
0
210
0
220
0
230
1
0
LINE
5
10A
100
AcDbEntity
8
2
62
256
6
ByLayer
370
13
48
1
60
0
100
AcDbLine
10
27.105568
20
2
30
0
11
27.523564
21
5.175002
31
0
39
0
210
0
220
0
230
1
0
LINE
5
10B
100
AcDbEntity
8
2
62
256
6
ByLayer
370
13
48
1
60
0
100
AcDbLine
10
26.687571
20
5.174998
30
0
11
27.523564
21
5.175002
31
0
39
0
210
0
220
0
230
1
0
ENDBLK
5
10D
100
AcDbEntity
8
0
100
AcDbBlockEnd
0
BLOCK
5
11B
100
AcDbEntity
8
0
100
AcDbBlockBegin
2
DimnDraft3D4
70
0
10
0
20
0
30
0
3
DimnDraft3D4
0
MTEXT
5
110
100
AcDbEntity
8
SK2
62
256
6
ByLayer
370
18
48
1
60
0
100
AcDbMText
10
33.447346
20
-15.591676
30
0
210
0
220
0
230
1
1
%%c
40
3
41
0
44
1.084337
50
90
71
7
72
5
7
iso_b_vert
0
MTEXT
5
111
100
AcDbEntity
8
SK2
62
256
6
ByLayer
370
18
48
1
60
0
100
AcDbMText
10
33.447346
20
-8.115113
30
0
210
0
220
0
230
1
1
\W0.5144;10
40
3
41
0
44
1.084337
50
90
71
7
72
5
7
iso_b_vert
0
LINE
5
112
100
AcDbEntity
8
SK2
62
256
6
ByLayer
370
13
48
1
60
0
100
AcDbLine
10
15.75
20
-5
30
0
11
36.947346
21
-5
31
0
39
0
210
0
220
0
230
1
0
LINE
5
113
100
AcDbEntity
8
SK2
62
256
6
ByLayer
370
13
48
1
60
0
100
AcDbLine
10
2
20
5
30
0
11
36.947346
21
5
31
0
39
0
210
0
220
0
230
1
0
LINE
5
114
100
AcDbEntity
8
SK2
62
256
6
ByLayer
370
13
48
1
60
0
100
AcDbLine
10
34.947346
20
5
30
0
11
34.947346
21
-17.865114
31
0
39
0
210
0
220
0
230
1
0
LINE
5
115
100
AcDbEntity
8
SK2
62
256
6
ByLayer
370
13
48
1
60
0
100
AcDbLine
10
34.947346
20
-5
30
0
11
34.529349
21
-1.825002
31
0
39
0
210
0
220
0
230
1
0
LINE
5
116
100
AcDbEntity
8
SK2
62
256
6
ByLayer
370
13
48
1
60
0
100
AcDbLine
10
34.947346
20
-5
30
0
11
35.365342
21
-1.824998
31
0
39
0
210
0
220
0
230
1
0
LINE
5
117
100
AcDbEntity
8
SK2
62
256
6
ByLayer
370
13
48
1
60
0
100
AcDbLine
10
34.529349
20
-1.825002
30
0
11
35.365342
21
-1.824998
31
0
39
0
210
0
220
0
230
1
0
LINE
5
118
100
AcDbEntity
8
SK2
62
256
6
ByLayer
370
13
48
1
60
0
100
AcDbLine
10
34.947346
20
5
30
0
11
35.365342
21
1.825002
31
0
39
0
210
0
220
0
230
1
0
LINE
5
119
100
AcDbEntity
8
SK2
62
256
6
ByLayer
370
13
48
1
60
0
100
AcDbLine
10
34.947346
20
5
30
0
11
34.529349
21
1.824998
31
0
39
0
210
0
220
0
230
1
0
LINE
5
11A
100
AcDbEntity
8
SK2
62
256
6
ByLayer
370
13
48
1
60
0
100
AcDbLine
10
35.365342
20
1.825002
30
0
11
34.529349
21
1.824998
31
0
39
0
210
0
220
0
230
1
0
ENDBLK
5
11C
100
AcDbEntity
8
0
100
AcDbBlockEnd
0
ENDSEC
0
SECTION
2
ENTITIES
0
ARC
5
B6
100
AcDbEntity
8
1
62
256
6
ByLayer
370
18
48
0.05
60
0
100
AcDbCircle
39
0
10
-7
20
0
30
0
40
2
210
0
220
0
230
-1
100
AcDbArc
50
270
51
90
0
ARC
5
B7
100
AcDbEntity
8
1
62
256
6
ByLayer
370
18
48
0.05
60
0
100
AcDbCircle
39
0
10
-7
20
0
30
0
40
2
210
0
220
0
230
-1
100
AcDbArc
50
90
51
270
0
CIRCLE
5
B5
100
AcDbEntity
8
1
62
256
6
ByLayer
370
18
48
1
60
0
100
AcDbCircle
10
-7
20
0
30
0
40
2
39
0
210
0
220
0
230
-1
0
ELLIPSE
5
B8
100
AcDbEntity
8
1
62
256
6
ByLayer
370
18
48
1
60
0
100
AcDbEllipse
10
11.655034
20
-2.655034
30
0
11
-0.720938087646104
21
0.720938087646104
31
0
210
0
220
0
230
-1
40
0.980815
41
2.3658796718608
42
-2.3658796718608
0
ELLIPSE
5
B9
100
AcDbEntity
8
1
62
256
6
ByLayer
370
18
48
1
60
0
100
AcDbEllipse
10
14
20
0
30
0
11
-5.85726671158137E-15
21
4.99999999999999
31
0
210
0
220
0
230
-1
40
0.140541
41
-2.34876428907843
42
-0.792828364511355
0
ELLIPSE
5
BA
100
AcDbEntity
8
1
62
256
6
ByLayer
370
18
48
1
60
0
100
AcDbEllipse
10
2.344966
20
-2.655034
30
0
11
0.720938087646136
21
0.720938087646136
31
0
210
0
220
0
230
-1
40
0.980815
41
2.36587967186082
42
-2.36587967186082
0
ELLIPSE
5
BB
100
AcDbEntity
8
1
62
256
6
ByLayer
370
18
48
1
60
0
100
AcDbEllipse
10
11.655034
20
2.655034
30
0
11
0.720938087646118
21
0.720938087646118
31
0
210
0
220
0
230
-1
40
0.980815
41
-0.775712981728983
42
0.775712981728981
0
ELLIPSE
5
BC
100
AcDbEntity
8
1
62
256
6
ByLayer
370
18
48
1
60
0
100
AcDbEllipse
10
2.344966
20
2.655034
30
0
11
-0.720938087646172
21
0.720938087646172
31
0
210
0
220
0
230
-1
40
0.980815
41
-0.775712981728954
42
0.775712981728957
0
ELLIPSE
5
BD
100
AcDbEntity
8
1
62
256
6
ByLayer
370
18
48
1
60
0
100
AcDbEllipse
10
0
20
0
30
0
11
-5.85726671158172E-15
21
5.00000000000029
31
0
210
0
220
0
230
-1
40
0.140541
41
0.792828364511417
42
2.34876428907838
0
ELLIPSE
5
BE
100
AcDbEntity
8
1
62
256
6
ByLayer
370
18
48
1
60
0
100
AcDbEllipse
10
-7
20
0
30
0
11
-7.49999999999992
21
0
31
0
210
0
220
0
230
-1
40
0.666667
41
2.49809154479652
42
-2.49809154479652
0
ELLIPSE
5
BF
100
AcDbEntity
8
SK1
62
256
6
ByLayer
370
18
48
0.05
60
0
100
AcDbEllipse
10
-40
20
0
30
0
11
-7.5000000000012
21
0
31
0
210
0
220
0
230
-1
40
0.666667
41
-0.643501108793321
42
0.643501108793105
0
ELLIPSE
5
C0
100
AcDbEntity
8
1
62
256
6
ByLayer
370
18
48
0.05
60
0
100
AcDbEllipse
10
-7
20
0
30
0
11
-7.50000000000011
21
0
31
0
210
0
220
0
230
-1
40
0.666667
41
2.49809154479664
42
-2.49809154479643
0
ELLIPSE
5
C1
100
AcDbEntity
8
SK1
62
256
6
ByLayer
370
18
48
1
60
0
100
AcDbEllipse
10
-40
20
0
30
0
11
-7.49999999999993
21
0
31
0
210
0
220
0
230
-1
40
0.666667
41
-0.643501108793271
42
0.643501108793288
0
POINT
5
6C
100
AcDbEntity
8
80
62
256
6
ByLayer
370
18
48
1
60
0
100
AcDbPoint
10
0
20
0
30
0
39
0
210
0
220
0
230
1
50
360
0
POINT
5
6E
100
AcDbEntity
8
81
62
256
6
ByLayer
370
18
48
1
60
0
100
AcDbPoint
10
14
20
0
30
0
39
0
210
0
220
0
230
1
50
360
0
SPLINE
5
C2
100
AcDbEntity
8
1
62
256
6
ByLayer
370
18
48
1
60
0
100
AcDbSpline
70
4
71
3
72
16
73
12
40
0
40
0
40
0
40
0
40
0.0181151888171148
40
0.0403506328402737
40
0.0808720960601663
40
0.15794589584387
40
0.235385060207264
40
0.472106068725703
40
0.708800446271351
40
0.854472293595254
40
1
40
1
40
1
40
1
41
1
10
12.81604041095
20
-4.80630847969159
30
2.5E-15
41
1
10
12.8332765531579
20
-4.80617794196575
30
2.5E-15
41
1
10
12.8696022606495
20
-4.80447485624498
30
2.5E-15
41
1
10
12.9342172421227
20
-4.79323767744715
30
2.5E-15
41
1
10
13.0160643593888
20
-4.7642644174221
30
2.5E-15
41
1
10
13.1008651816654
20
-4.71418058581724
30
2.5E-15
41
1
10
13.2314965636029
20
-4.59685379926203
30
2.5E-15
41
1
10
13.3809044866171
20
-4.38918045537124
30
2.5E-15
41
1
10
13.4817963631764
20
-4.08850380248203
30
2.5E-15
41
1
10
13.5211741710862
20
-3.78653876470501
30
2.5E-15
41
1
10
13.5112769562077
20
-3.60438636166417
30
2.5E-15
41
1
10
13.4994348941916
20
-3.50916682544998
30
2.5E-15
0
SPLINE
5
C3
100
AcDbEntity
8
1
62
256
6
ByLayer
370
18
48
1
60
0
100
AcDbSpline
70
4
71
3
72
16
73
12
40
0
40
0
40
0
40
0
40
0.0181151888171153
40
0.0403506328402761
40
0.0808720960601736
40
0.15794589584389
40
0.235385060207297
40
0.472106068725743
40
0.708800446271397
40
0.854472293595277
40
1
40
1
40
1
40
1
41
1
10
1.18395958904998
20
4.8063084796916
30
2.5E-15
41
1
10
1.16672344684207
20
4.80617794196575
30
2.5E-15
41
1
10
1.13039773935048
20
4.80447485624498
30
2.5E-15
41
1
10
1.06578275787727
20
4.79323767744716
30
2.5E-15
41
1
10
0.983935640611202
20
4.76426441742209
30
2.5E-15
41
1
10
0.8991348183346
20
4.71418058581723
30
2.5E-15
41
1
10
0.768503436397046
20
4.596853799262
30
2.5E-15
41
1
10
0.619095513382833
20
4.3891804553712
30
2.5E-15
41
1
10
0.51820363682357
20
4.08850380248197
30
2.5E-15
41
1
10
0.478825828913836
20
3.78653876470497
30
2.5E-15
41
1
10
0.488723043792275
20
3.60438636166415
30
2.5E-15
41
1
10
0.500565105808452
20
3.50916682544998
30
2.5E-15
0
SPLINE
5
C4
100
AcDbEntity
8
1
62
256
6
ByLayer
370
18
48
1
60
0
100
AcDbSpline
70
4
71
3
72
16
73
12
40
0
40
0
40
0
40
0
40
0.171012876477876
40
0.342277199258634
40
0.580887526573331
40
0.819216627598712
40
0.878910403975966
40
0.937395732670012
40
0.962511163143001
40
0.983766696789797
40
1
40
1
40
1
40
1
41
1
10
0.500565105808452
20
-3.50916682544998
30
2.5E-15
41
1
10
0.487121547393009
20
-3.62124965739935
30
2.5E-15
41
1
10
0.478353124659694
20
-3.83370779571295
30
2.5E-15
41
1
10
0.535897751582517
20
-4.15684308409305
30
2.5E-15
41
1
10
0.653561126932868
20
-4.45580744554488
30
2.5E-15
41
1
10
0.808741502176142
20
-4.64499632985625
30
2.5E-15
41
1
10
0.946356550414846
20
-4.7428407744535
30
2.5E-15
41
1
10
1.01550044558332
20
-4.77709722168607
30
2.5E-15
41
1
10
1.08357039243304
20
-4.79667052546674
30
2.5E-15
41
1
10
1.1347620466689
20
-4.80479479271431
30
2.5E-15
41
1
10
1.16858695244075
20
-4.80621995764217
30
2.5E-15
41
1
10
1.18395958904998
20
-4.80630847969159
30
2.5E-15
0
SPLINE
5
C5
100
AcDbEntity
8
1
62
256
6
ByLayer
370
18
48
1
60
0
100
AcDbSpline
70
4
71
3
72
16
73
12
40
0
40
0
40
0
40
0
40
0.171012876477876
40
0.342277199258634
40
0.580887526573332
40
0.819216627598713
40
0.878910403975972
40
0.937395732670031
40
0.962511163143016
40
0.983766696789807
40
1
40
1
40
1
40
1
41
1
10
13.4994348941916
20
3.50916682544998
30
2.5E-15
41
1
10
13.512878452607
20
3.62124965739936
30
2.5E-15
41
1
10
13.5216468753403
20
3.83370779571296
30
2.5E-15
41
1
10
13.4641022484175
20
4.15684308409306
30
2.5E-15
41
1
10
13.3464388730671
20
4.45580744554489
30
2.5E-15
41
1
10
13.1912584978238
20
4.64499632985626
30
2.5E-15
41
1
10
13.0536434495852
20
4.74284077445352
30
2.5E-15
41
1
10
12.9844995544167
20
4.77709722168609
30
2.5E-15
41
1
10
12.9164296075669
20
4.79667052546675
30
2.5E-15
41
1
10
12.8652379533311
20
4.80479479271433
30
2.5E-15
41
1
10
12.8314130475592
20
4.80621995764216
30
2.5E-15
41
1
10
12.81604041095
20
4.8063084796916
30
2.5E-15
0
SPLINE
5
C6
100
AcDbEntity
8
SK1
62
256
6
ByLayer
370
18
48
0.05
60
0
100
AcDbSpline
70
4
71
3
72
12
73
8
40
0
40
0
40
0
40
0
40
0.213006317199429
40
0.426027202451097
40
0.638454355861813
40
0.84860678271324
40
1
40
1
40
1
40
1
41
1
10
-5.74999999999999
20
-5
30
2.5E-15
41
1
10
-5.89561379880238
20
-5.00091811098197
30
2.5E-15
41
1
10
-6.16906452681891
20
-4.99992016049334
30
2.5E-15
41
1
10
-6.54575749066789
20
-4.99593295253675
30
2.5E-15
41
1
10
-6.82758721653983
20
-4.97158109998997
30
2.5E-15
41
1
10
-6.97388682350715
20
-4.91819577413088
30
2.5E-15
41
1
10
-7.0000953206077
20
-4.86584906084206
30
2.5E-15
41
1
10
-6.99999869913464
20
-4.84076319500495
30
2.5E-15
0
SPLINE
5
C7
100
AcDbEntity
8
SK1
62
256
6
ByLayer
370
18
48
0.05
60
0
100
AcDbSpline
70
4
71
3
72
12
73
8
40
0
40
0
40
0
40
0
40
0.213006317199427
40
0.426027202451097
40
0.638454355861813
40
0.84860678271324
40
1
40
1
40
1
40
1
41
1
10
-5.75
20
5
30
2.5E-15
41
1
10
-5.60438620119761
20
5.00091811098198
30
2.5E-15
41
1
10
-5.33093547318109
20
4.99992016049334
30
2.5E-15
41
1
10
-4.9542425093321
20
4.99593295253676
30
2.5E-15
41
1
10
-4.67241278346018
20
4.97158109998997
30
2.5E-15
41
1
10
-4.52611317649284
20
4.91819577413089
30
2.5E-15
41
1
10
-4.49990467939229
20
4.86584906084206
30
2.5E-15
41
1
10
-4.50000130086536
20
4.84076319500495
30
2.5E-15
0
SPLINE
5
C8
100
AcDbEntity
8
SK3
62
256
6
ByLayer
370
18
48
0.05
60
0
100
AcDbSpline
70
4
71
3
72
13
73
9
40
0
40
0
40
0
40
0
40
0.173529959361917
40
0.375289269835596
40
0.574499248873576
40
0.762454045695109
40
0.943776371363679
40
1
40
1
40
1
40
1
41
1
10
-5.77200529034978
20
1.99999999061929
30
2.5E-15
41
1
10
-5.64775568506999
20
2.00135533219143
30
2.5E-15
41
1
10
-5.39154912792763
20
1.99971723009873
30
2.5E-15
41
1
10
-5.02158146320907
20
1.99455969957656
30
2.5E-15
41
1
10
-4.72670836299086
20
1.94728464003222
30
2.5E-15
41
1
10
-4.55154630996741
20
1.82879549298358
30
2.5E-15
41
1
10
-4.50413655074741
20
1.68014941212886
30
2.5E-15
41
1
10
-4.49965102881684
20
1.58066032075189
30
2.5E-15
41
1
10
-4.50001662327992
20
1.55606622061368
30
2.5E-15
0
SPLINE
5
C9
100
AcDbEntity
8
SK3
62
256
6
ByLayer
370
18
48
0.05
60
0
100
AcDbSpline
70
4
71
3
72
13
73
9
40
0
40
0
40
0
40
0
40
0.183907015672344
40
0.386250667063761
40
0.585620847745359
40
0.773356668292206
40
0.955455072488907
40
1
40
1
40
1
40
1
41
1
10
-5.73258513558475
20
-1.99999999632055
30
2.5E-15
41
1
10
-5.86427136888621
20
-2.0016310719445
30
2.5E-15
41
1
10
-6.12666973967474
20
-1.999737089341
30
2.5E-15
41
1
10
-6.49915228706817
20
-1.993309684899
30
2.5E-15
41
1
10
-6.78728534117464
20
-1.94236291812078
30
2.5E-15
41
1
10
-6.95511870474553
20
-1.81917490155806
30
2.5E-15
41
1
10
-6.99689557312442
20
-1.67167397714581
30
2.5E-15
41
1
10
-7.00021755940078
20
-1.57631258084407
30
2.5E-15
41
1
10
-6.99998839639461
20
-1.55692196922636
30
2.5E-15
0
SPLINE
5
CA
100
AcDbEntity
8
SK3
62
256
6
ByLayer
370
18
48
0.05
60
0
100
AcDbSpline
70
4
71
3
72
13
73
9
40
0
40
0
40
0
40
0
40
0.176892035581993
40
0.354013459456426
40
0.675616295447346
40
0.829009607216774
40
0.982198556935756
40
1
40
1
40
1
40
1
41
1
10
-4.75
20
2.6E-15
30
2.5E-15
41
1
10
-4.74859620124356
20
-0.107775931062846
30
2.5E-15
41
1
10
-4.73654088766654
20
-0.319451574103694
30
2.5E-15
41
1
10
-4.67083791050167
20
-0.71197183466363
30
2.5E-15
41
1
10
-4.57946593906002
20
-1.05941936461171
30
2.5E-15
41
1
10
-4.51699610674641
20
-1.35212220358591
30
2.5E-15
41
1
10
-4.5009307005714
20
-1.48753710889804
30
2.5E-15
41
1
10
-4.50002861102348
20
-1.55259880263691
30
2.5E-15
41
1
10
-4.50000233399348
20
-1.55931242543294
30
2.5E-15
0
SPLINE
5
CB
100
AcDbEntity
8
SK3
62
256
6
ByLayer
370
18
48
0.05
60
0
100
AcDbSpline
70
4
71
3
72
13
73
9
40
0
40
0
40
0
40
0
40
0.218588019645636
40
0.406209747997043
40
0.593942736413676
40
0.759799862179067
40
0.925471316033998
40
1
40
1
40
1
40
1
41
1
10
-4.50001662327992
20
1.55606622061368
30
2.5E-15
41
1
10
-4.50418182411551
20
1.47180348677635
30
2.5E-15
41
1
10
-4.52336998429649
20
1.30174799582219
30
2.5E-15
41
1
10
-4.59356738000859
20
1.01276421176364
30
2.5E-15
41
1
10
-4.66360629689073
20
0.725449564891544
30
2.5E-15
41
1
10
-4.72028454750797
20
0.430432486809092
30
2.5E-15
41
1
10
-4.74649911822044
20
0.188877669001914
30
2.5E-15
41
1
10
-4.74992888798889
20
0.0449130248811103
30
2.5E-15
41
1
10
-4.75
20
2.6E-15
30
2.5E-15
0
SPLINE
5
CC
100
AcDbEntity
8
SK3
62
256
6
ByLayer
370
18
48
0.05
60
0
100
AcDbSpline
70
4
71
3
72
13
73
9
40
0
40
0
40
0
40
0
40
0.180458456993785
40
0.393639759180457
40
0.581955966787389
40
0.77066384883868
40
0.971141067965058
40
1
40
1
40
1
40
1
41
1
10
-6.99999230301438
20
1.55772725985714
30
2.5E-15
41
1
10
-7.0028977586162
20
1.63595499693381
30
2.5E-15
41
1
10
-6.9758864422633
20
1.78275557336642
30
2.5E-15
41
1
10
-6.8332297870863
20
1.92438697074628
30
2.5E-15
41
1
10
-6.56808954599743
20
1.98566580636498
30
2.5E-15
41
1
10
-6.22881606331744
20
2.00054187794909
30
2.5E-15
41
1
10
-5.94671595303513
20
1.99992825172456
30
2.5E-15
41
1
10
-5.79161302370435
20
2.00001294918444
30
2.5E-15
41
1
10
-5.77200529034977
20
1.99999999061929
30
2.5E-15
0
SPLINE
5
CD
100
AcDbEntity
8
SK3
62
256
6
ByLayer
370
18
48
0.05
60
0
100
AcDbSpline
70
4
71
3
72
18
73
14
40
0
40
0
40
0
40
0
40
0.118089589166936
40
0.212700964379763
40
0.307355973258463
40
0.403412635176089
40
0.499310505623025
40
0.581785169473617
40
0.66434479079745
40
0.823905322096849
40
0.903014926712804
40
0.982018307722645
40
1
40
1
40
1
40
1
41
1
10
-6.99998839639461
20
-1.55692196922636
30
2.5E-15
41
1
10
-6.9950608031666
20
-1.46563924499181
30
2.5E-15
41
1
10
-6.97384043434867
20
-1.28620818536509
30
2.5E-15
41
1
10
-6.89915800863786
20
-0.983893601542486
30
2.5E-15
41
1
10
-6.82536546993896
20
-0.678317672854206
30
2.5E-15
41
1
10
-6.76689345430571
20
-0.348213250764195
30
2.5E-15
41
1
10
-6.74291438875141
20
-0.0180316930062684
30
2.5E-15
41
1
10
-6.76191438979297
20
0.295983724315821
30
2.5E-15
41
1
10
-6.82041799757881
20
0.673667675113287
30
2.5E-15
41
1
10
-6.91023091779515
20
1.01968154962818
30
2.5E-15
41
1
10
-6.97722669512141
20
1.32005560099345
30
2.5E-15
41
1
10
-6.99789178359173
20
1.46965772490486
30
2.5E-15
41
1
10
-6.99988622224282
20
1.54415307091911
30
2.5E-15
41
1
10
-6.99999230301438
20
1.55772725985714
30
2.5E-15
0
SPLINE
5
CE
100
AcDbEntity
8
SK3
62
256
6
ByLayer
370
18
48
0.05
60
0
100
AcDbSpline
70
4
71
3
72
13
73
9
40
0
40
0
40
0
40
0
40
0.193580530065851
40
0.403855253173654
40
0.59118677678857
40
0.780358708802406
40
0.98124307132895
40
1
40
1
40
1
40
1
41
1
10
-4.50000233399348
20
-1.55931242543294
30
2.5E-15
41
1
10
-4.49689038913703
20
-1.64330341159551
30
2.5E-15
41
1
10
-4.52730938376939
20
-1.79217837537053
30
2.5E-15
41
1
10
-4.68058465559535
20
-1.93026225325561
30
2.5E-15
41
1
10
-4.95033867535973
20
-1.98750708801536
30
2.5E-15
41
1
10
-5.29371079235988
20
-2.00066975030319
30
2.5E-15
41
1
10
-5.57102654217636
20
-1.99995614515014
30
2.5E-15
41
1
10
-5.71984128868715
20
-2.00000477272432
30
2.5E-15
41
1
10
-5.73258513558475
20
-1.99999999632055
30
2.5E-15
0
SPLINE
5
CF
100
AcDbEntity
8
SK1
62
256
6
ByLayer
370
18
48
0.05
60
0
100
AcDbSpline
70
4
71
3
72
12
73
8
40
0
40
0
40
0
40
0
40
0.187044476751785
40
0.403221961448671
40
0.612724784209602
40
0.823162025067396
40
1
40
1
40
1
40
1
41
1
10
-6.99999811465776
20
4.84066810664321
30
2.5E-15
41
1
10
-6.99994069161134
20
4.87169674012542
30
2.5E-15
41
1
10
-6.96381654206
20
4.92827432308923
30
2.5E-15
41
1
10
-6.78424702979207
20
4.97830530392756
30
2.5E-15
41
1
10
-6.48235912663022
20
4.99763830394126
30
2.5E-15
41
1
10
-6.11972401601657
20
4.99987917866753
30
2.5E-15
41
1
10
-5.86966247872759
20
5.00051725891707
30
2.5E-15
41
1
10
-5.75
20
5
30
2.5E-15
0
SPLINE
5
D0
100
AcDbEntity
8
SK3
62
256
6
ByLayer
370
18
48
0.05
60
0
100
AcDbSpline
70
4
71
3
72
18
73
14
40
0
40
0
40
0
40
0
40
0.0286534534152032
40
0.134031937068849
40
0.246036129749552
40
0.362036863006689
40
0.470790636927808
40
0.565728224120372
40
0.656008905254107
40
0.753336848049484
40
0.862480593285163
40
0.978384829803791
40
1
40
1
40
1
40
1
41
1
10
-4.50000130086536
20
4.84076319500495
30
2.5E-15
41
1
10
-4.50011359178839
20
4.83099547886424
30
2.5E-15
41
1
10
-4.50804793911809
20
4.78387380822736
30
2.5E-15
41
1
10
-4.59018673717929
20
4.68011902293094
30
2.5E-15
41
1
10
-4.83024398608054
20
4.52639893587813
30
2.5E-15
41
1
10
-5.18856795777769
20
4.38984059462607
30
2.5E-15
41
1
10
-5.61000614787605
20
4.32093943674717
30
2.5E-15
41
1
10
-6.01482018017263
20
4.33556560299589
30
2.5E-15
41
1
10
-6.37049875101264
20
4.41157268751507
30
2.5E-15
41
1
10
-6.67790367352861
20
4.5326396987803
30
2.5E-15
41
1
10
-6.91241101082279
20
4.68109935996965
30
2.5E-15
41
1
10
-6.99366612152237
20
4.78541404726159
30
2.5E-15
41
1
10
-6.99991703605859
20
4.83331268916409
30
2.5E-15
41
1
10
-6.99999811465776
20
4.84066810664321
30
2.5E-15
0
SPLINE
5
D1
100
AcDbEntity
8
SK1
62
256
6
ByLayer
370
18
48
0.05
60
0
100
AcDbSpline
70
4
71
3
72
12
73
8
40
0
40
0
40
0
40
0
40
0.187044476751785
40
0.403221961448671
40
0.612724784209602
40
0.823162025067396
40
1
40
1
40
1
40
1
41
1
10
-4.50000188534223
20
-4.8406681066432
30
2.5E-15
41
1
10
-4.50005930838866
20
-4.87169674012542
30
2.5E-15
41
1
10
-4.53618345794002
20
-4.92827432308923
30
2.5E-15
41
1
10
-4.7157529702079
20
-4.97830530392756
30
2.5E-15
41
1
10
-5.01764087336979
20
-4.99763830394126
30
2.5E-15
41
1
10
-5.38027598398341
20
-4.99987917866752
30
2.5E-15
41
1
10
-5.63033752127242
20
-5.00051725891706
30
2.5E-15
41
1
10
-5.75
20
-5
30
2.5E-15
0
SPLINE
5
D2
100
AcDbEntity
8
SK3
62
256
6
ByLayer
370
18
48
0.05
60
0
100
AcDbSpline
70
4
71
3
72
18
73
14
40
0
40
0
40
0
40
0
40
0.0286534534152033
40
0.134031937068849
40
0.246036129749552
40
0.362036863006688
40
0.470790636927808
40
0.565728224120372
40
0.656008905254107
40
0.753336848049483
40
0.862480593285163
40
0.978384829803791
40
1
40
1
40
1
40
1
41
1
10
-6.99999869913464
20
-4.84076319500495
30
2.5E-15
41
1
10
-6.99988640821161
20
-4.83099547886424
30
2.5E-15
41
1
10
-6.9919520608819
20
-4.78387380822735
30
2.5E-15
41
1
10
-6.90981326282071
20
-4.68011902293094
30
2.5E-15
41
1
10
-6.66975601391945
20
-4.52639893587813
30
2.5E-15
41
1
10
-6.3114320422223
20
-4.38984059462606
30
2.5E-15
41
1
10
-5.88999385212395
20
-4.32093943674716
30
2.5E-15
41
1
10
-5.48517981982735
20
-4.33556560299589
30
2.5E-15
41
1
10
-5.12950124898736
20
-4.41157268751507
30
2.5E-15
41
1
10
-4.82209632647138
20
-4.53263969878029
30
2.5E-15
41
1
10
-4.58758898917721
20
-4.68109935996965
30
2.5E-15
41
1
10
-4.50633387847763
20
-4.78541404726158
30
2.5E-15
41
1
10
-4.5000829639414
20
-4.83331268916408
30
2.5E-15
41
1
10
-4.50000188534223
20
-4.8406681066432
30
2.5E-15
0
SPLINE
5
D3
100
AcDbEntity
8
1
62
256
6
ByLayer
370
18
48
1
60
0
100
AcDbSpline
70
4
71
3
72
8
73
4
40
0
40
0
40
0
40
0
40
1
40
1
40
1
40
1
41
1
10
13.75
20
5
30
2.5E-15
41
1
10
9.16666666666031
20
5
30
2.5E-15
41
1
10
4.58333333332062
20
5
30
2.5E-15
41
1
10
-1.9071E-11
20
5
30
2.5E-15
0
SPLINE
5
D4
100
AcDbEntity
8
1
62
256
6
ByLayer
370
18
48
1
60
0
100
AcDbSpline
70
4
71
3
72
8
73
4
40
0
40
0
40
0
40
0
40
1
40
1
40
1
40
1
41
1
10
13.75
20
-5
30
2.5E-15
41
1
10
9.16666666665824
20
-5
30
2.5E-15
41
1
10
4.58333333331648
20
-5
30
2.5E-15
41
1
10
-2.52847E-11
20
-5
30
2.5E-15
0
SPLINE
5
D5
100
AcDbEntity
8
SK1
62
256
6
ByLayer
370
18
48
1
60
0
100
AcDbSpline
70
4
71
3
72
10
73
6
40
0
40
0
40
0
40
0
40
0.114999999999666
40
0.114999999999666
40
1
40
1
40
1
40
1
41
1
10
-1.90692E-11
20
5
30
2.5E-15
41
1
10
-1.91666666667943
20
5
30
2.5E-15
41
1
10
-3.8333333333398
20
5
30
2.5E-15
41
1
10
-20.5000000000001
20
5
30
2.5E-15
41
1
10
-35.2500000000001
20
5
30
2.5E-15
41
1
10
-50
20
5
30
2.5E-15
0
SPLINE
5
D6
100
AcDbEntity
8
SK1
62
256
6
ByLayer
370
18
48
1
60
0
100
AcDbSpline
70
4
71
3
72
10
73
6
40
0
40
0
40
0
40
0
40
0.11499999999955
40
0.11499999999955
40
1
40
1
40
1
40
1
41
1
10
-2.52847E-11
20
-5
30
2.5E-15
41
1
10
-1.91666666668348
20
-5
30
2.5E-15
41
1
10
-3.83333333334168
20
-5
30
2.5E-15
41
1
10
-20.4999999999999
20
-5
30
2.5E-15
41
1
10
-35.25
20
-5
30
2.5E-15
41
1
10
-50
20
-5
30
2.5E-15
0
LINE
5
70
100
AcDbEntity
8
1
62
256
6
ByLayer
370
18
48
1
60
0
100
AcDbLine
10
11.674594
20
-3.664862
30
0
11
12.81604
21
-4.806308
31
0
39
0
210
0
220
0
230
1
0
LINE
5
72
100
AcDbEntity
8
1
62
256
6
ByLayer
370
18
48
1
60
0
100
AcDbLine
10
13.499435
20
-3.509167
30
0
11
12.664862
21
-2.674594
31
0
39
0
210
0
220
0
230
1
0
LINE
5
73
100
AcDbEntity
8
1
62
256
6
ByLayer
370
18
48
1
60
0
100
AcDbLine
10
12.664862
20
2.674594
30
0
11
13.499435
21
3.509167
31
0
39
0
210
0
220
0
230
1
0
LINE
5
74
100
AcDbEntity
8
1
62
256
6
ByLayer
370
18
48
1
60
0
100
AcDbLine
10
12.664862
20
-2.674594
30
0
11
12.664862
21
2.674594
31
0
39
0
210
0
220
0
230
1
0
LINE
5
75
100
AcDbEntity
8
1
62
256
6
ByLayer
370
18
48
1
60
0
100
AcDbLine
10
2.325406
20
-3.664862
30
0
11
11.674594
21
-3.664862
31
0
39
0
210
0
220
0
230
1
0
LINE
5
76
100
AcDbEntity
8
1
62
256
6
ByLayer
370
18
48
1
60
0
100
AcDbLine
10
11.674594
20
3.664862
30
0
11
2.325406
21
3.664862
31
0
39
0
210
0
220
0
230
1
0
LINE
5
77
100
AcDbEntity
8
1
62
256
6
ByLayer
370
18
48
1
60
0
100
AcDbLine
10
1.335138
20
2.674594
30
0
11
1.335138
21
-2.674594
31
0
39
0
210
0
220
0
230
1
0
LINE
5
78
100
AcDbEntity
8
1
62
256
6
ByLayer
370
18
48
1
60
0
100
AcDbLine
10
2.325406
20
3.664862
30
0
11
1.18396
21
4.806308
31
0
39
0
210
0
220
0
230
1
0
LINE
5
79
100
AcDbEntity
8
1
62
256
6
ByLayer
370
18
48
1
60
0
100
AcDbLine
10
0.500565
20
3.509167
30
0
11
1.335138
21
2.674594
31
0
39
0
210
0
220
0
230
1
0
LINE
5
7A
100
AcDbEntity
8
1
62
256
6
ByLayer
370
18
48
1
60
0
100
AcDbLine
10
12.81604
20
4.806308
30
0
11
11.674594
21
3.664862
31
0
39
0
210
0
220
0
230
1
0
LINE
5
7B
100
AcDbEntity
8
1
62
256
6
ByLayer
370
18
48
1
60
0
100
AcDbLine
10
1.18396
20
4.806308
30
0
11
12.81604
21
4.806308
31
0
39
0
210
0
220
0
230
1
0
LINE
5
7C
100
AcDbEntity
8
1
62
256
6
ByLayer
370
18
48
1
60
0
100
AcDbLine
10
1.335138
20
-2.674594
30
0
11
0.500565
21
-3.509167
31
0
39
0
210
0
220
0
230
1
0
LINE
5
7D
100
AcDbEntity
8
1
62
256
6
ByLayer
370
18
48
1
60
0
100
AcDbLine
10
1.18396
20
-4.806308
30
0
11
2.325406
21
-3.664862
31
0
39
0
210
0
220
0
230
1
0
LINE
5
7E
100
AcDbEntity
8
1
62
256
6
ByLayer
370
18
48
1
60
0
100
AcDbLine
10
12.81604
20
-4.806308
30
0
11
1.18396
21
-4.806308
31
0
39
0
210
0
220
0
230
1
0
LINE
5
7F
100
AcDbEntity
8
SK1
62
256
6
ByLayer
370
18
48
1
60
0
100
AcDbLine
10
-1
20
-3
30
0
11
-1
21
3
31
0
39
0
210
0
220
0
230
1
0
LINE
5
81
100
AcDbEntity
8
1
62
256
6
ByLayer
370
18
48
1
60
0
100
AcDbLine
10
13.75
20
5
30
0
11
14
21
4.75
31
0
39
0
210
0
220
0
230
1
0
LINE
5
82
100
AcDbEntity
8
1
62
256
6
ByLayer
370
18
48
1
60
0
100
AcDbLine
10
14
20
-4.75
30
0
11
13.75
21
-5
31
0
39
0
210
0
220
0
230
1
0
LINE
5
83
100
AcDbEntity
8
SK1
62
256
6
ByLayer
370
18
48
0.05
60
0
100
AcDbLine
10
-1
20
-3
30
0
11
-46
21
-3
31
0
39
0
210
0
220
0
230
1
0
LINE
5
84
100
AcDbEntity
8
SK1
62
256
6
ByLayer
370
18
48
0.05
60
0
100
AcDbLine
10
-46
20
3
30
0
11
-1
21
3
31
0
39
0
210
0
220
0
230
1
0
LINE
5
85
100
AcDbEntity
8
SK1
62
256
6
ByLayer
370
18
48
1
60
0
100
AcDbLine
10
-1
20
3
30
0
11
-46
21
3
31
0
39
0
210
0
220
0
230
1
0
LINE
5
86
100
AcDbEntity
8
SK1
62
256
6
ByLayer
370
18
48
1
60
0
100
AcDbLine
10
-46
20
-3
30
0
11
-1
21
-3
31
0
39
0
210
0
220
0
230
1
0
LINE
5
87
100
AcDbEntity
8
SK1
62
256
6
ByLayer
370
18
48
1
60
0
100
AcDbLine
10
-46
20
-3
30
0
11
-46
21
3
31
0
39
0
210
0
220
0
230
1
0
LINE
5
88
100
AcDbEntity
8
SK1
62
256
6
ByLayer
370
18
48
1
60
0
100
AcDbLine
10
-50
20
-5
30
0
11
-51
21
-4
31
0
39
0
210
0
220
0
230
1
0
LINE
5
89
100
AcDbEntity
8
SK1
62
256
6
ByLayer
370
18
48
1
60
0
100
AcDbLine
10
-51
20
4
30
0
11
-50
21
5
31
0
39
0
210
0
220
0
230
1
0
LINE
5
8A
100
AcDbEntity
8
SK3
62
256
6
ByLayer
370
18
48
0.05
60
0
100
AcDbLine
10
7
20
2
30
0
11
14
21
2
31
0
39
0
210
0
220
0
230
1
0
LINE
5
8C
100
AcDbEntity
8
SK3
62
256
6
ByLayer
370
18
48
0.05
60
0
100
AcDbLine
10
-5.771062
20
2
30
0
11
7
21
2
31
0
39
0
210
0
220
0
230
1
0
LINE
5
8D
100
AcDbEntity
8
SK3
62
256
6
ByLayer
370
18
48
0.05
60
0
100
AcDbLine
10
-12
20
2
30
0
11
-5.771062
21
2
31
0
39
0
210
0
220
0
230
1
0
LINE
5
8E
100
AcDbEntity
8
SK3
62
256
6
ByLayer
370
18
48
0.05
60
0
100
AcDbLine
10
-5.733824
20
-2
30
0
11
-12
21
-2
31
0
39
0
210
0
220
0
230
1
0
LINE
5
8F
100
AcDbEntity
8
SK3
62
256
6
ByLayer
370
18
48
0.05
60
0
100
AcDbLine
10
7
20
-2
30
0
11
-5.733824
21
-2
31
0
39
0
210
0
220
0
230
1
0
LINE
5
90
100
AcDbEntity
8
SK3
62
256
6
ByLayer
370
18
48
0.05
60
0
100
AcDbLine
10
14
20
-2
30
0
11
7
21
-2
31
0
39
0
210
0
220
0
230
1
0
LINE
5
91
100
AcDbEntity
8
SK3
62
256
6
ByLayer
370
18
48
0.05
60
0
100
AcDbLine
10
-51
20
1
30
0
11
-12
21
1
31
0
39
0
210
0
220
0
230
1
0
LINE
5
92
100
AcDbEntity
8
SK3
62
256
6
ByLayer
370
18
48
0.05
60
0
100
AcDbLine
10
-12
20
-1
30
0
11
-51
21
-1
31
0
39
0
210
0
220
0
230
1
0
LINE
5
93
100
AcDbEntity
8
SK3
62
256
6
ByLayer
370
18
48
0.05
60
0
100
AcDbLine
10
-4.5
20
-1.556852
30
0
11
-4.5
21
-4.837579
31
0
39
0
210
0
220
0
230
1
0
LINE
5
94
100
AcDbEntity
8
SK3
62
256
6
ByLayer
370
18
48
0.05
60
0
100
AcDbLine
10
-4.5
20
4.837439
30
0
11
-4.5
21
1.547148
31
0
39
0
210
0
220
0
230
1
0
LINE
5
95
100
AcDbEntity
8
SK3
62
256
6
ByLayer
370
18
48
0.05
60
0
100
AcDbLine
10
-7
20
1.553115
30
0
11
-7
21
4.837579
31
0
39
0
210
0
220
0
230
1
0
LINE
5
96
100
AcDbEntity
8
SK3
62
256
6
ByLayer
370
18
48
0.05
60
0
100
AcDbLine
10
-7
20
-4.837439
30
0
11
-7
21
-1.549291
31
0
39
0
210
0
220
0
230
1
0
LINE
5
97
100
AcDbEntity
8
SK1
62
256
6
ByLayer
370
18
48
0.05
60
0
100
AcDbLine
10
-46
20
-3
30
0
11
-46
21
3
31
0
39
0
210
0
220
0
230
1
0
LINE
5
98
100
AcDbEntity
8
SK1
62
256
6
ByLayer
370
18
48
0.05
60
0
100
AcDbLine
10
-1
20
-3
30
0
11
-1
21
3
31
0
39
0
210
0
220
0
230
1
0
LINE
5
99
100
AcDbEntity
8
1
62
256
6
ByLayer
370
18
48
1
60
0
100
AcDbLine
10
13.75
20
5
30
0
11
13.75
21
0
31
0
39
0
210
0
220
0
230
1
0
LINE
5
9A
100
AcDbEntity
8
1
62
256
6
ByLayer
370
18
48
0.05
60
0
100
AcDbLine
10
13.75
20
-5
30
0
11
13.75
21
5
31
0
39
0
210
0
220
0
230
1
0
LINE
5
9B
100
AcDbEntity
8
1
62
256
6
ByLayer
370
18
48
1
60
0
100
AcDbLine
10
14
20
-4.75
30
0
11
14
21
0
31
0
39
0
210
0
220
0
230
1
0
LINE
5
9C
100
AcDbEntity
8
1
62
256
6
ByLayer
370
18
48
0.05
60
0
100
AcDbLine
10
14
20
4.75
30
0
11
14
21
-4.75
31
0
39
0
210
0
220
0
230
1
0
LINE
5
9D
100
AcDbEntity
8
1
62
256
6
ByLayer
370
18
48
1
60
0
100
AcDbLine
10
13.75
20
0
30
0
11
13.75
21
-5
31
0
39
0
210
0
220
0
230
1
0
LINE
5
9E
100
AcDbEntity
8
1
62
256
6
ByLayer
370
18
48
1
60
0
100
AcDbLine
10
14
20
0
30
0
11
14
21
4.75
31
0
39
0
210
0
220
0
230
1
0
LINE
5
9F
100
AcDbEntity
8
SK1
62
256
6
ByLayer
370
18
48
0.05
60
0
100
AcDbLine
10
-50
20
5
30
0
11
-50
21
0
31
0
39
0
210
0
220
0
230
1
0
LINE
5
A0
100
AcDbEntity
8
SK1
62
256
6
ByLayer
370
18
48
1
60
0
100
AcDbLine
10
-50
20
-5
30
0
11
-50
21
5
31
0
39
0
210
0
220
0
230
1
0
LINE
5
A1
100
AcDbEntity
8
SK1
62
256
6
ByLayer
370
18
48
0.05
60
0
100
AcDbLine
10
-50
20
0
30
0
11
-50
21
-5
31
0
39
0
210
0
220
0
230
1
0
LINE
5
A2
100
AcDbEntity
8
SK1
62
256
6
ByLayer
370
18
48
0.05
60
0
100
AcDbLine
10
-51
20
-4
30
0
11
-51
21
0
31
0
39
0
210
0
220
0
230
1
0
LINE
5
A3
100
AcDbEntity
8
SK1
62
256
6
ByLayer
370
18
48
1
60
0
100
AcDbLine
10
-51
20
4
30
0
11
-51
21
-4
31
0
39
0
210
0
220
0
230
1
0
LINE
5
A4
100
AcDbEntity
8
SK1
62
256
6
ByLayer
370
18
48
0.05
60
0
100
AcDbLine
10
-51
20
0
30
0
11
-51
21
4
31
0
39
0
210
0
220
0
230
1
0
LINE
5
A5
100
AcDbEntity
8
1
62
256
6
ByLayer
370
18
48
0.05
60
0
100
AcDbLine
10
14
20
-2
30
0
11
14
21
0
31
0
39
0
210
0
220
0
230
1
0
LINE
5
A6
100
AcDbEntity
8
1
62
256
6
ByLayer
370
18
48
0.05
60
0
100
AcDbLine
10
14
20
2
30
0
11
14
21
-2
31
0
39
0
210
0
220
0
230
1
0
LINE
5
A7
100
AcDbEntity
8
SK3
62
256
6
ByLayer
370
18
48
0.05
60
0
100
AcDbLine
10
-12
20
-2
30
0
11
-12
21
0
31
0
39
0
210
0
220
0
230
1
0
LINE
5
A8
100
AcDbEntity
8
SK3
62
256
6
ByLayer
370
18
48
0.05
60
0
100
AcDbLine
10
-12
20
2
30
0
11
-12
21
-2
31
0
39
0
210
0
220
0
230
1
0
LINE
5
A9
100
AcDbEntity
8
SK3
62
256
6
ByLayer
370
18
48
0.05
60
0
100
AcDbLine
10
-12
20
0
30
0
11
-12
21
2
31
0
39
0
210
0
220
0
230
1
0
LINE
5
AA
100
AcDbEntity
8
1
62
256
6
ByLayer
370
18
48
0.05
60
0
100
AcDbLine
10
14
20
0
30
0
11
14
21
2
31
0
39
0
210
0
220
0
230
1
0
LINE
5
AB
100
AcDbEntity
8
SK3
62
256
6
ByLayer
370
18
48
0.05
60
0
100
AcDbLine
10
-12
20
-1
30
0
11
-12
21
0
31
0
39
0
210
0
220
0
230
1
0
LINE
5
AC
100
AcDbEntity
8
SK3
62
256
6
ByLayer
370
18
48
0.05
60
0
100
AcDbLine
10
-12
20
1
30
0
11
-12
21
-1
31
0
39
0
210
0
220
0
230
1
0
LINE
5
AD
100
AcDbEntity
8
SK1
62
256
6
ByLayer
370
18
48
0.05
60
0
100
AcDbLine
10
-51
20
-1
30
0
11
-51
21
0
31
0
39
0
210
0
220
0
230
1
0
LINE
5
AE
100
AcDbEntity
8
SK1
62
256
6
ByLayer
370
18
48
0.05
60
0
100
AcDbLine
10
-51
20
1
30
0
11
-51
21
-1
31
0
39
0
210
0
220
0
230
1
0
LINE
5
AF
100
AcDbEntity
8
SK3
62
256
6
ByLayer
370
18
48
0.05
60
0
100
AcDbLine
10
-12
20
0
30
0
11
-12
21
1
31
0
39
0
210
0
220
0
230
1
0
LINE
5
B0
100
AcDbEntity
8
SK1
62
256
6
ByLayer
370
18
48
0.05
60
0
100
AcDbLine
10
-51
20
0
30
0
11
-51
21
1
31
0
39
0
210
0
220
0
230
1
0
LINE
5
B1
100
AcDbEntity
8
80
62
256
6
ByLayer
370
18
48
1
60
0
100
AcDbLine
10
0
20
0
30
0
11
-6.758554
21
0
31
0
39
0
210
0
220
0
230
1
0
LINE
5
B2
100
AcDbEntity
8
SK4
62
256
6
ByLayer
370
13
48
0.05
60
0
100
AcDbLine
10
17.589714
20
0
30
0
11
-53.915355
21
0
31
0
39
0
210
0
220
0
230
1
0
LINE
5
B4
100
AcDbEntity
8
81
62
256
6
ByLayer
370
18
48
1
60
0
100
AcDbLine
10
20.758554
20
0
30
0
11
14
21
0
31
0
39
0
210
0
220
0
230
1
0
MTEXT
5
D7
100
AcDbEntity
8
SK6
62
256
6
ByLayer
370
18
48
1
60
0
100
AcDbMText
10
-28.183547
20
-27.715068
30
0
210
0
220
0
230
1
1
\W0.7473;CXS-A10-04
40
3
41
0
44
1.084337
50
0
71
7
72
5
7
iso_b_vert
0
DIMENSION
5
E9
100
AcDbEntity
8
SK2
62
256
6
ByLayer
370
13
48
1
60
0
100
AcDbDimension
2
DimnDraft3D1
10
-51
20
21.126084
30
0
11
-20.252632
21
21.126084
31
0
70
32
71
5
72
1
41
1
210
0
220
0
230
1
3
Standard
100
AcDbAlignedDimension
13
14
23
6.75
33
0
14
-51
24
3
34
0
50
0
100
AcDbRotatedDimension
1001
ACAD
1000
DSTYLE
1002
{
1070
   279
1070
     0
1070
   172
1070
     1
1070
   173
1070
     1
1070
   340
1005
D8
1070
    77
1070
     1
1070
    73
1070
     0
1070
   171
1070
     3
1070
   274
1070
     4
1070
   177
1070
     7
1070
   176
1070
     7
1070
   178
1070
     7
1070
    78
1070
     8
1070
    41
1041
3.175
1070
   147
1041
1.5
1070
    42
1041
2.0
1070
    44
1041
2.0
1070
   140
1041
3.0
1070
   343
1005
EA
1070
   344
1005
EA
1002
}
0
DIMENSION
5
FF
100
AcDbEntity
8
2
62
256
6
ByLayer
370
13
48
1
60
0
100
AcDbDimension
2
DimnDraft3D2
10
-1
20
12.284667
30
0
11
-25.410526
21
12.284667
31
0
70
32
71
5
72
1
41
1
210
0
220
0
230
1
3
Standard
100
AcDbAlignedDimension
13
-46
23
5
33
0
14
-1
24
5
34
0
50
0
100
AcDbRotatedDimension
1001
ACAD
1000
DSTYLE
1002
{
1070
   279
1070
     0
1070
   172
1070
     1
1070
   173
1070
     1
1070
   340
1005
D8
1070
    77
1070
     1
1070
    73
1070
     0
1070
   171
1070
     3
1070
   274
1070
     4
1070
   177
1070
     7
1070
   176
1070
     7
1070
   178
1070
     7
1070
    78
1070
     8
1070
    41
1041
3.175
1070
   147
1041
1.5
1070
    42
1041
2.0
1070
    44
1041
2.0
1070
   140
1041
3.0
1070
   343
1005
EA
1070
   344
1005
EA
1002
}
0
DIMENSION
5
10E
100
AcDbEntity
8
2
62
256
6
ByLayer
370
13
48
1
60
0
100
AcDbDimension
2
DimnDraft3D3
10
27.105568
20
2
30
0
11
27.105568
21
-17.14495
31
0
70
32
71
5
72
1
41
1
210
0
220
0
230
1
3
Standard
100
AcDbAlignedDimension
13
16
23
-2
33
0
14
16
24
2
34
0
50
90
100
AcDbRotatedDimension
1001
ACAD
1000
DSTYLE
1002
{
1070
    74
1070
     0
1070
   279
1070
     0
1070
   172
1070
     1
1070
   173
1070
     1
1070
   340
1005
D8
1070
    77
1070
     1
1070
    73
1070
     0
1070
   171
1070
     3
1070
   274
1070
     4
1070
   177
1070
     7
1070
   176
1070
     7
1070
   178
1070
     7
1070
    78
1070
     8
1070
    41
1041
3.175
1070
   147
1041
1.5
1070
    42
1041
2.0
1070
    44
1041
2.0
1070
   140
1041
3.0
1070
   343
1005
EA
1070
   344
1005
EA
1002
}
0
DIMENSION
5
11D
100
AcDbEntity
8
SK2
62
256
6
ByLayer
370
13
48
1
60
0
100
AcDbDimension
2
DimnDraft3D4
10
34.947346
20
5
30
0
11
34.947346
21
-17.865114
31
0
70
32
71
5
72
1
41
1
210
0
220
0
230
1
3
Standard
100
AcDbAlignedDimension
13
15.75
23
-5
33
0
14
2
24
5
34
0
50
90
100
AcDbRotatedDimension
1001
ACAD
1000
DSTYLE
1002
{
1070
    74
1070
     0
1070
   279
1070
     0
1070
   172
1070
     1
1070
   173
1070
     1
1070
   340
1005
D8
1070
    77
1070
     1
1070
    73
1070
     0
1070
   171
1070
     3
1070
   274
1070
     4
1070
   177
1070
     7
1070
   176
1070
     7
1070
   178
1070
     7
1070
    78
1070
     8
1070
    41
1041
3.175
1070
   147
1041
1.5
1070
    42
1041
2.0
1070
    44
1041
2.0
1070
   140
1041
3.0
1070
   343
1005
EA
1070
   344
1005
EA
1002
}
0
ENDSEC
0
SECTION
2
OBJECTS
0
DICTIONARY
5
189
330
0
100
AcDbDictionary
280
0
281
1
3
ACAD_GROUP
350
18a
3
ACAD_MLINESTYLE
350
18b
0
DICTIONARY
5
18a
330
0
100
AcDbDictionary
280
0
281
1
0
DICTIONARY
5
18b
330
0
100
AcDbDictionary
280
0
281
1
3
Standard
350
18
0
MLINESTYLE
5
18
330
18b
100
AcDbMlineStyle
2
Standard
70
0
3

62
256
51
90
52
90
71
2
49
-0.5
62
256
6
ByLayer
49
0.5
62
256
6
ByLayer
0
RASTERVARIABLES
5
176
330

100
AcDbRasterVariables
90
0
70
1
71
1
72
1
0
ENDSEC
0
EOF
