0
SECTION
2
HEADER
9
$ACADVER
1
AC1015
9
$DWGCODEPAGE
3
ANSI_1252
9
$HANDSEED
5
246
9
$ANGBASE
50
0
9
$ANGDIR
70
0
9
$ATTMODE
70
1
9
$AUNITS
70
0
9
$AUPREC
70
0
9
$CECOLOR
62
256
9
$CELTSCALE
40
1
9
$CELTYPE
6
ByLayer
9
$CELWEIGHT
370
18
9
$CLAYER
8
0
9
$CMLJUST
70
0
9
$CMLSCALE
40
1
9
$CMLSTYLE
2
Standard
9
$DIMSTYLE
2
Standard
9
$TEXTSIZE
40
0.2
9
$TEXTSTYLE
7
Standard
9
$LUNITS
70
2
9
$LUPREC
70
4
9
$EXTNAMES
290
1
9
$INSUNITS
70
4
9
$LTSCALE
40
1
9
$LWDISPLAY
290
1
9
$PDMODE
70
0
9
$PDSIZE
40
0
9
$PLINEGEN
70
0
0
ENDSEC
0
SECTION
2
CLASSES
0
CLASS
1
RASTERVARIABLES
2
AcDbRasterVariables
3
ISM
90
0
280
0
281
0
0
ENDSEC
0
SECTION
2
TABLES
0
TABLE
2
VPORT
5
23c
100
AcDbSymbolTable
0
VPORT
5
1
100
AcDbSymbolTableRecord
100
AcDbViewportTableRecord
2
*Active
70
0
10
0
20
0
11
1
21
1
12
-1
22
1
13
0
23
0
14
0.5
24
0.5
15
10
25
10
16
0
26
0
36
1
17
0
27
0
37
0
0
ENDTAB
0
TABLE
2
LTYPE
5
23d
100
AcDbSymbolTable
0
LTYPE
5
14
100
AcDbSymbolTableRecord
100
AcDbLinetypeTableRecord
70
0
2
ByBlock
3

72
65
73
0
40
0
0
LTYPE
5
15
100
AcDbSymbolTableRecord
100
AcDbLinetypeTableRecord
70
0
2
ByLayer
3

72
65
73
0
40
0
0
LTYPE
5
16
100
AcDbSymbolTableRecord
100
AcDbLinetypeTableRecord
70
0
2
CONTINUOUS
3
Solid line
72
65
73
0
40
0
0
LTYPE
5
6A
100
AcDbSymbolTableRecord
100
AcDbLinetypeTableRecord
70
0
2
CENTER
3
____ _ ____ _ ____ _ ____
72
65
73
4
40
47.5
49
22
74
0
49
-8.5
74
0
49
8.5
74
0
49
-8.5
74
0
0
LTYPE
5
6B
100
AcDbSymbolTableRecord
100
AcDbLinetypeTableRecord
70
0
2
DASHED
3
__ __ __ __ __ __ __ __ __
72
65
73
2
40
25.72
49
12.86
74
0
49
-12.86
74
0
0
ENDTAB
0
TABLE
2
LAYER
5
23e
100
AcDbSymbolTable
0
LAYER
5
10
100
AcDbSymbolTableRecord
100
AcDbLayerTableRecord
2
0
70
0
62
7
6
CONTINUOUS
290
1
370
-3
390
0
0
LAYER
5
6D
100
AcDbSymbolTableRecord
100
AcDbLayerTableRecord
2
2
70
0
62
7
6
CONTINUOUS
290
1
370
-3
390
0
0
LAYER
5
6F
100
AcDbSymbolTableRecord
100
AcDbLayerTableRecord
2
80
70
0
62
-6
6
CONTINUOUS
290
1
370
-3
390
0
0
LAYER
5
71
100
AcDbSymbolTableRecord
100
AcDbLayerTableRecord
2
81
70
0
62
-3
6
CONTINUOUS
290
1
370
-3
390
0
0
LAYER
5
73
100
AcDbSymbolTableRecord
100
AcDbLayerTableRecord
2
1
70
0
62
4
6
CONTINUOUS
290
1
370
-3
390
0
0
LAYER
5
229
100
AcDbSymbolTableRecord
100
AcDbLayerTableRecord
2
SK1
70
0
62
4
6
CONTINUOUS
290
1
370
-3
390
0
0
LAYER
5
22a
100
AcDbSymbolTableRecord
100
AcDbLayerTableRecord
2
SK6
70
0
62
5
6
CONTINUOUS
290
1
370
-3
390
0
0
LAYER
5
22b
100
AcDbSymbolTableRecord
100
AcDbLayerTableRecord
2
SK2
70
0
62
7
6
CONTINUOUS
290
1
370
-3
390
0
0
ENDTAB
0
TABLE
2
STYLE
5
23f
100
AcDbSymbolTable
0
STYLE
5
11
100
AcDbSymbolTableRecord
100
AcDbTextStyleTableRecord
2
Standard
3
txt
70
0
71
0
40
0
41
1
42
0
50
0
0
STYLE
5
17F
100
AcDbSymbolTableRecord
100
AcDbTextStyleTableRecord
2
iso_b_vert
3
simplex.shx
70
0
71
0
40
0
41
1
42
0
50
0
0
STYLE
5
180
100
AcDbSymbolTableRecord
100
AcDbTextStyleTableRecord
2
DWGDirectTextStyle
3
simplex
70
0
71
0
40
0
41
1
42
0
50
0
0
ENDTAB
0
TABLE
2
DIMSTYLE
5
240
100
AcDbSymbolTable
100
AcDbDimStyleTable
0
DIMSTYLE
105
27
100
AcDbSymbolTableRecord
100
AcDbDimStyleTableRecord
2
Standard
70
0
3
<>
41
0.18
42
0.0625
44
0.18
140
0.18
147
0.09
73
0
74
0
77
1
271
2
275
0
278
52
280
0
340
11
0
ENDTAB
0
TABLE
2
VIEW
5
241
100
AcDbSymbolTable
0
ENDTAB
0
TABLE
2
UCS
5
242
100
AcDbSymbolTable
0
ENDTAB
0
TABLE
2
APPID
5
243
100
AcDbSymbolTable
0
APPID
5
12
100
AcDbSymbolTableRecord
100
AcDbRegAppTableRecord
2
ACAD
70
0
0
ENDTAB
0
TABLE
2
BLOCK_RECORD
5
244
100
AcDbSymbolTable
0
BLOCK_RECORD
5
1F
100
AcDbSymbolTableRecord
100
AcDbBlockTableRecord
2
*Model_Space
340
0
70
0
0
BLOCK_RECORD
5
1B
100
AcDbSymbolTableRecord
100
AcDbBlockTableRecord
2
*Paper_Space
340
0
70
0
0
BLOCK_RECORD
5
23
100
AcDbSymbolTableRecord
100
AcDbBlockTableRecord
2
*Paper_Space0
340
0
70
0
0
BLOCK_RECORD
5
182
100
AcDbSymbolTableRecord
100
AcDbBlockTableRecord
2
DimnDraft3D1
340
0
70
0
0
BLOCK_RECORD
5
190
100
AcDbSymbolTableRecord
100
AcDbBlockTableRecord
2
_CLOSED
340
0
70
0
0
BLOCK_RECORD
5
197
100
AcDbSymbolTableRecord
100
AcDbBlockTableRecord
2
DimnDraft3D2
340
0
70
0
0
BLOCK_RECORD
5
1A6
100
AcDbSymbolTableRecord
100
AcDbBlockTableRecord
2
DimnDraft3D3
340
0
70
0
0
BLOCK_RECORD
5
1B4
100
AcDbSymbolTableRecord
100
AcDbBlockTableRecord
2
DimnDraft3D4
340
0
70
0
0
BLOCK_RECORD
5
1C2
100
AcDbSymbolTableRecord
100
AcDbBlockTableRecord
2
DimnDraft3D5
340
0
70
0
0
ENDTAB
0
ENDSEC
0
SECTION
2
BLOCKS
0
BLOCK
5
20
100
AcDbEntity
8
0
100
AcDbBlockBegin
2
*Model_Space
70
0
10
0
20
0
30
0
3
*Model_Space
0
ENDBLK
5
21
100
AcDbEntity
8
0
100
AcDbBlockEnd
0
BLOCK
5
1C
100
AcDbEntity
8
0
100
AcDbBlockBegin
2
*Paper_Space
70
0
10
0
20
0
30
0
3
*Paper_Space
0
ENDBLK
5
1D
100
AcDbEntity
8
0
100
AcDbBlockEnd
0
BLOCK
5
24
100
AcDbEntity
8
0
100
AcDbBlockBegin
2
*Paper_Space0
70
0
10
0
20
0
30
0
3
*Paper_Space0
0
ENDBLK
5
25
100
AcDbEntity
8
0
100
AcDbBlockEnd
0
BLOCK
5
18D
100
AcDbEntity
8
0
100
AcDbBlockBegin
2
DimnDraft3D1
70
0
10
0
20
0
30
0
3
DimnDraft3D1
0
MTEXT
5
183
100
AcDbEntity
8
2
62
256
6
ByLayer
370
18
48
1
60
0
100
AcDbMText
10
18.449356
20
30.653389
30
0
210
0
220
0
230
1
1
\W0.7399;75%%d
40
4.5
41
0
44
1.084337
50
37.5
71
7
72
5
7
iso_b_vert
0
LINE
5
184
100
AcDbEntity
8
2
62
256
6
ByLayer
370
13
48
1
60
0
100
AcDbLine
10
34.207183
20
16.9125
30
0
11
34.207183
21
37.868344
31
0
39
0
210
0
220
0
230
1
0
LINE
5
185
100
AcDbEntity
8
2
62
256
6
ByLayer
370
13
48
1
60
0
100
AcDbLine
10
28.84428
20
16.349486
30
0
11
12.033541
21
20.85391
31
0
39
0
210
0
220
0
230
1
0
ARC
5
186
100
AcDbEntity
8
2
62
256
6
ByLayer
370
13
48
1
60
0
100
AcDbCircle
39
0
10
34.207183
20
14.9125
30
0
40
20.9558441220057
210
0
220
0
230
1
100
AcDbArc
50
90
51
165
0
LINE
5
187
100
AcDbEntity
8
2
62
256
6
ByLayer
370
13
48
1
60
0
100
AcDbLine
10
34.207183
20
35.868344
30
0
11
31.050252
21
35.330644
31
0
39
0
210
0
220
0
230
1
0
LINE
5
188
100
AcDbEntity
8
2
62
256
6
ByLayer
370
13
48
1
60
0
100
AcDbLine
10
34.207183
20
35.868344
30
0
11
31.018652
21
36.16604
31
0
39
0
210
0
220
0
230
1
0
LINE
5
189
100
AcDbEntity
8
2
62
256
6
ByLayer
370
13
48
1
60
0
100
AcDbLine
10
31.050252
20
35.330644
30
0
11
31.018652
21
36.16604
31
0
39
0
210
0
220
0
230
1
0
LINE
5
18A
100
AcDbEntity
8
2
62
256
6
ByLayer
370
13
48
1
60
0
100
AcDbLine
10
13.965392
20
20.336272
30
0
11
14.503092
21
23.493203
31
0
39
0
210
0
220
0
230
1
0
LINE
5
18B
100
AcDbEntity
8
2
62
256
6
ByLayer
370
13
48
1
60
0
100
AcDbLine
10
13.965392
20
20.336272
30
0
11
15.301846
21
23.246469
31
0
39
0
210
0
220
0
230
1
0
LINE
5
18C
100
AcDbEntity
8
2
62
256
6
ByLayer
370
13
48
1
60
0
100
AcDbLine
10
14.503092
20
23.493203
30
0
11
15.301846
21
23.246469
31
0
39
0
210
0
220
0
230
1
0
ENDBLK
5
18E
100
AcDbEntity
8
0
100
AcDbBlockEnd
0
BLOCK
5
191
100
AcDbEntity
8
0
100
AcDbBlockBegin
2
_CLOSED
70
0
10
0
20
0
30
0
3
_CLOSED
0
LINE
5
193
100
AcDbEntity
8
0
62
256
6
ByLayer
370
-2
48
1
60
0
100
AcDbLine
10
-1
20
0.166667
30
0
11
0
21
0
31
0
39
0
210
0
220
0
230
1
0
LINE
5
194
100
AcDbEntity
8
0
62
256
6
ByLayer
370
-2
48
1
60
0
100
AcDbLine
10
0
20
0
30
0
11
-1
21
-0.166667
31
0
39
0
210
0
220
0
230
1
0
LINE
5
195
100
AcDbEntity
8
0
62
256
6
ByLayer
370
-2
48
1
60
0
100
AcDbLine
10
-1
20
0.166667
30
0
11
-1
21
-0.166667
31
0
39
0
210
0
220
0
230
1
0
LINE
5
196
100
AcDbEntity
8
0
62
256
6
ByLayer
370
-2
48
1
60
0
100
AcDbLine
10
0
20
0
30
0
11
-1
21
0
31
0
39
0
210
0
220
0
230
1
0
ENDBLK
5
192
100
AcDbEntity
8
0
100
AcDbBlockEnd
0
BLOCK
5
1A3
100
AcDbEntity
8
0
100
AcDbBlockBegin
2
DimnDraft3D2
70
0
10
0
20
0
30
0
3
DimnDraft3D2
0
MTEXT
5
198
100
AcDbEntity
8
SK2
62
256
6
ByLayer
370
18
48
1
60
0
100
AcDbMText
10
-126.017817
20
-4.156579
30
0
210
0
220
0
230
1
1
\W0.7346;25.0
40
4.5
41
0
44
1.084337
50
90
71
7
72
5
7
iso_b_vert
0
LINE
5
19A
100
AcDbEntity
8
SK2
62
256
6
ByLayer
370
13
48
1
60
0
100
AcDbLine
10
-119.142817
20
-12.4375
30
0
11
-126.892817
21
-12.4375
31
0
39
0
210
0
220
0
230
1
0
LINE
5
19B
100
AcDbEntity
8
SK2
62
256
6
ByLayer
370
13
48
1
60
0
100
AcDbLine
10
-119.142817
20
12.4375
30
0
11
-126.892817
21
12.4375
31
0
39
0
210
0
220
0
230
1
0
LINE
5
19C
100
AcDbEntity
8
SK2
62
256
6
ByLayer
370
13
48
1
60
0
100
AcDbLine
10
-124.892817
20
-12.4375
30
0
11
-124.892817
21
12.4375
31
0
39
0
210
0
220
0
230
1
0
LINE
5
19D
100
AcDbEntity
8
SK2
62
256
6
ByLayer
370
13
48
1
60
0
100
AcDbLine
10
-124.892817
20
-12.4375
30
0
11
-125.310813
21
-9.262502
31
0
39
0
210
0
220
0
230
1
0
LINE
5
19E
100
AcDbEntity
8
SK2
62
256
6
ByLayer
370
13
48
1
60
0
100
AcDbLine
10
-124.892817
20
-12.4375
30
0
11
-124.47482
21
-9.262498
31
0
39
0
210
0
220
0
230
1
0
LINE
5
19F
100
AcDbEntity
8
SK2
62
256
6
ByLayer
370
13
48
1
60
0
100
AcDbLine
10
-125.310813
20
-9.262502
30
0
11
-124.47482
21
-9.262498
31
0
39
0
210
0
220
0
230
1
0
LINE
5
1A0
100
AcDbEntity
8
SK2
62
256
6
ByLayer
370
13
48
1
60
0
100
AcDbLine
10
-124.892817
20
12.4375
30
0
11
-124.47482
21
9.262502
31
0
39
0
210
0
220
0
230
1
0
LINE
5
1A1
100
AcDbEntity
8
SK2
62
256
6
ByLayer
370
13
48
1
60
0
100
AcDbLine
10
-124.892817
20
12.4375
30
0
11
-125.310813
21
9.262498
31
0
39
0
210
0
220
0
230
1
0
LINE
5
1A2
100
AcDbEntity
8
SK2
62
256
6
ByLayer
370
13
48
1
60
0
100
AcDbLine
10
-124.47482
20
9.262502
30
0
11
-125.310813
21
9.262498
31
0
39
0
210
0
220
0
230
1
0
ENDBLK
5
1A4
100
AcDbEntity
8
0
100
AcDbBlockEnd
0
BLOCK
5
1B1
100
AcDbEntity
8
0
100
AcDbBlockBegin
2
DimnDraft3D3
70
0
10
0
20
0
30
0
3
DimnDraft3D3
0
MTEXT
5
1A7
100
AcDbEntity
8
2
62
256
6
ByLayer
370
18
48
1
60
0
100
AcDbMText
10
55.332183
20
-2.919079
30
0
210
0
220
0
230
1
1
\W0.7346;27.0
40
4.5
41
0
44
1.084337
50
90
71
7
72
5
7
iso_b_vert
0
LINE
5
1A8
100
AcDbEntity
8
2
62
256
6
ByLayer
370
13
48
1
60
0
100
AcDbLine
10
2
20
-12.4375
30
0
11
58.457183
21
-12.4375
31
0
39
0
210
0
220
0
230
1
0
LINE
5
1A9
100
AcDbEntity
8
2
62
256
6
ByLayer
370
13
48
1
60
0
100
AcDbLine
10
36.207183
20
14.9125
30
0
11
58.457183
21
14.9125
31
0
39
0
210
0
220
0
230
1
0
LINE
5
1AA
100
AcDbEntity
8
2
62
256
6
ByLayer
370
13
48
1
60
0
100
AcDbLine
10
56.457183
20
-12.4375
30
0
11
56.457183
21
14.9125
31
0
39
0
210
0
220
0
230
1
0
LINE
5
1AB
100
AcDbEntity
8
2
62
256
6
ByLayer
370
13
48
1
60
0
100
AcDbLine
10
56.457183
20
-12.4375
30
0
11
56.039187
21
-9.262502
31
0
39
0
210
0
220
0
230
1
0
LINE
5
1AC
100
AcDbEntity
8
2
62
256
6
ByLayer
370
13
48
1
60
0
100
AcDbLine
10
56.457183
20
-12.4375
30
0
11
56.87518
21
-9.262498
31
0
39
0
210
0
220
0
230
1
0
LINE
5
1AD
100
AcDbEntity
8
2
62
256
6
ByLayer
370
13
48
1
60
0
100
AcDbLine
10
56.039187
20
-9.262502
30
0
11
56.87518
21
-9.262498
31
0
39
0
210
0
220
0
230
1
0
LINE
5
1AE
100
AcDbEntity
8
2
62
256
6
ByLayer
370
13
48
1
60
0
100
AcDbLine
10
56.457183
20
14.9125
30
0
11
56.87518
21
11.737502
31
0
39
0
210
0
220
0
230
1
0
LINE
5
1AF
100
AcDbEntity
8
2
62
256
6
ByLayer
370
13
48
1
60
0
100
AcDbLine
10
56.457183
20
14.9125
30
0
11
56.039187
21
11.737498
31
0
39
0
210
0
220
0
230
1
0
LINE
5
1B0
100
AcDbEntity
8
2
62
256
6
ByLayer
370
13
48
1
60
0
100
AcDbLine
10
56.87518
20
11.737502
30
0
11
56.039187
21
11.737498
31
0
39
0
210
0
220
0
230
1
0
ENDBLK
5
1B2
100
AcDbEntity
8
0
100
AcDbBlockEnd
0
BLOCK
5
1BF
100
AcDbEntity
8
0
100
AcDbBlockBegin
2
DimnDraft3D4
70
0
10
0
20
0
30
0
3
DimnDraft3D4
0
MTEXT
5
1B5
100
AcDbEntity
8
2
62
256
6
ByLayer
370
18
48
1
60
0
100
AcDbMText
10
12.710171
20
45.7875
30
0
210
0
220
0
230
1
1
\W0.7640;34.2
40
4.5
41
0
44
1.084337
50
0
71
7
72
5
7
iso_b_vert
0
LINE
5
1B6
100
AcDbEntity
8
2
62
256
6
ByLayer
370
13
48
1
60
0
100
AcDbLine
10
0
20
14.4375
30
0
11
0
21
46.6625
31
0
39
0
210
0
220
0
230
1
0
LINE
5
1B7
100
AcDbEntity
8
2
62
256
6
ByLayer
370
13
48
1
60
0
100
AcDbLine
10
34.207183
20
16.9125
30
0
11
34.207183
21
46.6625
31
0
39
0
210
0
220
0
230
1
0
LINE
5
1B8
100
AcDbEntity
8
2
62
256
6
ByLayer
370
13
48
1
60
0
100
AcDbLine
10
0
20
44.6625
30
0
11
34.207183
21
44.6625
31
0
39
0
210
0
220
0
230
1
0
LINE
5
1B9
100
AcDbEntity
8
2
62
256
6
ByLayer
370
13
48
1
60
0
100
AcDbLine
10
0
20
44.6625
30
0
11
3.174998
21
45.080497
31
0
39
0
210
0
220
0
230
1
0
LINE
5
1BA
100
AcDbEntity
8
2
62
256
6
ByLayer
370
13
48
1
60
0
100
AcDbLine
10
0
20
44.6625
30
0
11
3.175002
21
44.244503
31
0
39
0
210
0
220
0
230
1
0
LINE
5
1BB
100
AcDbEntity
8
2
62
256
6
ByLayer
370
13
48
1
60
0
100
AcDbLine
10
3.174998
20
45.080497
30
0
11
3.175002
21
44.244503
31
0
39
0
210
0
220
0
230
1
0
LINE
5
1BC
100
AcDbEntity
8
2
62
256
6
ByLayer
370
13
48
1
60
0
100
AcDbLine
10
34.207183
20
44.6625
30
0
11
31.032185
21
44.244503
31
0
39
0
210
0
220
0
230
1
0
LINE
5
1BD
100
AcDbEntity
8
2
62
256
6
ByLayer
370
13
48
1
60
0
100
AcDbLine
10
34.207183
20
44.6625
30
0
11
31.032182
21
45.080497
31
0
39
0
210
0
220
0
230
1
0
LINE
5
1BE
100
AcDbEntity
8
2
62
256
6
ByLayer
370
13
48
1
60
0
100
AcDbLine
10
31.032185
20
44.244503
30
0
11
31.032182
21
45.080497
31
0
39
0
210
0
220
0
230
1
0
ENDBLK
5
1C0
100
AcDbEntity
8
0
100
AcDbBlockEnd
0
BLOCK
5
1CD
100
AcDbEntity
8
0
100
AcDbBlockBegin
2
DimnDraft3D5
70
0
10
0
20
0
30
0
3
DimnDraft3D5
0
MTEXT
5
1C3
100
AcDbEntity
8
SK2
62
256
6
ByLayer
370
18
48
1
60
0
100
AcDbMText
10
-46.743475
20
55.7875
30
0
210
0
220
0
230
1
1
\W0.6864;150.0
40
4.5
41
0
44
1.084337
50
0
71
7
72
5
7
iso_b_vert
0
LINE
5
1C4
100
AcDbEntity
8
SK2
62
256
6
ByLayer
370
13
48
1
60
0
100
AcDbLine
10
34.207183
20
16.9125
30
0
11
34.207183
21
56.6625
31
0
39
0
210
0
220
0
230
1
0
LINE
5
1C5
100
AcDbEntity
8
SK2
62
256
6
ByLayer
370
13
48
1
60
0
100
AcDbLine
10
-117.142817
20
14.4375
30
0
11
-117.142817
21
56.6625
31
0
39
0
210
0
220
0
230
1
0
LINE
5
1C6
100
AcDbEntity
8
SK2
62
256
6
ByLayer
370
13
48
1
60
0
100
AcDbLine
10
34.207183
20
54.6625
30
0
11
-117.142817
21
54.6625
31
0
39
0
210
0
220
0
230
1
0
LINE
5
1C7
100
AcDbEntity
8
SK2
62
256
6
ByLayer
370
13
48
1
60
0
100
AcDbLine
10
34.207183
20
54.6625
30
0
11
31.032185
21
54.244503
31
0
39
0
210
0
220
0
230
1
0
LINE
5
1C8
100
AcDbEntity
8
SK2
62
256
6
ByLayer
370
13
48
1
60
0
100
AcDbLine
10
34.207183
20
54.6625
30
0
11
31.032182
21
55.080497
31
0
39
0
210
0
220
0
230
1
0
LINE
5
1C9
100
AcDbEntity
8
SK2
62
256
6
ByLayer
370
13
48
1
60
0
100
AcDbLine
10
31.032185
20
54.244503
30
0
11
31.032182
21
55.080497
31
0
39
0
210
0
220
0
230
1
0
LINE
5
1CA
100
AcDbEntity
8
SK2
62
256
6
ByLayer
370
13
48
1
60
0
100
AcDbLine
10
-117.142817
20
54.6625
30
0
11
-113.967818
21
55.080497
31
0
39
0
210
0
220
0
230
1
0
LINE
5
1CB
100
AcDbEntity
8
SK2
62
256
6
ByLayer
370
13
48
1
60
0
100
AcDbLine
10
-117.142817
20
54.6625
30
0
11
-113.967815
21
54.244503
31
0
39
0
210
0
220
0
230
1
0
LINE
5
1CC
100
AcDbEntity
8
SK2
62
256
6
ByLayer
370
13
48
1
60
0
100
AcDbLine
10
-113.967818
20
55.080497
30
0
11
-113.967815
21
54.244503
31
0
39
0
210
0
220
0
230
1
0
ENDBLK
5
1CE
100
AcDbEntity
8
0
100
AcDbBlockEnd
0
ENDSEC
0
SECTION
2
ENTITIES
0
ELLIPSE
5
F7
100
AcDbEntity
8
1
62
256
6
ByLayer
370
18
48
1
60
0
100
AcDbEllipse
10
22.350773
20
13.028989
30
0
11
-0.0882571527614684
21
2.73364581668112
31
0
210
0
220
0
230
1
40
0.523705
41
0.721340643747787
42
1.06367112879156
0
ELLIPSE
5
F8
100
AcDbEntity
8
1
62
256
6
ByLayer
370
18
48
1
60
0
100
AcDbEllipse
10
1.539597
20
10.970857
30
0
11
-0.598414804333338
21
2.57912885655288
31
0
210
0
220
0
230
1
40
0.219299
41
-0.641172627889108
42
-0.219932541632631
0
ELLIPSE
5
F9
100
AcDbEntity
8
1
62
256
6
ByLayer
370
18
48
1
60
0
100
AcDbEllipse
10
1.539597
20
10.970857
30
0
11
-0.598414804341935
21
2.57912885662164
31
0
210
0
220
0
230
1
40
0.219299
41
0.491646842138289
42
0.92962369891564
0
ELLIPSE
5
FA
100
AcDbEntity
8
1
62
256
6
ByLayer
370
18
48
1
60
0
100
AcDbEllipse
10
11.146644
20
-9.294636
30
0
11
-0.711142104993618
21
-0.367462110936319
31
0
210
0
220
0
230
1
40
0.006929
41
1.42348577391891
42
2.9942821007351
0
ELLIPSE
5
FB
100
AcDbEntity
8
1
62
256
6
ByLayer
370
18
48
1
60
0
100
AcDbEllipse
10
23.819709
20
13.108065
30
0
11
-1.07977848161467
21
-0.0496926783492526
31
0
210
0
220
0
230
1
40
0.185902
41
-1.3460058441065
42
-0.822407068534751
0
ELLIPSE
5
FC
100
AcDbEntity
8
1
62
256
6
ByLayer
370
18
48
1
60
0
100
AcDbEllipse
10
12.131381
20
0.682283
30
0
11
-4.51803321689113
21
-2.14181601709119
31
0
210
0
220
0
230
1
40
0.012014
41
-1.34976663131173
42
-0.908735525955426
0
ELLIPSE
5
FD
100
AcDbEntity
8
1
62
256
6
ByLayer
370
18
48
1
60
0
100
AcDbEllipse
10
26.917208
20
13.25701
30
0
11
-5.80931028999738
21
2.71513487444958
31
0
210
0
220
0
230
1
40
0.538155
41
0.66229216468036
42
0.742030429472739
0
ELLIPSE
5
FE
100
AcDbEntity
8
1
62
256
6
ByLayer
370
18
48
1
60
0
100
AcDbEllipse
10
17.878059
20
1.752052
30
0
11
-7.39860552936562
21
-6.64411661331124
31
0
210
0
220
0
230
1
40
0.127121
41
-0.317570148362925
42
0.40163075158409
0
ELLIPSE
5
FF
100
AcDbEntity
8
1
62
256
6
ByLayer
370
18
48
1
60
0
100
AcDbEllipse
10
10.268136
20
4.612688
30
0
11
-6.64255980960085
21
2.37671399949771
31
0
210
0
220
0
230
1
40
0.079636
41
-1.44492676727804
42
-0.98086323902958
0
ELLIPSE
5
100
100
AcDbEntity
8
1
62
256
6
ByLayer
370
18
48
1
60
0
100
AcDbEllipse
10
15.257858
20
5.062892
30
0
11
2.04371046864875
21
-3.61188974365712
31
0
210
0
220
0
230
1
40
0.986425
41
0.0881258864008815
42
3.06836828848035
0
ELLIPSE
5
101
100
AcDbEntity
8
1
62
256
6
ByLayer
370
18
48
1
60
0
100
AcDbEllipse
10
4.210387
20
4.337594
30
0
11
-1.8837446987484
21
2.33284712365278
31
0
210
0
220
0
230
1
40
0.996587
41
0.107653472588096
42
0.113766059408692
0
ELLIPSE
5
102
100
AcDbEntity
8
1
62
256
6
ByLayer
370
18
48
1
60
0
100
AcDbEllipse
10
7.792824
20
-3.218949
30
0
11
-1.98064485500443
21
2.25214554355668
31
0
210
0
220
0
230
1
40
0.996344
41
2.51077778855589
42
2.5168898646808
0
ELLIPSE
5
103
100
AcDbEntity
8
1
62
256
6
ByLayer
370
18
48
1
60
0
100
AcDbEllipse
10
9.904053
20
5.380698
30
0
11
-4.51803321689113
21
-2.14181601709119
31
0
210
0
220
0
230
1
40
0.012014
41
-1.34976663131172
42
-0.908735525955426
0
ELLIPSE
5
104
100
AcDbEntity
8
1
62
256
6
ByLayer
370
18
48
1
60
0
100
AcDbEllipse
10
29.023648
20
8.813597
30
0
11
-1.11228554917643
21
-6.62258588076587
31
0
210
0
220
0
230
1
40
0.544992
41
-0.828293115525041
42
-0.748554844488304
0
ELLIPSE
5
105
100
AcDbEntity
8
1
62
256
6
ByLayer
370
18
48
1
60
0
100
AcDbEllipse
10
9.422791
20
-2.355918
30
0
11
-1.35663164731603
21
2.67584502444719
31
0
210
0
220
0
230
1
40
0.87742
41
1.54054515741178
42
3.11134148420672
0
ELLIPSE
5
106
100
AcDbEntity
8
1
62
256
6
ByLayer
370
18
48
1
60
0
100
AcDbEllipse
10
6.940643
20
-6.849199
30
0
11
6.32524650364758
21
2.99854242392767
31
0
210
0
220
0
230
1
40
0.012014
41
-1.21755960211357
42
-0.810298218555842
0
ELLIPSE
5
107
100
AcDbEntity
8
1
62
256
6
ByLayer
370
18
48
1
60
0
100
AcDbEllipse
10
11.767299
20
1.450293
30
0
11
-2.37461151923486
21
-6.63668369215204
31
0
210
0
220
0
230
1
40
0.067687
41
0.993008307479277
42
1.45707183582809
0
ELLIPSE
5
108
100
AcDbEntity
8
1
62
256
6
ByLayer
370
18
48
1
60
0
100
AcDbEllipse
10
5.841933
20
5.197689
30
0
11
-1.35663164731498
21
2.67584502444756
31
0
210
0
220
0
230
1
40
0.87742
41
-0.0148623238581795
42
1.54054515741221
0
ELLIPSE
5
109
100
AcDbEntity
8
1
62
256
6
ByLayer
370
18
48
1
60
0
100
AcDbEllipse
10
14.297201
20
9.305659
30
0
11
-9.76337189288834
21
-1.65897349340198
31
0
210
0
220
0
230
1
40
0.120053
41
-0.405636164515571
42
0.313564735431335
0
ELLIPSE
5
10A
100
AcDbEntity
8
1
62
256
6
ByLayer
370
18
48
1
60
0
100
AcDbEllipse
10
26.949563
20
6.505825
30
0
11
-0.719666776398794
21
-0.807544899035786
31
0
210
0
220
0
230
1
40
0.206174
41
0.813128055345525
42
1.33672683087541
0
ELLIPSE
5
10B
100
AcDbEntity
8
1
62
256
6
ByLayer
370
18
48
1
60
0
100
AcDbEllipse
10
29.08341
20
12.80836
30
0
11
-0.816092223043188
21
1.83288704898394
31
0
210
0
220
0
230
1
40
0.723309
41
-0.782434902818384
42
0.238522657626699
0
ELLIPSE
5
10C
100
AcDbEntity
8
1
62
256
6
ByLayer
370
18
48
1
60
0
100
AcDbEllipse
10
27.680096
20
10.886101
30
0
11
1.63125060174746
21
-2.8254089221039
31
0
210
0
220
0
230
1
40
0.989133
41
0.878127834518705
42
2.09985831091474
0
ELLIPSE
5
10D
100
AcDbEntity
8
1
62
256
6
ByLayer
370
18
48
1
60
0
100
AcDbEllipse
10
27.247184
20
10.636159
30
0
11
-2.25000000000001
21
3.89711431702997
31
0
210
0
220
0
230
1
40
0.989133
41
-1.04173434267506
42
-0.518135567076759
0
ELLIPSE
5
10E
100
AcDbEntity
8
1
62
256
6
ByLayer
370
18
48
1
60
0
100
AcDbEllipse
10
27.680096
20
10.886101
30
0
11
-1.7944863728671
21
3.10814157129579
31
0
210
0
220
0
230
1
40
0.989133
41
-2.78706359466939
42
-2.69329909511142
0
ELLIPSE
5
10F
100
AcDbEntity
8
1
62
256
6
ByLayer
370
18
48
1
60
0
100
AcDbEllipse
10
27.143332
20
10.632812
30
0
11
1.67707259421637
21
-2.90477494116409
31
0
210
0
220
0
230
1
40
0.989133
41
1.63410307828793
42
2.68454361033285
0
ELLIPSE
5
110
100
AcDbEntity
8
1
62
256
6
ByLayer
370
18
48
1
60
0
100
AcDbEllipse
10
27.143332
20
10.632812
30
0
11
1.67707259421637
21
-2.90477494116409
31
0
210
0
220
0
230
1
40
0.989133
41
0.293442535100602
42
1.32565101136745
0
ELLIPSE
5
111
100
AcDbEntity
8
1
62
256
6
ByLayer
370
18
48
1
60
0
100
AcDbEllipse
10
27.247184
20
10.636159
30
0
11
-2.25000000000001
21
3.89711431702997
31
0
210
0
220
0
230
1
40
0.989133
41
-2.7870635946694
42
-2.26346481907109
0
ELLIPSE
5
112
100
AcDbEntity
8
1
62
256
6
ByLayer
370
18
48
1
60
0
100
AcDbEllipse
10
26.71042
20
10.382871
30
0
11
-2.75000000000001
21
4.76313972081441
31
0
210
0
220
0
230
1
40
0.989133
41
2.43806077589083
42
2.62345708651304
0
ELLIPSE
5
113
100
AcDbEntity
8
1
62
256
6
ByLayer
370
18
48
1
60
0
100
AcDbEllipse
10
30.020984
20
10.830605
30
0
11
-1.09537195741766
21
1.83370641084223
31
0
210
0
220
0
230
1
40
0.675933
41
2.79474082939516
42
-2.467486917337
0
ELLIPSE
5
114
100
AcDbEntity
8
1
62
256
6
ByLayer
370
18
48
1
60
0
100
AcDbEllipse
10
27.680096
20
10.886101
30
0
11
-1.7944863728671
21
3.10814157129579
31
0
210
0
220
0
230
1
40
0.989133
41
-0.611900066634718
42
-0.518135567076755
0
ELLIPSE
5
115
100
AcDbEntity
8
1
62
256
6
ByLayer
370
18
48
1
60
0
100
AcDbEllipse
10
26.71042
20
10.382871
30
0
11
-2.75000000000001
21
4.76313972081441
31
0
210
0
220
0
230
1
40
0.989133
41
0.354529058920407
42
0.527284011149167
0
ELLIPSE
5
116
100
AcDbEntity
8
1
62
256
6
ByLayer
370
18
48
1
60
0
100
AcDbEllipse
10
27.054203
20
10.581354
30
0
11
2.38826859021799
21
-4.13660254037844
31
0
210
0
220
0
230
1
40
0.989133
41
-0.628578721298242
42
-0.611663450142642
0
ELLIPSE
5
117
100
AcDbEntity
8
1
62
256
6
ByLayer
370
18
48
1
60
0
100
AcDbEllipse
10
27.054203
20
10.581354
30
0
11
2.38826859021799
21
-4.13660254037844
31
0
210
0
220
0
230
1
40
0.989133
41
-2.6935357116035
42
-2.67756377635158
0
ELLIPSE
5
118
100
AcDbEntity
8
1
62
256
6
ByLayer
370
18
48
1
60
0
100
AcDbEllipse
10
27.247184
20
10.636159
30
0
11
-2.25000000000001
21
3.89711431702997
31
0
210
0
220
0
230
1
40
0.989133
41
-2.26346481907109
42
-1.04173434267506
0
ELLIPSE
5
119
100
AcDbEntity
8
1
62
256
6
ByLayer
370
18
48
1
60
0
100
AcDbEllipse
10
25.858768
20
6.124462
30
0
11
-3.28922491353079
21
-8.47598272707381
31
0
210
0
220
0
230
1
40
0.72417
41
-2.31045040092093
42
-2.2468797438101
0
ELLIPSE
5
11A
100
AcDbEntity
8
1
62
256
6
ByLayer
370
18
48
1
60
0
100
AcDbEllipse
10
22.961324
20
12.236448
30
0
11
-8.62477995840073
21
2.20549996058825
31
0
210
0
220
0
230
1
40
0.72878
41
2.19022532319272
42
2.25379598242678
0
ELLIPSE
5
11B
100
AcDbEntity
8
1
62
256
6
ByLayer
370
18
48
1
60
0
100
AcDbEllipse
10
14.039736
20
3.583308
30
0
11
0.2125
21
-0.368060796608386
31
0
210
0
220
0
230
1
40
0.989133
41
1.1187196793208
42
1.83695612976656
0
ELLIPSE
5
11C
100
AcDbEntity
8
1
62
256
6
ByLayer
370
18
48
1
60
0
100
AcDbEllipse
10
14.645205
20
4.71842
30
0
11
0.575000000000001
21
-0.995929214352104
31
0
210
0
220
0
230
1
40
0.989133
41
-0.689095944883923
42
-0.528342736416279
0
ELLIPSE
5
11D
100
AcDbEntity
8
1
62
256
6
ByLayer
370
18
48
1
60
0
100
AcDbEllipse
10
14.645205
20
4.71842
30
0
11
0.575000000000001
21
-0.995929214352104
31
0
210
0
220
0
230
1
40
0.989133
41
-1.3859407817244
42
-0.974883039174104
0
ELLIPSE
5
11E
100
AcDbEntity
8
1
62
256
6
ByLayer
370
18
48
1
60
0
100
AcDbEllipse
10
14.645205
20
4.71842
30
0
11
0.575000000000001
21
-0.995929214352104
31
0
210
0
220
0
230
1
40
0.989133
41
-1.97862161818787
42
-1.3859407817244
0
ELLIPSE
5
11F
100
AcDbEntity
8
1
62
256
6
ByLayer
370
18
48
1
60
0
100
AcDbEllipse
10
14.645205
20
4.71842
30
0
11
0.575000000000001
21
-0.995929214352104
31
0
210
0
220
0
230
1
40
0.989133
41
-0.528342736416276
42
0
0
ELLIPSE
5
120
100
AcDbEntity
8
1
62
256
6
ByLayer
370
18
48
1
60
0
100
AcDbEllipse
10
14.645205
20
4.71842
30
0
11
0.575000000000001
21
-0.995929214352104
31
0
210
0
220
0
230
1
40
0.989133
41
0
42
-2.63256344884107
0
ELLIPSE
5
121
100
AcDbEntity
8
1
62
256
6
ByLayer
370
18
48
1
60
0
100
AcDbEllipse
10
14.93169
20
4.883822
30
0
11
0.587500000000001
21
-1.01757984944672
31
0
210
0
220
0
230
1
40
0.989133
41
0.90215044541973
42
1.02863814881712
0
ELLIPSE
5
122
100
AcDbEntity
8
1
62
256
6
ByLayer
370
18
48
1
60
0
100
AcDbEllipse
10
14.835863
20
3.6369
30
0
11
-0.19
21
0.329089653438086
31
0
210
0
220
0
230
1
40
0.989133
41
1.11871967932078
42
-2.32952373867371
0
ELLIPSE
5
123
100
AcDbEntity
8
1
62
256
6
ByLayer
370
18
48
1
60
0
100
AcDbEllipse
10
14.511511
20
4.641232
30
0
11
2
21
-3.46410161513775
31
0
210
0
220
0
230
1
40
0.989133
41
3.1415854554606
42
-0.528342791207616
0
ELLIPSE
5
124
100
AcDbEntity
8
1
62
256
6
ByLayer
370
18
48
1
60
0
100
AcDbEllipse
10
14.511511
20
4.641232
30
0
11
2
21
-3.46410161513775
31
0
210
0
220
0
230
1
40
0.989133
41
-0.528343043247702
42
-2.24484073350127E-16
0
ELLIPSE
5
125
100
AcDbEntity
8
1
62
256
6
ByLayer
370
18
48
1
60
0
100
AcDbEllipse
10
14.250165
20
6.321459
30
0
11
0.2125
21
-0.368060796608386
31
0
210
0
220
0
230
1
40
0.989133
41
-0.975675423072273
42
-0.257438972626582
0
ELLIPSE
5
126
100
AcDbEntity
8
1
62
256
6
ByLayer
370
18
48
1
60
0
100
AcDbEllipse
10
14.93169
20
4.883822
30
0
11
0.587500000000001
21
-1.01757984944672
31
0
210
0
220
0
230
1
40
0.989133
41
-1.19224465697348
42
-1.06575695357606
0
ELLIPSE
5
127
100
AcDbEntity
8
1
62
256
6
ByLayer
370
18
48
1
60
0
100
AcDbEllipse
10
16.05442
20
5.413618
30
0
11
-0.19
21
0.329089653438086
31
0
210
0
220
0
230
1
40
0.989133
41
-3.07007052546555
42
-0.23512863628063
0
ELLIPSE
5
128
100
AcDbEntity
8
1
62
256
6
ByLayer
370
18
48
1
60
0
100
AcDbEllipse
10
13.358211
20
5.020944
30
0
11
0.2125
21
-0.368060796608386
31
0
210
0
220
0
230
1
40
0.989133
41
0.0715221281242557
42
0.789758578569958
0
ELLIPSE
5
129
100
AcDbEntity
8
1
62
256
6
ByLayer
370
18
48
1
60
0
100
AcDbEllipse
10
15.537159
20
6.018934
30
0
11
0.2125
21
-0.368060796608386
31
0
210
0
220
0
230
1
40
0.989133
41
-2.02287297426896
42
-0.23512863628057
0
ELLIPSE
5
12A
100
AcDbEntity
8
1
62
256
6
ByLayer
370
18
48
1
60
0
100
AcDbEllipse
10
15.613215
20
3.446186
30
0
11
0.2125
21
-0.368060796608386
31
0
210
0
220
0
230
1
40
0.989133
41
-3.04776018911954
42
-2.32952373867384
0
ELLIPSE
5
12B
100
AcDbEntity
8
1
62
256
6
ByLayer
370
18
48
1
60
0
100
AcDbEllipse
10
14.741032
20
5.965342
30
0
11
-0.19
21
0.329089653438086
31
0
210
0
220
0
230
1
40
0.989133
41
-2.02287297426898
42
-0.455680381069794
0
ELLIPSE
5
12C
100
AcDbEntity
8
1
62
256
6
ByLayer
370
18
48
1
60
0
100
AcDbEllipse
10
13.96368
20
6.156056
30
0
11
0.2125
21
-0.368060796608386
31
0
210
0
220
0
230
1
40
0.989133
41
-0.975675423072358
42
-1.32040314896093E-05
0
ELLIPSE
5
12D
100
AcDbEntity
8
1
62
256
6
ByLayer
370
18
48
1
60
0
100
AcDbEllipse
10
14.821324
20
4.820103
30
0
11
-2.00000000000001
21
3.46410161513775
31
0
210
0
220
0
230
1
40
0.989133
41
0
42
6.28318530717959
0
ELLIPSE
5
12E
100
AcDbEntity
8
1
62
256
6
ByLayer
370
18
48
1
60
0
100
AcDbEllipse
10
14.039736
20
3.583308
30
0
11
0.2125
21
-0.368060796608386
31
0
210
0
220
0
230
1
40
0.989133
41
2.1882275668634
42
2.90646401730925
0
ELLIPSE
5
12F
100
AcDbEntity
8
1
62
256
6
ByLayer
370
18
48
1
60
0
100
AcDbEllipse
10
14.549378
20
3.471497
30
0
11
-0.19
21
0.329089653438086
31
0
210
0
220
0
230
1
40
0.989133
41
-2.68597447644307
42
-2.32952373867376
0
ELLIPSE
5
130
100
AcDbEntity
8
1
62
256
6
ByLayer
370
18
48
1
60
0
100
AcDbEllipse
10
15.958593
20
4.166695
30
0
11
-0.19
21
0.329089653438086
31
0
210
0
220
0
230
1
40
0.989133
41
2.16591723051738
42
-1.28232618747722
0
ELLIPSE
5
131
100
AcDbEntity
8
1
62
256
6
ByLayer
370
18
48
1
60
0
100
AcDbEllipse
10
14.536977
20
4.655934
30
0
11
0.575000000000001
21
-0.995929214352104
31
0
210
0
220
0
230
1
40
0.989133
41
0.0548726861812098
42
3.08670615368099
0
ELLIPSE
5
132
100
AcDbEntity
8
1
62
256
6
ByLayer
370
18
48
1
60
0
100
AcDbEllipse
10
14.93169
20
4.883822
30
0
11
0.587500000000001
21
-1.01757984944672
31
0
210
0
220
0
230
1
40
0.989133
41
2.99654554781293
42
3.12303325121032
0
ELLIPSE
5
133
100
AcDbEntity
8
1
62
256
6
ByLayer
370
18
48
1
60
0
100
AcDbEllipse
10
14.93169
20
4.883822
30
0
11
0.587500000000001
21
-1.01757984944672
31
0
210
0
220
0
230
1
40
0.989133
41
-2.23944220817006
42
-2.11295450477268
0
ELLIPSE
5
134
100
AcDbEntity
8
1
62
256
6
ByLayer
370
18
48
1
60
0
100
AcDbEllipse
10
15.32673
20
3.280784
30
0
11
0.2125
21
-0.368060796608386
31
0
210
0
220
0
230
1
40
0.989133
41
3.14157757193105
42
-2.32952373867384
0
ELLIPSE
5
135
100
AcDbEntity
8
1
62
256
6
ByLayer
370
18
48
1
60
0
100
AcDbEllipse
10
13.358211
20
5.020944
30
0
11
0.2125
21
-0.368060796608386
31
0
210
0
220
0
230
1
40
0.989133
41
1.14103001566686
42
1.85926646611268
0
ELLIPSE
5
136
100
AcDbEntity
8
1
62
256
6
ByLayer
370
18
48
1
60
0
100
AcDbEllipse
10
16.505169
20
4.7467
30
0
11
0.2125
21
-0.368060796608386
31
0
210
0
220
0
230
1
40
0.989133
41
-3.07007052546557
42
-2.35183407501984
0
ELLIPSE
5
137
100
AcDbEntity
8
1
62
256
6
ByLayer
370
18
48
1
60
0
100
AcDbEllipse
10
15.672108
20
4.001293
30
0
11
-0.19
21
0.329089653438086
31
0
210
0
220
0
230
1
40
0.989133
41
-2.68597680944785
42
-1.28232618747723
0
ELLIPSE
5
138
100
AcDbEntity
8
1
62
256
6
ByLayer
370
18
48
1
60
0
100
AcDbEllipse
10
15.027517
20
6.130745
30
0
11
-0.19
21
0.329089653438086
31
0
210
0
220
0
230
1
40
0.989133
41
-2.02287297426903
42
0.812068914915978
0
ELLIPSE
5
139
100
AcDbEntity
8
1
62
256
6
ByLayer
370
18
48
1
60
0
100
AcDbEllipse
10
14.93169
20
4.883822
30
0
11
-1.15
21
1.99185842870421
31
0
210
0
220
0
230
1
40
0.989133
41
0
42
6.28318530717959
0
ELLIPSE
5
13A
100
AcDbEntity
8
1
62
256
6
ByLayer
370
18
48
1
60
0
100
AcDbEllipse
10
14.93169
20
4.883822
30
0
11
0.587500000000001
21
-1.01757984944672
31
0
210
0
220
0
230
1
40
0.989133
41
1.94934799661634
42
2.07583570001373
0
ELLIPSE
5
13B
100
AcDbEntity
8
1
62
256
6
ByLayer
370
18
48
1
60
0
100
AcDbEllipse
10
16.218683
20
4.581298
30
0
11
0.2125
21
-0.368060796608386
31
0
210
0
220
0
230
1
40
0.989133
41
-3.07007052546557
42
-1.28232618747728
0
ELLIPSE
5
13C
100
AcDbEntity
8
1
62
256
6
ByLayer
370
18
48
1
60
0
100
AcDbEllipse
10
14.250165
20
6.321459
30
0
11
0.2125
21
-0.368060796608386
31
0
210
0
220
0
230
1
40
0.989133
41
0.0938324644703155
42
0.812068914916014
0
ELLIPSE
5
13D
100
AcDbEntity
8
1
62
256
6
ByLayer
370
18
48
1
60
0
100
AcDbEllipse
10
16.505169
20
4.7467
30
0
11
0.2125
21
-0.368060796608386
31
0
210
0
220
0
230
1
40
0.989133
41
-2.000562637923
42
-1.28232618747722
0
ELLIPSE
5
13E
100
AcDbEntity
8
1
62
256
6
ByLayer
370
18
48
1
60
0
100
AcDbEllipse
10
15.823644
20
6.184337
30
0
11
0.2125
21
-0.368060796608386
31
0
210
0
220
0
230
1
40
0.989133
41
-2.02287297426895
42
-1.3046365238232
0
ELLIPSE
5
13F
100
AcDbEntity
8
1
62
256
6
ByLayer
370
18
48
1
60
0
100
AcDbEllipse
10
13.80896
20
4.354027
30
0
11
-0.19
21
0.329089653438086
31
0
210
0
220
0
230
1
40
0.989133
41
0.0715221281241996
42
2.90646401730921
0
ELLIPSE
5
140
100
AcDbEntity
8
1
62
256
6
ByLayer
370
18
48
1
60
0
100
AcDbEllipse
10
13.904787
20
5.600949
30
0
11
-0.19
21
0.329089653438086
31
0
210
0
220
0
230
1
40
0.989133
41
-0.975675423072512
42
1.85926646611262
0
ELLIPSE
5
141
100
AcDbEntity
8
1
62
256
6
ByLayer
370
18
48
1
60
0
100
AcDbEllipse
10
14.93169
20
4.883822
30
0
11
0.587500000000001
21
-1.01757984944672
31
0
210
0
220
0
230
1
40
0.989133
41
-0.145047105776895
42
-0.0185594023794759
0
ELLIPSE
5
142
100
AcDbEntity
8
1
62
256
6
ByLayer
370
18
48
1
60
0
100
AcDbEllipse
10
15.767935
20
5.248215
30
0
11
-0.19
21
0.329089653438086
31
0
210
0
220
0
230
1
40
0.989133
41
-3.07007052546559
42
-0.235128636280593
0
ELLIPSE
5
143
100
AcDbEntity
8
1
62
256
6
ByLayer
370
18
48
1
60
0
100
AcDbEllipse
10
15.613215
20
3.446186
30
0
11
0.2125
21
-0.368060796608386
31
0
210
0
220
0
230
1
40
0.989133
41
2.16591723051734
42
2.88415368096311
0
ELLIPSE
5
144
100
AcDbEntity
8
1
62
256
6
ByLayer
370
18
48
1
60
0
100
AcDbEllipse
10
15.823644
20
6.184337
30
0
11
0.2125
21
-0.368060796608386
31
0
210
0
220
0
230
1
40
0.989133
41
-0.95336508672628
42
-0.235128636280533
0
ELLIPSE
5
145
100
AcDbEntity
8
1
62
256
6
ByLayer
370
18
48
1
60
0
100
AcDbEllipse
10
13.618302
20
5.435547
30
0
11
-0.19
21
0.329089653438086
31
0
210
0
220
0
230
1
40
0.989133
41
-0.9756754230725
42
-0.455641873720746
0
ELLIPSE
5
146
100
AcDbEntity
8
1
62
256
6
ByLayer
370
18
48
1
60
0
100
AcDbEllipse
10
33.419894
20
14.306156
30
0
11
-0.396875000000001
21
0.687407664253898
31
0
210
0
220
0
230
1
40
0.989133
41
-2.35073128167082
42
-0.779934954875906
0
ELLIPSE
5
147
100
AcDbEntity
8
1
62
256
6
ByLayer
370
18
48
1
60
0
100
AcDbEllipse
10
30.675997
20
3.599214
30
0
11
-0.396875000000001
21
0.687407664253898
31
0
210
0
220
0
230
1
40
0.989133
41
2.3616576987139
42
-2.35073128167079
0
ELLIPSE
5
148
100
AcDbEntity
8
1
62
256
6
ByLayer
370
18
48
1
60
0
100
AcDbEllipse
10
22.744844
20
17.166527
30
0
11
-0.396875000000001
21
0.687407664253898
31
0
210
0
220
0
230
1
40
0.989133
41
-0.779934954875887
42
0.790861371918994
0
POINT
5
6C
100
AcDbEntity
8
2
62
256
6
ByLayer
370
18
48
1
60
0
100
AcDbPoint
10
34.207183
20
14.9125
30
0
39
0
210
0
220
0
230
1
50
360
0
POINT
5
6E
100
AcDbEntity
8
80
62
256
6
ByLayer
370
18
48
1
60
0
100
AcDbPoint
10
0
20
0
30
0
39
0
210
0
220
0
230
1
50
360
0
POINT
5
70
100
AcDbEntity
8
81
62
256
6
ByLayer
370
18
48
1
60
0
100
AcDbPoint
10
34.207183
20
14.9125
30
0
39
0
210
0
220
0
230
1
50
360
0
SPLINE
5
149
100
AcDbEntity
8
1
62
256
6
ByLayer
370
18
48
1
60
0
100
AcDbSpline
70
4
71
3
72
8
73
4
40
0
40
0
40
0
40
0
40
1
40
1
40
1
40
1
41
1
10
6.07446672739093
20
-5.27370941590655
30
0
41
1
10
6.28407117725226
20
-5.54485862679059
30
0
41
1
10
6.520633334683
20
-5.76570099876309
30
0
41
1
10
6.79804725236193
20
-5.93174455329699
30
0
0
SPLINE
5
14A
100
AcDbEntity
8
1
62
256
6
ByLayer
370
18
48
1
60
0
100
AcDbSpline
70
4
71
2
72
6
73
3
40
0
40
0
40
0
40
1
40
1
40
1
41
1.0087712828333
10
30.3975431958853
20
11.4041150066363
30
0
41
1.0087712828333
10
30.0977105930194
20
12.0365940097093
30
0
41
1.0087712828333
10
29.7978779901532
20
12.6690730127823
30
0
0
SPLINE
5
14B
100
AcDbEntity
8
1
62
256
6
ByLayer
370
18
48
1
60
0
100
AcDbSpline
70
4
71
3
72
12
73
8
40
0
40
0
40
0
40
0
40
0.407174084711927
40
0.407174084711927
40
0.69951127243097
40
0.69951127243097
40
1
40
1
40
1
40
1
41
1
10
30.3864738177819
20
11.3960950747565
30
0
41
1
10
30.3924566976345
20
11.3571668974785
30
0
41
1
10
30.3969888051282
20
11.3167233216479
30
0
41
1
10
30.4018804436823
20
11.2466693780352
30
0
41
1
10
30.4030728084399
20
11.2170016354711
30
0
41
1
10
30.4036876717112
20
11.1572179622327
30
0
41
1
10
30.4030607490742
20
11.1268854713245
30
0
41
1
10
30.401517419152
20
11.0972997822516
30
0
0
SPLINE
5
14C
100
AcDbEntity
8
1
62
256
6
ByLayer
370
18
48
1
60
0
100
AcDbSpline
70
4
71
3
72
12
73
8
40
0
40
0
40
0
40
0
40
0.252749620142202
40
0.252749620142202
40
0.674711209428771
40
0.674711209428771
40
1
40
1
40
1
40
1
41
1
10
6.79804725233981
20
-5.93174455329387
30
0
41
1
10
6.88055926329662
20
-5.9811313602203
30
0
41
1
10
6.97041469429712
20
-6.02603330279518
30
0
41
1
10
7.22686433701455
20
-6.12865772926082
30
0
41
1
10
7.4082760542106
20
-6.17572069318757
30
0
41
1
10
7.75030638966939
20
-6.21406294153192
30
0
41
1
10
7.90953596037264
20
-6.21576140960329
30
0
41
1
10
8.06882223308889
20
-6.2015821425465
30
0
0
SPLINE
5
14D
100
AcDbEntity
8
1
62
256
6
ByLayer
370
18
48
1
60
0
100
AcDbSpline
70
4
71
3
72
11
73
7
40
0
40
0
40
0
40
0
40
0.268536746003808
40
0.487975722202666
40
0.707414698401523
40
1
40
1
40
1
40
1
41
1.0249090909279
10
18.5335888826834
20
8.52421749530472
30
0
41
1.0229768070834
10
19.7598591085949
20
9.06555162864214
30
0
41
1.0191099966158
10
21.9126516150903
20
9.9743583249398
30
0
41
1.01332460673153
10
25.4997919617465
20
11.2009803621391
30
0
41
1.01203732298747
10
27.37406856512
20
11.9746818916128
30
0
41
1.00929221524307
10
29.0473657911946
20
12.4892752533682
30
0
41
1.0087712828333
10
29.7978779901532
20
12.6690730127823
30
0
0
SPLINE
5
14E
100
AcDbEntity
8
1
62
256
6
ByLayer
370
18
48
1
60
0
100
AcDbSpline
70
4
71
3
72
13
73
9
40
0
40
0
40
0
40
0
40
0.250661764437226
40
0.250661764437226
40
0.250661764437226
40
0.653096502165464
40
0.653096502165464
40
1
40
1
40
1
40
1
41
1
10
19.9909461193591
20
5.45000939693475
30
0
41
1
10
19.9815200447199
20
5.7414656974546
30
0
41
1
10
19.9412213349779
20
6.03417735208373
30
0
41
1
10
19.8716349922538
20
6.31851971683429
30
0
41
1
10
19.7608810657108
20
6.77108026457748
30
0
41
1
10
19.5722311396615
20
7.21241793814264
30
0
41
1
10
19.1044769179334
20
7.94661022224142
30
0
41
1
10
18.8364535761768
20
8.25928333701535
30
0
41
1
10
18.5335889301284
20
8.52421751624922
30
0
0
SPLINE
5
14F
100
AcDbEntity
8
1
62
256
6
ByLayer
370
18
48
1
60
0
100
AcDbSpline
70
4
71
3
72
8
73
4
40
0
40
0
40
0
40
0
40
1
40
1
40
1
40
1
41
1
10
30.0808877984831
20
9.72912323143441
30
0
41
1
10
30.1604071075455
20
10.0090871614581
30
0
41
1
10
30.2393651126035
20
10.2913591283133
30
0
41
1
10
30.3166646475169
20
10.5746961827148
30
0
0
SPLINE
5
150
100
AcDbEntity
8
1
62
256
6
ByLayer
370
18
48
1
60
0
100
AcDbSpline
70
4
71
3
72
8
73
4
40
0
40
0
40
0
40
0
40
1
40
1
40
1
40
1
41
1
10
6.73012439582305
20
6.37444211501165
30
0
41
1
10
6.07224627790328
20
6.85590879656283
30
0
41
1
10
5.58328135418901
20
7.26954994191118
30
0
41
1
10
5.07132349251839
20
7.3660335620452
30
0
0
SPLINE
5
151
100
AcDbEntity
8
1
62
256
6
ByLayer
370
18
48
1
60
0
100
AcDbSpline
70
4
71
3
72
10
73
6
40
0
40
0
40
0
40
0
40
0.474805431212336
40
0.474805431212336
40
1
40
1
40
1
40
1
41
1
10
11.9441440197722
20
0.53747323416772
30
0
41
1
10
12.1266988813447
20
0.567262474977468
30
0
41
1
10
12.3125535306195
20
0.57896753487384
30
0
41
1
10
12.6980555523717
20
0.564076023802443
30
0
41
1
10
12.8995905880974
20
0.533109968804951
30
0
41
1
10
13.0911060118997
20
0.48014179225791
30
0
0
SPLINE
5
152
100
AcDbEntity
8
1
62
256
6
ByLayer
370
18
48
1
60
0
100
AcDbSpline
70
4
71
3
72
13
73
9
40
0
40
0
40
0
40
0
40
0.287856992129665
40
0.287856992129665
40
0.605626331970859
40
0.605626331970859
40
0.605626331970859
40
1
40
1
40
1
40
1
41
1
10
18.5335889301284
20
8.52421751624922
30
0
41
1
10
18.2697149267443
20
8.75498147436599
30
0
41
1
10
17.9662869196168
20
8.9486014615556
30
0
41
1
10
17.2946050386589
20
9.25986216450335
30
0
41
1
10
16.9152335495761
20
9.37209724974929
30
0
41
1
10
16.5316265776658
20
9.43265474330067
30
0
41
1
10
16.0577708574265
20
9.50745920939201
30
0
41
1
10
15.5638709078182
20
9.50513113891606
30
0
41
1
10
15.0914602133773
20
9.42569150796649
30
0
0
SPLINE
5
153
100
AcDbEntity
8
1
62
256
6
ByLayer
370
18
48
1
60
0
100
AcDbSpline
70
4
71
3
72
8
73
4
40
0
40
0
40
0
40
0
40
1
40
1
40
1
40
1
41
1
10
8.88844013105427
20
4.96409595926852
30
0
41
1
10
9.14810694106853
20
5.08805304179393
30
0
41
1
10
9.39910540613698
20
5.24640332654045
30
0
41
1
10
9.62202006945597
20
5.43585528825068
30
0
0
SPLINE
5
154
100
AcDbEntity
8
1
62
256
6
ByLayer
370
18
48
1
60
0
100
AcDbSpline
70
4
71
3
72
8
73
4
40
0
40
0
40
0
40
0
40
1
40
1
40
1
40
1
41
1
10
10.5856710015281
20
-4.26615380436664
30
0
41
1
10
10.8288201345668
20
-3.78753866620266
30
0
41
1
10
10.8078479783717
20
-3.14053978904113
30
0
41
1
10
10.8466483200897
20
-2.30911972202344
30
0
0
SPLINE
5
155
100
AcDbEntity
8
1
62
256
6
ByLayer
370
18
48
1
60
0
100
AcDbSpline
70
4
71
3
72
10
73
6
40
0
40
0
40
0
40
0
40
0.494168352806892
40
0.494168352806892
40
1
40
1
40
1
40
1
41
1
10
2.60050347453313
20
6.86330331433291
30
0
41
1
10
2.51230081012238
20
6.80698507384693
30
0
41
1
10
2.42322374878137
20
6.74447644332298
30
0
41
1
10
2.25041599506039
20
6.60832084387658
30
0
41
1
10
2.16569787862011
20
6.5334742838393
30
0
41
1
10
2.08774870976032
20
6.45522663400774
30
0
0
SPLINE
5
156
100
AcDbEntity
8
1
62
256
6
ByLayer
370
18
48
1
60
0
100
AcDbSpline
70
4
71
3
72
8
73
4
40
0
40
0
40
0
40
0
40
1
40
1
40
1
40
1
41
1
10
17.5360609163847
20
1.57777667062436
30
0
41
1
10
17.8897204609346
20
1.74466207094685
30
0
41
1
10
18.213473599218
20
1.95862851296636
30
0
41
1
10
18.509746735746
20
2.21501984287986
30
0
0
SPLINE
5
157
100
AcDbEntity
8
1
62
256
6
ByLayer
370
18
48
1
60
0
100
AcDbSpline
70
4
71
3
72
12
73
8
40
0
40
0
40
0
40
0
40
0.322961595764274
40
0.322961595764274
40
0.710971356423586
40
0.710971356423586
40
1
40
1
40
1
40
1
41
1
10
18.5097467378421
20
2.21501984469381
30
0
41
1
10
18.8065227621901
20
2.47383267088839
30
0
41
1
10
19.0715734850799
20
2.77686851127609
30
0
41
1
10
19.5514957188432
20
3.49910138190097
30
0
41
1
10
19.7533324443588
20
3.94050073968319
30
0
41
1
10
19.9595797743798
20
4.74008936528617
30
0
41
1
10
20.0022550937171
20
5.09892171603116
30
0
41
1
10
19.9909461193591
20
5.45000939693475
30
0
0
SPLINE
5
158
100
AcDbEntity
8
1
62
256
6
ByLayer
370
18
48
1
60
0
100
AcDbSpline
70
4
71
2
72
6
73
3
40
0
40
0
40
0
40
1
40
1
40
1
41
1.02830968163241
10
13.6959832104859
20
11.4358510231013
30
0
41
0.915286811692244
10
14.2248713833812
20
10.9518148852694
30
0
41
0.941103849220746
10
15.0914602075852
20
9.42569151816688
30
0
0
SPLINE
5
159
100
AcDbEntity
8
1
62
256
6
ByLayer
370
18
48
1
60
0
100
AcDbSpline
70
4
71
3
72
11
73
7
40
0
40
0
40
0
40
0
40
0.268536746558078
40
0.487975722590654
40
0.707414698623231
40
1
40
1
40
1
40
1
41
1.02490909094425
10
19.9909460628522
20
5.45000936867099
30
0
41
1.02297680709541
10
21.1896170963465
20
6.0495623628244
30
0
41
1.019109996622
10
23.2636268102849
20
7.1245566713697
30
0
41
1.01332460673153
10
26.5040898339625
20
9.08247386572767
30
0
41
1.01203732298747
10
28.3038549051592
20
10.0133530307856
30
0
41
1.00929221524307
10
29.7756113706519
20
10.9530846133687
30
0
41
1.0087712828333
10
30.3975431958853
20
11.4041150066363
30
0
0
SPLINE
5
15A
100
AcDbEntity
8
1
62
256
6
ByLayer
370
18
48
1
60
0
100
AcDbSpline
70
4
71
3
72
12
73
8
40
0
40
0
40
0
40
0
40
0.252749620142198
40
0.252749620142198
40
0.674711209428764
40
0.674711209428764
40
1
40
1
40
1
40
1
41
1
10
1.47259973994767
20
5.3019695303625
30
0
41
1
10
1.48743227802817
20
5.39534853717396
30
0
41
1
10
1.51034279194079
20
5.49166290668728
30
0
41
1
10
1.59518694557318
20
5.75103003024282
30
0
41
1
10
1.67467088832041
20
5.91897763071958
30
0
41
1
10
1.86291954677506
20
6.20502866326865
30
0
41
1
10
1.96286153545583
20
6.32839381540975
30
0
41
1
10
2.07489683961501
20
6.44224618406238
30
0
0
SPLINE
5
15B
100
AcDbEntity
8
1
62
256
6
ByLayer
370
18
48
1
60
0
100
AcDbSpline
70
4
71
2
72
6
73
3
40
0
40
0
40
0
40
1
40
1
40
1
41
0.941103849192081
10
18.5097467428253
20
2.21501983183813
30
0
41
0.915286811754989
10
19.1516108748228
20
0.559151604892642
30
0
41
1.02830968163241
10
19.2103307194957
20
-0.196336343310588
30
0
0
SPLINE
5
15C
100
AcDbEntity
8
1
62
256
6
ByLayer
370
18
48
1
60
0
100
AcDbSpline
70
4
71
3
72
12
73
8
40
0
40
0
40
0
40
0
40
0.418782075282824
40
0.418782075282824
40
0.706182120811258
40
0.706182120811258
40
1
40
1
40
1
40
1
41
1
10
29.5626288441197
20
12.8668852261096
30
0
41
1
10
29.5957137360524
20
12.8427276658084
30
0
41
1
10
29.6288748458892
20
12.8161375858253
30
0
41
1
10
29.6823995824329
20
12.7692236914254
30
0
41
1
10
29.7037319333157
20
12.7493647270067
30
0
41
1
10
29.7451817889703
20
12.708430698969
30
0
41
1
10
29.7653786020095
20
12.6872227148266
30
0
41
1
10
29.7845262714362
20
12.6658675423794
30
0
0
SPLINE
5
15D
100
AcDbEntity
8
1
62
256
6
ByLayer
370
18
48
1
60
0
100
AcDbSpline
70
4
71
3
72
18
73
14
40
0
40
0
40
0
40
0
40
0.148865436690717
40
0.148865436690717
40
0.336868556410375
40
0.336868556410375
40
0.519491108027862
40
0.519491108027862
40
0.711563055534833
40
0.711563055534833
40
0.930180979444789
40
0.930180979444789
40
1
40
1
40
1
40
1
41
1
10
25.6123740919273
20
4.78246438220296
30
0
41
1
10
25.6107016606388
20
4.78792200619932
30
0
41
1
10
25.6110546326469
20
4.79552212998365
30
0
41
1
10
25.6167005968878
20
4.81696380969476
30
0
41
1
10
25.6233972010439
20
4.83226533248373
30
0
41
1
10
25.6424322891578
20
4.86640092615664
30
0
41
1
10
25.6548253937656
20
4.88553589936009
30
0
41
1
10
25.6840656430177
20
4.92631560172373
30
0
41
1
10
25.7014350427057
20
4.94851269183604
30
0
41
1
10
25.7407295982151
20
4.99551530476924
30
0
41
1
10
25.7633974244989
20
5.02080843165942
30
0
41
1
10
25.7936638617807
20
5.05271113029846
30
0
41
1
10
25.8010719304371
20
5.06037789880759
30
0
41
1
10
25.8084993760457
20
5.06793054450671
30
0
0
SPLINE
5
15E
100
AcDbEntity
8
1
62
256
6
ByLayer
370
18
48
1
60
0
100
AcDbSpline
70
4
71
3
72
8
73
4
40
0
40
0
40
0
40
0
40
1
40
1
40
1
40
1
41
1
10
2.87444888067938
20
7.02257459505256
30
0
41
1
10
2.78146083740364
20
6.97349670992276
30
0
41
1
10
2.69007834553844
20
6.92049772178626
30
0
41
1
10
2.60050347453313
20
6.86330331433291
30
0
0
SPLINE
5
15F
100
AcDbEntity
8
1
62
256
6
ByLayer
370
18
48
1
60
0
100
AcDbSpline
70
4
71
3
72
16
73
12
40
0
40
0
40
0
40
0
40
0.249999999999999
40
0.249999999999999
40
0.499999999999997
40
0.499999999999997
40
0.749999999999996
40
0.749999999999996
40
0.874999999999998
40
0.874999999999998
40
1
40
1
40
1
40
1
41
1
10
28.3023359182405
20
13.4808724053896
30
0
41
1
10
27.234276860855
20
13.2597956974419
30
0
41
1
10
26.1087524931541
20
13.0545098102444
30
0
41
1
10
23.6219721284764
20
12.708714435431
30
0
41
1
10
22.3683707075986
20
12.5367096319245
30
0
41
1
10
19.812143087193
20
12.2225882033417
30
0
41
1
10
18.4411696193645
20
12.0909748072905
30
0
41
1
10
16.4441087698949
20
12.0245594958897
30
0
41
1
10
15.7887810297728
20
12.0253986029973
30
0
41
1
10
14.6210344455058
20
12.0887157974446
30
0
41
1
10
14.1206483746701
20
12.1509773199037
30
0
41
1
10
13.702008120047
20
12.2314394301389
30
0
0
SPLINE
5
160
100
AcDbEntity
8
1
62
256
6
ByLayer
370
18
48
1
60
0
100
AcDbSpline
70
4
71
3
72
18
73
14
40
0
40
0
40
0
40
0
40
0.0384430513829003
40
0.0384430513829003
40
0.29450576709938
40
0.29450576709938
40
0.507931675708706
40
0.507931675708706
40
0.72307914709597
40
0.72307914709597
40
0.912685296049719
40
0.912685296049719
40
1
40
1
40
1
40
1
41
1
10
21.9906006119245
20
13.1215604069138
30
0
41
1
10
21.9847762991619
20
13.1210437780133
30
0
41
1
10
21.978931454911
20
13.1205510640299
30
0
41
1
10
21.9343978735857
20
13.1169969544004
30
0
41
1
10
21.8944989289358
20
13.1149826382119
30
0
41
1
10
21.8249257954637
20
13.1140034152615
30
0
41
1
10
21.7938988116522
20
13.1145917349549
30
0
41
1
10
21.738597185841
20
13.118112134327
30
0
41
1
10
21.713583719336
20
13.121134391142
30
0
41
1
10
21.6772229769447
20
13.128790935885
30
0
41
1
10
21.6641266847038
20
13.1332957432961
30
0
41
1
10
21.6522496365518
20
13.1406246491276
30
0
41
1
10
21.6494882137828
20
13.1430810280597
30
0
41
1
10
21.6477438902413
20
13.1456154656565
30
0
0
SPLINE
5
161
100
AcDbEntity
8
1
62
256
6
ByLayer
370
18
48
1
60
0
100
AcDbSpline
70
4
71
3
72
16
73
12
40
0
40
0
40
0
40
0
40
0.125
40
0.125
40
0.25
40
0.25
40
0.5
40
0.5
40
0.75
40
0.75
40
1
40
1
40
1
40
1
41
1
10
19.852859801704
20
-0.74341554718464
30
0
41
1
10
20.0504185320127
20
-0.356550272968917
30
0
41
1
10
20.3136732900931
20
0.079597275613736
30
0
41
1
10
21.0034027057611
20
1.0463337963819
30
0
41
1
10
21.4163066431506
20
1.55889696802873
30
0
41
1
10
22.7418704411334
20
3.08152800725532
30
0
41
1
10
23.7037774032351
20
4.04188337790353
30
0
41
1
10
25.5590399021419
20
5.79129500439188
30
0
41
1
10
26.480208218873
20
6.63279117322131
30
0
41
1
10
28.32127068385
20
8.30923622281105
30
0
41
1
10
29.2207246663073
20
9.05517593972422
30
0
41
1
10
30.0808877984831
20
9.72912323143441
30
0
0
SPLINE
5
162
100
AcDbEntity
8
1
62
256
6
ByLayer
370
18
48
1
60
0
100
AcDbSpline
70
4
71
3
72
8
73
4
40
0
40
0
40
0
40
0
40
1
40
1
40
1
40
1
41
1
10
13.9809029109733
20
9.07717056420429
30
0
41
1
10
14.3345624556392
20
9.24405596458152
30
0
41
1
10
14.7054034978433
20
9.35869328042472
30
0
41
1
10
15.091460211026
20
9.42569150755841
30
0
0
SPLINE
5
163
100
AcDbEntity
8
1
62
256
6
ByLayer
370
18
48
1
60
0
100
AcDbSpline
70
4
71
3
72
8
73
4
40
0
40
0
40
0
40
0
40
1
40
1
40
1
40
1
41
1
10
29.1052272171592
20
13.1301512296773
30
0
41
1
10
29.2680364290615
20
13.0577807976266
30
0
41
1
10
29.4232803269608
20
12.9674642569586
30
0
41
1
10
29.5626288441198
20
12.8668852261096
30
0
0
SPLINE
5
164
100
AcDbEntity
8
1
62
256
6
ByLayer
370
18
48
1
60
0
100
AcDbSpline
70
4
71
3
72
12
73
8
40
0
40
0
40
0
40
0
40
0.5
40
0.5
40
0.75
40
0.75
40
1
40
1
40
1
40
1
41
1
10
6.73012439581908
20
6.37444211500221
30
0
41
1
10
6.6698301190786
20
6.2346154431078
30
0
41
1
10
6.61253624971783
20
6.09557300447426
30
0
41
1
10
6.53143866874115
20
5.8878867182645
30
0
41
1
10
6.50515007642747
20
5.81885418255885
30
0
41
1
10
6.45532753539851
20
5.68053030866042
30
0
41
1
10
6.3938552999129
20
5.60975720645518
30
0
41
1
10
6.42956179750593
20
5.53443647820808
30
0
0
SPLINE
5
165
100
AcDbEntity
8
1
62
256
6
ByLayer
370
18
48
1
60
0
100
AcDbSpline
70
4
71
3
72
11
73
7
40
0
40
0
40
0
40
0
40
0.379738014043152
40
0.569607021064728
40
0.759476028086304
40
1
40
1
40
1
40
1
41
1.02830968163241
10
13.6959832104859
20
11.4358510231013
30
0
41
1.02566133279165
10
16.2291297241581
20
11.8618725180062
30
0
41
1.02050308371814
10
19.6120673113861
20
12.1045995048772
30
0
41
1.01332460673153
10
25.1717390400467
20
11.8126482262994
30
0
41
1.0120630214142
10
26.973759761825
20
12.6007149633932
30
0
41
1.00944729087556
10
28.8065493848665
20
12.7323109828317
30
0
41
1.00885690313847
10
29.5626288367323
20
12.8668852247947
30
0
0
SPLINE
5
166
100
AcDbEntity
8
1
62
256
6
ByLayer
370
18
48
1
60
0
100
AcDbSpline
70
4
71
3
72
10
73
6
40
0
40
0
40
0
40
0
40
0.325288492889666
40
0.325288492889666
40
1
40
1
40
1
40
1
41
1
10
1.51574171267902
20
4.34264926233007
30
0
41
1
10
1.49142155167908
20
4.44964140992229
30
0
41
1
10
1.47319190028293
20
4.55522785868544
30
0
41
1
10
1.43674140671692
20
4.87622842244733
30
0
41
1
10
1.43905015632345
20
5.09075640005057
30
0
41
1
10
1.47259973995898
20
5.30196953038214
30
0
0
SPLINE
5
167
100
AcDbEntity
8
1
62
256
6
ByLayer
370
18
48
1
60
0
100
AcDbSpline
70
4
71
3
72
8
73
4
40
0
40
0
40
0
40
0
40
1
40
1
40
1
40
1
41
1
10
19.8528598016944
20
-0.743415547189073
30
0
41
1
10
19.6591938262291
20
-0.834196422374106
30
0
41
1
10
19.4659617087572
20
-0.924752608200549
30
0
41
1
10
19.2739367715825
20
-1.01469010518096
30
0
0
SPLINE
5
168
100
AcDbEntity
8
1
62
256
6
ByLayer
370
18
48
1
60
0
100
AcDbSpline
70
4
71
3
72
16
73
12
40
0
40
0
40
0
40
0
40
0.0076436986798979
40
0.0076436986798979
40
0.0409116539642729
40
0.0409116539642729
40
0.185161591066358
40
0.185161591066358
40
0.761039897349149
40
0.761039897349149
40
1
40
1
40
1
40
1
41
1
10
5.56378939074551
20
-4.24230900613551
30
0
41
1
10
5.56532064310267
20
-4.24553909170675
30
0
41
1
10
5.56681267245642
20
-4.24879583651867
30
0
41
1
10
5.57448540330125
20
-4.26610698839306
30
0
41
1
10
5.57981929162816
20
-4.2801977730727
30
0
41
1
10
5.60544240903971
20
-4.35181852133414
30
0
41
1
10
5.62168447434362
20
-4.40498350864641
30
0
41
1
10
5.71416067559215
20
-4.66868608521335
30
0
41
1
10
5.8060724300542
20
-4.86689550691514
30
0
41
1
10
5.96781632678369
20
-5.12786255502598
30
0
41
1
10
6.01919409267157
20
-5.20220744494395
30
0
41
1
10
6.07446672739081
20
-5.27370941590647
30
0
0
SPLINE
5
169
100
AcDbEntity
8
1
62
256
6
ByLayer
370
18
48
1
60
0
100
AcDbSpline
70
4
71
3
72
8
73
4
40
0
40
0
40
0
40
0
40
1
40
1
40
1
40
1
41
1
10
15.6984687031322
20
0.710650880117441
30
0
41
1
10
14.8772569586149
20
0.323136241122683
30
0
41
1
10
13.9418457093455
20
0.244849356822328
30
0
41
1
10
13.0911060118997
20
0.48014179225791
30
0
0
SPLINE
5
16A
100
AcDbEntity
8
1
62
256
6
ByLayer
370
18
48
1
60
0
100
AcDbSpline
70
4
71
2
72
6
73
3
40
0
40
0
40
0
40
1
40
1
40
1
41
1.02830968163241
10
13.1230850899309
20
11.9601648721453
30
0
41
1.02830968163241
10
13.4095341502084
20
11.6980079476233
30
0
41
1.02830968163241
10
13.6959832104859
20
11.4358510231013
30
0
0
SPLINE
5
16B
100
AcDbEntity
8
1
62
256
6
ByLayer
370
18
48
1
60
0
100
AcDbSpline
70
4
71
3
72
8
73
4
40
0
40
0
40
0
40
0
40
1
40
1
40
1
40
1
41
1
10
13.7020081200509
20
12.2314394301411
30
0
41
1
10
13.5083421445829
20
12.1406585549547
30
0
41
1
10
13.3151100271082
20
12.050102369127
30
0
41
1
10
13.1230850899309
20
11.9601648721453
30
0
0
SPLINE
5
16C
100
AcDbEntity
8
1
62
256
6
ByLayer
370
18
48
1
60
0
100
AcDbSpline
70
4
71
3
72
8
73
4
40
0
40
0
40
0
40
0
40
1
40
1
40
1
40
1
41
1
10
11.1157680380591
20
0.265680507869064
30
0
41
1
10
11.3754348480733
20
0.389637590394443
30
0
41
1
10
11.6565084288341
20
0.484546211330525
30
0
41
1
10
11.9441440197721
20
0.53747323416772
30
0
0
SPLINE
5
16D
100
AcDbEntity
8
1
62
256
6
ByLayer
370
18
48
1
60
0
100
AcDbSpline
70
4
71
3
72
12
73
8
40
0
40
0
40
0
40
0
40
0.499999999999964
40
0.499999999999964
40
0.749999999999982
40
0.749999999999982
40
1
40
1
40
1
40
1
41
1
10
10.84664832008
20
-2.30911972202065
30
0
41
1
10
10.7008945095923
20
-2.26867460161861
30
0
41
1
10
10.5576903126595
20
-2.22649432525341
30
0
41
1
10
10.3466905322729
20
-2.1601596651268
30
0
41
1
10
10.276990681819
20
-2.13761873948016
30
0
41
1
10
10.1391484083059
20
-2.09027023445665
30
0
41
1
10
10.0461262378975
20
-2.09449062959626
30
0
41
1
10
10.0104197403065
20
-2.01916990134799
30
0
0
SPLINE
5
16E
100
AcDbEntity
8
1
62
256
6
ByLayer
370
18
48
1
60
0
100
AcDbSpline
70
4
71
3
72
10
73
6
40
0
40
0
40
0
40
0
40
0.465995854460554
40
0.465995854460554
40
1
40
1
40
1
40
1
41
1
10
10.306646595074
20
6.35379295366317
30
0
41
1
10
10.2348141808099
20
6.19355671207785
30
0
41
1
10
10.1447001770004
20
6.03811352262224
30
0
41
1
10
9.91944655360419
20
5.72701474427549
30
0
41
1
10
9.77818908256967
20
5.57256642715896
30
0
41
1
10
9.62202006945597
20
5.43585528825068
30
0
0
SPLINE
5
16F
100
AcDbEntity
8
1
62
256
6
ByLayer
370
18
48
1
60
0
100
AcDbSpline
70
4
71
3
72
8
73
4
40
0
40
0
40
0
40
0
40
1
40
1
40
1
40
1
41
1
10
30.401517419152
20
11.0972997822516
30
0
41
1
10
30.3916492109786
20
10.9247478194662
30
0
41
1
10
30.3636034111192
20
10.74674755445
30
0
41
1
10
30.3166646475169
20
10.5746961827148
30
0
0
SPLINE
5
170
100
AcDbEntity
8
1
62
256
6
ByLayer
370
18
48
1
60
0
100
AcDbSpline
70
4
71
3
72
14
73
10
40
0
40
0
40
0
40
0
40
0.0151857536690293
40
0.0151857536690293
40
0.0655730315774985
40
0.0655730315774985
40
0.287642754348332
40
0.287642754348332
40
1
40
1
40
1
40
1
41
1
10
1.98293144794553
20
3.31129737342215
30
0
41
1
10
1.97989152911845
20
3.31770990098184
30
0
41
1
10
1.97667144071647
20
3.32405908365499
30
0
41
1
10
1.96259214741002
20
3.35037113961207
30
0
41
1
10
1.95119854684373
20
3.36854995289045
30
0
41
1
10
1.89196356344712
20
3.46258834007219
30
0
41
1
10
1.847078622217
20
3.53289981446605
30
0
41
1
10
1.67358927448174
20
3.83939893972047
30
0
41
1
10
1.57411984431934
20
4.08582523568626
30
0
41
1
10
1.51574171267896
20
4.34264926232993
30
0
0
SPLINE
5
171
100
AcDbEntity
8
1
62
256
6
ByLayer
370
18
48
1
60
0
100
AcDbSpline
70
4
71
3
72
8
73
4
40
0
40
0
40
0
40
0
40
1
40
1
40
1
40
1
41
1
10
10.306646595074
20
6.35379295366315
30
0
41
1
10
10.6697294967925
20
7.16372034022353
30
0
41
1
10
11.305565521374
20
7.8147283139061
30
0
41
1
10
12.1433106977207
20
8.21004477369738
30
0
0
SPLINE
5
172
100
AcDbEntity
8
1
62
256
6
ByLayer
370
18
48
1
60
0
100
AcDbSpline
70
4
71
3
72
11
73
7
40
0
40
0
40
0
40
0
40
0.379738014043147
40
0.56960702106472
40
0.759476028086293
40
1
40
1
40
1
40
1
41
1.02830968163241
10
19.2103307194957
20
-0.196336343310588
30
0
41
1.02566133279166
10
21.1426996014502
20
1.4969897540059
30
0
41
1.02050308371814
10
23.4703274165508
20
3.96582979937902
30
0
41
1.01332460673153
10
26.7722746315551
20
8.43641380208178
30
0
41
1.0120630214142
10
28.5386057849885
20
9.29976555619269
30
0
41
1.00944729087555
10
29.811556193471
20
10.6123090273654
30
0
41
1.00885690313847
10
30.4015174133876
20
11.0972997775129
30
0
0
SPLINE
5
173
100
AcDbEntity
8
1
62
256
6
ByLayer
370
18
48
1
60
0
100
AcDbSpline
70
4
71
3
72
8
73
4
40
0
40
0
40
0
40
0
40
1
40
1
40
1
40
1
41
1
10
28.3023359182405
20
13.4808724053896
30
0
41
1
10
28.5689517435059
20
13.3661673870914
30
0
41
1
10
28.8371103049557
20
13.2493320582653
30
0
41
1
10
29.1052272171592
20
13.1301512296773
30
0
0
SPLINE
5
174
100
AcDbEntity
8
1
62
256
6
ByLayer
370
18
48
1
60
0
100
AcDbSpline
70
4
71
3
72
10
73
6
40
0
40
0
40
0
40
0
40
0.494168352806887
40
0.494168352806887
40
1
40
1
40
1
40
1
41
1
10
8.72707551469716
20
-6.06033520655654
30
0
41
1
10
8.62795426825585
20
-6.09362134909296
30
0
41
1
10
8.52337007650715
20
-6.123418612384
30
0
41
1
10
8.30872649021035
20
-6.17132401679689
30
0
41
1
10
8.1971085374779
20
-6.18942697564395
30
0
41
1
10
8.08703251284095
20
-6.19990493825802
30
0
0
SPLINE
5
175
100
AcDbEntity
8
1
62
256
6
ByLayer
370
18
48
1
60
0
100
AcDbSpline
70
4
71
3
72
8
73
4
40
0
40
0
40
0
40
0
40
1
40
1
40
1
40
1
41
1
10
9.16257577278697
20
-5.88319162128025
30
0
41
1
10
9.02194346147212
20
-5.95062420805783
30
0
41
1
10
8.8768686179273
20
-6.01003282675305
30
0
41
1
10
8.72707551469716
20
-6.06033520655654
30
0
0
SPLINE
5
176
100
AcDbEntity
8
1
62
256
6
ByLayer
370
18
48
1
60
0
100
AcDbSpline
70
4
71
2
72
6
73
3
40
0
40
0
40
0
40
1
40
1
40
1
41
1.02830968163241
10
19.2103307194957
20
-0.196336343310588
30
0
41
1.02830968163241
10
19.2421337455391
20
-0.605513224245758
30
0
41
1.02830968163241
10
19.2739367715825
20
-1.01469010518096
30
0
0
SPLINE
5
177
100
AcDbEntity
8
1
62
256
6
ByLayer
370
18
48
1
60
0
100
AcDbSpline
70
4
71
3
72
24
73
20
40
0
40
0
40
0
40
0
40
0.0850811781222255
40
0.0850811781222255
40
0.205765575293395
40
0.205765575293395
40
0.32640525531181
40
0.32640525531181
40
0.447094190176883
40
0.447094190176883
40
0.567741792943682
40
0.567741792943682
40
0.688416329261231
40
0.688416329261231
40
0.809074346864372
40
0.809074346864372
40
0.92971910322064
40
0.92971910322064
40
1
40
1
40
1
40
1
41
1
10
19.91746836504
20
8.11986822008978
30
0
41
1
10
19.8402595555727
20
8.08219148391942
30
0
41
1
10
19.7581659677165
20
8.0536643017017
30
0
41
1
10
19.5560088779459
20
8.01013968236504
30
0
41
1
10
19.4310942501852
20
8.00506818764887
30
0
41
1
10
19.1888717250079
20
8.03635365406183
30
0
41
1
10
19.0682179916182
20
8.07311105185605
30
0
41
1
10
18.8478008678397
20
8.18286411052006
30
0
41
1
10
18.7450859029276
20
8.25746558067337
30
0
41
1
10
18.5712432050147
20
8.43327724731085
30
0
41
1
10
18.4976768820204
20
8.53687121316591
30
0
41
1
10
18.3892886416952
20
8.75824936803377
30
0
41
1
10
18.353077312112
20
8.8791799412075
30
0
41
1
10
18.3224960384149
20
9.12130804841189
30
0
41
1
10
18.3275928446011
20
9.24575440366596
30
0
41
1
10
18.3773173907542
20
9.48051934151084
30
0
41
1
10
18.4226429193155
20
9.59409950716821
30
0
41
1
10
18.5210536453762
20
9.75310500685359
30
0
41
1
10
18.5635482461195
20
9.80810056481766
30
0
41
1
10
18.6109254990648
20
9.85804786169572
30
0
0
SPLINE
5
178
100
AcDbEntity
8
1
62
256
6
ByLayer
370
18
48
1
60
0
100
AcDbSpline
70
4
71
3
72
14
73
10
40
0
40
0
40
0
40
0
40
0.0829586012803111
40
0.0829586012803111
40
0.459195015075154
40
0.459195015075154
40
0.83547479966903
40
0.83547479966903
40
1
40
1
40
1
40
1
41
1
10
13.7663651343394
20
4.91109739081824
30
0
41
1
10
13.76713588916
20
4.9147705098413
30
0
41
1
10
13.7678788678385
20
4.91850959641889
30
0
41
1
10
13.7717920260278
20
4.93940632793712
30
0
41
1
10
13.774379462696
20
4.95806325717987
30
0
41
1
10
13.7776872337804
20
4.99593252836033
30
0
41
1
10
13.7784400169952
20
5.01557038559736
30
0
41
1
10
13.7782717941188
20
5.04255688825802
30
0
41
1
10
13.7780594860013
20
5.05069952698074
30
0
41
1
10
13.7777058600816
20
5.05866545079505
30
0
0
SPLINE
5
179
100
AcDbEntity
8
1
62
256
6
ByLayer
370
18
48
1
60
0
100
AcDbSpline
70
4
71
3
72
12
73
8
40
0
40
0
40
0
40
0
40
0.392678099452477
40
0.392678099452477
40
0.791279335968791
40
0.791279335968791
40
1
40
1
40
1
40
1
41
1
10
14.3629709018617
20
5.91201157945176
30
0
41
1
10
14.3796673999146
20
5.9162184187216
30
0
41
1
10
14.3975707873189
20
5.92214502429482
30
0
41
1
10
14.4335568156675
20
5.93735869895809
30
0
41
1
10
14.4520781399147
20
5.94690610085328
30
0
41
1
10
14.4784370285115
20
5.96288414316101
30
0
41
1
10
14.4873264360692
20
5.96872114740344
30
0
41
1
10
14.4958413081171
20
5.97471066754551
30
0
0
SPLINE
5
17A
100
AcDbEntity
8
1
62
256
6
ByLayer
370
18
48
1
60
0
100
AcDbSpline
70
4
71
3
72
14
73
10
40
0
40
0
40
0
40
0
40
0.164525200331054
40
0.164525200331054
40
0.540804984924885
40
0.540804984924885
40
0.917041398719785
40
0.917041398719785
40
1
40
1
40
1
40
1
41
1
10
15.5282961217599
20
5.8847366289182
30
0
41
1
10
15.5333982713206
20
5.8790114456155
30
0
41
1
10
15.5388360324632
20
5.87333460156276
30
0
41
1
10
15.5576643467508
20
5.85515345103585
30
0
41
1
10
15.5726858942469
20
5.8429592088124
30
0
41
1
10
15.6044769626071
20
5.82165243102949
30
0
41
1
10
15.6215961095896
20
5.81229467425982
30
0
41
1
10
15.6422953641708
20
5.80301208527328
30
0
41
1
10
15.6460633081085
20
5.80140161967662
30
0
41
1
10
15.6498258022756
20
5.79986765703646
30
0
0
SPLINE
5
17B
100
AcDbEntity
8
1
62
256
6
ByLayer
370
18
48
1
60
0
100
AcDbSpline
70
4
71
3
72
14
73
10
40
0
40
0
40
0
40
0
40
0.164525200330997
40
0.164525200330997
40
0.540804984924912
40
0.540804984924912
40
0.917041398719668
40
0.917041398719668
40
1
40
1
40
1
40
1
41
1
10
14.3350845867178
20
3.88290825165384
30
0
41
1
10
14.3291701394274
20
3.8881644546436
30
0
41
1
10
14.3230248432717
20
3.89343280316604
30
0
41
1
10
14.3022999947743
20
3.91051898915643
30
0
41
1
10
14.2866334428948
20
3.92234083792547
30
0
41
1
10
14.2551802381415
20
3.9438426813528
30
0
41
1
10
14.2390433376422
20
3.95376753839398
30
0
41
1
10
14.2202906244539
20
3.96417396357759
30
0
41
1
10
14.2169065703891
20
3.96600606809579
30
0
41
1
10
14.2135549062023
20
3.9677772235357
30
0
0
SPLINE
5
17C
100
AcDbEntity
8
1
62
256
6
ByLayer
370
18
48
1
60
0
100
AcDbSpline
70
4
71
3
72
12
73
8
40
0
40
0
40
0
40
0
40
0.392678099449981
40
0.392678099449981
40
0.791279335966208
40
0.791279335966208
40
1
40
1
40
1
40
1
41
1
10
15.5004098066167
20
3.85563330112066
30
0
41
1
10
15.4817846883231
20
3.8503129724356
30
0
41
1
10
15.4625470500483
20
3.84361603676308
30
0
41
1
10
15.4256261517239
20
3.82786261466774
30
0
41
1
10
15.4075333634101
20
3.81856262810905
30
0
41
1
10
15.3830426115172
20
3.80366315503025
30
0
41
1
10
15.375018769665
20
3.79832588538082
30
0
41
1
10
15.3675394003614
20
3.79293421302691
30
0
0
SPLINE
5
17D
100
AcDbEntity
8
1
62
256
6
ByLayer
370
18
48
1
60
0
100
AcDbSpline
70
4
71
3
72
14
73
10
40
0
40
0
40
0
40
0
40
0.0829586012801723
40
0.0829586012801723
40
0.459195015075126
40
0.459195015075126
40
0.835474799669112
40
0.835474799669112
40
1
40
1
40
1
40
1
41
1
10
16.0970155741386
20
4.85654748975389
30
0
41
1
10
16.0958339893376
20
4.85263717793109
30
0
41
1
10
16.0947071207861
20
4.84867645243199
30
0
41
1
10
16.088847421204
20
4.82665588471664
30
0
41
1
10
16.0852777380527
20
4.8074318552024
30
0
41
1
10
16.0816321033612
20
4.76936751837755
30
0
41
1
10
16.0815243245299
20
4.75010205459492
30
0
41
1
10
16.083589081616
20
4.72421051647075
30
0
41
1
10
16.0845089247468
20
4.71647637327837
30
0
41
1
10
16.0856748483961
20
4.708979429777
30
0
0
LINE
5
72
100
AcDbEntity
8
1
62
256
6
ByLayer
370
18
48
1
60
0
100
AcDbLine
10
15.399351
20
3.813459
30
0
11
15.11423
21
3.648845
31
0
39
0
210
0
220
0
230
1
0
LINE
5
74
100
AcDbEntity
8
1
62
256
6
ByLayer
370
18
48
1
60
0
100
AcDbLine
10
14.17618
20
5.787995
30
0
11
14.461301
21
5.95261
31
0
39
0
210
0
220
0
230
1
0
LINE
5
75
100
AcDbEntity
8
1
62
256
6
ByLayer
370
18
48
1
60
0
100
AcDbLine
10
16.511511
20
1.17713
30
0
11
16.821324
21
1.356001
31
0
39
0
210
0
220
0
230
1
0
LINE
5
76
100
AcDbEntity
8
1
62
256
6
ByLayer
370
18
48
1
60
0
100
AcDbLine
10
12.821324
20
8.284204
30
0
11
12.511511
21
8.105334
31
0
39
0
210
0
220
0
230
1
0
LINE
5
77
100
AcDbEntity
8
1
62
256
6
ByLayer
370
18
48
1
60
0
100
AcDbLine
10
5.192202
20
8.217349
30
0
11
4.520398
21
7.890955
31
0
39
0
210
0
220
0
230
1
0
LINE
5
78
100
AcDbEntity
8
1
62
256
6
ByLayer
370
18
48
1
60
0
100
AcDbLine
10
4.450506
20
7.85552
30
0
11
2.873803
21
7.022227
31
0
39
0
210
0
220
0
230
1
0
LINE
5
79
100
AcDbEntity
8
1
62
256
6
ByLayer
370
18
48
1
60
0
100
AcDbLine
10
1.706703
20
3.796222
30
0
11
5.766066
21
-4.766763
31
0
39
0
210
0
220
0
230
1
0
LINE
5
7A
100
AcDbEntity
8
1
62
256
6
ByLayer
370
18
48
1
60
0
100
AcDbLine
10
22.347969
20
17.853935
30
0
11
21.793859
21
17.534019
31
0
39
0
210
0
220
0
230
1
0
LINE
5
7B
100
AcDbEntity
8
1
62
256
6
ByLayer
370
18
48
1
60
0
100
AcDbLine
10
30.532394
20
2.599762
30
0
11
31.072872
21
2.911807
31
0
39
0
210
0
220
0
230
1
0
LINE
5
7C
100
AcDbEntity
8
80
62
256
6
ByLayer
370
18
48
1
60
0
100
AcDbLine
10
0
20
0
30
0
11
-5
21
0
31
0
39
0
210
0
220
0
230
1
0
LINE
5
7D
100
AcDbEntity
8
81
62
256
6
ByLayer
370
18
48
1
60
0
100
AcDbLine
10
34.207183
20
14.9125
30
0
11
44.207183
21
14.9125
31
0
39
0
210
0
220
0
230
1
0
LINE
5
7E
100
AcDbEntity
8
SK1
62
256
6
ByLayer
370
18
48
1
60
0
100
AcDbLine
10
-117.142817
20
12.4375
30
0
11
-117.142817
21
-12.4375
31
0
39
0
210
0
220
0
230
1
0
LINE
5
80
100
AcDbEntity
8
SK1
62
256
6
ByLayer
370
18
48
1
60
0
100
AcDbLine
10
-117.142817
20
-12.4375
30
0
11
0
21
-12.4375
31
0
39
0
210
0
220
0
230
1
0
LINE
5
81
100
AcDbEntity
8
SK1
62
256
6
ByLayer
370
18
48
1
60
0
100
AcDbLine
10
0
20
12.4375
30
0
11
0
21
-12.4375
31
0
39
0
210
0
220
0
230
1
0
LINE
5
82
100
AcDbEntity
8
SK1
62
256
6
ByLayer
370
18
48
1
60
0
100
AcDbLine
10
0
20
12.4375
30
0
11
-117.142817
21
12.4375
31
0
39
0
210
0
220
0
230
1
0
LINE
5
83
100
AcDbEntity
8
1
62
256
6
ByLayer
370
18
48
1
60
0
100
AcDbLine
10
0
20
-12.4375
30
0
11
0
21
12.4375
31
0
39
0
210
0
220
0
230
1
0
LINE
5
84
100
AcDbEntity
8
1
62
256
6
ByLayer
370
18
48
1
60
0
100
AcDbLine
10
26.531801
20
-1.55303
30
0
11
29.978036
21
0.436655
31
0
39
0
210
0
220
0
230
1
0
LINE
5
85
100
AcDbEntity
8
1
62
256
6
ByLayer
370
18
48
1
60
0
100
AcDbLine
10
29.978036
20
0.436655
30
0
11
30.552753
21
2.679253
31
0
39
0
210
0
220
0
230
1
0
LINE
5
86
100
AcDbEntity
8
1
62
256
6
ByLayer
370
18
48
1
60
0
100
AcDbLine
10
25.415787
20
4.031701
30
0
11
30.552753
21
2.679253
31
0
39
0
210
0
220
0
230
1
0
LINE
5
87
100
AcDbEntity
8
1
62
256
6
ByLayer
370
18
48
1
60
0
100
AcDbLine
10
1.398336
20
13.116252
30
0
11
1.601136
21
12.756877
31
0
39
0
210
0
220
0
230
1
0
LINE
5
88
100
AcDbEntity
8
1
62
256
6
ByLayer
370
18
48
1
60
0
100
AcDbLine
10
0.745054
20
13.182554
30
0
11
1.07899
21
13.51649
31
0
39
0
210
0
220
0
230
1
0
LINE
5
89
100
AcDbEntity
8
1
62
256
6
ByLayer
370
18
48
1
60
0
100
AcDbLine
10
21.859314
20
17.51648
30
0
11
19.991246
21
18.017027
31
0
39
0
210
0
220
0
230
1
0
LINE
5
8A
100
AcDbEntity
8
1
62
256
6
ByLayer
370
18
48
1
60
0
100
AcDbLine
10
1.601136
20
12.756877
30
0
11
4.113411
21
15.411481
31
0
39
0
210
0
220
0
230
1
0
LINE
5
8B
100
AcDbEntity
8
1
62
256
6
ByLayer
370
18
48
1
60
0
100
AcDbLine
10
20.827175
20
13.421521
30
0
11
21.056463
21
14.316225
31
0
39
0
210
0
220
0
230
1
0
LINE
5
8C
100
AcDbEntity
8
1
62
256
6
ByLayer
370
18
48
1
60
0
100
AcDbLine
10
14.897206
20
-7.336292
30
0
11
13.264135
21
-3.891426
31
0
39
0
210
0
220
0
230
1
0
LINE
5
8D
100
AcDbEntity
8
1
62
256
6
ByLayer
370
18
48
1
60
0
100
AcDbLine
10
7.097489
20
9.116746
30
0
11
4.113411
21
15.411481
31
0
39
0
210
0
220
0
230
1
0
LINE
5
8E
100
AcDbEntity
8
1
62
256
6
ByLayer
370
18
48
1
60
0
100
AcDbLine
10
5.677416
20
-12.328962
30
0
11
26.531801
21
-1.55303
31
0
39
0
210
0
220
0
230
1
0
LINE
5
8F
100
AcDbEntity
8
1
62
256
6
ByLayer
370
18
48
1
60
0
100
AcDbLine
10
11.850458
20
-8.931877
30
0
11
10.174362
21
-5.396253
31
0
39
0
210
0
220
0
230
1
0
LINE
5
90
100
AcDbEntity
8
1
62
256
6
ByLayer
370
18
48
1
60
0
100
AcDbLine
10
4.00418
20
7.619378
30
0
11
1.398336
21
13.116252
31
0
39
0
210
0
220
0
230
1
0
LINE
5
91
100
AcDbEntity
8
1
62
256
6
ByLayer
370
18
48
1
60
0
100
AcDbLine
10
0
20
-12.4375
30
0
11
2.365028
21
-12.447819
31
0
39
0
210
0
220
0
230
1
0
LINE
5
92
100
AcDbEntity
8
1
62
256
6
ByLayer
370
18
48
1
60
0
100
AcDbLine
10
11.044783
20
-9.353446
30
0
11
9.355635
21
-5.790291
31
0
39
0
210
0
220
0
230
1
0
LINE
5
93
100
AcDbEntity
8
1
62
256
6
ByLayer
370
18
48
1
60
0
100
AcDbLine
10
3.200137
20
7.194365
30
0
11
0.728396
21
12.408357
31
0
39
0
210
0
220
0
230
1
0
LINE
5
94
100
AcDbEntity
8
1
62
256
6
ByLayer
370
18
48
1
60
0
100
AcDbLine
10
29.978036
20
0.436655
30
0
11
14.897206
21
-7.336292
31
0
39
0
210
0
220
0
230
1
0
LINE
5
95
100
AcDbEntity
8
1
62
256
6
ByLayer
370
18
48
1
60
0
100
AcDbLine
10
21.948192
20
17.428087
30
0
11
21.339065
21
15.051218
31
0
39
0
210
0
220
0
230
1
0
LINE
5
96
100
AcDbEntity
8
1
62
256
6
ByLayer
370
18
48
1
60
0
100
AcDbLine
10
21.859314
20
17.51648
30
0
11
21.948192
21
17.428087
31
0
39
0
210
0
220
0
230
1
0
LINE
5
97
100
AcDbEntity
8
1
62
256
6
ByLayer
370
18
48
1
60
0
100
AcDbLine
10
11.875923
20
-8.917175
30
0
11
10.200812
21
-5.383627
31
0
39
0
210
0
220
0
230
1
0
LINE
5
98
100
AcDbEntity
8
1
62
256
6
ByLayer
370
18
48
1
60
0
100
AcDbLine
10
4.03016
20
7.632996
30
0
11
1.601136
21
12.756877
31
0
39
0
210
0
220
0
230
1
0
LINE
5
99
100
AcDbEntity
8
1
62
256
6
ByLayer
370
18
48
1
60
0
100
AcDbLine
10
30.552753
20
2.679253
30
0
11
30.522592
21
2.787453
31
0
39
0
210
0
220
0
230
1
0
LINE
5
9A
100
AcDbEntity
8
1
62
256
6
ByLayer
370
18
48
1
60
0
100
AcDbLine
10
4.113411
20
15.411481
30
0
11
4.043021
21
16.480521
31
0
39
0
210
0
220
0
230
1
0
LINE
5
9B
100
AcDbEntity
8
1
62
256
6
ByLayer
370
18
48
1
60
0
100
AcDbLine
10
20.809462
20
13.419861
30
0
11
21.859314
21
17.51648
31
0
39
0
210
0
220
0
230
1
0
LINE
5
9C
100
AcDbEntity
8
1
62
256
6
ByLayer
370
18
48
1
60
0
100
AcDbLine
10
2.365028
20
-12.447819
30
0
11
0.728396
21
12.408357
31
0
39
0
210
0
220
0
230
1
0
LINE
5
9D
100
AcDbEntity
8
1
62
256
6
ByLayer
370
18
48
1
60
0
100
AcDbLine
10
4.043021
20
16.480521
30
0
11
1.07899
21
13.51649
31
0
39
0
210
0
220
0
230
1
0
LINE
5
9E
100
AcDbEntity
8
1
62
256
6
ByLayer
370
18
48
1
60
0
100
AcDbLine
10
5.044096
20
-12.446314
30
0
11
5.677416
21
-12.328962
31
0
39
0
210
0
220
0
230
1
0
LINE
5
9F
100
AcDbEntity
8
1
62
256
6
ByLayer
370
18
48
1
60
0
100
AcDbLine
10
4.043021
20
16.480521
30
0
11
5.579527
21
18.017027
31
0
39
0
210
0
220
0
230
1
0
LINE
5
A0
100
AcDbEntity
8
1
62
256
6
ByLayer
370
18
48
1
60
0
100
AcDbLine
10
5.044096
20
-12.446314
30
0
11
2.365028
21
-12.447819
31
0
39
0
210
0
220
0
230
1
0
LINE
5
A1
100
AcDbEntity
8
1
62
256
6
ByLayer
370
18
48
1
60
0
100
AcDbLine
10
5.044096
20
-12.446314
30
0
11
11.044783
21
-9.353446
31
0
39
0
210
0
220
0
230
1
0
LINE
5
A2
100
AcDbEntity
8
1
62
256
6
ByLayer
370
18
48
1
60
0
100
AcDbLine
10
19.991246
20
18.017027
30
0
11
5.579527
21
18.017027
31
0
39
0
210
0
220
0
230
1
0
LINE
5
A3
100
AcDbEntity
8
1
62
256
6
ByLayer
370
18
48
1
60
0
100
AcDbLine
10
11.875923
20
-8.917175
30
0
11
14.897206
21
-7.336292
31
0
39
0
210
0
220
0
230
1
0
LINE
5
A4
100
AcDbEntity
8
1
62
256
6
ByLayer
370
18
48
1
60
0
100
AcDbLine
10
0.745054
20
13.182554
30
0
11
0
21
12.4375
31
0
39
0
210
0
220
0
230
1
0
LINE
5
A5
100
AcDbEntity
8
1
62
256
6
ByLayer
370
18
48
1
60
0
100
AcDbLine
10
11.850458
20
-8.931877
30
0
11
11.875923
21
-8.917175
31
0
39
0
210
0
220
0
230
1
0
LINE
5
A6
100
AcDbEntity
8
1
62
256
6
ByLayer
370
18
48
1
60
0
100
AcDbLine
10
23.570019
20
13.292671
30
0
11
24.366453
21
13.363317
31
0
39
0
210
0
220
0
230
1
0
LINE
5
A7
100
AcDbEntity
8
1
62
256
6
ByLayer
370
18
48
1
60
0
100
AcDbLine
10
13.441567
20
-3.805034
30
0
11
21.403893
21
-0.04776
31
0
39
0
210
0
220
0
230
1
0
LINE
5
A8
100
AcDbEntity
8
1
62
256
6
ByLayer
370
18
48
1
60
0
100
AcDbLine
10
5.071323
20
7.366034
30
0
11
13.695983
21
11.435851
31
0
39
0
210
0
220
0
230
1
0
LINE
5
A9
100
AcDbEntity
8
1
62
256
6
ByLayer
370
18
48
1
60
0
100
AcDbLine
10
13.702008
20
12.231439
30
0
11
15.253041
21
12.927095
31
0
39
0
210
0
220
0
230
1
0
LINE
5
AA
100
AcDbEntity
8
1
62
256
6
ByLayer
370
18
48
1
60
0
100
AcDbLine
10
1.982931
20
3.311297
30
0
11
3.454134
21
4.088833
31
0
39
0
210
0
220
0
230
1
0
LINE
5
AB
100
AcDbEntity
8
1
62
256
6
ByLayer
370
18
48
1
60
0
100
AcDbLine
10
11.887956
20
8.061619
30
0
11
13.480279
21
8.812589
31
0
39
0
210
0
220
0
230
1
0
LINE
5
AC
100
AcDbEntity
8
1
62
256
6
ByLayer
370
18
48
1
60
0
100
AcDbLine
10
8.354508
20
-1.06729
30
0
11
9.333655
21
-0.591574
31
0
39
0
210
0
220
0
230
1
0
LINE
5
AD
100
AcDbEntity
8
1
62
256
6
ByLayer
370
18
48
1
60
0
100
AcDbLine
10
11.398373
20
-4.731023
30
0
11
10.707788
21
-5.066542
31
0
39
0
210
0
220
0
230
1
0
LINE
5
AE
100
AcDbEntity
8
1
62
256
6
ByLayer
370
18
48
1
60
0
100
AcDbLine
10
19.85286
20
-0.743416
30
0
11
21.403893
21
-0.04776
31
0
39
0
210
0
220
0
230
1
0
LINE
5
AF
100
AcDbEntity
8
1
62
256
6
ByLayer
370
18
48
1
60
0
100
AcDbLine
10
5.563789
20
-4.242309
30
0
11
1.982931
21
3.311297
31
0
39
0
210
0
220
0
230
1
0
LINE
5
B0
100
AcDbEntity
8
1
62
256
6
ByLayer
370
18
48
1
60
0
100
AcDbLine
10
21.990601
20
13.12156
30
0
11
23.053036
21
13.215801
31
0
39
0
210
0
220
0
230
1
0
LINE
5
B1
100
AcDbEntity
8
1
62
256
6
ByLayer
370
18
48
1
60
0
100
AcDbLine
10
26.555512
20
5.827535
30
0
11
25.808499
21
5.067931
31
0
39
0
210
0
220
0
230
1
0
LINE
5
B2
100
AcDbEntity
8
1
62
256
6
ByLayer
370
18
48
1
60
0
100
AcDbLine
10
11.326623
20
-4.83741
30
0
11
13.441567
21
-3.805034
31
0
39
0
210
0
220
0
230
1
0
LINE
5
B3
100
AcDbEntity
8
1
62
256
6
ByLayer
370
18
48
1
60
0
100
AcDbLine
10
13.980903
20
9.077171
30
0
11
13.480279
21
8.812589
31
0
39
0
210
0
220
0
230
1
0
LINE
5
B4
100
AcDbEntity
8
1
62
256
6
ByLayer
370
18
48
1
60
0
100
AcDbLine
10
6.429562
20
5.534436
30
0
11
3.454134
21
4.088833
31
0
39
0
210
0
220
0
230
1
0
LINE
5
B5
100
AcDbEntity
8
1
62
256
6
ByLayer
370
18
48
1
60
0
100
AcDbLine
10
21.403893
20
-0.04776
30
0
11
25.752319
21
4.373965
31
0
39
0
210
0
220
0
230
1
0
LINE
5
B6
100
AcDbEntity
8
1
62
256
6
ByLayer
370
18
48
1
60
0
100
AcDbLine
10
17.536061
20
1.577777
30
0
11
15.698469
21
0.710651
31
0
39
0
210
0
220
0
230
1
0
LINE
5
B7
100
AcDbEntity
8
1
62
256
6
ByLayer
370
18
48
1
60
0
100
AcDbLine
10
5.247521
20
8.243832
30
0
11
13.123085
21
11.960165
31
0
39
0
210
0
220
0
230
1
0
LINE
5
B8
100
AcDbEntity
8
1
62
256
6
ByLayer
370
18
48
1
60
0
100
AcDbLine
10
10.01042
20
-2.01917
30
0
11
7.034992
21
-3.464774
31
0
39
0
210
0
220
0
230
1
0
LINE
5
B9
100
AcDbEntity
8
1
62
256
6
ByLayer
370
18
48
1
60
0
100
AcDbLine
10
9.162576
20
-5.883192
30
0
11
10.707788
21
-5.066542
31
0
39
0
210
0
220
0
230
1
0
LINE
5
BA
100
AcDbEntity
8
1
62
256
6
ByLayer
370
18
48
1
60
0
100
AcDbLine
10
10.01042
20
-2.01917
30
0
11
9.333655
21
-0.591574
31
0
39
0
210
0
220
0
230
1
0
LINE
5
BB
100
AcDbEntity
8
1
62
256
6
ByLayer
370
18
48
1
60
0
100
AcDbLine
10
7.106327
20
4.106841
30
0
11
6.429562
21
5.534436
31
0
39
0
210
0
220
0
230
1
0
LINE
5
BC
100
AcDbEntity
8
1
62
256
6
ByLayer
370
18
48
1
60
0
100
AcDbLine
10
5.563789
20
-4.242309
30
0
11
7.034992
21
-3.464774
31
0
39
0
210
0
220
0
230
1
0
LINE
5
BD
100
AcDbEntity
8
1
62
256
6
ByLayer
370
18
48
1
60
0
100
AcDbLine
10
28.302336
20
13.480872
30
0
11
27.780108
21
13.610892
31
0
39
0
210
0
220
0
230
1
0
LINE
5
BE
100
AcDbEntity
8
1
62
256
6
ByLayer
370
18
48
1
60
0
100
AcDbLine
10
27.504583
20
6.743617
30
0
11
26.9446
21
6.174194
31
0
39
0
210
0
220
0
230
1
0
LINE
5
BF
100
AcDbEntity
8
1
62
256
6
ByLayer
370
18
48
1
60
0
100
AcDbLine
10
21.437567
20
13.475676
30
0
11
15.253041
21
12.927095
31
0
39
0
210
0
220
0
230
1
0
LINE
5
C0
100
AcDbEntity
8
1
62
256
6
ByLayer
370
18
48
1
60
0
100
AcDbLine
10
6.127181
20
3.631125
30
0
11
7.106327
21
4.106841
31
0
39
0
210
0
220
0
230
1
0
LINE
5
C1
100
AcDbEntity
8
1
62
256
6
ByLayer
370
18
48
1
60
0
100
AcDbLine
10
7.034992
20
-3.464774
30
0
11
3.454134
21
4.088833
31
0
39
0
210
0
220
0
230
1
0
LINE
5
C2
100
AcDbEntity
8
1
62
256
6
ByLayer
370
18
48
1
60
0
100
AcDbLine
10
19.273937
20
-1.01469
30
0
11
11.398373
21
-4.731023
31
0
39
0
210
0
220
0
230
1
0
LINE
5
C3
100
AcDbEntity
8
1
62
256
6
ByLayer
370
18
48
1
60
0
100
AcDbLine
10
30.080888
20
9.729123
30
0
11
29.859206
21
9.225159
31
0
39
0
210
0
220
0
230
1
0
LINE
5
C4
100
AcDbEntity
8
1
62
256
6
ByLayer
370
18
48
1
60
0
100
AcDbLine
10
26.575935
20
5.843069
30
0
11
26.555512
21
5.827535
31
0
39
0
210
0
220
0
230
1
0
LINE
5
C5
100
AcDbEntity
8
1
62
256
6
ByLayer
370
18
48
1
60
0
100
AcDbLine
10
10.585671
20
-4.266154
30
0
11
19.210331
21
-0.196336
31
0
39
0
210
0
220
0
230
1
0
LINE
5
C6
100
AcDbEntity
8
1
62
256
6
ByLayer
370
18
48
1
60
0
100
AcDbLine
10
6.127181
20
3.631125
30
0
11
8.354508
21
-1.06729
31
0
39
0
210
0
220
0
230
1
0
LINE
5
C7
100
AcDbEntity
8
1
62
256
6
ByLayer
370
18
48
1
60
0
100
AcDbLine
10
12.143311
20
8.210045
30
0
11
11.651172
21
7.949948
31
0
39
0
210
0
220
0
230
1
0
LINE
5
C8
100
AcDbEntity
8
1
62
256
6
ByLayer
370
18
48
1
60
0
100
AcDbLine
10
12.143311
20
8.210045
30
0
11
13.980903
21
9.077171
31
0
39
0
210
0
220
0
230
1
0
LINE
5
C9
100
AcDbEntity
8
1
62
256
6
ByLayer
370
18
48
1
60
0
100
AcDbLine
10
23.053036
20
13.215801
30
0
11
23.078194
21
13.221346
31
0
39
0
210
0
220
0
230
1
0
LINE
5
CA
100
AcDbEntity
8
1
62
256
6
ByLayer
370
18
48
1
60
0
100
AcDbLine
10
27.612105
20
6.056573
30
0
11
27.456833
21
6.056457
31
0
39
0
210
0
220
0
230
1
0
LINE
5
CB
100
AcDbEntity
8
1
62
256
6
ByLayer
370
18
48
1
60
0
100
AcDbLine
10
22.495894
20
13.905506
30
0
11
22.891243
21
14.385405
31
0
39
0
210
0
220
0
230
1
0
LINE
5
CC
100
AcDbEntity
8
1
62
256
6
ByLayer
370
18
48
1
60
0
100
AcDbLine
10
25.094506
20
14.463453
30
0
11
23.89506
21
13.897457
31
0
39
0
210
0
220
0
230
1
0
LINE
5
CD
100
AcDbEntity
8
1
62
256
6
ByLayer
370
18
48
1
60
0
100
AcDbLine
10
23.796468
20
13.77778
30
0
11
23.541622
21
13.597105
31
0
39
0
210
0
220
0
230
1
0
LINE
5
CE
100
AcDbEntity
8
1
62
256
6
ByLayer
370
18
48
1
60
0
100
AcDbLine
10
23.796468
20
13.77778
30
0
11
26.906349
21
13.97149
31
0
39
0
210
0
220
0
230
1
0
LINE
5
CF
100
AcDbEntity
8
1
62
256
6
ByLayer
370
18
48
1
60
0
100
AcDbLine
10
27.157844
20
5.968901
30
0
11
26.766104
21
4.897753
31
0
39
0
210
0
220
0
230
1
0
LINE
5
D0
100
AcDbEntity
8
1
62
256
6
ByLayer
370
18
48
1
60
0
100
AcDbLine
10
27.504596
20
6.743632
30
0
11
26.659916
21
5.83823
31
0
39
0
210
0
220
0
230
1
0
LINE
5
D1
100
AcDbEntity
8
1
62
256
6
ByLayer
370
18
48
1
60
0
100
AcDbLine
10
29.26938
20
13.705076
30
0
11
29.439299
21
14.524399
31
0
39
0
210
0
220
0
230
1
0
LINE
5
D2
100
AcDbEntity
8
1
62
256
6
ByLayer
370
18
48
1
60
0
100
AcDbLine
10
23.89506
20
13.897457
30
0
11
23.796468
21
13.77778
31
0
39
0
210
0
220
0
230
1
0
LINE
5
D3
100
AcDbEntity
8
1
62
256
6
ByLayer
370
18
48
1
60
0
100
AcDbLine
10
26.906349
20
13.97149
30
0
11
26.852463
21
13.567853
31
0
39
0
210
0
220
0
230
1
0
LINE
5
D4
100
AcDbEntity
8
1
62
256
6
ByLayer
370
18
48
1
60
0
100
AcDbLine
10
24.366472
20
13.363317
30
0
11
23.129115
21
13.286244
31
0
39
0
210
0
220
0
230
1
0
LINE
5
D5
100
AcDbEntity
8
1
62
256
6
ByLayer
370
18
48
1
60
0
100
AcDbLine
10
27.64376
20
14.465362
30
0
11
25.094506
21
14.463453
31
0
39
0
210
0
220
0
230
1
0
LINE
5
D6
100
AcDbEntity
8
1
62
256
6
ByLayer
370
18
48
1
60
0
100
AcDbLine
10
27.64376
20
14.465362
30
0
11
27.201625
21
15.123982
31
0
39
0
210
0
220
0
230
1
0
LINE
5
D7
100
AcDbEntity
8
1
62
256
6
ByLayer
370
18
48
1
60
0
100
AcDbLine
10
23.541622
20
13.597105
30
0
11
22.495894
21
13.905506
31
0
39
0
210
0
220
0
230
1
0
LINE
5
D8
100
AcDbEntity
8
1
62
256
6
ByLayer
370
18
48
1
60
0
100
AcDbLine
10
30.430245
20
8.587438
30
0
11
30.695433
21
7.754003
31
0
39
0
210
0
220
0
230
1
0
LINE
5
D9
100
AcDbEntity
8
1
62
256
6
ByLayer
370
18
48
1
60
0
100
AcDbLine
10
27.456833
20
6.056457
30
0
11
29.57979
21
8.332026
31
0
39
0
210
0
220
0
230
1
0
LINE
5
DA
100
AcDbEntity
8
1
62
256
6
ByLayer
370
18
48
1
60
0
100
AcDbLine
10
27.977193
20
14.449889
30
0
11
29.26938
21
13.705076
31
0
39
0
210
0
220
0
230
1
0
LINE
5
DB
100
AcDbEntity
8
1
62
256
6
ByLayer
370
18
48
1
60
0
100
AcDbLine
10
26.766104
20
4.897753
30
0
11
27.388732
21
4.89822
31
0
39
0
210
0
220
0
230
1
0
LINE
5
DC
100
AcDbEntity
8
1
62
256
6
ByLayer
370
18
48
1
60
0
100
AcDbLine
10
23.89506
20
13.897457
30
0
11
22.891243
21
14.385405
31
0
39
0
210
0
220
0
230
1
0
LINE
5
DD
100
AcDbEntity
8
1
62
256
6
ByLayer
370
18
48
1
60
0
100
AcDbLine
10
30.695433
20
7.754003
30
0
11
28.949544
21
5.634738
31
0
39
0
210
0
220
0
230
1
0
LINE
5
DE
100
AcDbEntity
8
1
62
256
6
ByLayer
370
18
48
1
60
0
100
AcDbLine
10
27.201625
20
15.123982
30
0
11
24.452055
21
15.121923
31
0
39
0
210
0
220
0
230
1
0
LINE
5
DF
100
AcDbEntity
8
1
62
256
6
ByLayer
370
18
48
1
60
0
100
AcDbLine
10
25.094506
20
14.463453
30
0
11
24.452055
21
15.121923
31
0
39
0
210
0
220
0
230
1
0
LINE
5
E0
100
AcDbEntity
8
1
62
256
6
ByLayer
370
18
48
1
60
0
100
AcDbLine
10
29.57979
20
8.332026
30
0
11
29.239348
21
8.532863
31
0
39
0
210
0
220
0
230
1
0
LINE
5
E1
100
AcDbEntity
8
1
62
256
6
ByLayer
370
18
48
1
60
0
100
AcDbLine
10
30.629782
20
8.85441
30
0
11
30.872451
21
10.323493
31
0
39
0
210
0
220
0
230
1
0
LINE
5
E2
100
AcDbEntity
8
1
62
256
6
ByLayer
370
18
48
1
60
0
100
AcDbLine
10
30.430245
20
8.587438
30
0
11
28.81155
21
6.62257
31
0
39
0
210
0
220
0
230
1
0
LINE
5
E3
100
AcDbEntity
8
1
62
256
6
ByLayer
370
18
48
1
60
0
100
AcDbLine
10
28.81155
20
6.62257
30
0
11
27.612105
21
6.056573
31
0
39
0
210
0
220
0
230
1
0
LINE
5
E4
100
AcDbEntity
8
1
62
256
6
ByLayer
370
18
48
1
60
0
100
AcDbLine
10
27.388732
20
4.89822
30
0
11
27.612105
21
6.056573
31
0
39
0
210
0
220
0
230
1
0
LINE
5
E5
100
AcDbEntity
8
1
62
256
6
ByLayer
370
18
48
1
60
0
100
AcDbLine
10
28.81155
20
6.62257
30
0
11
28.949544
21
5.634738
31
0
39
0
210
0
220
0
230
1
0
LINE
5
E6
100
AcDbEntity
8
1
62
256
6
ByLayer
370
18
48
1
60
0
100
AcDbLine
10
24.452055
20
15.121923
30
0
11
22.891243
21
14.385405
31
0
39
0
210
0
220
0
230
1
0
LINE
5
E7
100
AcDbEntity
8
1
62
256
6
ByLayer
370
18
48
1
60
0
100
AcDbLine
10
28.949544
20
5.634738
30
0
11
27.388732
21
4.89822
31
0
39
0
210
0
220
0
230
1
0
LINE
5
E8
100
AcDbEntity
8
1
62
256
6
ByLayer
370
18
48
1
60
0
100
AcDbLine
10
30.872451
20
10.323493
30
0
11
31.650431
21
9.860149
31
0
39
0
210
0
220
0
230
1
0
LINE
5
E9
100
AcDbEntity
8
1
62
256
6
ByLayer
370
18
48
1
60
0
100
AcDbLine
10
27.157844
20
5.968901
30
0
11
27.456833
21
6.056457
31
0
39
0
210
0
220
0
230
1
0
LINE
5
EA
100
AcDbEntity
8
1
62
256
6
ByLayer
370
18
48
1
60
0
100
AcDbLine
10
16.511511
20
1.17713
30
0
11
16.511823
21
1.17731
31
0
39
0
210
0
220
0
230
1
0
LINE
5
EB
100
AcDbEntity
8
1
62
256
6
ByLayer
370
18
48
1
60
0
100
AcDbLine
10
13.781337
20
5.775663
30
0
11
14.067823
21
5.941066
31
0
39
0
210
0
220
0
230
1
0
LINE
5
EC
100
AcDbEntity
8
1
62
256
6
ByLayer
370
18
48
1
60
0
100
AcDbLine
10
15.116843
20
5.99064
30
0
11
15.403329
21
6.156043
31
0
39
0
210
0
220
0
230
1
0
LINE
5
ED
100
AcDbEntity
8
1
62
256
6
ByLayer
370
18
48
1
60
0
100
AcDbLine
10
14.916326
20
3.381471
30
0
11
15.202812
21
3.546874
31
0
39
0
210
0
220
0
230
1
0
LINE
5
EE
100
AcDbEntity
8
1
62
256
6
ByLayer
370
18
48
1
60
0
100
AcDbLine
10
15.980711
20
4.933397
30
0
11
16.267196
21
5.0988
31
0
39
0
210
0
220
0
230
1
0
LINE
5
EF
100
AcDbEntity
8
1
62
256
6
ByLayer
370
18
48
1
60
0
100
AcDbLine
10
15.930119
20
4.275084
30
0
11
16.216604
21
4.440487
31
0
39
0
210
0
220
0
230
1
0
LINE
5
F0
100
AcDbEntity
8
1
62
256
6
ByLayer
370
18
48
1
60
0
100
AcDbLine
10
15.658997
20
5.612033
30
0
11
15.945483
21
5.777435
31
0
39
0
210
0
220
0
230
1
0
LINE
5
F1
100
AcDbEntity
8
1
62
256
6
ByLayer
370
18
48
1
60
0
100
AcDbLine
10
34.182397
20
14.101844
30
0
11
31.4385
21
3.394902
31
0
39
0
210
0
220
0
230
1
0
LINE
5
F2
100
AcDbEntity
8
1
62
256
6
ByLayer
370
18
48
1
60
0
100
AcDbLine
10
30.480004
20
2.834433
30
0
11
25.539958
21
4.158114
31
0
39
0
210
0
220
0
230
1
0
LINE
5
F3
100
AcDbEntity
8
1
62
256
6
ByLayer
370
18
48
1
60
0
100
AcDbLine
10
20.97353
20
13.434365
30
0
11
21.982341
21
17.370839
31
0
39
0
210
0
220
0
230
1
0
LINE
5
F4
100
AcDbEntity
8
1
62
256
6
ByLayer
370
18
48
1
60
0
100
AcDbLine
10
22.940837
20
17.931308
30
0
11
33.615886
21
15.070938
31
0
39
0
210
0
220
0
230
1
0
LINE
5
F5
100
AcDbEntity
8
1
62
256
6
ByLayer
370
18
48
1
60
0
100
AcDbLine
10
21.925031
20
17.337751
30
0
11
21.982341
21
17.370839
31
0
39
0
210
0
220
0
230
1
0
LINE
5
F6
100
AcDbEntity
8
1
62
256
6
ByLayer
370
18
48
1
60
0
100
AcDbLine
10
30.433436
20
2.807547
30
0
11
30.480004
21
2.834433
31
0
39
0
210
0
220
0
230
1
0
MTEXT
5
17E
100
AcDbEntity
8
SK6
62
256
6
ByLayer
370
18
48
1
60
0
100
AcDbMText
10
-55.592817
20
-21.765396
30
0
210
0
220
0
230
1
1
\W0.7434;CSRNR 2525M 12-4
40
3.5
41
0
44
1.084337
50
0
71
7
72
5
7
iso_b_vert
0
DIMENSION
5
18F
100
AcDbEntity
8
2
62
256
6
ByLayer
370
13
48
1
60
0
100
AcDbDimension
2
DimnDraft3D1
10
30.776132
20
15.831847
30
0
11
18.710647
21
35.107979
31
0
70
34
71
5
72
1
41
1
210
0
220
0
230
1
3
Standard
100
AcDb2LineAngularDimension
13
34.207183
23
14.9125
33
0
14
34.207183
24
13.325
34
0
15
34.207183
25
14.9125
35
0
16
21.450074
26
31.537889
36
0
40
0
0
DIMENSION
5
1A5
100
AcDbEntity
8
SK2
62
256
6
ByLayer
370
13
48
1
60
0
100
AcDbDimension
2
DimnDraft3D2
10
-124.892817
20
12.4375
30
0
11
-124.892817
21
-5.281579
31
0
70
32
71
5
72
1
41
1
210
0
220
0
230
1
3
Standard
100
AcDbAlignedDimension
13
-119.142817
23
-12.4375
33
0
14
-119.142817
24
12.4375
34
0
50
90
100
AcDbRotatedDimension
1001
ACAD
1000
DSTYLE
1002
{
1070
    74
1070
     0
1070
   279
1070
     0
1070
   172
1070
     1
1070
   173
1070
     1
1070
   340
1005
17F
1070
    77
1070
     1
1070
    73
1070
     0
1070
   171
1070
     3
1070
   274
1070
     4
1070
   177
1070
     2
1070
   176
1070
     2
1070
   178
1070
     7
1070
    78
1070
     8
1070
    41
1041
3.175
1070
   147
1041
2.25
1070
    42
1041
2.0
1070
    44
1041
2.0
1070
   140
1041
4.5
1070
   343
1005
190
1070
   344
1005
190
1002
}
0
DIMENSION
5
1B3
100
AcDbEntity
8
2
62
256
6
ByLayer
370
13
48
1
60
0
100
AcDbDimension
2
DimnDraft3D3
10
56.457183
20
14.9125
30
0
11
56.457183
21
-4.044079
31
0
70
32
71
5
72
1
41
1
210
0
220
0
230
1
3
Standard
100
AcDbAlignedDimension
13
2
23
-12.4375
33
0
14
36.207183
24
14.9125
34
0
50
90
100
AcDbRotatedDimension
1001
ACAD
1000
DSTYLE
1002
{
1070
    74
1070
     0
1070
   279
1070
     0
1070
   172
1070
     1
1070
   173
1070
     1
1070
   340
1005
17F
1070
    77
1070
     1
1070
    73
1070
     0
1070
   171
1070
     3
1070
   274
1070
     4
1070
   177
1070
     2
1070
   176
1070
     2
1070
   178
1070
     7
1070
    78
1070
     8
1070
    41
1041
3.175
1070
   147
1041
2.25
1070
    42
1041
2.0
1070
    44
1041
2.0
1070
   140
1041
4.5
1070
   343
1005
190
1070
   344
1005
190
1002
}
0
DIMENSION
5
1C1
100
AcDbEntity
8
2
62
256
6
ByLayer
370
13
48
1
60
0
100
AcDbDimension
2
DimnDraft3D4
10
34.207183
20
44.6625
30
0
11
11.585171
21
44.6625
31
0
70
32
71
5
72
1
41
1
210
0
220
0
230
1
3
Standard
100
AcDbAlignedDimension
13
0
23
14.4375
33
0
14
34.207183
24
16.9125
34
0
50
0
100
AcDbRotatedDimension
1001
ACAD
1000
DSTYLE
1002
{
1070
   279
1070
     0
1070
   172
1070
     1
1070
   173
1070
     1
1070
   340
1005
17F
1070
    77
1070
     1
1070
    73
1070
     0
1070
   171
1070
     3
1070
   274
1070
     4
1070
   177
1070
     2
1070
   176
1070
     2
1070
   178
1070
     7
1070
    78
1070
     8
1070
    41
1041
3.175
1070
   147
1041
2.25
1070
    42
1041
2.0
1070
    44
1041
2.0
1070
   140
1041
4.5
1070
   343
1005
190
1070
   344
1005
190
1002
}
0
DIMENSION
5
1CF
100
AcDbEntity
8
SK2
62
256
6
ByLayer
370
13
48
1
60
0
100
AcDbDimension
2
DimnDraft3D5
10
-117.142817
20
54.6625
30
0
11
-47.868475
21
54.6625
31
0
70
32
71
5
72
1
41
1
210
0
220
0
230
1
3
Standard
100
AcDbAlignedDimension
13
34.207183
23
16.9125
33
0
14
-117.142817
24
14.4375
34
0
50
0
100
AcDbRotatedDimension
1001
ACAD
1000
DSTYLE
1002
{
1070
   279
1070
     0
1070
   172
1070
     1
1070
   173
1070
     1
1070
   340
1005
17F
1070
    77
1070
     1
1070
    73
1070
     0
1070
   171
1070
     3
1070
   274
1070
     4
1070
   177
1070
     2
1070
   176
1070
     2
1070
   178
1070
     7
1070
    78
1070
     8
1070
    41
1041
3.175
1070
   147
1041
2.25
1070
    42
1041
2.0
1070
    44
1041
2.0
1070
   140
1041
4.5
1070
   343
1005
190
1070
   344
1005
190
1002
}
0
ENDSEC
0
SECTION
2
OBJECTS
0
DICTIONARY
5
239
330
0
100
AcDbDictionary
280
0
281
1
3
ACAD_GROUP
350
23a
3
ACAD_MLINESTYLE
350
23b
0
DICTIONARY
5
23a
330
0
100
AcDbDictionary
280
0
281
1
0
DICTIONARY
5
23b
330
0
100
AcDbDictionary
280
0
281
1
3
Standard
350
18
0
MLINESTYLE
5
18
330
23b
100
AcDbMlineStyle
2
Standard
70
0
3

62
256
51
90
52
90
71
2
49
-0.5
62
256
6
ByLayer
49
0.5
62
256
6
ByLayer
0
RASTERVARIABLES
5
228
330

100
AcDbRasterVariables
90
0
70
1
71
1
72
1
0
ENDSEC
0
EOF
