0
SECTION
2
HEADER
9
$ACADVER
1
AC1015
9
$DWGCODEPAGE
3
ANSI_1252
9
$HANDSEED
5
23e
9
$ANGBASE
50
0
9
$ANGDIR
70
0
9
$ATTMODE
70
1
9
$AUNITS
70
0
9
$AUPREC
70
0
9
$CECOLOR
62
256
9
$CELTSCALE
40
1
9
$CELTYPE
6
ByLayer
9
$CELWEIGHT
370
18
9
$CLAYER
8
0
9
$CMLJUST
70
0
9
$CMLSCALE
40
1
9
$CMLSTYLE
2
Standard
9
$DIMSTYLE
2
Standard
9
$TEXTSIZE
40
0.2
9
$TEXTSTYLE
7
Standard
9
$LUNITS
70
2
9
$LUPREC
70
4
9
$EXTNAMES
290
1
9
$INSUNITS
70
4
9
$LTSCALE
40
1
9
$LWDISPLAY
290
1
9
$PDMODE
70
0
9
$PDSIZE
40
0
9
$PLINEGEN
70
0
0
ENDSEC
0
SECTION
2
CLASSES
0
CLASS
1
RASTERVARIABLES
2
AcDbRasterVariables
3
ISM
90
0
280
0
281
0
0
ENDSEC
0
SECTION
2
TABLES
0
TABLE
2
VPORT
5
234
100
AcDbSymbolTable
0
VPORT
5
1
100
AcDbSymbolTableRecord
100
AcDbViewportTableRecord
2
*Active
70
0
10
0
20
0
11
1
21
1
12
-1
22
1
13
0
23
0
14
0.5
24
0.5
15
10
25
10
16
0
26
0
36
1
17
0
27
0
37
0
0
ENDTAB
0
TABLE
2
LTYPE
5
235
100
AcDbSymbolTable
0
LTYPE
5
14
100
AcDbSymbolTableRecord
100
AcDbLinetypeTableRecord
70
0
2
ByBlock
3

72
65
73
0
40
0
0
LTYPE
5
15
100
AcDbSymbolTableRecord
100
AcDbLinetypeTableRecord
70
0
2
ByLayer
3

72
65
73
0
40
0
0
LTYPE
5
16
100
AcDbSymbolTableRecord
100
AcDbLinetypeTableRecord
70
0
2
CONTINUOUS
3
Solid line
72
65
73
0
40
0
0
LTYPE
5
6A
100
AcDbSymbolTableRecord
100
AcDbLinetypeTableRecord
70
0
2
CENTER
3
____ _ ____ _ ____ _ ____
72
65
73
4
40
47.5
49
22
74
0
49
-8.5
74
0
49
8.5
74
0
49
-8.5
74
0
0
LTYPE
5
6B
100
AcDbSymbolTableRecord
100
AcDbLinetypeTableRecord
70
0
2
DASHED
3
__ __ __ __ __ __ __ __ __
72
65
73
2
40
25.72
49
12.86
74
0
49
-12.86
74
0
0
ENDTAB
0
TABLE
2
LAYER
5
236
100
AcDbSymbolTable
0
LAYER
5
10
100
AcDbSymbolTableRecord
100
AcDbLayerTableRecord
2
0
70
0
62
7
6
CONTINUOUS
290
1
370
-3
390
0
0
LAYER
5
6D
100
AcDbSymbolTableRecord
100
AcDbLayerTableRecord
2
2
70
0
62
7
6
CONTINUOUS
290
1
370
-3
390
0
0
LAYER
5
6F
100
AcDbSymbolTableRecord
100
AcDbLayerTableRecord
2
80
70
0
62
-6
6
CONTINUOUS
290
1
370
-3
390
0
0
LAYER
5
71
100
AcDbSymbolTableRecord
100
AcDbLayerTableRecord
2
81
70
0
62
-3
6
CONTINUOUS
290
1
370
-3
390
0
0
LAYER
5
73
100
AcDbSymbolTableRecord
100
AcDbLayerTableRecord
2
1
70
0
62
4
6
CONTINUOUS
290
1
370
-3
390
0
0
LAYER
5
221
100
AcDbSymbolTableRecord
100
AcDbLayerTableRecord
2
SK1
70
0
62
4
6
CONTINUOUS
290
1
370
-3
390
0
0
LAYER
5
222
100
AcDbSymbolTableRecord
100
AcDbLayerTableRecord
2
SK6
70
0
62
5
6
CONTINUOUS
290
1
370
-3
390
0
0
LAYER
5
223
100
AcDbSymbolTableRecord
100
AcDbLayerTableRecord
2
SK2
70
0
62
7
6
CONTINUOUS
290
1
370
-3
390
0
0
ENDTAB
0
TABLE
2
STYLE
5
237
100
AcDbSymbolTable
0
STYLE
5
11
100
AcDbSymbolTableRecord
100
AcDbTextStyleTableRecord
2
Standard
3
txt
70
0
71
0
40
0
41
1
42
0
50
0
0
STYLE
5
177
100
AcDbSymbolTableRecord
100
AcDbTextStyleTableRecord
2
iso_b_vert
3
simplex.shx
70
0
71
0
40
0
41
1
42
0
50
0
0
STYLE
5
178
100
AcDbSymbolTableRecord
100
AcDbTextStyleTableRecord
2
DWGDirectTextStyle
3
simplex
70
0
71
0
40
0
41
1
42
0
50
0
0
ENDTAB
0
TABLE
2
DIMSTYLE
5
238
100
AcDbSymbolTable
100
AcDbDimStyleTable
0
DIMSTYLE
105
27
100
AcDbSymbolTableRecord
100
AcDbDimStyleTableRecord
2
Standard
70
0
3
<>
41
0.18
42
0.0625
44
0.18
140
0.18
147
0.09
73
0
74
0
77
1
271
2
275
0
278
52
280
0
340
11
0
ENDTAB
0
TABLE
2
VIEW
5
239
100
AcDbSymbolTable
0
ENDTAB
0
TABLE
2
UCS
5
23a
100
AcDbSymbolTable
0
ENDTAB
0
TABLE
2
APPID
5
23b
100
AcDbSymbolTable
0
APPID
5
12
100
AcDbSymbolTableRecord
100
AcDbRegAppTableRecord
2
ACAD
70
0
0
ENDTAB
0
TABLE
2
BLOCK_RECORD
5
23c
100
AcDbSymbolTable
0
BLOCK_RECORD
5
1F
100
AcDbSymbolTableRecord
100
AcDbBlockTableRecord
2
*Model_Space
340
0
70
0
0
BLOCK_RECORD
5
1B
100
AcDbSymbolTableRecord
100
AcDbBlockTableRecord
2
*Paper_Space
340
0
70
0
0
BLOCK_RECORD
5
23
100
AcDbSymbolTableRecord
100
AcDbBlockTableRecord
2
*Paper_Space0
340
0
70
0
0
BLOCK_RECORD
5
17A
100
AcDbSymbolTableRecord
100
AcDbBlockTableRecord
2
DimnDraft3D11
340
0
70
0
0
BLOCK_RECORD
5
189
100
AcDbSymbolTableRecord
100
AcDbBlockTableRecord
2
DimnDraft3D2
340
0
70
0
0
BLOCK_RECORD
5
197
100
AcDbSymbolTableRecord
100
AcDbBlockTableRecord
2
_CLOSED
340
0
70
0
0
BLOCK_RECORD
5
19E
100
AcDbSymbolTableRecord
100
AcDbBlockTableRecord
2
DimnDraft3D3
340
0
70
0
0
BLOCK_RECORD
5
1AC
100
AcDbSymbolTableRecord
100
AcDbBlockTableRecord
2
DimnDraft3D4
340
0
70
0
0
BLOCK_RECORD
5
1BA
100
AcDbSymbolTableRecord
100
AcDbBlockTableRecord
2
DimnDraft3D5
340
0
70
0
0
ENDTAB
0
ENDSEC
0
SECTION
2
BLOCKS
0
BLOCK
5
20
100
AcDbEntity
8
0
100
AcDbBlockBegin
2
*Model_Space
70
0
10
0
20
0
30
0
3
*Model_Space
0
ENDBLK
5
21
100
AcDbEntity
8
0
100
AcDbBlockEnd
0
BLOCK
5
1C
100
AcDbEntity
8
0
100
AcDbBlockBegin
2
*Paper_Space
70
0
10
0
20
0
30
0
3
*Paper_Space
0
ENDBLK
5
1D
100
AcDbEntity
8
0
100
AcDbBlockEnd
0
BLOCK
5
24
100
AcDbEntity
8
0
100
AcDbBlockBegin
2
*Paper_Space0
70
0
10
0
20
0
30
0
3
*Paper_Space0
0
ENDBLK
5
25
100
AcDbEntity
8
0
100
AcDbBlockEnd
0
BLOCK
5
17B
100
AcDbEntity
8
0
100
AcDbBlockBegin
2
DimnDraft3D11
70
0
10
0
20
0
30
0
3
DimnDraft3D11
0
LINE
5
17D
100
AcDbEntity
8
SK2
62
256
6
ByLayer
370
25
48
1
60
0
100
AcDbLine
10
23.644301
20
-21.9125
30
0
11
23.644301
21
-55.1625
31
0
39
0
210
0
220
0
230
1
0
LINE
5
17F
100
AcDbEntity
8
SK2
62
256
6
ByLayer
370
25
48
1
60
0
100
AcDbLine
10
-127.705699
20
-14.4375
30
0
11
-127.705699
21
-55.1625
31
0
39
0
210
0
220
0
230
1
0
LINE
5
180
100
AcDbEntity
8
SK2
62
256
6
ByLayer
370
25
48
1
60
0
100
AcDbLine
10
23.644301
20
-53.1625
30
0
11
-127.705699
21
-53.1625
31
0
39
0
210
0
220
0
230
1
0
LINE
5
181
100
AcDbEntity
8
SK2
62
256
6
ByLayer
370
25
48
1
60
0
100
AcDbLine
10
23.644301
20
-53.1625
30
0
11
20.469302
21
-53.580497
31
0
39
0
210
0
220
0
230
1
0
LINE
5
182
100
AcDbEntity
8
SK2
62
256
6
ByLayer
370
25
48
1
60
0
100
AcDbLine
10
23.644301
20
-53.1625
30
0
11
20.469299
21
-52.744503
31
0
39
0
210
0
220
0
230
1
0
LINE
5
183
100
AcDbEntity
8
SK2
62
256
6
ByLayer
370
25
48
1
60
0
100
AcDbLine
10
20.469302
20
-53.580497
30
0
11
20.469299
21
-52.744503
31
0
39
0
210
0
220
0
230
1
0
LINE
5
184
100
AcDbEntity
8
SK2
62
256
6
ByLayer
370
25
48
1
60
0
100
AcDbLine
10
-127.705699
20
-53.1625
30
0
11
-124.530701
21
-52.744503
31
0
39
0
210
0
220
0
230
1
0
LINE
5
185
100
AcDbEntity
8
SK2
62
256
6
ByLayer
370
25
48
1
60
0
100
AcDbLine
10
-127.705699
20
-53.1625
30
0
11
-124.530698
21
-53.580497
31
0
39
0
210
0
220
0
230
1
0
LINE
5
186
100
AcDbEntity
8
SK2
62
256
6
ByLayer
370
25
48
1
60
0
100
AcDbLine
10
-124.530701
20
-52.744503
30
0
11
-124.530698
21
-53.580497
31
0
39
0
210
0
220
0
230
1
0
MTEXT
5
187
100
AcDbEntity
8
SK2
62
256
6
ByLayer
370
18
48
1
60
0
100
AcDbMText
10
-57.306357
20
-52.0375
30
0
210
0
220
0
230
1
1
\W0.6864;150.0
40
4.5
41
0
44
1.084337
50
0
71
7
72
5
7
iso_b_vert
0
ENDBLK
5
17C
100
AcDbEntity
8
0
100
AcDbBlockEnd
0
BLOCK
5
194
100
AcDbEntity
8
0
100
AcDbBlockBegin
2
DimnDraft3D2
70
0
10
0
20
0
30
0
3
DimnDraft3D2
0
MTEXT
5
18A
100
AcDbEntity
8
2
62
256
6
ByLayer
370
18
48
1
60
0
100
AcDbMText
10
39.385189
20
-4.154673
30
0
210
0
220
0
230
1
1
\W0.7399;75%%d
40
4.5
41
0
44
1.084337
50
307.5
71
7
72
5
7
iso_b_vert
0
LINE
5
18B
100
AcDbEntity
8
2
62
256
6
ByLayer
370
13
48
1
60
0
100
AcDbLine
10
25.644301
20
-19.9125
30
0
11
46.600145
21
-19.9125
31
0
39
0
210
0
220
0
230
1
0
LINE
5
18C
100
AcDbEntity
8
2
62
256
6
ByLayer
370
13
48
1
60
0
100
AcDbLine
10
24.964278
20
-14.986278
30
0
11
29.58571
21
2.261143
31
0
39
0
210
0
220
0
230
1
0
ARC
5
18D
100
AcDbEntity
8
2
62
256
6
ByLayer
370
13
48
1
60
0
100
AcDbCircle
39
0
10
23.644301
20
-19.9125
30
0
40
20.9558441220058
210
0
220
0
230
1
100
AcDbArc
50
0
51
75
0
LINE
5
18E
100
AcDbEntity
8
2
62
256
6
ByLayer
370
13
48
1
60
0
100
AcDbLine
10
44.600145
20
-19.9125
30
0
11
44.062444
21
-16.755569
31
0
39
0
210
0
220
0
230
1
0
LINE
5
18F
100
AcDbEntity
8
2
62
256
6
ByLayer
370
13
48
1
60
0
100
AcDbLine
10
44.600145
20
-19.9125
30
0
11
44.89784
21
-16.723968
31
0
39
0
210
0
220
0
230
1
0
LINE
5
190
100
AcDbEntity
8
2
62
256
6
ByLayer
370
13
48
1
60
0
100
AcDbLine
10
44.062444
20
-16.755569
30
0
11
44.89784
21
-16.723968
31
0
39
0
210
0
220
0
230
1
0
LINE
5
191
100
AcDbEntity
8
2
62
256
6
ByLayer
370
13
48
1
60
0
100
AcDbLine
10
29.068072
20
0.329291
30
0
11
32.225003
21
-0.208409
31
0
39
0
210
0
220
0
230
1
0
LINE
5
192
100
AcDbEntity
8
2
62
256
6
ByLayer
370
13
48
1
60
0
100
AcDbLine
10
29.068072
20
0.329291
30
0
11
31.978269
21
-1.007162
31
0
39
0
210
0
220
0
230
1
0
LINE
5
193
100
AcDbEntity
8
2
62
256
6
ByLayer
370
13
48
1
60
0
100
AcDbLine
10
32.225003
20
-0.208409
30
0
11
31.978269
21
-1.007162
31
0
39
0
210
0
220
0
230
1
0
ENDBLK
5
195
100
AcDbEntity
8
0
100
AcDbBlockEnd
0
BLOCK
5
198
100
AcDbEntity
8
0
100
AcDbBlockBegin
2
_CLOSED
70
0
10
0
20
0
30
0
3
_CLOSED
0
LINE
5
19A
100
AcDbEntity
8
0
62
256
6
ByLayer
370
-2
48
1
60
0
100
AcDbLine
10
-1
20
0.166667
30
0
11
0
21
0
31
0
39
0
210
0
220
0
230
1
0
LINE
5
19B
100
AcDbEntity
8
0
62
256
6
ByLayer
370
-2
48
1
60
0
100
AcDbLine
10
0
20
0
30
0
11
-1
21
-0.166667
31
0
39
0
210
0
220
0
230
1
0
LINE
5
19C
100
AcDbEntity
8
0
62
256
6
ByLayer
370
-2
48
1
60
0
100
AcDbLine
10
-1
20
0.166667
30
0
11
-1
21
-0.166667
31
0
39
0
210
0
220
0
230
1
0
LINE
5
19D
100
AcDbEntity
8
0
62
256
6
ByLayer
370
-2
48
1
60
0
100
AcDbLine
10
0
20
0
30
0
11
-1
21
0
31
0
39
0
210
0
220
0
230
1
0
ENDBLK
5
199
100
AcDbEntity
8
0
100
AcDbBlockEnd
0
BLOCK
5
1A9
100
AcDbEntity
8
0
100
AcDbBlockBegin
2
DimnDraft3D3
70
0
10
0
20
0
30
0
3
DimnDraft3D3
0
MTEXT
5
19F
100
AcDbEntity
8
2
62
256
6
ByLayer
370
18
48
1
60
0
100
AcDbMText
10
7.665571
20
-42.0375
30
0
210
0
220
0
230
1
1
\W0.7346;23.6
40
4.5
41
0
44
1.084337
50
0
71
7
72
5
7
iso_b_vert
0
LINE
5
1A0
100
AcDbEntity
8
2
62
256
6
ByLayer
370
13
48
1
60
0
100
AcDbLine
10
0
20
-14.4375
30
0
11
0
21
-45.1625
31
0
39
0
210
0
220
0
230
1
0
LINE
5
1A1
100
AcDbEntity
8
2
62
256
6
ByLayer
370
13
48
1
60
0
100
AcDbLine
10
23.644301
20
-21.9125
30
0
11
23.644301
21
-45.1625
31
0
39
0
210
0
220
0
230
1
0
LINE
5
1A2
100
AcDbEntity
8
2
62
256
6
ByLayer
370
13
48
1
60
0
100
AcDbLine
10
0
20
-43.1625
30
0
11
23.644301
21
-43.1625
31
0
39
0
210
0
220
0
230
1
0
LINE
5
1A3
100
AcDbEntity
8
2
62
256
6
ByLayer
370
13
48
1
60
0
100
AcDbLine
10
0
20
-43.1625
30
0
11
3.174998
21
-42.744503
31
0
39
0
210
0
220
0
230
1
0
LINE
5
1A4
100
AcDbEntity
8
2
62
256
6
ByLayer
370
13
48
1
60
0
100
AcDbLine
10
0
20
-43.1625
30
0
11
3.175002
21
-43.580497
31
0
39
0
210
0
220
0
230
1
0
LINE
5
1A5
100
AcDbEntity
8
2
62
256
6
ByLayer
370
13
48
1
60
0
100
AcDbLine
10
3.174998
20
-42.744503
30
0
11
3.175002
21
-43.580497
31
0
39
0
210
0
220
0
230
1
0
LINE
5
1A6
100
AcDbEntity
8
2
62
256
6
ByLayer
370
13
48
1
60
0
100
AcDbLine
10
23.644301
20
-43.1625
30
0
11
20.469302
21
-43.580497
31
0
39
0
210
0
220
0
230
1
0
LINE
5
1A7
100
AcDbEntity
8
2
62
256
6
ByLayer
370
13
48
1
60
0
100
AcDbLine
10
23.644301
20
-43.1625
30
0
11
20.469299
21
-42.744503
31
0
39
0
210
0
220
0
230
1
0
LINE
5
1A8
100
AcDbEntity
8
2
62
256
6
ByLayer
370
13
48
1
60
0
100
AcDbLine
10
20.469302
20
-43.580497
30
0
11
20.469299
21
-42.744503
31
0
39
0
210
0
220
0
230
1
0
ENDBLK
5
1AA
100
AcDbEntity
8
0
100
AcDbBlockEnd
0
BLOCK
5
1B7
100
AcDbEntity
8
0
100
AcDbBlockBegin
2
DimnDraft3D4
70
0
10
0
20
0
30
0
3
DimnDraft3D4
0
MTEXT
5
1AD
100
AcDbEntity
8
2
62
256
6
ByLayer
370
18
48
1
60
0
100
AcDbMText
10
62.769301
20
-7.894079
30
0
210
0
220
0
230
1
1
\W0.7346;32.0
40
4.5
41
0
44
1.084337
50
90
71
7
72
5
7
iso_b_vert
0
LINE
5
1AE
100
AcDbEntity
8
2
62
256
6
ByLayer
370
13
48
1
60
0
100
AcDbLine
10
2
20
12.4375
30
0
11
65.894301
21
12.4375
31
0
39
0
210
0
220
0
230
1
0
LINE
5
1AF
100
AcDbEntity
8
2
62
256
6
ByLayer
370
13
48
1
60
0
100
AcDbLine
10
25.644301
20
-19.9125
30
0
11
65.894301
21
-19.9125
31
0
39
0
210
0
220
0
230
1
0
LINE
5
1B0
100
AcDbEntity
8
2
62
256
6
ByLayer
370
13
48
1
60
0
100
AcDbLine
10
63.894301
20
12.4375
30
0
11
63.894301
21
-19.9125
31
0
39
0
210
0
220
0
230
1
0
LINE
5
1B1
100
AcDbEntity
8
2
62
256
6
ByLayer
370
13
48
1
60
0
100
AcDbLine
10
63.894301
20
12.4375
30
0
11
64.312297
21
9.262502
31
0
39
0
210
0
220
0
230
1
0
LINE
5
1B2
100
AcDbEntity
8
2
62
256
6
ByLayer
370
13
48
1
60
0
100
AcDbLine
10
63.894301
20
12.4375
30
0
11
63.476304
21
9.262498
31
0
39
0
210
0
220
0
230
1
0
LINE
5
1B3
100
AcDbEntity
8
2
62
256
6
ByLayer
370
13
48
1
60
0
100
AcDbLine
10
64.312297
20
9.262502
30
0
11
63.476304
21
9.262498
31
0
39
0
210
0
220
0
230
1
0
LINE
5
1B4
100
AcDbEntity
8
2
62
256
6
ByLayer
370
13
48
1
60
0
100
AcDbLine
10
63.894301
20
-19.9125
30
0
11
63.476304
21
-16.737502
31
0
39
0
210
0
220
0
230
1
0
LINE
5
1B5
100
AcDbEntity
8
2
62
256
6
ByLayer
370
13
48
1
60
0
100
AcDbLine
10
63.894301
20
-19.9125
30
0
11
64.312297
21
-16.737498
31
0
39
0
210
0
220
0
230
1
0
LINE
5
1B6
100
AcDbEntity
8
2
62
256
6
ByLayer
370
13
48
1
60
0
100
AcDbLine
10
63.476304
20
-16.737502
30
0
11
64.312297
21
-16.737498
31
0
39
0
210
0
220
0
230
1
0
ENDBLK
5
1B8
100
AcDbEntity
8
0
100
AcDbBlockEnd
0
BLOCK
5
1C5
100
AcDbEntity
8
0
100
AcDbBlockBegin
2
DimnDraft3D5
70
0
10
0
20
0
30
0
3
DimnDraft3D5
0
MTEXT
5
1BB
100
AcDbEntity
8
SK2
62
256
6
ByLayer
370
18
48
1
60
0
100
AcDbMText
10
-136.580699
20
-4.156579
30
0
210
0
220
0
230
1
1
\W0.7346;25.0
40
4.5
41
0
44
1.084337
50
90
71
7
72
5
7
iso_b_vert
0
LINE
5
1BC
100
AcDbEntity
8
SK2
62
256
6
ByLayer
370
13
48
1
60
0
100
AcDbLine
10
-129.705699
20
12.4375
30
0
11
-137.455699
21
12.4375
31
0
39
0
210
0
220
0
230
1
0
LINE
5
1BD
100
AcDbEntity
8
SK2
62
256
6
ByLayer
370
13
48
1
60
0
100
AcDbLine
10
-129.705699
20
-12.4375
30
0
11
-137.455699
21
-12.4375
31
0
39
0
210
0
220
0
230
1
0
LINE
5
1BE
100
AcDbEntity
8
SK2
62
256
6
ByLayer
370
13
48
1
60
0
100
AcDbLine
10
-135.455699
20
12.4375
30
0
11
-135.455699
21
-12.4375
31
0
39
0
210
0
220
0
230
1
0
LINE
5
1BF
100
AcDbEntity
8
SK2
62
256
6
ByLayer
370
13
48
1
60
0
100
AcDbLine
10
-135.455699
20
12.4375
30
0
11
-135.037703
21
9.262502
31
0
39
0
210
0
220
0
230
1
0
LINE
5
1C0
100
AcDbEntity
8
SK2
62
256
6
ByLayer
370
13
48
1
60
0
100
AcDbLine
10
-135.455699
20
12.4375
30
0
11
-135.873696
21
9.262498
31
0
39
0
210
0
220
0
230
1
0
LINE
5
1C1
100
AcDbEntity
8
SK2
62
256
6
ByLayer
370
13
48
1
60
0
100
AcDbLine
10
-135.037703
20
9.262502
30
0
11
-135.873696
21
9.262498
31
0
39
0
210
0
220
0
230
1
0
LINE
5
1C2
100
AcDbEntity
8
SK2
62
256
6
ByLayer
370
13
48
1
60
0
100
AcDbLine
10
-135.455699
20
-12.4375
30
0
11
-135.873696
21
-9.262502
31
0
39
0
210
0
220
0
230
1
0
LINE
5
1C3
100
AcDbEntity
8
SK2
62
256
6
ByLayer
370
13
48
1
60
0
100
AcDbLine
10
-135.455699
20
-12.4375
30
0
11
-135.037703
21
-9.262498
31
0
39
0
210
0
220
0
230
1
0
LINE
5
1C4
100
AcDbEntity
8
SK2
62
256
6
ByLayer
370
13
48
1
60
0
100
AcDbLine
10
-135.873696
20
-9.262502
30
0
11
-135.037703
21
-9.262498
31
0
39
0
210
0
220
0
230
1
0
ENDBLK
5
1C6
100
AcDbEntity
8
0
100
AcDbBlockEnd
0
ENDSEC
0
SECTION
2
ENTITIES
0
ELLIPSE
5
EF
100
AcDbEntity
8
1
62
256
6
ByLayer
370
18
48
1
60
0
100
AcDbEllipse
10
8.28452
20
-29.605345
30
0
11
-7.97228031780434
21
-13.1033309050226
31
0
210
0
220
0
230
1
40
0.525
41
-2.59482131811884
42
-2.58380833882673
0
ELLIPSE
5
F0
100
AcDbEntity
8
1
62
256
6
ByLayer
370
18
48
1
60
0
100
AcDbEllipse
10
19.364613
20
-12.848649
30
0
11
2.90477494116407
21
1.67707259421641
31
0
210
0
220
0
230
1
40
0.989133
41
-2.84815011848921
42
-1.65050729530882
0
ELLIPSE
5
F1
100
AcDbEntity
8
1
62
256
6
ByLayer
370
18
48
1
60
0
100
AcDbEllipse
10
19.364613
20
-12.848649
30
0
11
2.90477494116407
21
1.67707259421641
31
0
210
0
220
0
230
1
40
0.989133
41
-1.489630959737
42
-0.457049043256976
0
ELLIPSE
5
F2
100
AcDbEntity
8
1
62
256
6
ByLayer
370
18
48
1
60
0
100
AcDbEllipse
10
19.313154
20
-12.75952
30
0
11
4.13660254037841
21
2.38826859021805
31
0
210
0
220
0
230
1
40
0.989133
41
0.448056941986277
42
0.464028877238199
0
ELLIPSE
5
F3
100
AcDbEntity
8
1
62
256
6
ByLayer
370
18
48
1
60
0
100
AcDbEllipse
10
19.313154
20
-12.75952
30
0
11
4.13660254037841
21
2.38826859021805
31
0
210
0
220
0
230
1
40
0.989133
41
2.51301393229154
42
2.52992920344713
0
ELLIPSE
5
F4
100
AcDbEntity
8
1
62
256
6
ByLayer
370
18
48
1
60
0
100
AcDbEllipse
10
19.114671
20
-12.415737
30
0
11
-4.76313972081437
21
-2.75000000000007
31
0
210
0
220
0
230
1
40
0.989133
41
-2.7870635946694
42
-2.61421735721781
0
ELLIPSE
5
F5
100
AcDbEntity
8
1
62
256
6
ByLayer
370
18
48
1
60
0
100
AcDbEllipse
10
24.134566
20
-7.640267
30
0
11
1.37481532850774
21
0.793749999999997
31
0
210
0
220
0
230
1
40
0.989133
41
0.162419990279973
42
0.408593389014304
0
ELLIPSE
5
F6
100
AcDbEntity
8
1
62
256
6
ByLayer
370
18
48
1
60
0
100
AcDbEllipse
10
12.322868
20
-0.198011
30
0
11
-0.329089653438084
21
-0.190000000000005
31
0
210
0
220
0
230
1
40
0.989133
41
0.455618177146575
42
0.812068914915883
0
ELLIPSE
5
F7
100
AcDbEntity
8
1
62
256
6
ByLayer
370
18
48
1
60
0
100
AcDbEllipse
10
14.286917
20
0.733065
30
0
11
-0.329089653438084
21
-0.190000000000005
31
0
210
0
220
0
230
1
40
0.989133
41
2.16591723051733
42
2.68595077986908
0
ELLIPSE
5
F8
100
AcDbEntity
8
1
62
256
6
ByLayer
370
18
48
1
60
0
100
AcDbEllipse
10
12.132154
20
-0.975363
30
0
11
0.368060796608383
21
0.212500000000005
31
0
210
0
220
0
230
1
40
0.989133
41
-1.50816586721908E-05
42
0.812068914916029
0
ELLIPSE
5
F9
100
AcDbEntity
8
1
62
256
6
ByLayer
370
18
48
1
60
0
100
AcDbEllipse
10
15.007427
20
0.387687
30
0
11
0.368060796608383
21
0.212500000000005
31
0
210
0
220
0
230
1
40
0.989133
41
2.16591723051744
42
3.1415794495583
0
ELLIPSE
5
FA
100
AcDbEntity
8
1
62
256
6
ByLayer
370
18
48
1
60
0
100
AcDbEllipse
10
12.852664
20
-1.320741
30
0
11
-0.329089653438084
21
-0.190000000000005
31
0
210
0
220
0
230
1
40
0.989133
41
0.455615844141953
42
1.85926646611258
0
ELLIPSE
5
FB
100
AcDbEntity
8
1
62
256
6
ByLayer
370
18
48
1
60
0
100
AcDbEllipse
10
14.816713
20
-0.389665
30
0
11
-0.329089653438084
21
-0.190000000000005
31
0
210
0
220
0
230
1
40
0.989133
41
1.1187196793209
42
2.68591227252009
0
ELLIPSE
5
FC
100
AcDbEntity
8
1
62
256
6
ByLayer
370
18
48
1
60
0
100
AcDbEllipse
10
13.492603
20
-0.160145
30
0
11
3.46410161513773
21
2.00000000000005
31
0
210
0
220
0
230
1
40
0.989133
41
1.05191587274162
42
3.14150558752331
0
ELLIPSE
5
FD
100
AcDbEntity
8
1
62
256
6
ByLayer
370
18
48
1
60
0
100
AcDbEllipse
10
13.492603
20
-0.160145
30
0
11
3.46410161513773
21
2.00000000000005
31
0
210
0
220
0
230
1
40
0.989133
41
-0.509417668450805
42
-2.45529455226701E-16
0
ELLIPSE
5
FE
100
AcDbEntity
8
1
62
256
6
ByLayer
370
18
48
1
60
0
100
AcDbEllipse
10
13.492603
20
-0.160145
30
0
11
3.46410161513773
21
2.00000000000005
31
0
210
0
220
0
230
1
40
0.989133
41
1.11311519705021E-05
42
1.05191587274162
0
ELLIPSE
5
FF
100
AcDbEntity
8
1
62
256
6
ByLayer
370
18
48
1
60
0
100
AcDbEllipse
10
13.569791
20
-0.293838
30
0
11
0.995929214352096
21
0.575000000000015
31
0
210
0
220
0
230
1
40
0.989133
41
1.16308754848267
42
1.75576822926323
0
ELLIPSE
5
100
100
AcDbEntity
8
1
62
256
6
ByLayer
370
18
48
1
60
0
100
AcDbEllipse
10
13.569791
20
-0.293838
30
0
11
0.995929214352096
21
0.575000000000015
31
0
210
0
220
0
230
1
40
0.989133
41
2.45251488008977
42
-2.44004427554486E-16
0
ELLIPSE
5
101
100
AcDbEntity
8
1
62
256
6
ByLayer
370
18
48
1
60
0
100
AcDbEllipse
10
13.569791
20
-0.293838
30
0
11
0.995929214352096
21
0.575000000000015
31
0
210
0
220
0
230
1
40
0.989133
41
0
42
0.509145613340009
0
ELLIPSE
5
102
100
AcDbEntity
8
1
62
256
6
ByLayer
370
18
48
1
60
0
100
AcDbEllipse
10
13.507305
20
-0.18561
30
0
11
0.995929214352096
21
0.575000000000015
31
0
210
0
220
0
230
1
40
0.989133
41
-3.08670217648996
42
-0.0548687089901093
0
ELLIPSE
5
103
100
AcDbEntity
8
1
62
256
6
ByLayer
370
18
48
1
60
0
100
AcDbEllipse
10
25.31464
20
-7.439185
30
0
11
-0.687407664253893
21
-0.39687500000001
31
0
210
0
220
0
230
1
40
0.989133
41
-3.14157777036925
42
-2.35073128167078
0
ELLIPSE
5
104
100
AcDbEntity
8
1
62
256
6
ByLayer
370
18
48
1
60
0
100
AcDbEllipse
10
13.929489
20
8.45275
30
0
11
-2.67584502444728
21
-1.35663164731669
31
0
210
0
220
0
230
1
40
0.87742
41
3.12673032973114
42
-1.60104749617825
0
ELLIPSE
5
105
100
AcDbEntity
8
1
62
256
6
ByLayer
370
18
48
1
60
0
100
AcDbEllipse
10
13.794693
20
-0.963175
30
0
11
3.61188974365708
21
2.04371046864882
31
0
210
0
220
0
230
1
40
0.986425
41
-3.05317219723685
42
-0.073224365109477
0
ELLIPSE
5
106
100
AcDbEntity
8
1
62
256
6
ByLayer
370
18
48
1
60
0
100
AcDbEllipse
10
19.114671
20
-12.415737
30
0
11
-4.76313972081437
21
-2.75000000000007
31
0
210
0
220
0
230
1
40
0.989133
41
-0.697380894102458
42
-0.518135567076775
0
ELLIPSE
5
107
100
AcDbEntity
8
1
62
256
6
ByLayer
370
18
48
1
60
0
100
AcDbEllipse
10
19.36796
20
-12.952501
30
0
11
-3.89711431702994
21
-2.25000000000006
31
0
210
0
220
0
230
1
40
0.989133
41
0.878127834518687
42
2.09985831091472
0
ELLIPSE
5
108
100
AcDbEntity
8
1
62
256
6
ByLayer
370
18
48
1
60
0
100
AcDbEllipse
10
19.36796
20
-12.952501
30
0
11
-3.89711431702994
21
-2.25000000000006
31
0
210
0
220
0
230
1
40
0.989133
41
2.09985831091472
42
2.62345708651302
0
ELLIPSE
5
109
100
AcDbEntity
8
1
62
256
6
ByLayer
370
18
48
1
60
0
100
AcDbEllipse
10
19.36796
20
-12.952501
30
0
11
-3.89711431702994
21
-2.25000000000006
31
0
210
0
220
0
230
1
40
0.989133
41
0.35452905892039
42
0.878127834518687
0
ELLIPSE
5
10A
100
AcDbEntity
8
1
62
256
6
ByLayer
370
18
48
1
60
0
100
AcDbEllipse
10
19.617902
20
-13.385412
30
0
11
2.82540892210388
21
1.6312506017475
31
0
210
0
220
0
230
1
40
0.989133
41
-2.26346481907111
42
-1.04173434267508
0
ELLIPSE
5
10B
100
AcDbEntity
8
1
62
256
6
ByLayer
370
18
48
1
60
0
100
AcDbEllipse
10
14.856262
20
-11.564085
30
0
11
-8.47598305559143
21
3.2892247576023
31
0
210
0
220
0
230
1
40
0.72417
41
-2.31045043091225
42
-2.24687977502872
0
ELLIPSE
5
10C
100
AcDbEntity
8
1
62
256
6
ByLayer
370
18
48
1
60
0
100
AcDbEllipse
10
19.562405
20
-15.7263
30
0
11
-1.83370641085005
21
-1.09537195742506
31
0
210
0
220
0
230
1
40
0.675933
41
-0.346851824194516
42
0.674105736250336
0
ELLIPSE
5
10D
100
AcDbEntity
8
1
62
256
6
ByLayer
370
18
48
1
60
0
100
AcDbEllipse
10
19.617902
20
-13.385412
30
0
11
-3.10814157129577
21
-1.79448637286714
31
0
210
0
220
0
230
1
40
0.989133
41
2.52969258695505
42
2.62345708651302
0
ELLIPSE
5
10E
100
AcDbEntity
8
1
62
256
6
ByLayer
370
18
48
1
60
0
100
AcDbEllipse
10
20.968248
20
-8.66664
30
0
11
-2.2055003903955
21
-8.62478018733584
31
0
210
0
220
0
230
1
40
0.72878
41
-0.951367286974417
42
-0.887796629449401
0
ELLIPSE
5
10F
100
AcDbEntity
8
1
62
256
6
ByLayer
370
18
48
1
60
0
100
AcDbEllipse
10
21.540161
20
-14.788727
30
0
11
-1.83288704896992
21
-0.816092223042874
31
0
210
0
220
0
230
1
40
0.723309
41
2.35915775076679
42
-2.90306999596426
0
ELLIPSE
5
110
100
AcDbEntity
8
1
62
256
6
ByLayer
370
18
48
1
60
0
100
AcDbEllipse
10
19.617902
20
-13.385412
30
0
11
-3.10814157129577
21
-1.79448637286714
31
0
210
0
220
0
230
1
40
0.989133
41
0.354529058920384
42
0.448293558478348
0
ELLIPSE
5
111
100
AcDbEntity
8
1
62
256
6
ByLayer
370
18
48
1
60
0
100
AcDbEllipse
10
1.777928
20
4.2577
30
0
11
-0.547965878188982
21
-0.893679313264689
31
0
210
0
220
0
230
1
40
0.6361
41
-0.945139622189212
42
0.625656704605855
0
ELLIPSE
5
112
100
AcDbEntity
8
1
62
256
6
ByLayer
370
18
48
1
60
0
100
AcDbEllipse
10
8.436106
20
-29.868062
30
0
11
12.1243556529818
21
7.00000000000006
31
0
210
0
220
0
230
1
40
0.989133
41
0.837479346259603
42
0.850263782863104
0
ELLIPSE
5
113
100
AcDbEntity
8
1
62
256
6
ByLayer
370
18
48
1
60
0
100
AcDbEllipse
10
21.76079
20
-8.05609
30
0
11
-2.7336458173376
21
-0.0882571531225102
31
0
210
0
220
0
230
1
40
0.523705
41
-2.42025200996674
42
-2.07792152498246
0
ELLIPSE
5
114
100
AcDbEntity
8
1
62
256
6
ByLayer
370
18
48
1
60
0
100
AcDbEllipse
10
23.037956
20
-19.12521
30
0
11
-0.687407664253893
21
-0.39687500000001
31
0
210
0
220
0
230
1
40
0.989133
41
0.790861371918959
42
2.36165769871387
0
ELLIPSE
5
115
100
AcDbEntity
8
1
62
256
6
ByLayer
370
18
48
1
60
0
100
AcDbEllipse
10
12.331015
20
-16.381314
30
0
11
-0.687407664253893
21
-0.39687500000001
31
0
210
0
220
0
230
1
40
0.989133
41
-0.779934954875855
42
0.790861371918988
0
ELLIPSE
5
116
100
AcDbEntity
8
1
62
256
6
ByLayer
370
18
48
1
60
0
100
AcDbEllipse
10
25.898327
20
-8.450161
30
0
11
-0.687407664253893
21
-0.39687500000001
31
0
210
0
220
0
230
1
40
0.989133
41
2.36165769871389
42
-2.35073128167077
0
ELLIPSE
5
117
100
AcDbEntity
8
1
62
256
6
ByLayer
370
18
48
1
60
0
100
AcDbEllipse
10
13.344488
20
4.026547
30
0
11
-2.37671399966784
21
-6.64255981001516
31
0
210
0
220
0
230
1
40
0.079636
41
1.69666588634233
42
2.1607294145638
0
ELLIPSE
5
118
100
AcDbEntity
8
1
62
256
6
ByLayer
370
18
48
1
60
0
100
AcDbEllipse
10
18.037459
20
-0.002518
30
0
11
-1.65897349340754
21
9.76337189292268
31
0
210
0
220
0
230
1
40
0.120053
41
-0.405636164514858
42
0.313564735430791
0
ELLIPSE
5
119
100
AcDbEntity
8
1
62
256
6
ByLayer
370
18
48
1
60
0
100
AcDbEllipse
10
1.882601
20
7.35404
30
0
11
2.99854242392765
21
-6.32524650364759
31
0
210
0
220
0
230
1
40
0.012014
41
-1.21755960211359
42
-0.810298218555875
0
ELLIPSE
5
11A
100
AcDbEntity
8
1
62
256
6
ByLayer
370
18
48
1
60
0
100
AcDbEllipse
10
17.545398
20
-14.728965
30
0
11
-6.62258633233762
21
1.11228588913479
31
0
210
0
220
0
230
1
40
0.544992
41
-0.828293067540305
42
-0.748554800492526
0
ELLIPSE
5
11B
100
AcDbEntity
8
1
62
256
6
ByLayer
370
18
48
1
60
0
100
AcDbEllipse
10
5.515118
20
6.502075
30
0
11
-2.34536940202724
21
-1.87238434029641
31
0
210
0
220
0
230
1
40
0.99621
41
-0.58319308338613
42
-0.577083327856939
0
ELLIPSE
5
11C
100
AcDbEntity
8
1
62
256
6
ByLayer
370
18
48
1
60
0
100
AcDbEllipse
10
10.483853
20
-3.583376
30
0
11
-6.64411661331391
21
7.39860552936808
31
0
210
0
220
0
230
1
40
0.127121
41
-0.317570148362856
42
0.401630751584005
0
ELLIPSE
5
11D
100
AcDbEntity
8
1
62
256
6
ByLayer
370
18
48
1
60
0
100
AcDbEllipse
10
9.414083
20
2.163302
30
0
11
-2.14181601709118
21
4.51803321689114
31
0
210
0
220
0
230
1
40
0.012014
41
-1.3497666313117
42
-0.9087355259554
0
ELLIPSE
5
11E
100
AcDbEntity
8
1
62
256
6
ByLayer
370
18
48
1
60
0
100
AcDbEllipse
10
10.182093
20
2.527384
30
0
11
-6.63668369293774
21
2.37461151948001
31
0
210
0
220
0
230
1
40
0.067687
41
0.993008307466814
42
1.45707183576673
0
ELLIPSE
5
11F
100
AcDbEntity
8
1
62
256
6
ByLayer
370
18
48
1
60
0
100
AcDbEllipse
10
14.112498
20
4.39063
30
0
11
-2.14181601709118
21
4.51803321689114
31
0
210
0
220
0
230
1
40
0.012014
41
-1.34976663131171
42
-0.908735525955541
0
ELLIPSE
5
120
100
AcDbEntity
8
1
62
256
6
ByLayer
370
18
48
1
60
0
100
AcDbEllipse
10
6.375883
20
4.871892
30
0
11
-2.67584502444857
21
-1.35663164731456
31
0
210
0
220
0
230
1
40
0.87742
41
-1.60104749617725
42
-0.0302511693825476
0
ELLIPSE
5
121
100
AcDbEntity
8
1
62
256
6
ByLayer
370
18
48
1
60
0
100
AcDbEllipse
10
21.98881
20
-12.622524
30
0
11
-2.71513487557351
21
-5.80930990102924
31
0
210
0
220
0
230
1
40
0.538155
41
-2.47930045921837
42
-2.39956219166641
0
ELLIPSE
5
122
100
AcDbEntity
8
1
62
256
6
ByLayer
370
18
48
1
60
0
100
AcDbEllipse
10
21.839866
20
-9.525026
30
0
11
-0.0496926783666252
21
1.07977848142338
31
0
210
0
220
0
230
1
40
0.185902
41
-1.34600584421369
42
-0.822407068565973
0
ELLIPSE
5
123
100
AcDbEntity
8
1
62
256
6
ByLayer
370
18
48
1
60
0
100
AcDbEllipse
10
15.237625
20
-12.65488
30
0
11
-0.80754489885351
21
0.719666776280836
31
0
210
0
220
0
230
1
40
0.206174
41
0.813128055384332
42
1.33672683099885
0
ELLIPSE
5
124
100
AcDbEntity
8
1
62
256
6
ByLayer
370
18
48
1
60
0
100
AcDbEllipse
10
13.063679
20
10.078533
30
0
11
-2.2789261927249
21
-1.96104321970194
31
0
210
0
220
0
230
1
40
0.995264
41
-3.06521079446134
42
-3.05910646394848
0
ELLIPSE
5
125
100
AcDbEntity
8
1
62
256
6
ByLayer
370
18
48
1
60
0
100
AcDbEllipse
10
14.264989
20
-1.703054
30
0
11
-0.329089653438084
21
-0.190000000000005
31
0
210
0
220
0
230
1
40
0.989133
41
0.0715221281241978
42
2.90646401730916
0
ELLIPSE
5
126
100
AcDbEntity
8
1
62
256
6
ByLayer
370
18
48
1
60
0
100
AcDbEllipse
10
13.735193
20
-0.580324
30
0
11
1.01757984944671
21
0.587500000000015
31
0
210
0
220
0
230
1
40
0.989133
41
-0.145047105776882
42
-0.0185594023795001
0
ELLIPSE
5
127
100
AcDbEntity
8
1
62
256
6
ByLayer
370
18
48
1
60
0
100
AcDbEllipse
10
13.432669
20
-1.867317
30
0
11
0.368060796608383
21
0.212500000000005
31
0
210
0
220
0
230
1
40
0.989133
41
0.0715221281242552
42
1.85926646611258
0
ELLIPSE
5
128
100
AcDbEntity
8
1
62
256
6
ByLayer
370
18
48
1
60
0
100
AcDbEllipse
10
13.671473
20
-0.469958
30
0
11
-3.46410161513773
21
-2.00000000000005
31
0
210
0
220
0
230
1
40
0.989133
41
0
42
6.28318530717959
0
ELLIPSE
5
129
100
AcDbEntity
8
1
62
256
6
ByLayer
370
18
48
1
60
0
100
AcDbEllipse
10
15.172829
20
0.101201
30
0
11
0.368060796608383
21
0.212500000000005
31
0
210
0
220
0
230
1
40
0.989133
41
-3.04776018911957
42
-2.32952373867379
0
ELLIPSE
5
12A
100
AcDbEntity
8
1
62
256
6
ByLayer
370
18
48
1
60
0
100
AcDbEllipse
10
12.434679
20
0.31163
30
0
11
0.368060796608383
21
0.212500000000005
31
0
210
0
220
0
230
1
40
0.989133
41
-2.02287297426899
42
-1.3046365238233
0
ELLIPSE
5
12B
100
AcDbEntity
8
1
62
256
6
ByLayer
370
18
48
1
60
0
100
AcDbEllipse
10
13.872315
20
0.993155
30
0
11
0.368060796608383
21
0.212500000000005
31
0
210
0
220
0
230
1
40
0.989133
41
-3.07007052546557
42
-2.35183407501979
0
ELLIPSE
5
12C
100
AcDbEntity
8
1
62
256
6
ByLayer
370
18
48
1
60
0
100
AcDbEllipse
10
13.735193
20
-0.580324
30
0
11
1.01757984944671
21
0.587500000000015
31
0
210
0
220
0
230
1
40
0.989133
41
2.99654554781289
42
3.12303325121027
0
ELLIPSE
5
12D
100
AcDbEntity
8
1
62
256
6
ByLayer
370
18
48
1
60
0
100
AcDbEllipse
10
15.172829
20
0.101201
30
0
11
0.368060796608383
21
0.212500000000005
31
0
210
0
220
0
230
1
40
0.989133
41
2.16591723051744
42
2.88415368096316
0
ELLIPSE
5
12E
100
AcDbEntity
8
1
62
256
6
ByLayer
370
18
48
1
60
0
100
AcDbEllipse
10
12.488271
20
-0.484497
30
0
11
-0.329089653438084
21
-0.190000000000005
31
0
210
0
220
0
230
1
40
0.989133
41
-2.02287297426893
42
0.812068914915966
0
ELLIPSE
5
12F
100
AcDbEntity
8
1
62
256
6
ByLayer
370
18
48
1
60
0
100
AcDbEllipse
10
13.018066
20
-1.607227
30
0
11
-0.329089653438084
21
-0.190000000000005
31
0
210
0
220
0
230
1
40
0.989133
41
-0.975675423072423
42
1.85926646611258
0
ELLIPSE
5
130
100
AcDbEntity
8
1
62
256
6
ByLayer
370
18
48
1
60
0
100
AcDbEllipse
10
15.035707
20
-1.472278
30
0
11
0.368060796608383
21
0.212500000000005
31
0
210
0
220
0
230
1
40
0.989133
41
1.11871967932086
42
1.83695612976658
0
ELLIPSE
5
131
100
AcDbEntity
8
1
62
256
6
ByLayer
370
18
48
1
60
0
100
AcDbEllipse
10
14.982116
20
-0.676151
30
0
11
-0.329089653438084
21
-0.190000000000005
31
0
210
0
220
0
230
1
40
0.989133
41
1.11871967932081
42
-2.32952373867383
0
ELLIPSE
5
132
100
AcDbEntity
8
1
62
256
6
ByLayer
370
18
48
1
60
0
100
AcDbEllipse
10
13.735193
20
-0.580324
30
0
11
-1.99185842870419
21
-1.15000000000003
31
0
210
0
220
0
230
1
40
0.989133
41
0
42
6.28318530717959
0
ELLIPSE
5
133
100
AcDbEntity
8
1
62
256
6
ByLayer
370
18
48
1
60
0
100
AcDbEllipse
10
14.45232
20
0.446579
30
0
11
-0.329089653438084
21
-0.190000000000005
31
0
210
0
220
0
230
1
40
0.989133
41
2.16591723051738
42
-1.2823261874772
0
ELLIPSE
5
134
100
AcDbEntity
8
1
62
256
6
ByLayer
370
18
48
1
60
0
100
AcDbEllipse
10
12.297557
20
-1.261849
30
0
11
0.368060796608383
21
0.212500000000005
31
0
210
0
220
0
230
1
40
0.989133
41
0.0938324644702521
42
0.81206891491598
0
ELLIPSE
5
135
100
AcDbEntity
8
1
62
256
6
ByLayer
370
18
48
1
60
0
100
AcDbEllipse
10
14.870305
20
-1.185792
30
0
11
0.368060796608383
21
0.212500000000005
31
0
210
0
220
0
230
1
40
0.989133
41
1.11871967932079
42
2.90646401730922
0
ELLIPSE
5
136
100
AcDbEntity
8
1
62
256
6
ByLayer
370
18
48
1
60
0
100
AcDbEllipse
10
13.735193
20
-0.580324
30
0
11
1.01757984944671
21
0.587500000000015
31
0
210
0
220
0
230
1
40
0.989133
41
1.94934799661627
42
2.07583570001368
0
ELLIPSE
5
137
100
AcDbEntity
8
1
62
256
6
ByLayer
370
18
48
1
60
0
100
AcDbEllipse
10
13.735193
20
-0.580324
30
0
11
1.01757984944671
21
0.587500000000015
31
0
210
0
220
0
230
1
40
0.989133
41
-2.23944220817011
42
-2.1129545047727
0
ELLIPSE
5
138
100
AcDbEntity
8
1
62
256
6
ByLayer
370
18
48
1
60
0
100
AcDbEllipse
10
13.872315
20
0.993155
30
0
11
0.368060796608383
21
0.212500000000005
31
0
210
0
220
0
230
1
40
0.989133
41
-2.00056263792284
42
-1.28232618747724
0
ELLIPSE
5
139
100
AcDbEntity
8
1
62
256
6
ByLayer
370
18
48
1
60
0
100
AcDbEllipse
10
13.598071
20
-2.153803
30
0
11
0.368060796608383
21
0.212500000000005
31
0
210
0
220
0
230
1
40
0.989133
41
1.14103001566688
42
1.85926646611263
0
ELLIPSE
5
13A
100
AcDbEntity
8
1
62
256
6
ByLayer
370
18
48
1
60
0
100
AcDbEllipse
10
15.035707
20
-1.472278
30
0
11
0.368060796608383
21
0.212500000000005
31
0
210
0
220
0
230
1
40
0.989133
41
2.18822756686345
42
2.90646401730922
0
ELLIPSE
5
13B
100
AcDbEntity
8
1
62
256
6
ByLayer
370
18
48
1
60
0
100
AcDbEllipse
10
14.099586
20
-1.416568
30
0
11
-0.329089653438084
21
-0.190000000000005
31
0
210
0
220
0
230
1
40
0.989133
41
0.0715221281242355
42
2.90646401730908
0
ELLIPSE
5
13C
100
AcDbEntity
8
1
62
256
6
ByLayer
370
18
48
1
60
0
100
AcDbEllipse
10
13.205398
20
0.542406
30
0
11
-0.329089653438084
21
-0.190000000000005
31
0
210
0
220
0
230
1
40
0.989133
41
-3.07007052546556
42
-0.235128636280675
0
ELLIPSE
5
13D
100
AcDbEntity
8
1
62
256
6
ByLayer
370
18
48
1
60
0
100
AcDbEllipse
10
12.434679
20
0.31163
30
0
11
0.368060796608383
21
0.212500000000005
31
0
210
0
220
0
230
1
40
0.989133
41
-0.95336508672629
42
-0.235128636280605
0
ELLIPSE
5
13E
100
AcDbEntity
8
1
62
256
6
ByLayer
370
18
48
1
60
0
100
AcDbEllipse
10
13.598071
20
-2.153803
30
0
11
0.368060796608383
21
0.212500000000005
31
0
210
0
220
0
230
1
40
0.989133
41
0.0715221281242887
42
0.789758578570053
0
ELLIPSE
5
13F
100
AcDbEntity
8
1
62
256
6
ByLayer
370
18
48
1
60
0
100
AcDbEllipse
10
13.735193
20
-0.580324
30
0
11
1.01757984944671
21
0.587500000000015
31
0
210
0
220
0
230
1
40
0.989133
41
-1.1922446569735
42
-1.06575695357611
0
ELLIPSE
5
140
100
AcDbEntity
8
1
62
256
6
ByLayer
370
18
48
1
60
0
100
AcDbEllipse
10
12.297557
20
-1.261849
30
0
11
0.368060796608383
21
0.212500000000005
31
0
210
0
220
0
230
1
40
0.989133
41
-0.975675423072278
42
-0.257438972626582
0
ELLIPSE
5
141
100
AcDbEntity
8
1
62
256
6
ByLayer
370
18
48
1
60
0
100
AcDbEllipse
10
13.735193
20
-0.580324
30
0
11
1.01757984944671
21
0.587500000000015
31
0
210
0
220
0
230
1
40
0.989133
41
0.902150445419687
42
1.0286381488171
0
POINT
5
6C
100
AcDbEntity
8
2
62
256
6
ByLayer
370
18
48
1
60
0
100
AcDbPoint
10
23.644301
20
44.7875
30
0
39
0
210
0
220
0
230
1
50
360
0
POINT
5
6E
100
AcDbEntity
8
80
62
256
6
ByLayer
370
18
48
1
60
0
100
AcDbPoint
10
0
20
0
30
0
39
0
210
0
220
0
230
1
50
360
0
POINT
5
70
100
AcDbEntity
8
81
62
256
6
ByLayer
370
18
48
1
60
0
100
AcDbPoint
10
23.644301
20
-19.9125
30
0
39
0
210
0
220
0
230
1
50
360
0
SPLINE
5
142
100
AcDbEntity
8
1
62
256
6
ByLayer
370
18
48
1
60
0
100
AcDbSpline
70
4
71
3
72
8
73
4
40
0
40
0
40
0
40
0
40
1
40
1
40
1
40
1
41
1
10
15.7543751106918
20
11.4202343786241
30
0
41
1
10
15.705297225562
20
11.5132224218998
30
0
41
1
10
15.6522982374255
20
11.6046049137651
30
0
41
1
10
15.5951038299722
20
11.6941797847703
30
0
0
SPLINE
5
143
100
AcDbEntity
8
1
62
256
6
ByLayer
370
18
48
1
60
0
100
AcDbSpline
70
4
71
1
72
4
73
2
40
0
40
0
40
1
40
1
41
1
10
20.1676515387405
20
0.598700048817506
30
0
41
1
10
20.6919653877845
20
1.17159816937257
30
0
0
SPLINE
5
144
100
AcDbEntity
8
1
62
256
6
ByLayer
370
18
48
1
60
0
100
AcDbSpline
70
4
71
3
72
10
73
6
40
0
40
0
40
0
40
0
40
0.47480543121233
40
0.47480543121233
40
1
40
1
40
1
40
1
41
1
10
14.16765580389
20
4.67266318984747
30
0
41
1
10
14.2893325056603
20
4.53366844087424
30
0
41
1
10
14.4249340224725
20
4.40654806891533
30
0
41
1
10
14.7307617730652
20
4.17308602089634
30
0
41
1
10
14.9051789283472
20
4.06891482211037
30
0
41
1
10
15.0855934693025
20
3.98803666422953
30
0
0
SPLINE
5
145
100
AcDbEntity
8
1
62
256
6
ByLayer
370
18
48
1
60
0
100
AcDbSpline
70
4
71
1
72
4
73
2
40
0
40
0
40
1
40
1
41
1
10
21.4008735284215
20
-15.5031947308498
30
0
41
1
10
20.1359155222755
20
-16.1028599365819
30
0
0
SPLINE
5
146
100
AcDbEntity
8
1
62
256
6
ByLayer
370
18
48
1
60
0
100
AcDbSpline
70
4
71
3
72
12
73
8
40
0
40
0
40
0
40
0
40
0.32296159576427
40
0.32296159576427
40
0.710971356423587
40
0.710971356423587
40
1
40
1
40
1
40
1
41
1
10
18.1574920236057
20
-0.796776954073891
30
0
41
1
10
18.2228211936737
20
-1.18527572012016
30
0
41
1
10
18.2361372657509
20
-1.58767081620226
30
0
41
1
10
18.1509001563425
20
-2.45038176654458
30
0
41
1
10
18.0282985615926
20
-2.91958843287247
30
0
41
1
10
17.6820261451051
20
-3.66904193591023
30
0
41
1
10
17.4877518559572
20
-3.97392264498515
30
0
41
1
10
17.2560180318884
20
-4.23890567082498
30
0
0
SPLINE
5
147
100
AcDbEntity
8
1
62
256
6
ByLayer
370
18
48
1
60
0
100
AcDbSpline
70
4
71
3
72
18
73
14
40
0
40
0
40
0
40
0
40
0.0384430513828974
40
0.0384430513828974
40
0.294505767099371
40
0.294505767099371
40
0.507931675708736
40
0.507931675708736
40
0.723079147095987
40
0.723079147095987
40
0.912685296049741
40
0.912685296049741
40
1
40
1
40
1
40
1
41
1
10
13.7997310601459
20
-11.5138161167423
30
0
41
1
10
13.7955668756835
20
-11.509720961901
30
0
41
1
10
13.7913689531971
20
-11.5056326064888
30
0
41
1
10
13.7592356259628
20
-11.4746472712882
30
0
41
1
10
13.7295800601057
20
-11.4478519202665
30
0
41
1
10
13.6759926997184
20
-11.4032181677114
30
0
41
1
10
13.6513356962716
20
-11.3841589660879
30
0
41
1
10
13.6055572724807
20
-11.352227909727
30
0
41
1
10
13.5837923059999
20
-11.3389650588829
30
0
41
1
10
13.5497371544536
20
-11.3223781372944
30
0
41
1
10
13.5361774794486
20
-11.3178454823536
30
0
41
1
10
13.5214782431815
20
-11.3164110815458
30
0
41
1
10
13.5175034723485
20
-11.316698405635
30
0
41
1
10
13.5142648978402
20
-11.3176908326219
30
0
0
SPLINE
5
148
100
AcDbEntity
8
1
62
256
6
ByLayer
370
18
48
1
60
0
100
AcDbSpline
70
4
71
3
72
8
73
4
40
0
40
0
40
0
40
0
40
1
40
1
40
1
40
1
41
1
10
22.2126729210278
20
-14.0076526589407
30
0
41
1
10
22.0979679027299
20
-14.2742684842049
30
0
41
1
10
21.9811325739042
20
-14.5424270456536
30
0
41
1
10
21.8619517453166
20
-14.8105439578558
30
0
0
SPLINE
5
149
100
AcDbEntity
8
1
62
256
6
ByLayer
370
18
48
1
60
0
100
AcDbSpline
70
4
71
3
72
18
73
14
40
0
40
0
40
0
40
0
40
0.148865436690718
40
0.148865436690718
40
0.336868556410374
40
0.336868556410374
40
0.519491108027857
40
0.519491108027857
40
0.71156305553481
40
0.71156305553481
40
0.930180979444756
40
0.930180979444756
40
1
40
1
40
1
40
1
41
1
10
21.877415981296
20
-7.3530606309406
30
0
41
1
10
21.8731449640907
20
-7.35600015324996
30
0
41
1
10
21.8690824130782
20
-7.36188192561937
30
0
41
1
10
21.8608896171116
20
-7.38157639097074
30
0
41
1
10
21.8569179023462
20
-7.39740965413611
30
0
41
1
10
21.8509365459587
20
-7.4354625586474
30
0
41
1
10
21.8487946307053
20
-7.4579421717653
30
0
41
1
10
21.8462180514709
20
-7.50773587290894
30
0
41
1
10
21.845837190734
20
-7.53580856193563
30
0
41
1
10
21.8467982489771
20
-7.59692954822876
30
0
41
1
10
21.8483856299179
20
-7.630835305695
30
0
41
1
10
21.8515652353769
20
-7.67471819466724
30
0
41
1
10
21.8524239047339
20
-7.68535370657381
30
0
41
1
10
21.853360922553
20
-7.69591735262105
30
0
0
SPLINE
5
14A
100
AcDbEntity
8
1
62
256
6
ByLayer
370
18
48
1
60
0
100
AcDbSpline
70
4
71
3
72
10
73
6
40
0
40
0
40
0
40
0
40
0.494168352806895
40
0.494168352806895
40
1
40
1
40
1
40
1
41
1
10
15.5951038299722
20
11.6941797847703
30
0
41
1
10
15.5387855894862
20
11.7823824491811
30
0
41
1
10
15.4762769589623
20
11.8714595105221
30
0
41
1
10
15.3401213595159
20
12.0442672642431
30
0
41
1
10
15.2652747994786
20
12.1289853806834
30
0
41
1
10
15.187027149647
20
12.2069345495431
30
0
0
SPLINE
5
14B
100
AcDbEntity
8
1
62
256
6
ByLayer
370
18
48
1
60
0
100
AcDbSpline
70
4
71
3
72
12
73
8
40
0
40
0
40
0
40
0
40
0.49999999999996
40
0.49999999999996
40
0.74999999999998
40
0.74999999999998
40
1
40
1
40
1
40
1
41
1
10
15.1062426306415
20
7.56455886348431
30
0
41
1
10
14.9664159587472
20
7.62485314022476
30
0
41
1
10
14.8273735201138
20
7.68214700958544
30
0
41
1
10
14.6196872339041
20
7.76324459056204
30
0
41
1
10
14.5506546981986
20
7.78953318287572
30
0
41
1
10
14.4123308243002
20
7.83935572390456
30
0
41
1
10
14.3415577220951
20
7.9008279593898
30
0
41
1
10
14.2662369938478
20
7.86512146179669
30
0
0
SPLINE
5
14C
100
AcDbEntity
8
1
62
256
6
ByLayer
370
18
48
1
60
0
100
AcDbSpline
70
4
71
3
72
8
73
4
40
0
40
0
40
0
40
0
40
1
40
1
40
1
40
1
41
1
10
7.988384968454
20
-5.55817654239902
30
0
41
1
10
7.89760409326772
20
-5.36451056693105
30
0
41
1
10
7.80704790743999
20
-5.17127844945637
30
0
41
1
10
7.71711041045825
20
-4.979253512279
30
0
0
SPLINE
5
14D
100
AcDbEntity
8
1
62
256
6
ByLayer
370
18
48
1
60
0
100
AcDbSpline
70
4
71
3
72
13
73
9
40
0
40
0
40
0
40
0
40
0.25066176443722
40
0.25066176443722
40
0.25066176443722
40
0.653096502165462
40
0.653096502165462
40
1
40
1
40
1
40
1
41
1
10
17.2560180318884
20
-4.23890567082498
30
0
41
1
10
17.0636109326006
20
-4.45885957859002
30
0
41
1
10
16.8466382740426
20
-4.66018149739116
30
0
41
1
10
16.612452397202
20
-4.83640833040951
30
0
41
1
10
16.2397211343471
20
-5.11689172636005
30
0
41
1
10
15.8142015303442
20
-5.33918362222701
30
0
41
1
10
14.9879422811983
20
-5.61117608392368
30
0
41
1
10
14.5831294899002
20
-5.68328366460409
30
0
41
1
10
14.181809912574
20
-5.69626286005573
30
0
0
SPLINE
5
14E
100
AcDbEntity
8
1
62
256
6
ByLayer
370
18
48
1
60
0
100
AcDbSpline
70
4
71
3
72
8
73
4
40
0
40
0
40
0
40
0
40
1
40
1
40
1
40
1
41
1
10
16.9418452893366
20
2.15137256158272
30
0
41
1
10
16.5543306503419
20
2.9725843061
30
0
41
1
10
15.8870214114489
20
3.62876398425683
30
0
41
1
10
15.0855934693024
20
3.9880366642295
30
0
0
SPLINE
5
14F
100
AcDbEntity
8
1
62
256
6
ByLayer
370
18
48
1
60
0
100
AcDbSpline
70
4
71
3
72
16
73
12
40
0
40
0
40
0
40
0
40
0.0076436986799056
40
0.0076436986799056
40
0.0409116539642776
40
0.0409116539642776
40
0.185161591066372
40
0.185161591066372
40
0.761039897349153
40
0.761039897349153
40
1
40
1
40
1
40
1
41
1
10
12.0430978890615
20
12.3117518113579
30
0
41
1
10
12.0463279746327
20
12.3132830637151
30
0
41
1
10
12.0495403599087
20
12.3148577861477
30
0
41
1
10
12.0663948292693
20
12.3233815884584
30
0
41
1
10
12.0793337966292
20
12.3308614075739
30
0
41
1
10
12.1438012434796
20
12.3697521753055
30
0
41
1
10
12.1891695400553
20
12.4002207372849
30
0
41
1
10
12.4236711323422
20
12.5439228944963
30
0
41
1
10
12.6168412097241
20
12.6375482619759
30
0
41
1
10
12.9024100243757
20
12.7348948164638
30
0
41
1
10
12.9878182591156
20
12.7592495175028
30
0
41
1
10
13.0744497779692
20
12.7789415466245
30
0
0
SPLINE
5
150
100
AcDbEntity
8
1
62
256
6
ByLayer
370
18
48
1
60
0
100
AcDbSpline
70
4
71
3
72
8
73
4
40
0
40
0
40
0
40
0
40
1
40
1
40
1
40
1
41
1
10
20.9632399457764
20
0.592675139260592
30
0
41
1
10
20.8724590705913
20
0.786341114725928
30
0
41
1
10
20.781902884765
20
0.979573232197907
30
0
41
1
10
20.6919653877845
20
1.17159816937257
30
0
0
SPLINE
5
151
100
AcDbEntity
8
1
62
256
6
ByLayer
370
18
48
1
60
0
100
AcDbSpline
70
4
71
3
72
8
73
4
40
0
40
0
40
0
40
0
40
1
40
1
40
1
40
1
41
1
10
16.0978340776845
20
9.22335976678502
30
0
41
1
10
16.0005594499483
20
8.70720468946232
30
0
41
1
10
15.5914169587371
20
8.22750312536772
30
0
41
1
10
15.1062426306509
20
7.56455886348033
30
0
0
SPLINE
5
152
100
AcDbEntity
8
1
62
256
6
ByLayer
370
18
48
1
60
0
100
AcDbSpline
70
4
71
3
72
8
73
4
40
0
40
0
40
0
40
0
40
1
40
1
40
1
40
1
41
1
10
19.306496698354
20
-16.0219813882133
30
0
41
1
10
19.4785480700892
20
-16.0689201518157
30
0
41
1
10
19.6565483351055
20
-16.0969659516752
30
0
41
1
10
19.829100297891
20
-16.1068341598486
30
0
0
SPLINE
5
153
100
AcDbEntity
8
1
62
256
6
ByLayer
370
18
48
1
60
0
100
AcDbSpline
70
4
71
3
72
8
73
4
40
0
40
0
40
0
40
0
40
1
40
1
40
1
40
1
41
1
10
9.21194230789717
20
1.20357724740381
30
0
41
1
10
8.97415450778709
20
0.343815135853276
30
0
41
1
10
9.0471349359654
20
-0.566040267482009
30
0
41
1
10
9.44245139575668
20
-1.4037854438287
30
0
0
SPLINE
5
154
100
AcDbEntity
8
1
62
256
6
ByLayer
370
18
48
1
60
0
100
AcDbSpline
70
4
71
3
72
8
73
4
40
0
40
0
40
0
40
0
40
1
40
1
40
1
40
1
41
1
10
17.8089710798435
20
0.313780348330169
30
0
41
1
10
17.975856480166
20
-0.0398791962196867
30
0
41
1
10
18.090493795988
20
-0.410720238296818
30
0
41
1
10
18.1574920231318
20
-0.796776951342565
30
0
0
SPLINE
5
155
100
AcDbEntity
8
1
62
256
6
ByLayer
370
18
48
1
60
0
100
AcDbSpline
70
4
71
3
72
8
73
4
40
0
40
0
40
0
40
0
40
1
40
1
40
1
40
1
41
1
10
2.84860889435902
20
5.13210748651656
30
0
41
1
10
2.7811763075814
20
5.27273979783143
30
0
41
1
10
2.72176768888619
20
5.41781464137622
30
0
41
1
10
2.67146530908275
20
5.56760774460631
30
0
0
SPLINE
5
156
100
AcDbEntity
8
1
62
256
6
ByLayer
370
18
48
1
60
0
100
AcDbSpline
70
4
71
3
72
12
73
8
40
0
40
0
40
0
40
0
40
0.499999999999993
40
0.499999999999993
40
0.749999999999997
40
0.749999999999997
40
1
40
1
40
1
40
1
41
1
10
6.42268079361855
20
3.44803493922356
30
0
41
1
10
6.46312591402062
20
3.59378874971137
30
0
41
1
10
6.50530619038591
20
3.73699294664428
30
0
41
1
10
6.57164085051255
20
3.94799272703102
30
0
41
1
10
6.59418177615925
20
4.01769257748498
30
0
41
1
10
6.64153028118267
20
4.15553485099829
30
0
41
1
10
6.63730988604289
20
4.24855702140678
30
0
41
1
10
6.71263061429096
20
4.28426351899768
30
0
0
SPLINE
5
157
100
AcDbEntity
8
1
62
256
6
ByLayer
370
18
48
1
60
0
100
AcDbSpline
70
4
71
3
72
11
73
7
40
0
40
0
40
0
40
0
40
0.268536746558077
40
0.487975722590654
40
0.707414698623231
40
1
40
1
40
1
40
1
41
1.02490909094425
10
17.2560180063692
20
-4.23890561301698
30
0
41
1.02297680709541
10
17.7973521414687
20
-5.46517584262886
30
0
41
1.019109996622
10
18.7061588392722
20
-7.61796835196547
30
0
41
1.01332460673153
10
19.9327808777782
20
-11.2051087024428
30
0
41
1.01203732298747
10
20.7064824072525
20
-13.0793853058176
30
0
41
1.00929221524307
10
21.2210757690062
20
-14.7526825318887
30
0
41
1.0087712828333
10
21.4008735284215
20
-15.5031947308498
30
0
0
SPLINE
5
158
100
AcDbEntity
8
1
62
256
6
ByLayer
370
18
48
1
60
0
100
AcDbSpline
70
4
71
3
72
8
73
4
40
0
40
0
40
0
40
0
40
1
40
1
40
1
40
1
41
1
10
6.42268079361577
20
3.44803493921378
30
0
41
1
10
5.59761434333353
20
3.48653877317324
30
0
41
1
10
4.94036989711935
20
3.46784033932164
30
0
41
1
10
4.4656467112726
20
3.70901225777536
30
0
0
SPLINE
5
159
100
AcDbEntity
8
1
62
256
6
ByLayer
370
18
48
1
60
0
100
AcDbSpline
70
4
71
3
72
14
73
10
40
0
40
0
40
0
40
0
40
0.0151857536690215
40
0.0151857536690215
40
0.0655730315774812
40
0.0655730315774812
40
0.28764275434833
40
0.28764275434833
40
1
40
1
40
1
40
1
41
1
10
4.48949150950381
20
8.73089386855796
30
0
41
1
10
4.48307898194406
20
8.7278539497309
30
0
41
1
10
4.47655003572987
20
8.72496904036132
30
0
41
1
10
4.44886346899233
20
8.71344978017419
30
0
41
1
10
4.42830506106844
20
8.70647963774752
30
0
41
1
10
4.32161940015266
20
8.67055950373077
30
0
41
1
10
4.24103295943343
20
8.64390987316395
30
0
41
1
10
3.907359353201
20
8.51391933392597
30
0
41
1
10
3.67006272782561
20
8.38407537681857
30
0
41
1
10
3.45809109973283
20
8.22021653191271
30
0
0
SPLINE
5
15A
100
AcDbEntity
8
1
62
256
6
ByLayer
370
18
48
1
60
0
100
AcDbSpline
70
4
71
3
72
8
73
4
40
0
40
0
40
0
40
0
40
1
40
1
40
1
40
1
41
1
10
8.99748102350833
20
3.17891522124444
30
0
41
1
10
9.12143810603374
20
2.9192484112302
30
0
41
1
10
9.21634672696979
20
2.63817483046938
30
0
41
1
10
9.26927374980698
20
2.35053923953134
30
0
0
SPLINE
5
15B
100
AcDbEntity
8
1
62
256
6
ByLayer
370
18
48
1
60
0
100
AcDbSpline
70
4
71
3
72
16
73
12
40
0
40
0
40
0
40
0
40
0.125
40
0.125
40
0.25
40
0.25
40
0.5
40
0.5
40
0.75
40
0.75
40
1
40
1
40
1
40
1
41
1
10
20.9632399457809
20
0.592675139251099
30
0
41
1
10
20.882680686962
20
0.17352942549752
30
0
41
1
10
20.8203470703682
20
-0.326035003747052
30
0
41
1
10
20.756841442968
20
-1.50416037148099
30
0
41
1
10
20.756354499692
20
-2.16028052729169
30
0
41
1
10
20.824482738892
20
-4.17536501811801
30
0
41
1
10
20.9559096992849
20
-5.5302332668852
30
0
41
1
10
21.2677366977343
20
-8.0669962405442
30
0
41
1
10
21.4379433263406
20
-9.30639565924676
30
0
41
1
10
21.781174476883
20
-11.7794806760972
30
0
41
1
10
21.9903160379534
20
-12.9334088584854
30
0
41
1
10
22.2126729210278
20
-14.0076526589407
30
0
0
SPLINE
5
15C
100
AcDbEntity
8
1
62
256
6
ByLayer
370
18
48
1
60
0
100
AcDbSpline
70
4
71
3
72
11
73
7
40
0
40
0
40
0
40
0
40
0.379738014043156
40
0.569607021064734
40
0.759476028086312
40
1
40
1
40
1
40
1
41
1.02830968163241
10
20.1676515387405
20
0.598700048817484
30
0
41
1.02566133279165
10
20.5936730336364
20
-1.93444646483966
30
0
41
1.02050308371814
10
20.836400020505
20
-5.31738405206319
30
0
41
1.01332460673153
10
20.5444487419392
20
-10.8770557807447
30
0
41
1.0120630214142
10
21.3325154790355
20
-12.679076502525
30
0
41
1.00944729087556
10
21.4641114984713
20
-14.5118661255615
30
0
41
1.00885690313847
10
21.598685740434
20
-15.2679455774285
30
0
0
SPLINE
5
15D
100
AcDbEntity
8
1
62
256
6
ByLayer
370
18
48
1
60
0
100
AcDbSpline
70
4
71
3
72
8
73
4
40
0
40
0
40
0
40
0
40
1
40
1
40
1
40
1
41
1
10
13.0744497779694
20
12.7789415466245
30
0
41
1
10
13.4029731411528
20
12.8536175042967
30
0
41
1
10
13.7198201639611
20
12.8719520469735
30
0
41
1
10
14.0337700460215
20
12.8220835193445
30
0
0
SPLINE
5
15E
100
AcDbEntity
8
1
62
256
6
ByLayer
370
18
48
1
60
0
100
AcDbSpline
70
4
71
3
72
8
73
4
40
0
40
0
40
0
40
0
40
1
40
1
40
1
40
1
41
1
10
8.5354641723286
20
-4.91564746019216
30
0
41
1
10
9.01525683721997
20
-4.87835586497275
30
0
41
1
10
9.89521730074455
20
-4.6226963289179
30
0
41
1
10
10.9468203492655
20
-4.21506348282873
30
0
0
SPLINE
5
15F
100
AcDbEntity
8
1
62
256
6
ByLayer
370
18
48
1
60
0
100
AcDbSpline
70
4
71
3
72
8
73
4
40
0
40
0
40
0
40
0
40
1
40
1
40
1
40
1
41
1
10
18.1574920354541
20
-0.796776947345961
30
0
41
1
10
19.1266971669663
20
-0.246426724298288
30
0
41
1
10
19.8602515481121
20
0.262815583414238
30
0
41
1
10
20.1676515387405
20
0.598700048817506
30
0
0
SPLINE
5
160
100
AcDbEntity
8
1
62
256
6
ByLayer
370
18
48
1
60
0
100
AcDbSpline
70
4
71
3
72
11
73
7
40
0
40
0
40
0
40
0
40
0.268536746003808
40
0.487975722202665
40
0.707414698401523
40
1
40
1
40
1
40
1
41
1.0249090909279
10
14.1818098893769
20
-5.69626281367851
30
0
41
1.0229768070834
10
14.7813628817905
20
-6.89493384346194
30
0
41
1.0191099966158
10
15.8563571890947
20
-8.96894355443366
30
0
41
1.01332460673153
10
17.814274381367
20
-12.2094065746591
30
0
41
1.01203732298747
10
18.7451535464243
20
-14.0091716458547
30
0
41
1.00929221524307
10
19.6848851290092
20
-15.480928111351
30
0
41
1.0087712828333
10
20.1359155222755
20
-16.1028599365819
30
0
0
SPLINE
5
161
100
AcDbEntity
8
1
62
256
6
ByLayer
370
18
48
1
60
0
100
AcDbSpline
70
4
71
3
72
8
73
4
40
0
40
0
40
0
40
0
40
1
40
1
40
1
40
1
41
1
10
18.4609237470701
20
-15.7862045391781
30
0
41
1
10
18.7408876770949
20
-15.8657238482411
30
0
41
1
10
19.0231596439512
20
-15.9446818532996
30
0
41
1
10
19.306496698354
20
-16.0219813882133
30
0
0
SPLINE
5
162
100
AcDbEntity
8
1
62
256
6
ByLayer
370
18
48
1
60
0
100
AcDbSpline
70
4
71
3
72
10
73
6
40
0
40
0
40
0
40
0
40
0.325288492889657
40
0.325288492889657
40
1
40
1
40
1
40
1
41
1
10
3.45809109973271
20
8.22021653191254
30
0
41
1
10
3.36978433180826
20
8.15195341047658
30
0
41
1
10
3.28699672087862
20
8.08088257228226
30
0
41
1
10
3.04983403209286
20
7.85273054146026
30
0
41
1
10
2.91176353392774
20
7.68326917770753
30
0
41
1
10
2.8000559623423
20
7.49663600694157
30
0
0
SPLINE
5
163
100
AcDbEntity
8
1
62
256
6
ByLayer
370
18
48
1
60
0
100
AcDbSpline
70
4
71
3
72
12
73
8
40
0
40
0
40
0
40
0
40
0.418782075282836
40
0.418782075282836
40
0.706182120811196
40
0.706182120811196
40
1
40
1
40
1
40
1
41
1
10
19.8291002978909
20
-16.1068341598486
30
0
41
1
10
19.8702097282168
20
-16.1089786227932
30
0
41
1
10
19.9128051986986
20
-16.1093416736022
30
0
41
1
10
19.9839358357843
20
-16.1069062929603
30
0
41
1
10
20.0129756065729
20
-16.1050577398403
30
0
41
1
10
20.0708000958336
20
-16.0996901942011
30
0
41
1
10
20.0997279305955
20
-16.0961196521093
30
0
41
1
10
20.1278955903957
20
-16.0917905584784
30
0
0
SPLINE
5
164
100
AcDbEntity
8
1
62
256
6
ByLayer
370
18
48
1
60
0
100
AcDbSpline
70
4
71
3
72
10
73
6
40
0
40
0
40
0
40
0
40
0.465995854460558
40
0.465995854460558
40
1
40
1
40
1
40
1
41
1
10
9.21194230789717
20
1.20357724740379
30
0
41
1
10
9.25898630717012
20
1.3736728037442
30
0
41
1
10
9.28870613862443
20
1.55156507409572
30
0
41
1
10
9.31334444873863
20
1.93597801285699
30
0
41
1
10
9.30274376484732
20
2.14542780344121
30
0
41
1
10
9.26927374980698
20
2.35053923953134
30
0
0
SPLINE
5
165
100
AcDbEntity
8
1
62
256
6
ByLayer
370
18
48
1
60
0
100
AcDbSpline
70
4
71
3
72
10
73
6
40
0
40
0
40
0
40
0
40
0.494168352806881
40
0.494168352806881
40
1
40
1
40
1
40
1
41
1
10
2.67146530908275
20
5.56760774460633
30
0
41
1
10
2.63817916654631
20
5.66672899104765
30
0
41
1
10
2.60838190325529
20
5.77131318279632
30
0
41
1
10
2.56047649884243
20
5.98595676909318
30
0
41
1
10
2.54237353999531
20
6.09757472182559
30
0
41
1
10
2.53189557738125
20
6.20765074646258
30
0
0
SPLINE
5
166
100
AcDbEntity
8
1
62
256
6
ByLayer
370
18
48
1
60
0
100
AcDbSpline
70
4
71
3
72
16
73
12
40
0
40
0
40
0
40
0
40
0.25
40
0.25
40
0.5
40
0.5
40
0.75
40
0.75
40
0.875
40
0.875
40
1
40
1
40
1
40
1
41
1
10
18.4609237470701
20
-15.7862045391781
30
0
41
1
10
17.7908565716227
20
-14.930993623594
30
0
41
1
10
17.0642350998454
20
-14.0526132789069
30
0
41
1
10
15.3789976478955
20
-12.2008079923343
30
0
41
1
10
14.5277462620509
20
-11.2692097838647
30
0
41
1
10
12.7648386147939
20
-9.39979285730172
30
0
41
1
10
11.792048710501
20
-8.42758700185325
30
0
41
1
10
10.2822193939277
20
-7.11479009803466
30
0
41
1
10
9.77001403170902
20
-6.70267589998539
30
0
41
1
10
8.81151928858532
20
-6.01932884739136
30
0
41
1
10
8.3747837113919
20
-5.75549703129673
30
0
41
1
10
7.98838496845258
20
-5.55817654239479
30
0
0
SPLINE
5
167
100
AcDbEntity
8
1
62
256
6
ByLayer
370
18
48
1
60
0
100
AcDbSpline
70
4
71
3
72
12
73
8
40
0
40
0
40
0
40
0
40
0.252749620142191
40
0.252749620142191
40
0.674711209428762
40
0.674711209428762
40
1
40
1
40
1
40
1
41
1
10
14.0337700460019
20
12.8220835193558
30
0
41
1
10
14.1271490528133
20
12.8072509812753
30
0
41
1
10
14.2234634223266
20
12.7843404673627
30
0
41
1
10
14.4828305458821
20
12.6994963137303
30
0
41
1
10
14.6507781463588
20
12.620012370983
30
0
41
1
10
14.9368291789079
20
12.4317637125285
30
0
41
1
10
15.0601943310491
20
12.3318217238476
30
0
41
1
10
15.1740466997017
20
12.2197864196885
30
0
0
SPLINE
5
168
100
AcDbEntity
8
1
62
256
6
ByLayer
370
18
48
1
60
0
100
AcDbSpline
70
4
71
3
72
12
73
8
40
0
40
0
40
0
40
0
40
0.252749620142203
40
0.252749620142203
40
0.674711209428769
40
0.674711209428769
40
1
40
1
40
1
40
1
41
1
10
2.80005596234543
20
7.49663600696371
30
0
41
1
10
2.75066915541896
20
7.41412399600685
30
0
41
1
10
2.70576721284408
20
7.32426856500638
30
0
41
1
10
2.60314278637844
20
7.06781892228895
30
0
41
1
10
2.55607982245169
20
6.88640720509292
30
0
41
1
10
2.51773757410734
20
6.54437686963414
30
0
41
1
10
2.51603910603598
20
6.38514729893089
30
0
41
1
10
2.53021837309274
20
6.22586102621466
30
0
0
SPLINE
5
169
100
AcDbEntity
8
1
62
256
6
ByLayer
370
18
48
1
60
0
100
AcDbSpline
70
4
71
3
72
11
73
7
40
0
40
0
40
0
40
0
40
0.379738014043162
40
0.569607021064743
40
0.759476028086324
40
1
40
1
40
1
40
1
41
1.02830968163241
10
8.53546417232866
20
-4.91564746019217
30
0
41
1.02566133279165
10
10.2287902696509
20
-6.84801634216322
30
0
41
1.02050308371814
10
12.697630315026
20
-9.1756441572686
30
0
41
1.01332460673153
10
17.1682143177203
20
-12.4775913722503
30
0
41
1.0120630214142
10
18.0315660718311
20
-14.2439225256802
30
0
41
1.00944729087556
10
19.3441095430058
20
-15.516872934168
30
0
41
1.00885690313847
10
19.8291002931521
20
-16.106834154084
30
0
0
SPLINE
5
16A
100
AcDbEntity
8
1
62
256
6
ByLayer
370
18
48
1
60
0
100
AcDbSpline
70
4
71
3
72
12
73
8
40
0
40
0
40
0
40
0
40
0.407174084711912
40
0.407174084711912
40
0.699511272430924
40
0.699511272430924
40
1
40
1
40
1
40
1
41
1
10
21.3976680580186
20
-15.4898430121327
30
0
41
1
10
21.4271812637562
20
-15.4633806125159
30
0
41
1
10
21.4564522725312
20
-15.434863867386
30
0
41
1
10
21.50471464424
20
-15.3836665470781
30
0
41
1
10
21.5244286887921
20
-15.3614490125455
30
0
41
1
10
21.5626733797658
20
-15.3155926104409
30
0
41
1
10
21.5812999968683
20
-15.2917561635074
30
0
41
1
10
21.5986857417488
20
-15.2679455848162
30
0
0
SPLINE
5
16B
100
AcDbEntity
8
1
62
256
6
ByLayer
370
18
48
1
60
0
100
AcDbSpline
70
4
71
3
72
8
73
4
40
0
40
0
40
0
40
0
40
1
40
1
40
1
40
1
41
1
10
13.6958964749078
20
5.40624312824917
30
0
41
1
10
13.8198535574332
20
5.14657631823491
30
0
41
1
10
13.9782038421797
20
4.89557785316649
30
0
41
1
10
14.16765580389
20
4.67266318984747
30
0
0
SPLINE
5
16C
100
AcDbEntity
8
1
62
256
6
ByLayer
370
18
48
1
60
0
100
AcDbSpline
70
4
71
3
72
8
73
4
40
0
40
0
40
0
40
0
40
1
40
1
40
1
40
1
41
1
10
10.3095771862637
20
-3.24137765708124
30
0
41
1
10
10.4764625866408
20
-3.59503720174712
30
0
41
1
10
10.6904290287453
20
-3.9187903401274
30
0
41
1
10
10.9468203587715
20
-4.21506347673403
30
0
0
SPLINE
5
16D
100
AcDbEntity
8
1
62
256
6
ByLayer
370
18
48
1
60
0
100
AcDbSpline
70
4
71
3
72
8
73
4
40
0
40
0
40
0
40
0
40
1
40
1
40
1
40
1
41
1
10
21.5986857417488
20
-15.2679455848162
30
0
41
1
10
21.6992647725978
20
-15.1285970676573
30
0
41
1
10
21.7895813132658
20
-14.9733531697581
30
0
41
1
10
21.8619517453166
20
-14.8105439578558
30
0
0
SPLINE
5
16E
100
AcDbEntity
8
1
62
256
6
ByLayer
370
18
48
1
60
0
100
AcDbSpline
70
4
71
3
72
13
73
9
40
0
40
0
40
0
40
0
40
0.287856992129668
40
0.287856992129668
40
0.605626331970863
40
0.605626331970863
40
0.605626331970863
40
1
40
1
40
1
40
1
41
1
10
14.181809912574
20
-5.69626286005573
30
0
41
1
10
13.8321916243637
20
-5.70752450343289
30
0
41
1
10
13.474899798275
20
-5.66526140790296
30
0
41
1
10
12.7577064458789
20
-5.48112781683872
30
0
41
1
10
12.3925758988576
20
-5.32805598252077
30
0
41
1
10
12.05701435686
20
-5.13223295426133
30
0
41
1
10
11.6425074062277
20
-4.89033989993752
30
0
41
1
10
11.2615342220966
20
-4.5759402174339
30
0
41
1
10
10.946820360333
20
-4.21506347853861
30
0
0
SPLINE
5
16F
100
AcDbEntity
8
1
62
256
6
ByLayer
370
18
48
1
60
0
100
AcDbSpline
70
4
71
1
72
4
73
2
40
0
40
0
40
1
40
1
41
1
10
7.7171104104583
20
-4.979253512279
30
0
41
1
10
8.53546417232866
20
-4.91564746019216
30
0
0
SPLINE
5
170
100
AcDbEntity
8
1
62
256
6
ByLayer
370
18
48
1
60
0
100
AcDbSpline
70
4
71
3
72
14
73
10
40
0
40
0
40
0
40
0
40
0.0829586012803215
40
0.0829586012803215
40
0.459195015075113
40
0.459195015075113
40
0.835474799669027
40
0.835474799669027
40
1
40
1
40
1
40
1
41
1
10
12.8191479296139
20
0.137811723221432
30
0
41
1
10
12.817376774174
20
0.134460059034609
30
0
41
1
10
12.8155446696557
20
0.131076004969913
30
0
41
1
10
12.8051382444722
20
0.112323291781507
30
0
41
1
10
12.795213387431
20
0.0961863912822594
30
0
41
1
10
12.7737115440036
20
0.0647331865289971
30
0
41
1
10
12.7618896952346
20
0.0490666346494208
30
0
41
1
10
12.7448035092442
20
0.0283417861520263
30
0
41
1
10
12.7395351607217
20
0.0221964899963325
30
0
41
1
10
12.734278957732
20
0.0162820427058534
30
0
0
SPLINE
5
171
100
AcDbEntity
8
1
62
256
6
ByLayer
370
18
48
1
60
0
100
AcDbSpline
70
4
71
3
72
14
73
10
40
0
40
0
40
0
40
0
40
0.164525200330919
40
0.164525200330919
40
0.540804984924857
40
0.540804984924857
40
0.917041398719818
40
0.917041398719818
40
1
40
1
40
1
40
1
41
1
10
13.5603501358551
20
-1.73430821897239
30
0
41
1
10
13.5678470793565
20
-1.73314229532303
30
0
41
1
10
13.5755812225489
20
-1.73222245219228
30
0
41
1
10
13.6014727606731
20
-1.73015769510621
30
0
41
1
10
13.6207382244557
20
-1.73026547393752
30
0
41
1
10
13.6588025612805
20
-1.73391110862894
30
0
41
1
10
13.6780265907948
20
-1.73748079178031
30
0
41
1
10
13.7000471585101
20
-1.74334049136237
30
0
41
1
10
13.7040078840092
20
-1.7444673599139
30
0
41
1
10
13.7079181958321
20
-1.74564894471487
30
0
0
SPLINE
5
172
100
AcDbEntity
8
1
62
256
6
ByLayer
370
18
48
1
60
0
100
AcDbSpline
70
4
71
3
72
14
73
10
40
0
40
0
40
0
40
0
40
0.164525200331082
40
0.164525200331082
40
0.540804984924862
40
0.540804984924862
40
0.917041398719584
40
0.917041398719584
40
1
40
1
40
1
40
1
41
1
10
13.9100361568732
20
0.573660769342098
30
0
41
1
10
13.9020702330589
20
0.573307143422483
30
0
41
1
10
13.8939275943362
20
0.573094835304886
30
0
41
1
10
13.8669410916755
20
0.572926612428574
30
0
41
1
10
13.8473032344385
20
0.573679395643325
30
0
41
1
10
13.8094339632581
20
0.576987166727776
30
0
41
1
10
13.7907770340153
20
0.579574603395912
30
0
41
1
10
13.769880302497
20
0.583487761585275
30
0
41
1
10
13.7661412159195
20
0.584230740263763
30
0
41
1
10
13.7624680968964
20
0.585001495084384
30
0
0
SPLINE
5
173
100
AcDbEntity
8
1
62
256
6
ByLayer
370
18
48
1
60
0
100
AcDbSpline
70
4
71
3
72
14
73
10
40
0
40
0
40
0
40
0
40
0.0829586012802873
40
0.0829586012802873
40
0.459195015075208
40
0.459195015075208
40
0.835474799669193
40
0.835474799669193
40
1
40
1
40
1
40
1
41
1
10
14.6512383631146
20
-1.29845917285192
30
0
41
1
10
14.6527723257547
20
-1.29469667868472
30
0
41
1
10
14.6543827913515
20
-1.29092873474701
30
0
41
1
10
14.663665380338
20
-1.27022948016588
30
0
41
1
10
14.6730231371077
20
-1.25311033318343
30
0
41
1
10
14.6943299148906
20
-1.22131926482319
30
0
41
1
10
14.706524157114
20
-1.20629771732706
30
0
41
1
10
14.7247053076409
20
-1.18746940303942
30
0
41
1
10
14.7303821516936
20
-1.18203164189688
30
0
41
1
10
14.7361073349963
20
-1.17692949233617
30
0
0
SPLINE
5
174
100
AcDbEntity
8
1
62
256
6
ByLayer
370
18
48
1
60
0
100
AcDbSpline
70
4
71
3
72
12
73
8
40
0
40
0
40
0
40
0
40
0.392678099452624
40
0.392678099452624
40
0.791279335968833
40
0.791279335968833
40
1
40
1
40
1
40
1
41
1
10
12.6443049191051
20
-1.01617277093766
30
0
41
1
10
12.6543468900131
20
-1.03010307011496
30
0
41
1
10
12.6642798882121
20
-1.04610718952259
30
0
41
1
10
12.6823017138763
20
-1.0807619875541
30
0
41
1
10
12.6905662311809
20
-1.09989147527247
30
0
41
1
10
12.7009199284685
20
-1.12891663737184
30
0
41
1
10
12.7041474495223
20
-1.13904309490715
30
0
41
1
10
12.7070040071988
20
-1.14904317719299
30
0
0
SPLINE
5
175
100
AcDbEntity
8
1
62
256
6
ByLayer
370
18
48
1
60
0
100
AcDbSpline
70
4
71
3
72
12
73
8
40
0
40
0
40
0
40
0
40
0.392678099449904
40
0.392678099449904
40
0.791279335966153
40
0.791279335966153
40
1
40
1
40
1
40
1
41
1
10
14.8260813736237
20
-0.144474678693285
30
0
41
1
10
14.8149259133006
20
-0.128615759275192
30
0
41
1
10
14.8042225850022
20
-0.111277388997024
30
0
41
1
10
14.7856610119059
20
-0.0756877209898619
30
0
41
1
10
14.7776439099377
20
-0.0569867692048547
30
0
41
1
10
14.768368781879
20
-0.0298297438094153
30
0
41
1
10
14.7656409954183
20
-0.0205688519795615
30
0
41
1
10
14.7633822855299
20
-0.0116042724379781
30
0
0
INSERT
5
188
100
AcDbEntity
8
SK2
62
256
6
ByLayer
370
25
48
1
60
0
100
AcDbBlockReference
2
DimnDraft3D11
10
0
20
0
30
0
41
1
42
1
43
1
50
0
210
0
220
0
230
1
0
LINE
5
72
100
AcDbEntity
8
1
62
256
6
ByLayer
370
18
48
1
60
0
100
AcDbLine
10
12.66488
20
-1.04807
30
0
11
12.500215
21
-0.762863
31
0
39
0
210
0
220
0
230
1
0
LINE
5
74
100
AcDbEntity
8
1
62
256
6
ByLayer
370
18
48
1
60
0
100
AcDbLine
10
14.639366
20
0.175187
30
0
11
14.80403
21
-0.11002
31
0
39
0
210
0
220
0
230
1
0
LINE
5
75
100
AcDbEntity
8
1
62
256
6
ByLayer
370
18
48
1
60
0
100
AcDbLine
10
10.028501
20
-2.160145
30
0
11
10.207372
21
-2.469958
31
0
39
0
210
0
220
0
230
1
0
LINE
5
76
100
AcDbEntity
8
1
62
256
6
ByLayer
370
18
48
1
60
0
100
AcDbLine
10
17.135575
20
1.530042
30
0
11
16.956704
21
1.839855
31
0
39
0
210
0
220
0
230
1
0
LINE
5
77
100
AcDbEntity
8
1
62
256
6
ByLayer
370
18
48
1
60
0
100
AcDbLine
10
26.585735
20
-8.053286
30
0
11
26.002048
21
-7.04231
31
0
39
0
210
0
220
0
230
1
0
LINE
5
78
100
AcDbEntity
8
1
62
256
6
ByLayer
370
18
48
1
60
0
100
AcDbLine
10
16.94915
20
9.102481
30
0
11
16.622755
21
9.774286
31
0
39
0
210
0
220
0
230
1
0
LINE
5
79
100
AcDbEntity
8
1
62
256
6
ByLayer
370
18
48
1
60
0
100
AcDbLine
10
16.587321
20
9.844177
30
0
11
15.754028
21
11.420881
31
0
39
0
210
0
220
0
230
1
0
LINE
5
7A
100
AcDbEntity
8
1
62
256
6
ByLayer
370
18
48
1
60
0
100
AcDbLine
10
12.524032
20
12.586089
30
0
11
3.96703
21
8.529562
31
0
39
0
210
0
220
0
230
1
0
LINE
5
7B
100
AcDbEntity
8
1
62
256
6
ByLayer
370
18
48
1
60
0
100
AcDbLine
10
11.344331
20
-16.259826
30
0
11
11.643607
21
-16.778189
31
0
39
0
210
0
220
0
230
1
0
LINE
5
7C
100
AcDbEntity
8
80
62
256
6
ByLayer
370
18
48
1
60
0
100
AcDbLine
10
0
20
0
30
0
11
-5
21
0
31
0
39
0
210
0
220
0
230
1
0
LINE
5
7D
100
AcDbEntity
8
81
62
256
6
ByLayer
370
18
48
1
60
0
100
AcDbLine
10
23.644301
20
-19.9125
30
0
11
33.644301
21
-19.9125
31
0
39
0
210
0
220
0
230
1
0
LINE
5
7E
100
AcDbEntity
8
1
62
256
6
ByLayer
370
18
48
1
60
0
100
AcDbLine
10
18.024073
20
7.280404
30
0
11
17.84857
21
7.197205
31
0
39
0
210
0
220
0
230
1
0
LINE
5
7F
100
AcDbEntity
8
1
62
256
6
ByLayer
370
18
48
1
60
0
100
AcDbLine
10
4.840264
20
1.030496
30
0
11
4.376238
21
0.81052
31
0
39
0
210
0
220
0
230
1
0
LINE
5
80
100
AcDbEntity
8
1
62
256
6
ByLayer
370
18
48
1
60
0
100
AcDbLine
10
25.084238
20
-7.266318
30
0
11
22.151702
21
-6.514789
31
0
39
0
210
0
220
0
230
1
0
LINE
5
81
100
AcDbEntity
8
1
62
256
6
ByLayer
370
18
48
1
60
0
100
AcDbLine
10
11.407203
20
-16.272697
30
0
11
12.7635
21
-11.121109
31
0
39
0
210
0
220
0
230
1
0
LINE
5
82
100
AcDbEntity
8
1
62
256
6
ByLayer
370
18
48
1
60
0
100
AcDbLine
10
17.098887
20
8.785968
30
0
11
18.024073
21
7.280404
31
0
39
0
210
0
220
0
230
1
0
LINE
5
83
100
AcDbEntity
8
1
62
256
6
ByLayer
370
18
48
1
60
0
100
AcDbLine
10
3.348241
20
4.093903
30
0
11
1.862095
21
3.389382
31
0
39
0
210
0
220
0
230
1
0
LINE
5
84
100
AcDbEntity
8
1
62
256
6
ByLayer
370
18
48
1
60
0
100
AcDbLine
10
16.553464
20
9.908263
30
0
11
24.562398
21
-3.026844
31
0
39
0
210
0
220
0
230
1
0
LINE
5
85
100
AcDbEntity
8
1
62
256
6
ByLayer
370
18
48
1
60
0
100
AcDbLine
10
22.153322
20
-6.532492
30
0
11
23.048026
21
-6.76178
31
0
39
0
210
0
220
0
230
1
0
LINE
5
86
100
AcDbEntity
8
1
62
256
6
ByLayer
370
18
48
1
60
0
100
AcDbLine
10
2.941482
20
4.939035
30
0
11
0.996233
21
4.016871
31
0
39
0
210
0
220
0
230
1
0
LINE
5
87
100
AcDbEntity
8
1
62
256
6
ByLayer
370
18
48
1
60
0
100
AcDbLine
10
12.221938
20
12.442939
30
0
11
2.006249
21
12.446254
31
0
39
0
210
0
220
0
230
1
0
LINE
5
88
100
AcDbEntity
8
1
62
256
6
ByLayer
370
18
48
1
60
0
100
AcDbLine
10
3.335406
20
4.120254
30
0
11
1.666671
21
3.329175
31
0
39
0
210
0
220
0
230
1
0
LINE
5
89
100
AcDbEntity
8
1
62
256
6
ByLayer
370
18
48
1
60
0
100
AcDbLine
10
15.475432
20
-13.209913
30
0
11
14.57003
21
-12.365233
31
0
39
0
210
0
220
0
230
1
0
LINE
5
8A
100
AcDbEntity
8
1
62
256
6
ByLayer
370
18
48
1
60
0
100
AcDbLine
10
17.063826
20
-15.285107
30
0
11
17.264663
21
-14.944664
31
0
39
0
210
0
220
0
230
1
0
LINE
5
8B
100
AcDbEntity
8
1
62
256
6
ByLayer
370
18
48
1
60
0
100
AcDbLine
10
22.70329
20
-12.611666
30
0
11
22.299653
21
-12.55778
31
0
39
0
210
0
220
0
230
1
0
LINE
5
8C
100
AcDbEntity
8
1
62
256
6
ByLayer
370
18
48
1
60
0
100
AcDbLine
10
22.095118
20
-10.071789
30
0
11
22.018045
21
-8.834432
31
0
39
0
210
0
220
0
230
1
0
LINE
5
8D
100
AcDbEntity
8
1
62
256
6
ByLayer
370
18
48
1
60
0
100
AcDbLine
10
16.956704
20
1.839855
30
0
11
16.956682
21
1.839894
31
0
39
0
210
0
220
0
230
1
0
LINE
5
8E
100
AcDbEntity
8
1
62
256
6
ByLayer
370
18
48
1
60
0
100
AcDbLine
10
12.889915
20
-11.245275
30
0
11
11.566233
21
-16.185321
31
0
39
0
210
0
220
0
230
1
0
LINE
5
8F
100
AcDbEntity
8
1
62
256
6
ByLayer
370
18
48
1
60
0
100
AcDbLine
10
26.10264
20
-7.687657
30
0
11
22.166166
21
-6.678846
31
0
39
0
210
0
220
0
230
1
0
LINE
5
90
100
AcDbEntity
8
1
62
256
6
ByLayer
370
18
48
1
60
0
100
AcDbLine
10
25.518952
20
-6.676681
30
0
11
25.08415
21
-6.565253
31
0
39
0
210
0
220
0
230
1
0
LINE
5
91
100
AcDbEntity
8
1
62
256
6
ByLayer
370
18
48
1
60
0
100
AcDbLine
10
11.539347
20
-16.138753
30
0
11
11.566233
21
-16.185321
31
0
39
0
210
0
220
0
230
1
0
LINE
5
92
100
AcDbEntity
8
1
62
256
6
ByLayer
370
18
48
1
60
0
100
AcDbLine
10
16.801009
20
2.390637
30
0
11
17.54439
21
0.814404
31
0
39
0
210
0
220
0
230
1
0
LINE
5
93
100
AcDbEntity
8
1
62
256
6
ByLayer
370
18
48
1
60
0
100
AcDbLine
10
22.095117
20
-10.071769
30
0
11
22.024472
21
-9.275335
31
0
39
0
210
0
220
0
230
1
0
LINE
5
94
100
AcDbEntity
8
1
62
256
6
ByLayer
370
18
48
1
60
0
100
AcDbLine
10
22.212673
20
-14.007653
30
0
11
22.342692
21
-13.485425
31
0
39
0
210
0
220
0
230
1
0
LINE
5
95
100
AcDbEntity
8
1
62
256
6
ByLayer
370
18
48
1
60
0
100
AcDbLine
10
18.460924
20
-15.786205
30
0
11
17.95696
21
-15.564523
31
0
39
0
210
0
220
0
230
1
0
LINE
5
96
100
AcDbEntity
8
1
62
256
6
ByLayer
370
18
48
1
60
0
100
AcDbLine
10
14.905994
20
-12.649916
30
0
11
15.475417
21
-13.2099
31
0
39
0
210
0
220
0
230
1
0
LINE
5
97
100
AcDbEntity
8
1
62
256
6
ByLayer
370
18
48
1
60
0
100
AcDbLine
10
22.637307
20
-8.201211
30
0
11
23.117205
21
-8.59656
31
0
39
0
210
0
220
0
230
1
0
LINE
5
98
100
AcDbEntity
8
1
62
256
6
ByLayer
370
18
48
1
60
0
100
AcDbLine
10
17.319239
20
-16.135562
30
0
11
15.35437
21
-14.516867
31
0
39
0
210
0
220
0
230
1
0
LINE
5
99
100
AcDbEntity
8
1
62
256
6
ByLayer
370
18
48
1
60
0
100
AcDbLine
10
23.195253
20
-10.799823
30
0
11
22.629257
21
-9.600377
31
0
39
0
210
0
220
0
230
1
0
LINE
5
9A
100
AcDbEntity
8
1
62
256
6
ByLayer
370
18
48
1
60
0
100
AcDbLine
10
23.117205
20
-8.59656
30
0
11
22.629257
21
-9.600377
31
0
39
0
210
0
220
0
230
1
0
LINE
5
9B
100
AcDbEntity
8
1
62
256
6
ByLayer
370
18
48
1
60
0
100
AcDbLine
10
13.629554
20
-12.47142
30
0
11
13.63002
21
-13.094049
31
0
39
0
210
0
220
0
230
1
0
LINE
5
9C
100
AcDbEntity
8
1
62
256
6
ByLayer
370
18
48
1
60
0
100
AcDbLine
10
16.485803
20
-16.40075
30
0
11
14.366539
21
-14.654861
31
0
39
0
210
0
220
0
230
1
0
LINE
5
9D
100
AcDbEntity
8
1
62
256
6
ByLayer
370
18
48
1
60
0
100
AcDbLine
10
19.055294
20
-16.577768
30
0
11
18.591949
21
-17.355748
31
0
39
0
210
0
220
0
230
1
0
LINE
5
9E
100
AcDbEntity
8
1
62
256
6
ByLayer
370
18
48
1
60
0
100
AcDbLine
10
14.788374
20
-13.317421
30
0
11
13.63002
21
-13.094049
31
0
39
0
210
0
220
0
230
1
0
LINE
5
9F
100
AcDbEntity
8
1
62
256
6
ByLayer
370
18
48
1
60
0
100
AcDbLine
10
22.436877
20
-14.974697
30
0
11
23.2562
21
-15.144616
31
0
39
0
210
0
220
0
230
1
0
LINE
5
A0
100
AcDbEntity
8
1
62
256
6
ByLayer
370
18
48
1
60
0
100
AcDbLine
10
15.35437
20
-14.516867
30
0
11
14.788374
21
-13.317421
31
0
39
0
210
0
220
0
230
1
0
LINE
5
A1
100
AcDbEntity
8
1
62
256
6
ByLayer
370
18
48
1
60
0
100
AcDbLine
10
14.788258
20
-13.16215
30
0
11
14.700701
21
-12.863161
31
0
39
0
210
0
220
0
230
1
0
LINE
5
A2
100
AcDbEntity
8
1
62
256
6
ByLayer
370
18
48
1
60
0
100
AcDbLine
10
17.586211
20
-16.335099
30
0
11
19.055294
21
-16.577768
31
0
39
0
210
0
220
0
230
1
0
LINE
5
A3
100
AcDbEntity
8
1
62
256
6
ByLayer
370
18
48
1
60
0
100
AcDbLine
10
23.855783
20
-12.906942
30
0
11
23.853724
21
-10.157372
31
0
39
0
210
0
220
0
230
1
0
LINE
5
A4
100
AcDbEntity
8
1
62
256
6
ByLayer
370
18
48
1
60
0
100
AcDbLine
10
22.328906
20
-9.246939
30
0
11
22.637307
21
-8.201211
31
0
39
0
210
0
220
0
230
1
0
LINE
5
A5
100
AcDbEntity
8
1
62
256
6
ByLayer
370
18
48
1
60
0
100
AcDbLine
10
22.50958
20
-9.501785
30
0
11
22.70329
21
-12.611666
31
0
39
0
210
0
220
0
230
1
0
LINE
5
A6
100
AcDbEntity
8
1
62
256
6
ByLayer
370
18
48
1
60
0
100
AcDbLine
10
23.18169
20
-13.68251
30
0
11
22.436877
21
-14.974697
31
0
39
0
210
0
220
0
230
1
0
LINE
5
A7
100
AcDbEntity
8
1
62
256
6
ByLayer
370
18
48
1
60
0
100
AcDbLine
10
22.328906
20
-9.246939
30
0
11
22.50958
21
-9.501785
31
0
39
0
210
0
220
0
230
1
0
LINE
5
A8
100
AcDbEntity
8
1
62
256
6
ByLayer
370
18
48
1
60
0
100
AcDbLine
10
14.366539
20
-14.654861
30
0
11
13.63002
21
-13.094049
31
0
39
0
210
0
220
0
230
1
0
LINE
5
A9
100
AcDbEntity
8
1
62
256
6
ByLayer
370
18
48
1
60
0
100
AcDbLine
10
23.195253
20
-10.799823
30
0
11
23.853724
21
-10.157372
31
0
39
0
210
0
220
0
230
1
0
LINE
5
AA
100
AcDbEntity
8
1
62
256
6
ByLayer
370
18
48
1
60
0
100
AcDbLine
10
14.788258
20
-13.16215
30
0
11
17.063826
21
-15.285107
31
0
39
0
210
0
220
0
230
1
0
LINE
5
AB
100
AcDbEntity
8
1
62
256
6
ByLayer
370
18
48
1
60
0
100
AcDbLine
10
14.700701
20
-12.863161
30
0
11
13.629554
21
-12.47142
31
0
39
0
210
0
220
0
230
1
0
LINE
5
AC
100
AcDbEntity
8
1
62
256
6
ByLayer
370
18
48
1
60
0
100
AcDbLine
10
22.629257
20
-9.600377
30
0
11
22.50958
21
-9.501785
31
0
39
0
210
0
220
0
230
1
0
LINE
5
AD
100
AcDbEntity
8
1
62
256
6
ByLayer
370
18
48
1
60
0
100
AcDbLine
10
14.788374
20
-13.317421
30
0
11
14.788258
21
-13.16215
31
0
39
0
210
0
220
0
230
1
0
LINE
5
AE
100
AcDbEntity
8
1
62
256
6
ByLayer
370
18
48
1
60
0
100
AcDbLine
10
17.319239
20
-16.135562
30
0
11
16.485803
21
-16.40075
31
0
39
0
210
0
220
0
230
1
0
LINE
5
AF
100
AcDbEntity
8
1
62
256
6
ByLayer
370
18
48
1
60
0
100
AcDbLine
10
23.853724
20
-10.157372
30
0
11
23.117205
21
-8.59656
31
0
39
0
210
0
220
0
230
1
0
LINE
5
B0
100
AcDbEntity
8
1
62
256
6
ByLayer
370
18
48
1
60
0
100
AcDbLine
10
15.35437
20
-14.516867
30
0
11
14.366539
21
-14.654861
31
0
39
0
210
0
220
0
230
1
0
LINE
5
B1
100
AcDbEntity
8
1
62
256
6
ByLayer
370
18
48
1
60
0
100
AcDbLine
10
23.197163
20
-13.349077
30
0
11
23.195253
21
-10.799823
31
0
39
0
210
0
220
0
230
1
0
LINE
5
B2
100
AcDbEntity
8
1
62
256
6
ByLayer
370
18
48
1
60
0
100
AcDbLine
10
23.197163
20
-13.349077
30
0
11
23.855783
21
-12.906942
31
0
39
0
210
0
220
0
230
1
0
LINE
5
B3
100
AcDbEntity
8
1
62
256
6
ByLayer
370
18
48
1
60
0
100
AcDbLine
10
25.084238
20
-7.377849
30
0
11
23.783018
21
-7.044382
31
0
39
0
210
0
220
0
230
1
0
LINE
5
B4
100
AcDbEntity
8
1
62
256
6
ByLayer
370
18
48
1
60
0
100
AcDbLine
10
25.084238
20
-7.377849
30
0
11
25.084238
21
-7.266318
31
0
39
0
210
0
220
0
230
1
0
LINE
5
B5
100
AcDbEntity
8
1
62
256
6
ByLayer
370
18
48
1
60
0
100
AcDbLine
10
1.916642
20
-14.354142
30
0
11
0
21
-12.4375
31
0
39
0
210
0
220
0
230
1
0
LINE
5
B6
100
AcDbEntity
8
1
62
256
6
ByLayer
370
18
48
1
60
0
100
AcDbLine
10
24.562398
20
-3.026844
30
0
11
25.084238
21
-3.930698
31
0
39
0
210
0
220
0
230
1
0
LINE
5
B7
100
AcDbEntity
8
1
62
256
6
ByLayer
370
18
48
1
60
0
100
AcDbLine
10
4.376238
20
0.81052
30
0
11
2.535565
21
-14.551357
31
0
39
0
210
0
220
0
230
1
0
LINE
5
B8
100
AcDbEntity
8
1
62
256
6
ByLayer
370
18
48
1
60
0
100
AcDbLine
10
1.916642
20
-14.354142
30
0
11
2.535565
21
-14.551357
31
0
39
0
210
0
220
0
230
1
0
LINE
5
B9
100
AcDbEntity
8
1
62
256
6
ByLayer
370
18
48
1
60
0
100
AcDbLine
10
1.666671
20
3.329175
30
0
11
1.862095
21
3.389382
31
0
39
0
210
0
220
0
230
1
0
LINE
5
BA
100
AcDbEntity
8
1
62
256
6
ByLayer
370
18
48
1
60
0
100
AcDbLine
10
1.862095
20
3.389382
30
0
11
4.376238
21
0.81052
31
0
39
0
210
0
220
0
230
1
0
LINE
5
BB
100
AcDbEntity
8
1
62
256
6
ByLayer
370
18
48
1
60
0
100
AcDbLine
10
2.535565
20
-14.551357
30
0
11
11.232555
21
-16.237675
31
0
39
0
210
0
220
0
230
1
0
LINE
5
BC
100
AcDbEntity
8
1
62
256
6
ByLayer
370
18
48
1
60
0
100
AcDbLine
10
2.006249
20
12.446254
30
0
11
0.996233
21
4.016871
31
0
39
0
210
0
220
0
230
1
0
LINE
5
BD
100
AcDbEntity
8
1
62
256
6
ByLayer
370
18
48
1
60
0
100
AcDbLine
10
25.084238
20
-4.10506
30
0
11
25.084238
21
-7.266318
31
0
39
0
210
0
220
0
230
1
0
LINE
5
BE
100
AcDbEntity
8
1
62
256
6
ByLayer
370
18
48
1
60
0
100
AcDbLine
10
25.084238
20
-4.10506
30
0
11
18.024073
21
7.280404
31
0
39
0
210
0
220
0
230
1
0
LINE
5
BF
100
AcDbEntity
8
1
62
256
6
ByLayer
370
18
48
1
60
0
100
AcDbLine
10
0
20
12.4375
30
0
11
2.006249
21
12.446254
31
0
39
0
210
0
220
0
230
1
0
LINE
5
C0
100
AcDbEntity
8
1
62
256
6
ByLayer
370
18
48
1
60
0
100
AcDbLine
10
25.084238
20
-4.10506
30
0
11
25.084238
21
-3.930698
31
0
39
0
210
0
220
0
230
1
0
LINE
5
C1
100
AcDbEntity
8
1
62
256
6
ByLayer
370
18
48
1
60
0
100
AcDbLine
10
0
20
-12.4375
30
0
11
0
21
12.4375
31
0
39
0
210
0
220
0
230
1
0
LINE
5
C2
100
AcDbEntity
8
SK1
62
256
6
ByLayer
370
18
48
1
60
0
100
AcDbLine
10
-127.705699
20
12.4375
30
0
11
0
21
12.4375
31
0
39
0
210
0
220
0
230
1
0
LINE
5
C4
100
AcDbEntity
8
SK1
62
256
6
ByLayer
370
18
48
1
60
0
100
AcDbLine
10
0
20
-12.4375
30
0
11
0
21
12.4375
31
0
39
0
210
0
220
0
230
1
0
LINE
5
C5
100
AcDbEntity
8
SK1
62
256
6
ByLayer
370
18
48
1
60
0
100
AcDbLine
10
-127.705699
20
-12.4375
30
0
11
-127.705699
21
12.4375
31
0
39
0
210
0
220
0
230
1
0
LINE
5
C6
100
AcDbEntity
8
SK1
62
256
6
ByLayer
370
18
48
1
60
0
100
AcDbLine
10
0
20
-12.4375
30
0
11
-127.705699
21
-12.4375
31
0
39
0
210
0
220
0
230
1
0
LINE
5
C7
100
AcDbEntity
8
1
62
256
6
ByLayer
370
18
48
1
60
0
100
AcDbLine
10
12.126703
20
-17.143817
30
0
11
22.833644
21
-19.887714
31
0
39
0
210
0
220
0
230
1
0
LINE
5
C8
100
AcDbEntity
8
1
62
256
6
ByLayer
370
18
48
1
60
0
100
AcDbLine
10
25.518952
20
-6.676681
30
0
11
26.10264
21
-7.687657
31
0
39
0
210
0
220
0
230
1
0
LINE
5
C9
100
AcDbEntity
8
1
62
256
6
ByLayer
370
18
48
1
60
0
100
AcDbLine
10
23.802738
20
-19.321203
30
0
11
26.663109
21
-8.646154
31
0
39
0
210
0
220
0
230
1
0
LINE
5
CA
100
AcDbEntity
8
1
62
256
6
ByLayer
370
18
48
1
60
0
100
AcDbLine
10
14.266237
20
7.865121
30
0
11
12.820633
21
10.840549
31
0
39
0
210
0
220
0
230
1
0
LINE
5
CB
100
AcDbEntity
8
1
62
256
6
ByLayer
370
18
48
1
60
0
100
AcDbLine
10
9.442451
20
-1.403785
30
0
11
10.309577
21
-3.241378
31
0
39
0
210
0
220
0
230
1
0
LINE
5
CC
100
AcDbEntity
8
1
62
256
6
ByLayer
370
18
48
1
60
0
100
AcDbLine
10
7.66451
20
5.940175
30
0
11
8.140226
21
4.961029
31
0
39
0
210
0
220
0
230
1
0
LINE
5
CD
100
AcDbEntity
8
1
62
256
6
ByLayer
370
18
48
1
60
0
100
AcDbLine
10
21.658896
20
-0.958358
30
0
11
22.207476
21
-7.142884
31
0
39
0
210
0
220
0
230
1
0
LINE
5
CE
100
AcDbEntity
8
1
62
256
6
ByLayer
370
18
48
1
60
0
100
AcDbLine
10
20.96324
20
0.592675
30
0
11
21.658896
21
-0.958358
31
0
39
0
210
0
220
0
230
1
0
LINE
5
CF
100
AcDbEntity
8
1
62
256
6
ByLayer
370
18
48
1
60
0
100
AcDbLine
10
7.66451
20
5.940175
30
0
11
12.362926
21
8.167503
31
0
39
0
210
0
220
0
230
1
0
LINE
5
D0
100
AcDbEntity
8
1
62
256
6
ByLayer
370
18
48
1
60
0
100
AcDbLine
10
14.559336
20
-12.260829
30
0
11
14.57487
21
-12.281252
31
0
39
0
210
0
220
0
230
1
0
LINE
5
D1
100
AcDbEntity
8
1
62
256
6
ByLayer
370
18
48
1
60
0
100
AcDbLine
10
12.043098
20
12.311752
30
0
11
4.489492
21
8.730894
31
0
39
0
210
0
220
0
230
1
0
LINE
5
D2
100
AcDbEntity
8
1
62
256
6
ByLayer
370
18
48
1
60
0
100
AcDbLine
10
17.808971
20
0.31378
30
0
11
17.54439
21
0.814404
31
0
39
0
210
0
220
0
230
1
0
LINE
5
D3
100
AcDbEntity
8
1
62
256
6
ByLayer
370
18
48
1
60
0
100
AcDbLine
10
8.140226
20
4.961029
30
0
11
6.712631
21
4.284264
31
0
39
0
210
0
220
0
230
1
0
LINE
5
D4
100
AcDbEntity
8
1
62
256
6
ByLayer
370
18
48
1
60
0
100
AcDbLine
10
3.89439
20
2.968061
30
0
11
4.926767
21
0.853116
31
0
39
0
210
0
220
0
230
1
0
LINE
5
D5
100
AcDbEntity
8
1
62
256
6
ByLayer
370
18
48
1
60
0
100
AcDbLine
10
21.947601
20
-8.758352
30
0
11
21.853361
21
-7.695917
31
0
39
0
210
0
220
0
230
1
0
LINE
5
D6
100
AcDbEntity
8
1
62
256
6
ByLayer
370
18
48
1
60
0
100
AcDbLine
10
4.465647
20
3.709012
30
0
11
8.535464
21
-4.915647
31
0
39
0
210
0
220
0
230
1
0
LINE
5
D7
100
AcDbEntity
8
1
62
256
6
ByLayer
370
18
48
1
60
0
100
AcDbLine
10
6.712631
20
4.284264
30
0
11
5.267027
21
7.259691
31
0
39
0
210
0
220
0
230
1
0
LINE
5
D8
100
AcDbEntity
8
1
62
256
6
ByLayer
370
18
48
1
60
0
100
AcDbLine
10
13.799731
20
-11.513816
30
0
11
14.559336
21
-12.260829
31
0
39
0
210
0
220
0
230
1
0
LINE
5
D9
100
AcDbEntity
8
1
62
256
6
ByLayer
370
18
48
1
60
0
100
AcDbLine
10
21.953146
20
-8.783511
30
0
11
21.947601
21
-8.758352
31
0
39
0
210
0
220
0
230
1
0
LINE
5
DA
100
AcDbEntity
8
1
62
256
6
ByLayer
370
18
48
1
60
0
100
AcDbLine
10
2.848609
20
5.132107
30
0
11
3.665259
21
3.586895
31
0
39
0
210
0
220
0
230
1
0
LINE
5
DB
100
AcDbEntity
8
1
62
256
6
ByLayer
370
18
48
1
60
0
100
AcDbLine
10
7.988385
20
-5.558177
30
0
11
8.684041
21
-7.10921
31
0
39
0
210
0
220
0
230
1
0
LINE
5
DC
100
AcDbEntity
8
1
62
256
6
ByLayer
370
18
48
1
60
0
100
AcDbLine
10
12.043098
20
12.311752
30
0
11
12.820633
21
10.840549
31
0
39
0
210
0
220
0
230
1
0
LINE
5
DD
100
AcDbEntity
8
1
62
256
6
ByLayer
370
18
48
1
60
0
100
AcDbLine
10
16.097834
20
9.22336
30
0
11
20.167652
21
0.5987
31
0
39
0
210
0
220
0
230
1
0
LINE
5
DE
100
AcDbEntity
8
1
62
256
6
ByLayer
370
18
48
1
60
0
100
AcDbLine
10
12.362926
20
8.167503
30
0
11
12.838642
21
7.188356
31
0
39
0
210
0
220
0
230
1
0
LINE
5
DF
100
AcDbEntity
8
1
62
256
6
ByLayer
370
18
48
1
60
0
100
AcDbLine
10
4.926767
20
0.853116
30
0
11
8.684041
21
-7.10921
31
0
39
0
210
0
220
0
230
1
0
LINE
5
E0
100
AcDbEntity
8
1
62
256
6
ByLayer
370
18
48
1
60
0
100
AcDbLine
10
20.691965
20
1.171598
30
0
11
16.975632
21
9.047162
31
0
39
0
210
0
220
0
230
1
0
LINE
5
E1
100
AcDbEntity
8
1
62
256
6
ByLayer
370
18
48
1
60
0
100
AcDbLine
10
4.489492
20
8.730894
30
0
11
5.267027
21
7.259691
31
0
39
0
210
0
220
0
230
1
0
LINE
5
E2
100
AcDbEntity
8
1
62
256
6
ByLayer
370
18
48
1
60
0
100
AcDbLine
10
14.266237
20
7.865121
30
0
11
12.838642
21
7.188356
31
0
39
0
210
0
220
0
230
1
0
LINE
5
E3
100
AcDbEntity
8
1
62
256
6
ByLayer
370
18
48
1
60
0
100
AcDbLine
10
4.000777
20
2.896311
30
0
11
3.665259
21
3.586895
31
0
39
0
210
0
220
0
230
1
0
LINE
5
E4
100
AcDbEntity
8
1
62
256
6
ByLayer
370
18
48
1
60
0
100
AcDbLine
10
17.808971
20
0.31378
30
0
11
16.941845
21
2.151373
31
0
39
0
210
0
220
0
230
1
0
LINE
5
E5
100
AcDbEntity
8
1
62
256
6
ByLayer
370
18
48
1
60
0
100
AcDbLine
10
4.000777
20
2.896311
30
0
11
7.71711
21
-4.979254
31
0
39
0
210
0
220
0
230
1
0
LINE
5
E6
100
AcDbEntity
8
1
62
256
6
ByLayer
370
18
48
1
60
0
100
AcDbLine
10
12.820633
20
10.840549
30
0
11
5.267027
21
7.259691
31
0
39
0
210
0
220
0
230
1
0
LINE
5
E7
100
AcDbEntity
8
1
62
256
6
ByLayer
370
18
48
1
60
0
100
AcDbLine
10
13.105765
20
-11.457635
30
0
11
8.684041
21
-7.10921
31
0
39
0
210
0
220
0
230
1
0
LINE
5
E8
100
AcDbEntity
8
1
62
256
6
ByLayer
370
18
48
1
60
0
100
AcDbLine
10
16.941845
20
2.151373
30
0
11
16.681748
21
2.643511
31
0
39
0
210
0
220
0
230
1
0
LINE
5
E9
100
AcDbEntity
8
1
62
256
6
ByLayer
370
18
48
1
60
0
100
AcDbLine
10
14.842011
20
-0.765476
30
0
11
15.007414
21
-1.051962
31
0
39
0
210
0
220
0
230
1
0
LINE
5
EA
100
AcDbEntity
8
1
62
256
6
ByLayer
370
18
48
1
60
0
100
AcDbLine
10
13.126455
20
-1.578752
30
0
11
13.291857
21
-1.865238
31
0
39
0
210
0
220
0
230
1
0
LINE
5
EB
100
AcDbEntity
8
1
62
256
6
ByLayer
370
18
48
1
60
0
100
AcDbLine
10
13.784768
20
-1.629344
30
0
11
13.95017
21
-1.91583
31
0
39
0
210
0
220
0
230
1
0
LINE
5
EC
100
AcDbEntity
8
1
62
256
6
ByLayer
370
18
48
1
60
0
100
AcDbLine
10
14.463404
20
-1.30763
30
0
11
14.628806
21
-1.594116
31
0
39
0
210
0
220
0
230
1
0
LINE
5
ED
100
AcDbEntity
8
1
62
256
6
ByLayer
370
18
48
1
60
0
100
AcDbLine
10
14.627034
20
0.570029
30
0
11
14.792436
21
0.283544
31
0
39
0
210
0
220
0
230
1
0
LINE
5
EE
100
AcDbEntity
8
1
62
256
6
ByLayer
370
18
48
1
60
0
100
AcDbLine
10
12.232842
20
-0.56496
30
0
11
12.398244
21
-0.851445
31
0
39
0
210
0
220
0
230
1
0
MTEXT
5
176
100
AcDbEntity
8
SK6
62
256
6
ByLayer
370
18
48
1
60
0
100
AcDbMText
10
-66.155699
20
21.827547
30
0
210
0
220
0
230
1
1
\W0.7455;CSKNL 2525M 12-4
40
3.5
41
0
44
1.084337
50
0
71
7
72
5
7
iso_b_vert
0
DIMENSION
5
196
100
AcDbEntity
8
2
62
256
6
ByLayer
370
13
48
1
60
0
100
AcDbDimension
2
DimnDraft3D2
10
24.44664
20
-16.91813
30
0
11
43.839779
21
-4.415964
31
0
70
34
71
5
72
1
41
1
210
0
220
0
230
1
3
Standard
100
AcDb2LineAngularDimension
13
22.056801
23
-19.9125
33
0
14
23.644301
24
-19.9125
34
0
15
23.644301
25
-19.9125
35
0
16
40.269689
26
-7.15539
36
0
40
0
0
DIMENSION
5
1AB
100
AcDbEntity
8
2
62
256
6
ByLayer
370
13
48
1
60
0
100
AcDbDimension
2
DimnDraft3D3
10
23.644301
20
-43.1625
30
0
11
6.540571
21
-43.1625
31
0
70
32
71
5
72
1
41
1
210
0
220
0
230
1
3
Standard
100
AcDbAlignedDimension
13
0
23
-14.4375
33
0
14
23.644301
24
-21.9125
34
0
50
0
100
AcDbRotatedDimension
1001
ACAD
1000
DSTYLE
1002
{
1070
   279
1070
     0
1070
   172
1070
     1
1070
   173
1070
     1
1070
   340
1005
177
1070
    77
1070
     1
1070
    73
1070
     0
1070
   171
1070
     3
1070
   274
1070
     4
1070
   177
1070
     2
1070
   176
1070
     2
1070
   178
1070
     7
1070
    78
1070
     8
1070
    41
1041
3.175
1070
   147
1041
2.25
1070
    42
1041
2.0
1070
    44
1041
2.0
1070
   140
1041
4.5
1070
   343
1005
197
1070
   344
1005
197
1002
}
0
DIMENSION
5
1B9
100
AcDbEntity
8
2
62
256
6
ByLayer
370
13
48
1
60
0
100
AcDbDimension
2
DimnDraft3D4
10
63.894301
20
-19.9125
30
0
11
63.894301
21
-9.019079
31
0
70
32
71
5
72
1
41
1
210
0
220
0
230
1
3
Standard
100
AcDbAlignedDimension
13
2
23
12.4375
33
0
14
25.644301
24
-19.9125
34
0
50
90
100
AcDbRotatedDimension
1001
ACAD
1000
DSTYLE
1002
{
1070
    74
1070
     0
1070
   279
1070
     0
1070
   172
1070
     1
1070
   173
1070
     1
1070
   340
1005
177
1070
    77
1070
     1
1070
    73
1070
     0
1070
   171
1070
     3
1070
   274
1070
     4
1070
   177
1070
     2
1070
   176
1070
     2
1070
   178
1070
     7
1070
    78
1070
     8
1070
    41
1041
3.175
1070
   147
1041
2.25
1070
    42
1041
2.0
1070
    44
1041
2.0
1070
   140
1041
4.5
1070
   343
1005
197
1070
   344
1005
197
1002
}
0
DIMENSION
5
1C7
100
AcDbEntity
8
SK2
62
256
6
ByLayer
370
13
48
1
60
0
100
AcDbDimension
2
DimnDraft3D5
10
-135.455699
20
-12.4375
30
0
11
-135.455699
21
-5.281579
31
0
70
32
71
5
72
1
41
1
210
0
220
0
230
1
3
Standard
100
AcDbAlignedDimension
13
-129.705699
23
12.4375
33
0
14
-129.705699
24
-12.4375
34
0
50
90
100
AcDbRotatedDimension
1001
ACAD
1000
DSTYLE
1002
{
1070
    74
1070
     0
1070
   279
1070
     0
1070
   172
1070
     1
1070
   173
1070
     1
1070
   340
1005
177
1070
    77
1070
     1
1070
    73
1070
     0
1070
   171
1070
     3
1070
   274
1070
     4
1070
   177
1070
     2
1070
   176
1070
     2
1070
   178
1070
     7
1070
    78
1070
     8
1070
    41
1041
3.175
1070
   147
1041
2.25
1070
    42
1041
2.0
1070
    44
1041
2.0
1070
   140
1041
4.5
1070
   343
1005
197
1070
   344
1005
197
1002
}
0
ENDSEC
0
SECTION
2
OBJECTS
0
DICTIONARY
5
231
330
0
100
AcDbDictionary
280
0
281
1
3
ACAD_GROUP
350
232
3
ACAD_MLINESTYLE
350
233
0
DICTIONARY
5
232
330
0
100
AcDbDictionary
280
0
281
1
0
DICTIONARY
5
233
330
0
100
AcDbDictionary
280
0
281
1
3
Standard
350
18
0
MLINESTYLE
5
18
330
233
100
AcDbMlineStyle
2
Standard
70
0
3

62
256
51
90
52
90
71
2
49
-0.5
62
256
6
ByLayer
49
0.5
62
256
6
ByLayer
0
RASTERVARIABLES
5
220
330

100
AcDbRasterVariables
90
0
70
1
71
1
72
1
0
ENDSEC
0
EOF
