0
SECTION
2
HEADER
9
$ACADVER
1
AC1015
9
$DWGCODEPAGE
3
ANSI_1252
9
$HANDSEED
5
23a
9
$ANGBASE
50
0
9
$ANGDIR
70
0
9
$ATTMODE
70
1
9
$AUNITS
70
0
9
$AUPREC
70
0
9
$CECOLOR
62
256
9
$CELTSCALE
40
1
9
$CELTYPE
6
ByLayer
9
$CELWEIGHT
370
18
9
$CLAYER
8
0
9
$CMLJUST
70
0
9
$CMLSCALE
40
1
9
$CMLSTYLE
2
Standard
9
$DIMSTYLE
2
Standard
9
$TEXTSIZE
40
0.2
9
$TEXTSTYLE
7
Standard
9
$LUNITS
70
2
9
$LUPREC
70
4
9
$EXTNAMES
290
1
9
$INSUNITS
70
4
9
$LTSCALE
40
1
9
$LWDISPLAY
290
1
9
$PDMODE
70
0
9
$PDSIZE
40
0
9
$PLINEGEN
70
0
0
ENDSEC
0
SECTION
2
CLASSES
0
CLASS
1
RASTERVARIABLES
2
AcDbRasterVariables
3
ISM
90
0
280
0
281
0
0
ENDSEC
0
SECTION
2
TABLES
0
TABLE
2
VPORT
5
230
100
AcDbSymbolTable
0
VPORT
5
1
100
AcDbSymbolTableRecord
100
AcDbViewportTableRecord
2
*Active
70
0
10
0
20
0
11
1
21
1
12
-1
22
1
13
0
23
0
14
0.5
24
0.5
15
10
25
10
16
0
26
0
36
1
17
0
27
0
37
0
0
ENDTAB
0
TABLE
2
LTYPE
5
231
100
AcDbSymbolTable
0
LTYPE
5
14
100
AcDbSymbolTableRecord
100
AcDbLinetypeTableRecord
70
0
2
ByBlock
3

72
65
73
0
40
0
0
LTYPE
5
15
100
AcDbSymbolTableRecord
100
AcDbLinetypeTableRecord
70
0
2
ByLayer
3

72
65
73
0
40
0
0
LTYPE
5
16
100
AcDbSymbolTableRecord
100
AcDbLinetypeTableRecord
70
0
2
CONTINUOUS
3
Solid line
72
65
73
0
40
0
0
LTYPE
5
6A
100
AcDbSymbolTableRecord
100
AcDbLinetypeTableRecord
70
0
2
CENTER
3
____ _ ____ _ ____ _ ____
72
65
73
4
40
47.5
49
22
74
0
49
-8.5
74
0
49
8.5
74
0
49
-8.5
74
0
0
LTYPE
5
6B
100
AcDbSymbolTableRecord
100
AcDbLinetypeTableRecord
70
0
2
DASHED
3
__ __ __ __ __ __ __ __ __
72
65
73
2
40
25.72
49
12.86
74
0
49
-12.86
74
0
0
ENDTAB
0
TABLE
2
LAYER
5
232
100
AcDbSymbolTable
0
LAYER
5
10
100
AcDbSymbolTableRecord
100
AcDbLayerTableRecord
2
0
70
0
62
7
6
CONTINUOUS
290
1
370
-3
390
0
0
LAYER
5
6D
100
AcDbSymbolTableRecord
100
AcDbLayerTableRecord
2
2
70
0
62
7
6
CONTINUOUS
290
1
370
-3
390
0
0
LAYER
5
6F
100
AcDbSymbolTableRecord
100
AcDbLayerTableRecord
2
80
70
0
62
-6
6
CONTINUOUS
290
1
370
-3
390
0
0
LAYER
5
71
100
AcDbSymbolTableRecord
100
AcDbLayerTableRecord
2
81
70
0
62
-3
6
CONTINUOUS
290
1
370
-3
390
0
0
LAYER
5
73
100
AcDbSymbolTableRecord
100
AcDbLayerTableRecord
2
1
70
0
62
4
6
CONTINUOUS
290
1
370
-3
390
0
0
LAYER
5
21d
100
AcDbSymbolTableRecord
100
AcDbLayerTableRecord
2
SK1
70
0
62
4
6
CONTINUOUS
290
1
370
-3
390
0
0
LAYER
5
21e
100
AcDbSymbolTableRecord
100
AcDbLayerTableRecord
2
SK6
70
0
62
5
6
CONTINUOUS
290
1
370
-3
390
0
0
LAYER
5
21f
100
AcDbSymbolTableRecord
100
AcDbLayerTableRecord
2
SK2
70
0
62
7
6
CONTINUOUS
290
1
370
-3
390
0
0
ENDTAB
0
TABLE
2
STYLE
5
233
100
AcDbSymbolTable
0
STYLE
5
11
100
AcDbSymbolTableRecord
100
AcDbTextStyleTableRecord
2
Standard
3
txt
70
0
71
0
40
0
41
1
42
0
50
0
0
STYLE
5
173
100
AcDbSymbolTableRecord
100
AcDbTextStyleTableRecord
2
iso_b_vert
3
simplex.shx
70
0
71
0
40
0
41
1
42
0
50
0
0
STYLE
5
174
100
AcDbSymbolTableRecord
100
AcDbTextStyleTableRecord
2
DWGDirectTextStyle
3
simplex
70
0
71
0
40
0
41
1
42
0
50
0
0
ENDTAB
0
TABLE
2
DIMSTYLE
5
234
100
AcDbSymbolTable
100
AcDbDimStyleTable
0
DIMSTYLE
105
27
100
AcDbSymbolTableRecord
100
AcDbDimStyleTableRecord
2
Standard
70
0
3
<>
41
0.18
42
0.0625
44
0.18
140
0.18
147
0.09
73
0
74
0
77
1
271
2
275
0
278
52
280
0
340
11
0
ENDTAB
0
TABLE
2
VIEW
5
235
100
AcDbSymbolTable
0
ENDTAB
0
TABLE
2
UCS
5
236
100
AcDbSymbolTable
0
ENDTAB
0
TABLE
2
APPID
5
237
100
AcDbSymbolTable
0
APPID
5
12
100
AcDbSymbolTableRecord
100
AcDbRegAppTableRecord
2
ACAD
70
0
0
ENDTAB
0
TABLE
2
BLOCK_RECORD
5
238
100
AcDbSymbolTable
0
BLOCK_RECORD
5
1F
100
AcDbSymbolTableRecord
100
AcDbBlockTableRecord
2
*Model_Space
340
0
70
0
0
BLOCK_RECORD
5
1B
100
AcDbSymbolTableRecord
100
AcDbBlockTableRecord
2
*Paper_Space
340
0
70
0
0
BLOCK_RECORD
5
23
100
AcDbSymbolTableRecord
100
AcDbBlockTableRecord
2
*Paper_Space0
340
0
70
0
0
BLOCK_RECORD
5
176
100
AcDbSymbolTableRecord
100
AcDbBlockTableRecord
2
DimnDraft3D1
340
0
70
0
0
BLOCK_RECORD
5
184
100
AcDbSymbolTableRecord
100
AcDbBlockTableRecord
2
_CLOSED
340
0
70
0
0
BLOCK_RECORD
5
18B
100
AcDbSymbolTableRecord
100
AcDbBlockTableRecord
2
DimnDraft3D2
340
0
70
0
0
BLOCK_RECORD
5
19A
100
AcDbSymbolTableRecord
100
AcDbBlockTableRecord
2
DimnDraft3D3
340
0
70
0
0
BLOCK_RECORD
5
1A8
100
AcDbSymbolTableRecord
100
AcDbBlockTableRecord
2
DimnDraft3D4
340
0
70
0
0
BLOCK_RECORD
5
1B6
100
AcDbSymbolTableRecord
100
AcDbBlockTableRecord
2
DimnDraft3D5
340
0
70
0
0
ENDTAB
0
ENDSEC
0
SECTION
2
BLOCKS
0
BLOCK
5
20
100
AcDbEntity
8
0
100
AcDbBlockBegin
2
*Model_Space
70
0
10
0
20
0
30
0
3
*Model_Space
0
ENDBLK
5
21
100
AcDbEntity
8
0
100
AcDbBlockEnd
0
BLOCK
5
1C
100
AcDbEntity
8
0
100
AcDbBlockBegin
2
*Paper_Space
70
0
10
0
20
0
30
0
3
*Paper_Space
0
ENDBLK
5
1D
100
AcDbEntity
8
0
100
AcDbBlockEnd
0
BLOCK
5
24
100
AcDbEntity
8
0
100
AcDbBlockBegin
2
*Paper_Space0
70
0
10
0
20
0
30
0
3
*Paper_Space0
0
ENDBLK
5
25
100
AcDbEntity
8
0
100
AcDbBlockEnd
0
BLOCK
5
181
100
AcDbEntity
8
0
100
AcDbBlockBegin
2
DimnDraft3D1
70
0
10
0
20
0
30
0
3
DimnDraft3D1
0
MTEXT
5
177
100
AcDbEntity
8
2
62
256
6
ByLayer
370
18
48
1
60
0
100
AcDbMText
10
25.506087
20
19.614596
30
0
210
0
220
0
230
1
1
\W0.7785;45%%d
40
4.5
41
0
44
1.084337
50
22.3434918549997
71
7
72
5
7
iso_b_vert
0
LINE
5
178
100
AcDbEntity
8
2
62
256
6
ByLayer
370
13
48
1
60
0
100
AcDbLine
10
36.819284
20
2.3913
30
0
11
36.819284
21
23.347144
31
0
39
0
210
0
220
0
230
1
0
LINE
5
179
100
AcDbEntity
8
2
62
256
6
ByLayer
370
13
48
1
60
0
100
AcDbLine
10
32.914872
20
4.338607
30
0
11
20.675972
21
16.71197
31
0
39
0
210
0
220
0
230
1
0
ARC
5
17A
100
AcDbEntity
8
2
62
256
6
ByLayer
370
13
48
1
60
0
100
AcDbCircle
39
0
10
36.819284
20
0.3913
30
0
40
20.9558441220058
210
0
220
0
230
1
100
AcDbArc
50
90
51
134.686984
0
LINE
5
17B
100
AcDbEntity
8
2
62
256
6
ByLayer
370
13
48
1
60
0
100
AcDbLine
10
36.819284
20
21.347144
30
0
11
33.662352
21
20.809444
31
0
39
0
210
0
220
0
230
1
0
LINE
5
17C
100
AcDbEntity
8
2
62
256
6
ByLayer
370
13
48
1
60
0
100
AcDbLine
10
36.819284
20
21.347144
30
0
11
33.630752
21
21.64484
31
0
39
0
210
0
220
0
230
1
0
LINE
5
17D
100
AcDbEntity
8
2
62
256
6
ByLayer
370
13
48
1
60
0
100
AcDbLine
10
33.662352
20
20.809444
30
0
11
33.630752
21
21.64484
31
0
39
0
210
0
220
0
230
1
0
LINE
5
17E
100
AcDbEntity
8
2
62
256
6
ByLayer
370
13
48
1
60
0
100
AcDbLine
10
22.082438
20
15.290051
30
0
11
24.140003
21
17.74398
31
0
39
0
210
0
220
0
230
1
0
LINE
5
17F
100
AcDbEntity
8
2
62
256
6
ByLayer
370
13
48
1
60
0
100
AcDbLine
10
22.082438
20
15.290051
30
0
11
24.705019
21
17.127829
31
0
39
0
210
0
220
0
230
1
0
LINE
5
180
100
AcDbEntity
8
2
62
256
6
ByLayer
370
13
48
1
60
0
100
AcDbLine
10
24.140003
20
17.74398
30
0
11
24.705019
21
17.127829
31
0
39
0
210
0
220
0
230
1
0
ENDBLK
5
182
100
AcDbEntity
8
0
100
AcDbBlockEnd
0
BLOCK
5
185
100
AcDbEntity
8
0
100
AcDbBlockBegin
2
_CLOSED
70
0
10
0
20
0
30
0
3
_CLOSED
0
LINE
5
187
100
AcDbEntity
8
0
62
256
6
ByLayer
370
-2
48
1
60
0
100
AcDbLine
10
-1
20
0.166667
30
0
11
0
21
0
31
0
39
0
210
0
220
0
230
1
0
LINE
5
188
100
AcDbEntity
8
0
62
256
6
ByLayer
370
-2
48
1
60
0
100
AcDbLine
10
0
20
0
30
0
11
-1
21
-0.166667
31
0
39
0
210
0
220
0
230
1
0
LINE
5
189
100
AcDbEntity
8
0
62
256
6
ByLayer
370
-2
48
1
60
0
100
AcDbLine
10
-1
20
0.166667
30
0
11
-1
21
-0.166667
31
0
39
0
210
0
220
0
230
1
0
LINE
5
18A
100
AcDbEntity
8
0
62
256
6
ByLayer
370
-2
48
1
60
0
100
AcDbLine
10
0
20
0
30
0
11
-1
21
0
31
0
39
0
210
0
220
0
230
1
0
ENDBLK
5
186
100
AcDbEntity
8
0
100
AcDbBlockEnd
0
BLOCK
5
197
100
AcDbEntity
8
0
100
AcDbBlockBegin
2
DimnDraft3D2
70
0
10
0
20
0
30
0
3
DimnDraft3D2
0
MTEXT
5
18C
100
AcDbEntity
8
SK2
62
256
6
ByLayer
370
18
48
1
60
0
100
AcDbMText
10
-123.405716
20
-4.156579
30
0
210
0
220
0
230
1
1
\W0.7346;25.0
40
4.5
41
0
44
1.084337
50
90
71
7
72
5
7
iso_b_vert
0
LINE
5
18E
100
AcDbEntity
8
SK2
62
256
6
ByLayer
370
13
48
1
60
0
100
AcDbLine
10
-116.530716
20
-12.4375
30
0
11
-124.280716
21
-12.4375
31
0
39
0
210
0
220
0
230
1
0
LINE
5
18F
100
AcDbEntity
8
SK2
62
256
6
ByLayer
370
13
48
1
60
0
100
AcDbLine
10
-116.530716
20
12.4375
30
0
11
-124.280716
21
12.4375
31
0
39
0
210
0
220
0
230
1
0
LINE
5
190
100
AcDbEntity
8
SK2
62
256
6
ByLayer
370
13
48
1
60
0
100
AcDbLine
10
-122.280716
20
-12.4375
30
0
11
-122.280716
21
12.4375
31
0
39
0
210
0
220
0
230
1
0
LINE
5
191
100
AcDbEntity
8
SK2
62
256
6
ByLayer
370
13
48
1
60
0
100
AcDbLine
10
-122.280716
20
-12.4375
30
0
11
-122.698713
21
-9.262502
31
0
39
0
210
0
220
0
230
1
0
LINE
5
192
100
AcDbEntity
8
SK2
62
256
6
ByLayer
370
13
48
1
60
0
100
AcDbLine
10
-122.280716
20
-12.4375
30
0
11
-121.86272
21
-9.262498
31
0
39
0
210
0
220
0
230
1
0
LINE
5
193
100
AcDbEntity
8
SK2
62
256
6
ByLayer
370
13
48
1
60
0
100
AcDbLine
10
-122.698713
20
-9.262502
30
0
11
-121.86272
21
-9.262498
31
0
39
0
210
0
220
0
230
1
0
LINE
5
194
100
AcDbEntity
8
SK2
62
256
6
ByLayer
370
13
48
1
60
0
100
AcDbLine
10
-122.280716
20
12.4375
30
0
11
-121.86272
21
9.262502
31
0
39
0
210
0
220
0
230
1
0
LINE
5
195
100
AcDbEntity
8
SK2
62
256
6
ByLayer
370
13
48
1
60
0
100
AcDbLine
10
-122.280716
20
12.4375
30
0
11
-122.698713
21
9.262498
31
0
39
0
210
0
220
0
230
1
0
LINE
5
196
100
AcDbEntity
8
SK2
62
256
6
ByLayer
370
13
48
1
60
0
100
AcDbLine
10
-121.86272
20
9.262502
30
0
11
-122.698713
21
9.262498
31
0
39
0
210
0
220
0
230
1
0
ENDBLK
5
198
100
AcDbEntity
8
0
100
AcDbBlockEnd
0
BLOCK
5
1A5
100
AcDbEntity
8
0
100
AcDbBlockBegin
2
DimnDraft3D3
70
0
10
0
20
0
30
0
3
DimnDraft3D3
0
MTEXT
5
19B
100
AcDbEntity
8
2
62
256
6
ByLayer
370
18
48
1
60
0
100
AcDbMText
10
57.944284
20
11.7713
30
0
210
0
220
0
230
1
1
\W0.6563;12.8
40
4.5
41
0
44
1.084337
50
90
71
7
72
5
7
iso_b_vert
0
LINE
5
19C
100
AcDbEntity
8
2
62
256
6
ByLayer
370
13
48
1
60
0
100
AcDbLine
10
2
20
-12.4375
30
0
11
61.069284
21
-12.4375
31
0
39
0
210
0
220
0
230
1
0
LINE
5
19D
100
AcDbEntity
8
2
62
256
6
ByLayer
370
13
48
1
60
0
100
AcDbLine
10
38.819284
20
0.3913
30
0
11
61.069284
21
0.3913
31
0
39
0
210
0
220
0
230
1
0
LINE
5
19E
100
AcDbEntity
8
2
62
256
6
ByLayer
370
13
48
1
60
0
100
AcDbLine
10
59.069284
20
-12.4375
30
0
11
59.069284
21
20.084458
31
0
39
0
210
0
220
0
230
1
0
LINE
5
19F
100
AcDbEntity
8
2
62
256
6
ByLayer
370
13
48
1
60
0
100
AcDbLine
10
59.069284
20
-12.4375
30
0
11
58.651287
21
-9.262502
31
0
39
0
210
0
220
0
230
1
0
LINE
5
1A0
100
AcDbEntity
8
2
62
256
6
ByLayer
370
13
48
1
60
0
100
AcDbLine
10
59.069284
20
-12.4375
30
0
11
59.48728
21
-9.262498
31
0
39
0
210
0
220
0
230
1
0
LINE
5
1A1
100
AcDbEntity
8
2
62
256
6
ByLayer
370
13
48
1
60
0
100
AcDbLine
10
58.651287
20
-9.262502
30
0
11
59.48728
21
-9.262498
31
0
39
0
210
0
220
0
230
1
0
LINE
5
1A2
100
AcDbEntity
8
2
62
256
6
ByLayer
370
13
48
1
60
0
100
AcDbLine
10
59.069284
20
0.3913
30
0
11
59.48728
21
-2.783698
31
0
39
0
210
0
220
0
230
1
0
LINE
5
1A3
100
AcDbEntity
8
2
62
256
6
ByLayer
370
13
48
1
60
0
100
AcDbLine
10
59.069284
20
0.3913
30
0
11
58.651287
21
-2.783702
31
0
39
0
210
0
220
0
230
1
0
LINE
5
1A4
100
AcDbEntity
8
2
62
256
6
ByLayer
370
13
48
1
60
0
100
AcDbLine
10
59.48728
20
-2.783698
30
0
11
58.651287
21
-2.783702
31
0
39
0
210
0
220
0
230
1
0
ENDBLK
5
1A6
100
AcDbEntity
8
0
100
AcDbBlockEnd
0
BLOCK
5
1B3
100
AcDbEntity
8
0
100
AcDbBlockBegin
2
DimnDraft3D4
70
0
10
0
20
0
30
0
3
DimnDraft3D4
0
MTEXT
5
1A9
100
AcDbEntity
8
2
62
256
6
ByLayer
370
18
48
1
60
0
100
AcDbMText
10
14.253063
20
31.2663
30
0
210
0
220
0
230
1
1
\W0.7346;36.8
40
4.5
41
0
44
1.084337
50
0
71
7
72
5
7
iso_b_vert
0
LINE
5
1AA
100
AcDbEntity
8
2
62
256
6
ByLayer
370
13
48
1
60
0
100
AcDbLine
10
0
20
14.4375
30
0
11
0
21
32.1413
31
0
39
0
210
0
220
0
230
1
0
LINE
5
1AB
100
AcDbEntity
8
2
62
256
6
ByLayer
370
13
48
1
60
0
100
AcDbLine
10
36.819284
20
2.3913
30
0
11
36.819284
21
32.1413
31
0
39
0
210
0
220
0
230
1
0
LINE
5
1AC
100
AcDbEntity
8
2
62
256
6
ByLayer
370
13
48
1
60
0
100
AcDbLine
10
0
20
30.1413
30
0
11
36.819284
21
30.1413
31
0
39
0
210
0
220
0
230
1
0
LINE
5
1AD
100
AcDbEntity
8
2
62
256
6
ByLayer
370
13
48
1
60
0
100
AcDbLine
10
0
20
30.1413
30
0
11
3.174998
21
30.559297
31
0
39
0
210
0
220
0
230
1
0
LINE
5
1AE
100
AcDbEntity
8
2
62
256
6
ByLayer
370
13
48
1
60
0
100
AcDbLine
10
0
20
30.1413
30
0
11
3.175002
21
29.723303
31
0
39
0
210
0
220
0
230
1
0
LINE
5
1AF
100
AcDbEntity
8
2
62
256
6
ByLayer
370
13
48
1
60
0
100
AcDbLine
10
3.174998
20
30.559297
30
0
11
3.175002
21
29.723303
31
0
39
0
210
0
220
0
230
1
0
LINE
5
1B0
100
AcDbEntity
8
2
62
256
6
ByLayer
370
13
48
1
60
0
100
AcDbLine
10
36.819284
20
30.1413
30
0
11
33.644285
21
29.723303
31
0
39
0
210
0
220
0
230
1
0
LINE
5
1B1
100
AcDbEntity
8
2
62
256
6
ByLayer
370
13
48
1
60
0
100
AcDbLine
10
36.819284
20
30.1413
30
0
11
33.644282
21
30.559297
31
0
39
0
210
0
220
0
230
1
0
LINE
5
1B2
100
AcDbEntity
8
2
62
256
6
ByLayer
370
13
48
1
60
0
100
AcDbLine
10
33.644285
20
29.723303
30
0
11
33.644282
21
30.559297
31
0
39
0
210
0
220
0
230
1
0
ENDBLK
5
1B4
100
AcDbEntity
8
0
100
AcDbBlockEnd
0
BLOCK
5
1C1
100
AcDbEntity
8
0
100
AcDbBlockBegin
2
DimnDraft3D5
70
0
10
0
20
0
30
0
3
DimnDraft3D5
0
MTEXT
5
1B7
100
AcDbEntity
8
SK2
62
256
6
ByLayer
370
18
48
1
60
0
100
AcDbMText
10
-44.131374
20
41.2663
30
0
210
0
220
0
230
1
1
\W0.6864;150.0
40
4.5
41
0
44
1.084337
50
0
71
7
72
5
7
iso_b_vert
0
LINE
5
1B8
100
AcDbEntity
8
SK2
62
256
6
ByLayer
370
13
48
1
60
0
100
AcDbLine
10
36.819284
20
2.3913
30
0
11
36.819284
21
42.1413
31
0
39
0
210
0
220
0
230
1
0
LINE
5
1B9
100
AcDbEntity
8
SK2
62
256
6
ByLayer
370
13
48
1
60
0
100
AcDbLine
10
-114.530716
20
14.4375
30
0
11
-114.530716
21
42.1413
31
0
39
0
210
0
220
0
230
1
0
LINE
5
1BA
100
AcDbEntity
8
SK2
62
256
6
ByLayer
370
13
48
1
60
0
100
AcDbLine
10
36.819284
20
40.1413
30
0
11
-114.530716
21
40.1413
31
0
39
0
210
0
220
0
230
1
0
LINE
5
1BB
100
AcDbEntity
8
SK2
62
256
6
ByLayer
370
13
48
1
60
0
100
AcDbLine
10
36.819284
20
40.1413
30
0
11
33.644285
21
39.723303
31
0
39
0
210
0
220
0
230
1
0
LINE
5
1BC
100
AcDbEntity
8
SK2
62
256
6
ByLayer
370
13
48
1
60
0
100
AcDbLine
10
36.819284
20
40.1413
30
0
11
33.644282
21
40.559297
31
0
39
0
210
0
220
0
230
1
0
LINE
5
1BD
100
AcDbEntity
8
SK2
62
256
6
ByLayer
370
13
48
1
60
0
100
AcDbLine
10
33.644285
20
39.723303
30
0
11
33.644282
21
40.559297
31
0
39
0
210
0
220
0
230
1
0
LINE
5
1BE
100
AcDbEntity
8
SK2
62
256
6
ByLayer
370
13
48
1
60
0
100
AcDbLine
10
-114.530716
20
40.1413
30
0
11
-111.355718
21
40.559297
31
0
39
0
210
0
220
0
230
1
0
LINE
5
1BF
100
AcDbEntity
8
SK2
62
256
6
ByLayer
370
13
48
1
60
0
100
AcDbLine
10
-114.530716
20
40.1413
30
0
11
-111.355715
21
39.723303
31
0
39
0
210
0
220
0
230
1
0
LINE
5
1C0
100
AcDbEntity
8
SK2
62
256
6
ByLayer
370
13
48
1
60
0
100
AcDbLine
10
-111.355718
20
40.559297
30
0
11
-111.355715
21
39.723303
31
0
39
0
210
0
220
0
230
1
0
ENDBLK
5
1C2
100
AcDbEntity
8
0
100
AcDbBlockEnd
0
ENDSEC
0
SECTION
2
ENTITIES
0
ELLIPSE
5
F0
100
AcDbEntity
8
1
62
256
6
ByLayer
370
18
48
1
60
0
100
AcDbEllipse
10
14.275101
20
0.24104
30
0
11
2.32675207226252E-17
21
0.38
31
0
210
0
220
0
230
1
40
0.989133
41
-2.6859434208934
42
-2.33498694719279
0
ELLIPSE
5
F1
100
AcDbEntity
8
1
62
256
6
ByLayer
370
18
48
1
60
0
100
AcDbEllipse
10
14.462494
20
2.406492
30
0
11
2.32675207226252E-17
21
0.38
31
0
210
0
220
0
230
1
40
0.989133
41
-0.981138631591361
42
-0.455610074533255
0
ELLIPSE
5
F2
100
AcDbEntity
8
1
62
256
6
ByLayer
370
18
48
1
60
0
100
AcDbEllipse
10
14.849949
20
-0.315982
30
0
11
-7.80686550561765E-17
21
-0.425
31
0
210
0
220
0
230
1
40
0.989133
41
3.14158979446545
42
-2.33498694719277
0
ELLIPSE
5
F3
100
AcDbEntity
8
1
62
256
6
ByLayer
370
18
48
1
60
0
100
AcDbEllipse
10
15.124284
20
2.854134
30
0
11
-7.80686550561765E-17
21
-0.425
31
0
210
0
220
0
230
1
40
0.989133
41
-0.981138631591289
42
-1.4371926812744E-06
0
ELLIPSE
5
F4
100
AcDbEntity
8
1
62
256
6
ByLayer
370
18
48
1
60
0
100
AcDbEllipse
10
15.511739
20
0.13166
30
0
11
2.32675207226252E-17
21
0.38
31
0
210
0
220
0
230
1
40
0.989133
41
-2.68594820057571
42
-1.28778939599618
0
ELLIPSE
5
F5
100
AcDbEntity
8
1
62
256
6
ByLayer
370
18
48
1
60
0
100
AcDbEllipse
10
15.699132
20
2.297112
30
0
11
2.32675207226252E-17
21
0.38
31
0
210
0
220
0
230
1
40
0.989133
41
-2.02833618278795
42
-0.455695506750711
0
ELLIPSE
5
F6
100
AcDbEntity
8
1
62
256
6
ByLayer
370
18
48
1
60
0
100
AcDbEllipse
10
14.832741
20
1.269076
30
0
11
-7.34763812293426E-16
21
-4
31
0
210
0
220
0
230
1
40
0.989133
41
-3.14150544065455
42
-2.24484073350127E-16
0
ELLIPSE
5
F7
100
AcDbEntity
8
1
62
256
6
ByLayer
370
18
48
1
60
0
100
AcDbEllipse
10
14.987116
20
1.269076
30
0
11
-2.1124459603436E-16
21
-1.15
31
0
210
0
220
0
230
1
40
0.989133
41
-0.69528435785509
42
-1.95203542043589E-16
0
ELLIPSE
5
F8
100
AcDbEntity
8
1
62
256
6
ByLayer
370
18
48
1
60
0
100
AcDbEllipse
10
14.987116
20
1.269076
30
0
11
-2.1124459603436E-16
21
-1.15
31
0
210
0
220
0
230
1
40
0.989133
41
-1.98618507993748
42
-1.39320935392949
0
ELLIPSE
5
F9
100
AcDbEntity
8
1
62
256
6
ByLayer
370
18
48
1
60
0
100
AcDbEllipse
10
14.987116
20
1.269076
30
0
11
-2.1124459603436E-16
21
-1.15
31
0
210
0
220
0
230
1
40
0.989133
41
0
42
-2.63835957131961
0
ELLIPSE
5
FA
100
AcDbEntity
8
1
62
256
6
ByLayer
370
18
48
1
60
0
100
AcDbEllipse
10
14.862146
20
1.269076
30
0
11
-2.1124459603436E-16
21
-1.15
31
0
210
0
220
0
230
1
40
0.989133
41
3.08660344157559
42
-3.05432681821637
0
ELLIPSE
5
FB
100
AcDbEntity
8
1
62
256
6
ByLayer
370
18
48
1
60
0
100
AcDbEllipse
10
14.862146
20
1.269076
30
0
11
-2.1124459603436E-16
21
-1.15
31
0
210
0
220
0
230
1
40
0.989133
41
0.0549670171116371
42
3.08660432066492
0
ELLIPSE
5
FC
100
AcDbEntity
8
1
62
256
6
ByLayer
370
18
48
1
60
0
100
AcDbEllipse
10
28.761707
20
0.062518
30
0
11
-6.16126126409623E-16
21
-3.35414518843274
31
0
210
0
220
0
230
1
40
0.989133
41
1.62867717546971
42
2.67908040181389
0
ELLIPSE
5
FD
100
AcDbEntity
8
1
62
256
6
ByLayer
370
18
48
1
60
0
100
AcDbEllipse
10
28.761707
20
0.062518
30
0
11
-6.16126126409623E-16
21
-3.35414518843274
31
0
210
0
220
0
230
1
40
0.989133
41
0.287979326581651
42
1.32011310539426
0
ELLIPSE
5
FE
100
AcDbEntity
8
1
62
256
6
ByLayer
370
18
48
1
60
0
100
AcDbEllipse
10
28.261826
20
0.062518
30
0
11
3.36766747301154E-16
21
5.5
31
0
210
0
220
0
230
1
40
0.989133
41
0.349065850401467
42
0.521340742964327
0
ELLIPSE
5
FF
100
AcDbEntity
8
1
62
256
6
ByLayer
370
18
48
1
60
0
100
AcDbEllipse
10
28.65879
20
0.062518
30
0
11
-8.77406667064607E-16
21
-4.77653718043597
31
0
210
0
220
0
230
1
40
0.989133
41
-0.634074492553607
42
-0.617126658661594
0
ELLIPSE
5
100
100
AcDbEntity
8
1
62
256
6
ByLayer
370
18
48
1
60
0
100
AcDbEllipse
10
28.65879
20
0.062518
30
0
11
-8.77406667064607E-16
21
-4.77653718043597
31
0
210
0
220
0
230
1
40
0.989133
41
-2.69899892012245
42
-2.68305959986408
0
ELLIPSE
5
101
100
AcDbEntity
8
1
62
256
6
ByLayer
370
18
48
1
60
0
100
AcDbEllipse
10
28.261826
20
0.062518
30
0
11
3.36766747301154E-16
21
5.5
31
0
210
0
220
0
230
1
40
0.989133
41
2.43211909493983
42
2.61799387799407
0
ELLIPSE
5
102
100
AcDbEntity
8
1
62
256
6
ByLayer
370
18
48
1
60
0
100
AcDbEllipse
10
7.629025
20
6.122767
30
0
11
-0.173923713747933
21
-2.99506740399029
31
0
210
0
220
0
230
1
40
0.877443
41
3.12571721692465
42
-1.60306703523626
0
ELLIPSE
5
103
100
AcDbEntity
8
1
62
256
6
ByLayer
370
18
48
1
60
0
100
AcDbEllipse
10
15.68987
20
1.256114
30
0
11
-0.0384424678862503
21
-4.14982194517582
31
0
210
0
220
0
230
1
40
0.986426
41
0.0847563485389369
42
3.06347705958977
0
ELLIPSE
5
104
100
AcDbEntity
8
1
62
256
6
ByLayer
370
18
48
1
60
0
100
AcDbEllipse
10
4.602676
20
-12.445486
30
0
11
-0.802990329035308
21
-5.18495173411133E-06
31
0
210
0
220
0
230
1
40
0.004348
41
-2.9949634974285
42
-1.42416717063421
0
ELLIPSE
5
105
100
AcDbEntity
8
1
62
256
6
ByLayer
370
18
48
1
60
0
100
AcDbEllipse
10
25.833505
20
4.540378
30
0
11
-1.29933666312086
21
-2.41003002344174
31
0
210
0
220
0
230
1
40
0.524248
41
-2.42348064183251
42
-2.08115015691596
0
ELLIPSE
5
106
100
AcDbEntity
8
1
62
256
6
ByLayer
370
18
48
1
60
0
100
AcDbEllipse
10
14.028721
20
2.181701
30
0
11
-7.80686550561765E-17
21
-0.425
31
0
210
0
220
0
230
1
40
0.989133
41
1.13556680714788
42
1.85380325759363
0
ELLIPSE
5
107
100
AcDbEntity
8
1
62
256
6
ByLayer
370
18
48
1
60
0
100
AcDbEllipse
10
15.31792
20
1.269076
30
0
11
-2.15836869861194E-16
21
-1.175
31
0
210
0
220
0
230
1
40
0.989133
41
2.99108233929399
42
3.11757004269137
0
ELLIPSE
5
108
100
AcDbEntity
8
1
62
256
6
ByLayer
370
18
48
1
60
0
100
AcDbEllipse
10
16.276316
20
0.356451
30
0
11
-7.80686550561765E-17
21
-0.425
31
0
210
0
220
0
230
1
40
0.989133
41
-3.07553373398452
42
-1.28778939599616
0
ELLIPSE
5
109
100
AcDbEntity
8
1
62
256
6
ByLayer
370
18
48
1
60
0
100
AcDbEllipse
10
15.31792
20
1.269076
30
0
11
-2.15836869861194E-16
21
-1.175
31
0
210
0
220
0
230
1
40
0.989133
41
1.94388478809734
42
2.07037249149473
0
ELLIPSE
5
10A
100
AcDbEntity
8
1
62
256
6
ByLayer
370
18
48
1
60
0
100
AcDbEllipse
10
16.223755
20
1.159696
30
0
11
2.32675207226252E-17
21
0.38
31
0
210
0
220
0
230
1
40
0.989133
41
-3.07553373398453
42
-0.240591844799481
0
ELLIPSE
5
10B
100
AcDbEntity
8
1
62
256
6
ByLayer
370
18
48
1
60
0
100
AcDbEllipse
10
15.31792
20
1.269076
30
0
11
-2.15836869861194E-16
21
-1.175
31
0
210
0
220
0
230
1
40
0.989133
41
-0.150510314295805
42
-0.0240226108984225
0
ELLIPSE
5
10C
100
AcDbEntity
8
1
62
256
6
ByLayer
370
18
48
1
60
0
100
AcDbEllipse
10
16.60712
20
0.356451
30
0
11
-7.80686550561765E-17
21
-0.425
31
0
210
0
220
0
230
1
40
0.989133
41
-3.07553373398445
42
-2.35729728353872
0
ELLIPSE
5
10D
100
AcDbEntity
8
1
62
256
6
ByLayer
370
18
48
1
60
0
100
AcDbEllipse
10
16.413483
20
1.941509
30
0
11
-7.80686550561765E-17
21
-0.425
31
0
210
0
220
0
230
1
40
0.989133
41
-2.02833618278797
42
-0.24059184479946
0
ELLIPSE
5
10E
100
AcDbEntity
8
1
62
256
6
ByLayer
370
18
48
1
60
0
100
AcDbEllipse
10
13.891553
20
0.596643
30
0
11
-7.80686550561765E-17
21
-0.425
31
0
210
0
220
0
230
1
40
0.989133
41
2.18276435834449
42
2.90100080879033
0
ELLIPSE
5
10F
100
AcDbEntity
8
1
62
256
6
ByLayer
370
18
48
1
60
0
100
AcDbEllipse
10
16.029936
20
2.297112
30
0
11
2.32675207226252E-17
21
0.38
31
0
210
0
220
0
230
1
40
0.989133
41
-2.02833618278794
42
0.806605706397044
0
ELLIPSE
5
110
100
AcDbEntity
8
1
62
256
6
ByLayer
370
18
48
1
60
0
100
AcDbEllipse
10
15.455088
20
2.854134
30
0
11
-7.80686550561765E-17
21
-0.425
31
0
210
0
220
0
230
1
40
0.989133
41
0.0883692559513675
42
0.80660570639707
0
ELLIPSE
5
111
100
AcDbEntity
8
1
62
256
6
ByLayer
370
18
48
1
60
0
100
AcDbEllipse
10
15.180753
20
-0.315982
30
0
11
-7.80686550561765E-17
21
-0.425
31
0
210
0
220
0
230
1
40
0.989133
41
2.16045402199838
42
2.87869047244426
0
ELLIPSE
5
112
100
AcDbEntity
8
1
62
256
6
ByLayer
370
18
48
1
60
0
100
AcDbEllipse
10
15.31792
20
1.269076
30
0
11
1.40829730689573E-16
21
2.3
31
0
210
0
220
0
230
1
40
0.989133
41
0
42
6.28318530717959
0
ELLIPSE
5
113
100
AcDbEntity
8
1
62
256
6
ByLayer
370
18
48
1
60
0
100
AcDbEllipse
10
14.605904
20
0.24104
30
0
11
2.32675207226252E-17
21
0.38
31
0
210
0
220
0
230
1
40
0.989133
41
1.1132564708019
42
-2.33498694719279
0
ELLIPSE
5
114
100
AcDbEntity
8
1
62
256
6
ByLayer
370
18
48
1
60
0
100
AcDbEllipse
10
15.190481
20
1.269076
30
0
11
2.44921270764475E-16
21
4
31
0
210
0
220
0
230
1
40
0.989133
41
0
42
6.28318530717959
0
ELLIPSE
5
115
100
AcDbEntity
8
1
62
256
6
ByLayer
370
18
48
1
60
0
100
AcDbEllipse
10
13.891553
20
0.596643
30
0
11
-7.80686550561765E-17
21
-0.425
31
0
210
0
220
0
230
1
40
0.989133
41
1.11325647080182
42
1.83149292124756
0
ELLIPSE
5
116
100
AcDbEntity
8
1
62
256
6
ByLayer
370
18
48
1
60
0
100
AcDbEllipse
10
15.31792
20
1.269076
30
0
11
-2.15836869861194E-16
21
-1.175
31
0
210
0
220
0
230
1
40
0.989133
41
-1.19770786549247
42
-1.07122016209506
0
ELLIPSE
5
117
100
AcDbEntity
8
1
62
256
6
ByLayer
370
18
48
1
60
0
100
AcDbEllipse
10
14.793298
20
2.406492
30
0
11
2.32675207226252E-17
21
0.38
31
0
210
0
220
0
230
1
40
0.989133
41
-0.981138631591338
42
1.85380325759364
0
ELLIPSE
5
118
100
AcDbEntity
8
1
62
256
6
ByLayer
370
18
48
1
60
0
100
AcDbEllipse
10
15.455088
20
2.854134
30
0
11
-7.80686550561765E-17
21
-0.425
31
0
210
0
220
0
230
1
40
0.989133
41
-0.98113863159135
42
-0.262902181145537
0
ELLIPSE
5
119
100
AcDbEntity
8
1
62
256
6
ByLayer
370
18
48
1
60
0
100
AcDbEllipse
10
16.744287
20
1.941509
30
0
11
-7.80686550561765E-17
21
-0.425
31
0
210
0
220
0
230
1
40
0.989133
41
-2.02833618278792
42
-1.31009973234221
0
ELLIPSE
5
11A
100
AcDbEntity
8
1
62
256
6
ByLayer
370
18
48
1
60
0
100
AcDbEllipse
10
16.554558
20
1.159696
30
0
11
2.32675207226252E-17
21
0.38
31
0
210
0
220
0
230
1
40
0.989133
41
-3.07553373398453
42
-0.240591844799483
0
ELLIPSE
5
11B
100
AcDbEntity
8
1
62
256
6
ByLayer
370
18
48
1
60
0
100
AcDbEllipse
10
15.842543
20
0.13166
30
0
11
2.32675207226252E-17
21
0.38
31
0
210
0
220
0
230
1
40
0.989133
41
2.16045402199842
42
-1.28778939599619
0
ELLIPSE
5
11C
100
AcDbEntity
8
1
62
256
6
ByLayer
370
18
48
1
60
0
100
AcDbEllipse
10
15.180753
20
-0.315982
30
0
11
-7.80686550561765E-17
21
-0.425
31
0
210
0
220
0
230
1
40
0.989133
41
-3.05322339763849
42
-2.33498694719276
0
ELLIPSE
5
11D
100
AcDbEntity
8
1
62
256
6
ByLayer
370
18
48
1
60
0
100
AcDbEllipse
10
15.31792
20
1.269076
30
0
11
-2.15836869861194E-16
21
-1.175
31
0
210
0
220
0
230
1
40
0.989133
41
-2.24490541668903
42
-2.11841771329166
0
ELLIPSE
5
11E
100
AcDbEntity
8
1
62
256
6
ByLayer
370
18
48
1
60
0
100
AcDbEllipse
10
15.31792
20
1.269076
30
0
11
-2.15836869861194E-16
21
-1.175
31
0
210
0
220
0
230
1
40
0.989133
41
0.896687236900762
42
1.02317494029813
0
ELLIPSE
5
11F
100
AcDbEntity
8
1
62
256
6
ByLayer
370
18
48
1
60
0
100
AcDbEllipse
10
16.60712
20
0.356451
30
0
11
-7.80686550561765E-17
21
-0.425
31
0
210
0
220
0
230
1
40
0.989133
41
-2.00602584644192
42
-1.28778939599618
0
ELLIPSE
5
120
100
AcDbEntity
8
1
62
256
6
ByLayer
370
18
48
1
60
0
100
AcDbEllipse
10
14.028721
20
2.181701
30
0
11
-7.80686550561765E-17
21
-0.425
31
0
210
0
220
0
230
1
40
0.989133
41
0.0660589196052735
42
0.784295370050996
0
ELLIPSE
5
121
100
AcDbEntity
8
1
62
256
6
ByLayer
370
18
48
1
60
0
100
AcDbEllipse
10
16.744287
20
1.941509
30
0
11
-7.80686550561765E-17
21
-0.425
31
0
210
0
220
0
230
1
40
0.989133
41
-0.958828295245338
42
-0.24059184479953
0
ELLIPSE
5
122
100
AcDbEntity
8
1
62
256
6
ByLayer
370
18
48
1
60
0
100
AcDbEllipse
10
14.081282
20
1.378457
30
0
11
2.32675207226252E-17
21
0.38
31
0
210
0
220
0
230
1
40
0.989133
41
0.0660589196052682
42
2.90100080879024
0
ELLIPSE
5
123
100
AcDbEntity
8
1
62
256
6
ByLayer
370
18
48
1
60
0
100
AcDbEllipse
10
6.908321
20
-2.205421
30
0
11
-0.173923713746951
21
-2.99506740399107
31
0
210
0
220
0
230
1
40
0.877443
41
-1.60306703523669
42
-0.0322707084418732
0
ELLIPSE
5
124
100
AcDbEntity
8
1
62
256
6
ByLayer
370
18
48
1
60
0
100
AcDbEllipse
10
11.154981
20
3.384318
30
0
11
-4.53494207340286
21
5.40458953169715
31
0
210
0
220
0
230
1
40
0.079999
41
-1.44448844370654
42
-0.980424915384023
0
ELLIPSE
5
125
100
AcDbEntity
8
1
62
256
6
ByLayer
370
18
48
1
60
0
100
AcDbEllipse
10
10.779973
20
-0.949129
30
0
11
-4.98138247414645
21
0.431078468804212
31
0
210
0
220
0
230
1
40
0.012814
41
-1.34969895389097
42
-0.908667848528219
0
ELLIPSE
5
126
100
AcDbEntity
8
1
62
256
6
ByLayer
370
18
48
1
60
0
100
AcDbEllipse
10
5.066181
20
-2.13198
30
0
11
-0.53005142776264
21
2.95322199065743
31
0
210
0
220
0
230
1
40
0.996226
41
2.52546852207057
42
2.53157917445565
0
ELLIPSE
5
127
100
AcDbEntity
8
1
62
256
6
ByLayer
370
18
48
1
60
0
100
AcDbEllipse
10
26.511648
20
-3.402054
30
0
11
-1.02882462421109
21
-0.334085461902424
31
0
210
0
220
0
230
1
40
0.206871
41
0.812876139169897
42
1.33647491478531
0
ELLIPSE
5
128
100
AcDbEntity
8
1
62
256
6
ByLayer
370
18
48
1
60
0
100
AcDbEllipse
10
16.281037
20
-2.920086
30
0
11
-9.74037966736647
21
-2.00708216013684
31
0
210
0
220
0
230
1
40
0.127363
41
-0.317686160525614
42
0.401514739420213
0
ELLIPSE
5
129
100
AcDbEntity
8
1
62
256
6
ByLayer
370
18
48
1
60
0
100
AcDbEllipse
10
29.890852
20
2.442739
30
0
11
-3.6535456326427
21
5.2576575351234
31
0
210
0
220
0
230
1
40
0.537917
41
0.659280064277019
42
0.739018334131679
0
ELLIPSE
5
12A
100
AcDbEntity
8
1
62
256
6
ByLayer
370
18
48
1
60
0
100
AcDbEllipse
10
27.14158
20
3.87721
30
0
11
-0.957297264749853
21
0.501902836442369
31
0
210
0
220
0
230
1
40
0.185249
41
-1.34637214476675
42
-0.82277336920435
0
ELLIPSE
5
12B
100
AcDbEntity
8
1
62
256
6
ByLayer
370
18
48
1
60
0
100
AcDbEllipse
10
10.85325
20
-0.102364
30
0
11
-5.39949258246793
21
-4.53066526948501
31
0
210
0
220
0
230
1
40
0.067254
41
0.993378953722994
42
1.45744248208712
0
ELLIPSE
5
12C
100
AcDbEntity
8
1
62
256
6
ByLayer
370
18
48
1
60
0
100
AcDbEllipse
10
5.787158
20
6.195492
30
0
11
-0.531831725347065
21
2.95387338773948
31
0
210
0
220
0
230
1
40
0.996079
41
0.0797453741600561
42
0.0858550291881595
0
ELLIPSE
5
12D
100
AcDbEntity
8
1
62
256
6
ByLayer
370
18
48
1
60
0
100
AcDbEllipse
10
17.001741
20
5.408102
30
0
11
-9.26613639830638
21
3.49000996459054
31
0
210
0
220
0
230
1
40
0.119825
41
-0.405787573005857
42
0.313413326939307
0
ELLIPSE
5
12E
100
AcDbEntity
8
1
62
256
6
ByLayer
370
18
48
1
60
0
100
AcDbEllipse
10
11.228258
20
4.231083
30
0
11
-4.98138247414645
21
0.431078468804212
31
0
210
0
220
0
230
1
40
0.012814
41
-1.34969895389097
42
-0.908667848528194
0
ELLIPSE
5
12F
100
AcDbEntity
8
1
62
256
6
ByLayer
370
18
48
1
60
0
100
AcDbEllipse
10
2.49782
20
-4.831625
30
0
11
6.97393546380503
21
-0.603509856325894
31
0
210
0
220
0
230
1
40
0.012814
41
-1.21749192468991
42
-0.810230541128658
0
ELLIPSE
5
130
100
AcDbEntity
8
1
62
256
6
ByLayer
370
18
48
1
60
0
100
AcDbEllipse
10
29.466898
20
-2.456321
30
0
11
-4.29475677216172
21
-5.17562121275266
31
0
210
0
220
0
230
1
40
0.54521
41
-0.831047052063732
42
-0.751308783090471
0
ELLIPSE
5
131
100
AcDbEntity
8
1
62
256
6
ByLayer
370
18
48
1
60
0
100
AcDbEllipse
10
31.534542
20
0.964279
30
0
11
-0.214531436929789
21
-1.99073954528595
31
0
210
0
220
0
230
1
40
0.725015
41
2.35505002994178
42
-2.90717771679149
0
ELLIPSE
5
132
100
AcDbEntity
8
1
62
256
6
ByLayer
370
18
48
1
60
0
100
AcDbEllipse
10
28.853047
20
0.010225
30
0
11
2.75536429610035E-16
21
4.5
31
0
210
0
220
0
230
1
40
0.989133
41
-2.26892802759006
42
-1.04719755119404
0
ELLIPSE
5
133
100
AcDbEntity
8
1
62
256
6
ByLayer
370
18
48
1
60
0
100
AcDbEllipse
10
29.352929
20
0.010225
30
0
11
2.19753941406071E-16
21
3.58897274573418
31
0
210
0
220
0
230
1
40
0.989133
41
-0.617363275153678
42
-0.52359877559571
0
ELLIPSE
5
134
100
AcDbEntity
8
1
62
256
6
ByLayer
370
18
48
1
60
0
100
AcDbEllipse
10
25.960626
20
3.548004
30
0
11
-6.34174788784071
21
6.23820347706639
31
0
210
0
220
0
230
1
40
0.728952
41
2.18826677787186
42
2.25183743729621
0
ELLIPSE
5
135
100
AcDbEntity
8
1
62
256
6
ByLayer
370
18
48
1
60
0
100
AcDbEllipse
10
28.853047
20
0.010225
30
0
11
2.75536429610035E-16
21
4.5
31
0
210
0
220
0
230
1
40
0.989133
41
-2.79252680318833
42
-2.26892802759006
0
ELLIPSE
5
136
100
AcDbEntity
8
1
62
256
6
ByLayer
370
18
48
1
60
0
100
AcDbEllipse
10
29.352929
20
0.010225
30
0
11
-5.99291955472953E-16
21
-3.26250120349491
31
0
210
0
220
0
230
1
40
0.989133
41
0.872664625999738
42
2.09439510239575
0
ELLIPSE
5
137
100
AcDbEntity
8
1
62
256
6
ByLayer
370
18
48
1
60
0
100
AcDbEllipse
10
31.345841
20
-1.216285
30
0
11
-0.0248524644690895
21
2.14034093541658
31
0
210
0
220
0
230
1
40
0.674481
41
2.79152943719334
42
-2.47069830954055
0
ELLIPSE
5
138
100
AcDbEntity
8
1
62
256
6
ByLayer
370
18
48
1
60
0
100
AcDbEllipse
10
25.37747
20
-3.190732
30
0
11
-7.10973229356858
21
-5.67645172986856
31
0
210
0
220
0
230
1
40
0.724034
41
-2.3122794899682
42
-2.24870882987326
0
ELLIPSE
5
139
100
AcDbEntity
8
1
62
256
6
ByLayer
370
18
48
1
60
0
100
AcDbEllipse
10
29.352929
20
0.010225
30
0
11
2.19753941406071E-16
21
3.58897274573418
31
0
210
0
220
0
230
1
40
0.989133
41
-2.79252680318834
42
-2.69876230363038
0
ELLIPSE
5
13A
100
AcDbEntity
8
1
62
256
6
ByLayer
370
18
48
1
60
0
100
AcDbEllipse
10
28.853047
20
0.010225
30
0
11
2.75536429610035E-16
21
4.5
31
0
210
0
220
0
230
1
40
0.989133
41
-1.04719755119404
42
-0.523598775595706
0
ELLIPSE
5
13B
100
AcDbEntity
8
1
62
256
6
ByLayer
370
18
48
1
60
0
100
AcDbEllipse
10
28.261826
20
7.920242
30
0
11
4.86015646673256E-17
21
0.79375
31
0
210
0
220
0
230
1
40
0.989133
41
-0.785398163394828
42
0.785398163400013
0
ELLIPSE
5
13C
100
AcDbEntity
8
1
62
256
6
ByLayer
370
18
48
1
60
0
100
AcDbEllipse
10
36.034159
20
0.062518
30
0
11
4.86015646673256E-17
21
0.79375
31
0
210
0
220
0
230
1
40
0.989133
41
-2.35619449018979
42
-0.785398163394854
0
ELLIPSE
5
13D
100
AcDbEntity
8
1
62
256
6
ByLayer
370
18
48
1
60
0
100
AcDbEllipse
10
28.261826
20
-7.795206
30
0
11
4.86015646673256E-17
21
0.79375
31
0
210
0
220
0
230
1
40
0.989133
41
2.35619449019491
42
-2.35619449018977
0
POINT
5
6C
100
AcDbEntity
8
2
62
256
6
ByLayer
370
18
48
1
60
0
100
AcDbPoint
10
36.819284
20
0.3913
30
0
39
0
210
0
220
0
230
1
50
360
0
POINT
5
6E
100
AcDbEntity
8
80
62
256
6
ByLayer
370
18
48
1
60
0
100
AcDbPoint
10
0
20
0
30
0
39
0
210
0
220
0
230
1
50
360
0
POINT
5
70
100
AcDbEntity
8
81
62
256
6
ByLayer
370
18
48
1
60
0
100
AcDbPoint
10
36.819284
20
0.3913
30
0
39
0
210
0
220
0
230
1
50
360
0
SPLINE
5
13E
100
AcDbEntity
8
1
62
256
6
ByLayer
370
18
48
1
60
0
100
AcDbSpline
70
4
71
3
72
8
73
4
40
0
40
0
40
0
40
0
40
1
40
1
40
1
40
1
41
1
10
5.9778342627809
20
9.19109285488685
30
0
41
1
10
5.87617995654171
20
9.19520999359995
30
0
41
1
10
5.77397203990915
20
9.19539288302903
30
0
41
1
10
5.67124310918405
20
9.19133477958999
30
0
0
SPLINE
5
13F
100
AcDbEntity
8
1
62
256
6
ByLayer
370
18
48
1
60
0
100
AcDbSpline
70
4
71
3
72
12
73
8
40
0
40
0
40
0
40
0
40
0.392678099449831
40
0.392678099449831
40
0.791279335966088
40
0.791279335966088
40
1
40
1
40
1
40
1
41
1
10
15.2900032271723
20
0.0944151186226634
30
0
41
1
10
15.2712389289261
20
0.0992176986553659
30
0
41
1
10
15.2512511038133
20
0.103143002082021
30
0
41
1
10
15.2114265755729
20
0.108177640452482
30
0
41
1
10
15.1911134347137
20
0.109283586606296
30
0
41
1
10
15.1624509663976
20
0.108789898741492
30
0
41
1
10
15.1528303309273
20
0.108235497131858
30
0
41
1
10
15.1436522899302
20
0.107359837687568
30
0
0
SPLINE
5
140
100
AcDbEntity
8
1
62
256
6
ByLayer
370
18
48
1
60
0
100
AcDbSpline
70
4
71
3
72
14
73
10
40
0
40
0
40
0
40
0
40
0.0829586012802422
40
0.0829586012802422
40
0.459195015075156
40
0.459195015075156
40
0.835474799669028
40
0.835474799669028
40
1
40
1
40
1
40
1
41
1
10
14.325647612989
20
1.88084915989862
30
0
41
1
10
14.32816673312
20
1.88362961469798
30
0
41
1
10
14.3306951659868
20
1.88648112267759
30
0
41
1
10
14.3446194289691
20
1.90253876989416
30
0
41
1
10
14.3562688220705
20
1.91733517289913
30
0
41
1
10
14.378236030713
20
1.94835509441961
30
0
41
1
10
14.3887966054874
20
1.96492956200564
30
0
41
1
10
14.4022707324407
20
1.9883166466764
30
0
41
1
10
14.4061968142272
20
1.99545521090411
30
0
41
1
10
14.4099117123684
20
2.00251289370428
30
0
0
SPLINE
5
141
100
AcDbEntity
8
1
62
256
6
ByLayer
370
18
48
1
60
0
100
AcDbSpline
70
4
71
3
72
14
73
10
40
0
40
0
40
0
40
0
40
0.164525200330937
40
0.164525200330937
40
0.540804984924913
40
0.540804984924913
40
0.917041398719793
40
0.917041398719793
40
1
40
1
40
1
40
1
41
1
10
16.3381102687218
20
1.83196401247562
30
0
41
1
10
16.3396256615461
20
1.82444371120204
30
0
41
1
10
16.3414551875677
20
1.81679606430271
30
0
41
1
10
16.3485343346205
20
1.79159104554222
30
0
41
1
10
16.3553484947398
20
1.77347978518765
30
0
41
1
10
16.3720411215988
20
1.73904040685264
30
0
41
1
10
16.382097667904
20
1.7223241166713
30
0
41
1
10
16.3952829003937
20
1.7038686385321
30
0
41
1
10
16.3977230513623
20
1.70057766003657
30
0
41
1
10
16.4001971065877
20
1.69735555960477
30
0
0
SPLINE
5
142
100
AcDbEntity
8
1
62
256
6
ByLayer
370
18
48
1
60
0
100
AcDbSpline
70
4
71
3
72
14
73
10
40
0
40
0
40
0
40
0
40
0.164525200330939
40
0.164525200330939
40
0.540804984924825
40
0.540804984924825
40
0.91704139871971
40
0.91704139871971
40
1
40
1
40
1
40
1
41
1
10
14.2977304705342
20
0.706188181522634
30
0
41
1
10
14.2952771207856
20
0.71370848279625
30
0
41
1
10
14.2926306069273
20
0.72135612969555
30
0
41
1
10
14.2833615394434
20
0.746561148456038
30
0
41
1
10
14.2758025953543
20
0.764672408810611
30
0
41
1
10
14.2595000982446
20
0.79911178714562
30
0
41
1
10
14.2505777480067
20
0.815828077326955
30
0
41
1
10
14.2396401790414
20
0.834283555466186
30
0
41
1
10
14.2376433041666
20
0.837574533961714
30
0
41
1
10
14.2356436326687
20
0.840796634393513
30
0
0
SPLINE
5
143
100
AcDbEntity
8
1
62
256
6
ByLayer
370
18
48
1
60
0
100
AcDbSpline
70
4
71
3
72
12
73
8
40
0
40
0
40
0
40
0
40
0.392678099452454
40
0.392678099452454
40
0.791279335968761
40
0.791279335968761
40
1
40
1
40
1
40
1
41
1
10
15.3458375120846
20
2.44373707537562
30
0
41
1
10
15.3623748402885
20
2.43893449534286
30
0
41
1
10
15.3808220112825
20
2.43500919191618
30
0
41
1
10
15.4195670489186
20
2.42997455354575
30
0
41
1
10
15.4403750184981
20
2.42886860739193
30
0
41
1
10
15.4711946167595
20
2.42936229525677
30
0
41
1
10
15.4818147174718
20
2.4299166968664
30
0
41
1
10
15.4921884493268
20
2.43079235631069
30
0
0
SPLINE
5
144
100
AcDbEntity
8
1
62
256
6
ByLayer
370
18
48
1
60
0
100
AcDbSpline
70
4
71
3
72
14
73
10
40
0
40
0
40
0
40
0
40
0.082958601280382
40
0.082958601280382
40
0.459195015075274
40
0.459195015075274
40
0.835474799669152
40
0.835474799669152
40
1
40
1
40
1
40
1
41
1
10
16.3101931262675
20
0.657303034099641
30
0
41
1
10
16.3071996224088
20
0.654522579300277
30
0
41
1
10
16.3042279134484
20
0.651671071320663
30
0
41
1
10
16.2880559869416
20
0.635613424104093
30
0
41
1
10
16.2752723977729
20
0.620817021099128
30
0
41
1
10
16.252915059381
20
0.589797099578647
30
0
41
1
10
16.2430992685764
20
0.573222631992593
30
0
41
1
10
16.2318150620543
20
0.549835547321862
30
0
41
1
10
16.2287059681045
20
0.542696983094146
30
0
41
1
10
16.2259290268878
20
0.535639300294008
30
0
0
SPLINE
5
145
100
AcDbEntity
8
1
62
256
6
ByLayer
370
18
48
1
60
0
100
AcDbSpline
70
4
71
3
72
8
73
4
40
0
40
0
40
0
40
0
40
1
40
1
40
1
40
1
41
1
10
17.9644522480897
20
8.22755079716953
30
0
41
1
10
17.7514438173677
20
8.24697869511496
30
0
41
1
10
17.5389233377738
20
8.26638276230204
30
0
41
1
10
17.3277572708307
20
8.2857145234056
30
0
0
SPLINE
5
146
100
AcDbEntity
8
1
62
256
6
ByLayer
370
18
48
1
60
0
100
AcDbSpline
70
4
71
2
72
6
73
3
40
0
40
0
40
0
40
1
40
1
40
1
41
1.02830968163241
10
17.5577427816853
20
7.54553908346624
30
0
41
0.915286811692243
10
17.7700608401045
20
6.86222380976237
30
0
41
0.941103849220746
10
17.7480052390161
20
5.10808003669513
30
0
0
SPLINE
5
147
100
AcDbEntity
8
1
62
256
6
ByLayer
370
18
48
1
60
0
100
AcDbSpline
70
4
71
3
72
18
73
14
40
0
40
0
40
0
40
0
40
0.148865436690723
40
0.148865436690723
40
0.33686855641037
40
0.33686855641037
40
0.519491108027855
40
0.519491108027855
40
0.711563055534816
40
0.711563055534816
40
0.930180979444779
40
0.930180979444779
40
1
40
1
40
1
40
1
41
1
10
24.4875041336546
20
-4.21566996787061
30
0
41
1
10
24.4888146533215
20
-4.2100966674661
30
0
41
1
10
24.4929549861846
20
-4.20369602048319
30
0
41
1
10
24.5086503086186
20
-4.18799737836841
30
0
41
1
10
24.5221538564811
20
-4.17814749355691
30
0
41
1
10
24.5558144159114
20
-4.15825161422168
30
0
41
1
10
24.576170440373
20
-4.14797282659987
30
0
41
1
10
24.6219943042054
20
-4.12750201494546
30
0
41
1
10
24.6481917733606
20
-4.11709673356032
30
0
41
1
10
24.7058361385818
20
-4.09633910722849
30
0
41
1
10
24.7381702689811
20
-4.08594138504446
30
0
41
1
10
24.780400024272
20
-4.07367631669527
30
0
41
1
10
24.7906646961122
20
-4.07079705286486
30
0
41
1
10
24.8008885009907
20
-4.06802641942431
30
0
0
SPLINE
5
148
100
AcDbEntity
8
1
62
256
6
ByLayer
370
18
48
1
60
0
100
AcDbSpline
70
4
71
3
72
12
73
8
40
0
40
0
40
0
40
0
40
0.252749620142199
40
0.252749620142199
40
0.674711209428766
40
0.674711209428766
40
1
40
1
40
1
40
1
41
1
10
3.90955028560683
20
8.4131457874108
30
0
41
1
10
3.96948106729292
20
8.48620944829574
30
0
41
1
10
4.03786705667255
20
8.5577338253932
30
0
41
1
10
4.24200909537927
20
8.73867521215863
30
0
41
1
10
4.3953868189314
20
8.84346721829868
30
0
41
1
10
4.7022658073189
20
8.99530146777977
30
0
41
1
10
4.85080574277197
20
9.05132915344501
30
0
41
1
10
5.00498516443758
20
9.09305960350858
30
0
0
SPLINE
5
149
100
AcDbEntity
8
1
62
256
6
ByLayer
370
18
48
1
60
0
100
AcDbSpline
70
4
71
3
72
8
73
4
40
0
40
0
40
0
40
0
40
1
40
1
40
1
40
1
41
1
10
15.8978287443539
20
-2.90068253750505
30
0
41
1
10
16.2873692543005
20
-2.93513733882503
30
0
41
1
10
16.6748517984668
20
-2.91382803539463
30
0
41
1
10
17.0600212695266
20
-2.84200684326473
30
0
0
SPLINE
5
14A
100
AcDbEntity
8
1
62
256
6
ByLayer
370
18
48
1
60
0
100
AcDbSpline
70
4
71
3
72
10
73
6
40
0
40
0
40
0
40
0
40
0.494168352806871
40
0.494168352806871
40
1
40
1
40
1
40
1
41
1
10
4.43817405432543
20
-5.05755265921846
30
0
41
1
10
4.33580295647477
20
-5.03628952205003
30
0
41
1
10
4.23047639812609
20
-5.00924830761915
30
0
41
1
10
4.02099569458755
20
-4.9422929931383
30
0
41
1
10
3.9154986452881
20
-4.90158748563897
30
0
41
1
10
3.81518090225438
20
-4.85506888571808
30
0
0
SPLINE
5
14B
100
AcDbEntity
8
1
62
256
6
ByLayer
370
18
48
1
60
0
100
AcDbSpline
70
4
71
3
72
12
73
8
40
0
40
0
40
0
40
0
40
0.499999999999984
40
0.499999999999984
40
0.749999999999992
40
0.749999999999992
40
1
40
1
40
1
40
1
41
1
10
8.16117751577895
20
-2.8797437460851
30
0
41
1
10
8.05575810762832
20
-2.77132151120571
30
0
41
1
10
7.95341548743596
20
-2.66269139483302
30
0
41
1
10
7.80473419398044
20
-2.49902667804096
30
0
41
1
10
7.75593728303846
20
-2.4444215823674
30
0
41
1
10
7.66083192082914
20
-2.33404166619599
30
0
41
1
10
7.57839484886807
20
-2.29079279215827
30
0
41
1
10
7.58558134352751
20
-2.20774833243621
30
0
0
SPLINE
5
14C
100
AcDbEntity
8
1
62
256
6
ByLayer
370
18
48
1
60
0
100
AcDbSpline
70
4
71
3
72
16
73
12
40
0
40
0
40
0
40
0
40
0.0076436986798982
40
0.0076436986798982
40
0.040911653964275
40
0.040911653964275
40
0.185161591066358
40
0.185161591066358
40
0.761039897349149
40
0.761039897349149
40
1
40
1
40
1
40
1
41
1
10
2.62478613018271
20
-1.88987385861367
30
0
41
1
10
2.62447794154406
20
-1.89343517191162
30
0
41
1
10
2.62412243676715
20
-1.89699986139988
30
0
41
1
10
2.62200992280424
20
-1.91581840235872
30
0
41
1
10
2.6195034866833
20
-1.9306789106553
30
0
41
1
10
2.60547912718692
20
-2.00546649919542
30
0
41
1
10
2.59267010768303
20
-2.05959258070743
30
0
41
1
10
2.53942207953048
20
-2.33406584003097
30
0
41
1
10
2.51873939502752
20
-2.55169303913786
30
0
41
1
10
2.52667140661634
20
-2.85879241586758
30
0
41
1
10
2.53350646280785
20
-2.94895600540315
30
0
41
1
10
2.54513874520251
20
-3.03863062975452
30
0
0
SPLINE
5
14D
100
AcDbEntity
8
1
62
256
6
ByLayer
370
18
48
1
60
0
100
AcDbSpline
70
4
71
3
72
8
73
4
40
0
40
0
40
0
40
0
40
1
40
1
40
1
40
1
41
1
10
30.8416638737051
20
-2.20005821596254
30
0
41
1
10
31.0516039290616
20
-1.99846035213554
30
0
41
1
10
31.2622241902158
20
-1.79459536962506
30
0
41
1
10
31.4719501682392
20
-1.58898825077819
30
0
0
SPLINE
5
14E
100
AcDbEntity
8
1
62
256
6
ByLayer
370
18
48
1
60
0
100
AcDbSpline
70
4
71
3
72
8
73
4
40
0
40
0
40
0
40
0
40
1
40
1
40
1
40
1
41
1
10
16.6133602508582
20
5.36773345665827
30
0
41
1
10
17.0029007609326
20
5.33327865532698
30
0
41
1
10
17.3809061234207
20
5.24507317026433
30
0
41
1
10
17.7480052366328
20
5.10808002580512
30
0
0
SPLINE
5
14F
100
AcDbEntity
8
1
62
256
6
ByLayer
370
18
48
1
60
0
100
AcDbSpline
70
4
71
3
72
11
73
7
40
0
40
0
40
0
40
0
40
0.26853674655808
40
0.487975722590656
40
0.707414698623232
40
1
40
1
40
1
40
1
41
1.02490909094425
10
19.9713670309061
20
-0.796761770818319
30
0
41
1.02297680709541
10
21.3087701573102
20
-0.884359950892543
30
0
41
1.019109996622
10
23.641804168996
20
-1.00360501275257
30
0
41
1.01332460673153
10
27.4274349932372
20
-0.950265669310694
30
0
41
1.01203732298747
10
29.4509786501899
20
-1.05604200445881
30
0
41
1.00929221524307
10
31.1958165179194
20
-0.988624917499368
30
0
41
1.0087712828333
10
31.9603584844433
20
-0.913716680600835
30
0
0
SPLINE
5
150
100
AcDbEntity
8
1
62
256
6
ByLayer
370
18
48
1
60
0
100
AcDbSpline
70
4
71
3
72
8
73
4
40
0
40
0
40
0
40
0
40
1
40
1
40
1
40
1
41
1
10
31.1996254338711
20
1.93641245303223
30
0
41
1
10
31.371909370458
20
1.70287021206994
30
0
41
1
10
31.5444500416372
20
1.46670161402309
30
0
41
1
10
31.7157710190311
20
1.22851482780516
30
0
0
SPLINE
5
151
100
AcDbEntity
8
1
62
256
6
ByLayer
370
18
48
1
60
0
100
AcDbSpline
70
4
71
2
72
6
73
3
40
0
40
0
40
0
40
1
40
1
40
1
41
1.02830968163241
10
17.3277572708307
20
8.28571452340559
30
0
41
1.02830968163241
10
17.4427500262581
20
7.91562680343591
30
0
41
1.02830968163241
10
17.5577427816853
20
7.54553908346624
30
0
0
SPLINE
5
152
100
AcDbEntity
8
1
62
256
6
ByLayer
370
18
48
1
60
0
100
AcDbSpline
70
4
71
3
72
8
73
4
40
0
40
0
40
0
40
0
40
1
40
1
40
1
40
1
41
1
10
9.69294323174654
20
-0.792316075842479
30
0
41
1
10
9.97967424487666
20
-0.81629735396973
30
0
41
1
10
10.2702259540008
20
-0.876180506344866
30
0
41
1
10
10.545255718473
20
-0.975638549489787
30
0
0
SPLINE
5
153
100
AcDbEntity
8
1
62
256
6
ByLayer
370
18
48
1
60
0
100
AcDbSpline
70
4
71
3
72
8
73
4
40
0
40
0
40
0
40
0
40
1
40
1
40
1
40
1
41
1
10
2.54513874520262
20
-3.03863062975466
30
0
41
1
10
2.5892505948429
20
-3.37869403362836
30
0
41
1
10
2.68202375433702
20
-3.68895807568904
30
0
41
1
10
2.83772015161867
20
-3.97252464427342
30
0
0
SPLINE
5
154
100
AcDbEntity
8
1
62
256
6
ByLayer
370
18
48
1
60
0
100
AcDbSpline
70
4
71
3
72
8
73
4
40
0
40
0
40
0
40
0
40
1
40
1
40
1
40
1
41
1
10
6.94820834032271
20
-4.43922012925557
30
0
41
1
10
7.39966681006189
20
-4.14809440684343
30
0
41
1
10
7.70808508909727
20
-3.57833908602936
30
0
41
1
10
8.16117751578594
20
-2.87974374609249
30
0
0
SPLINE
5
155
100
AcDbEntity
8
1
62
256
6
ByLayer
370
18
48
1
60
0
100
AcDbSpline
70
4
71
3
72
12
73
8
40
0
40
0
40
0
40
0
40
0.252749620142202
40
0.252749620142202
40
0.674711209428774
40
0.674711209428774
40
1
40
1
40
1
40
1
41
1
10
2.8377201516011
20
-3.97252464425955
30
0
41
1
10
2.88402937410109
20
-4.05686665568379
30
0
41
1
10
2.93894164520896
20
-4.14103955626987
30
0
41
1
10
3.10854537818005
20
-4.35920998632864
30
0
41
1
10
3.24140853278897
20
-4.49147670984806
30
0
41
1
10
3.51733653816751
20
-4.69730050983074
30
0
41
1
10
3.65394391455658
20
-4.77916103917684
30
0
41
1
10
3.79861333507347
20
-4.84732462576716
30
0
0
SPLINE
5
156
100
AcDbEntity
8
1
62
256
6
ByLayer
370
18
48
1
60
0
100
AcDbSpline
70
4
71
3
72
12
73
8
40
0
40
0
40
0
40
0
40
0.407174084711929
40
0.407174084711929
40
0.699511272430942
40
0.699511272430942
40
1
40
1
40
1
40
1
41
1
10
31.946754751803
20
-0.915043316038691
30
0
41
1
10
31.932273873063
20
-0.951660585571489
30
0
41
1
10
31.9157757410642
20
-0.988856841673851
30
0
41
1
10
31.8846444549321
20
-1.05179836006454
30
0
41
1
10
31.8707013427361
20
-1.07801191859366
30
0
41
1
10
31.8410609782951
20
-1.12993634989439
30
0
41
1
10
31.8252117680264
20
-1.15580934386307
30
0
41
1
10
31.808948299478
20
-1.18057731287558
30
0
0
SPLINE
5
157
100
AcDbEntity
8
1
62
256
6
ByLayer
370
18
48
1
60
0
100
AcDbSpline
70
4
71
3
72
8
73
4
40
0
40
0
40
0
40
0
40
1
40
1
40
1
40
1
41
1
10
8.98969274931642
20
6.69427018070144
30
0
41
1
10
8.66472162650501
20
7.44152443246239
30
0
41
1
10
8.45134498586299
20
8.04476227165699
30
0
41
1
10
8.05805757191922
20
8.38578485546486
30
0
0
SPLINE
5
158
100
AcDbEntity
8
1
62
256
6
ByLayer
370
18
48
1
60
0
100
AcDbSpline
70
4
71
3
72
12
73
8
40
0
40
0
40
0
40
0
40
0.418782075282764
40
0.418782075282764
40
0.706182120811217
40
0.706182120811217
40
1
40
1
40
1
40
1
41
1
10
31.9777878292452
20
0.770469504329157
30
0
41
1
10
31.9941587338734
20
0.732924927917026
30
0
41
1
10
32.0093678041783
20
0.693237715608348
30
0
41
1
10
32.0319001370384
20
0.625724548936347
30
0
41
1
10
32.0402943102858
20
0.597812826330454
30
0
41
1
10
32.0554201289326
20
0.541549492401856
30
0
41
1
10
32.0621531605085
20
0.513043016655786
30
0
41
1
10
32.0679061701135
20
0.484937419635031
30
0
0
SPLINE
5
159
100
AcDbEntity
8
1
62
256
6
ByLayer
370
18
48
1
60
0
100
AcDbSpline
70
4
71
3
72
11
73
7
40
0
40
0
40
0
40
0
40
0.268536746003807
40
0.487975722202665
40
0.707414698401523
40
1
40
1
40
1
40
1
41
1.0249090909279
10
20.2646831154467
20
2.59268969111387
30
0
41
1.0229768070834
10
21.5965314651391
20
2.44090262463161
30
0
41
1.0191099966158
10
23.913709196003
20
2.13842831555731
30
0
41
1.01332460673153
10
27.6295657475925
20
1.38548215874535
30
0
41
1.01203732298747
10
29.6381127858873
20
1.10641047540956
30
0
41
1.00929221524307
10
31.3423874033181
20
0.705093726712366
30
0
41
1.0087712828333
10
32.0810505457814
20
0.480955896727921
30
0
0
SPLINE
5
15A
100
AcDbEntity
8
1
62
256
6
ByLayer
370
18
48
1
60
0
100
AcDbSpline
70
4
71
2
72
6
73
3
40
0
40
0
40
0
40
1
40
1
40
1
41
0.941103849192081
10
17.0600212700657
20
-2.84200685637528
30
0
41
0.915286811754989
10
16.7784769707501
20
-4.59615062797513
30
0
41
1.02830968163241
10
16.4478935500888
20
-5.27946590125418
30
0
0
SPLINE
5
15B
100
AcDbEntity
8
1
62
256
6
ByLayer
370
18
48
1
60
0
100
AcDbSpline
70
4
71
3
72
11
73
7
40
0
40
0
40
0
40
0
40
0.379738014043153
40
0.56960702106473
40
0.759476028086306
40
1
40
1
40
1
40
1
41
1.02830968163241
10
17.5577427816853
20
7.54553908346624
30
0
41
1.02566133279165
10
19.9596371662578
20
6.63499898161965
30
0
41
1.02050308371814
10
23.0026618313761
20
5.13741799423349
30
0
41
1.01332460673153
10
27.6550457025209
20
2.07891245874759
30
0
41
1.0120630214142
10
29.6084629968087
20
1.84861512555276
30
0
41
1.00944729087556
10
31.2571414017517
20
1.03642062886927
30
0
41
1.00885690313847
10
31.9777878222039
20
0.770469506927682
30
0
0
SPLINE
5
15C
100
AcDbEntity
8
1
62
256
6
ByLayer
370
18
48
1
60
0
100
AcDbSpline
70
4
71
3
72
13
73
9
40
0
40
0
40
0
40
0
40
0.287856992129663
40
0.287856992129663
40
0.605626331970863
40
0.605626331970863
40
0.605626331970863
40
1
40
1
40
1
40
1
41
1
10
20.2646831669765
20
2.59268968524114
30
0
41
1
10
20.1533381560392
20
2.92510462368943
30
0
41
1
10
19.9891001613517
20
3.24539382806563
30
0
41
1
10
19.5663146086935
20
3.85307547853677
30
0
41
1
10
19.2954410163208
20
4.14141030556371
30
0
41
1
10
18.9948306350006
20
4.38727429692315
30
0
41
1
10
18.6234975801229
20
4.69098113031657
30
0
41
1
10
18.1959334690454
20
4.93822332061342
30
0
41
1
10
17.7480052388687
20
5.10808002497072
30
0
0
SPLINE
5
15D
100
AcDbEntity
8
1
62
256
6
ByLayer
370
18
48
1
60
0
100
AcDbSpline
70
4
71
2
72
6
73
3
40
0
40
0
40
0
40
1
40
1
40
1
41
1.02830968163241
10
16.4478935500888
20
-5.27946590125418
30
0
41
1.02830968163241
10
16.2688475530259
20
-5.64955362122463
30
0
41
1.02830968163241
10
16.0898015559631
20
-6.01964134119508
30
0
0
SPLINE
5
15E
100
AcDbEntity
8
1
62
256
6
ByLayer
370
18
48
1
60
0
100
AcDbSpline
70
4
71
3
72
8
73
4
40
0
40
0
40
0
40
0
40
1
40
1
40
1
40
1
41
1
10
4.90354590163031
20
-5.12428333449341
30
0
41
1
10
4.74810503518626
20
-5.11157154141873
30
0
41
1
10
4.59287836827082
20
-5.08968574284296
30
0
41
1
10
4.43817405432543
20
-5.05755265921846
30
0
0
SPLINE
5
15F
100
AcDbEntity
8
1
62
256
6
ByLayer
370
18
48
1
60
0
100
AcDbSpline
70
4
71
3
72
10
73
6
40
0
40
0
40
0
40
0
40
0.46599585446055
40
0.46599585446055
40
1
40
1
40
1
40
1
41
1
10
12.0669226878074
20
4.87176212327896
30
0
41
1
10
11.9240422454371
20
4.76972660969182
30
0
41
1
10
11.767798019925
20
4.68104999577724
30
0
41
1
10
11.4163312678153
20
4.52623345986345
30
0
41
1
10
11.2164364091317
20
4.46422256569227
30
0
41
1
10
11.0126197135275
20
4.42504597198536
30
0
0
SPLINE
5
160
100
AcDbEntity
8
1
62
256
6
ByLayer
370
18
48
1
60
0
100
AcDbSpline
70
4
71
3
72
8
73
4
40
0
40
0
40
0
40
0
40
1
40
1
40
1
40
1
41
1
10
10.1412280310022
20
4.38789635423575
30
0
41
1
10
10.4279590441323
20
4.3639150761085
30
0
41
1
10
10.7245638436696
20
4.37397918549752
30
0
41
1
10
11.0126197135275
20
4.42504597198536
30
0
0
SPLINE
5
161
100
AcDbEntity
8
1
62
256
6
ByLayer
370
18
48
1
60
0
100
AcDbSpline
70
4
71
3
72
13
73
9
40
0
40
0
40
0
40
0
40
0.250661764437226
40
0.250661764437226
40
0.250661764437226
40
0.653096502165464
40
0.653096502165464
40
1
40
1
40
1
40
1
41
1
10
19.9713670939531
20
-0.796761774947782
30
0
41
1
10
20.1103194025269
20
-0.540412732374676
30
0
41
1
10
20.2232525820366
20
-0.267394730922121
30
0
41
1
10
20.3066776910736
20
0.0131845706982006
30
0
41
1
10
20.4394574584306
20
0.459755810752768
30
0
41
1
10
20.4993249170917
20
0.935965135267423
30
0
41
1
10
20.4660343322082
20
1.8058776223121
30
0
41
1
10
20.3924444433024
20
2.21109400572519
30
0
41
1
10
20.2646831669765
20
2.59268968524114
30
0
0
SPLINE
5
162
100
AcDbEntity
8
1
62
256
6
ByLayer
370
18
48
1
60
0
100
AcDbSpline
70
4
71
3
72
11
73
7
40
0
40
0
40
0
40
0
40
0.379738014043148
40
0.569607021064722
40
0.759476028086296
40
1
40
1
40
1
40
1
41
1.02830968163241
10
16.4478935500888
20
-5.27946590125418
30
0
41
1.02566133279166
10
18.9707038892179
20
-4.79274619879853
30
0
41
1.02050308371814
10
22.226126256466
20
-3.8359383277045
30
0
41
1.01332460673153
10
27.3329127224237
20
-1.64353646304478
30
0
41
1.0120630214142
10
29.2935131040956
20
-1.79082870974239
30
0
41
1.00944729087556
10
31.0548679627885
20
-1.30097600944259
30
0
41
1.00885690313847
10
31.8089482921099
20
-1.18057731405199
30
0
0
SPLINE
5
163
100
AcDbEntity
8
1
62
256
6
ByLayer
370
18
48
1
60
0
100
AcDbSpline
70
4
71
3
72
8
73
4
40
0
40
0
40
0
40
0
40
1
40
1
40
1
40
1
41
1
10
13.8738013460961
20
-2.72165760917932
30
0
41
1
10
12.9692725509223
20
-2.6416521691028
30
0
41
1
10
12.1222131514184
20
-2.23689579012503
30
0
41
1
10
11.5065064029928
20
-1.6042000539679
30
0
0
SPLINE
5
164
100
AcDbEntity
8
1
62
256
6
ByLayer
370
18
48
1
60
0
100
AcDbSpline
70
4
71
3
72
8
73
4
40
0
40
0
40
0
40
0
40
1
40
1
40
1
40
1
41
1
10
31.7157710190311
20
1.22851482780516
30
0
41
1
10
31.8198026262975
20
1.08388015097336
30
0
41
1
10
31.9082461404282
20
0.927587020588021
30
0
41
1
10
31.9777878292452
20
0.770469504329157
30
0
0
SPLINE
5
165
100
AcDbEntity
8
1
62
256
6
ByLayer
370
18
48
1
60
0
100
AcDbSpline
70
4
71
3
72
10
73
6
40
0
40
0
40
0
40
0
40
0.325288492889668
40
0.325288492889668
40
1
40
1
40
1
40
1
41
1
10
3.46265390839665
20
7.56383338654561
30
0
41
1
10
3.49565391832709
20
7.66840868388835
30
0
41
1
10
3.53320250753154
20
7.76869358522251
30
0
41
1
10
3.66373414511258
20
8.06399669910923
30
0
41
1
10
3.77399339296483
20
8.24788375416748
30
0
41
1
10
3.90955028562655
20
8.41314578742205
30
0
0
SPLINE
5
166
100
AcDbEntity
8
1
62
256
6
ByLayer
370
18
48
1
60
0
100
AcDbSpline
70
4
71
3
72
8
73
4
40
0
40
0
40
0
40
0
40
1
40
1
40
1
40
1
41
1
10
16.7264965332131
20
-6.07780506743043
30
0
41
1
10
16.513488102494
20
-6.05837716948525
30
0
41
1
10
16.3009676229031
20
-6.0389731022984
30
0
41
1
10
16.089801555963
20
-6.01964134119507
30
0
0
SPLINE
5
167
100
AcDbEntity
8
1
62
256
6
ByLayer
370
18
48
1
60
0
100
AcDbSpline
70
4
71
3
72
18
73
14
40
0
40
0
40
0
40
0
40
0.0384430513828907
40
0.0384430513828907
40
0.294505767099359
40
0.294505767099359
40
0.507931675708702
40
0.507931675708702
40
0.723079147095952
40
0.723079147095952
40
0.912685296049713
40
0.912685296049713
40
1
40
1
40
1
40
1
41
1
10
25.5693007207048
20
4.81145943107956
30
0
41
1
10
25.5640118011155
20
4.81395342270045
30
0
41
1
10
25.5587172254735
20
4.81647832161147
30
0
41
1
10
25.5184772462964
20
4.83588815048776
30
0
41
1
10
25.4830154808586
20
4.85428332205834
30
0
41
1
10
25.4224580268201
20
4.88853644686918
30
0
41
1
10
25.395968984143
20
4.9046928640397
30
0
41
1
10
25.3500030848953
20
4.93561367978057
30
0
41
1
10
25.3299339019695
20
4.9508282529784
30
0
41
1
10
25.3024072485589
20
4.97574905442957
30
0
41
1
10
25.2933744881854
20
4.98622626880842
30
0
41
1
10
25.2868195377723
20
4.998515276614
30
0
41
1
10
25.2856752178728
20
5.0020190375015
30
0
41
1
10
25.2854483647171
20
5.00507682331212
30
0
0
SPLINE
5
168
100
AcDbEntity
8
1
62
256
6
ByLayer
370
18
48
1
60
0
100
AcDbSpline
70
4
71
3
72
12
73
8
40
0
40
0
40
0
40
0
40
0.500000000000015
40
0.500000000000015
40
0.750000000000007
40
0.750000000000007
40
1
40
1
40
1
40
1
41
1
10
8.98969274930823
20
6.69427018069527
30
0
41
1
10
8.86707326486442
20
6.60393473037075
30
0
41
1
10
8.74743983902613
20
6.51275872688038
30
0
41
1
10
8.57261368328841
20
6.37430313800843
30
0
41
1
10
8.51507957335582
20
6.32794441137438
30
0
41
1
10
8.40225885455993
20
6.23361225489853
30
0
41
1
10
8.31347186160167
20
6.2034838033334
30
0
41
1
10
8.30628536694519
20
6.12043934361131
30
0
0
SPLINE
5
169
100
AcDbEntity
8
1
62
256
6
ByLayer
370
18
48
1
60
0
100
AcDbSpline
70
4
71
3
72
12
73
8
40
0
40
0
40
0
40
0
40
0.322961595764266
40
0.322961595764266
40
0.71097135642358
40
0.71097135642358
40
1
40
1
40
1
40
1
41
1
10
17.0600212722516
20
-2.8420068427566
30
0
41
1
10
17.4468469161254
20
-2.76836840373537
30
0
41
1
10
17.8286019421822
20
-2.64052140670012
30
0
41
1
10
18.6074151331817
20
-2.25920259766471
30
0
41
1
10
19.0044251380292
20
-1.97998165602468
30
0
41
1
10
19.586011121208
20
-1.39377401920706
30
0
41
1
10
19.8039460029503
20
-1.1055364307947
30
0
41
1
10
19.9713670939531
20
-0.796761774947782
30
0
0
SPLINE
5
16A
100
AcDbEntity
8
1
62
256
6
ByLayer
370
18
48
1
60
0
100
AcDbSpline
70
4
71
3
72
16
73
12
40
0
40
0
40
0
40
0
40
0.25
40
0.25
40
0.5
40
0.5
40
0.75
40
0.75
40
0.875
40
0.875
40
1
40
1
40
1
40
1
41
1
10
31.1996254338711
20
1.93641245303223
30
0
41
1
10
30.1659883367465
20
2.28519432883445
30
0
41
1
10
29.0907098552559
20
2.6765327009231
30
0
41
1
10
26.7693334652496
20
3.63378280337216
30
0
41
1
10
25.6002803992266
20
4.1183259588943
30
0
41
1
10
23.2349341279434
20
5.13782531862864
30
0
41
1
10
21.9849365598608
20
5.71628342605561
30
0
41
1
10
20.2273338282389
20
6.66658338756278
30
0
41
1
10
19.6620054291413
20
6.99786971115543
30
0
41
1
10
18.6858305169023
20
7.64132300849215
30
0
41
1
10
18.2852627407163
20
7.94723422259742
30
0
41
1
10
17.9644522480853
20
8.22755079716956
30
0
0
SPLINE
5
16B
100
AcDbEntity
8
1
62
256
6
ByLayer
370
18
48
1
60
0
100
AcDbSpline
70
4
71
2
72
6
73
3
40
0
40
0
40
0
40
1
40
1
40
1
41
1.0087712828333
10
31.9603584844433
20
-0.913716680600835
30
0
41
1.0087712828333
10
32.0207045151123
20
-0.216380391936457
30
0
41
1.0087712828333
10
32.0810505457814
20
0.480955896727921
30
0
0
SPLINE
5
16C
100
AcDbEntity
8
1
62
256
6
ByLayer
370
18
48
1
60
0
100
AcDbSpline
70
4
71
3
72
8
73
4
40
0
40
0
40
0
40
0
40
1
40
1
40
1
40
1
41
1
10
31.808948299478
20
-1.18057731287558
30
0
41
1
10
31.7133466604674
20
-1.32459888976425
30
0
41
1
10
31.5993025270178
20
-1.46413699575666
30
0
41
1
10
31.4719501682392
20
-1.58898825077819
30
0
0
SPLINE
5
16D
100
AcDbEntity
8
1
62
256
6
ByLayer
370
18
48
1
60
0
100
AcDbSpline
70
4
71
3
72
14
73
10
40
0
40
0
40
0
40
0
40
0.0151857536690271
40
0.0151857536690271
40
0.0655730315774943
40
0.0655730315774943
40
0.287642754348333
40
0.287642754348333
40
1
40
1
40
1
40
1
41
1
10
3.34549015360159
20
6.43831381743524
30
0
41
1
10
3.34610198511365
20
6.44538391485779
30
0
41
1
10
3.34652630460818
20
6.45248962195458
30
0
41
1
10
3.34765045982033
20
6.48230538008798
30
0
41
1
10
3.34698857140523
20
6.5037406341406
30
0
41
1
10
3.34330886187138
20
6.61476998987033
30
0
41
1
10
3.34004337656836
20
6.69807276890347
30
0
41
1
10
3.34494943440234
20
7.05003062084779
30
0
41
1
10
3.3834406612533
20
7.31281076894751
30
0
41
1
10
3.46265390839653
20
7.56383338654547
30
0
0
SPLINE
5
16E
100
AcDbEntity
8
1
62
256
6
ByLayer
370
18
48
1
60
0
100
AcDbSpline
70
4
71
3
72
10
73
6
40
0
40
0
40
0
40
0
40
0.474805431212322
40
0.474805431212322
40
1
40
1
40
1
40
1
41
1
10
10.545255718473
20
-0.975638549489787
30
0
41
1
10
10.7178910668435
20
-1.04208031641247
30
0
41
1
10
10.8842485629684
20
-1.12580234312045
30
0
41
1
10
11.2095411605911
20
-1.33328404570227
30
0
41
1
10
11.3679007411004
20
-1.46176989300116
30
0
41
1
10
11.5065064029928
20
-1.60420005396787
30
0
0
SPLINE
5
16F
100
AcDbEntity
8
1
62
256
6
ByLayer
370
18
48
1
60
0
100
AcDbSpline
70
4
71
3
72
8
73
4
40
0
40
0
40
0
40
0
40
1
40
1
40
1
40
1
41
1
10
12.0669226878074
20
4.87176212327893
30
0
41
1
10
12.7891237462856
20
5.38750909811031
30
0
41
1
10
13.6665932058739
20
5.62837457222568
30
0
41
1
10
14.5893328526004
20
5.546758384984
30
0
0
SPLINE
5
170
100
AcDbEntity
8
1
62
256
6
ByLayer
370
18
48
1
60
0
100
AcDbSpline
70
4
71
3
72
10
73
6
40
0
40
0
40
0
40
0
40
0.494168352806886
40
0.494168352806886
40
1
40
1
40
1
40
1
41
1
10
5.67124310918405
20
9.19133477958999
30
0
41
1
10
5.5666744748421
20
9.18720400229441
30
0
41
1
10
5.45822686241786
20
9.17817947649914
30
0
41
1
10
5.24032603908057
20
9.14783501789728
30
0
41
1
10
5.12941497432598
20
9.12597817618473
30
0
41
1
10
5.02263119589287
20
9.09777767564759
30
0
0
SPLINE
5
171
100
AcDbEntity
8
1
62
256
6
ByLayer
370
18
48
1
60
0
100
AcDbSpline
70
4
71
3
72
16
73
12
40
0
40
0
40
0
40
0
40
0.125000000000002
40
0.125000000000002
40
0.250000000000004
40
0.250000000000004
40
0.500000000000002
40
0.500000000000002
40
0.750000000000001
40
0.750000000000001
40
1
40
1
40
1
40
1
41
1
10
16.7264965332234
20
-6.07780506743137
30
0
41
1
10
17.0922922351734
20
-5.84310371202969
30
0
41
1
10
17.5396753363147
20
-5.59906471929952
30
0
41
1
10
18.6230126471872
20
-5.11202740078556
30
0
41
1
10
19.2381539645398
20
-4.87775020109621
30
0
41
1
10
21.1509580566525
20
-4.23201566211367
30
0
41
1
10
22.466047363182
20
-3.8885795492117
30
0
41
1
10
24.9505943637457
20
-3.31523094386009
30
0
41
1
10
26.1705282231472
20
-3.05402879855876
30
0
41
1
10
28.605991677262
20
-2.53664634890066
30
0
41
1
10
29.7589542545069
20
-2.34715522228532
30
0
41
1
10
30.8416638737051
20
-2.20005821596257
30
0
0
LINE
5
72
100
AcDbEntity
8
1
62
256
6
ByLayer
370
18
48
1
60
0
100
AcDbLine
10
15.179203
20
0.109018
30
0
11
14.849949
21
0.109018
31
0
39
0
210
0
220
0
230
1
0
LINE
5
74
100
AcDbEntity
8
1
62
256
6
ByLayer
370
18
48
1
60
0
100
AcDbLine
10
15.124284
20
2.429134
30
0
11
15.453538
21
2.429134
31
0
39
0
210
0
220
0
230
1
0
LINE
5
75
100
AcDbEntity
8
1
62
256
6
ByLayer
370
18
48
1
60
0
100
AcDbLine
10
27.629914
20
-8.588956
30
0
11
28.261826
21
-8.588956
31
0
39
0
210
0
220
0
230
1
0
LINE
5
76
100
AcDbEntity
8
1
62
256
6
ByLayer
370
18
48
1
60
0
100
AcDbLine
10
8.588041
20
9.058351
30
0
11
7.844657
21
9.115033
31
0
39
0
210
0
220
0
230
1
0
LINE
5
77
100
AcDbEntity
8
1
62
256
6
ByLayer
370
18
48
1
60
0
100
AcDbLine
10
7.761196
20
9.11988
30
0
11
5.977083
21
9.191117
31
0
39
0
210
0
220
0
230
1
0
LINE
5
78
100
AcDbEntity
8
1
62
256
6
ByLayer
370
18
48
1
60
0
100
AcDbLine
10
3.351735
20
6.995931
30
0
11
2.534748
21
-2.444858
31
0
39
0
210
0
220
0
230
1
0
LINE
5
79
100
AcDbEntity
8
1
62
256
6
ByLayer
370
18
48
1
60
0
100
AcDbLine
10
28.261826
20
8.713992
30
0
11
27.629914
21
8.713992
31
0
39
0
210
0
220
0
230
1
0
LINE
5
7A
100
AcDbEntity
8
1
62
256
6
ByLayer
370
18
48
1
60
0
100
AcDbLine
10
14.832741
20
-2.730924
30
0
11
15.190481
21
-2.730924
31
0
39
0
210
0
220
0
230
1
0
LINE
5
7B
100
AcDbEntity
8
1
62
256
6
ByLayer
370
18
48
1
60
0
100
AcDbLine
10
15.190481
20
5.269076
30
0
11
14.832741
21
5.269076
31
0
39
0
210
0
220
0
230
1
0
LINE
5
7C
100
AcDbEntity
8
80
62
256
6
ByLayer
370
18
48
1
60
0
100
AcDbLine
10
0
20
0
30
0
11
-5
21
0
31
0
39
0
210
0
220
0
230
1
0
LINE
5
7D
100
AcDbEntity
8
81
62
256
6
ByLayer
370
18
48
1
60
0
100
AcDbLine
10
36.819284
20
0.3913
30
0
11
46.819284
21
0.3913
31
0
39
0
210
0
220
0
230
1
0
LINE
5
7E
100
AcDbEntity
8
1
62
256
6
ByLayer
370
18
48
1
60
0
100
AcDbLine
10
27.110827
20
-3.477747
30
0
11
25.924674
21
-3.832961
31
0
39
0
210
0
220
0
230
1
0
LINE
5
7F
100
AcDbEntity
8
1
62
256
6
ByLayer
370
18
48
1
60
0
100
AcDbLine
10
29.703984
20
-3.153503
30
0
11
29.511432
21
-2.808789
31
0
39
0
210
0
220
0
230
1
0
LINE
5
80
100
AcDbEntity
8
1
62
256
6
ByLayer
370
18
48
1
60
0
100
AcDbLine
10
30.242056
20
3.064258
30
0
11
29.99183
21
2.742512
31
0
39
0
210
0
220
0
230
1
0
LINE
5
81
100
AcDbEntity
8
1
62
256
6
ByLayer
370
18
48
1
60
0
100
AcDbLine
10
27.742424
20
3.820752
30
0
11
26.635303
21
4.378806
31
0
39
0
210
0
220
0
230
1
0
LINE
5
82
100
AcDbEntity
8
1
62
256
6
ByLayer
370
18
48
1
60
0
100
AcDbLine
10
5.42638
20
-12.445834
30
0
11
6.051996
21
-5.216448
31
0
39
0
210
0
220
0
230
1
0
LINE
5
83
100
AcDbEntity
8
1
62
256
6
ByLayer
370
18
48
1
60
0
100
AcDbLine
10
7.294244
20
9.138514
30
0
11
7.579732
21
12.4375
31
0
39
0
210
0
220
0
230
1
0
LINE
5
84
100
AcDbEntity
8
1
62
256
6
ByLayer
370
18
48
1
60
0
100
AcDbLine
10
8.845232
20
-12.45685
30
0
11
9.449683
21
-5.47204
31
0
39
0
210
0
220
0
230
1
0
LINE
5
85
100
AcDbEntity
8
1
62
256
6
ByLayer
370
18
48
1
60
0
100
AcDbLine
10
10.691034
20
8.872551
30
0
11
10.999538
21
12.4375
31
0
39
0
210
0
220
0
230
1
0
LINE
5
86
100
AcDbEntity
8
1
62
256
6
ByLayer
370
18
48
1
60
0
100
AcDbLine
10
31.199625
20
1.936412
30
0
11
30.814397
21
2.311567
31
0
39
0
210
0
220
0
230
1
0
LINE
5
87
100
AcDbEntity
8
1
62
256
6
ByLayer
370
18
48
1
60
0
100
AcDbLine
10
23.938419
20
-4.766037
30
0
11
27.691149
21
-8.527031
31
0
39
0
210
0
220
0
230
1
0
LINE
5
88
100
AcDbEntity
8
1
62
256
6
ByLayer
370
18
48
1
60
0
100
AcDbLine
10
24.716739
20
5.655866
30
0
11
25.36576
21
6.312017
31
0
39
0
210
0
220
0
230
1
0
LINE
5
89
100
AcDbEntity
8
1
62
256
6
ByLayer
370
18
48
1
60
0
100
AcDbLine
10
27.691149
20
-8.527031
30
0
11
27.719715
21
-8.418836
31
0
39
0
210
0
220
0
230
1
0
LINE
5
8A
100
AcDbEntity
8
1
62
256
6
ByLayer
370
18
48
1
60
0
100
AcDbLine
10
5.39705
20
-12.44497
30
0
11
6.022779
21
-5.21428
31
0
39
0
210
0
220
0
230
1
0
LINE
5
8B
100
AcDbEntity
8
1
62
256
6
ByLayer
370
18
48
1
60
0
100
AcDbLine
10
7.264917
20
9.139406
30
0
11
7.550327
21
12.4375
31
0
39
0
210
0
220
0
230
1
0
LINE
5
8C
100
AcDbEntity
8
1
62
256
6
ByLayer
370
18
48
1
60
0
100
AcDbLine
10
4.485356
20
-12.442033
30
0
11
5.117134
21
-5.141445
31
0
39
0
210
0
220
0
230
1
0
LINE
5
8D
100
AcDbEntity
8
1
62
256
6
ByLayer
370
18
48
1
60
0
100
AcDbLine
10
6.356131
20
9.175949
30
0
11
6.638379
21
12.4375
31
0
39
0
210
0
220
0
230
1
0
LINE
5
8E
100
AcDbEntity
8
1
62
256
6
ByLayer
370
18
48
1
60
0
100
AcDbLine
10
24.849598
20
5.593058
30
0
11
27.706659
21
8.481508
31
0
39
0
210
0
220
0
230
1
0
LINE
5
8F
100
AcDbEntity
8
1
62
256
6
ByLayer
370
18
48
1
60
0
100
AcDbLine
10
27.706659
20
-8.356472
30
0
11
24.109283
21
-4.719574
31
0
39
0
210
0
220
0
230
1
0
LINE
5
90
100
AcDbEntity
8
1
62
256
6
ByLayer
370
18
48
1
60
0
100
AcDbLine
10
27.652887
20
-8.356472
30
0
11
27.706659
21
-8.356472
31
0
39
0
210
0
220
0
230
1
0
LINE
5
91
100
AcDbEntity
8
1
62
256
6
ByLayer
370
18
48
1
60
0
100
AcDbLine
10
27.640484
20
8.481508
30
0
11
27.706659
21
8.481508
31
0
39
0
210
0
220
0
230
1
0
LINE
5
92
100
AcDbEntity
8
1
62
256
6
ByLayer
370
18
48
1
60
0
100
AcDbLine
10
14.274237
20
5.547589
30
0
11
16.047636
21
5.390322
31
0
39
0
210
0
220
0
230
1
0
LINE
5
93
100
AcDbEntity
8
1
62
256
6
ByLayer
370
18
48
1
60
0
100
AcDbLine
10
30.841664
20
-2.200058
30
0
11
30.395945
21
-2.523898
31
0
39
0
210
0
220
0
230
1
0
LINE
5
94
100
AcDbEntity
8
1
62
256
6
ByLayer
370
18
48
1
60
0
100
AcDbLine
10
27.110808
20
-3.477753
30
0
11
26.339996
21
-3.686641
31
0
39
0
210
0
220
0
230
1
0
LINE
5
95
100
AcDbEntity
8
1
62
256
6
ByLayer
370
18
48
1
60
0
100
AcDbLine
10
27.019184
20
4.161797
30
0
11
27.742407
21
3.820761
31
0
39
0
210
0
220
0
230
1
0
LINE
5
96
100
AcDbEntity
8
1
62
256
6
ByLayer
370
18
48
1
60
0
100
AcDbLine
10
24.700627
20
5.663466
30
0
11
27.67395
21
8.669455
31
0
39
0
210
0
220
0
230
1
0
LINE
5
97
100
AcDbEntity
8
1
62
256
6
ByLayer
370
18
48
1
60
0
100
AcDbLine
10
1.484794
20
12.4375
30
0
11
0
21
12.4375
31
0
39
0
210
0
220
0
230
1
0
LINE
5
98
100
AcDbEntity
8
1
62
256
6
ByLayer
370
18
48
1
60
0
100
AcDbLine
10
4.485356
20
-12.442033
30
0
11
1.484794
21
-12.443979
31
0
39
0
210
0
220
0
230
1
0
LINE
5
99
100
AcDbEntity
8
1
62
256
6
ByLayer
370
18
48
1
60
0
100
AcDbLine
10
0
20
-12.4375
30
0
11
1.484794
21
-12.443979
31
0
39
0
210
0
220
0
230
1
0
LINE
5
9A
100
AcDbEntity
8
1
62
256
6
ByLayer
370
18
48
1
60
0
100
AcDbLine
10
7.550327
20
12.4375
30
0
11
7.579732
21
12.4375
31
0
39
0
210
0
220
0
230
1
0
LINE
5
9B
100
AcDbEntity
8
1
62
256
6
ByLayer
370
18
48
1
60
0
100
AcDbLine
10
27.67395
20
8.669455
30
0
11
27.706069
21
8.547799
31
0
39
0
210
0
220
0
230
1
0
LINE
5
9C
100
AcDbEntity
8
1
62
256
6
ByLayer
370
18
48
1
60
0
100
AcDbLine
10
1.484794
20
12.4375
30
0
11
6.638379
21
12.4375
31
0
39
0
210
0
220
0
230
1
0
LINE
5
9D
100
AcDbEntity
8
1
62
256
6
ByLayer
370
18
48
1
60
0
100
AcDbLine
10
7.579732
20
12.4375
30
0
11
10.999538
21
12.4375
31
0
39
0
210
0
220
0
230
1
0
LINE
5
9E
100
AcDbEntity
8
1
62
256
6
ByLayer
370
18
48
1
60
0
100
AcDbLine
10
1.484794
20
-12.443979
30
0
11
1.484794
21
12.4375
31
0
39
0
210
0
220
0
230
1
0
LINE
5
9F
100
AcDbEntity
8
1
62
256
6
ByLayer
370
18
48
1
60
0
100
AcDbLine
10
27.706069
20
8.547799
30
0
11
25.980663
21
6.803437
31
0
39
0
210
0
220
0
230
1
0
LINE
5
A0
100
AcDbEntity
8
1
62
256
6
ByLayer
370
18
48
1
60
0
100
AcDbLine
10
5.42638
20
-12.445834
30
0
11
5.39705
21
-12.44497
31
0
39
0
210
0
220
0
230
1
0
LINE
5
A1
100
AcDbEntity
8
1
62
256
6
ByLayer
370
18
48
1
60
0
100
AcDbLine
10
27.67395
20
8.669455
30
0
11
23.946852
21
12.4375
31
0
39
0
210
0
220
0
230
1
0
LINE
5
A2
100
AcDbEntity
8
1
62
256
6
ByLayer
370
18
48
1
60
0
100
AcDbLine
10
10.999538
20
12.4375
30
0
11
23.946852
21
12.4375
31
0
39
0
210
0
220
0
230
1
0
LINE
5
A3
100
AcDbEntity
8
1
62
256
6
ByLayer
370
18
48
1
60
0
100
AcDbLine
10
8.845232
20
-12.45685
30
0
11
5.42638
21
-12.445834
31
0
39
0
210
0
220
0
230
1
0
LINE
5
A4
100
AcDbEntity
8
1
62
256
6
ByLayer
370
18
48
1
60
0
100
AcDbLine
10
0
20
12.4375
30
0
11
0
21
-12.4375
31
0
39
0
210
0
220
0
230
1
0
LINE
5
A5
100
AcDbEntity
8
1
62
256
6
ByLayer
370
18
48
1
60
0
100
AcDbLine
10
6.638379
20
12.4375
30
0
11
7.550327
21
12.4375
31
0
39
0
210
0
220
0
230
1
0
LINE
5
A6
100
AcDbEntity
8
1
62
256
6
ByLayer
370
18
48
1
60
0
100
AcDbLine
10
23.813638
20
-12.447142
30
0
11
8.845232
21
-12.45685
31
0
39
0
210
0
220
0
230
1
0
LINE
5
A7
100
AcDbEntity
8
1
62
256
6
ByLayer
370
18
48
1
60
0
100
AcDbLine
10
23.813638
20
-12.447142
30
0
11
27.691149
21
-8.527031
31
0
39
0
210
0
220
0
230
1
0
LINE
5
A8
100
AcDbEntity
8
SK1
62
256
6
ByLayer
370
18
48
1
60
0
100
AcDbLine
10
-114.530716
20
12.4375
30
0
11
-114.530716
21
-12.4375
31
0
39
0
210
0
220
0
230
1
0
LINE
5
AA
100
AcDbEntity
8
SK1
62
256
6
ByLayer
370
18
48
1
60
0
100
AcDbLine
10
-114.530716
20
-12.4375
30
0
11
0
21
-12.4375
31
0
39
0
210
0
220
0
230
1
0
LINE
5
AB
100
AcDbEntity
8
SK1
62
256
6
ByLayer
370
18
48
1
60
0
100
AcDbLine
10
0
20
12.4375
30
0
11
-114.530716
21
12.4375
31
0
39
0
210
0
220
0
230
1
0
LINE
5
AC
100
AcDbEntity
8
SK1
62
256
6
ByLayer
370
18
48
1
60
0
100
AcDbLine
10
0
20
12.4375
30
0
11
0
21
-12.4375
31
0
39
0
210
0
220
0
230
1
0
LINE
5
AD
100
AcDbEntity
8
1
62
256
6
ByLayer
370
18
48
1
60
0
100
AcDbLine
10
36.589326
20
-0.498748
30
0
11
28.816992
21
-8.356472
31
0
39
0
210
0
220
0
230
1
0
LINE
5
AE
100
AcDbEntity
8
1
62
256
6
ByLayer
370
18
48
1
60
0
100
AcDbLine
10
16.248566
20
0.780524
30
0
11
16.57937
21
0.780524
31
0
39
0
210
0
220
0
230
1
0
LINE
5
AF
100
AcDbEntity
8
1
62
256
6
ByLayer
370
18
48
1
60
0
100
AcDbLine
10
14.774892
20
2.617801
30
0
11
15.105696
21
2.617801
31
0
39
0
210
0
220
0
230
1
0
LINE
5
B0
100
AcDbEntity
8
1
62
256
6
ByLayer
370
18
48
1
60
0
100
AcDbLine
10
15.872657
20
0.237773
30
0
11
16.203461
21
0.237773
31
0
39
0
210
0
220
0
230
1
0
LINE
5
B1
100
AcDbEntity
8
1
62
256
6
ByLayer
370
18
48
1
60
0
100
AcDbLine
10
16.036342
20
2.12925
30
0
11
16.367145
21
2.12925
31
0
39
0
210
0
220
0
230
1
0
LINE
5
B2
100
AcDbEntity
8
1
62
256
6
ByLayer
370
18
48
1
60
0
100
AcDbLine
10
14.546458
20
-0.021902
30
0
11
14.877261
21
-0.021902
31
0
39
0
210
0
220
0
230
1
0
LINE
5
B3
100
AcDbEntity
8
1
62
256
6
ByLayer
370
18
48
1
60
0
100
AcDbLine
10
16.313316
20
1.528751
30
0
11
16.64412
21
1.528751
31
0
39
0
210
0
220
0
230
1
0
LINE
5
B4
100
AcDbEntity
8
1
62
256
6
ByLayer
370
18
48
1
60
0
100
AcDbLine
10
7.585581
20
-2.207748
30
0
11
4.287301
21
-1.956256
31
0
39
0
210
0
220
0
230
1
0
LINE
5
B5
100
AcDbEntity
8
1
62
256
6
ByLayer
370
18
48
1
60
0
100
AcDbLine
10
9.646441
20
-5.486677
30
0
11
18.416594
21
-6.262395
31
0
39
0
210
0
220
0
230
1
0
LINE
5
B6
100
AcDbEntity
8
1
62
256
6
ByLayer
370
18
48
1
60
0
100
AcDbLine
10
3.34549
20
6.438314
30
0
11
5.008005
21
6.371932
31
0
39
0
210
0
220
0
230
1
0
LINE
5
B7
100
AcDbEntity
8
1
62
256
6
ByLayer
370
18
48
1
60
0
100
AcDbLine
10
25.569301
20
4.811459
30
0
11
26.534073
21
4.356521
31
0
39
0
210
0
220
0
230
1
0
LINE
5
B8
100
AcDbEntity
8
1
62
256
6
ByLayer
370
18
48
1
60
0
100
AcDbLine
10
25.27057
20
5.394724
30
0
11
19.65455
21
8.042961
31
0
39
0
210
0
220
0
230
1
0
LINE
5
B9
100
AcDbEntity
8
1
62
256
6
ByLayer
370
18
48
1
60
0
100
AcDbLine
10
7.084686
20
4.629212
30
0
11
8.170076
21
4.546452
31
0
39
0
210
0
220
0
230
1
0
LINE
5
BA
100
AcDbEntity
8
1
62
256
6
ByLayer
370
18
48
1
60
0
100
AcDbLine
10
2.624786
20
-1.889874
30
0
11
4.287301
21
-1.956256
31
0
39
0
210
0
220
0
230
1
0
LINE
5
BB
100
AcDbEntity
8
1
62
256
6
ByLayer
370
18
48
1
60
0
100
AcDbLine
10
2.624786
20
-1.889874
30
0
11
3.34549
21
6.438314
31
0
39
0
210
0
220
0
230
1
0
LINE
5
BC
100
AcDbEntity
8
1
62
256
6
ByLayer
370
18
48
1
60
0
100
AcDbLine
10
26.534073
20
4.356521
30
0
11
26.558591
21
4.348595
31
0
39
0
210
0
220
0
230
1
0
LINE
5
BD
100
AcDbEntity
8
1
62
256
6
ByLayer
370
18
48
1
60
0
100
AcDbLine
10
4.903546
20
-5.124283
30
0
11
6.649695
21
-5.194005
31
0
39
0
210
0
220
0
230
1
0
LINE
5
BE
100
AcDbEntity
8
1
62
256
6
ByLayer
370
18
48
1
60
0
100
AcDbLine
10
8.170076
20
4.546452
30
0
11
8.306285
21
6.120439
31
0
39
0
210
0
220
0
230
1
0
LINE
5
BF
100
AcDbEntity
8
1
62
256
6
ByLayer
370
18
48
1
60
0
100
AcDbLine
10
14.589333
20
5.546758
30
0
11
14.033197
21
5.568964
31
0
39
0
210
0
220
0
230
1
0
LINE
5
C0
100
AcDbEntity
8
1
62
256
6
ByLayer
370
18
48
1
60
0
100
AcDbLine
10
15.897829
20
-2.900683
30
0
11
13.873801
21
-2.721658
31
0
39
0
210
0
220
0
230
1
0
LINE
5
C1
100
AcDbEntity
8
1
62
256
6
ByLayer
370
18
48
1
60
0
100
AcDbLine
10
25.829144
20
-3.789371
30
0
11
24.800889
21
-4.068026
31
0
39
0
210
0
220
0
230
1
0
LINE
5
C2
100
AcDbEntity
8
1
62
256
6
ByLayer
370
18
48
1
60
0
100
AcDbLine
10
25.854615
20
-3.786283
30
0
11
25.829144
21
-3.789371
31
0
39
0
210
0
220
0
230
1
0
LINE
5
C3
100
AcDbEntity
8
1
62
256
6
ByLayer
370
18
48
1
60
0
100
AcDbLine
10
8.653168
20
9.052981
30
0
11
17.327757
21
8.285715
31
0
39
0
210
0
220
0
230
1
0
LINE
5
C4
100
AcDbEntity
8
1
62
256
6
ByLayer
370
18
48
1
60
0
100
AcDbLine
10
8.058058
20
8.385785
30
0
11
17.557743
21
7.545539
31
0
39
0
210
0
220
0
230
1
0
LINE
5
C5
100
AcDbEntity
8
1
62
256
6
ByLayer
370
18
48
1
60
0
100
AcDbLine
10
7.299571
20
-5.312382
30
0
11
9.646441
21
-5.486677
31
0
39
0
210
0
220
0
230
1
0
LINE
5
C6
100
AcDbEntity
8
1
62
256
6
ByLayer
370
18
48
1
60
0
100
AcDbLine
10
16.726497
20
-6.077805
30
0
11
18.416594
21
-6.262395
31
0
39
0
210
0
220
0
230
1
0
LINE
5
C7
100
AcDbEntity
8
1
62
256
6
ByLayer
370
18
48
1
60
0
100
AcDbLine
10
14.589333
20
5.546758
30
0
11
16.61336
21
5.367733
31
0
39
0
210
0
220
0
230
1
0
LINE
5
C8
100
AcDbEntity
8
1
62
256
6
ByLayer
370
18
48
1
60
0
100
AcDbLine
10
17.964452
20
8.227551
30
0
11
19.65455
21
8.042961
31
0
39
0
210
0
220
0
230
1
0
LINE
5
C9
100
AcDbEntity
8
1
62
256
6
ByLayer
370
18
48
1
60
0
100
AcDbLine
10
7.585581
20
-2.207748
30
0
11
7.721791
21
-0.633761
31
0
39
0
210
0
220
0
230
1
0
LINE
5
CA
100
AcDbEntity
8
1
62
256
6
ByLayer
370
18
48
1
60
0
100
AcDbLine
10
18.416594
20
-6.262395
30
0
11
24.402159
21
-4.640318
31
0
39
0
210
0
220
0
230
1
0
LINE
5
CB
100
AcDbEntity
8
1
62
256
6
ByLayer
370
18
48
1
60
0
100
AcDbLine
10
16.61336
20
5.367733
30
0
11
16.047636
21
5.390322
31
0
39
0
210
0
220
0
230
1
0
LINE
5
CC
100
AcDbEntity
8
1
62
256
6
ByLayer
370
18
48
1
60
0
100
AcDbLine
10
7.415212
20
-5.252375
30
0
11
6.649695
21
-5.194005
31
0
39
0
210
0
220
0
230
1
0
LINE
5
CD
100
AcDbEntity
8
1
62
256
6
ByLayer
370
18
48
1
60
0
100
AcDbLine
10
16.089802
20
-6.019641
30
0
11
7.415212
21
-5.252375
31
0
39
0
210
0
220
0
230
1
0
LINE
5
CE
100
AcDbEntity
8
1
62
256
6
ByLayer
370
18
48
1
60
0
100
AcDbLine
10
4.287301
20
-1.956256
30
0
11
5.008005
21
6.371932
31
0
39
0
210
0
220
0
230
1
0
LINE
5
CF
100
AcDbEntity
8
1
62
256
6
ByLayer
370
18
48
1
60
0
100
AcDbLine
10
6.636401
20
-0.551
30
0
11
7.721791
21
-0.633761
31
0
39
0
210
0
220
0
230
1
0
LINE
5
D0
100
AcDbEntity
8
1
62
256
6
ByLayer
370
18
48
1
60
0
100
AcDbLine
10
8.306285
20
6.120439
30
0
11
5.008005
21
6.371932
31
0
39
0
210
0
220
0
230
1
0
LINE
5
D1
100
AcDbEntity
8
1
62
256
6
ByLayer
370
18
48
1
60
0
100
AcDbLine
10
7.084686
20
4.629212
30
0
11
6.636401
21
-0.551
31
0
39
0
210
0
220
0
230
1
0
LINE
5
D2
100
AcDbEntity
8
1
62
256
6
ByLayer
370
18
48
1
60
0
100
AcDbLine
10
6.948208
20
-4.43922
30
0
11
16.447894
21
-5.279466
31
0
39
0
210
0
220
0
230
1
0
LINE
5
D3
100
AcDbEntity
8
1
62
256
6
ByLayer
370
18
48
1
60
0
100
AcDbLine
10
26.856902
20
-4.124549
30
0
11
26.722796
21
-4.046272
31
0
39
0
210
0
220
0
230
1
0
LINE
5
D4
100
AcDbEntity
8
1
62
256
6
ByLayer
370
18
48
1
60
0
100
AcDbLine
10
27.459502
20
4.46683
30
0
11
27.148309
21
4.439294
31
0
39
0
210
0
220
0
230
1
0
LINE
5
D5
100
AcDbEntity
8
1
62
256
6
ByLayer
370
18
48
1
60
0
100
AcDbLine
10
26.401157
20
5.230827
30
0
11
26.984658
21
5.445537
31
0
39
0
210
0
220
0
230
1
0
LINE
5
D6
100
AcDbEntity
8
1
62
256
6
ByLayer
370
18
48
1
60
0
100
AcDbLine
10
26.420487
20
-3.971141
30
0
11
26.722796
21
-4.046272
31
0
39
0
210
0
220
0
230
1
0
LINE
5
D7
100
AcDbEntity
8
1
62
256
6
ByLayer
370
18
48
1
60
0
100
AcDbLine
10
31.127914
20
3.118366
30
0
11
28.926152
21
4.40352
31
0
39
0
210
0
220
0
230
1
0
LINE
5
D8
100
AcDbEntity
8
1
62
256
6
ByLayer
370
18
48
1
60
0
100
AcDbLine
10
28.178039
20
-4.241404
30
0
11
27.798634
21
-5.166567
31
0
39
0
210
0
220
0
230
1
0
LINE
5
D9
100
AcDbEntity
8
1
62
256
6
ByLayer
370
18
48
1
60
0
100
AcDbLine
10
28.926152
20
4.40352
30
0
11
28.703824
21
5.293477
31
0
39
0
210
0
220
0
230
1
0
LINE
5
DA
100
AcDbEntity
8
1
62
256
6
ByLayer
370
18
48
1
60
0
100
AcDbLine
10
30.874086
20
-3.232565
30
0
11
31.82499
21
-2.086871
31
0
39
0
210
0
220
0
230
1
0
LINE
5
DB
100
AcDbEntity
8
1
62
256
6
ByLayer
370
18
48
1
60
0
100
AcDbLine
10
26.420487
20
-3.971141
30
0
11
25.54171
21
-4.700622
31
0
39
0
210
0
220
0
230
1
0
LINE
5
DC
100
AcDbEntity
8
1
62
256
6
ByLayer
370
18
48
1
60
0
100
AcDbLine
10
26.079467
20
-5.014507
30
0
11
26.856902
21
-4.124549
31
0
39
0
210
0
220
0
230
1
0
LINE
5
DD
100
AcDbEntity
8
1
62
256
6
ByLayer
370
18
48
1
60
0
100
AcDbLine
10
27.798634
20
-5.166567
30
0
11
26.079467
21
-5.014507
31
0
39
0
210
0
220
0
230
1
0
LINE
5
DE
100
AcDbEntity
8
1
62
256
6
ByLayer
370
18
48
1
60
0
100
AcDbLine
10
28.703824
20
5.293477
30
0
11
26.984658
21
5.445537
31
0
39
0
210
0
220
0
230
1
0
LINE
5
DF
100
AcDbEntity
8
1
62
256
6
ByLayer
370
18
48
1
60
0
100
AcDbLine
10
30.375412
20
-4.218392
30
0
11
27.798634
21
-5.166567
31
0
39
0
210
0
220
0
230
1
0
LINE
5
E0
100
AcDbEntity
8
1
62
256
6
ByLayer
370
18
48
1
60
0
100
AcDbLine
10
27.605015
20
4.520374
30
0
11
27.459502
21
4.46683
31
0
39
0
210
0
220
0
230
1
0
LINE
5
E1
100
AcDbEntity
8
1
62
256
6
ByLayer
370
18
48
1
60
0
100
AcDbLine
10
30.56709
20
-3.362307
30
0
11
30.375412
21
-4.218392
31
0
39
0
210
0
220
0
230
1
0
LINE
5
E2
100
AcDbEntity
8
1
62
256
6
ByLayer
370
18
48
1
60
0
100
AcDbLine
10
31.407961
20
2.9367
30
0
11
32.147634
21
1.641475
31
0
39
0
210
0
220
0
230
1
0
LINE
5
E3
100
AcDbEntity
8
1
62
256
6
ByLayer
370
18
48
1
60
0
100
AcDbLine
10
25.54171
20
-4.700622
30
0
11
26.079467
21
-5.014507
31
0
39
0
210
0
220
0
230
1
0
LINE
5
E4
100
AcDbEntity
8
1
62
256
6
ByLayer
370
18
48
1
60
0
100
AcDbLine
10
31.127914
20
3.118366
30
0
11
31.078596
21
3.907339
31
0
39
0
210
0
220
0
230
1
0
LINE
5
E5
100
AcDbEntity
8
1
62
256
6
ByLayer
370
18
48
1
60
0
100
AcDbLine
10
31.078596
20
3.907339
30
0
11
28.703824
21
5.293477
31
0
39
0
210
0
220
0
230
1
0
LINE
5
E6
100
AcDbEntity
8
1
62
256
6
ByLayer
370
18
48
1
60
0
100
AcDbLine
10
27.459502
20
4.46683
30
0
11
30.242056
21
3.064258
31
0
39
0
210
0
220
0
230
1
0
LINE
5
E7
100
AcDbEntity
8
1
62
256
6
ByLayer
370
18
48
1
60
0
100
AcDbLine
10
28.178039
20
-4.241404
30
0
11
26.856902
21
-4.124549
31
0
39
0
210
0
220
0
230
1
0
LINE
5
E8
100
AcDbEntity
8
1
62
256
6
ByLayer
370
18
48
1
60
0
100
AcDbLine
10
28.926152
20
4.40352
30
0
11
27.605015
21
4.520374
31
0
39
0
210
0
220
0
230
1
0
LINE
5
E9
100
AcDbEntity
8
1
62
256
6
ByLayer
370
18
48
1
60
0
100
AcDbLine
10
26.722796
20
-4.046272
30
0
11
29.703984
21
-3.153503
31
0
39
0
210
0
220
0
230
1
0
LINE
5
EA
100
AcDbEntity
8
1
62
256
6
ByLayer
370
18
48
1
60
0
100
AcDbLine
10
27.605015
20
4.520374
30
0
11
26.984658
21
5.445537
31
0
39
0
210
0
220
0
230
1
0
LINE
5
EB
100
AcDbEntity
8
1
62
256
6
ByLayer
370
18
48
1
60
0
100
AcDbLine
10
32.147634
20
1.641475
30
0
11
32.707811
21
2.260225
31
0
39
0
210
0
220
0
230
1
0
LINE
5
EC
100
AcDbEntity
8
1
62
256
6
ByLayer
370
18
48
1
60
0
100
AcDbLine
10
31.82499
20
-2.086871
30
0
11
32.262786
21
-2.88232
31
0
39
0
210
0
220
0
230
1
0
LINE
5
ED
100
AcDbEntity
8
1
62
256
6
ByLayer
370
18
48
1
60
0
100
AcDbLine
10
30.56709
20
-3.362307
30
0
11
28.178039
21
-4.241404
31
0
39
0
210
0
220
0
230
1
0
LINE
5
EE
100
AcDbEntity
8
1
62
256
6
ByLayer
370
18
48
1
60
0
100
AcDbLine
10
27.148309
20
4.439294
30
0
11
26.401157
21
5.230827
31
0
39
0
210
0
220
0
230
1
0
LINE
5
EF
100
AcDbEntity
8
1
62
256
6
ByLayer
370
18
48
1
60
0
100
AcDbLine
10
28.816992
20
8.481508
30
0
11
36.589326
21
0.623784
31
0
39
0
210
0
220
0
230
1
0
MTEXT
5
172
100
AcDbEntity
8
SK6
62
256
6
ByLayer
370
18
48
1
60
0
100
AcDbMText
10
-52.980716
20
-23.322175
30
0
210
0
220
0
230
1
1
\W0.7412;CSDNN 2525M 12-4
40
3.5
41
0
44
1.084337
50
0
71
7
72
5
7
iso_b_vert
0
DIMENSION
5
183
100
AcDbEntity
8
2
62
256
6
ByLayer
370
13
48
1
60
0
100
AcDbDimension
2
DimnDraft3D1
10
34.321339
20
2.916688
30
0
11
27.142032
21
23.935955
31
0
70
34
71
5
72
1
41
1
210
0
220
0
230
1
3
Standard
100
AcDb2LineAngularDimension
13
36.819284
23
0.3913
33
0
14
36.819284
24
-1.1962
34
0
15
36.819284
25
0.3913
35
0
16
28.852744
26
19.773809
36
0
40
0
0
DIMENSION
5
199
100
AcDbEntity
8
SK2
62
256
6
ByLayer
370
13
48
1
60
0
100
AcDbDimension
2
DimnDraft3D2
10
-122.280716
20
12.4375
30
0
11
-122.280716
21
-5.281579
31
0
70
32
71
5
72
1
41
1
210
0
220
0
230
1
3
Standard
100
AcDbAlignedDimension
13
-116.530716
23
-12.4375
33
0
14
-116.530716
24
12.4375
34
0
50
90
100
AcDbRotatedDimension
1001
ACAD
1000
DSTYLE
1002
{
1070
    74
1070
     0
1070
   279
1070
     0
1070
   172
1070
     1
1070
   173
1070
     1
1070
   340
1005
173
1070
    77
1070
     1
1070
    73
1070
     0
1070
   171
1070
     3
1070
   274
1070
     4
1070
   177
1070
     2
1070
   176
1070
     2
1070
   178
1070
     7
1070
    78
1070
     8
1070
    41
1041
3.175
1070
   147
1041
2.25
1070
    42
1041
2.0
1070
    44
1041
2.0
1070
   140
1041
4.5
1070
   343
1005
184
1070
   344
1005
184
1002
}
0
DIMENSION
5
1A7
100
AcDbEntity
8
2
62
256
6
ByLayer
370
13
48
1
60
0
100
AcDbDimension
2
DimnDraft3D3
10
59.069284
20
0.3913
30
0
11
59.069284
21
10.6463
31
0
70
32
71
5
72
1
41
1
210
0
220
0
230
1
3
Standard
100
AcDbAlignedDimension
13
2
23
-12.4375
33
0
14
38.819284
24
0.3913
34
0
50
90
100
AcDbRotatedDimension
1001
ACAD
1000
DSTYLE
1002
{
1070
    74
1070
     0
1070
   279
1070
     0
1070
   172
1070
     1
1070
   173
1070
     1
1070
   340
1005
173
1070
    77
1070
     1
1070
    73
1070
     0
1070
   171
1070
     3
1070
   274
1070
     4
1070
   177
1070
     2
1070
   176
1070
     2
1070
   178
1070
     7
1070
    78
1070
     8
1070
    41
1041
3.175
1070
   147
1041
2.25
1070
    42
1041
2.0
1070
    44
1041
2.0
1070
   140
1041
4.5
1070
   343
1005
184
1070
   344
1005
184
1002
}
0
DIMENSION
5
1B5
100
AcDbEntity
8
2
62
256
6
ByLayer
370
13
48
1
60
0
100
AcDbDimension
2
DimnDraft3D4
10
36.819284
20
30.1413
30
0
11
13.128063
21
30.1413
31
0
70
32
71
5
72
1
41
1
210
0
220
0
230
1
3
Standard
100
AcDbAlignedDimension
13
0
23
14.4375
33
0
14
36.819284
24
2.3913
34
0
50
0
100
AcDbRotatedDimension
1001
ACAD
1000
DSTYLE
1002
{
1070
   279
1070
     0
1070
   172
1070
     1
1070
   173
1070
     1
1070
   340
1005
173
1070
    77
1070
     1
1070
    73
1070
     0
1070
   171
1070
     3
1070
   274
1070
     4
1070
   177
1070
     2
1070
   176
1070
     2
1070
   178
1070
     7
1070
    78
1070
     8
1070
    41
1041
3.175
1070
   147
1041
2.25
1070
    42
1041
2.0
1070
    44
1041
2.0
1070
   140
1041
4.5
1070
   343
1005
184
1070
   344
1005
184
1002
}
0
DIMENSION
5
1C3
100
AcDbEntity
8
SK2
62
256
6
ByLayer
370
13
48
1
60
0
100
AcDbDimension
2
DimnDraft3D5
10
-114.530716
20
40.1413
30
0
11
-45.256374
21
40.1413
31
0
70
32
71
5
72
1
41
1
210
0
220
0
230
1
3
Standard
100
AcDbAlignedDimension
13
36.819284
23
2.3913
33
0
14
-114.530716
24
14.4375
34
0
50
0
100
AcDbRotatedDimension
1001
ACAD
1000
DSTYLE
1002
{
1070
   279
1070
     0
1070
   172
1070
     1
1070
   173
1070
     1
1070
   340
1005
173
1070
    77
1070
     1
1070
    73
1070
     0
1070
   171
1070
     3
1070
   274
1070
     4
1070
   177
1070
     2
1070
   176
1070
     2
1070
   178
1070
     7
1070
    78
1070
     8
1070
    41
1041
3.175
1070
   147
1041
2.25
1070
    42
1041
2.0
1070
    44
1041
2.0
1070
   140
1041
4.5
1070
   343
1005
184
1070
   344
1005
184
1002
}
0
ENDSEC
0
SECTION
2
OBJECTS
0
DICTIONARY
5
22d
330
0
100
AcDbDictionary
280
0
281
1
3
ACAD_GROUP
350
22e
3
ACAD_MLINESTYLE
350
22f
0
DICTIONARY
5
22e
330
0
100
AcDbDictionary
280
0
281
1
0
DICTIONARY
5
22f
330
0
100
AcDbDictionary
280
0
281
1
3
Standard
350
18
0
MLINESTYLE
5
18
330
22f
100
AcDbMlineStyle
2
Standard
70
0
3

62
256
51
90
52
90
71
2
49
-0.5
62
256
6
ByLayer
49
0.5
62
256
6
ByLayer
0
RASTERVARIABLES
5
21c
330

100
AcDbRasterVariables
90
0
70
1
71
1
72
1
0
ENDSEC
0
EOF
