0
SECTION
2
HEADER
9
$ACADVER
1
AC1015
9
$DWGCODEPAGE
3
ANSI_1252
9
$HANDSEED
5
263
9
$ANGBASE
50
0
9
$ANGDIR
70
0
9
$ATTMODE
70
1
9
$AUNITS
70
0
9
$AUPREC
70
0
9
$CECOLOR
62
256
9
$CELTSCALE
40
1
9
$CELTYPE
6
ByLayer
9
$CELWEIGHT
370
18
9
$CLAYER
8
0
9
$CMLJUST
70
0
9
$CMLSCALE
40
1
9
$CMLSTYLE
2
Standard
9
$DIMSTYLE
2
Standard
9
$TEXTSIZE
40
0.2
9
$TEXTSTYLE
7
Standard
9
$LUNITS
70
2
9
$LUPREC
70
4
9
$EXTNAMES
290
1
9
$INSUNITS
70
4
9
$LTSCALE
40
1
9
$LWDISPLAY
290
1
9
$PDMODE
70
0
9
$PDSIZE
40
0
9
$PLINEGEN
70
0
0
ENDSEC
0
SECTION
2
CLASSES
0
CLASS
1
RASTERVARIABLES
2
AcDbRasterVariables
3
ISM
90
0
280
0
281
0
0
ENDSEC
0
SECTION
2
TABLES
0
TABLE
2
VPORT
5
259
100
AcDbSymbolTable
0
VPORT
5
1
100
AcDbSymbolTableRecord
100
AcDbViewportTableRecord
2
*Active
70
0
10
0
20
0
11
1
21
1
12
-1
22
1
13
0
23
0
14
0.5
24
0.5
15
10
25
10
16
0
26
0
36
1
17
0
27
0
37
0
0
ENDTAB
0
TABLE
2
LTYPE
5
25a
100
AcDbSymbolTable
0
LTYPE
5
14
100
AcDbSymbolTableRecord
100
AcDbLinetypeTableRecord
70
0
2
ByBlock
3

72
65
73
0
40
0
0
LTYPE
5
15
100
AcDbSymbolTableRecord
100
AcDbLinetypeTableRecord
70
0
2
ByLayer
3

72
65
73
0
40
0
0
LTYPE
5
16
100
AcDbSymbolTableRecord
100
AcDbLinetypeTableRecord
70
0
2
Continuous
3
Solid line
72
65
73
0
40
0
0
LTYPE
5
6E
100
AcDbSymbolTableRecord
100
AcDbLinetypeTableRecord
70
0
2
CENTER
3
____ _ ____ _ ____ _ ____
72
65
73
4
40
47.5
49
22
74
0
49
-8.5
74
0
49
8.5
74
0
49
-8.5
74
0
0
LTYPE
5
6F
100
AcDbSymbolTableRecord
100
AcDbLinetypeTableRecord
70
0
2
DASHED
3
__ __ __ __ __ __ __ __ __
72
65
73
2
40
25.72
49
12.86
74
0
49
-12.86
74
0
0
ENDTAB
0
TABLE
2
LAYER
5
25b
100
AcDbSymbolTable
0
LAYER
5
10
100
AcDbSymbolTableRecord
100
AcDbLayerTableRecord
2
0
70
0
62
7
6
Continuous
290
1
370
-3
390
0
0
LAYER
5
71
100
AcDbSymbolTableRecord
100
AcDbLayerTableRecord
2
81
70
0
62
-3
6
Continuous
290
1
370
-3
390
0
0
LAYER
5
73
100
AcDbSymbolTableRecord
100
AcDbLayerTableRecord
2
80
70
0
62
-6
6
Continuous
290
1
370
-3
390
0
0
LAYER
5
75
100
AcDbSymbolTableRecord
100
AcDbLayerTableRecord
2
1
70
0
62
4
6
Continuous
290
1
370
-3
390
0
0
LAYER
5
98
100
AcDbSymbolTableRecord
100
AcDbLayerTableRecord
2
4
70
0
62
-2
6
CENTER
290
1
370
-3
390
0
0
LAYER
5
16B
100
AcDbSymbolTableRecord
100
AcDbLayerTableRecord
2
Defpoints
70
0
62
7
6
Continuous
290
0
370
-3
390
0
0
LAYER
5
193
100
AcDbSymbolTableRecord
100
AcDbLayerTableRecord
2
2
70
0
62
7
6
Continuous
290
1
370
-3
390
0
0
LAYER
5
245
100
AcDbSymbolTableRecord
100
AcDbLayerTableRecord
2
SK1
70
0
62
4
6
Continuous
290
1
370
-3
390
0
0
LAYER
5
246
100
AcDbSymbolTableRecord
100
AcDbLayerTableRecord
2
SK3
70
0
62
1
6
DASHED
290
1
370
-3
390
0
0
LAYER
5
247
100
AcDbSymbolTableRecord
100
AcDbLayerTableRecord
2
SK6
70
0
62
5
6
Continuous
290
1
370
-3
390
0
0
LAYER
5
248
100
AcDbSymbolTableRecord
100
AcDbLayerTableRecord
2
SK2
70
0
62
7
6
Continuous
290
1
370
-3
390
0
0
ENDTAB
0
TABLE
2
STYLE
5
25c
100
AcDbSymbolTable
0
STYLE
5
11
100
AcDbSymbolTableRecord
100
AcDbTextStyleTableRecord
2
Standard
3
txt
70
0
71
0
40
0
41
1
42
0
50
0
0
STYLE
5
164
100
AcDbSymbolTableRecord
100
AcDbTextStyleTableRecord
2
AMGDT
3
AMGDT
70
0
71
0
40
0
41
1
42
0
50
0
0
STYLE
5
168
100
AcDbSymbolTableRecord
100
AcDbTextStyleTableRecord
2
iso_b_vert
3
simplex.shx
70
0
71
0
40
0
41
1
42
0
50
0
0
STYLE
5
17B
100
AcDbSymbolTableRecord
100
AcDbTextStyleTableRecord
2
DWGDirectTextStyle
3
simplex
70
0
71
0
40
0
41
1
42
0
50
0
0
ENDTAB
0
TABLE
2
DIMSTYLE
5
25d
100
AcDbSymbolTable
100
AcDbDimStyleTable
0
DIMSTYLE
105
27
100
AcDbSymbolTableRecord
100
AcDbDimStyleTableRecord
2
Standard
70
0
3
<>
41
0.18
42
0.0625
44
0.18
140
0.18
147
0.09
73
0
74
0
77
1
271
2
275
0
278
52
280
0
340
11
0
ENDTAB
0
TABLE
2
VIEW
5
25e
100
AcDbSymbolTable
0
ENDTAB
0
TABLE
2
UCS
5
25f
100
AcDbSymbolTable
0
ENDTAB
0
TABLE
2
APPID
5
260
100
AcDbSymbolTable
0
APPID
5
12
100
AcDbSymbolTableRecord
100
AcDbRegAppTableRecord
2
ACAD
70
0
0
APPID
5
166
100
AcDbSymbolTableRecord
100
AcDbRegAppTableRecord
2
ACAD_DSTYLE_DIMBREAK
70
0
0
APPID
5
204
100
AcDbSymbolTableRecord
100
AcDbRegAppTableRecord
2
ACAD_DSTYLE_DIM_LINETYPE
70
0
0
APPID
5
205
100
AcDbSymbolTableRecord
100
AcDbRegAppTableRecord
2
ACAD_DSTYLE_DIM_EXT1_LINETYPE
70
0
0
APPID
5
206
100
AcDbSymbolTableRecord
100
AcDbRegAppTableRecord
2
ACAD_DSTYLE_DIM_EXT2_LINETYPE
70
0
0
APPID
5
241
100
AcDbSymbolTableRecord
100
AcDbRegAppTableRecord
2
ACAD_MLEADERVER
70
0
0
ENDTAB
0
TABLE
2
BLOCK_RECORD
5
261
100
AcDbSymbolTable
0
BLOCK_RECORD
5
1F
100
AcDbSymbolTableRecord
100
AcDbBlockTableRecord
2
*Model_Space
340
0
70
0
0
BLOCK_RECORD
5
1B
100
AcDbSymbolTableRecord
100
AcDbBlockTableRecord
2
*Paper_Space
340
0
70
0
0
BLOCK_RECORD
5
23
100
AcDbSymbolTableRecord
100
AcDbBlockTableRecord
2
*Paper_Space0
340
0
70
0
0
BLOCK_RECORD
5
16C
100
AcDbSymbolTableRecord
100
AcDbBlockTableRecord
2
*D1
340
0
70
0
0
BLOCK_RECORD
5
179
100
AcDbSymbolTableRecord
100
AcDbBlockTableRecord
2
_U0
340
0
70
0
0
BLOCK_RECORD
5
186
100
AcDbSymbolTableRecord
100
AcDbBlockTableRecord
2
*D3
340
0
70
0
0
BLOCK_RECORD
5
194
100
AcDbSymbolTableRecord
100
AcDbBlockTableRecord
2
_U1
340
0
70
0
0
BLOCK_RECORD
5
1A0
100
AcDbSymbolTableRecord
100
AcDbBlockTableRecord
2
*D5
340
0
70
0
0
BLOCK_RECORD
5
1AC
100
AcDbSymbolTableRecord
100
AcDbBlockTableRecord
2
_U2
340
0
70
0
0
BLOCK_RECORD
5
1B9
100
AcDbSymbolTableRecord
100
AcDbBlockTableRecord
2
*D7
340
0
70
0
0
BLOCK_RECORD
5
1C5
100
AcDbSymbolTableRecord
100
AcDbBlockTableRecord
2
_U3
340
0
70
0
0
BLOCK_RECORD
5
1D1
100
AcDbSymbolTableRecord
100
AcDbBlockTableRecord
2
*D9
340
0
70
0
0
BLOCK_RECORD
5
1DD
100
AcDbSymbolTableRecord
100
AcDbBlockTableRecord
2
_U4
340
0
70
0
0
ENDTAB
0
ENDSEC
0
SECTION
2
BLOCKS
0
BLOCK
5
20
100
AcDbEntity
8
0
100
AcDbBlockBegin
2
*Model_Space
70
0
10
0
20
0
30
0
3
*Model_Space
0
ENDBLK
5
21
100
AcDbEntity
8
0
100
AcDbBlockEnd
0
BLOCK
5
1C
100
AcDbEntity
8
0
100
AcDbBlockBegin
2
*Paper_Space
70
0
10
0
20
0
30
0
3
*Paper_Space
0
ENDBLK
5
1D
100
AcDbEntity
8
0
100
AcDbBlockEnd
0
BLOCK
5
24
100
AcDbEntity
8
0
100
AcDbBlockBegin
2
*Paper_Space0
70
0
10
0
20
0
30
0
3
*Paper_Space0
0
ENDBLK
5
25
100
AcDbEntity
8
0
100
AcDbBlockEnd
0
BLOCK
5
16D
100
AcDbEntity
8
0
100
AcDbBlockBegin
2
*D1
70
1
10
0
20
0
30
0
3
*D1
0
LINE
5
16F
100
AcDbEntity
8
0
62
256
6
ByLayer
370
-2
48
1
60
0
100
AcDbLine
10
112
20
76.5875
30
0
11
112
21
110.549132
31
0
39
0
210
0
220
0
230
1
0
LINE
5
170
100
AcDbEntity
8
0
62
256
6
ByLayer
370
-2
48
1
60
0
100
AcDbLine
10
0
20
76.5875
30
0
11
0
21
110.549132
31
0
39
0
210
0
220
0
230
1
0
LINE
5
171
100
AcDbEntity
8
0
62
256
6
ByLayer
370
-2
48
1
60
0
100
AcDbLine
10
98
20
100.549132
30
0
11
14
21
100.549132
31
0
39
0
210
0
220
0
230
1
0
SOLID
5
172
100
AcDbEntity
8
0
62
256
6
ByLayer
370
-1
48
1
60
0
100
AcDbTrace
10
98
20
98.215799
30
0
11
98
21
102.882465
31
0
12
112
22
100.549132
32
0
13
112
23
100.549132
33
0
39
0
210
0
220
0
230
1
0
SOLID
5
173
100
AcDbEntity
8
0
62
256
6
ByLayer
370
-1
48
1
60
0
100
AcDbTrace
10
14
20
102.882465
30
0
11
14
21
98.215799
31
0
12
0
22
100.549132
32
0
13
0
23
100.549132
33
0
39
0
210
0
220
0
230
1
0
MTEXT
5
174
100
AcDbEntity
8
0
62
256
6
ByLayer
370
18
48
1
60
0
100
AcDbMText
10
56
20
128.549132
30
0
210
0
220
0
230
1
1
\A1;112
40
14
41
0
44
1
50
0
71
5
72
5
7
iso_b_vert
0
POINT
5
175
100
AcDbEntity
8
Defpoints
62
0
6
ByLayer
370
-1
48
1
60
0
100
AcDbPoint
10
112
20
75
30
0
39
0
210
0
220
0
230
1
50
360
0
POINT
5
176
100
AcDbEntity
8
Defpoints
62
0
6
ByLayer
370
-1
48
1
60
0
100
AcDbPoint
10
0
20
75
30
0
39
0
210
0
220
0
230
1
50
360
0
POINT
5
177
100
AcDbEntity
8
Defpoints
62
0
6
ByLayer
370
-1
48
1
60
0
100
AcDbPoint
10
0
20
100.549132
30
0
39
0
210
0
220
0
230
1
50
360
0
ENDBLK
5
16E
100
AcDbEntity
8
0
100
AcDbBlockEnd
0
BLOCK
5
181
100
AcDbEntity
8
0
100
AcDbBlockBegin
2
_U0
70
0
10
0
20
0
30
0
3
_U0
0
MTEXT
5
17A
100
AcDbEntity
8
SK2
62
256
6
ByLayer
370
18
48
1
60
0
100
AcDbMText
10
46.648669
20
104.679668
30
0
210
0
220
0
230
1
1
\W0.5903;112
40
14
41
0
44
1.084337
50
0
71
7
72
5
7
iso_b_vert
0
LINE
5
17C
100
AcDbEntity
8
SK2
62
256
6
ByLayer
370
35
48
1
60
0
100
AcDbLine
10
112
20
76.5875
30
0
11
112
21
110.549132
31
0
39
0
210
0
220
0
230
1
0
LINE
5
17D
100
AcDbEntity
8
SK2
62
256
6
ByLayer
370
35
48
1
60
0
100
AcDbLine
10
0
20
76.5875
30
0
11
0
21
110.549132
31
0
39
0
210
0
220
0
230
1
0
LINE
5
17E
100
AcDbEntity
8
SK2
62
256
6
ByLayer
370
35
48
1
60
0
100
AcDbLine
10
112
20
100.549132
30
0
11
0
21
100.549132
31
0
39
0
210
0
220
0
230
1
0
SOLID
5
17F
100
AcDbEntity
8
SK2
62
256
6
ByLayer
370
18
48
1
60
0
100
AcDbTrace
10
112
20
100.549132
30
0
11
98.000009
21
98.216382
31
0
12
97.999991
22
102.881882
32
0
13
97.999991
23
102.881882
33
0
39
0
210
0
220
0
230
1
0
SOLID
5
180
100
AcDbEntity
8
SK2
62
256
6
ByLayer
370
18
48
1
60
0
100
AcDbTrace
10
0
20
100.549132
30
0
11
13.999991
21
102.881882
31
0
12
14.000009
22
98.216382
32
0
13
14.000009
23
98.216382
33
0
39
0
210
0
220
0
230
1
0
ENDBLK
5
182
100
AcDbEntity
8
0
100
AcDbBlockEnd
0
BLOCK
5
187
100
AcDbEntity
8
0
100
AcDbBlockBegin
2
*D3
70
1
10
0
20
0
30
0
3
*D3
0
LINE
5
189
100
AcDbEntity
8
0
62
256
6
ByLayer
370
-2
48
1
60
0
100
AcDbLine
10
0
20
-1.5875
30
0
11
0
21
-226.5
31
0
39
0
210
0
220
0
230
1
0
LINE
5
18A
100
AcDbEntity
8
0
62
256
6
ByLayer
370
-2
48
1
60
0
100
AcDbLine
10
62
20
-118.5875
30
0
11
62
21
-226.5
31
0
39
0
210
0
220
0
230
1
0
LINE
5
18B
100
AcDbEntity
8
0
62
256
6
ByLayer
370
-2
48
1
60
0
100
AcDbLine
10
-14
20
-216.5
30
0
11
-28
21
-216.5
31
0
39
0
210
0
220
0
230
1
0
LINE
5
18C
100
AcDbEntity
8
0
62
256
6
ByLayer
370
-2
48
1
60
0
100
AcDbLine
10
76
20
-216.5
30
0
11
90
21
-216.5
31
0
39
0
210
0
220
0
230
1
0
SOLID
5
18D
100
AcDbEntity
8
0
62
256
6
ByLayer
370
-1
48
1
60
0
100
AcDbTrace
10
-14
20
-218.833333
30
0
11
-14
21
-214.166667
31
0
12
0
22
-216.5
32
0
13
0
23
-216.5
33
0
39
0
210
0
220
0
230
1
0
SOLID
5
18E
100
AcDbEntity
8
0
62
256
6
ByLayer
370
-1
48
1
60
0
100
AcDbTrace
10
76
20
-214.166667
30
0
11
76
21
-218.833333
31
0
12
62
22
-216.5
32
0
13
62
23
-216.5
33
0
39
0
210
0
220
0
230
1
0
MTEXT
5
18F
100
AcDbEntity
8
0
62
256
6
ByLayer
370
18
48
1
60
0
100
AcDbMText
10
31
20
-188.5
30
0
210
0
220
0
230
1
1
\A1;62
40
14
41
0
44
1
50
0
71
5
72
5
7
iso_b_vert
0
POINT
5
190
100
AcDbEntity
8
Defpoints
62
0
6
ByLayer
370
-1
48
1
60
0
100
AcDbPoint
10
0
20
0
30
0
39
0
210
0
220
0
230
1
50
360
0
POINT
5
191
100
AcDbEntity
8
Defpoints
62
0
6
ByLayer
370
-1
48
1
60
0
100
AcDbPoint
10
62
20
-117
30
0
39
0
210
0
220
0
230
1
50
360
0
POINT
5
192
100
AcDbEntity
8
Defpoints
62
0
6
ByLayer
370
-1
48
1
60
0
100
AcDbPoint
10
62
20
-216.5
30
0
39
0
210
0
220
0
230
1
50
360
0
ENDBLK
5
188
100
AcDbEntity
8
0
100
AcDbBlockEnd
0
BLOCK
5
19B
100
AcDbEntity
8
0
100
AcDbBlockBegin
2
_U1
70
0
10
0
20
0
30
0
3
_U1
0
MTEXT
5
195
100
AcDbEntity
8
2
62
256
6
ByLayer
370
18
48
1
60
0
100
AcDbMText
10
23.380135
20
-212.369464
30
0
210
0
220
0
230
1
1
\W0.6337;62
40
14
41
0
44
1.084337
50
0
71
7
72
5
7
iso_b_vert
0
LINE
5
196
100
AcDbEntity
8
2
62
256
6
ByLayer
370
35
48
1
60
0
100
AcDbLine
10
0
20
-1.5875
30
0
11
0
21
-226.5
31
0
39
0
210
0
220
0
230
1
0
LINE
5
197
100
AcDbEntity
8
2
62
256
6
ByLayer
370
35
48
1
60
0
100
AcDbLine
10
62
20
-118.5875
30
0
11
62
21
-226.5
31
0
39
0
210
0
220
0
230
1
0
LINE
5
198
100
AcDbEntity
8
2
62
256
6
ByLayer
370
35
48
1
60
0
100
AcDbLine
10
0
20
-216.5
30
0
11
62
21
-216.5
31
0
39
0
210
0
220
0
230
1
0
SOLID
5
199
100
AcDbEntity
8
2
62
256
6
ByLayer
370
18
48
1
60
0
100
AcDbTrace
10
0
20
-216.5
30
0
11
13.999991
21
-214.16725
31
0
12
14.000009
22
-218.83275
32
0
13
14.000009
23
-218.83275
33
0
39
0
210
0
220
0
230
1
0
SOLID
5
19A
100
AcDbEntity
8
2
62
256
6
ByLayer
370
18
48
1
60
0
100
AcDbTrace
10
62
20
-216.5
30
0
11
48.000009
21
-218.83275
31
0
12
47.999991
22
-214.16725
32
0
13
47.999991
23
-214.16725
33
0
39
0
210
0
220
0
230
1
0
ENDBLK
5
19C
100
AcDbEntity
8
0
100
AcDbBlockEnd
0
BLOCK
5
1A1
100
AcDbEntity
8
0
100
AcDbBlockBegin
2
*D5
70
1
10
0
20
0
30
0
3
*D5
0
LINE
5
1A3
100
AcDbEntity
8
0
62
256
6
ByLayer
370
-2
48
1
60
0
100
AcDbLine
10
22
20
-118.5875
30
0
11
22
21
-186.5
31
0
39
0
210
0
220
0
230
1
0
LINE
5
1A4
100
AcDbEntity
8
0
62
256
6
ByLayer
370
-2
48
1
60
0
100
AcDbLine
10
102
20
-118.5875
30
0
11
102
21
-186.5
31
0
39
0
210
0
220
0
230
1
0
LINE
5
1A5
100
AcDbEntity
8
0
62
256
6
ByLayer
370
-2
48
1
60
0
100
AcDbLine
10
36
20
-176.5
30
0
11
88
21
-176.5
31
0
39
0
210
0
220
0
230
1
0
SOLID
5
1A6
100
AcDbEntity
8
0
62
256
6
ByLayer
370
-1
48
1
60
0
100
AcDbTrace
10
36
20
-174.166667
30
0
11
36
21
-178.833333
31
0
12
22
22
-176.5
32
0
13
22
23
-176.5
33
0
39
0
210
0
220
0
230
1
0
SOLID
5
1A7
100
AcDbEntity
8
0
62
256
6
ByLayer
370
-1
48
1
60
0
100
AcDbTrace
10
88
20
-178.833333
30
0
11
88
21
-174.166667
31
0
12
102
22
-176.5
32
0
13
102
23
-176.5
33
0
39
0
210
0
220
0
230
1
0
MTEXT
5
1A8
100
AcDbEntity
8
0
62
256
6
ByLayer
370
18
48
1
60
0
100
AcDbMText
10
59.036266
20
-148.5
30
0
210
0
220
0
230
1
1
\A1;80
40
14
41
0
44
1
50
0
71
5
72
5
7
iso_b_vert
0
POINT
5
1A9
100
AcDbEntity
8
Defpoints
62
0
6
ByLayer
370
-1
48
1
60
0
100
AcDbPoint
10
22
20
-117
30
0
39
0
210
0
220
0
230
1
50
360
0
POINT
5
1AA
100
AcDbEntity
8
Defpoints
62
0
6
ByLayer
370
-1
48
1
60
0
100
AcDbPoint
10
102
20
-117
30
0
39
0
210
0
220
0
230
1
50
360
0
POINT
5
1AB
100
AcDbEntity
8
Defpoints
62
0
6
ByLayer
370
-1
48
1
60
0
100
AcDbPoint
10
102
20
-176.5
30
0
39
0
210
0
220
0
230
1
50
360
0
ENDBLK
5
1A2
100
AcDbEntity
8
0
100
AcDbBlockEnd
0
BLOCK
5
1B4
100
AcDbEntity
8
0
100
AcDbBlockBegin
2
_U2
70
0
10
0
20
0
30
0
3
_U2
0
MTEXT
5
1AD
100
AcDbEntity
8
2
62
256
6
ByLayer
370
18
48
1
60
0
100
AcDbMText
10
68.916401
20
-168.869464
30
0
210
0
220
0
230
1
1
\W0.6337;80
40
14
41
0
44
1.084337
50
0
71
7
72
5
7
iso_b_vert
0
MTEXT
5
1AE
100
AcDbEntity
8
2
62
256
6
ByLayer
370
18
48
1
60
0
100
AcDbMText
10
33.916401
20
-168.869464
30
0
210
0
220
0
230
1
1
%%c
40
14
41
0
44
1.084337
50
0
71
7
72
5
7
iso_b_vert
0
LINE
5
1AF
100
AcDbEntity
8
2
62
256
6
ByLayer
370
35
48
1
60
0
100
AcDbLine
10
22
20
-118.5875
30
0
11
22
21
-186.5
31
0
39
0
210
0
220
0
230
1
0
LINE
5
1B0
100
AcDbEntity
8
2
62
256
6
ByLayer
370
35
48
1
60
0
100
AcDbLine
10
102
20
-118.5875
30
0
11
102
21
-186.5
31
0
39
0
210
0
220
0
230
1
0
LINE
5
1B1
100
AcDbEntity
8
2
62
256
6
ByLayer
370
35
48
1
60
0
100
AcDbLine
10
22
20
-176.5
30
0
11
102
21
-176.5
31
0
39
0
210
0
220
0
230
1
0
SOLID
5
1B2
100
AcDbEntity
8
2
62
256
6
ByLayer
370
18
48
1
60
0
100
AcDbTrace
10
22
20
-176.5
30
0
11
35.999991
21
-174.16725
31
0
12
36.000009
22
-178.83275
32
0
13
36.000009
23
-178.83275
33
0
39
0
210
0
220
0
230
1
0
SOLID
5
1B3
100
AcDbEntity
8
2
62
256
6
ByLayer
370
18
48
1
60
0
100
AcDbTrace
10
102
20
-176.5
30
0
11
88.000009
21
-178.83275
31
0
12
87.999991
22
-174.16725
32
0
13
87.999991
23
-174.16725
33
0
39
0
210
0
220
0
230
1
0
ENDBLK
5
1B5
100
AcDbEntity
8
0
100
AcDbBlockEnd
0
BLOCK
5
1BA
100
AcDbEntity
8
0
100
AcDbBlockBegin
2
*D7
70
1
10
0
20
0
30
0
3
*D7
0
LINE
5
1BC
100
AcDbEntity
8
0
62
256
6
ByLayer
370
-2
48
1
60
0
100
AcDbLine
10
-1.5875
20
75
30
0
11
-65.335518
21
75
31
0
39
0
210
0
220
0
230
1
0
LINE
5
1BD
100
AcDbEntity
8
0
62
256
6
ByLayer
370
-2
48
1
60
0
100
AcDbLine
10
20.4125
20
-117
30
0
11
-65.335518
21
-117
31
0
39
0
210
0
220
0
230
1
0
LINE
5
1BE
100
AcDbEntity
8
0
62
256
6
ByLayer
370
-2
48
1
60
0
100
AcDbLine
10
-55.335518
20
61
30
0
11
-55.335518
21
-103
31
0
39
0
210
0
220
0
230
1
0
SOLID
5
1BF
100
AcDbEntity
8
0
62
256
6
ByLayer
370
-1
48
1
60
0
100
AcDbTrace
10
-53.002185
20
61
30
0
11
-57.668852
21
61
31
0
12
-55.335518
22
75
32
0
13
-55.335518
23
75
33
0
39
0
210
0
220
0
230
1
0
SOLID
5
1C0
100
AcDbEntity
8
0
62
256
6
ByLayer
370
-1
48
1
60
0
100
AcDbTrace
10
-57.668852
20
-103
30
0
11
-53.002185
21
-103
31
0
12
-55.335518
22
-117
32
0
13
-55.335518
23
-117
33
0
39
0
210
0
220
0
230
1
0
MTEXT
5
1C1
100
AcDbEntity
8
0
62
256
6
ByLayer
370
18
48
1
60
0
100
AcDbMText
10
-83.335518
20
-21
30
0
210
0
220
0
230
1
1
\A1;192
40
14
41
0
44
1
50
90
71
5
72
5
7
iso_b_vert
0
POINT
5
1C2
100
AcDbEntity
8
Defpoints
62
0
6
ByLayer
370
-1
48
1
60
0
100
AcDbPoint
10
0
20
75
30
0
39
0
210
0
220
0
230
1
50
360
0
POINT
5
1C3
100
AcDbEntity
8
Defpoints
62
0
6
ByLayer
370
-1
48
1
60
0
100
AcDbPoint
10
22
20
-117
30
0
39
0
210
0
220
0
230
1
50
360
0
POINT
5
1C4
100
AcDbEntity
8
Defpoints
62
0
6
ByLayer
370
-1
48
1
60
0
100
AcDbPoint
10
-55.335518
20
-117
30
0
39
0
210
0
220
0
230
1
50
360
0
ENDBLK
5
1BB
100
AcDbEntity
8
0
100
AcDbBlockEnd
0
BLOCK
5
1CC
100
AcDbEntity
8
0
100
AcDbBlockBegin
2
_U3
70
0
10
0
20
0
30
0
3
_U3
0
MTEXT
5
1C6
100
AcDbEntity
8
SK2
62
256
6
ByLayer
370
18
48
1
60
0
100
AcDbMText
10
-58.094054
20
-32.213064
30
0
210
0
220
0
230
1
1
\W0.6433;192
40
14
41
0
44
1.084337
50
90
71
7
72
5
7
iso_b_vert
0
LINE
5
1C7
100
AcDbEntity
8
SK2
62
256
6
ByLayer
370
35
48
1
60
0
100
AcDbLine
10
-1.5875
20
75
30
0
11
-65.335518
21
75
31
0
39
0
210
0
220
0
230
1
0
LINE
5
1C8
100
AcDbEntity
8
SK2
62
256
6
ByLayer
370
35
48
1
60
0
100
AcDbLine
10
20.4125
20
-117
30
0
11
-65.335518
21
-117
31
0
39
0
210
0
220
0
230
1
0
LINE
5
1C9
100
AcDbEntity
8
SK2
62
256
6
ByLayer
370
35
48
1
60
0
100
AcDbLine
10
-55.335518
20
75
30
0
11
-55.335518
21
-117
31
0
39
0
210
0
220
0
230
1
0
SOLID
5
1CA
100
AcDbEntity
8
SK2
62
256
6
ByLayer
370
18
48
1
60
0
100
AcDbTrace
10
-55.335518
20
75
30
0
11
-53.002768
21
61.000009
31
0
12
-57.668268
22
60.999991
32
0
13
-57.668268
23
60.999991
33
0
39
0
210
0
220
0
230
1
0
SOLID
5
1CB
100
AcDbEntity
8
SK2
62
256
6
ByLayer
370
18
48
1
60
0
100
AcDbTrace
10
-55.335518
20
-117
30
0
11
-57.668268
21
-103.000009
31
0
12
-53.002768
22
-102.999991
32
0
13
-53.002768
23
-102.999991
33
0
39
0
210
0
220
0
230
1
0
ENDBLK
5
1CD
100
AcDbEntity
8
0
100
AcDbBlockEnd
0
BLOCK
5
1D2
100
AcDbEntity
8
0
100
AcDbBlockBegin
2
*D9
70
1
10
0
20
0
30
0
3
*D9
0
LINE
5
1D4
100
AcDbEntity
8
0
62
256
6
ByLayer
370
-2
48
1
60
0
100
AcDbLine
10
-31.058511
20
0
30
0
11
162.107661
21
0
31
0
39
0
210
0
220
0
230
1
0
LINE
5
1D5
100
AcDbEntity
8
0
62
256
6
ByLayer
370
-2
48
1
60
0
100
AcDbLine
10
63.5875
20
-117
30
0
11
162.107661
21
-117
31
0
39
0
210
0
220
0
230
1
0
LINE
5
1D6
100
AcDbEntity
8
0
62
256
6
ByLayer
370
-2
48
1
60
0
100
AcDbLine
10
152.107661
20
-14
30
0
11
152.107661
21
-103
31
0
39
0
210
0
220
0
230
1
0
SOLID
5
1D7
100
AcDbEntity
8
0
62
256
6
ByLayer
370
-1
48
1
60
0
100
AcDbTrace
10
154.440994
20
-14
30
0
11
149.774328
21
-14
31
0
12
152.107661
22
0
32
0
13
152.107661
23
0
33
0
39
0
210
0
220
0
230
1
0
SOLID
5
1D8
100
AcDbEntity
8
0
62
256
6
ByLayer
370
-1
48
1
60
0
100
AcDbTrace
10
149.774328
20
-103
30
0
11
154.440994
21
-103
31
0
12
152.107661
22
-117
32
0
13
152.107661
23
-117
33
0
39
0
210
0
220
0
230
1
0
MTEXT
5
1D9
100
AcDbEntity
8
0
62
256
6
ByLayer
370
18
48
1
60
0
100
AcDbMText
10
124.107661
20
-58.5
30
0
210
0
220
0
230
1
1
\A1;117
40
14
41
0
44
1
50
90
71
5
72
5
7
iso_b_vert
0
POINT
5
1DA
100
AcDbEntity
8
Defpoints
62
0
6
ByLayer
370
-1
48
1
60
0
100
AcDbPoint
10
-32.646011
20
0
30
0
39
0
210
0
220
0
230
1
50
360
0
POINT
5
1DB
100
AcDbEntity
8
Defpoints
62
0
6
ByLayer
370
-1
48
1
60
0
100
AcDbPoint
10
62
20
-117
30
0
39
0
210
0
220
0
230
1
50
360
0
POINT
5
1DC
100
AcDbEntity
8
Defpoints
62
0
6
ByLayer
370
-1
48
1
60
0
100
AcDbPoint
10
152.107661
20
-117
30
0
39
0
210
0
220
0
230
1
50
360
0
ENDBLK
5
1D3
100
AcDbEntity
8
0
100
AcDbBlockEnd
0
BLOCK
5
1E4
100
AcDbEntity
8
0
100
AcDbBlockBegin
2
_U4
70
0
10
0
20
0
30
0
3
_U4
0
MTEXT
5
1DE
100
AcDbEntity
8
2
62
256
6
ByLayer
370
18
48
1
60
0
100
AcDbMText
10
149.349125
20
-67.963331
30
0
210
0
220
0
230
1
1
\W0.5903;117
40
14
41
0
44
1.084337
50
90
71
7
72
5
7
iso_b_vert
0
LINE
5
1DF
100
AcDbEntity
8
2
62
256
6
ByLayer
370
35
48
1
60
0
100
AcDbLine
10
1.5875
20
0
30
0
11
162.107661
21
0
31
0
39
0
210
0
220
0
230
1
0
LINE
5
1E0
100
AcDbEntity
8
2
62
256
6
ByLayer
370
35
48
1
60
0
100
AcDbLine
10
63.5875
20
-117
30
0
11
162.107661
21
-117
31
0
39
0
210
0
220
0
230
1
0
LINE
5
1E1
100
AcDbEntity
8
2
62
256
6
ByLayer
370
35
48
1
60
0
100
AcDbLine
10
152.107661
20
0
30
0
11
152.107661
21
-117
31
0
39
0
210
0
220
0
230
1
0
SOLID
5
1E2
100
AcDbEntity
8
2
62
256
6
ByLayer
370
18
48
1
60
0
100
AcDbTrace
10
152.107661
20
0
30
0
11
154.440411
21
-13.999991
31
0
12
149.774911
22
-14.000009
32
0
13
149.774911
23
-14.000009
33
0
39
0
210
0
220
0
230
1
0
SOLID
5
1E3
100
AcDbEntity
8
2
62
256
6
ByLayer
370
18
48
1
60
0
100
AcDbTrace
10
152.107661
20
-117
30
0
11
149.774911
21
-103.000009
31
0
12
154.440411
22
-102.999991
32
0
13
154.440411
23
-102.999991
33
0
39
0
210
0
220
0
230
1
0
ENDBLK
5
1E5
100
AcDbEntity
8
0
100
AcDbBlockEnd
0
ENDSEC
0
SECTION
2
ENTITIES
0
ARC
5
155
100
AcDbEntity
8
1
62
256
6
ByLayer
370
18
48
1
60
0
100
AcDbCircle
39
0
10
102
20
55
30
0
40
13
210
0
220
0
230
1
100
AcDbArc
50
39.715137
51
320.284863
0
ARC
5
156
100
AcDbEntity
8
1
62
256
6
ByLayer
370
18
48
1
60
0
100
AcDbCircle
39
0
10
102
20
-60
30
0
40
13
210
0
220
0
230
1
100
AcDbArc
50
39.715137
51
320.284863
0
ARC
5
157
100
AcDbEntity
8
1
62
256
6
ByLayer
370
18
48
1
60
0
100
AcDbCircle
39
0
10
102
20
0
30
0
40
13
210
0
220
0
230
1
100
AcDbArc
50
39.715137
51
320.284863
0
ARC
5
158
100
AcDbEntity
8
1
62
256
6
ByLayer
370
18
48
1
60
0
100
AcDbCircle
39
0
10
102.399932
20
-27.5
30
0
40
10
210
0
220
0
230
1
100
AcDbArc
50
343.741116
51
346.11346
0
ARC
5
159
100
AcDbEntity
8
1
62
256
6
ByLayer
370
18
48
1
60
0
100
AcDbCircle
39
0
10
102.399932
20
-27.5
30
0
40
10
210
0
220
0
230
1
100
AcDbArc
50
13.88654
51
16.258884
0
ARC
5
15A
100
AcDbEntity
8
SK1
62
256
6
ByLayer
370
18
48
1
60
0
100
AcDbCircle
39
0
10
-5.625
20
-34.175
30
0
40
0.824999999999989
210
0
220
0
230
1
100
AcDbArc
50
180
51
270
0
ARC
5
15B
100
AcDbEntity
8
SK1
62
256
6
ByLayer
370
18
48
1
60
0
100
AcDbCircle
39
0
10
-5.625
20
34.175
30
0
40
0.824999999999989
210
0
220
0
230
1
100
AcDbArc
50
90
51
180
0
ARC
5
15C
100
AcDbEntity
8
SK1
62
256
6
ByLayer
370
18
48
1
60
0
100
AcDbCircle
39
0
10
-4.925
20
-34.175
30
0
40
0.824999999999989
210
0
220
0
230
1
100
AcDbArc
50
270
51
0
0
ARC
5
15D
100
AcDbEntity
8
SK1
62
256
6
ByLayer
370
18
48
1
60
0
100
AcDbCircle
39
0
10
-4.925
20
34.175
30
0
40
0.824999999999989
210
0
220
0
230
1
100
AcDbArc
50
0
51
90
0
CIRCLE
5
153
100
AcDbEntity
8
1
62
256
6
ByLayer
370
18
48
1
60
0
100
AcDbCircle
10
53
20
-16.9
30
0
40
3.4
39
0
210
0
220
0
230
1
0
CIRCLE
5
154
100
AcDbEntity
8
1
62
256
6
ByLayer
370
18
48
1
60
0
100
AcDbCircle
10
53
20
-16.9
30
0
40
4
39
0
210
0
220
0
230
1
0
POINT
5
70
100
AcDbEntity
8
81
62
256
6
ByLayer
370
18
48
1
60
0
100
AcDbPoint
10
62
20
-117
30
0
39
0
210
0
220
0
230
1
50
360
0
POINT
5
72
100
AcDbEntity
8
80
62
256
6
ByLayer
370
18
48
1
60
0
100
AcDbPoint
10
0
20
0
30
0
39
0
210
0
220
0
230
1
50
360
0
POINT
5
74
100
AcDbEntity
8
1
62
256
6
ByLayer
370
13
48
1
60
1
100
AcDbPoint
10
461.895414
20
173.312342
30
0
39
0
210
0
220
0
230
1
50
360
0
POINT
5
76
100
AcDbEntity
8
1
62
256
6
ByLayer
370
13
48
1
60
1
100
AcDbPoint
10
461.895414
20
169.812342
30
0
39
0
210
0
220
0
230
1
50
360
0
POINT
5
77
100
AcDbEntity
8
1
62
256
6
ByLayer
370
13
48
1
60
1
100
AcDbPoint
10
517.834265
20
179.325084
30
0
39
0
210
0
220
0
230
1
50
360
0
POINT
5
78
100
AcDbEntity
8
1
62
256
6
ByLayer
370
13
48
1
60
1
100
AcDbPoint
10
517.834265
20
175.825084
30
0
39
0
210
0
220
0
230
1
50
360
0
POINT
5
79
100
AcDbEntity
8
1
62
256
6
ByLayer
370
13
48
1
60
1
100
AcDbPoint
10
411.57855
20
261.848249
30
0
39
0
210
0
220
0
230
1
50
360
0
POINT
5
7A
100
AcDbEntity
8
1
62
256
6
ByLayer
370
13
48
1
60
1
100
AcDbPoint
10
415.07855
20
261.848249
30
0
39
0
210
0
220
0
230
1
50
360
0
POINT
5
7B
100
AcDbEntity
8
1
62
256
6
ByLayer
370
13
48
1
60
1
100
AcDbPoint
10
380.748255
20
184.075951
30
0
39
0
210
0
220
0
230
1
50
360
0
POINT
5
7C
100
AcDbEntity
8
1
62
256
6
ByLayer
370
13
48
1
60
1
100
AcDbPoint
10
365.248255
20
184.075951
30
0
39
0
210
0
220
0
230
1
50
360
0
POINT
5
7D
100
AcDbEntity
8
1
62
256
6
ByLayer
370
13
48
1
60
1
100
AcDbPoint
10
353.657407
20
240.553676
30
0
39
0
210
0
220
0
230
1
50
360
0
POINT
5
7E
100
AcDbEntity
8
1
62
256
6
ByLayer
370
13
48
1
60
1
100
AcDbPoint
10
338.157407
20
240.553676
30
0
39
0
210
0
220
0
230
1
50
360
0
POINT
5
7F
100
AcDbEntity
8
1
62
256
6
ByLayer
370
13
48
1
60
1
100
AcDbPoint
10
435.859893
20
260.896276
30
0
39
0
210
0
220
0
230
1
50
360
0
POINT
5
80
100
AcDbEntity
8
1
62
256
6
ByLayer
370
13
48
1
60
1
100
AcDbPoint
10
439.559893
20
260.896276
30
0
39
0
210
0
220
0
230
1
50
360
0
POINT
5
81
100
AcDbEntity
8
1
62
256
6
ByLayer
370
13
48
1
60
1
100
AcDbPoint
10
431.559893
20
260.896276
30
0
39
0
210
0
220
0
230
1
50
360
0
POINT
5
82
100
AcDbEntity
8
1
62
256
6
ByLayer
370
13
48
1
60
1
100
AcDbPoint
10
447.559893
20
260.896276
30
0
39
0
210
0
220
0
230
1
50
360
0
POINT
5
83
100
AcDbEntity
8
1
62
256
6
ByLayer
370
13
48
1
60
1
100
AcDbPoint
10
338.049399
20
215.11658
30
0
39
0
210
0
220
0
230
1
50
360
0
POINT
5
84
100
AcDbEntity
8
1
62
256
6
ByLayer
370
13
48
1
60
1
100
AcDbPoint
10
338.049399
20
137.93158
30
0
39
0
210
0
220
0
230
1
50
360
0
POINT
5
85
100
AcDbEntity
8
1
62
256
6
ByLayer
370
13
48
1
60
1
100
AcDbPoint
10
423.149682
20
185.578232
30
0
39
0
210
0
220
0
230
1
50
360
0
POINT
5
86
100
AcDbEntity
8
1
62
256
6
ByLayer
370
13
48
1
60
1
100
AcDbPoint
10
330.749682
20
185.578232
30
0
39
0
210
0
220
0
230
1
50
360
0
POINT
5
87
100
AcDbEntity
8
1
62
256
6
ByLayer
370
13
48
1
60
1
100
AcDbPoint
10
423.149682
20
265.578232
30
0
39
0
210
0
220
0
230
1
50
360
0
POINT
5
88
100
AcDbEntity
8
1
62
256
6
ByLayer
370
13
48
1
60
1
100
AcDbPoint
10
330.749682
20
265.578232
30
0
39
0
210
0
220
0
230
1
50
360
0
POINT
5
89
100
AcDbEntity
8
1
62
256
6
ByLayer
370
13
48
1
60
1
100
AcDbPoint
10
346.715927
20
175.095304
30
0
39
0
210
0
220
0
230
1
50
360
0
POINT
5
8A
100
AcDbEntity
8
1
62
256
6
ByLayer
370
13
48
1
60
1
100
AcDbPoint
10
244.315927
20
175.095304
30
0
39
0
210
0
220
0
230
1
50
360
0
POINT
5
8B
100
AcDbEntity
8
1
62
256
6
ByLayer
370
13
48
1
60
1
100
AcDbPoint
10
346.715927
20
235.095304
30
0
39
0
210
0
220
0
230
1
50
360
0
POINT
5
8C
100
AcDbEntity
8
1
62
256
6
ByLayer
370
13
48
1
60
1
100
AcDbPoint
10
244.315927
20
235.095304
30
0
39
0
210
0
220
0
230
1
50
360
0
POINT
5
8D
100
AcDbEntity
8
1
62
256
6
ByLayer
370
13
48
1
60
1
100
AcDbPoint
10
346.715927
20
290.095304
30
0
39
0
210
0
220
0
230
1
50
360
0
POINT
5
8E
100
AcDbEntity
8
1
62
256
6
ByLayer
370
13
48
1
60
1
100
AcDbPoint
10
244.315927
20
290.095304
30
0
39
0
210
0
220
0
230
1
50
360
0
POINT
5
8F
100
AcDbEntity
8
1
62
256
6
ByLayer
370
13
48
1
60
1
100
AcDbPoint
10
367.883206
20
176.258957
30
0
39
0
210
0
220
0
230
1
50
360
0
POINT
5
90
100
AcDbEntity
8
1
62
256
6
ByLayer
370
13
48
1
60
1
100
AcDbPoint
10
265.483206
20
176.258957
30
0
39
0
210
0
220
0
230
1
50
360
0
POINT
5
91
100
AcDbEntity
8
1
62
256
6
ByLayer
370
13
48
1
60
1
100
AcDbPoint
10
367.883206
20
236.258957
30
0
39
0
210
0
220
0
230
1
50
360
0
POINT
5
92
100
AcDbEntity
8
1
62
256
6
ByLayer
370
13
48
1
60
1
100
AcDbPoint
10
265.483206
20
236.258957
30
0
39
0
210
0
220
0
230
1
50
360
0
POINT
5
93
100
AcDbEntity
8
1
62
256
6
ByLayer
370
13
48
1
60
1
100
AcDbPoint
10
367.883206
20
291.258957
30
0
39
0
210
0
220
0
230
1
50
360
0
POINT
5
94
100
AcDbEntity
8
1
62
256
6
ByLayer
370
13
48
1
60
1
100
AcDbPoint
10
265.483206
20
291.258957
30
0
39
0
210
0
220
0
230
1
50
360
0
SPLINE
5
15E
100
AcDbEntity
8
1
62
256
6
ByLayer
370
18
48
1
60
0
100
AcDbSpline
70
4
71
3
72
28
73
24
40
0
40
0
40
0
40
0
40
0.0499930000080247
40
0.0499930000080247
40
0.149981000004237
40
0.149981000004237
40
0.249972000005186
40
0.249972000005186
40
0.349966000000913
40
0.349966000000913
40
0.449963999996801
40
0.449963999996801
40
0.549963999992556
40
0.549963999992556
40
0.649966999993431
40
0.649966999993431
40
0.749971999994514
40
0.749971999994514
40
0.849980999995629
40
0.849980999995629
40
0.949992999992121
40
0.949992999992121
40
1
40
1
40
1
40
1
41
1
10
111.175
20
-116.5
30
0
41
1
10
111.183332333333
20
-116.491668
30
0
41
1
10
111.191664666667
20
-116.483336
30
0
41
1
10
111.216662000003
20
-116.458339666677
30
0
41
1
10
111.233326333333
20
-116.441674666667
30
0
41
1
10
111.266656166668
20
-116.408344833333
30
0
41
1
10
111.283321
20
-116.391679333333
30
0
41
1
10
111.316651499994
20
-116.358348166662
30
0
41
1
10
111.333317333333
20
-116.341682666667
30
0
41
1
10
111.366649333333
20
-116.308350666667
30
0
41
1
10
111.383315666667
20
-116.291684333333
30
0
41
1
10
111.416648666667
20
-116.258351333333
30
0
41
1
10
111.433315333333
20
-116.241684666667
30
0
41
1
10
111.466649166667
20
-116.208350833333
30
0
41
1
10
111.483316666667
20
-116.191684
30
0
41
1
10
111.51665166667
20
-116.15834966667
30
0
41
1
10
111.533318666667
20
-116.141681666667
30
0
41
1
10
111.566653999993
20
-116.10834566666
30
0
41
1
10
111.583322666667
20
-116.091678
30
0
41
1
10
111.616659833337
20
-116.058341500006
30
0
41
1
10
111.633328333333
20
-116.041672666667
30
0
41
1
10
111.658331500002
20
-116.016669499998
30
0
41
1
10
111.666665666667
20
-116.008334666667
30
0
41
1
10
111.675
20
-116
30
0
0
SPLINE
5
15F
100
AcDbEntity
8
1
62
256
6
ByLayer
370
18
48
1
60
0
100
AcDbSpline
70
4
71
3
72
28
73
24
40
0
40
0
40
0
40
0
40
0.0500070000075541
40
0.0500070000075541
40
0.150019000002713
40
0.150019000002713
40
0.250028000002836
40
0.250028000002836
40
0.350033000002757
40
0.350033000002757
40
0.450036000002811
40
0.450036000002811
40
0.550035999997745
40
0.550035999997745
40
0.650032999997644
40
0.650032999997644
40
0.750027999997549
40
0.750027999997549
40
0.850018999997506
40
0.850018999997506
40
0.950006999992556
40
0.950006999992556
40
1
40
1
40
1
40
1
41
1
10
12.325
20
-116
30
0
41
1
10
12.3333343333333
20
-116.008334666667
30
0
41
1
10
12.3416686666667
20
-116.016669333333
30
0
41
1
10
12.3666713333367
20
-116.04167299999
30
0
41
1
10
12.3833403333334
20
-116.058341333333
30
0
41
1
10
12.4166771666675
20
-116.091678166668
30
0
41
1
10
12.4333456666666
20
-116.108346
30
0
41
1
10
12.46668166666
20
-116.14168133334
30
0
41
1
10
12.4833486666667
20
-116.158349333333
30
0
41
1
10
12.5166830000034
20
-116.19168433333
30
0
41
1
10
12.5333506666667
20
-116.208351
30
0
41
1
10
12.5666848333275
20
-116.241684500004
30
0
41
1
10
12.5833513333333
20
-116.258351333333
30
0
41
1
10
12.6166841666675
20
-116.291684166667
30
0
41
1
10
12.63335
20
-116.308350666667
30
0
41
1
10
12.6666816666701
20
-116.341682999997
30
0
41
1
10
12.683348
20
-116.358348333333
30
0
41
1
10
12.7166793333267
20
-116.391679000007
30
0
41
1
10
12.733344
20
-116.408344666667
30
0
41
1
10
12.7666735000042
20
-116.441674833327
30
0
41
1
10
12.7833383333333
20
-116.458339333333
30
0
41
1
10
12.8083351666684
20
-116.483336166668
30
0
41
1
10
12.8166676666667
20
-116.491668
30
0
41
1
10
12.825
20
-116.5
30
0
0
SPLINE
5
160
100
AcDbEntity
8
SK3
62
256
6
ByLayer
370
18
48
0.05
60
0
100
AcDbSpline
70
4
71
3
72
294
73
290
40
0
40
0
40
0
40
0
40
0.0069444519273768
40
0.0069444519273768
40
0.0138889038547554
40
0.0138889038547554
40
0.0190972373205395
40
0.0190972373205395
40
0.0243055707863236
40
0.0243055707863236
40
0.0321180490660109
40
0.0321180490660109
40
0.0399305492646882
40
0.0399305492646882
40
0.0477430500094558
40
0.0477430500094558
40
0.0555555502081312
40
0.0555555502081312
40
0.0625000021355081
40
0.0625000021355081
40
0.0694444321438933
40
0.0694444321438933
40
0.0755208363460658
40
0.0755208363460658
40
0.081597218083149
40
0.081597218083149
40
0.086914052512668
40
0.086914052512668
40
0.0922308863961041
40
0.0922308863961041
40
0.101535374046496
40
0.101535374046496
40
0.110839839231795
40
0.110839839231795
40
0.117818177297796
40
0.117818177297796
40
0.124796537282788
40
0.124796537282788
40
0.130030313160875
40
0.130030313160875
40
0.135264066573853
40
0.135264066573853
40
0.14311470792586
40
0.14311470792586
40
0.150965349823998
40
0.150965349823998
40
0.158816013094996
40
0.158816013094996
40
0.166666654447002
40
0.166666654447002
40
0.173611085001475
40
0.173611085001475
40
0.180555537474935
40
0.180555537474935
40
0.186631919758112
40
0.186631919758112
40
0.192708323960278
40
0.192708323960278
40
0.198025158389787
40
0.198025158389787
40
0.203341992819298
40
0.203341992819298
40
0.212646459096844
40
0.212646459096844
40
0.221950924828237
40
0.221950924828237
40
0.228929285359348
40
0.228929285359348
40
0.235907645890456
40
0.235907645890456
40
0.241141399849545
40
0.241141399849545
40
0.246375175727623
40
0.246375175727623
40
0.254225817625751
40
0.254225817625751
40
0.262076459523878
40
0.262076459523878
40
0.269927101422004
40
0.269927101422004
40
0.27777774332013
40
0.27777774332013
40
0.284722195793584
40
0.284722195793584
40
0.291666648813202
40
0.291666648813202
40
0.29774303164255
40
0.29774303164255
40
0.30381941392572
40
0.30381941392572
40
0.309136248901401
40
0.309136248901401
40
0.314453105796068
40
0.314453105796068
40
0.323757572073606
40
0.323757572073606
40
0.333062038351143
40
0.333062038351143
40
0.340040377509457
40
0.340040377509457
40
0.347018738040562
40
0.347018738040562
40
0.352252514464848
40
0.352252514464848
40
0.357486268423937
40
0.357486268423937
40
0.365336910868259
40
0.365336910868259
40
0.373187553312579
40
0.373187553312579
40
0.381038217675887
40
0.381038217675887
40
0.388888859574014
40
0.388888859574014
40
0.395833291220878
40
0.395833291220878
40
0.402777744240499
40
0.402777744240499
40
0.408854127069851
40
0.408854127069851
40
0.41493051044546
40
0.41493051044546
40
0.420247367340132
40
0.420247367340132
40
0.425564202315816
40
0.425564202315816
40
0.434868669139568
40
0.434868669139568
40
0.444173135963322
40
0.444173135963322
40
0.451151497040632
40
0.451151497040632
40
0.45812983674522
40
0.45812983674522
40
0.463363613169509
40
0.463363613169509
40
0.468597367674812
40
0.468597367674812
40
0.476448032038129
40
0.476448032038129
40
0.484298675028713
40
0.484298675028713
40
0.492149318019297
40
0.492149318019297
40
0.499999960463626
40
0.499999960463626
40
0.506944414029484
40
0.506944414029484
40
0.513888845676355
40
0.513888845676355
40
0.519965250970955
40
0.519965250970955
40
0.526041634346571
40
0.526041634346571
40
0.531358469868519
40
0.531358469868519
40
0.536675304844202
40
0.536675304844202
40
0.545979772214209
40
0.545979772214209
40
0.555284262049509
40
0.555284262049509
40
0.562262601207827
40
0.562262601207827
40
0.569240962831395
40
0.569240962831395
40
0.574474717882993
40
0.574474717882993
40
0.579708494307281
40
0.579708494307281
40
0.587559137844175
40
0.587559137844175
40
0.595409780834754
40
0.595409780834754
40
0.603260424371648
40
0.603260424371648
40
0.611111067362225
40
0.611111067362225
40
0.618055521474379
40
0.618055521474379
40
0.624999975586534
40
0.624999975586534
40
0.631076358962146
40
0.631076358962146
40
0.637152742337759
40
0.637152742337759
40
0.642469578406061
40
0.642469578406061
40
0.647786413928009
40
0.647786413928009
40
0.657090903763312
40
0.657090903763312
40
0.666395371679629
40
0.666395371679629
40
0.673373711930551
40
0.673373711930551
40
0.680352073554123
40
0.680352073554123
40
0.685585828605724
40
0.685585828605724
40
0.690819605576309
40
0.690819605576309
40
0.698670249659579
40
0.698670249659579
40
0.706520893196472
40
0.706520893196472
40
0.714371536733363
40
0.714371536733363
40
0.722222180270255
40
0.722222180270255
40
0.729166634928779
40
0.729166634928779
40
0.73611108904093
40
0.73611108904093
40
0.742187472962877
40
0.742187472962877
40
0.748263856884827
40
0.748263856884827
40
0.753580692953128
40
0.753580692953128
40
0.758897550940414
40
0.758897550940414
40
0.768202019403094
40
0.768202019403094
40
0.777506487865773
40
0.777506487865773
40
0.784484828116697
40
0.784484828116697
40
0.791463190286607
40
0.791463190286607
40
0.796696945884605
40
0.796696945884605
40
0.801930722855196
40
0.801930722855196
40
0.809781366938472
40
0.809781366938472
40
0.817632011021749
40
0.817632011021749
40
0.825482655105026
40
0.825482655105026
40
0.833333321107288
40
0.833333321107288
40
0.840277754393279
40
0.840277754393279
40
0.847222209051814
40
0.847222209051814
40
0.853298592973771
40
0.853298592973771
40
0.859374977442143
40
0.859374977442143
40
0.864691813510454
40
0.864691813510454
40
0.870008671497749
40
0.870008671497749
40
0.879313140506854
40
0.879313140506854
40
0.888617609515957
40
0.888617609515957
40
0.895595950313294
40
0.895595950313294
40
0.902574313029613
40
0.902574313029613
40
0.907808068627615
40
0.907808068627615
40
0.913041846691081
40
0.913041846691081
40
0.920892490774364
40
0.920892490774364
40
0.928743135404083
40
0.928743135404083
40
0.936593780033803
40
0.936593780033803
40
0.944444424663523
40
0.944444424663523
40
0.951388879322061
40
0.951388879322061
40
0.958333334527038
40
0.958333334527038
40
0.963541670724274
40
0.963541670724274
40
0.968749984456053
40
0.968749984456053
40
0.976562488478654
40
0.976562488478654
40
0.984374992501258
40
0.984374992501258
40
0.992187496523859
40
0.992187496523859
40
1
40
1
40
1
40
1
41
1
10
35.608066
20
-69.6
30
0
41
1
10
35.6054366666667
20
-69.7055423333333
30
0
41
1
10
35.6028073333334
20
-69.8110846666667
30
0
41
1
10
35.5975486666667
20
-70.0221693333334
30
0
41
1
10
35.5949193333333
20
-70.1277116666667
30
0
41
1
10
35.5903180020748
20
-70.3124106667184
30
0
41
1
10
35.588346
20
-70.3915673333333
30
0
41
1
10
35.5844019999999
20
-70.5498806666667
30
0
41
1
10
35.58243
20
-70.6290373333334
30
0
41
1
10
35.5775000082991
20
-70.8269286668734
30
0
41
1
10
35.574542
20
-70.9456633333333
30
0
41
1
10
35.568625991701
20
-71.1831329997933
30
0
41
1
10
35.565668
20
-71.301868
30
0
41
1
10
35.5597519997932
20
-71.5393380082995
30
0
41
1
10
35.5567933333333
20
-71.658073
30
0
41
1
10
35.5508766668735
20
-71.8955429917005
30
0
41
1
10
35.547919
20
-72.014278
30
0
41
1
10
35.5423316639003
20
-72.2385553332644
30
0
41
1
10
35.5397023333334
20
-72.3440976666667
30
0
41
1
10
35.5344436749657
20
-72.5551820002067
30
0
41
1
10
35.5318143333333
20
-72.660724
30
0
41
1
10
35.5268843227527
20
-72.8586156747078
30
0
41
1
10
35.524583
20
-72.9509653333333
30
0
41
1
10
35.5199810085071
20
-73.1356643252405
30
0
41
1
10
35.5176806666666
20
-73.2280136666667
30
0
41
1
10
35.5133669165116
20
-73.4011686728914
30
0
41
1
10
35.5113533333334
20
-73.4819743333333
30
0
41
1
10
35.5073266668734
20
-73.6435856583673
30
0
41
1
10
35.5053140000001
20
-73.7243913333333
30
0
41
1
10
35.4997782392647
20
-73.9466073475988
30
0
41
1
10
35.4962543333333
20
-74.0880176666667
30
0
41
1
10
35.4892076751735
20
-74.3708379919071
30
0
41
1
10
35.4856850000001
20
-74.512248
30
0
41
1
10
35.479519754098
20
-74.7597153355116
30
0
41
1
10
35.4768773333333
20
-74.8657726666667
30
0
41
1
10
35.4715926583671
20
-75.0778876664599
30
0
41
1
10
35.4689503333333
20
-75.1839453333334
30
0
41
1
10
35.4643262477701
20
-75.3695463395067
30
0
41
1
10
35.462344
20
-75.4490896666667
30
0
41
1
10
35.4583800085074
20
-75.6081759919069
30
0
41
1
10
35.4563986666666
20
-75.687719
30
0
41
1
10
35.4514444957469
20
-75.886576670713
30
0
41
1
10
35.4484716666666
20
-76.0058913333334
30
0
41
1
10
35.4425263331265
20
-76.2445206749669
30
0
41
1
10
35.439553
20
-76.3638353333334
30
0
41
1
10
35.4336069919062
20
-76.6024649914931
30
0
41
1
10
35.4306346666667
20
-76.72178
30
0
41
1
10
35.424689341633
20
-76.9604096668734
30
0
41
1
10
35.4217166666667
20
-77.0797243333333
30
0
41
1
10
35.4161144725127
20
-77.3045810034677
30
0
41
1
10
35.4134846666667
20
-77.410123
30
0
41
1
10
35.4082253250332
20
-77.6212073331265
30
0
41
1
10
35.4055956666667
20
-77.7267496666667
30
0
41
1
10
35.4006650468284
20
-77.9246413345001
30
0
41
1
10
35.398364
20
-78.0169906666667
30
0
41
1
10
35.3937619916998
20
-78.2016896664598
30
0
41
1
10
35.391461
20
-78.2940393333333
30
0
41
1
10
35.3871466322885
20
-78.4671946658101
30
0
41
1
10
35.3851333333333
20
-78.5480003333333
30
0
41
1
10
35.3811066666667
20
-78.7096116666667
30
0
41
1
10
35.3790933333333
20
-78.7904173333334
30
0
41
1
10
35.3735566643849
20
-79.0126330082488
30
0
41
1
10
35.3700326666667
20
-79.154043
30
0
41
1
10
35.3629853335402
20
-79.4368629916995
30
0
41
1
10
35.3594623333333
20
-79.578273
30
0
41
1
10
35.3532964957466
20
-79.8257406707134
30
0
41
1
10
35.3506536666667
20
-79.9317983333333
30
0
41
1
10
35.3453683333333
20
-80.1439136666667
30
0
41
1
10
35.3427256666667
20
-80.2499713333333
30
0
41
1
10
35.3381010062254
20
-80.4355720001551
30
0
41
1
10
35.336119
20
-80.515115
30
0
41
1
10
35.3321549916994
20
-80.6742013331265
30
0
41
1
10
35.330173
20
-80.7537446666667
30
0
41
1
10
35.3252180083006
20
-80.9526026668735
30
0
41
1
10
35.322245
20
-81.0719173333333
30
0
41
1
10
35.316299
20
-81.3105466666667
30
0
41
1
10
35.313326
20
-81.4298613333333
30
0
41
1
10
35.30738
20
-81.6684906666667
30
0
41
1
10
35.304407
20
-81.7878053333334
30
0
41
1
10
35.298461
20
-82.0264346666667
30
0
41
1
10
35.295488
20
-82.1457493333333
30
0
41
1
10
35.2898851695388
20
-82.3706063292522
30
0
41
1
10
35.2872556666667
20
-82.4761486666667
30
0
41
1
10
35.2819963331265
20
-82.687233341634
30
0
41
1
10
35.279366
20
-82.7927756666667
30
0
41
1
10
35.2744347551365
20
-82.990667335538
30
0
41
1
10
35.2721333333333
20
-83.0830166666667
30
0
41
1
10
35.2675306668735
20
-83.2677153250325
30
0
41
1
10
35.26523
20
-83.3600646666667
30
0
41
1
10
35.260915624819
20
-83.5332196739299
30
0
41
1
10
35.2589016666667
20
-83.6140253333333
30
0
41
1
10
35.2548743250319
20
-83.7756369997932
30
0
41
1
10
35.2528606666667
20
-83.856443
30
0
41
1
10
35.2473230959407
20
-84.0786589940844
30
0
41
1
10
35.2437996666667
20
-84.220069
30
0
41
1
10
35.2367523333333
20
-84.502889
30
0
41
1
10
35.2332286666667
20
-84.644299
30
0
41
1
10
35.2270622539954
20
-84.8917663396627
30
0
41
1
10
35.224419
20
-84.9978236666667
30
0
41
1
10
35.2191329919052
20
-85.2099386581586
30
0
41
1
10
35.2164906666666
20
-85.3159963333333
30
0
41
1
10
35.211865997718
20
-85.5015973415829
30
0
41
1
10
35.2098833333333
20
-85.5811406666667
30
0
41
1
10
35.2059186751756
20
-85.7402269919056
30
0
41
1
10
35.203937
20
-85.81977
30
0
41
1
10
35.1989819956428
20
-86.0186276748643
30
0
41
1
10
35.1960083333333
20
-86.1379423333333
30
0
41
1
10
35.1900616666667
20
-86.3765716666667
30
0
41
1
10
35.1870883333334
20
-86.4958863333333
30
0
41
1
10
35.1811416583652
20
-86.7345159997931
30
0
41
1
10
35.1781683333334
20
-86.853831
30
0
41
1
10
35.1722216751751
20
-87.0924606585725
30
0
41
1
10
35.169249
20
-87.2117753333334
30
0
41
1
10
35.1636461774257
20
-87.436632012728
30
0
41
1
10
35.1610153333333
20
-87.542174
30
0
41
1
10
35.1557546585714
20
-87.7532583248248
30
0
41
1
10
35.153125
20
-87.8588006666667
30
0
41
1
10
35.1481937551364
20
-88.056692335538
30
0
41
1
10
35.1458923333333
20
-88.1490416666667
30
0
41
1
10
35.1412896664598
20
-88.3337403416354
30
0
41
1
10
35.1389876666667
20
-88.4260896666667
30
0
41
1
10
35.134672033545
20
-88.5992449925288
30
0
41
1
10
35.1326586666667
20
-88.680051
30
0
41
1
10
35.1286313416347
20
-88.8416626668736
30
0
41
1
10
35.1266176666667
20
-88.9224683333333
30
0
41
1
10
35.1210800812062
20
-89.1446840020237
30
0
41
1
10
35.117556
20
-89.286094
30
0
41
1
10
35.110508
20
-89.568914
30
0
41
1
10
35.1069839999999
20
-89.710324
30
0
41
1
10
35.1008169958492
20
-89.9577916665633
30
0
41
1
10
35.098174
20
-90.0638493333334
30
0
41
1
10
35.0928880080947
20
-90.2759643418424
30
0
41
1
10
35.0902443333333
20
-90.3820216666667
30
0
41
1
10
35.0856184918007
20
-90.5676223289752
30
0
41
1
10
35.0836363333334
20
-90.6471656666667
30
0
41
1
10
35.0796716749687
20
-90.8062520002069
30
0
41
1
10
35.0776893333334
20
-90.885795
30
0
41
1
10
35.0727334876505
20
-91.0846529955388
30
0
41
1
10
35.0697603333333
20
-91.203968
30
0
41
1
10
35.0638136747613
20
-91.4425976751756
30
0
41
1
10
35.0608396666667
20
-91.5619123333333
30
0
41
1
10
35.0548923333333
20
-91.8005416666667
30
0
41
1
10
35.0519186666667
20
-91.9198563333333
30
0
41
1
10
35.0459713335403
20
-92.1584856583647
30
0
41
1
10
35.0429983333333
20
-92.2778003333333
30
0
41
1
10
35.037394874451
20
-92.5026573385116
30
0
41
1
10
35.0347643333333
20
-92.6081996666667
30
0
41
1
10
35.0295036749689
20
-92.8192840002069
30
0
41
1
10
35.0268733333334
20
-92.924826
30
0
41
1
10
35.021941447878
20
-93.1227176695215
30
0
41
1
10
35.0196396666666
20
-93.2150673333333
30
0
41
1
10
35.015036341636
20
-93.3997663335403
30
0
41
1
10
35.0127346666667
20
-93.4921156666667
30
0
41
1
10
35.0084190416408
20
-93.6652706677045
30
0
41
1
10
35.006405
20
-93.7460763333333
30
0
41
1
10
35.0023770002069
20
-93.9076876583645
30
0
41
1
10
35.0003636666667
20
-93.9884933333333
30
0
41
1
10
34.9948260809994
20
-94.2107090103257
30
0
41
1
10
34.9913013333333
20
-94.352119
30
0
41
1
10
34.9842526581573
20
-94.6349393414292
30
0
41
1
10
34.9807276666667
20
-94.7763496666667
30
0
41
1
10
34.9745595106895
20
-95.0238173211384
30
0
41
1
10
34.971917
20
-95.1298746666667
30
0
41
1
10
34.9666309914915
20
-95.341989674762
30
0
41
1
10
34.9639873333334
20
-95.4480473333333
30
0
41
1
10
34.9593615061235
20
-95.6336480043068
30
0
41
1
10
34.9573786666667
20
-95.713191
30
0
41
1
10
34.9534133252369
20
-95.8722773248237
30
0
41
1
10
34.9514313333334
20
-95.9518206666667
30
0
41
1
10
34.9464755079916
20
-96.1506786793276
30
0
41
1
10
34.943501
20
-96.2699933333333
30
0
41
1
10
34.937553000207
20
-96.5086226583637
30
0
41
1
10
34.9345796666667
20
-96.6279373333333
30
0
41
1
10
34.9286323331264
20
-96.8665666749696
30
0
41
1
10
34.925658
20
-96.9858813333333
30
0
41
1
10
34.919710000207
20
-97.2245106583637
30
0
41
1
10
34.9167366666667
20
-97.3438253333333
30
0
41
1
10
34.9111325795699
20
-97.5686823394706
30
0
41
1
10
34.9085016666667
20
-97.6742246666667
30
0
41
1
10
34.9032403333333
20
-97.8853093333334
30
0
41
1
10
34.9006096666666
20
-97.9908516666667
30
0
41
1
10
34.8956771719597
20
-98.1887433293112
30
0
41
1
10
34.8933756666667
20
-98.2810926666667
30
0
41
1
10
34.8887723333334
20
-98.4657913333334
30
0
41
1
10
34.8864706666667
20
-98.5581406666667
30
0
41
1
10
34.8821550414338
20
-98.731295676008
30
0
41
1
10
34.8801403333333
20
-98.8121013333333
30
0
41
1
10
34.8761116668737
20
-98.9737126583632
30
0
41
1
10
34.8740980000001
20
-99.0545183333333
30
0
41
1
10
34.868559489518
20
-99.2767343372262
30
0
41
1
10
34.8650346666667
20
-99.4181446666667
30
0
41
1
10
34.8579853416365
20
-99.700965000207
30
0
41
1
10
34.8544606666666
20
-99.842375
30
0
41
1
10
34.8482925040481
20
-100.089842337589
30
0
41
1
10
34.8456486666667
20
-100.195899666667
30
0
41
1
10
34.8403613252365
20
-100.408014658157
30
0
41
1
10
34.8377183333333
20
-100.514072333333
30
0
41
1
10
34.8330925061236
20
-100.699673004307
30
0
41
1
10
34.8311096666667
20
-100.779216
30
0
41
1
10
34.82714432503
20
-100.938302333126
30
0
41
1
10
34.8251616666667
20
-101.017845666667
30
0
41
1
10
34.8202050080964
20
-101.216703675177
30
0
41
1
10
34.8172303333333
20
-101.336018333333
30
0
41
1
10
34.8112816668737
20
-101.574647658363
30
0
41
1
10
34.808308
20
-101.693962333333
30
0
41
1
10
34.80236
20
-101.932591666667
30
0
41
1
10
34.799386
20
-102.051906333333
30
0
41
1
10
34.793438
20
-102.290535666667
30
0
41
1
10
34.790464
20
-102.409850333333
30
0
41
1
10
34.7848592846889
20
-102.63470734043
30
0
41
1
10
34.782228
20
-102.740249666667
30
0
41
1
10
34.7769660002071
20
-102.95133432503
30
0
41
1
10
34.7743356666667
20
-103.056876666667
30
0
41
1
10
34.7694031717527
20
-103.254768337614
30
0
41
1
10
34.767101
20
-103.347117666667
30
0
41
1
10
34.762497
20
-103.531816333333
30
0
41
1
10
34.760195
20
-103.624165666667
30
0
41
1
10
34.7558787499483
20
-103.797320668743
30
0
41
1
10
34.7538643333333
20
-103.878126333333
30
0
41
1
10
34.7498356583624
20
-104.039737999793
30
0
41
1
10
34.7478213333333
20
-104.120544
30
0
41
1
10
34.7422819291747
20
-104.342759998234
30
0
41
1
10
34.738757
20
-104.48417
30
0
41
1
10
34.731707
20
-104.76699
30
0
41
1
10
34.728182
20
-104.9084
30
0
41
1
10
34.7220132542037
20
-105.155867331361
30
0
41
1
10
34.7193696666666
20
-105.261924666667
30
0
41
1
10
34.7140823250296
20
-105.47403966646
30
0
41
1
10
34.7114386666667
20
-105.580097333333
30
0
41
1
10
34.7068122560726
20
-105.765698006384
30
0
41
1
10
34.704829
20
-105.845241
30
0
41
1
10
34.7008629919022
20
-106.004327324822
30
0
41
1
10
34.6988806666667
20
-106.083870666667
30
0
41
1
10
34.6939240080963
20
-106.282728675177
30
0
41
1
10
34.6909493333333
20
-106.402043333333
30
0
41
1
10
34.6850006666667
20
-106.640672666667
30
0
41
1
10
34.6820263333333
20
-106.759987333333
30
0
41
1
10
34.6760776666667
20
-106.998616666667
30
0
41
1
10
34.6731033333334
20
-107.117931333333
30
0
41
1
10
34.6671546583624
20
-107.356560999793
30
0
41
1
10
34.6641803333334
20
-107.475876
30
0
41
1
10
34.6585750054579
20
-107.700733008446
30
0
41
1
10
34.6559433333334
20
-107.806275
30
0
41
1
10
34.6506806585684
20
-108.017359324821
30
0
41
1
10
34.6480500000001
20
-108.122901666667
30
0
41
1
10
34.6431168802678
20
-108.320793330349
30
0
41
1
10
34.640815
20
-108.413142666667
30
0
41
1
10
34.6362109997929
20
-108.597841341638
30
0
41
1
10
34.6339083333334
20
-108.690190666667
30
0
41
1
10
34.6295914584627
20
-108.863345661476
30
0
41
1
10
34.6275773333333
20
-108.944151333333
30
0
41
1
10
34.6235486583625
20
-109.105762999793
30
0
41
1
10
34.6215343333334
20
-109.186569
30
0
41
1
10
34.6159949289677
20
-109.408785006539
30
0
41
1
10
34.6124693333333
20
-109.550195
30
0
41
1
10
34.6054186666667
20
-109.833015
30
0
41
1
10
34.6018933333334
20
-109.974425
30
0
41
1
10
34.5957240041524
20
-110.221892333437
30
0
41
1
10
34.59308
20
-110.327949666667
30
0
41
1
10
34.5877919916952
20
-110.54006466646
30
0
41
1
10
34.585148
20
-110.646122333333
30
0
41
1
10
34.5805210062287
20
-110.831723000155
30
0
41
1
10
34.578538
20
-110.911266
30
0
41
1
10
34.5745719914881
20
-111.070352341432
30
0
41
1
10
34.5725883333333
20
-111.149895666667
30
0
41
1
10
34.5676300087204
20
-111.348753650263
30
0
41
1
10
34.5646563333334
20
-111.468068333333
30
0
41
1
10
34.5587076664597
20
-111.706697674971
30
0
41
1
10
34.5557326666666
20
-111.826012333333
30
0
41
1
10
34.5497833333333
20
-112.064641666667
30
0
41
1
10
34.5468086666667
20
-112.183956333333
30
0
41
1
10
34.5408593333333
20
-112.422585666667
30
0
41
1
10
34.5378846666667
20
-112.541900333333
30
0
41
1
10
34.5322786953409
20
-112.766757325738
30
0
41
1
10
34.529648
20
-112.872299666667
30
0
41
1
10
34.524385999793
20
-113.083384341638
30
0
41
1
10
34.5217543333333
20
-113.188926666667
30
0
41
1
10
34.5171495019728
20
-113.373625670871
30
0
41
1
10
34.5151756666666
20
-113.452782333333
30
0
41
1
10
34.5112283418465
20
-113.611095325235
30
0
41
1
10
34.5092553333333
20
-113.690251666667
30
0
41
1
10
34.504321987336
20
-113.888143007995
30
0
41
1
10
34.5013613333334
20
-114.006878
30
0
41
1
10
34.4954406666666
20
-114.244348
30
0
41
1
10
34.4924803333334
20
-114.363083
30
0
41
1
10
34.4865596666667
20
-114.600553
30
0
41
1
10
34.4835993333333
20
-114.719288
30
0
41
1
10
34.4776786668738
20
-114.956757991695
30
0
41
1
10
34.474719
20
-115.075493
30
0
41
1
10
34.471759
20
-115.194228
30
0
0
SPLINE
5
162
100
AcDbEntity
8
SK3
62
256
6
ByLayer
370
18
48
0.05
60
0
100
AcDbSpline
70
4
71
3
72
358
73
354
40
0
40
0
40
0
40
0
40
0.0069444558016551
40
0.0069444558016551
40
0.0138888902301832
40
0.0138888902301832
40
0.019097226192309
40
0.019097226192309
40
0.0243055627002653
40
0.0243055627002653
40
0.0321180674621969
40
0.0321180674621969
40
0.0399305503051138
40
0.0399305503051138
40
0.0477430550670453
40
0.0477430550670453
40
0.0555555592831323
40
0.0555555592831323
40
0.0624999931657733
40
0.0624999931657733
40
0.0694444489674255
40
0.0694444489674255
40
0.0755208338897969
40
0.0755208338897969
40
0.0815972188121676
40
0.0815972188121676
40
0.0869140558239293
40
0.0869140558239293
40
0.0922309147547053
40
0.0922309147547053
40
0.0968831496751843
40
0.0968831496751843
40
0.101535384595663
40
0.101535384595663
40
0.105606076042368
40
0.105606076042368
40
0.109676789953876
40
0.109676789953876
40
0.116800522586841
40
0.116800522586841
40
0.123924255219805
40
0.123924255219805
40
0.129267060174283
40
0.129267060174283
40
0.134609865128762
40
0.134609865128762
40
0.138616952132466
40
0.138616952132466
40
0.142624061055187
40
0.142624061055187
40
0.148634713752649
40
0.148634713752649
40
0.15464536645011
40
0.15464536645011
40
0.160656019147569
40
0.160656019147569
40
0.166666671845028
40
0.166666671845028
40
0.173611105181844
40
0.173611105181844
40
0.180555560437679
40
0.180555560437679
40
0.186631944814267
40
0.186631944814267
40
0.192708329190856
40
0.192708329190856
40
0.198025165656812
40
0.198025165656812
40
0.203342024041785
40
0.203342024041785
40
0.207994258416501
40
0.207994258416501
40
0.212646493336985
40
0.212646493336985
40
0.216717184783692
40
0.216717184783692
40
0.220787898149418
40
0.220787898149418
40
0.227911630236608
40
0.227911630236608
40
0.235035362323798
40
0.235035362323798
40
0.240378166732512
40
0.240378166732512
40
0.245720971141225
40
0.245720971141225
40
0.249728080063951
40
0.249728080063951
40
0.253735167067659
40
0.253735167067659
40
0.259745819219371
40
0.259745819219371
40
0.265756471371082
40
0.265756471371082
40
0.271767123522794
40
0.271767123522794
40
0.277777775674505
40
0.277777775674505
40
0.284722230384594
40
0.284722230384594
40
0.291666663175666
40
0.291666663175666
40
0.29774304700655
40
0.29774304700655
40
0.303819452756455
40
0.303819452756455
40
0.30913628867669
40
0.30913628867669
40
0.314453125142644
40
0.314453125142644
40
0.319105358971699
40
0.319105358971699
40
0.323757593346416
40
0.323757593346416
40
0.32782830671214
40
0.32782830671214
40
0.331898997613173
40
0.331898997613173
40
0.339022751073663
40
0.339022751073663
40
0.346146482615135
40
0.346146482615135
40
0.351489286478168
40
0.351489286478168
40
0.35683209088688
40
0.35683209088688
40
0.360839177344892
40
0.360839177344892
40
0.364846285721924
40
0.364846285721924
40
0.370856937327962
40
0.370856937327962
40
0.376867588934
40
0.376867588934
40
0.382878240540036
40
0.382878240540036
40
0.388888892691748
40
0.388888892691748
40
0.395833324391528
40
0.395833324391528
40
0.402777778555941
40
0.402777778555941
40
0.40885416238683
40
0.40885416238683
40
0.414930545672092
40
0.414930545672092
40
0.420247403511349
40
0.420247403511349
40
0.425564238885956
40
0.425564238885956
40
0.430216472715012
40
0.430216472715012
40
0.434868706544068
40
0.434868706544068
40
0.438939419364126
40
0.438939419364126
40
0.443010110265163
40
0.443010110265163
40
0.450133841260997
40
0.450133841260997
40
0.457257594175852
40
0.457257594175852
40
0.4626003974933
40
0.4626003974933
40
0.467943179437318
40
0.467943179437318
40
0.471950287814351
40
0.471950287814351
40
0.475957395645812
40
0.475957395645812
40
0.481968047251851
40
0.481968047251851
40
0.487978698312299
40
0.487978698312299
40
0.493989349372746
40
0.493989349372746
40
0.500000000433194
40
0.500000000433194
40
0.506944432132978
40
0.506944432132978
40
0.513888885751783
40
0.513888885751783
40
0.519965269037048
40
0.519965269037048
40
0.526041673695789
40
0.526041673695789
40
0.531358509070394
40
0.531358509070394
40
0.536675344444998
40
0.536675344444998
40
0.541327577728493
40
0.541327577728493
40
0.545979811011987
40
0.545979811011987
40
0.550050523832041
40
0.550050523832041
40
0.554121236106547
40
0.554121236106547
40
0.561244966556801
40
0.561244966556801
40
0.568368697007055
40
0.568368697007055
40
0.573711500324501
40
0.573711500324501
40
0.57905430309645
40
0.57905430309645
40
0.583061410927909
40
0.583061410927909
40
0.587068496840348
40
0.587068496840348
40
0.593079147900798
40
0.593079147900798
40
0.599089798415731
40
0.599089798415731
40
0.605100449476178
40
0.605100449476178
40
0.611111099991111
40
0.611111099991111
40
0.618055553064378
40
0.618055553064378
40
0.625000006137647
40
0.625000006137647
40
0.631076388877367
40
0.631076388877367
40
0.63715277107162
40
0.63715277107162
40
0.642469605900689
40
0.642469605900689
40
0.64778646264878
40
0.64778646264878
40
0.652438695932281
40
0.652438695932281
40
0.657090928670323
40
0.657090928670323
40
0.661161640944831
40
0.661161640944831
40
0.665232331300316
40
0.665232331300316
40
0.67235606120507
40
0.67235606120507
40
0.679479813028848
40
0.679479813028848
40
0.684822615800802
40
0.684822615800802
40
0.690165418572756
40
0.690165418572756
40
0.694172503939743
40
0.694172503939743
40
0.698179611771207
40
0.698179611771207
40
0.704190261740709
40
0.704190261740709
40
0.710200912255647
40
0.710200912255647
40
0.71621156222515
40
0.71621156222515
40
0.722222212740086
40
0.722222212740086
40
0.729166665267886
40
0.729166665267886
40
0.736111095876662
40
0.736111095876662
40
0.742187499989945
40
0.742187499989945
40
0.748263881638813
40
0.748263881638813
40
0.753580716467882
40
0.753580716467882
40
0.758897572670527
40
0.758897572670527
40
0.763549805408572
40
0.763549805408572
40
0.768202038146617
40
0.768202038146617
40
0.772272749875693
40
0.772272749875693
40
0.776343439685743
40
0.776343439685743
40
0.783467190964079
40
0.783467190964079
40
0.790590920323392
40
0.790590920323392
40
0.79593372254994
40
0.79593372254994
40
0.801276524776487
40
0.801276524776487
40
0.805283610143474
40
0.805283610143474
40
0.809290717429487
40
0.809290717429487
40
0.815301367398996
40
0.815301367398996
40
0.821312016823149
40
0.821312016823149
40
0.827322666792658
40
0.827322666792658
40
0.833333316762167
40
0.833333316762167
40
0.840277768744571
40
0.840277768744571
40
0.847222220181643
40
0.847222220181643
40
0.853298601830514
40
0.853298601830514
40
0.859374983479387
40
0.859374983479387
40
0.864691839682036
40
0.864691839682036
40
0.870008673420295
40
0.870008673420295
40
0.874660905612988
40
0.874660905612988
40
0.879313138351031
40
0.879313138351031
40
0.883383849534793
40
0.883383849534793
40
0.88745456126387
40
0.88745456126387
40
0.894578290077805
40
0.894578290077805
40
0.901702018891737
40
0.901702018891737
40
0.907044820572962
40
0.907044820572962
40
0.912387622254184
40
0.912387622254184
40
0.916394729540192
40
0.916394729540192
40
0.920401836280865
40
0.920401836280865
40
0.926412485705007
40
0.926412485705007
40
0.932423135129149
40
0.932423135129149
40
0.938433784553289
40
0.938433784553289
40
0.944444433432155
40
0.944444433432155
40
0.951388884869208
40
0.951388884869208
40
0.958333314387234
40
0.958333314387234
40
0.963541669540623
40
0.963541669540623
40
0.968750002229709
40
0.968750002229709
40
0.976562502081252
40
0.976562502081252
40
0.984375001387501
40
0.984375001387501
40
0.992187500693751
40
0.992187500693751
40
1
40
1
40
1
40
1
41
1
10
89.523535
20
-115.194228
30
0
41
1
10
89.5209066666667
20
-115.088685666667
30
0
41
1
10
89.5182783333333
20
-114.983143333333
30
0
41
1
10
89.5130216747559
20
-114.772058991497
30
0
41
1
10
89.5103926666667
20
-114.666517
30
0
41
1
10
89.5057924961615
20
-114.48181834588
30
0
41
1
10
89.503822
20
-114.402661666667
30
0
41
1
10
89.4998799997935
20
-114.244348325038
30
0
41
1
10
89.4979083333333
20
-114.165191666667
30
0
41
1
10
89.4929800000001
20
-113.9673
30
0
41
1
10
89.490023
20
-113.848565
30
0
41
1
10
89.4841090082963
20
-113.611095333127
30
0
41
1
10
89.481152
20
-113.492360666667
30
0
41
1
10
89.4752379917038
20
-113.254891000207
30
0
41
1
10
89.472281
20
-113.136156
30
0
41
1
10
89.4663670002067
20
-112.898686008296
30
0
41
1
10
89.4634106666667
20
-112.779951
30
0
41
1
10
89.4578258572674
20
-112.555673995254
30
0
41
1
10
89.4551973333333
20
-112.450132
30
0
41
1
10
89.4499406583707
20
-112.239047666873
30
0
41
1
10
89.4473123333333
20
-112.133505333333
30
0
41
1
10
89.4423842135957
20
-111.935613669649
30
0
41
1
10
89.4400846666667
20
-111.843264333333
30
0
41
1
10
89.4354853333334
20
-111.658565666667
30
0
41
1
10
89.4331856666666
20
-111.566216333333
30
0
41
1
10
89.4288737915892
20
-111.393061330222
30
0
41
1
10
89.4268613333333
20
-111.312255666667
30
0
41
1
10
89.4228366583708
20
-111.150644000207
30
0
41
1
10
89.4208243333333
20
-111.069838
30
0
41
1
10
89.4170512146328
20
-110.918327002956
30
0
41
1
10
89.4152906666666
20
-110.847622
30
0
41
1
10
89.4117693333333
20
-110.706212
30
0
41
1
10
89.4100086666667
20
-110.635507
30
0
41
1
10
89.4067074220062
20
-110.502935339425
30
0
41
1
10
89.4051673333334
20
-110.441068666667
30
0
41
1
10
89.4020866581661
20
-110.317334991912
30
0
41
1
10
89.4005456666667
20
-110.255468
30
0
41
1
10
89.3963088396583
20
-110.085334003993
30
0
41
1
10
89.393613
20
-109.977067
30
0
41
1
10
89.388221
20
-109.760533
30
0
41
1
10
89.385525
20
-109.652266
30
0
41
1
10
89.3808069979262
20
-109.462798666718
30
0
41
1
10
89.378785
20
-109.381598333333
30
0
41
1
10
89.3747409999999
20
-109.219197666667
30
0
41
1
10
89.372719
20
-109.137997333333
30
0
41
1
10
89.3691805063248
20
-108.995897003992
30
0
41
1
10
89.3676643333334
20
-108.934997
30
0
41
1
10
89.3646316583722
20
-108.813196666873
30
0
41
1
10
89.3631153333334
20
-108.752296333333
30
0
41
1
10
89.3593245040439
20
-108.600045662416
30
0
41
1
10
89.3570496666667
20
-108.508695333333
30
0
41
1
10
89.3525003333332
20
-108.325994666667
30
0
41
1
10
89.3502256666667
20
-108.234644333333
30
0
41
1
10
89.3456763333334
20
-108.051943666667
30
0
41
1
10
89.3434016666667
20
-107.960593333333
30
0
41
1
10
89.3388523333334
20
-107.777892666667
30
0
41
1
10
89.3365776666666
20
-107.686542333333
30
0
41
1
10
89.3316749541245
20
-107.489650001142
30
0
41
1
10
89.329047
20
-107.384108
30
0
41
1
10
89.3237909917052
20
-107.173023666873
30
0
41
1
10
89.321163
20
-107.067481333333
30
0
41
1
10
89.3162355052876
20
-106.869589670685
30
0
41
1
10
89.3139363333333
20
-106.777240333333
30
0
41
1
10
89.3093376666666
20
-106.592541666667
30
0
41
1
10
89.3070383333333
20
-106.500192333333
30
0
41
1
10
89.3027270832817
20
-106.32703733126
30
0
41
1
10
89.300715
20
-106.246231666667
30
0
41
1
10
89.2966909917054
20
-106.084620000206
30
0
41
1
10
89.294679
20
-106.003814
30
0
41
1
10
89.2909065063242
20
-105.852303003992
30
0
41
1
10
89.2891463333333
20
-105.781598
30
0
41
1
10
89.2856256664602
20
-105.640187991705
30
0
41
1
10
89.2838646666667
20
-105.569483
30
0
41
1
10
89.2805634220061
20
-105.436911339425
30
0
41
1
10
89.2790233333333
20
-105.375044666667
30
0
41
1
10
89.2759426583726
20
-105.251311000206
30
0
41
1
10
89.2744023333333
20
-105.189444
30
0
41
1
10
89.2701664228355
20
-105.019309997772
30
0
41
1
10
89.2674706666667
20
-104.911043
30
0
41
1
10
89.2620793333332
20
-104.694509
30
0
41
1
10
89.2593836666667
20
-104.586242
30
0
41
1
10
89.254666247978
20
-104.396774668792
30
0
41
1
10
89.2526446666667
20
-104.315574333333
30
0
41
1
10
89.2486013333333
20
-104.153173666667
30
0
41
1
10
89.2465796666667
20
-104.071973333333
30
0
41
1
10
89.2430417478749
20
-103.929872664645
30
0
41
1
10
89.2415253333333
20
-103.868972333333
30
0
41
1
10
89.2384926749611
20
-103.747171999793
30
0
41
1
10
89.2369763333333
20
-103.686272
30
0
41
1
10
89.2331854918089
20
-103.53402167102
30
0
41
1
10
89.2309113333334
20
-103.442671333333
30
0
41
1
10
89.2263626666666
20
-103.259970666667
30
0
41
1
10
89.2240883333333
20
-103.168620333333
30
0
41
1
10
89.2195396666668
20
-102.985919666667
30
0
41
1
10
89.2172653333333
20
-102.894569333333
30
0
41
1
10
89.2127166666667
20
-102.711868666667
30
0
41
1
10
89.2104423333333
20
-102.620518333333
30
0
41
1
10
89.2055403309168
20
-102.423625666727
30
0
41
1
10
89.2029126666667
20
-102.318083333333
30
0
41
1
10
89.1976573416271
20
-102.106998999794
30
0
41
1
10
89.1950296666667
20
-102.001457
30
0
41
1
10
89.1901027897223
20
-101.803565671902
30
0
41
1
10
89.187804
20
-101.711216333333
30
0
41
1
10
89.1832059917069
20
-101.52651733354
30
0
41
1
10
89.180907
20
-101.434167666667
30
0
41
1
10
89.1765963822306
20
-101.261012332116
30
0
41
1
10
89.1745846666666
20
-101.180206666667
30
0
41
1
10
89.1705613331269
20
-101.018595325039
30
0
41
1
10
89.168549
20
-100.937789666667
30
0
41
1
10
89.1647764992729
20
-100.786279012466
30
0
41
1
10
89.163017
20
-100.715574
30
0
41
1
10
89.1594969997934
20
-100.574163991707
30
0
41
1
10
89.1577363333333
20
-100.503459
30
0
41
1
10
89.1544357051975
20
-100.370886999041
30
0
41
1
10
89.1528953333333
20
-100.30902
30
0
41
1
10
89.1498146751672
20
-100.18528634142
30
0
41
1
10
89.148275
20
-100.123419666667
30
0
41
1
10
89.144039983209
20
-99.9532856587868
30
0
41
1
10
89.1413443333333
20
-99.8450183333333
30
0
41
1
10
89.13595367496
20
-99.6284839997935
30
0
41
1
10
89.1332583333333
20
-99.520217
30
0
41
1
10
89.1285414980299
20
-99.3307496708647
30
0
41
1
10
89.1265203333333
20
-99.2495493333333
30
0
41
1
10
89.1224776664604
20
-99.0871486583734
30
0
41
1
10
89.1204556666667
20
-99.0059483333334
30
0
41
1
10
89.1169177563754
20
-98.8638480060651
30
0
41
1
10
89.115402
20
-98.802948
30
0
41
1
10
89.1123699917074
20
-98.6811476668731
30
0
41
1
10
89.110854
20
-98.6202473333333
30
0
41
1
10
89.1070640041461
20
-98.4679966665635
30
0
41
1
10
89.10479
20
-98.3766463333334
30
0
41
1
10
89.100242
20
-98.1939456666667
30
0
41
1
10
89.097968
20
-98.1025953333334
30
0
41
1
10
89.09342
20
-97.9198946666667
30
0
41
1
10
89.0911459999999
20
-97.8285443333333
30
0
41
1
10
89.0865979997936
20
-97.6458436583735
30
0
41
1
10
89.0843233333333
20
-97.5544933333333
30
0
41
1
10
89.0794213396235
20
-97.3576010164392
30
0
41
1
10
89.076795
20
-97.252059
30
0
41
1
10
89.0715409915019
20
-97.0409746585808
30
0
41
1
10
89.0689133333333
20
-96.9354323333333
30
0
41
1
10
89.0639870884646
20
-96.7375406644644
30
0
41
1
10
89.0616879999999
20
-96.6451913333333
30
0
41
1
10
89.0570900002066
20
-96.4604926749591
30
0
41
1
10
89.0547916666666
20
-96.3681433333333
30
0
41
1
10
89.0504816581685
20
-96.1949879919139
30
0
41
1
10
89.0484696666667
20
-96.114182
30
0
41
1
10
89.0444463418329
20
-95.9525703414194
30
0
41
1
10
89.0424353333333
20
-95.8717646666667
30
0
41
1
10
89.0386640822452
20
-95.7202539979528
30
0
41
1
10
89.036904
20
-95.649549
30
0
41
1
10
89.033384
20
-95.508139
30
0
41
1
10
89.031624
20
-95.437434
30
0
41
1
10
89.0283239968904
20
-95.3048620000774
30
0
41
1
10
89.026784
20
-95.242995
30
0
41
1
10
89.0237040082922
20
-95.1192613331269
30
0
41
1
10
89.022164
20
-95.0573946666667
30
0
41
1
10
89.0179289917075
20
-94.8872610002064
30
0
41
1
10
89.015234
20
-94.778994
30
0
41
1
10
89.0098439917077
20
-94.5624596668731
30
0
41
1
10
89.007149
20
-94.4541923333333
30
0
41
1
10
89.002432754301
20
-94.2647246727823
30
0
41
1
10
89.000412
20
-94.1835243333333
30
0
41
1
10
88.9963700080849
20
-94.0211239915017
30
0
41
1
10
88.9943483333333
20
-93.939924
30
0
41
1
10
88.9908109917073
20
-93.7978236668731
30
0
41
1
10
88.989295
20
-93.7369233333334
30
0
41
1
10
88.9862630002064
20
-93.6151226749583
30
0
41
1
10
88.9847476666667
20
-93.5542223333333
30
0
41
1
10
88.9809585038358
20
-93.401971654126
30
0
41
1
10
88.978684
20
-93.3106213333333
30
0
41
1
10
88.9741360002062
20
-93.1279206749587
30
0
41
1
10
88.9718626666667
20
-93.0365703333333
30
0
41
1
10
88.9673153333333
20
-92.8538696666667
30
0
41
1
10
88.9650416666667
20
-92.7625193333334
30
0
41
1
10
88.9604943333333
20
-92.5798186666667
30
0
41
1
10
88.9582206666667
20
-92.4884683333333
30
0
41
1
10
88.9533201093826
20
-92.2915759972775
30
0
41
1
10
88.9506929999999
20
-92.186034
30
0
41
1
10
88.9454389917083
20
-91.974949666873
30
0
41
1
10
88.9428119999999
20
-91.8694073333334
30
0
41
1
10
88.9378863801566
20
-91.6715156655012
30
0
41
1
10
88.9355876666667
20
-91.5791663333333
30
0
41
1
10
88.9309903252479
20
-91.394467341831
30
0
41
1
10
88.9286923333333
20
-91.3021176666667
30
0
41
1
10
88.9243829654071
20
-91.1289623258979
30
0
41
1
10
88.9223713333334
20
-91.0481566666667
30
0
41
1
10
88.9183486666666
20
-90.8865453333334
30
0
41
1
10
88.9163373333334
20
-90.8057396666667
30
0
41
1
10
88.9125660824516
20
-90.6542290062443
30
0
41
1
10
88.9108066666666
20
-90.583524
30
0
41
1
10
88.9072873333333
20
-90.442114
30
0
41
1
10
88.9055276666667
20
-90.371409
30
0
41
1
10
88.9022282883771
20
-90.2388369928223
30
0
41
1
10
88.9006880000001
20
-90.17697
30
0
41
1
10
88.8976080002064
20
-90.0532360082913
30
0
41
1
10
88.8960686666666
20
-89.991369
30
0
41
1
10
88.8918345893964
20
-89.8212349936271
30
0
41
1
10
88.8891396666667
20
-89.712968
30
0
41
1
10
88.8837503333333
20
-89.496434
30
0
41
1
10
88.8810556666666
20
-89.388167
30
0
41
1
10
88.8763399979272
20
-89.1986996667183
30
0
41
1
10
88.8743190000001
20
-89.1174993333333
30
0
41
1
10
88.8702770002062
20
-88.9550986749572
30
0
41
1
10
88.8682566666667
20
-88.8738983333334
30
0
41
1
10
88.8647204978244
20
-88.7317976625731
30
0
41
1
10
88.8632046666667
20
-88.6708973333333
30
0
41
1
10
88.860173341624
20
-88.5490969997936
30
0
41
1
10
88.8586576666667
20
-88.488197
30
0
41
1
10
88.854868491606
20
-88.3359466627275
30
0
41
1
10
88.8525946666667
20
-88.2445963333333
30
0
41
1
10
88.8480473335397
20
-88.0618956749574
30
0
41
1
10
88.8457743333333
20
-87.9705453333333
30
0
41
1
10
88.8412276664604
20
-87.7878446583759
30
0
41
1
10
88.8389536666667
20
-87.6964943333333
30
0
41
1
10
88.8344063335397
20
-87.5137936749574
30
0
41
1
10
88.8321333333333
20
-87.4224433333333
30
0
41
1
10
88.8272334861786
20
-87.2255506628629
30
0
41
1
10
88.8246066666667
20
-87.1200083333333
30
0
41
1
10
88.8193533333333
20
-86.9089236666667
30
0
41
1
10
88.8167266666666
20
-86.8033813333334
30
0
41
1
10
88.8118016718483
20
-86.6054896665377
30
0
41
1
10
88.8095033333333
20
-86.5131403333334
30
0
41
1
10
88.804906666873
20
-86.3284416749567
30
0
41
1
10
88.802609
20
-86.2360923333333
30
0
41
1
10
88.7983002498453
20
-86.0629373271159
30
0
41
1
10
88.796289
20
-85.9821316666667
30
0
41
1
10
88.7922669917095
20
-85.8205200002063
30
0
41
1
10
88.7902560000001
20
-85.739714
30
0
41
1
10
88.7864853811921
20
-85.5882029988089
30
0
41
1
10
88.7847256666666
20
-85.517498
30
0
41
1
10
88.7812063335396
20
-85.3760880082899
30
0
41
1
10
88.7794473333334
20
-85.305383
30
0
41
1
10
88.7761485800702
20
-85.17281099386
30
0
41
1
10
88.7746086666667
20
-85.110944
30
0
41
1
10
88.7715293416238
20
-84.987210333127
30
0
41
1
10
88.7699896666667
20
-84.9253436666667
30
0
41
1
10
88.7657555750947
20
-84.7552100022789
30
0
41
1
10
88.7630613333334
20
-84.646943
30
0
41
1
10
88.7576726583765
20
-84.430408666873
30
0
41
1
10
88.7549783333333
20
-84.3221413333333
30
0
41
1
10
88.7502632541967
20
-84.132673668636
30
0
41
1
10
88.7482426666667
20
-84.0514733333333
30
0
41
1
10
88.7442013333332
20
-83.8890726666667
30
0
41
1
10
88.7421806666667
20
-83.8078723333333
30
0
41
1
10
88.7386445063205
20
-83.66577200399
30
0
41
1
10
88.7371293333334
20
-83.604872
30
0
41
1
10
88.7340986581714
20
-83.4830716585831
30
0
41
1
10
88.7325826666666
20
-83.4221713333334
30
0
41
1
10
88.7287935044549
20
-83.2699206789983
30
0
41
1
10
88.7265209999999
20
-83.1785703333333
30
0
41
1
10
88.7219749997939
20
-82.9958696583771
30
0
41
1
10
88.7197013333333
20
-82.9045193333334
30
0
41
1
10
88.7151546668729
20
-82.7218186749562
30
0
41
1
10
88.712882
20
-82.6304683333334
30
0
41
1
10
88.7083359997936
20
-82.4477676583771
30
0
41
1
10
88.7060623333334
20
-82.3564173333333
30
0
41
1
10
88.7011624863849
20
-82.159524671153
30
0
41
1
10
88.6985363333334
20
-82.0539823333334
30
0
41
1
10
88.6932836749563
20
-81.8428979997937
30
0
41
1
10
88.6906573333334
20
-81.737356
30
0
41
1
10
88.6857329479971
20
-81.5394643346274
30
0
41
1
10
88.683435
20
-81.4471146666667
30
0
41
1
10
88.6788390084957
20
-81.2624156747493
30
0
41
1
10
88.6765416666667
20
-81.1700663333334
30
0
41
1
10
88.6722335413315
20
-80.9969113198631
30
0
41
1
10
88.670222
20
-80.9161056666667
30
0
41
1
10
88.6661999919158
20
-80.7544940084961
30
0
41
1
10
88.6641896666666
20
-80.673688
30
0
41
1
10
88.6604196728834
20
-80.5221769998453
30
0
41
1
10
88.6586603333333
20
-80.451472
30
0
41
1
10
88.6551416666667
20
-80.310062
30
0
41
1
10
88.6533823333334
20
-80.239357
30
0
41
1
10
88.6500835802765
20
-80.1067850021496
30
0
41
1
10
88.6485443333333
20
-80.044918
30
0
41
1
10
88.6454656749553
20
-79.9211843331271
30
0
41
1
10
88.6439263333333
20
-79.8593176666667
30
0
41
1
10
88.6396931499862
20
-79.6891836629347
30
0
41
1
10
88.6369989999999
20
-79.5809163333333
30
0
41
1
10
88.6316110082892
20
-79.3643819997938
30
0
41
1
10
88.6289170000001
20
-79.256115
30
0
41
1
10
88.6242024980307
20
-79.0666476708627
30
0
41
1
10
88.6221823333333
20
-78.9854473333333
30
0
41
1
10
88.6181416666666
20
-78.8230466666667
30
0
41
1
10
88.6161213333334
20
-78.7418463333333
30
0
41
1
10
88.6125857561648
20
-78.5997459977731
30
0
41
1
10
88.6110703333333
20
-78.538846
30
0
41
1
10
88.6080396583778
20
-78.4170456668729
30
0
41
1
10
88.6065243333333
20
-78.3561453333333
30
0
41
1
10
88.6027360041445
20
-78.2038946665636
30
0
41
1
10
88.600463
20
-78.1125443333334
30
0
41
1
10
88.5959170002062
20
-77.929843674955
30
0
41
1
10
88.5936446666666
20
-77.8384933333333
30
0
41
1
10
88.5890993331271
20
-77.6557926583783
30
0
41
1
10
88.586826
20
-77.5644423333333
30
0
41
1
10
88.58228
20
-77.3817416666667
30
0
41
1
10
88.5800070000001
20
-77.2903913333334
30
0
41
1
10
88.5751078714721
20
-77.0934986698647
30
0
41
1
10
88.572482
20
-76.9879563333334
30
0
41
1
10
88.5672300002063
20
-76.7768716749547
30
0
41
1
10
88.5646046666667
20
-76.6713293333333
30
0
41
1
10
88.5596815467175
20
-76.4734376613579
30
0
41
1
10
88.5573836666667
20
-76.3810883333333
30
0
41
1
10
88.5527883333334
20
-76.1963896666667
30
0
41
1
10
88.5504906666667
20
-76.1040403333334
30
0
41
1
10
88.5461825332495
20
-75.9308849950258
30
0
41
1
10
88.5441716666667
20
-75.850079
30
0
41
1
10
88.5401503418286
20
-75.6884673414155
30
0
41
1
10
88.5381403333334
20
-75.6076616666667
30
0
41
1
10
88.5343709573231
20
-75.4561510010617
30
0
41
1
10
88.532612
20
-75.385446
30
0
41
1
10
88.5290939997936
20
-75.2440359917117
30
0
41
1
10
88.5273343333334
20
-75.173331
30
0
41
1
10
88.5240355804827
20
-75.0407590104373
30
0
41
1
10
88.522497
20
-74.978892
30
0
41
1
10
88.5194189997939
20
-74.8551579917122
30
0
41
1
10
88.5178793333333
20
-74.793291
30
0
41
1
10
88.5136461729863
20
-74.6231570039895
30
0
41
1
10
88.5109526666667
20
-74.51489
30
0
41
1
10
88.5055653333333
20
-74.298356
30
0
41
1
10
88.5028716666666
20
-74.190089
30
0
41
1
10
88.4981577480825
20
-74.000621672934
30
0
41
1
10
88.496138
20
-73.9194213333334
30
0
41
1
10
88.492098
20
-73.7570206666667
30
0
41
1
10
88.490078
20
-73.6758203333333
30
0
41
1
10
88.4865429977221
20
-73.5337196584302
30
0
41
1
10
88.4850273333333
20
-73.4728193333333
30
0
41
1
10
88.4819966668728
20
-73.3510186749547
30
0
41
1
10
88.480482
20
-73.2901183333333
30
0
41
1
10
88.4766945040407
20
-73.1378676624199
30
0
41
1
10
88.4744216666667
20
-73.0465173333334
30
0
41
1
10
88.4698763333333
20
-72.8638166666667
30
0
41
1
10
88.4676036666667
20
-72.7724663333333
30
0
41
1
10
88.4630583333333
20
-72.5897656666667
30
0
41
1
10
88.4607856666666
20
-72.4984153333334
30
0
41
1
10
88.4562403335395
20
-72.3157146749538
30
0
41
1
10
88.4539683333334
20
-72.2243643333333
30
0
41
1
10
88.4490706414405
20
-72.0274716590021
30
0
41
1
10
88.4464446666667
20
-71.9219293333333
30
0
41
1
10
88.4411933416208
20
-71.7108449997938
30
0
41
1
10
88.4385676666667
20
-71.605303
30
0
41
1
10
88.4339727375172
20
-71.4206039982373
30
0
41
1
10
88.4320033333334
20
-71.341447
30
0
41
1
10
88.4280646751607
20
-71.1831333414143
30
0
41
1
10
88.426096
20
-71.1039766666667
30
0
41
1
10
88.4211734996906
20
-70.9060849875693
30
0
41
1
10
88.418219
20
-70.78735
30
0
41
1
10
88.4123110002061
20
-70.5498800082874
30
0
41
1
10
88.4093576666666
20
-70.431145
30
0
41
1
10
88.4034503333334
20
-70.193675
30
0
41
1
10
88.4004966666667
20
-70.07494
30
0
41
1
10
88.3945893333333
20
-69.83747
30
0
41
1
10
88.3916356666667
20
-69.718735
30
0
41
1
10
88.388682
20
-69.6
30
0
0
LINE
5
95
100
AcDbEntity
8
80
62
256
6
ByLayer
370
50
48
1
60
0
100
AcDbLine
10
0
20
0
30
0
11
-32.646011
21
0
31
0
39
0
210
0
220
0
230
1
0
LINE
5
96
100
AcDbEntity
8
81
62
256
6
ByLayer
370
50
48
1
60
0
100
AcDbLine
10
62
20
-136.5
30
0
11
62
21
-117
31
0
39
0
210
0
220
0
230
1
0
LINE
5
97
100
AcDbEntity
8
4
62
256
6
ByLayer
370
18
48
0.05
60
0
100
AcDbLine
10
0
20
0
30
0
11
22
21
0
31
0
39
0
210
0
220
0
230
1
0
LINE
5
99
100
AcDbEntity
8
4
62
256
6
ByLayer
370
35
48
0.05
60
0
100
AcDbLine
10
62
20
-118.5
30
0
11
62
21
-71.5
31
0
39
0
210
0
220
0
230
1
0
LINE
5
9A
100
AcDbEntity
8
1
62
256
6
ByLayer
370
18
48
1
60
1
100
AcDbLine
10
0
20
0
30
0
11
0
21
420
31
0
39
0
210
0
220
0
230
1
0
LINE
5
9B
100
AcDbEntity
8
1
62
256
6
ByLayer
370
18
48
1
60
1
100
AcDbLine
10
594
20
420
30
0
11
0
21
420
31
0
39
0
210
0
220
0
230
1
0
LINE
5
9C
100
AcDbEntity
8
1
62
256
6
ByLayer
370
18
48
1
60
1
100
AcDbLine
10
594
20
420
30
0
11
594
21
0
31
0
39
0
210
0
220
0
230
1
0
LINE
5
9D
100
AcDbEntity
8
1
62
256
6
ByLayer
370
18
48
1
60
1
100
AcDbLine
10
0
20
0
30
0
11
594
21
0
31
0
39
0
210
0
220
0
230
1
0
LINE
5
9E
100
AcDbEntity
8
1
62
256
6
ByLayer
370
18
48
1
60
1
100
AcDbLine
10
0
20
0
30
0
11
0
21
420
31
0
39
0
210
0
220
0
230
1
0
LINE
5
9F
100
AcDbEntity
8
1
62
256
6
ByLayer
370
18
48
1
60
1
100
AcDbLine
10
594
20
420
30
0
11
0
21
420
31
0
39
0
210
0
220
0
230
1
0
LINE
5
A0
100
AcDbEntity
8
1
62
256
6
ByLayer
370
18
48
1
60
1
100
AcDbLine
10
594
20
420
30
0
11
594
21
0
31
0
39
0
210
0
220
0
230
1
0
LINE
5
A1
100
AcDbEntity
8
1
62
256
6
ByLayer
370
18
48
1
60
1
100
AcDbLine
10
0
20
0
30
0
11
594
21
0
31
0
39
0
210
0
220
0
230
1
0
LINE
5
A2
100
AcDbEntity
8
1
62
256
6
ByLayer
370
18
48
1
60
1
100
AcDbLine
10
0
20
0
30
0
11
0
21
420
31
0
39
0
210
0
220
0
230
1
0
LINE
5
A3
100
AcDbEntity
8
1
62
256
6
ByLayer
370
18
48
1
60
1
100
AcDbLine
10
594
20
420
30
0
11
0
21
420
31
0
39
0
210
0
220
0
230
1
0
LINE
5
A4
100
AcDbEntity
8
1
62
256
6
ByLayer
370
18
48
1
60
1
100
AcDbLine
10
594
20
420
30
0
11
594
21
0
31
0
39
0
210
0
220
0
230
1
0
LINE
5
A5
100
AcDbEntity
8
1
62
256
6
ByLayer
370
18
48
1
60
1
100
AcDbLine
10
0
20
0
30
0
11
594
21
0
31
0
39
0
210
0
220
0
230
1
0
LINE
5
A6
100
AcDbEntity
8
1
62
256
6
ByLayer
370
18
48
1
60
1
100
AcDbLine
10
0
20
0
30
0
11
0
21
420
31
0
39
0
210
0
220
0
230
1
0
LINE
5
A7
100
AcDbEntity
8
1
62
256
6
ByLayer
370
18
48
1
60
1
100
AcDbLine
10
594
20
420
30
0
11
0
21
420
31
0
39
0
210
0
220
0
230
1
0
LINE
5
A8
100
AcDbEntity
8
1
62
256
6
ByLayer
370
18
48
1
60
1
100
AcDbLine
10
594
20
420
30
0
11
594
21
0
31
0
39
0
210
0
220
0
230
1
0
LINE
5
A9
100
AcDbEntity
8
1
62
256
6
ByLayer
370
18
48
1
60
1
100
AcDbLine
10
0
20
0
30
0
11
594
21
0
31
0
39
0
210
0
220
0
230
1
0
LINE
5
AA
100
AcDbEntity
8
1
62
256
6
ByLayer
370
18
48
1
60
1
100
AcDbLine
10
0
20
0
30
0
11
0
21
420
31
0
39
0
210
0
220
0
230
1
0
LINE
5
AB
100
AcDbEntity
8
1
62
256
6
ByLayer
370
18
48
1
60
1
100
AcDbLine
10
594
20
420
30
0
11
0
21
420
31
0
39
0
210
0
220
0
230
1
0
LINE
5
AC
100
AcDbEntity
8
1
62
256
6
ByLayer
370
18
48
1
60
1
100
AcDbLine
10
594
20
420
30
0
11
594
21
0
31
0
39
0
210
0
220
0
230
1
0
LINE
5
AD
100
AcDbEntity
8
1
62
256
6
ByLayer
370
18
48
1
60
1
100
AcDbLine
10
0
20
0
30
0
11
594
21
0
31
0
39
0
210
0
220
0
230
1
0
LINE
5
AE
100
AcDbEntity
8
1
62
256
6
ByLayer
370
18
48
1
60
1
100
AcDbLine
10
0
20
0
30
0
11
0
21
420
31
0
39
0
210
0
220
0
230
1
0
LINE
5
AF
100
AcDbEntity
8
1
62
256
6
ByLayer
370
18
48
1
60
1
100
AcDbLine
10
594
20
420
30
0
11
0
21
420
31
0
39
0
210
0
220
0
230
1
0
LINE
5
B0
100
AcDbEntity
8
1
62
256
6
ByLayer
370
18
48
1
60
1
100
AcDbLine
10
594
20
420
30
0
11
594
21
0
31
0
39
0
210
0
220
0
230
1
0
LINE
5
B1
100
AcDbEntity
8
1
62
256
6
ByLayer
370
18
48
1
60
1
100
AcDbLine
10
0
20
0
30
0
11
594
21
0
31
0
39
0
210
0
220
0
230
1
0
LINE
5
B2
100
AcDbEntity
8
1
62
256
6
ByLayer
370
18
48
1
60
1
100
AcDbLine
10
0
20
0
30
0
11
0
21
420
31
0
39
0
210
0
220
0
230
1
0
LINE
5
B3
100
AcDbEntity
8
1
62
256
6
ByLayer
370
18
48
1
60
1
100
AcDbLine
10
594
20
420
30
0
11
0
21
420
31
0
39
0
210
0
220
0
230
1
0
LINE
5
B4
100
AcDbEntity
8
1
62
256
6
ByLayer
370
18
48
1
60
1
100
AcDbLine
10
594
20
420
30
0
11
594
21
0
31
0
39
0
210
0
220
0
230
1
0
LINE
5
B5
100
AcDbEntity
8
1
62
256
6
ByLayer
370
18
48
1
60
1
100
AcDbLine
10
0
20
0
30
0
11
594
21
0
31
0
39
0
210
0
220
0
230
1
0
LINE
5
B6
100
AcDbEntity
8
1
62
256
6
ByLayer
370
18
48
1
60
1
100
AcDbLine
10
0
20
0
30
0
11
0
21
420
31
0
39
0
210
0
220
0
230
1
0
LINE
5
B7
100
AcDbEntity
8
1
62
256
6
ByLayer
370
18
48
1
60
1
100
AcDbLine
10
594
20
420
30
0
11
0
21
420
31
0
39
0
210
0
220
0
230
1
0
LINE
5
B8
100
AcDbEntity
8
1
62
256
6
ByLayer
370
18
48
1
60
1
100
AcDbLine
10
594
20
420
30
0
11
594
21
0
31
0
39
0
210
0
220
0
230
1
0
LINE
5
B9
100
AcDbEntity
8
1
62
256
6
ByLayer
370
18
48
1
60
1
100
AcDbLine
10
0
20
0
30
0
11
594
21
0
31
0
39
0
210
0
220
0
230
1
0
LINE
5
BA
100
AcDbEntity
8
1
62
256
6
ByLayer
370
18
48
1
60
1
100
AcDbLine
10
0
20
0
30
0
11
0
21
420
31
0
39
0
210
0
220
0
230
1
0
LINE
5
BB
100
AcDbEntity
8
1
62
256
6
ByLayer
370
18
48
1
60
1
100
AcDbLine
10
594
20
420
30
0
11
0
21
420
31
0
39
0
210
0
220
0
230
1
0
LINE
5
BC
100
AcDbEntity
8
1
62
256
6
ByLayer
370
18
48
1
60
1
100
AcDbLine
10
594
20
420
30
0
11
594
21
0
31
0
39
0
210
0
220
0
230
1
0
LINE
5
BD
100
AcDbEntity
8
1
62
256
6
ByLayer
370
18
48
1
60
1
100
AcDbLine
10
0
20
0
30
0
11
594
21
0
31
0
39
0
210
0
220
0
230
1
0
LINE
5
BE
100
AcDbEntity
8
1
62
256
6
ByLayer
370
18
48
1
60
1
100
AcDbLine
10
0
20
0
30
0
11
0
21
420
31
0
39
0
210
0
220
0
230
1
0
LINE
5
BF
100
AcDbEntity
8
1
62
256
6
ByLayer
370
18
48
1
60
1
100
AcDbLine
10
594
20
420
30
0
11
0
21
420
31
0
39
0
210
0
220
0
230
1
0
LINE
5
C0
100
AcDbEntity
8
1
62
256
6
ByLayer
370
18
48
1
60
1
100
AcDbLine
10
594
20
420
30
0
11
594
21
0
31
0
39
0
210
0
220
0
230
1
0
LINE
5
C1
100
AcDbEntity
8
1
62
256
6
ByLayer
370
18
48
1
60
1
100
AcDbLine
10
0
20
0
30
0
11
594
21
0
31
0
39
0
210
0
220
0
230
1
0
LINE
5
C2
100
AcDbEntity
8
1
62
256
6
ByLayer
370
18
48
1
60
1
100
AcDbLine
10
0
20
0
30
0
11
0
21
420
31
0
39
0
210
0
220
0
230
1
0
LINE
5
C3
100
AcDbEntity
8
1
62
256
6
ByLayer
370
18
48
1
60
1
100
AcDbLine
10
594
20
420
30
0
11
0
21
420
31
0
39
0
210
0
220
0
230
1
0
LINE
5
C4
100
AcDbEntity
8
1
62
256
6
ByLayer
370
18
48
1
60
1
100
AcDbLine
10
594
20
420
30
0
11
594
21
0
31
0
39
0
210
0
220
0
230
1
0
LINE
5
C5
100
AcDbEntity
8
1
62
256
6
ByLayer
370
18
48
1
60
1
100
AcDbLine
10
0
20
0
30
0
11
594
21
0
31
0
39
0
210
0
220
0
230
1
0
LINE
5
C6
100
AcDbEntity
8
1
62
256
6
ByLayer
370
18
48
1
60
1
100
AcDbLine
10
0
20
0
30
0
11
0
21
420
31
0
39
0
210
0
220
0
230
1
0
LINE
5
C7
100
AcDbEntity
8
1
62
256
6
ByLayer
370
18
48
1
60
1
100
AcDbLine
10
594
20
420
30
0
11
0
21
420
31
0
39
0
210
0
220
0
230
1
0
LINE
5
C8
100
AcDbEntity
8
1
62
256
6
ByLayer
370
18
48
1
60
1
100
AcDbLine
10
594
20
420
30
0
11
594
21
0
31
0
39
0
210
0
220
0
230
1
0
LINE
5
C9
100
AcDbEntity
8
1
62
256
6
ByLayer
370
18
48
1
60
1
100
AcDbLine
10
0
20
0
30
0
11
594
21
0
31
0
39
0
210
0
220
0
230
1
0
LINE
5
CA
100
AcDbEntity
8
1
62
256
6
ByLayer
370
18
48
1
60
1
100
AcDbLine
10
0
20
0
30
0
11
0
21
420
31
0
39
0
210
0
220
0
230
1
0
LINE
5
CB
100
AcDbEntity
8
1
62
256
6
ByLayer
370
18
48
1
60
1
100
AcDbLine
10
594
20
420
30
0
11
0
21
420
31
0
39
0
210
0
220
0
230
1
0
LINE
5
CC
100
AcDbEntity
8
1
62
256
6
ByLayer
370
18
48
1
60
1
100
AcDbLine
10
594
20
420
30
0
11
594
21
0
31
0
39
0
210
0
220
0
230
1
0
LINE
5
CD
100
AcDbEntity
8
1
62
256
6
ByLayer
370
18
48
1
60
1
100
AcDbLine
10
0
20
0
30
0
11
594
21
0
31
0
39
0
210
0
220
0
230
1
0
LINE
5
CE
100
AcDbEntity
8
1
62
256
6
ByLayer
370
18
48
1
60
1
100
AcDbLine
10
0
20
0
30
0
11
0
21
420
31
0
39
0
210
0
220
0
230
1
0
LINE
5
CF
100
AcDbEntity
8
1
62
256
6
ByLayer
370
18
48
1
60
1
100
AcDbLine
10
594
20
420
30
0
11
0
21
420
31
0
39
0
210
0
220
0
230
1
0
LINE
5
D0
100
AcDbEntity
8
1
62
256
6
ByLayer
370
18
48
1
60
1
100
AcDbLine
10
594
20
420
30
0
11
594
21
0
31
0
39
0
210
0
220
0
230
1
0
LINE
5
D1
100
AcDbEntity
8
1
62
256
6
ByLayer
370
18
48
1
60
1
100
AcDbLine
10
0
20
0
30
0
11
594
21
0
31
0
39
0
210
0
220
0
230
1
0
LINE
5
D2
100
AcDbEntity
8
1
62
256
6
ByLayer
370
18
48
1
60
1
100
AcDbLine
10
0
20
0
30
0
11
0
21
420
31
0
39
0
210
0
220
0
230
1
0
LINE
5
D3
100
AcDbEntity
8
1
62
256
6
ByLayer
370
18
48
1
60
1
100
AcDbLine
10
594
20
420
30
0
11
0
21
420
31
0
39
0
210
0
220
0
230
1
0
LINE
5
D4
100
AcDbEntity
8
1
62
256
6
ByLayer
370
18
48
1
60
1
100
AcDbLine
10
594
20
420
30
0
11
594
21
0
31
0
39
0
210
0
220
0
230
1
0
LINE
5
D5
100
AcDbEntity
8
1
62
256
6
ByLayer
370
18
48
1
60
1
100
AcDbLine
10
0
20
0
30
0
11
594
21
0
31
0
39
0
210
0
220
0
230
1
0
LINE
5
D6
100
AcDbEntity
8
1
62
256
6
ByLayer
370
18
48
1
60
1
100
AcDbLine
10
0
20
0
30
0
11
0
21
420
31
0
39
0
210
0
220
0
230
1
0
LINE
5
D7
100
AcDbEntity
8
1
62
256
6
ByLayer
370
18
48
1
60
1
100
AcDbLine
10
594
20
420
30
0
11
0
21
420
31
0
39
0
210
0
220
0
230
1
0
LINE
5
D8
100
AcDbEntity
8
1
62
256
6
ByLayer
370
18
48
1
60
1
100
AcDbLine
10
594
20
420
30
0
11
594
21
0
31
0
39
0
210
0
220
0
230
1
0
LINE
5
D9
100
AcDbEntity
8
1
62
256
6
ByLayer
370
18
48
1
60
1
100
AcDbLine
10
0
20
0
30
0
11
594
21
0
31
0
39
0
210
0
220
0
230
1
0
LINE
5
DA
100
AcDbEntity
8
1
62
256
6
ByLayer
370
18
48
1
60
1
100
AcDbLine
10
0
20
0
30
0
11
0
21
420
31
0
39
0
210
0
220
0
230
1
0
LINE
5
DB
100
AcDbEntity
8
1
62
256
6
ByLayer
370
18
48
1
60
1
100
AcDbLine
10
594
20
420
30
0
11
0
21
420
31
0
39
0
210
0
220
0
230
1
0
LINE
5
DC
100
AcDbEntity
8
1
62
256
6
ByLayer
370
18
48
1
60
1
100
AcDbLine
10
594
20
420
30
0
11
594
21
0
31
0
39
0
210
0
220
0
230
1
0
LINE
5
DD
100
AcDbEntity
8
1
62
256
6
ByLayer
370
18
48
1
60
1
100
AcDbLine
10
0
20
0
30
0
11
594
21
0
31
0
39
0
210
0
220
0
230
1
0
LINE
5
DE
100
AcDbEntity
8
1
62
256
6
ByLayer
370
18
48
1
60
1
100
AcDbLine
10
0
20
0
30
0
11
0
21
420
31
0
39
0
210
0
220
0
230
1
0
LINE
5
DF
100
AcDbEntity
8
1
62
256
6
ByLayer
370
18
48
1
60
1
100
AcDbLine
10
594
20
420
30
0
11
0
21
420
31
0
39
0
210
0
220
0
230
1
0
LINE
5
E0
100
AcDbEntity
8
1
62
256
6
ByLayer
370
18
48
1
60
1
100
AcDbLine
10
594
20
420
30
0
11
594
21
0
31
0
39
0
210
0
220
0
230
1
0
LINE
5
E1
100
AcDbEntity
8
1
62
256
6
ByLayer
370
18
48
1
60
1
100
AcDbLine
10
0
20
0
30
0
11
594
21
0
31
0
39
0
210
0
220
0
230
1
0
LINE
5
E2
100
AcDbEntity
8
1
62
256
6
ByLayer
370
18
48
1
60
1
100
AcDbLine
10
0
20
0
30
0
11
0
21
420
31
0
39
0
210
0
220
0
230
1
0
LINE
5
E3
100
AcDbEntity
8
1
62
256
6
ByLayer
370
18
48
1
60
1
100
AcDbLine
10
594
20
420
30
0
11
0
21
420
31
0
39
0
210
0
220
0
230
1
0
LINE
5
E4
100
AcDbEntity
8
1
62
256
6
ByLayer
370
18
48
1
60
1
100
AcDbLine
10
594
20
420
30
0
11
594
21
0
31
0
39
0
210
0
220
0
230
1
0
LINE
5
E5
100
AcDbEntity
8
1
62
256
6
ByLayer
370
18
48
1
60
1
100
AcDbLine
10
0
20
0
30
0
11
594
21
0
31
0
39
0
210
0
220
0
230
1
0
LINE
5
E6
100
AcDbEntity
8
1
62
256
6
ByLayer
370
18
48
1
60
1
100
AcDbLine
10
0
20
0
30
0
11
0
21
420
31
0
39
0
210
0
220
0
230
1
0
LINE
5
E7
100
AcDbEntity
8
1
62
256
6
ByLayer
370
18
48
1
60
1
100
AcDbLine
10
594
20
420
30
0
11
0
21
420
31
0
39
0
210
0
220
0
230
1
0
LINE
5
E8
100
AcDbEntity
8
1
62
256
6
ByLayer
370
18
48
1
60
1
100
AcDbLine
10
594
20
420
30
0
11
594
21
0
31
0
39
0
210
0
220
0
230
1
0
LINE
5
E9
100
AcDbEntity
8
1
62
256
6
ByLayer
370
18
48
1
60
1
100
AcDbLine
10
0
20
0
30
0
11
594
21
0
31
0
39
0
210
0
220
0
230
1
0
LINE
5
EA
100
AcDbEntity
8
1
62
256
6
ByLayer
370
18
48
1
60
1
100
AcDbLine
10
0
20
0
30
0
11
0
21
420
31
0
39
0
210
0
220
0
230
1
0
LINE
5
EB
100
AcDbEntity
8
1
62
256
6
ByLayer
370
18
48
1
60
1
100
AcDbLine
10
594
20
420
30
0
11
0
21
420
31
0
39
0
210
0
220
0
230
1
0
LINE
5
EC
100
AcDbEntity
8
1
62
256
6
ByLayer
370
18
48
1
60
1
100
AcDbLine
10
594
20
420
30
0
11
594
21
0
31
0
39
0
210
0
220
0
230
1
0
LINE
5
ED
100
AcDbEntity
8
1
62
256
6
ByLayer
370
18
48
1
60
1
100
AcDbLine
10
0
20
0
30
0
11
594
21
0
31
0
39
0
210
0
220
0
230
1
0
LINE
5
EE
100
AcDbEntity
8
1
62
256
6
ByLayer
370
18
48
1
60
1
100
AcDbLine
10
0
20
0
30
0
11
0
21
420
31
0
39
0
210
0
220
0
230
1
0
LINE
5
EF
100
AcDbEntity
8
1
62
256
6
ByLayer
370
18
48
1
60
1
100
AcDbLine
10
594
20
420
30
0
11
0
21
420
31
0
39
0
210
0
220
0
230
1
0
LINE
5
F0
100
AcDbEntity
8
1
62
256
6
ByLayer
370
18
48
1
60
1
100
AcDbLine
10
594
20
420
30
0
11
594
21
0
31
0
39
0
210
0
220
0
230
1
0
LINE
5
F1
100
AcDbEntity
8
1
62
256
6
ByLayer
370
18
48
1
60
1
100
AcDbLine
10
0
20
0
30
0
11
594
21
0
31
0
39
0
210
0
220
0
230
1
0
LINE
5
F2
100
AcDbEntity
8
1
62
256
6
ByLayer
370
18
48
1
60
1
100
AcDbLine
10
0
20
0
30
0
11
0
21
420
31
0
39
0
210
0
220
0
230
1
0
LINE
5
F3
100
AcDbEntity
8
1
62
256
6
ByLayer
370
18
48
1
60
1
100
AcDbLine
10
594
20
420
30
0
11
0
21
420
31
0
39
0
210
0
220
0
230
1
0
LINE
5
F4
100
AcDbEntity
8
1
62
256
6
ByLayer
370
18
48
1
60
1
100
AcDbLine
10
594
20
420
30
0
11
594
21
0
31
0
39
0
210
0
220
0
230
1
0
LINE
5
F5
100
AcDbEntity
8
1
62
256
6
ByLayer
370
18
48
1
60
1
100
AcDbLine
10
0
20
0
30
0
11
594
21
0
31
0
39
0
210
0
220
0
230
1
0
LINE
5
F6
100
AcDbEntity
8
1
62
256
6
ByLayer
370
18
48
1
60
1
100
AcDbLine
10
0
20
0
30
0
11
0
21
420
31
0
39
0
210
0
220
0
230
1
0
LINE
5
F7
100
AcDbEntity
8
1
62
256
6
ByLayer
370
18
48
1
60
1
100
AcDbLine
10
594
20
420
30
0
11
0
21
420
31
0
39
0
210
0
220
0
230
1
0
LINE
5
F8
100
AcDbEntity
8
1
62
256
6
ByLayer
370
18
48
1
60
1
100
AcDbLine
10
594
20
420
30
0
11
594
21
0
31
0
39
0
210
0
220
0
230
1
0
LINE
5
F9
100
AcDbEntity
8
1
62
256
6
ByLayer
370
18
48
1
60
1
100
AcDbLine
10
0
20
0
30
0
11
594
21
0
31
0
39
0
210
0
220
0
230
1
0
LINE
5
FA
100
AcDbEntity
8
1
62
256
6
ByLayer
370
18
48
1
60
1
100
AcDbLine
10
0
20
0
30
0
11
0
21
420
31
0
39
0
210
0
220
0
230
1
0
LINE
5
FB
100
AcDbEntity
8
1
62
256
6
ByLayer
370
18
48
1
60
1
100
AcDbLine
10
594
20
420
30
0
11
0
21
420
31
0
39
0
210
0
220
0
230
1
0
LINE
5
FC
100
AcDbEntity
8
1
62
256
6
ByLayer
370
18
48
1
60
1
100
AcDbLine
10
594
20
420
30
0
11
594
21
0
31
0
39
0
210
0
220
0
230
1
0
LINE
5
FD
100
AcDbEntity
8
1
62
256
6
ByLayer
370
18
48
1
60
1
100
AcDbLine
10
0
20
0
30
0
11
594
21
0
31
0
39
0
210
0
220
0
230
1
0
LINE
5
FE
100
AcDbEntity
8
1
62
256
6
ByLayer
370
18
48
1
60
1
100
AcDbLine
10
0
20
0
30
0
11
0
21
420
31
0
39
0
210
0
220
0
230
1
0
LINE
5
FF
100
AcDbEntity
8
1
62
256
6
ByLayer
370
18
48
1
60
1
100
AcDbLine
10
594
20
420
30
0
11
0
21
420
31
0
39
0
210
0
220
0
230
1
0
LINE
5
100
100
AcDbEntity
8
1
62
256
6
ByLayer
370
18
48
1
60
1
100
AcDbLine
10
594
20
420
30
0
11
594
21
0
31
0
39
0
210
0
220
0
230
1
0
LINE
5
101
100
AcDbEntity
8
1
62
256
6
ByLayer
370
18
48
1
60
1
100
AcDbLine
10
0
20
0
30
0
11
594
21
0
31
0
39
0
210
0
220
0
230
1
0
LINE
5
102
100
AcDbEntity
8
1
62
256
6
ByLayer
370
18
48
1
60
1
100
AcDbLine
10
0
20
0
30
0
11
0
21
420
31
0
39
0
210
0
220
0
230
1
0
LINE
5
103
100
AcDbEntity
8
1
62
256
6
ByLayer
370
18
48
1
60
1
100
AcDbLine
10
594
20
420
30
0
11
0
21
420
31
0
39
0
210
0
220
0
230
1
0
LINE
5
104
100
AcDbEntity
8
1
62
256
6
ByLayer
370
18
48
1
60
1
100
AcDbLine
10
594
20
420
30
0
11
594
21
0
31
0
39
0
210
0
220
0
230
1
0
LINE
5
105
100
AcDbEntity
8
1
62
256
6
ByLayer
370
18
48
1
60
1
100
AcDbLine
10
0
20
0
30
0
11
594
21
0
31
0
39
0
210
0
220
0
230
1
0
LINE
5
106
100
AcDbEntity
8
1
62
256
6
ByLayer
370
18
48
1
60
1
100
AcDbLine
10
0
20
0
30
0
11
0
21
420
31
0
39
0
210
0
220
0
230
1
0
LINE
5
107
100
AcDbEntity
8
1
62
256
6
ByLayer
370
18
48
1
60
1
100
AcDbLine
10
594
20
420
30
0
11
0
21
420
31
0
39
0
210
0
220
0
230
1
0
LINE
5
108
100
AcDbEntity
8
1
62
256
6
ByLayer
370
18
48
1
60
1
100
AcDbLine
10
594
20
420
30
0
11
594
21
0
31
0
39
0
210
0
220
0
230
1
0
LINE
5
109
100
AcDbEntity
8
1
62
256
6
ByLayer
370
18
48
1
60
1
100
AcDbLine
10
0
20
0
30
0
11
594
21
0
31
0
39
0
210
0
220
0
230
1
0
LINE
5
10A
100
AcDbEntity
8
SK1
62
256
6
ByLayer
370
18
48
1
60
0
100
AcDbLine
10
-28
20
-6.773
30
0
11
-0.000188
21
-6.773
31
0
39
0
210
0
220
0
230
1
0
LINE
5
10C
100
AcDbEntity
8
SK1
62
256
6
ByLayer
370
18
48
1
60
0
100
AcDbLine
10
-28
20
6.773
30
0
11
-0.000188
21
6.773
31
0
39
0
210
0
220
0
230
1
0
LINE
5
10D
100
AcDbEntity
8
SK1
62
256
6
ByLayer
370
18
48
1
60
0
100
AcDbLine
10
-28
20
48.227
30
0
11
-0.000188
21
48.227
31
0
39
0
210
0
220
0
230
1
0
LINE
5
10E
100
AcDbEntity
8
SK1
62
256
6
ByLayer
370
18
48
1
60
0
100
AcDbLine
10
-28
20
61.773
30
0
11
-0.000188
21
61.773
31
0
39
0
210
0
220
0
230
1
0
LINE
5
10F
100
AcDbEntity
8
SK1
62
256
6
ByLayer
370
18
48
1
60
0
100
AcDbLine
10
-28
20
-66.773
30
0
11
-0.000188
21
-66.773
31
0
39
0
210
0
220
0
230
1
0
LINE
5
110
100
AcDbEntity
8
SK1
62
256
6
ByLayer
370
18
48
1
60
0
100
AcDbLine
10
-28
20
-53.227
30
0
11
-0.000188
21
-53.227
31
0
39
0
210
0
220
0
230
1
0
LINE
5
111
100
AcDbEntity
8
1
62
256
6
ByLayer
370
18
48
1
60
0
100
AcDbLine
10
112
20
-68.306624
30
0
11
112
21
-51.693377
31
0
39
0
210
0
220
0
230
1
0
LINE
5
112
100
AcDbEntity
8
1
62
256
6
ByLayer
370
18
48
1
60
0
100
AcDbLine
10
112
20
-8.306624
30
0
11
112
21
8.306623
31
0
39
0
210
0
220
0
230
1
0
LINE
5
113
100
AcDbEntity
8
1
62
256
6
ByLayer
370
18
48
1
60
0
100
AcDbLine
10
112
20
46.693376
30
0
11
112
21
63.306623
31
0
39
0
210
0
220
0
230
1
0
LINE
5
114
100
AcDbEntity
8
1
62
256
6
ByLayer
370
18
48
1
60
0
100
AcDbLine
10
87
20
75
30
0
11
0
21
75
31
0
39
0
210
0
220
0
230
1
0
LINE
5
115
100
AcDbEntity
8
1
62
256
6
ByLayer
370
18
48
1
60
0
100
AcDbLine
10
87
20
-105
30
0
11
0
21
-105
31
0
39
0
210
0
220
0
230
1
0
LINE
5
116
100
AcDbEntity
8
1
62
256
6
ByLayer
370
18
48
1
60
0
100
AcDbLine
10
0
20
-105
30
0
11
0
21
75
31
0
39
0
210
0
220
0
230
1
0
LINE
5
117
100
AcDbEntity
8
1
62
256
6
ByLayer
370
18
48
1
60
0
100
AcDbLine
10
112
20
75
30
0
11
112
21
63.306623
31
0
39
0
210
0
220
0
230
1
0
LINE
5
118
100
AcDbEntity
8
1
62
256
6
ByLayer
370
18
48
1
60
0
100
AcDbLine
10
87
20
75
30
0
11
112
21
75
31
0
39
0
210
0
220
0
230
1
0
LINE
5
119
100
AcDbEntity
8
1
62
256
6
ByLayer
370
18
48
1
60
0
100
AcDbLine
10
87
20
-105
30
0
11
87
21
75
31
0
39
0
210
0
220
0
230
1
0
LINE
5
11A
100
AcDbEntity
8
1
62
256
6
ByLayer
370
18
48
1
60
0
100
AcDbLine
10
112
20
-105
30
0
11
87
21
-105
31
0
39
0
210
0
220
0
230
1
0
LINE
5
11B
100
AcDbEntity
8
1
62
256
6
ByLayer
370
18
48
1
60
0
100
AcDbLine
10
112
20
-68.306624
30
0
11
112
21
-105
31
0
39
0
210
0
220
0
230
1
0
LINE
5
11C
100
AcDbEntity
8
1
62
256
6
ByLayer
370
18
48
1
60
0
100
AcDbLine
10
112
20
-8.306624
30
0
11
112
21
-51.693377
31
0
39
0
210
0
220
0
230
1
0
LINE
5
11D
100
AcDbEntity
8
1
62
256
6
ByLayer
370
18
48
1
60
0
100
AcDbLine
10
112
20
46.693376
30
0
11
112
21
8.306623
31
0
39
0
210
0
220
0
230
1
0
LINE
5
11E
100
AcDbEntity
8
SK1
62
256
6
ByLayer
370
18
48
1
60
0
100
AcDbLine
10
-28
20
-66.773
30
0
11
-28
21
-53.227
31
0
39
0
210
0
220
0
230
1
0
LINE
5
11F
100
AcDbEntity
8
SK1
62
256
6
ByLayer
370
18
48
1
60
0
100
AcDbLine
10
-28
20
-66.773
30
0
11
-26.773
21
-68
31
0
39
0
210
0
220
0
230
1
0
LINE
5
120
100
AcDbEntity
8
SK1
62
256
6
ByLayer
370
18
48
1
60
0
100
AcDbLine
10
-26.773
20
-52
30
0
11
-28
21
-53.227
31
0
39
0
210
0
220
0
230
1
0
LINE
5
121
100
AcDbEntity
8
SK1
62
256
6
ByLayer
370
18
48
1
60
0
100
AcDbLine
10
-26.773
20
-52
30
0
11
-26.773
21
-68
31
0
39
0
210
0
220
0
230
1
0
LINE
5
122
100
AcDbEntity
8
SK1
62
256
6
ByLayer
370
18
48
1
60
0
100
AcDbLine
10
0.000618
20
-52
30
0
11
-26.773
21
-52
31
0
39
0
210
0
220
0
230
1
0
LINE
5
123
100
AcDbEntity
8
SK1
62
256
6
ByLayer
370
18
48
1
60
0
100
AcDbLine
10
-26.773
20
-68
30
0
11
0.000618
21
-68
31
0
39
0
210
0
220
0
230
1
0
LINE
5
124
100
AcDbEntity
8
SK1
62
256
6
ByLayer
370
18
48
1
60
0
100
AcDbLine
10
-6.449997
20
33.35
30
0
11
-7
21
33.35
31
0
39
0
210
0
220
0
230
1
0
LINE
5
125
100
AcDbEntity
8
SK1
62
256
6
ByLayer
370
18
48
1
60
0
100
AcDbLine
10
-7
20
-33.35
30
0
11
-6.449997
21
-33.35
31
0
39
0
210
0
220
0
230
1
0
LINE
5
126
100
AcDbEntity
8
SK1
62
256
6
ByLayer
370
18
48
1
60
0
100
AcDbLine
10
-10
20
-8.00184
30
0
11
-10
21
-34.4179
31
0
39
0
210
0
220
0
230
1
0
LINE
5
127
100
AcDbEntity
8
SK1
62
256
6
ByLayer
370
18
48
1
60
0
100
AcDbLine
10
-10
20
34.417899
30
0
11
-10
21
7.998552
31
0
39
0
210
0
220
0
230
1
0
LINE
5
128
100
AcDbEntity
8
SK1
62
256
6
ByLayer
370
18
48
1
60
0
100
AcDbLine
10
-10
20
-34.4179
30
0
11
-9
21
-34.99525
31
0
39
0
210
0
220
0
230
1
0
LINE
5
129
100
AcDbEntity
8
SK1
62
256
6
ByLayer
370
18
48
1
60
0
100
AcDbLine
10
-9
20
34.99525
30
0
11
-10
21
34.417899
31
0
39
0
210
0
220
0
230
1
0
LINE
5
12A
100
AcDbEntity
8
SK1
62
256
6
ByLayer
370
18
48
1
60
0
100
AcDbLine
10
-7
20
-34.99525
30
0
11
-7
21
-7.999001
31
0
39
0
210
0
220
0
230
1
0
LINE
5
12B
100
AcDbEntity
8
SK1
62
256
6
ByLayer
370
18
48
1
60
0
100
AcDbLine
10
-7
20
8.002345
30
0
11
-7
21
34.99525
31
0
39
0
210
0
220
0
230
1
0
LINE
5
12C
100
AcDbEntity
8
SK1
62
256
6
ByLayer
370
18
48
1
60
0
100
AcDbLine
10
-9
20
34.99525
30
0
11
-9
21
7.999
31
0
39
0
210
0
220
0
230
1
0
LINE
5
12D
100
AcDbEntity
8
SK1
62
256
6
ByLayer
370
18
48
1
60
0
100
AcDbLine
10
-9
20
-8.002345
30
0
11
-9
21
-34.99525
31
0
39
0
210
0
220
0
230
1
0
LINE
5
12E
100
AcDbEntity
8
SK1
62
256
6
ByLayer
370
18
48
1
60
0
100
AcDbLine
10
-9
20
-34.99525
30
0
11
-7
21
-34.99525
31
0
39
0
210
0
220
0
230
1
0
LINE
5
12F
100
AcDbEntity
8
SK1
62
256
6
ByLayer
370
18
48
1
60
0
100
AcDbLine
10
-7
20
34.99525
30
0
11
-9
21
34.99525
31
0
39
0
210
0
220
0
230
1
0
LINE
5
130
100
AcDbEntity
8
SK1
62
256
6
ByLayer
370
18
48
1
60
0
100
AcDbLine
10
-4.1
20
-34.99525
30
0
11
-4.1
21
-7.999001
31
0
39
0
210
0
220
0
230
1
0
LINE
5
131
100
AcDbEntity
8
SK1
62
256
6
ByLayer
370
18
48
1
60
0
100
AcDbLine
10
-4.1
20
8.002345
30
0
11
-4.1
21
34.99525
31
0
39
0
210
0
220
0
230
1
0
LINE
5
132
100
AcDbEntity
8
SK1
62
256
6
ByLayer
370
18
48
1
60
0
100
AcDbLine
10
-4.1
20
-34.99525
30
0
11
-8.3E-05
21
-34.99525
31
0
39
0
210
0
220
0
230
1
0
LINE
5
133
100
AcDbEntity
8
SK1
62
256
6
ByLayer
370
18
48
1
60
0
100
AcDbLine
10
-8.3E-05
20
34.99525
30
0
11
-4.1
21
34.99525
31
0
39
0
210
0
220
0
230
1
0
LINE
5
134
100
AcDbEntity
8
1
62
256
6
ByLayer
370
18
48
1
60
0
100
AcDbLine
10
112.107661
20
-29.9
30
0
11
112.107661
21
-25.1
31
0
39
0
210
0
220
0
230
1
0
LINE
5
135
100
AcDbEntity
8
SK1
62
256
6
ByLayer
370
18
48
1
60
0
100
AcDbLine
10
-28
20
-6.773
30
0
11
-28
21
6.773
31
0
39
0
210
0
220
0
230
1
0
LINE
5
136
100
AcDbEntity
8
SK1
62
256
6
ByLayer
370
18
48
1
60
0
100
AcDbLine
10
-28
20
-6.773
30
0
11
-26.773
21
-8
31
0
39
0
210
0
220
0
230
1
0
LINE
5
137
100
AcDbEntity
8
SK1
62
256
6
ByLayer
370
18
48
1
60
0
100
AcDbLine
10
-26.773
20
8
30
0
11
-28
21
6.773
31
0
39
0
210
0
220
0
230
1
0
LINE
5
138
100
AcDbEntity
8
SK1
62
256
6
ByLayer
370
18
48
1
60
0
100
AcDbLine
10
-26.773
20
-8
30
0
11
-26.773
21
8
31
0
39
0
210
0
220
0
230
1
0
LINE
5
139
100
AcDbEntity
8
SK1
62
256
6
ByLayer
370
18
48
1
60
0
100
AcDbLine
10
0.000618
20
8
30
0
11
-26.773
21
8
31
0
39
0
210
0
220
0
230
1
0
LINE
5
13A
100
AcDbEntity
8
SK1
62
256
6
ByLayer
370
18
48
1
60
0
100
AcDbLine
10
-26.773
20
-8
30
0
11
0.000618
21
-8
31
0
39
0
210
0
220
0
230
1
0
LINE
5
13B
100
AcDbEntity
8
SK1
62
256
6
ByLayer
370
18
48
1
60
0
100
AcDbLine
10
-28
20
48.227
30
0
11
-28
21
61.773
31
0
39
0
210
0
220
0
230
1
0
LINE
5
13C
100
AcDbEntity
8
SK1
62
256
6
ByLayer
370
18
48
1
60
0
100
AcDbLine
10
-28
20
48.227
30
0
11
-26.773
21
47
31
0
39
0
210
0
220
0
230
1
0
LINE
5
13D
100
AcDbEntity
8
SK1
62
256
6
ByLayer
370
18
48
1
60
0
100
AcDbLine
10
-26.773
20
63
30
0
11
-28
21
61.773
31
0
39
0
210
0
220
0
230
1
0
LINE
5
13E
100
AcDbEntity
8
SK1
62
256
6
ByLayer
370
18
48
1
60
0
100
AcDbLine
10
-26.773
20
63
30
0
11
-26.773
21
47
31
0
39
0
210
0
220
0
230
1
0
LINE
5
13F
100
AcDbEntity
8
SK1
62
256
6
ByLayer
370
18
48
1
60
0
100
AcDbLine
10
0.000618
20
63
30
0
11
-26.773
21
63
31
0
39
0
210
0
220
0
230
1
0
LINE
5
140
100
AcDbEntity
8
SK1
62
256
6
ByLayer
370
18
48
1
60
0
100
AcDbLine
10
-26.773
20
47
30
0
11
0.000618
21
47
31
0
39
0
210
0
220
0
230
1
0
LINE
5
141
100
AcDbEntity
8
1
62
256
6
ByLayer
370
18
48
1
60
0
100
AcDbLine
10
102
20
-117
30
0
11
22
21
-117
31
0
39
0
210
0
220
0
230
1
0
LINE
5
142
100
AcDbEntity
8
1
62
256
6
ByLayer
370
18
48
1
60
0
100
AcDbLine
10
22
20
-116.5
30
0
11
22
21
-117
31
0
39
0
210
0
220
0
230
1
0
LINE
5
143
100
AcDbEntity
8
1
62
256
6
ByLayer
370
18
48
1
60
0
100
AcDbLine
10
102
20
-117
30
0
11
102
21
-116.5
31
0
39
0
210
0
220
0
230
1
0
LINE
5
144
100
AcDbEntity
8
1
62
256
6
ByLayer
370
18
48
1
60
0
100
AcDbLine
10
111.175
20
-116.5
30
0
11
12.825
21
-116.5
31
0
39
0
210
0
220
0
230
1
0
LINE
5
145
100
AcDbEntity
8
1
62
256
6
ByLayer
370
18
48
1
60
0
100
AcDbLine
10
12.325
20
-116
30
0
11
12.325
21
-105
31
0
39
0
210
0
220
0
230
1
0
LINE
5
146
100
AcDbEntity
8
1
62
256
6
ByLayer
370
18
48
1
60
0
100
AcDbLine
10
12.325
20
-116
30
0
11
111.675
21
-116
31
0
39
0
210
0
220
0
230
1
0
LINE
5
147
100
AcDbEntity
8
1
62
256
6
ByLayer
370
18
48
1
60
0
100
AcDbLine
10
111.675
20
-116
30
0
11
111.675
21
-105
31
0
39
0
210
0
220
0
230
1
0
LINE
5
148
100
AcDbEntity
8
SK1
62
256
6
ByLayer
370
18
48
1
60
0
100
AcDbLine
10
-6.45
20
34.175
30
0
11
-6.45
21
7.999199
31
0
39
0
210
0
220
0
230
1
0
LINE
5
149
100
AcDbEntity
8
SK1
62
256
6
ByLayer
370
18
48
1
60
0
100
AcDbLine
10
-6.45
20
-7.9992
30
0
11
-6.45
21
-34.175
31
0
39
0
210
0
220
0
230
1
0
LINE
5
14A
100
AcDbEntity
8
SK1
62
256
6
ByLayer
370
18
48
1
60
0
100
AcDbLine
10
-4.925
20
35
30
0
11
-4.925
21
7.99674
31
0
39
0
210
0
220
0
230
1
0
LINE
5
14B
100
AcDbEntity
8
SK1
62
256
6
ByLayer
370
18
48
1
60
0
100
AcDbLine
10
-4.925
20
-8.000086
30
0
11
-4.925
21
-35
31
0
39
0
210
0
220
0
230
1
0
LINE
5
14C
100
AcDbEntity
8
SK1
62
256
6
ByLayer
370
18
48
1
60
0
100
AcDbLine
10
-5.625
20
35
30
0
11
-5.625
21
7.99674
31
0
39
0
210
0
220
0
230
1
0
LINE
5
14D
100
AcDbEntity
8
SK1
62
256
6
ByLayer
370
18
48
1
60
0
100
AcDbLine
10
-5.625
20
-8.000086
30
0
11
-5.625
21
-35
31
0
39
0
210
0
220
0
230
1
0
LINE
5
14E
100
AcDbEntity
8
SK1
62
256
6
ByLayer
370
18
48
1
60
0
100
AcDbLine
10
-5.625
20
-35
30
0
11
-4.925
21
-35
31
0
39
0
210
0
220
0
230
1
0
LINE
5
14F
100
AcDbEntity
8
SK1
62
256
6
ByLayer
370
18
48
1
60
0
100
AcDbLine
10
-4.925
20
35
30
0
11
-5.625
21
35
31
0
39
0
210
0
220
0
230
1
0
LINE
5
150
100
AcDbEntity
8
4
62
256
6
ByLayer
370
18
48
0.05
60
0
100
AcDbLine
10
77.9
20
-60
30
0
11
-34.5
21
-60
31
0
39
0
210
0
220
0
230
1
0
LINE
5
151
100
AcDbEntity
8
4
62
256
6
ByLayer
370
18
48
0.05
60
0
100
AcDbLine
10
77.9
20
0
30
0
11
-34.5
21
0
31
0
39
0
210
0
220
0
230
1
0
LINE
5
152
100
AcDbEntity
8
4
62
256
6
ByLayer
370
18
48
0.05
60
0
100
AcDbLine
10
77.9
20
55
30
0
11
-34.5
21
55
31
0
39
0
210
0
220
0
230
1
0
MTEXT
5
163
100
AcDbEntity
8
SK6
62
256
6
ByLayer
370
13
48
1
60
0
100
AcDbMText
10
-200.275306
20
-87.814773
30
0
210
0
220
0
230
1
1
\fAMGDT|b0|i0;\W0.9431;C8-TLI-MS-C
40
10
41
0
44
1.174881
50
0
71
7
72
5
7
AMGDT
0
DIMENSION
5
167
100
AcDbEntity
8
SK2
62
256
6
ByLayer
370
18
48
1
60
0
100
AcDbDimension
2
_U0
10
0
20
100.549132
30
0
11
56
21
100.549132
31
0
70
32
71
1
72
1
41
1
210
0
220
0
230
1
3
Standard
100
AcDbAlignedDimension
13
112
23
75
33
0
14
0
24
75
34
0
50
0
100
AcDbRotatedDimension
1001
ACAD
1000
DSTYLE
1002
{
1070
   371
1070
    35
1070
   372
1070
    35
1070
   170
1070
     0
1070
   144
1040
1.0
1070
   277
1070
     2
1070
   284
1070
     8
1070
   278
1070
    46
1070
   146
1040
0.25
1070
   345
1005
16
1070
   347
1005
16
1070
   346
1005
16
1070
   344
1005
0
1070
   343
1005
0
1070
   172
1070
     1
1070
    76
1070
     0
1070
    75
1070
     0
1070
   282
1070
     0
1070
   281
1070
     0
1070
    71
1070
     0
1070
    74
1070
     0
1070
   279
1070
     0
1070
   173
1070
     1
1070
   340
1005
168
1070
   271
1070
     2
1070
   272
1070
     2
1070
    77
1070
     1
1070
    73
1070
     1
1070
   171
1070
     3
1070
   274
1070
     4
1070
   177
1070
     7
1070
   176
1070
     7
1070
   178
1070
     7
1070
    78
1070
     8
1070
    48
1040
-0.1
1070
    41
1040
14.0
1070
   147
1040
7.000002
1070
    42
1040
1.5875
1070
    44
1040
10.0
1070
   140
1040
14.0
1002
}
1001
ACAD_DSTYLE_DIM_LINETYPE
1070
   380
1005
16
1001
ACAD_DSTYLE_DIM_EXT1_LINETYPE
1070
   381
1005
16
1001
ACAD_DSTYLE_DIM_EXT2_LINETYPE
1070
   382
1005
16
0
DIMENSION
5
183
100
AcDbEntity
8
2
62
256
6
ByLayer
370
18
48
1
60
0
100
AcDbDimension
2
_U1
10
62
20
-216.5
30
0
11
31
21
-216.5
31
0
70
32
71
1
72
1
41
1
210
0
220
0
230
1
3
Standard
100
AcDbAlignedDimension
13
0
23
0
33
0
14
62
24
-117
34
0
50
0
100
AcDbRotatedDimension
1001
ACAD
1000
DSTYLE
1002
{
1070
   371
1070
    35
1070
   372
1070
    35
1070
   170
1070
     0
1070
   144
1040
1.0
1070
   277
1070
     2
1070
   284
1070
     8
1070
   278
1070
    46
1070
   146
1040
0.25
1070
   345
1005
16
1070
   347
1005
16
1070
   346
1005
16
1070
   344
1005
0
1070
   343
1005
0
1070
   172
1070
     1
1070
    76
1070
     0
1070
    75
1070
     0
1070
   282
1070
     0
1070
   281
1070
     0
1070
    71
1070
     0
1070
    74
1070
     0
1070
   279
1070
     0
1070
   173
1070
     1
1070
   340
1005
168
1070
   271
1070
     2
1070
   272
1070
     2
1070
    77
1070
     1
1070
    73
1070
     1
1070
   171
1070
     3
1070
   274
1070
     4
1070
   177
1070
     7
1070
   176
1070
     7
1070
   178
1070
     7
1070
    78
1070
     8
1070
    48
1040
-0.1
1070
    41
1040
14.0
1070
   147
1040
7.000002
1070
    42
1040
1.5875
1070
    44
1040
10.0
1070
   140
1040
14.0
1002
}
1001
ACAD_DSTYLE_DIM_LINETYPE
1070
   380
1005
16
1001
ACAD_DSTYLE_DIM_EXT1_LINETYPE
1070
   381
1005
16
1001
ACAD_DSTYLE_DIM_EXT2_LINETYPE
1070
   382
1005
16
0
DIMENSION
5
19D
100
AcDbEntity
8
2
62
256
6
ByLayer
370
18
48
1
60
0
100
AcDbDimension
2
_U2
10
102
20
-176.5
30
0
11
59.036266
21
-176.5
31
0
70
32
71
1
72
1
41
1
210
0
220
0
230
1
3
Standard
100
AcDbAlignedDimension
13
22
23
-117
33
0
14
102
24
-117
34
0
50
0
100
AcDbRotatedDimension
1001
ACAD
1000
DSTYLE
1002
{
1070
   371
1070
    35
1070
   372
1070
    35
1070
     3
1000
%%c<>
1070
   170
1070
     0
1070
   144
1040
1.0
1070
   277
1070
     2
1070
   284
1070
     8
1070
   278
1070
    46
1070
   146
1040
0.25
1070
   345
1005
16
1070
   347
1005
16
1070
   346
1005
16
1070
   344
1005
0
1070
   343
1005
0
1070
   172
1070
     1
1070
    76
1070
     0
1070
    75
1070
     0
1070
   282
1070
     0
1070
   281
1070
     0
1070
    71
1070
     0
1070
    74
1070
     0
1070
   279
1070
     0
1070
   173
1070
     1
1070
   340
1005
168
1070
   271
1070
     2
1070
   272
1070
     2
1070
    77
1070
     1
1070
    73
1070
     0
1070
   171
1070
     3
1070
   274
1070
     4
1070
   177
1070
     7
1070
   176
1070
     7
1070
   178
1070
     7
1070
    78
1070
     8
1070
    48
1040
-0.1
1070
    41
1040
14.0
1070
   147
1040
7.000002
1070
    42
1040
1.5875
1070
    44
1040
10.0
1070
   140
1040
14.0
1002
}
1001
ACAD_DSTYLE_DIM_LINETYPE
1070
   380
1005
16
1001
ACAD_DSTYLE_DIM_EXT1_LINETYPE
1070
   381
1005
16
1001
ACAD_DSTYLE_DIM_EXT2_LINETYPE
1070
   382
1005
16
0
DIMENSION
5
1B6
100
AcDbEntity
8
SK2
62
256
6
ByLayer
370
18
48
1
60
0
100
AcDbDimension
2
_U3
10
-55.335518
20
-117
30
0
11
-55.335518
21
-21
31
0
70
32
71
1
72
1
41
1
210
0
220
0
230
1
3
Standard
100
AcDbAlignedDimension
13
0
23
75
33
0
14
22
24
-117
34
0
50
90
100
AcDbRotatedDimension
1001
ACAD
1000
DSTYLE
1002
{
1070
   371
1070
    35
1070
   372
1070
    35
1070
   170
1070
     0
1070
   144
1040
1.0
1070
   277
1070
     2
1070
   284
1070
     8
1070
   278
1070
    46
1070
   146
1040
0.25
1070
   345
1005
16
1070
   347
1005
16
1070
   346
1005
16
1070
   344
1005
0
1070
   343
1005
0
1070
   172
1070
     1
1070
    76
1070
     0
1070
    75
1070
     0
1070
   282
1070
     0
1070
   281
1070
     0
1070
    71
1070
     0
1070
    74
1070
     0
1070
   279
1070
     0
1070
   173
1070
     1
1070
   340
1005
168
1070
   271
1070
     2
1070
   272
1070
     2
1070
    77
1070
     1
1070
    73
1070
     0
1070
   171
1070
     3
1070
   274
1070
     4
1070
   177
1070
     7
1070
   176
1070
     7
1070
   178
1070
     7
1070
    78
1070
     8
1070
    48
1040
-0.1
1070
    41
1040
14.0
1070
   147
1040
7.000002
1070
    42
1040
1.5875
1070
    44
1040
10.0
1070
   140
1040
14.0
1002
}
1001
ACAD_DSTYLE_DIM_LINETYPE
1070
   380
1005
16
1001
ACAD_DSTYLE_DIM_EXT1_LINETYPE
1070
   381
1005
16
1001
ACAD_DSTYLE_DIM_EXT2_LINETYPE
1070
   382
1005
16
0
DIMENSION
5
1CE
100
AcDbEntity
8
2
62
256
6
ByLayer
370
18
48
1
60
0
100
AcDbDimension
2
_U4
10
152.107661
20
-117
30
0
11
152.107661
21
-58.5
31
0
70
32
71
1
72
1
41
1
210
0
220
0
230
1
3
Standard
100
AcDbAlignedDimension
13
-32.646011
23
0
33
0
14
62
24
-117
34
0
50
90
100
AcDbRotatedDimension
1001
ACAD
1000
DSTYLE
1002
{
1070
   371
1070
    35
1070
   372
1070
    35
1070
   170
1070
     0
1070
   144
1040
1.0
1070
   277
1070
     2
1070
   284
1070
     8
1070
   278
1070
    46
1070
   146
1040
0.25
1070
   345
1005
16
1070
   347
1005
16
1070
   346
1005
16
1070
   344
1005
0
1070
   343
1005
0
1070
   172
1070
     1
1070
    76
1070
     0
1070
    75
1070
     0
1070
   282
1070
     0
1070
   281
1070
     0
1070
    71
1070
     0
1070
    74
1070
     0
1070
   279
1070
     0
1070
   173
1070
     1
1070
   340
1005
168
1070
   271
1070
     2
1070
   272
1070
     2
1070
    77
1070
     1
1070
    73
1070
     0
1070
   171
1070
     3
1070
   274
1070
     4
1070
   177
1070
     7
1070
   176
1070
     7
1070
   178
1070
     7
1070
    78
1070
     8
1070
    48
1040
-0.1
1070
    41
1040
14.0
1070
   147
1040
7.000002
1070
    42
1040
1.5875
1070
    44
1040
10.0
1070
   140
1040
14.0
1002
}
1001
ACAD_DSTYLE_DIM_LINETYPE
1070
   380
1005
16
1001
ACAD_DSTYLE_DIM_EXT1_LINETYPE
1070
   381
1005
16
1001
ACAD_DSTYLE_DIM_EXT2_LINETYPE
1070
   382
1005
16
0
ENDSEC
0
SECTION
2
OBJECTS
0
DICTIONARY
5
256
330
0
100
AcDbDictionary
280
0
281
1
3
ACAD_GROUP
350
257
3
ACAD_MLINESTYLE
350
258
0
DICTIONARY
5
257
330
0
100
AcDbDictionary
280
0
281
1
0
DICTIONARY
5
258
330
0
100
AcDbDictionary
280
0
281
1
3
Standard
350
18
0
MLINESTYLE
5
18
330
258
100
AcDbMlineStyle
2
Standard
70
0
3

62
256
51
90
52
90
71
2
49
-0.5
62
256
6
ByLayer
49
0.5
62
256
6
ByLayer
0
RASTERVARIABLES
5
244
330

100
AcDbRasterVariables
90
0
70
1
71
1
72
1
0
ENDSEC
0
EOF
