0
SECTION
2
HEADER
9
$ACADVER
1
AC1015
9
$DWGCODEPAGE
3
ANSI_1252
9
$HANDSEED
5
22b
9
$ANGBASE
50
0
9
$ANGDIR
70
0
9
$ATTMODE
70
1
9
$AUNITS
70
0
9
$AUPREC
70
0
9
$CECOLOR
62
256
9
$CELTSCALE
40
1
9
$CELTYPE
6
ByLayer
9
$CELWEIGHT
370
18
9
$CLAYER
8
0
9
$CMLJUST
70
0
9
$CMLSCALE
40
1
9
$CMLSTYLE
2
Standard
9
$DIMSTYLE
2
Standard
9
$TEXTSIZE
40
0.2
9
$TEXTSTYLE
7
Standard
9
$LUNITS
70
2
9
$LUPREC
70
4
9
$EXTNAMES
290
1
9
$INSUNITS
70
4
9
$LTSCALE
40
1
9
$LWDISPLAY
290
1
9
$PDMODE
70
0
9
$PDSIZE
40
0
9
$PLINEGEN
70
0
0
ENDSEC
0
SECTION
2
CLASSES
0
CLASS
1
RASTERVARIABLES
2
AcDbRasterVariables
3
ISM
90
0
280
0
281
0
0
ENDSEC
0
SECTION
2
TABLES
0
TABLE
2
VPORT
5
221
100
AcDbSymbolTable
0
VPORT
5
1
100
AcDbSymbolTableRecord
100
AcDbViewportTableRecord
2
*Active
70
0
10
0
20
0
11
1
21
1
12
-1
22
1
13
0
23
0
14
0.5
24
0.5
15
10
25
10
16
0
26
0
36
1
17
0
27
0
37
0
0
ENDTAB
0
TABLE
2
LTYPE
5
222
100
AcDbSymbolTable
0
LTYPE
5
14
100
AcDbSymbolTableRecord
100
AcDbLinetypeTableRecord
70
0
2
ByBlock
3

72
65
73
0
40
0
0
LTYPE
5
15
100
AcDbSymbolTableRecord
100
AcDbLinetypeTableRecord
70
0
2
ByLayer
3

72
65
73
0
40
0
0
LTYPE
5
16
100
AcDbSymbolTableRecord
100
AcDbLinetypeTableRecord
70
0
2
CONTINUOUS
3
Solid line
72
65
73
0
40
0
0
LTYPE
5
6A
100
AcDbSymbolTableRecord
100
AcDbLinetypeTableRecord
70
0
2
CENTER
3
____ _ ____ _ ____ _ ____
72
65
73
4
40
47.5
49
22
74
0
49
-8.5
74
0
49
8.5
74
0
49
-8.5
74
0
0
LTYPE
5
6B
100
AcDbSymbolTableRecord
100
AcDbLinetypeTableRecord
70
0
2
DASHED
3
__ __ __ __ __ __ __ __ __
72
65
73
2
40
25.72
49
12.86
74
0
49
-12.86
74
0
0
ENDTAB
0
TABLE
2
LAYER
5
223
100
AcDbSymbolTable
0
LAYER
5
10
100
AcDbSymbolTableRecord
100
AcDbLayerTableRecord
2
0
70
0
62
7
6
CONTINUOUS
290
1
370
-3
390
0
0
LAYER
5
6D
100
AcDbSymbolTableRecord
100
AcDbLayerTableRecord
2
80
70
0
62
-6
6
CONTINUOUS
290
1
370
-3
390
0
0
LAYER
5
6F
100
AcDbSymbolTableRecord
100
AcDbLayerTableRecord
2
81
70
0
62
-3
6
CONTINUOUS
290
1
370
-3
390
0
0
LAYER
5
71
100
AcDbSymbolTableRecord
100
AcDbLayerTableRecord
2
1
70
0
62
4
6
CONTINUOUS
290
1
370
-3
390
0
0
LAYER
5
EB
100
AcDbSymbolTableRecord
100
AcDbLayerTableRecord
2
4
70
0
62
-2
6
CENTER
290
1
370
-3
390
0
0
LAYER
5
199
100
AcDbSymbolTableRecord
100
AcDbLayerTableRecord
2
2
70
0
62
7
6
CONTINUOUS
290
1
370
-3
390
0
0
LAYER
5
20d
100
AcDbSymbolTableRecord
100
AcDbLayerTableRecord
2
SK1
70
0
62
4
6
CONTINUOUS
290
1
370
-3
390
0
0
LAYER
5
20e
100
AcDbSymbolTableRecord
100
AcDbLayerTableRecord
2
SK4
70
0
62
2
6
CENTER
290
1
370
-3
390
0
0
LAYER
5
20f
100
AcDbSymbolTableRecord
100
AcDbLayerTableRecord
2
SK6
70
0
62
5
6
CONTINUOUS
290
1
370
-3
390
0
0
LAYER
5
210
100
AcDbSymbolTableRecord
100
AcDbLayerTableRecord
2
SK2
70
0
62
7
6
CONTINUOUS
290
1
370
-3
390
0
0
ENDTAB
0
TABLE
2
STYLE
5
224
100
AcDbSymbolTable
0
STYLE
5
11
100
AcDbSymbolTableRecord
100
AcDbTextStyleTableRecord
2
Standard
3
txt
70
0
71
0
40
0
41
1
42
0
50
0
0
STYLE
5
168
100
AcDbSymbolTableRecord
100
AcDbTextStyleTableRecord
2
iso_b_vert
3
simplex.shx
70
0
71
0
40
0
41
1
42
0
50
0
0
STYLE
5
169
100
AcDbSymbolTableRecord
100
AcDbTextStyleTableRecord
2
DWGDirectTextStyle
3
simplex
70
0
71
0
40
0
41
1
42
0
50
0
0
ENDTAB
0
TABLE
2
DIMSTYLE
5
225
100
AcDbSymbolTable
100
AcDbDimStyleTable
0
DIMSTYLE
105
27
100
AcDbSymbolTableRecord
100
AcDbDimStyleTableRecord
2
Standard
70
0
3
<>
41
0.18
42
0.0625
44
0.18
140
0.18
147
0.09
73
0
74
0
77
1
271
2
275
0
278
52
280
0
340
11
0
ENDTAB
0
TABLE
2
VIEW
5
226
100
AcDbSymbolTable
0
ENDTAB
0
TABLE
2
UCS
5
227
100
AcDbSymbolTable
0
ENDTAB
0
TABLE
2
APPID
5
228
100
AcDbSymbolTable
0
APPID
5
12
100
AcDbSymbolTableRecord
100
AcDbRegAppTableRecord
2
ACAD
70
0
0
ENDTAB
0
TABLE
2
BLOCK_RECORD
5
229
100
AcDbSymbolTable
0
BLOCK_RECORD
5
1F
100
AcDbSymbolTableRecord
100
AcDbBlockTableRecord
2
*Model_Space
340
0
70
0
0
BLOCK_RECORD
5
1B
100
AcDbSymbolTableRecord
100
AcDbBlockTableRecord
2
*Paper_Space
340
0
70
0
0
BLOCK_RECORD
5
23
100
AcDbSymbolTableRecord
100
AcDbBlockTableRecord
2
*Paper_Space0
340
0
70
0
0
BLOCK_RECORD
5
16B
100
AcDbSymbolTableRecord
100
AcDbBlockTableRecord
2
DimnDraft3D11
340
0
70
0
0
BLOCK_RECORD
5
17A
100
AcDbSymbolTableRecord
100
AcDbBlockTableRecord
2
DimnDraft3D22
340
0
70
0
0
BLOCK_RECORD
5
188
100
AcDbSymbolTableRecord
100
AcDbBlockTableRecord
2
DimnDraft3D3
340
0
70
0
0
BLOCK_RECORD
5
197
100
AcDbSymbolTableRecord
100
AcDbBlockTableRecord
2
DimnDraft3D4
340
0
70
0
0
BLOCK_RECORD
5
1A6
100
AcDbSymbolTableRecord
100
AcDbBlockTableRecord
2
DimnDraft3D5
340
0
70
0
0
ENDTAB
0
ENDSEC
0
SECTION
2
BLOCKS
0
BLOCK
5
20
100
AcDbEntity
8
0
100
AcDbBlockBegin
2
*Model_Space
70
0
10
0
20
0
30
0
3
*Model_Space
0
ENDBLK
5
21
100
AcDbEntity
8
0
100
AcDbBlockEnd
0
BLOCK
5
1C
100
AcDbEntity
8
0
100
AcDbBlockBegin
2
*Paper_Space
70
0
10
0
20
0
30
0
3
*Paper_Space
0
ENDBLK
5
1D
100
AcDbEntity
8
0
100
AcDbBlockEnd
0
BLOCK
5
24
100
AcDbEntity
8
0
100
AcDbBlockBegin
2
*Paper_Space0
70
0
10
0
20
0
30
0
3
*Paper_Space0
0
ENDBLK
5
25
100
AcDbEntity
8
0
100
AcDbBlockEnd
0
BLOCK
5
16C
100
AcDbEntity
8
0
100
AcDbBlockBegin
2
DimnDraft3D11
70
0
10
0
20
0
30
0
3
DimnDraft3D11
0
LINE
5
16E
100
AcDbEntity
8
SK2
62
256
6
ByLayer
370
25
48
1
60
0
100
AcDbLine
10
101.088981
20
35
30
0
11
133.863039
21
35
31
0
39
0
210
0
220
0
230
1
0
LINE
5
170
100
AcDbEntity
8
SK2
62
256
6
ByLayer
370
25
48
1
60
0
100
AcDbLine
10
96.07068
20
0
30
0
11
133.863039
21
0
31
0
39
0
210
0
220
0
230
1
0
LINE
5
171
100
AcDbEntity
8
SK2
62
256
6
ByLayer
370
25
48
1
60
0
100
AcDbLine
10
130.688039
20
35
30
0
11
130.688039
21
0
31
0
39
0
210
0
220
0
230
1
0
LINE
5
172
100
AcDbEntity
8
SK2
62
256
6
ByLayer
370
25
48
1
60
0
100
AcDbLine
10
130.688039
20
35
30
0
11
131.106036
21
31.825002
31
0
39
0
210
0
220
0
230
1
0
LINE
5
173
100
AcDbEntity
8
SK2
62
256
6
ByLayer
370
25
48
1
60
0
100
AcDbLine
10
130.688039
20
35
30
0
11
130.270042
21
31.824998
31
0
39
0
210
0
220
0
230
1
0
LINE
5
174
100
AcDbEntity
8
SK2
62
256
6
ByLayer
370
25
48
1
60
0
100
AcDbLine
10
131.106036
20
31.825002
30
0
11
130.270042
21
31.824998
31
0
39
0
210
0
220
0
230
1
0
LINE
5
175
100
AcDbEntity
8
SK2
62
256
6
ByLayer
370
25
48
1
60
0
100
AcDbLine
10
130.688039
20
0
30
0
11
130.270042
21
3.174998
31
0
39
0
210
0
220
0
230
1
0
LINE
5
176
100
AcDbEntity
8
SK2
62
256
6
ByLayer
370
25
48
1
60
0
100
AcDbLine
10
130.688039
20
0
30
0
11
131.106036
21
3.175002
31
0
39
0
210
0
220
0
230
1
0
LINE
5
177
100
AcDbEntity
8
SK2
62
256
6
ByLayer
370
25
48
1
60
0
100
AcDbLine
10
130.270042
20
3.174998
30
0
11
131.106036
21
3.175002
31
0
39
0
210
0
220
0
230
1
0
MTEXT
5
178
100
AcDbEntity
8
SK2
62
256
6
ByLayer
370
18
48
1
60
0
100
AcDbMText
10
129.813009
20
14.868224
30
0
210
0
220
0
230
1
1
\W0.6562;35
40
3.50012
41
0
44
1.084337
50
90
71
7
72
5
7
iso_b_vert
0
ENDBLK
5
16D
100
AcDbEntity
8
0
100
AcDbBlockEnd
0
BLOCK
5
17B
100
AcDbEntity
8
0
100
AcDbBlockBegin
2
DimnDraft3D22
70
0
10
0
20
0
30
0
3
DimnDraft3D22
0
LINE
5
17D
100
AcDbEntity
8
SK2
62
256
6
ByLayer
370
25
48
1
60
0
100
AcDbLine
10
91.0875
20
55
30
0
11
120.211948
21
55
31
0
39
0
210
0
220
0
230
1
0
LINE
5
17E
100
AcDbEntity
8
SK2
62
256
6
ByLayer
370
25
48
1
60
0
100
AcDbLine
10
91.0875
20
15
30
0
11
120.211948
21
15
31
0
39
0
210
0
220
0
230
1
0
LINE
5
17F
100
AcDbEntity
8
SK2
62
256
6
ByLayer
370
25
48
1
60
0
100
AcDbLine
10
117.036948
20
55
30
0
11
117.036948
21
15
31
0
39
0
210
0
220
0
230
1
0
LINE
5
180
100
AcDbEntity
8
SK2
62
256
6
ByLayer
370
25
48
1
60
0
100
AcDbLine
10
117.036948
20
55
30
0
11
117.454945
21
51.825002
31
0
39
0
210
0
220
0
230
1
0
LINE
5
181
100
AcDbEntity
8
SK2
62
256
6
ByLayer
370
25
48
1
60
0
100
AcDbLine
10
117.036948
20
55
30
0
11
116.618952
21
51.824998
31
0
39
0
210
0
220
0
230
1
0
LINE
5
182
100
AcDbEntity
8
SK2
62
256
6
ByLayer
370
25
48
1
60
0
100
AcDbLine
10
117.454945
20
51.825002
30
0
11
116.618952
21
51.824998
31
0
39
0
210
0
220
0
230
1
0
LINE
5
183
100
AcDbEntity
8
SK2
62
256
6
ByLayer
370
25
48
1
60
0
100
AcDbLine
10
117.036948
20
15
30
0
11
116.618952
21
18.174998
31
0
39
0
210
0
220
0
230
1
0
LINE
5
184
100
AcDbEntity
8
SK2
62
256
6
ByLayer
370
25
48
1
60
0
100
AcDbLine
10
117.036948
20
15
30
0
11
117.454945
21
18.175002
31
0
39
0
210
0
220
0
230
1
0
LINE
5
185
100
AcDbEntity
8
SK2
62
256
6
ByLayer
370
25
48
1
60
0
100
AcDbLine
10
116.618952
20
18.174998
30
0
11
117.454945
21
18.175002
31
0
39
0
210
0
220
0
230
1
0
MTEXT
5
186
100
AcDbEntity
8
SK2
62
256
6
ByLayer
370
18
48
1
60
0
100
AcDbMText
10
116.161918
20
36.79288
30
0
210
0
220
0
230
1
1
\W0.7183;40
40
3.50012
41
0
44
1.084337
50
90
71
7
72
5
7
iso_b_vert
0
ENDBLK
5
17C
100
AcDbEntity
8
0
100
AcDbBlockEnd
0
BLOCK
5
194
100
AcDbEntity
8
0
100
AcDbBlockBegin
2
DimnDraft3D3
70
0
10
0
20
0
30
0
3
DimnDraft3D3
0
MTEXT
5
189
100
AcDbEntity
8
SK2
62
256
6
ByLayer
370
18
48
1
60
0
100
AcDbMText
10
-63.8091
20
3.336833
30
0
210
0
220
0
230
1
1
\W0.6562;80
40
3.50012
41
0
44
1.084337
50
90
71
7
72
5
7
iso_b_vert
0
MTEXT
5
18A
100
AcDbEntity
8
SK2
62
256
6
ByLayer
370
18
48
1
60
0
100
AcDbMText
10
-63.8091
20
-5.386122
30
0
210
0
220
0
230
1
1
%%c
40
3.50012
41
0
44
1.084337
50
90
71
7
72
5
7
iso_b_vert
0
LINE
5
18B
100
AcDbEntity
8
SK2
62
256
6
ByLayer
370
13
48
1
60
0
100
AcDbLine
10
-1.2875
20
-40
30
0
11
-65.23404
21
-40
31
0
39
0
210
0
220
0
230
1
0
LINE
5
18C
100
AcDbEntity
8
SK2
62
256
6
ByLayer
370
13
48
1
60
0
100
AcDbLine
10
-1.2875
20
40
30
0
11
-65.23404
21
40
31
0
39
0
210
0
220
0
230
1
0
LINE
5
18D
100
AcDbEntity
8
SK2
62
256
6
ByLayer
370
13
48
1
60
0
100
AcDbLine
10
-62.05904
20
-40
30
0
11
-62.05904
21
40
31
0
39
0
210
0
220
0
230
1
0
LINE
5
18E
100
AcDbEntity
8
SK2
62
256
6
ByLayer
370
13
48
1
60
0
100
AcDbLine
10
-62.05904
20
-40
30
0
11
-62.477037
21
-36.825002
31
0
39
0
210
0
220
0
230
1
0
LINE
5
18F
100
AcDbEntity
8
SK2
62
256
6
ByLayer
370
13
48
1
60
0
100
AcDbLine
10
-62.05904
20
-40
30
0
11
-61.641044
21
-36.824998
31
0
39
0
210
0
220
0
230
1
0
LINE
5
190
100
AcDbEntity
8
SK2
62
256
6
ByLayer
370
13
48
1
60
0
100
AcDbLine
10
-62.477037
20
-36.825002
30
0
11
-61.641044
21
-36.824998
31
0
39
0
210
0
220
0
230
1
0
LINE
5
191
100
AcDbEntity
8
SK2
62
256
6
ByLayer
370
13
48
1
60
0
100
AcDbLine
10
-62.05904
20
40
30
0
11
-61.641044
21
36.825002
31
0
39
0
210
0
220
0
230
1
0
LINE
5
192
100
AcDbEntity
8
SK2
62
256
6
ByLayer
370
13
48
1
60
0
100
AcDbLine
10
-62.05904
20
40
30
0
11
-62.477037
21
36.824998
31
0
39
0
210
0
220
0
230
1
0
LINE
5
193
100
AcDbEntity
8
SK2
62
256
6
ByLayer
370
13
48
1
60
0
100
AcDbLine
10
-61.641044
20
36.825002
30
0
11
-62.477037
21
36.824998
31
0
39
0
210
0
220
0
230
1
0
ENDBLK
5
195
100
AcDbEntity
8
0
100
AcDbBlockEnd
0
BLOCK
5
1A3
100
AcDbEntity
8
0
100
AcDbBlockBegin
2
DimnDraft3D4
70
0
10
0
20
0
30
0
3
DimnDraft3D4
0
MTEXT
5
198
100
AcDbEntity
8
2
62
256
6
ByLayer
370
18
48
1
60
0
100
AcDbMText
10
43.784909
20
-50.034153
30
0
210
0
220
0
230
1
1
\W0.6740;90
40
3.50012
41
0
44
1.084337
50
0
71
7
72
5
7
iso_b_vert
0
LINE
5
19A
100
AcDbEntity
8
2
62
256
6
ByLayer
370
13
48
1
60
0
100
AcDbLine
10
0
20
-41.2875
30
0
11
0
21
-54.084183
31
0
39
0
210
0
220
0
230
1
0
LINE
5
19B
100
AcDbEntity
8
2
62
256
6
ByLayer
370
13
48
1
60
0
100
AcDbLine
10
90.001481
20
33.4125
30
0
11
90.001481
21
-54.084183
31
0
39
0
210
0
220
0
230
1
0
LINE
5
19C
100
AcDbEntity
8
2
62
256
6
ByLayer
370
13
48
1
60
0
100
AcDbLine
10
0
20
-50.909183
30
0
11
90.001481
21
-50.909183
31
0
39
0
210
0
220
0
230
1
0
LINE
5
19D
100
AcDbEntity
8
2
62
256
6
ByLayer
370
13
48
1
60
0
100
AcDbLine
10
0
20
-50.909183
30
0
11
3.174998
21
-50.491186
31
0
39
0
210
0
220
0
230
1
0
LINE
5
19E
100
AcDbEntity
8
2
62
256
6
ByLayer
370
13
48
1
60
0
100
AcDbLine
10
0
20
-50.909183
30
0
11
3.175002
21
-51.327179
31
0
39
0
210
0
220
0
230
1
0
LINE
5
19F
100
AcDbEntity
8
2
62
256
6
ByLayer
370
13
48
1
60
0
100
AcDbLine
10
3.174998
20
-50.491186
30
0
11
3.175002
21
-51.327179
31
0
39
0
210
0
220
0
230
1
0
LINE
5
1A0
100
AcDbEntity
8
2
62
256
6
ByLayer
370
13
48
1
60
0
100
AcDbLine
10
90.001481
20
-50.909183
30
0
11
86.826482
21
-51.327179
31
0
39
0
210
0
220
0
230
1
0
LINE
5
1A1
100
AcDbEntity
8
2
62
256
6
ByLayer
370
13
48
1
60
0
100
AcDbLine
10
90.001481
20
-50.909183
30
0
11
86.826479
21
-50.491186
31
0
39
0
210
0
220
0
230
1
0
LINE
5
1A2
100
AcDbEntity
8
2
62
256
6
ByLayer
370
13
48
1
60
0
100
AcDbLine
10
86.826482
20
-51.327179
30
0
11
86.826479
21
-50.491186
31
0
39
0
210
0
220
0
230
1
0
ENDBLK
5
1A4
100
AcDbEntity
8
0
100
AcDbBlockEnd
0
BLOCK
5
1B1
100
AcDbEntity
8
0
100
AcDbBlockBegin
2
DimnDraft3D5
70
0
10
0
20
0
30
0
3
DimnDraft3D5
0
MTEXT
5
1A7
100
AcDbEntity
8
SK2
62
256
6
ByLayer
370
18
48
1
60
0
100
AcDbMText
10
63.784909
20
-18.178138
30
0
210
0
220
0
230
1
1
\W0.6740;50
40
3.50012
41
0
44
1.084337
50
0
71
7
72
5
7
iso_b_vert
0
LINE
5
1A8
100
AcDbEntity
8
SK2
62
256
6
ByLayer
370
13
48
1
60
0
100
AcDbLine
10
40
20
10.060185
30
0
11
40
21
-22.228168
31
0
39
0
210
0
220
0
230
1
0
LINE
5
1A9
100
AcDbEntity
8
SK2
62
256
6
ByLayer
370
13
48
1
60
0
100
AcDbLine
10
90.001481
20
33.4125
30
0
11
90.001481
21
-22.228168
31
0
39
0
210
0
220
0
230
1
0
LINE
5
1AA
100
AcDbEntity
8
SK2
62
256
6
ByLayer
370
13
48
1
60
0
100
AcDbLine
10
40
20
-19.053168
30
0
11
90.001481
21
-19.053168
31
0
39
0
210
0
220
0
230
1
0
LINE
5
1AB
100
AcDbEntity
8
SK2
62
256
6
ByLayer
370
13
48
1
60
0
100
AcDbLine
10
40
20
-19.053168
30
0
11
43.174998
21
-18.635171
31
0
39
0
210
0
220
0
230
1
0
LINE
5
1AC
100
AcDbEntity
8
SK2
62
256
6
ByLayer
370
13
48
1
60
0
100
AcDbLine
10
40
20
-19.053168
30
0
11
43.175002
21
-19.471165
31
0
39
0
210
0
220
0
230
1
0
LINE
5
1AD
100
AcDbEntity
8
SK2
62
256
6
ByLayer
370
13
48
1
60
0
100
AcDbLine
10
43.174998
20
-18.635171
30
0
11
43.175002
21
-19.471165
31
0
39
0
210
0
220
0
230
1
0
LINE
5
1AE
100
AcDbEntity
8
SK2
62
256
6
ByLayer
370
13
48
1
60
0
100
AcDbLine
10
90.001481
20
-19.053168
30
0
11
86.826482
21
-19.471165
31
0
39
0
210
0
220
0
230
1
0
LINE
5
1AF
100
AcDbEntity
8
SK2
62
256
6
ByLayer
370
13
48
1
60
0
100
AcDbLine
10
90.001481
20
-19.053168
30
0
11
86.826479
21
-18.635171
31
0
39
0
210
0
220
0
230
1
0
LINE
5
1B0
100
AcDbEntity
8
SK2
62
256
6
ByLayer
370
13
48
1
60
0
100
AcDbLine
10
86.826482
20
-19.471165
30
0
11
86.826479
21
-18.635171
31
0
39
0
210
0
220
0
230
1
0
ENDBLK
5
1B2
100
AcDbEntity
8
0
100
AcDbBlockEnd
0
ENDSEC
0
SECTION
2
ENTITIES
0
ARC
5
EE
100
AcDbEntity
8
1
62
256
6
ByLayer
370
18
48
1
60
0
100
AcDbCircle
39
0
10
105.5
20
48.367292
30
0
40
0.5
210
0
220
0
230
1
100
AcDbArc
50
0
51
90
0
ARC
5
EF
100
AcDbEntity
8
1
62
256
6
ByLayer
370
18
48
1
60
0
100
AcDbCircle
39
0
10
105.5
20
36.367292
30
0
40
0.5
210
0
220
0
230
1
100
AcDbArc
50
270
51
0
0
ARC
5
F0
100
AcDbEntity
8
1
62
256
6
ByLayer
370
18
48
1
60
0
100
AcDbCircle
39
0
10
105.5
20
33.632708
30
0
40
0.5
210
0
220
0
230
1
100
AcDbArc
50
0
51
90
0
ARC
5
F1
100
AcDbEntity
8
1
62
256
6
ByLayer
370
18
48
1
60
0
100
AcDbCircle
39
0
10
105.5
20
21.632708
30
0
40
0.5
210
0
220
0
230
1
100
AcDbArc
50
270
51
0
0
ARC
5
F2
100
AcDbEntity
8
1
62
256
6
ByLayer
370
18
48
1
60
0
100
AcDbCircle
39
0
10
-89.659481
20
39.5
30
0
40
0.154500000000282
210
0
220
0
230
-1
100
AcDbArc
50
300
51
60
0
ARC
5
F3
100
AcDbEntity
8
1
62
256
6
ByLayer
370
18
48
1
60
0
100
AcDbCircle
39
0
10
-89.659481
20
38
30
0
40
0.154500000000282
210
0
220
0
230
-1
100
AcDbArc
50
300
51
60
0
ARC
5
F4
100
AcDbEntity
8
1
62
256
6
ByLayer
370
18
48
1
60
0
100
AcDbCircle
39
0
10
-89.659481
20
36.5
30
0
40
0.154500000000014
210
0
220
0
230
-1
100
AcDbArc
50
300
51
60
0
ARC
5
F5
100
AcDbEntity
8
1
62
256
6
ByLayer
370
18
48
1
60
0
100
AcDbCircle
39
0
10
-89.659481
20
35
30
0
40
0.154500000000014
210
0
220
0
230
-1
100
AcDbArc
50
300
51
60
0
ARC
5
F6
100
AcDbEntity
8
1
62
256
6
ByLayer
370
18
48
1
60
0
100
AcDbCircle
39
0
10
-89.659481
20
33.5
30
0
40
0.154499999999955
210
0
220
0
230
-1
100
AcDbArc
50
300
51
60
0
ARC
5
F7
100
AcDbEntity
8
1
62
256
6
ByLayer
370
18
48
1
60
0
100
AcDbCircle
39
0
10
-89.659481
20
32
30
0
40
0.154500000000111
210
0
220
0
230
-1
100
AcDbArc
50
300
51
60
0
ARC
5
F8
100
AcDbEntity
8
1
62
256
6
ByLayer
370
18
48
1
60
0
100
AcDbCircle
39
0
10
-89.659481
20
30.5
30
0
40
0.154500000000096
210
0
220
0
230
-1
100
AcDbArc
50
300
51
60
0
ARC
5
F9
100
AcDbEntity
8
1
62
256
6
ByLayer
370
18
48
1
60
0
100
AcDbCircle
39
0
10
-30
20
41.2
30
0
40
1.2
210
0
220
0
230
-1
100
AcDbArc
50
195
51
270
0
ARC
5
FA
100
AcDbEntity
8
1
62
256
6
ByLayer
370
18
48
1
60
0
100
AcDbCircle
39
0
10
-41.6
20
13.15
30
0
40
1.6
210
0
220
0
230
-1
100
AcDbArc
50
0
51
90
0
ARC
5
FB
100
AcDbEntity
8
SK1
62
256
6
ByLayer
370
18
48
1
60
0
100
AcDbCircle
39
0
10
0.6
20
-29.6
30
0
40
1
210
0
220
0
230
-1
100
AcDbArc
50
113.578178
51
126.870857
0
ARC
5
FC
100
AcDbEntity
8
SK1
62
256
6
ByLayer
370
18
48
1
60
0
100
AcDbCircle
39
0
10
0.6
20
29.6
30
0
40
1
210
0
220
0
230
-1
100
AcDbArc
50
233.129143
51
246.421822
0
ELLIPSE
5
FD
100
AcDbEntity
8
1
62
256
6
ByLayer
370
18
48
1
60
0
100
AcDbEllipse
10
-6.763884
20
0
30
0
11
18.7348357595625
21
-39.4834983054985
31
0
210
0
220
0
230
-1
40
0.341999
41
-1.08794676716933
42
-0.161099005228948
0
ELLIPSE
5
FE
100
AcDbEntity
8
1
62
256
6
ByLayer
370
18
48
1
60
0
100
AcDbEllipse
10
30.763884
20
0
30
0
11
18.7348357595645
21
39.483498305501
31
0
210
0
220
0
230
-1
40
0.341999
41
-2.98049364836085
42
-2.05364588642051
0
ELLIPSE
5
FF
100
AcDbEntity
8
1
62
256
6
ByLayer
370
18
48
1
60
0
100
AcDbEllipse
10
-6.763884
20
0
30
0
11
18.7348357595616
21
39.4834983054975
31
0
210
0
220
0
230
-1
40
0.341999
41
0.161099005228956
42
1.08794676716935
0
ELLIPSE
5
100
100
AcDbEntity
8
1
62
256
6
ByLayer
370
18
48
1
60
0
100
AcDbEllipse
10
30.763884
20
0
30
0
11
18.7348357595634
21
-39.4834983054997
31
0
210
0
220
0
230
-1
40
0.341999
41
2.05364588642048
42
2.98049364836085
0
ELLIPSE
5
101
100
AcDbEntity
8
1
62
256
6
ByLayer
370
18
48
1
60
0
100
AcDbEllipse
10
41.6
20
22.825897
30
0
11
-1.6
21
1.9593701661158E-16
31
0
210
0
220
0
230
1
40
0.843559
41
-1.5707963267949
42
0
0
POINT
5
6C
100
AcDbEntity
8
80
62
256
6
ByLayer
370
18
48
1
60
0
100
AcDbPoint
10
0
20
0
30
0
39
0
210
0
220
0
230
1
50
360
0
POINT
5
6E
100
AcDbEntity
8
81
62
256
6
ByLayer
370
18
48
1
60
0
100
AcDbPoint
10
90.001481
20
35
30
0
39
0
210
0
220
0
230
1
50
360
0
SPLINE
5
102
100
AcDbEntity
8
1
62
256
6
ByLayer
370
18
48
1
60
0
100
AcDbSpline
70
4
71
3
72
16
73
12
40
0
40
0
40
0
40
0
40
0.125
40
0.125
40
0.25
40
0.25
40
0.5
40
0.5
40
0.75
40
0.75
40
1
40
1
40
1
40
1
41
1
10
10.5386751345949
20
38.1154578595254
30
0
41
1
10
10.5070097812328
20
38.1154578595254
30
0
41
1
10
10.4761852218641
20
38.1134542929027
30
0
41
1
10
10.4179414896384
20
38.1062685963606
30
0
41
1
10
10.3914602024635
20
38.101260466828
30
0
41
1
10
10.3176492454755
20
38.0832729594606
30
0
41
1
10
10.2787320432279
20
38.0682137252775
30
0
41
1
10
10.2123318812526
20
38.0356330717497
30
0
41
1
10
10.1856242795052
20
38.0183244490835
30
0
41
1
10
10.1400321601289
20
37.9823481941392
30
0
41
1
10
10.1212495620849
20
37.9636126331776
30
0
41
1
10
10.1056624327026
20
37.9445010117191
30
0
0
SPLINE
5
103
100
AcDbEntity
8
1
62
256
6
ByLayer
370
18
48
1
60
0
100
AcDbSpline
70
4
71
3
72
16
73
12
40
0
40
0
40
0
40
0
40
0.249999999999999
40
0.249999999999999
40
0.499999999999997
40
0.499999999999997
40
0.749999999999996
40
0.749999999999996
40
0.874999999999998
40
0.874999999999998
40
1
40
1
40
1
40
1
41
1
10
10.1056624327025
20
-37.9445010117191
30
0
41
1
10
10.1212438126111
20
-37.9636055836587
30
0
41
1
10
10.1398761201256
20
-37.9822012953861
30
0
41
1
10
10.1853710085985
20
-38.0181481521524
30
0
41
1
10
10.2123078345525
20
-38.0356224517383
30
0
41
1
10
10.2787828778388
20
-38.0682374888743
30
0
41
1
10
10.3183968079981
20
-38.0834517571985
30
0
41
1
10
10.39102230649
20
-38.1011554411599
30
0
41
1
10
10.4180445359028
20
-38.1062761312752
30
0
41
1
10
10.4758266843416
20
-38.1134152144531
30
0
41
1
10
10.5070602691283
20
-38.1154578595256
30
0
41
1
10
10.5386751345946
20
-38.1154578595256
30
0
0
SPLINE
5
104
100
AcDbEntity
8
1
62
256
6
ByLayer
370
18
48
1
60
0
100
AcDbSpline
70
4
71
3
72
16
73
12
40
0
40
0
40
0
40
0
40
0.124999999999996
40
0.124999999999996
40
0.249999999999993
40
0.249999999999993
40
0.499999999999995
40
0.499999999999995
40
0.749999999999998
40
0.749999999999998
40
1
40
1
40
1
40
1
41
1
10
13.4613248654051
20
-38.1154578595255
30
0
41
1
10
13.4929902187672
20
-38.1154578595255
30
0
41
1
10
13.5238147781359
20
-38.1134542929028
30
0
41
1
10
13.5820585103616
20
-38.1062685963607
30
0
41
1
10
13.6085397975365
20
-38.1012604668281
30
0
41
1
10
13.6823507545245
20
-38.0832729594607
30
0
41
1
10
13.7212679567721
20
-38.0682137252776
30
0
41
1
10
13.7876681187474
20
-38.0356330717498
30
0
41
1
10
13.8143757204948
20
-38.0183244490836
30
0
41
1
10
13.8599678398711
20
-37.9823481941393
30
0
41
1
10
13.8787504379151
20
-37.9636126331777
30
0
41
1
10
13.8943375672974
20
-37.9445010117191
30
0
0
SPLINE
5
105
100
AcDbEntity
8
1
62
256
6
ByLayer
370
18
48
1
60
0
100
AcDbSpline
70
4
71
3
72
16
73
12
40
0
40
0
40
0
40
0
40
0.25
40
0.25
40
0.500000000000001
40
0.500000000000001
40
0.750000000000001
40
0.750000000000001
40
0.875
40
0.875
40
1
40
1
40
1
40
1
41
1
10
13.8943375672974
20
-12.6576002058704
30
0
41
1
10
13.8787561873888
20
-12.6003292036663
30
0
41
1
10
13.8601238798743
20
-12.5441499637056
30
0
41
1
10
13.8146289914013
20
-12.4347788334234
30
0
41
1
10
13.7876921654473
20
-12.3812044282565
30
0
41
1
10
13.7212171221611
20
-12.280557514874
30
0
41
1
10
13.6816031920018
20
-12.2332416215829
30
0
41
1
10
13.6089776935098
20
-12.1779443514618
30
0
41
1
10
13.581955464097
20
-12.1619018862399
30
0
41
1
10
13.5241733156583
20
-12.1395106480538
30
0
41
1
10
13.4929397308715
20
-12.1330899674706
30
0
41
1
10
13.4613248654052
20
-12.1330899674705
30
0
0
SPLINE
5
106
100
AcDbEntity
8
1
62
256
6
ByLayer
370
18
48
1
60
0
100
AcDbSpline
70
4
71
3
72
16
73
12
40
0
40
0
40
0
40
0
40
0.124999999999998
40
0.124999999999998
40
0.249999999999996
40
0.249999999999996
40
0.499999999999997
40
0.499999999999997
40
0.749999999999999
40
0.749999999999999
40
1
40
1
40
1
40
1
41
1
10
10.5386751345948
20
-12.1330899674707
30
0
41
1
10
10.5070097812326
20
-12.1330899674707
30
0
41
1
10
10.4761852218639
20
-12.1393880305615
30
0
41
1
10
10.4179414896383
20
-12.1619255694048
30
0
41
1
10
10.3914602024633
20
-12.177616249759
30
0
41
1
10
10.3176492454754
20
-12.2338002045595
30
0
41
1
10
10.2787320432278
20
-12.2806309384213
30
0
41
1
10
10.2123318812525
20
-12.3811715645305
30
0
41
1
10
10.1856242795051
20
-12.4342400380054
30
0
41
1
10
10.1400321601288
20
-12.543705389465
30
0
41
1
10
10.1212495620848
20
-12.6003080708704
30
0
41
1
10
10.1056624327025
20
-12.6576002058704
30
0
0
SPLINE
5
107
100
AcDbEntity
8
1
62
256
6
ByLayer
370
18
48
1
60
0
100
AcDbSpline
70
4
71
3
72
16
73
12
40
0
40
0
40
0
40
0
40
0.249999999999999
40
0.249999999999999
40
0.499999999999998
40
0.499999999999998
40
0.749999999999997
40
0.749999999999997
40
0.874999999999998
40
0.874999999999998
40
1
40
1
40
1
40
1
41
1
10
10.1056624327026
20
12.6576002058703
30
0
41
1
10
10.1212438126112
20
12.6003292036662
30
0
41
1
10
10.1398761201257
20
12.5441499637055
30
0
41
1
10
10.1853710085987
20
12.4347788334234
30
0
41
1
10
10.2123078345527
20
12.3812044282565
30
0
41
1
10
10.2787828778389
20
12.280557514874
30
0
41
1
10
10.3183968079982
20
12.2332416215829
30
0
41
1
10
10.3910223064902
20
12.1779443514617
30
0
41
1
10
10.4180445359029
20
12.1619018862399
30
0
41
1
10
10.4758266843417
20
12.1395106480538
30
0
41
1
10
10.5070602691285
20
12.1330899674705
30
0
41
1
10
10.5386751345948
20
12.1330899674705
30
0
0
SPLINE
5
108
100
AcDbEntity
8
1
62
256
6
ByLayer
370
18
48
1
60
0
100
AcDbSpline
70
4
71
3
72
16
73
12
40
0
40
0
40
0
40
0
40
0.125000000000002
40
0.125000000000002
40
0.250000000000003
40
0.250000000000003
40
0.500000000000002
40
0.500000000000002
40
0.750000000000001
40
0.750000000000001
40
1
40
1
40
1
40
1
41
1
10
13.4613248654052
20
12.1330899674707
30
0
41
1
10
13.4929902187674
20
12.1330899674707
30
0
41
1
10
13.5238147781361
20
12.1393880305614
30
0
41
1
10
13.5820585103617
20
12.1619255694047
30
0
41
1
10
13.6085397975367
20
12.177616249759
30
0
41
1
10
13.6823507545246
20
12.2338002045595
30
0
41
1
10
13.7212679567723
20
12.2806309384212
30
0
41
1
10
13.7876681187476
20
12.3811715645304
30
0
41
1
10
13.8143757204949
20
12.4342400380054
30
0
41
1
10
13.8599678398713
20
12.5437053894649
30
0
41
1
10
13.8787504379152
20
12.6003080708704
30
0
41
1
10
13.8943375672975
20
12.6576002058703
30
0
0
SPLINE
5
109
100
AcDbEntity
8
1
62
256
6
ByLayer
370
18
48
1
60
0
100
AcDbSpline
70
4
71
3
72
16
73
12
40
0
40
0
40
0
40
0
40
0.250000000000002
40
0.250000000000002
40
0.500000000000003
40
0.500000000000003
40
0.750000000000005
40
0.750000000000005
40
0.875000000000002
40
0.875000000000002
40
1
40
1
40
1
40
1
41
1
10
13.8943375672975
20
37.9445010117191
30
0
41
1
10
13.8787561873889
20
37.9636055836586
30
0
41
1
10
13.8601238798744
20
37.9822012953861
30
0
41
1
10
13.8146289914015
20
38.0181481521524
30
0
41
1
10
13.7876921654474
20
38.0356224517383
30
0
41
1
10
13.7212171221612
20
38.0682374888742
30
0
41
1
10
13.6816031920019
20
38.0834517571985
30
0
41
1
10
13.60897769351
20
38.1011554411598
30
0
41
1
10
13.5819554640972
20
38.1062761312751
30
0
41
1
10
13.5241733156584
20
38.1134152144531
30
0
41
1
10
13.4929397308717
20
38.1154578595255
30
0
41
1
10
13.4613248654054
20
38.1154578595255
30
0
0
SPLINE
5
10A
100
AcDbEntity
8
1
62
256
6
ByLayer
370
18
48
1
60
0
100
AcDbSpline
70
4
71
3
72
12
73
8
40
0
40
0
40
0
40
0
40
0.25
40
0.25
40
0.5
40
0.5
40
1
40
1
40
1
40
1
41
1
10
29.9999999999999
20
-19.3649167310375
30
0
41
1
10
30.0442354454656
20
-19.3649167310375
30
0
41
1
10
30.0893511481429
20
-19.3701600441406
30
0
41
1
10
30.1759839648153
20
-19.3900539509448
30
0
41
1
10
30.2179965763063
20
-19.4046041924436
30
0
41
1
10
30.3405840118241
20
-19.4604153450842
30
0
41
1
10
30.4130407699623
20
-19.5111971582403
30
0
41
1
10
30.4795831523313
20
-19.5706412771786
30
0
0
SPLINE
5
10B
100
AcDbEntity
8
1
62
256
6
ByLayer
370
18
48
1
60
0
100
AcDbSpline
70
4
71
3
72
26
73
22
40
0
40
0
40
0
40
0
40
0.125000000000001
40
0.125000000000001
40
0.250000000000002
40
0.250000000000002
40
0.375000000000002
40
0.375000000000002
40
0.500000000000003
40
0.500000000000003
40
0.625000000000004
40
0.625000000000004
40
0.750000000000005
40
0.750000000000005
40
0.812500000000003
40
0.812500000000003
40
0.875000000000002
40
0.875000000000002
40
0.937500000000001
40
0.937500000000001
40
1
40
1
40
1
40
1
41
1
10
31.159110991547
20
21.1410603927414
30
0
41
1
10
31.1461050405437
20
21.0471802342205
30
0
41
1
10
31.1299136699761
20
20.953490426317
30
0
41
1
10
31.0911452245264
20
20.7685401197176
30
0
41
1
10
31.0685377058906
20
20.6769986060604
30
0
41
1
10
31.0161923072326
20
20.495980914427
30
0
41
1
10
30.9864669303963
20
20.4065011148565
30
0
41
1
10
30.9185623031644
20
20.2299902116175
30
0
41
1
10
30.8801966263231
20
20.1425595046132
30
0
41
1
10
30.7937334392768
20
19.9733117600015
30
0
41
1
10
30.7457321651309
20
19.8914393357425
30
0
41
1
10
30.6365521752291
20
19.7352960540481
30
0
41
1
10
30.5760309136872
20
19.6619630916085
30
0
41
1
10
30.4737516011149
20
19.5641739135
30
0
41
1
10
30.4376658149633
20
19.5335573000126
30
0
41
1
10
30.3602726283499
20
19.4775118770555
30
0
41
1
10
30.3192831386166
20
19.4524066482541
30
0
41
1
10
30.2339678388251
20
19.4107679189436
30
0
41
1
10
30.18910108974
20
19.3939445734725
30
0
41
1
10
30.0956744455159
20
19.3708991236619
30
0
41
1
10
30.0476263560813
20
19.364916731037
30
0
41
1
10
30.0000000000001
20
19.364916731037
30
0
0
SPLINE
5
10C
100
AcDbEntity
8
1
62
256
6
ByLayer
370
18
48
1
60
0
100
AcDbSpline
70
4
71
3
72
10
73
6
40
0
40
0
40
0
40
0
40
0.5
40
0.5
40
1
40
1
40
1
40
1
41
1
10
34.5883124954795
20
40.7103653452911
30
0
41
1
10
33.9289241746171
20
37.4650572053734
30
0
41
1
10
33.30120083611
20
34.2138948068432
30
0
41
1
10
32.1437516284057
20
27.6934521241554
30
0
41
1
10
31.6139480326418
20
24.4241862101754
30
0
41
1
10
31.159110991547
20
21.1410603927414
30
0
0
SPLINE
5
10D
100
AcDbEntity
8
1
62
256
6
ByLayer
370
18
48
1
60
0
100
AcDbSpline
70
4
71
3
72
20
73
16
40
0
40
0
40
0
40
0
40
0.125
40
0.125
40
0.249999999999999
40
0.249999999999999
40
0.500000000000001
40
0.500000000000001
40
0.750000000000002
40
0.750000000000002
40
0.875000000000001
40
0.875000000000001
40
0.9375
40
0.9375
40
1
40
1
40
1
40
1
41
1
10
40.0000000000001
20
24.6980952694632
30
0
41
1
10
40.0000000000001
20
24.9112096602746
30
0
41
1
10
40.015389784346
20
25.1215480448035
30
0
41
1
10
40.069134289946
20
25.5380824030455
30
0
41
1
10
40.1075719396552
20
25.74426341814
30
0
41
1
10
40.2501371058787
20
26.3578907138481
30
0
41
1
10
40.3821072098166
20
26.7620467288229
30
0
41
1
10
40.6853940560664
20
27.5493348158312
30
0
41
1
10
40.8570969393897
20
27.9340481547521
30
0
41
1
10
41.128631514102
20
28.5048939936353
30
0
41
1
10
41.221511581862
20
28.6941214371499
30
0
41
1
10
41.3625828565165
20
28.9771829598637
30
0
41
1
10
41.4098992790777
20
29.0714065032047
30
0
41
1
10
41.5048237758002
20
29.2597237432081
30
0
41
1
10
41.5526571848695
20
29.3542623577022
30
0
41
1
10
41.6000000000001
20
29.4478321042784
30
0
0
SPLINE
5
10E
100
AcDbEntity
8
1
62
256
6
ByLayer
370
18
48
1
60
0
100
AcDbSpline
70
4
71
3
72
10
73
6
40
0
40
0
40
0
40
0
40
0.5
40
0.5
40
1
40
1
40
1
40
1
41
1
10
29.9999999999999
20
-35.3986161495238
30
0
41
1
10
30.0750914635108
20
-35.0453385893257
30
0
41
1
10
30.1528740345332
20
-34.679400363701
30
0
41
1
10
30.3130999356955
20
-33.9255967647746
30
0
41
1
10
30.3955038846557
20
-33.5379166653565
30
0
41
1
10
30.4795831523311
20
-33.1423548110676
30
0
0
SPLINE
5
10F
100
AcDbEntity
8
1
62
256
6
ByLayer
370
18
48
1
60
0
100
AcDbSpline
70
4
71
3
72
8
73
4
40
0
40
0
40
0
40
0
40
1
40
1
40
1
40
1
41
1
10
89.5822309471618
20
44.1338009248845
30
0
41
1
10
89.728225512176
20
44.2180909262956
30
0
41
1
10
89.8680015643673
20
44.2987906676545
30
0
41
1
10
90.0000000000001
20
44.3749999999997
30
0
0
SPLINE
5
110
100
AcDbEntity
8
1
62
256
6
ByLayer
370
18
48
1
60
0
100
AcDbSpline
70
4
71
3
72
18
73
14
40
0
40
0
40
0
40
0
40
0.249999999999992
40
0.249999999999992
40
0.499999999999985
40
0.499999999999985
40
0.624999999999988
40
0.624999999999988
40
0.749999999999992
40
0.749999999999992
40
0.874999999999996
40
0.874999999999996
40
1
40
1
40
1
40
1
41
1
10
89.5822309471618
20
44.1338009248844
30
0
41
1
10
89.5648841796213
20
44.1237857639753
30
0
41
1
10
89.5496120212696
20
44.1106658186449
30
0
41
1
10
89.5239003502783
20
44.0770454803462
30
0
41
1
10
89.5132951957626
20
44.0563771709335
30
0
41
1
10
89.5054925374291
20
44.0180948057915
30
0
41
1
10
89.5042907382099
20
44.0043846282918
30
0
41
1
10
89.5064328307951
20
43.9739327792732
30
0
41
1
10
89.5100181815204
20
43.9570804558866
30
0
41
1
10
89.5235334807836
20
43.9245050202633
30
0
41
1
10
89.5335298816006
20
43.9088650794856
30
0
41
1
10
89.5567932025258
20
43.8832760874768
30
0
41
1
10
89.5694758048222
20
43.8735632599783
30
0
41
1
10
89.5822309471623
20
43.8661990751148
30
0
0
SPLINE
5
111
100
AcDbEntity
8
1
62
256
6
ByLayer
370
18
48
1
60
0
100
AcDbSpline
70
4
71
3
72
8
73
4
40
0
40
0
40
0
40
0
40
1
40
1
40
1
40
1
41
1
10
90.0000000000002
20
43.6249999999997
30
0
41
1
10
89.8607448744531
20
43.7053989842204
30
0
41
1
10
89.7214884382206
20
43.7857987251655
30
0
41
1
10
89.5822309471623
20
43.8661990751148
30
0
0
SPLINE
5
112
100
AcDbEntity
8
1
62
256
6
ByLayer
370
18
48
1
60
0
100
AcDbSpline
70
4
71
3
72
8
73
4
40
0
40
0
40
0
40
0
40
1
40
1
40
1
40
1
41
1
10
89.5822309471618
20
42.6338009248844
30
0
41
1
10
89.7240168397482
20
42.7156610481364
30
0
41
1
10
89.8634505504754
20
42.7961631385589
30
0
41
1
10
90.0000000000001
20
42.8749999999997
30
0
0
SPLINE
5
113
100
AcDbEntity
8
1
62
256
6
ByLayer
370
18
48
1
60
0
100
AcDbSpline
70
4
71
3
72
16
73
12
40
0
40
0
40
0
40
0
40
0.249999999999996
40
0.249999999999996
40
0.499999999999991
40
0.499999999999991
40
0.625000000000008
40
0.625000000000008
40
0.750000000000024
40
0.750000000000024
40
1
40
1
40
1
40
1
41
1
10
89.5822309471618
20
42.6338009248845
30
0
41
1
10
89.5638012154409
20
42.6231605143143
30
0
41
1
10
89.5473406989213
20
42.6088956281188
30
0
41
1
10
89.5198233854645
20
42.5702101029741
30
0
41
1
10
89.5092202625303
20
42.5461739598994
30
0
41
1
10
89.5043312799766
20
42.5029740968633
30
0
41
1
10
89.5046620224332
20
42.4874592086779
30
0
41
1
10
89.5105160342841
20
42.4560042543824
30
0
41
1
10
89.5159809639556
20
42.4406351641986
30
0
41
1
10
89.5382770617748
20
42.3991804393647
30
0
41
1
10
89.5599711096952
20
42.3790507982686
30
0
41
1
10
89.5822309471618
20
42.366199075115
30
0
0
SPLINE
5
114
100
AcDbEntity
8
1
62
256
6
ByLayer
370
18
48
1
60
0
100
AcDbSpline
70
4
71
3
72
8
73
4
40
0
40
0
40
0
40
0
40
1
40
1
40
1
40
1
41
1
10
90.0000000000001
20
42.1249999999997
30
0
41
1
10
89.8609422616178
20
42.2052850226877
30
0
41
1
10
89.7216736413345
20
42.2856917980979
30
0
41
1
10
89.5822309471618
20
42.366199075115
30
0
0
SPLINE
5
115
100
AcDbEntity
8
1
62
256
6
ByLayer
370
18
48
1
60
0
100
AcDbSpline
70
4
71
3
72
8
73
4
40
0
40
0
40
0
40
0
40
1
40
1
40
1
40
1
41
1
10
89.5822309471618
20
41.1338009248844
30
0
41
1
10
89.722566453324
20
41.214823667144
30
0
41
1
10
89.8618937409779
20
41.2952643141764
30
0
41
1
10
90.0000000000001
20
41.3749999999997
30
0
0
SPLINE
5
116
100
AcDbEntity
8
1
62
256
6
ByLayer
370
18
48
1
60
0
100
AcDbSpline
70
4
71
3
72
18
73
14
40
0
40
0
40
0
40
0
40
0.25000000000003
40
0.25000000000003
40
0.375000000000025
40
0.375000000000025
40
0.50000000000002
40
0.50000000000002
40
0.625000000000015
40
0.625000000000015
40
0.75000000000001
40
0.75000000000001
40
1
40
1
40
1
40
1
41
1
10
89.5822309471618
20
41.1338009248845
30
0
41
1
10
89.5626873917774
20
41.1225174479223
30
0
41
1
10
89.5445423031841
20
41.1064536805104
30
0
41
1
10
89.523192682292
20
41.0739189816781
30
0
41
1
10
89.5170248718992
20
41.0614822650529
30
0
41
1
10
89.5081748548436
20
41.0343550392613
30
0
41
1
10
89.5054426855067
20
41.0192992300662
30
0
41
1
10
89.5046301133695
20
40.9889788562878
30
0
41
1
10
89.5065664759243
20
40.9732805835151
30
0
41
1
10
89.514598022232
20
40.9442711852366
30
0
41
1
10
89.5206576171876
20
40.930765108854
30
0
41
1
10
89.5426619963679
20
40.8950994226713
30
0
41
1
10
89.5617990263137
20
40.8779954501168
30
0
41
1
10
89.5822309471618
20
40.866199075115
30
0
0
SPLINE
5
117
100
AcDbEntity
8
1
62
256
6
ByLayer
370
18
48
1
60
0
100
AcDbSpline
70
4
71
3
72
8
73
4
40
0
40
0
40
0
40
0
40
1
40
1
40
1
40
1
41
1
10
90.0000000000001
20
40.6249999999997
30
0
41
1
10
89.8614110367872
20
40.7050143752174
30
0
41
1
10
89.7221141922525
20
40.7854374459068
30
0
41
1
10
89.5822309471618
20
40.866199075115
30
0
0
SPLINE
5
118
100
AcDbEntity
8
1
62
256
6
ByLayer
370
18
48
1
60
0
100
AcDbSpline
70
4
71
3
72
18
73
14
40
0
40
0
40
0
40
0
40
0.249999999999978
40
0.249999999999978
40
0.499999999999956
40
0.499999999999956
40
0.624999999999967
40
0.624999999999967
40
0.749999999999978
40
0.749999999999978
40
0.874999999999989
40
0.874999999999989
40
1
40
1
40
1
40
1
41
1
10
89.5316709670318
20
45.5868035654746
30
0
41
1
10
89.5243957947778
20
45.5760915674578
30
0
41
1
10
89.5180947731642
20
45.5640333043648
30
0
41
1
10
89.5084936989075
20
45.5359606052535
30
0
41
1
10
89.5051822495457
20
45.5202925891569
30
0
41
1
10
89.5048926500161
20
45.4922466006952
30
0
41
1
10
89.5056008426195
20
45.4820725684835
30
0
41
1
10
89.5099047568296
20
45.4596584251616
30
0
41
1
10
89.513465817823
20
45.4473745522521
30
0
41
1
10
89.526131266127
20
45.42057885474
30
0
41
1
10
89.5357009616872
20
45.4060622068609
30
0
41
1
10
89.5584810762793
20
45.3819118131833
30
0
41
1
10
89.5707604301731
20
45.3728215811863
30
0
41
1
10
89.5822309471618
20
45.366199075115
30
0
0
SPLINE
5
119
100
AcDbEntity
8
1
62
256
6
ByLayer
370
18
48
1
60
0
100
AcDbSpline
70
4
71
3
72
8
73
4
40
0
40
0
40
0
40
0
40
1
40
1
40
1
40
1
41
1
10
90.0000000000001
20
45.1249999999997
30
0
41
1
10
89.8614895769222
20
45.2049690300494
30
0
41
1
10
89.7221564070714
20
45.2854130731698
30
0
41
1
10
89.5822309471618
20
45.366199075115
30
0
0
SPLINE
5
11A
100
AcDbEntity
8
1
62
256
6
ByLayer
370
18
48
1
60
0
100
AcDbSpline
70
4
71
3
72
8
73
4
40
0
40
0
40
0
40
0
40
1
40
1
40
1
40
1
41
1
10
89.5822309471618
20
29.1338009248844
30
0
41
1
10
89.7221141922525
20
29.2145625540927
30
0
41
1
10
89.8614110367872
20
29.294985624782
30
0
41
1
10
90.0000000000001
20
29.3749999999997
30
0
0
SPLINE
5
11B
100
AcDbEntity
8
1
62
256
6
ByLayer
370
18
48
1
60
0
100
AcDbSpline
70
4
71
3
72
20
73
16
40
0
40
0
40
0
40
0
40
0.125000000000006
40
0.125000000000006
40
0.250000000000012
40
0.250000000000012
40
0.375000000000019
40
0.375000000000019
40
0.500000000000025
40
0.500000000000025
40
0.625000000000031
40
0.625000000000031
40
0.750000000000037
40
0.750000000000037
40
1
40
1
40
1
40
1
41
1
10
89.5822309471618
20
29.1338009248845
30
0
41
1
10
89.572078145449
20
29.1279392020826
30
0
41
1
10
89.5623914963902
20
29.1208368205508
30
0
41
1
10
89.5441541768458
20
29.1035742955585
30
0
41
1
10
89.5355223490852
20
29.0932527446353
30
0
41
1
10
89.5209214649853
20
29.0697357750235
30
0
41
1
10
89.5147898667273
20
29.056220249892
30
0
41
1
10
89.506666113835
20
29.0272736497474
30
0
41
1
10
89.5046621820184
20
29.0116725604084
30
0
41
1
10
89.5053858568546
20
28.9810315564615
30
0
41
1
10
89.5080684510484
20
28.9660431641785
30
0
41
1
10
89.5169845281462
20
28.9385705181038
30
0
41
1
10
89.522999839063
20
28.9264107161858
30
0
41
1
10
89.5445508790524
20
28.893462533891
30
0
41
1
10
89.5625758346099
20
28.8775469596378
30
0
41
1
10
89.5822309471618
20
28.866199075115
30
0
0
SPLINE
5
11C
100
AcDbEntity
8
1
62
256
6
ByLayer
370
18
48
1
60
0
100
AcDbSpline
70
4
71
3
72
8
73
4
40
0
40
0
40
0
40
0
40
1
40
1
40
1
40
1
41
1
10
90.0000000000001
20
28.6249999999997
30
0
41
1
10
89.8618937409778
20
28.704735685823
30
0
41
1
10
89.7225664533239
20
28.7851763328554
30
0
41
1
10
89.5822309471618
20
28.866199075115
30
0
0
SPLINE
5
11D
100
AcDbEntity
8
1
62
256
6
ByLayer
370
18
48
1
60
0
100
AcDbSpline
70
4
71
3
72
8
73
4
40
0
40
0
40
0
40
0
40
1
40
1
40
1
40
1
41
1
10
89.5822309471618
20
27.6338009248844
30
0
41
1
10
89.7216736413345
20
27.7143082019015
30
0
41
1
10
89.8609422616177
20
27.7947149773117
30
0
41
1
10
90.0000000000001
20
27.8749999999997
30
0
0
SPLINE
5
11E
100
AcDbEntity
8
1
62
256
6
ByLayer
370
18
48
1
60
0
100
AcDbSpline
70
4
71
3
72
18
73
14
40
0
40
0
40
0
40
0
40
0.125
40
0.125
40
0.25
40
0.25
40
0.375
40
0.375
40
0.5
40
0.5
40
0.75
40
0.75
40
1
40
1
40
1
40
1
41
1
10
89.5822309471618
20
27.6338009248846
30
0
41
1
10
89.5711629947577
20
27.6274108395847
30
0
41
1
10
89.5603981917309
20
27.6194025082613
30
0
41
1
10
89.5401834640719
20
27.5992091826964
30
0
41
1
10
89.5309390251825
20
27.5871255482176
30
0
41
1
10
89.5161100711547
20
27.5596546626116
30
0
41
1
10
89.5106042487004
20
27.5442241382538
30
0
41
1
10
89.5047335758658
20
27.5131642252351
30
0
41
1
10
89.5043165144249
20
27.4975070719533
30
0
41
1
10
89.5091122221834
20
27.4540940084994
30
0
41
1
10
89.5198242877989
20
27.4298841123305
30
0
41
1
10
89.5469210339322
20
27.3916003406747
30
0
41
1
10
89.5637254564791
20
27.3768832251422
30
0
41
1
10
89.5822309471618
20
27.366199075115
30
0
0
SPLINE
5
11F
100
AcDbEntity
8
1
62
256
6
ByLayer
370
18
48
1
60
0
100
AcDbSpline
70
4
71
3
72
8
73
4
40
0
40
0
40
0
40
0
40
1
40
1
40
1
40
1
41
1
10
90.0000000000001
20
27.1249999999997
30
0
41
1
10
89.8634505504753
20
27.2038368614406
30
0
41
1
10
89.7240168397481
20
27.284338951863
30
0
41
1
10
89.5822309471618
20
27.366199075115
30
0
0
SPLINE
5
120
100
AcDbEntity
8
1
62
256
6
ByLayer
370
18
48
1
60
0
100
AcDbSpline
70
4
71
3
72
8
73
4
40
0
40
0
40
0
40
0
40
1
40
1
40
1
40
1
41
1
10
89.5822309471618
20
26.1338009248844
30
0
41
1
10
89.7214884382203
20
26.2142012748338
30
0
41
1
10
89.860744874453
20
26.2946010157791
30
0
41
1
10
90.0000000000003
20
26.3749999999998
30
0
0
SPLINE
5
121
100
AcDbEntity
8
1
62
256
6
ByLayer
370
18
48
1
60
0
100
AcDbSpline
70
4
71
3
72
18
73
14
40
0
40
0
40
0
40
0
40
0.125000000000004
40
0.125000000000004
40
0.250000000000009
40
0.250000000000009
40
0.375000000000013
40
0.375000000000013
40
0.500000000000017
40
0.500000000000017
40
0.750000000000009
40
0.750000000000009
40
1
40
1
40
1
40
1
41
1
10
89.5822309471618
20
26.1338009248847
30
0
41
1
10
89.5695760989206
20
26.1264946448462
30
0
41
1
10
89.5567975377135
20
26.1166906505352
30
0
41
1
10
89.5338357788656
20
26.0915089185931
30
0
41
1
10
89.5237593372678
20
26.0759249478845
30
0
41
1
10
89.5100827445762
20
26.0431871528083
30
0
41
1
10
89.5065221318008
20
26.026579693925
30
0
41
1
10
89.5042774728314
20
25.9961580107265
30
0
41
1
10
89.5054779057707
20
25.982088468434
30
0
41
1
10
89.5131674759325
20
25.9440298560603
30
0
41
1
10
89.5236089501773
20
25.9234520331117
30
0
41
1
10
89.5492864004076
20
25.8896462385555
30
0
41
1
10
89.5648479772983
20
25.876235137445
30
0
41
1
10
89.5822309471617
20
25.866199075115
30
0
0
SPLINE
5
122
100
AcDbEntity
8
1
62
256
6
ByLayer
370
18
48
1
60
0
100
AcDbSpline
70
4
71
3
72
8
73
4
40
0
40
0
40
0
40
0
40
1
40
1
40
1
40
1
41
1
10
90.0000000000001
20
25.6249999999997
30
0
41
1
10
89.8680015643673
20
25.7012093323449
30
0
41
1
10
89.7282255121759
20
25.7819090737039
30
0
41
1
10
89.5822309471618
20
25.866199075115
30
0
0
SPLINE
5
123
100
AcDbEntity
8
1
62
256
6
ByLayer
370
18
48
1
60
0
100
AcDbSpline
70
4
71
3
72
8
73
4
40
0
40
0
40
0
40
0
40
1
40
1
40
1
40
1
41
1
10
89.5822309471674
20
24.6338009248877
30
0
41
1
10
89.722156407075
20
24.7145869268318
30
0
41
1
10
89.861489576924
20
24.7950309699511
30
0
41
1
10
90.0000000000001
20
24.8749999999997
30
0
0
SPLINE
5
124
100
AcDbEntity
8
1
62
256
6
ByLayer
370
18
48
1
60
0
100
AcDbSpline
70
4
71
3
72
18
73
14
40
0
40
0
40
0
40
0
40
0.124999999999985
40
0.124999999999985
40
0.249999999999971
40
0.249999999999971
40
0.374999999999956
40
0.374999999999956
40
0.499999999999942
40
0.499999999999942
40
0.749999999999971
40
0.749999999999971
40
1
40
1
40
1
40
1
41
1
10
89.5822309471678
20
24.6338009248891
30
0
41
1
10
89.5707987925488
20
24.6272005673431
30
0
41
1
10
89.5584576577871
20
24.6180760507353
30
0
41
1
10
89.5356132850905
20
24.5938320896405
30
0
41
1
10
89.5259804121515
20
24.5791528387736
30
0
41
1
10
89.5134208152037
20
24.5524785916957
30
0
41
1
10
89.5098485629739
20
24.5401102453374
30
0
41
1
10
89.5055973234602
20
24.5178469194897
30
0
41
1
10
89.5048895364395
20
24.507653519178
30
0
41
1
10
89.5051906594776
20
24.4797002555171
30
0
41
1
10
89.5085174003037
20
24.4639601819686
30
0
41
1
10
89.5180927959665
20
24.4359824112819
30
0
41
1
10
89.5243858527728
20
24.4239230711968
30
0
41
1
10
89.5316709670317
20
24.4131964345248
30
0
0
SPLINE
5
125
100
AcDbEntity
8
1
62
256
6
ByLayer
370
18
48
1
60
0
100
AcDbSpline
70
4
71
3
72
21
73
17
40
0
40
0
40
0
40
0
40
0.250000000000001
40
0.250000000000001
40
0.312500000000001
40
0.312500000000001
40
0.375000000000001
40
0.375000000000001
40
0.500000000000002
40
0.625000000000003
40
0.625000000000003
40
0.687500000000002
40
0.687500000000002
40
0.750000000000001
40
0.750000000000001
40
1
40
1
40
1
40
1
41
1
10
35.2296230760209
20
46.000916889885
30
0
41
1
10
35.2364243067235
20
45.7162224030806
30
0
41
1
10
35.2270439803112
20
45.3805856240681
30
0
41
1
10
35.1956550895225
20
44.8994801079153
30
0
41
1
10
35.1883776422
20
44.8001338165536
30
0
41
1
10
35.1717702410495
20
44.5950520558224
30
0
41
1
10
35.1624662667502
20
44.4897021092449
30
0
41
1
10
35.1318751589244
20
44.1685568493058
30
0
41
1
10
35.0837710393411
20
43.7243620287335
30
0
41
1
10
35.0212154434213
20
43.2490380555639
30
0
41
1
10
34.9686648051489
20
42.8806377290174
30
0
41
1
10
34.9501819990955
20
42.7557279857876
30
0
41
1
10
34.9118592965609
20
42.505587730251
30
0
41
1
10
34.8919574444233
20
42.3799087967669
30
0
41
1
10
34.7887915539908
20
41.7485554076638
30
0
41
1
10
34.6947338583759
20
41.2341388249566
30
0
41
1
10
34.5883124954795
20
40.7103653452911
30
0
0
SPLINE
5
126
100
AcDbEntity
8
1
62
256
6
ByLayer
370
18
48
1
60
0
100
AcDbSpline
70
4
71
3
72
24
73
20
40
0
40
0
40
0
40
0
40
0.12407368993605
40
0.12407368993605
40
0.186639854940618
40
0.186639854940618
40
0.217922937442902
40
0.217922937442902
40
0.249206019945186
40
0.249206019945186
40
0.499470679963457
40
0.499470679963457
40
0.749735339981727
40
0.749735339981727
40
0.812301504986296
40
0.812301504986296
40
0.874867669990864
40
0.874867669990864
40
1
40
1
40
1
40
1
41
1
10
35.0070175792196
20
55.2499996272336
30
0
41
1
10
35.0070137361498
20
55.2501582110532
30
0
41
1
10
35.0081782345302
20
55.2021410170355
30
0
41
1
10
35.0117195192621
20
55.0560667314646
30
0
41
1
10
35.0132094114791
20
54.9946047544927
30
0
41
1
10
35.0159049355415
20
54.8833836161375
30
0
41
1
10
35.0168811010271
20
54.8431022852209
30
0
41
1
10
35.0189798268214
20
54.7564887934037
30
0
41
1
10
35.020103001772
20
54.7101312759216
30
0
41
1
10
35.0308701021289
20
54.2656767290373
30
0
41
1
10
35.0451024900926
20
53.677877462945
30
0
41
1
10
35.0825332188288
20
52.1283431145715
30
0
41
1
10
35.1057318766606
20
51.1666049566064
30
0
41
1
10
35.1404189967841
20
49.7239175185493
30
0
41
1
10
35.1476487344311
20
49.4230211638829
30
0
41
1
10
35.1626567250091
20
48.7979111506478
30
0
41
1
10
35.170419372288
20
48.4743477628351
30
0
41
1
10
35.1944768813848
20
47.4707483867134
30
0
41
1
10
35.2115403997438
20
46.7578443443358
30
0
41
1
10
35.2296230760209
20
46.000916889885
30
0
0
SPLINE
5
127
100
AcDbEntity
8
1
62
256
6
ByLayer
370
18
48
1
60
0
100
AcDbSpline
70
4
71
3
72
8
73
4
40
0
40
0
40
0
40
0
40
1
40
1
40
1
40
1
41
1
10
89.5822309471618
20
53.1338009248845
30
0
41
1
10
89.7368819119916
20
53.2230887010593
30
0
41
1
10
89.8762656835867
20
53.3035619591104
30
0
41
1
10
90.0000000000001
20
53.3749999999997
30
0
0
SPLINE
5
128
100
AcDbEntity
8
1
62
256
6
ByLayer
370
18
48
1
60
0
100
AcDbSpline
70
4
71
3
72
26
73
22
40
0
40
0
40
0
40
0
40
0.249999999999999
40
0.249999999999999
40
0.499999999999998
40
0.499999999999998
40
0.749999999999997
40
0.749999999999997
40
0.812499999999994
40
0.812499999999994
40
0.874999999999992
40
0.874999999999992
40
0.906249999999994
40
0.906249999999994
40
0.937499999999996
40
0.937499999999996
40
0.953125000000006
40
0.953125000000006
40
0.968750000000015
40
0.968750000000015
40
1
40
1
40
1
40
1
41
1
10
89.5822309471618
20
53.1338009248844
30
0
41
1
10
89.5672890519057
20
53.1251742176361
30
0
41
1
10
89.5542074883214
20
53.1143722586752
30
0
41
1
10
89.5317162170984
20
53.0885420151258
30
0
41
1
10
89.5222911993957
20
53.0735675782443
30
0
41
1
10
89.5085291315653
20
53.0380363619316
30
0
41
1
10
89.5037352129295
20
53.017821036723
30
0
41
1
10
89.5055968080384
20
52.9847053508108
30
0
41
1
10
89.5064003063313
20
52.9776622148468
30
0
41
1
10
89.5094770948087
20
52.9621647846328
30
0
41
1
10
89.5116694192135
20
52.9537734296685
30
0
41
1
10
89.5175190796989
20
52.938797045935
30
0
41
1
10
89.5198732197495
20
52.9334593906052
30
0
41
1
10
89.5263687390654
20
52.9212655710152
30
0
41
1
10
89.5303777938989
20
52.9144631252002
30
0
41
1
10
89.5401197528712
20
52.9017572492202
30
0
41
1
10
89.5440466679574
20
52.8971229112216
30
0
41
1
10
89.5526704904268
20
52.8881952838964
30
0
41
1
10
89.5572328935621
20
52.884054066334
30
0
41
1
10
89.569463140088
20
52.8739899194409
30
0
41
1
10
89.5762019601856
20
52.8696799123697
30
0
41
1
10
89.5822309471461
20
52.8661990751241
30
0
0
SPLINE
5
129
100
AcDbEntity
8
1
62
256
6
ByLayer
370
18
48
1
60
0
100
AcDbSpline
70
4
71
3
72
8
73
4
40
0
40
0
40
0
40
0
40
1
40
1
40
1
40
1
41
1
10
90.0000000000001
20
52.6249999999998
30
0
41
1
10
89.8625679249459
20
52.7043464455276
30
0
41
1
10
89.7232720892817
20
52.7847689337453
30
0
41
1
10
89.5822309471464
20
52.8661990751239
30
0
0
SPLINE
5
12A
100
AcDbEntity
8
1
62
256
6
ByLayer
370
18
48
1
60
0
100
AcDbSpline
70
4
71
3
72
8
73
4
40
0
40
0
40
0
40
0
40
1
40
1
40
1
40
1
41
1
10
89.5822309471618
20
51.6338009248844
30
0
41
1
10
89.7287151352791
20
51.718373610326
30
0
41
1
10
89.8680323339883
20
51.7988084325034
30
0
41
1
10
90.0000000000001
20
51.8749999999997
30
0
0
SPLINE
5
12B
100
AcDbEntity
8
1
62
256
6
ByLayer
370
18
48
1
60
0
100
AcDbSpline
70
4
71
3
72
24
73
20
40
0
40
0
40
0
40
0
40
0.250000000000008
40
0.250000000000008
40
0.500000000000017
40
0.500000000000017
40
0.750000000000025
40
0.750000000000025
40
0.812500000000019
40
0.812500000000019
40
0.875000000000012
40
0.875000000000012
40
0.906250000000009
40
0.906250000000009
40
0.937500000000006
40
0.937500000000006
40
0.968750000000003
40
0.968750000000003
40
1
40
1
40
1
40
1
41
1
10
89.5822309471618
20
51.6338009248844
30
0
41
1
10
89.5667754940022
20
51.6248777148423
30
0
41
1
10
89.5533515387351
20
51.61366140692
30
0
41
1
10
89.5304326200161
20
51.5867692112269
30
0
41
1
10
89.5209239668519
20
51.5711408047073
30
0
41
1
10
89.5074976496697
20
51.5340606542869
30
0
41
1
10
89.5029984651818
20
51.5129801333469
30
0
41
1
10
89.5063776142972
20
51.4781211967871
30
0
41
1
10
89.5075565412983
20
51.4706485478288
30
0
41
1
10
89.5116944559587
20
51.4541558525064
30
0
41
1
10
89.5145169029719
20
51.4452787978578
30
0
41
1
10
89.5219948704385
20
51.4292715599972
30
0
41
1
10
89.5249912765154
20
51.4235862689482
30
0
41
1
10
89.533027286605
20
51.4109157615757
30
0
41
1
10
89.5383924964571
20
51.4035769823705
30
0
41
1
10
89.5510661045748
20
51.3895190825088
30
0
41
1
10
89.558267266954
20
51.3829907909373
30
0
41
1
10
89.5710071722359
20
51.3730836684384
30
0
41
1
10
89.5768683834891
20
51.3692951526671
30
0
41
1
10
89.5822309472069
20
51.366199075064
30
0
0
SPLINE
5
12C
100
AcDbEntity
8
1
62
256
6
ByLayer
370
18
48
1
60
0
100
AcDbSpline
70
4
71
3
72
8
73
4
40
0
40
0
40
0
40
0
40
1
40
1
40
1
40
1
41
1
10
89.9999999999909
20
51.1250000000051
30
0
41
1
10
89.861484366902
20
51.204972038056
30
0
41
1
10
89.7222149523925
20
51.2853792720129
30
0
41
1
10
89.5822309471822
20
51.3661990751033
30
0
0
SPLINE
5
12D
100
AcDbEntity
8
1
62
256
6
ByLayer
370
18
48
1
60
0
100
AcDbSpline
70
4
71
3
72
8
73
4
40
0
40
0
40
0
40
0
40
1
40
1
40
1
40
1
41
1
10
89.5822309471618
20
50.1338009248844
30
0
41
1
10
89.7260994545022
20
50.2168634463253
30
0
41
1
10
89.8653943379732
20
50.297285384794
30
0
41
1
10
90.0000000000001
20
50.3749999999997
30
0
0
SPLINE
5
12E
100
AcDbEntity
8
1
62
256
6
ByLayer
370
18
48
1
60
0
100
AcDbSpline
70
4
71
3
72
26
73
22
40
0
40
0
40
0
40
0
40
0.250000000000003
40
0.250000000000003
40
0.500000000000007
40
0.500000000000007
40
0.625000000000007
40
0.625000000000007
40
0.750000000000007
40
0.750000000000007
40
0.812500000000006
40
0.812500000000006
40
0.875000000000005
40
0.875000000000005
40
0.906250000000003
40
0.906250000000003
40
0.937500000000002
40
0.937500000000002
40
0.968750000000001
40
0.968750000000001
40
1
40
1
40
1
40
1
41
1
10
89.5822309471618
20
50.1338009248845
30
0
41
1
10
89.566482106941
20
50.1247083277435
30
0
41
1
10
89.5528397423508
20
50.1132369234217
30
0
41
1
10
89.5296427921355
20
50.0856562950923
30
0
41
1
10
89.5200400681223
20
50.0695234815115
30
0
41
1
10
89.5101573898801
20
50.0409204233595
30
0
41
1
10
89.5076144373407
20
50.0306352555357
30
0
41
1
10
89.5047548888445
20
50.0078614607157
30
0
41
1
10
89.5043502442675
20
49.9954581433283
30
0
41
1
10
89.5070783142899
20
49.9735866349299
30
0
41
1
10
89.5085667123175
20
49.9657235202019
30
0
41
1
10
89.5135203872356
20
49.9485655923335
30
0
41
1
10
89.516869018216
20
49.9392647789993
30
0
41
1
10
89.5255967428381
20
49.9226408397826
30
0
41
1
10
89.5291395975893
20
49.9166991221852
30
0
41
1
10
89.5379357262227
20
49.9043199972827
30
0
41
1
10
89.5432802981782
20
49.8978511641617
30
0
41
1
10
89.5546994375855
20
49.8861676199922
30
0
41
1
10
89.5607361131283
20
49.8809666721918
30
0
41
1
10
89.5719312595557
20
49.8725067547771
30
0
41
1
10
89.5772143245622
20
49.8690954235233
30
0
41
1
10
89.5822309471619
20
49.866199075115
30
0
0
SPLINE
5
12F
100
AcDbEntity
8
1
62
256
6
ByLayer
370
18
48
1
60
0
100
AcDbSpline
70
4
71
3
72
8
73
4
40
0
40
0
40
0
40
0
40
1
40
1
40
1
40
1
41
1
10
90.0000000000001
20
49.6249999999997
30
0
41
1
10
89.8611294953684
20
49.7051769232314
30
0
41
1
10
89.7218673359581
20
49.7855799684548
30
0
41
1
10
89.5822309471618
20
49.8661990751151
30
0
0
SPLINE
5
130
100
AcDbEntity
8
1
62
256
6
ByLayer
370
18
48
1
60
0
100
AcDbSpline
70
4
71
3
72
8
73
4
40
0
40
0
40
0
40
0
40
1
40
1
40
1
40
1
41
1
10
89.5822309471618
20
48.6338009248845
30
0
41
1
10
89.7248111031014
20
48.7161196162972
30
0
41
1
10
89.8640948917195
20
48.7965351491497
30
0
41
1
10
90.0000000000001
20
48.8749999999997
30
0
0
SPLINE
5
131
100
AcDbEntity
8
1
62
256
6
ByLayer
370
18
48
1
60
0
100
AcDbSpline
70
4
71
3
72
22
73
18
40
0
40
0
40
0
40
0
40
0.249999999999995
40
0.249999999999995
40
0.499999999999989
40
0.499999999999989
40
0.624999999999978
40
0.624999999999978
40
0.749999999999966
40
0.749999999999966
40
0.812499999999975
40
0.812499999999975
40
0.874999999999983
40
0.874999999999983
40
0.937499999999992
40
0.937499999999992
40
1
40
1
40
1
40
1
41
1
10
89.5822309471617
20
48.6338009248845
30
0
41
1
10
89.5662044653249
20
48.6245480312818
30
0
41
1
10
89.5523483598277
20
48.6128292820887
30
0
41
1
10
89.5288746651081
20
48.5845567102819
30
0
41
1
10
89.5191743129565
20
48.567964706492
30
0
41
1
10
89.5094256350516
20
48.5382410648405
30
0
41
1
10
89.5069787103241
20
48.5275249412566
30
0
41
1
10
89.5045569779922
20
48.5036219343488
30
0
41
1
10
89.5045006737782
20
48.4906157707433
30
0
41
1
10
89.508171182235
20
48.4678320071664
30
0
41
1
10
89.510027726699
20
48.4597089955129
30
0
41
1
10
89.5160553317607
20
48.4417872608778
30
0
41
1
10
89.5201776338711
20
48.4319922994228
30
0
41
1
10
89.5331038797412
20
48.4102264111123
30
0
41
1
10
89.5424127534818
20
48.3981972451708
30
0
41
1
10
89.5627582913556
20
48.3787008214532
30
0
41
1
10
89.5730070012949
20
48.371524522744
30
0
41
1
10
89.5822309471628
20
48.3661990751143
30
0
0
SPLINE
5
132
100
AcDbEntity
8
1
62
256
6
ByLayer
370
18
48
1
60
0
100
AcDbSpline
70
4
71
3
72
8
73
4
40
0
40
0
40
0
40
0
40
1
40
1
40
1
40
1
41
1
10
90.0000000000001
20
48.1249999999997
30
0
41
1
10
89.8609706431934
20
48.2052686365773
30
0
41
1
10
89.7217112845332
20
48.285670064787
30
0
41
1
10
89.5822309471626
20
48.3661990751146
30
0
0
SPLINE
5
133
100
AcDbEntity
8
1
62
256
6
ByLayer
370
18
48
1
60
0
100
AcDbSpline
70
4
71
3
72
8
73
4
40
0
40
0
40
0
40
0
40
1
40
1
40
1
40
1
41
1
10
89.5822309471618
20
47.1338009248845
30
0
41
1
10
89.7240459626822
20
47.2156778622702
30
0
41
1
10
89.8633231555256
20
47.2960895870504
30
0
41
1
10
90.0000000000001
20
47.3749999999997
30
0
0
SPLINE
5
134
100
AcDbEntity
8
1
62
256
6
ByLayer
370
18
48
1
60
0
100
AcDbSpline
70
4
71
3
72
22
73
18
40
0
40
0
40
0
40
0
40
0.250000000000002
40
0.250000000000002
40
0.500000000000003
40
0.500000000000003
40
0.624999999999996
40
0.624999999999996
40
0.74999999999999
40
0.74999999999999
40
0.812499999999992
40
0.812499999999992
40
0.874999999999995
40
0.874999999999995
40
0.937499999999997
40
0.937499999999997
40
1
40
1
40
1
40
1
41
1
10
89.5822309471617
20
47.1338009248845
30
0
41
1
10
89.5660049001546
20
47.1244328122771
30
0
41
1
10
89.5519923277672
20
47.1125335315576
30
0
41
1
10
89.5283153240995
20
47.0837447213312
30
0
41
1
10
89.5185490587439
20
47.0668232444522
30
0
41
1
10
89.5089123300442
20
47.0362431349768
30
0
41
1
10
89.5065521358556
20
47.0252160395072
30
0
41
1
10
89.5044882518699
20
47.0005782578259
30
0
41
1
10
89.5046972386445
20
46.9871588405185
30
0
41
1
10
89.5090897026546
20
46.9637248842125
30
0
41
1
10
89.5112634187715
20
46.9553050094262
30
0
41
1
10
89.5180898419291
20
46.9369553073954
30
0
41
1
10
89.5227588219541
20
46.9269698884021
30
0
41
1
10
89.5362695124886
20
46.9059506561051
30
0
41
1
10
89.5452791305348
20
46.8951555264274
30
0
41
1
10
89.5641101724416
20
46.8777754775467
30
0
41
1
10
89.5735149313958
20
46.8712312691629
30
0
41
1
10
89.5822309471622
20
46.866199075114
30
0
0
SPLINE
5
135
100
AcDbEntity
8
1
62
256
6
ByLayer
370
18
48
1
60
0
100
AcDbSpline
70
4
71
3
72
8
73
4
40
0
40
0
40
0
40
0
40
1
40
1
40
1
40
1
41
1
10
90.0000000000001
20
46.6249999999997
30
0
41
1
10
89.8608855607148
20
46.7053177589693
30
0
41
1
10
89.7216275145923
20
46.785718429385
30
0
41
1
10
89.5822309471618
20
46.866199075115
30
0
0
SPLINE
5
136
100
AcDbEntity
8
1
62
256
6
ByLayer
370
18
48
1
60
0
100
AcDbSpline
70
4
71
3
72
8
73
4
40
0
40
0
40
0
40
0
40
1
40
1
40
1
40
1
41
1
10
89.5822309471618
20
45.6338009248844
30
0
41
1
10
89.7235403921874
20
45.715385971009
30
0
41
1
10
89.8628132386428
20
45.7957951864008
30
0
41
1
10
90.0000000000001
20
45.8749999999997
30
0
0
SPLINE
5
137
100
AcDbEntity
8
1
62
256
6
ByLayer
370
18
48
1
60
0
100
AcDbSpline
70
4
71
3
72
8
73
4
40
0
40
0
40
0
40
0
40
1
40
1
40
1
40
1
41
1
10
89.5822309471618
20
54.6338009248845
30
0
41
1
10
89.7017846048821
20
54.7028252613518
30
0
41
1
10
89.7617543096512
20
54.7374487865435
30
0
41
1
10
89.7621451267218
20
54.7376744248845
30
0
0
SPLINE
5
138
100
AcDbEntity
8
1
62
256
6
ByLayer
370
18
48
1
60
0
100
AcDbSpline
70
4
71
3
72
28
73
24
40
0
40
0
40
0
40
0
40
0.500000000000018
40
0.500000000000018
40
0.750000000000027
40
0.750000000000027
40
0.875000000000032
40
0.875000000000032
40
0.906250000000033
40
0.906250000000033
40
0.937500000000035
40
0.937500000000035
40
0.953125000000035
40
0.953125000000035
40
0.960937500000031
40
0.960937500000031
40
0.968750000000027
40
0.968750000000027
40
0.976562500000022
40
0.976562500000022
40
0.984375000000018
40
0.984375000000018
40
1
40
1
40
1
40
1
41
1
10
89.5822309471618
20
54.6338009248844
30
0
41
1
10
89.5571401515745
20
54.6193147472979
30
0
41
1
10
89.534734567854
20
54.5980086827085
30
0
41
1
10
89.5118747217412
20
54.5490604726458
30
0
41
1
10
89.5058647141355
20
54.5300814650782
30
0
41
1
10
89.5046577004549
20
54.4923737179536
30
0
41
1
10
89.5053153749594
20
54.4784997522244
30
0
41
1
10
89.5114181470561
20
54.4556142267268
30
0
41
1
10
89.5129317840935
20
54.450731236069
30
0
41
1
10
89.5170501311149
20
54.439854086294
30
0
41
1
10
89.5195813703815
20
54.4339136531793
30
0
41
1
10
89.5255027128178
20
54.4229458344608
30
0
41
1
10
89.5277957649015
20
54.4189843440219
30
0
41
1
10
89.5326771913772
20
54.4116845089803
30
0
41
1
10
89.5345196288052
20
54.4090589772582
30
0
41
1
10
89.5392896680265
20
54.4028421021093
30
0
41
1
10
89.5423308772138
20
54.3990785628682
30
0
41
1
10
89.5508612695292
20
54.3899498251135
30
0
41
1
10
89.555841461317
20
54.3853147481439
30
0
41
1
10
89.563251226373
20
54.3790302068432
30
0
41
1
10
89.5661970505621
20
54.3767959007592
30
0
41
1
10
89.574213987477
20
54.3709909410195
30
0
41
1
10
89.5784045374975
20
54.3684082537648
30
0
41
1
10
89.5822309471618
20
54.3661990751151
30
0
0
SPLINE
5
139
100
AcDbEntity
8
1
62
256
6
ByLayer
370
18
48
1
60
0
100
AcDbSpline
70
4
71
3
72
8
73
4
40
0
40
0
40
0
40
0
40
1
40
1
40
1
40
1
41
1
10
90.0000000000002
20
54.1249999999997
30
0
41
1
10
89.8725196755831
20
54.1986007996183
30
0
41
1
10
89.7329342764185
20
54.279190467401
30
0
41
1
10
89.5822309471618
20
54.3661990751151
30
0
0
SPLINE
5
13A
100
AcDbEntity
8
1
62
256
6
ByLayer
370
18
48
1
60
0
100
AcDbSpline
70
4
71
3
72
8
73
4
40
0
40
0
40
0
40
0
40
1
40
1
40
1
40
1
41
1
10
89.5822309471617
20
45.6338009248846
30
0
41
1
10
89.5619431222238
20
45.6220877436954
30
0
41
1
10
89.5450380989399
20
45.6064853936833
30
0
41
1
10
89.5316709670318
20
45.5868035654746
30
0
0
SPLINE
5
13B
100
AcDbEntity
8
1
62
256
6
ByLayer
370
18
48
1
60
0
100
AcDbSpline
70
4
71
3
72
8
73
4
40
0
40
0
40
0
40
0
40
1
40
1
40
1
40
1
41
1
10
89.5822309471617
20
23.1338009248844
30
0
41
1
10
89.721627543244
20
23.2142815871566
30
0
41
1
10
89.8608855896542
20
23.2946822577384
30
0
41
1
10
90.0000000000001
20
23.3749999999997
30
0
0
SPLINE
5
13C
100
AcDbEntity
8
1
62
256
6
ByLayer
370
18
48
1
60
0
100
AcDbSpline
70
4
71
3
72
22
73
18
40
0
40
0
40
0
40
0
40
0.0625000000000086
40
0.0625000000000086
40
0.125000000000017
40
0.125000000000017
40
0.187500000000026
40
0.187500000000026
40
0.250000000000034
40
0.250000000000034
40
0.375000000000032
40
0.375000000000032
40
0.500000000000029
40
0.500000000000029
40
0.750000000000014
40
0.750000000000014
40
1
40
1
40
1
40
1
41
1
10
89.5822309471624
20
23.1338009248861
30
0
41
1
10
89.5734480645361
20
23.1287301252377
30
0
41
1
10
89.5640538909794
20
23.1222022599192
30
0
41
1
10
89.5449513880304
20
23.1045117001401
30
0
41
1
10
89.5359811748773
20
23.0936825405038
30
0
41
1
10
89.5224485199569
20
23.0724618937367
30
0
41
1
10
89.5178186492453
20
23.0624231334343
30
0
41
1
10
89.5111085002232
20
23.0441641396183
30
0
41
1
10
89.5089564994513
20
23.0357176381016
30
0
41
1
10
89.5046521503268
20
23.0122772061596
30
0
41
1
10
89.5044945966088
20
22.9989635443994
30
0
41
1
10
89.5066148720037
20
22.974430366375
30
0
41
1
10
89.5090186916636
20
22.9633395921418
30
0
41
1
10
89.5186575275646
20
22.9329961357186
30
0
41
1
10
89.5283088911405
20
22.9162751930313
30
0
41
1
10
89.5519178324192
20
22.8875449959775
30
0
41
1
10
89.5659966255665
20
22.8755719650582
30
0
41
1
10
89.5822309471618
20
22.866199075115
30
0
0
SPLINE
5
13D
100
AcDbEntity
8
1
62
256
6
ByLayer
370
18
48
1
60
0
100
AcDbSpline
70
4
71
3
72
8
73
4
40
0
40
0
40
0
40
0
40
1
40
1
40
1
40
1
41
1
10
90.0000000000001
20
22.6249999999997
30
0
41
1
10
89.8633231555256
20
22.7039104129491
30
0
41
1
10
89.7240459626821
20
22.7843221377292
30
0
41
1
10
89.5822309471618
20
22.866199075115
30
0
0
SPLINE
5
13E
100
AcDbEntity
8
1
62
256
6
ByLayer
370
18
48
1
60
0
100
AcDbSpline
70
4
71
3
72
8
73
4
40
0
40
0
40
0
40
0
40
1
40
1
40
1
40
1
41
1
10
89.5822309471505
20
21.6338009248779
30
0
41
1
10
89.7217112845251
20
21.7143299352078
30
0
41
1
10
89.8609706431894
20
21.7947313634198
30
0
41
1
10
90.0000000000001
20
21.8749999999997
30
0
0
SPLINE
5
13F
100
AcDbEntity
8
1
62
256
6
ByLayer
370
18
48
1
60
0
100
AcDbSpline
70
4
71
3
72
22
73
18
40
0
40
0
40
0
40
0
40
0.062500000000001
40
0.062500000000001
40
0.125000000000002
40
0.125000000000002
40
0.187500000000003
40
0.187500000000003
40
0.250000000000004
40
0.250000000000004
40
0.374999999999998
40
0.374999999999998
40
0.499999999999992
40
0.499999999999992
40
0.749999999999996
40
0.749999999999996
40
1
40
1
40
1
40
1
41
1
10
89.5822309471505
20
21.6338009248779
30
0
41
1
10
89.5730419886828
20
21.628495677232
30
0
41
1
10
89.562810848032
20
21.6213718092057
30
0
41
1
10
89.5421088809893
20
21.6014890251113
30
0
41
1
10
89.5327634793332
20
21.5892923502993
30
0
41
1
10
89.5199207817456
20
21.5674788908021
30
0
41
1
10
89.5157967000743
20
21.5575657458674
30
0
41
1
10
89.509867581067
20
21.5396839847313
30
0
41
1
10
89.508028472027
20
21.5314838120667
30
0
41
1
10
89.5044679977631
20
21.5087502060302
30
0
41
1
10
89.5045759294415
20
21.4958382643464
30
0
41
1
10
89.5070557646098
20
21.4720813989866
30
0
41
1
10
89.5095462306888
20
21.461291727139
30
0
41
1
10
89.5193751674904
20
21.431628815503
30
0
41
1
10
89.5290043688681
20
21.4152615950909
30
0
41
1
10
89.5523950445232
20
21.3871401568057
30
0
41
1
10
89.566212779762
20
21.3754471683746
30
0
41
1
10
89.5822309471614
20
21.3661990751146
30
0
0
SPLINE
5
140
100
AcDbEntity
8
1
62
256
6
ByLayer
370
18
48
1
60
0
100
AcDbSpline
70
4
71
3
72
8
73
4
40
0
40
0
40
0
40
0
40
1
40
1
40
1
40
1
41
1
10
90.0000000000001
20
21.1249999999997
30
0
41
1
10
89.8640948917195
20
21.2034648508498
30
0
41
1
10
89.7248111031013
20
21.2838803837022
30
0
41
1
10
89.5822309471617
20
21.366199075115
30
0
0
SPLINE
5
141
100
AcDbEntity
8
1
62
256
6
ByLayer
370
18
48
1
60
0
100
AcDbSpline
70
4
71
3
72
8
73
4
40
0
40
0
40
0
40
0
40
1
40
1
40
1
40
1
41
1
10
89.5822309471628
20
20.1338009248851
30
0
41
1
10
89.7218673359539
20
20.2144200315422
30
0
41
1
10
89.8611294953591
20
20.2948230767627
30
0
41
1
10
89.9999999999856
20
20.3749999999914
30
0
0
SPLINE
5
142
100
AcDbEntity
8
1
62
256
6
ByLayer
370
18
48
1
60
0
100
AcDbSpline
70
4
71
3
72
26
73
22
40
0
40
0
40
0
40
0
40
0.0312499999999897
40
0.0312499999999897
40
0.0624999999999793
40
0.0624999999999793
40
0.093749999999969
40
0.093749999999969
40
0.124999999999959
40
0.124999999999959
40
0.187499999999955
40
0.187499999999955
40
0.249999999999952
40
0.249999999999952
40
0.374999999999954
40
0.374999999999954
40
0.499999999999957
40
0.499999999999957
40
0.749999999999978
40
0.749999999999978
40
1
40
1
40
1
40
1
41
1
10
89.5822309471628
20
20.1338009248851
30
0
41
1
10
89.5773204214518
20
20.130965831544
30
0
41
1
10
89.5721783984013
20
20.1276609433027
30
0
41
1
10
89.5610136720602
20
20.1192612560686
30
0
41
1
10
89.5550590331911
20
20.1141561859627
30
0
41
1
10
89.5437181930046
20
20.1026379835188
30
0
41
1
10
89.5383571081972
20
20.0962170875708
30
0
41
1
10
89.5294488392286
20
20.0837876077505
30
0
41
1
10
89.5259349090937
20
20.0779425342375
30
0
41
1
10
89.5171178701017
20
20.0613215785702
30
0
41
1
10
89.5136732049162
20
20.0518864269231
30
0
41
1
10
89.5086138586121
20
20.0345140636572
30
0
41
1
10
89.5071394062383
20
20.0267579438489
30
0
41
1
10
89.5043666396344
20
20.0049529991098
30
0
41
1
10
89.5047345512644
20
19.9923280121323
30
0
41
1
10
89.5076234604139
20
19.969265489109
30
0
41
1
10
89.5101965677781
20
19.9589338244398
30
0
41
1
10
89.520121626538
20
19.9303059789676
30
0
41
1
10
89.5296488951873
20
19.9143452759729
30
0
41
1
10
89.5527708406973
20
19.8868361955111
30
0
41
1
10
89.5664360021082
20
19.8753182908935
30
0
41
1
10
89.5822309471617
20
19.866199075115
30
0
0
SPLINE
5
143
100
AcDbEntity
8
1
62
256
6
ByLayer
370
18
48
1
60
0
100
AcDbSpline
70
4
71
3
72
8
73
4
40
0
40
0
40
0
40
0
40
1
40
1
40
1
40
1
41
1
10
90.0000000000001
20
19.6249999999997
30
0
41
1
10
89.8653943379732
20
19.7027146152054
30
0
41
1
10
89.7260994545022
20
19.7831365536741
30
0
41
1
10
89.5822309471617
20
19.866199075115
30
0
0
SPLINE
5
144
100
AcDbEntity
8
1
62
256
6
ByLayer
370
18
48
1
60
0
100
AcDbSpline
70
4
71
3
72
8
73
4
40
0
40
0
40
0
40
0
40
1
40
1
40
1
40
1
41
1
10
89.5822309471548
20
18.6338009248804
30
0
41
1
10
89.7222149523744
20
18.7146207279762
30
0
41
1
10
89.8614843668931
20
18.7950279619384
30
0
41
1
10
89.9999999999911
20
18.8749999999945
30
0
0
SPLINE
5
145
100
AcDbEntity
8
1
62
256
6
ByLayer
370
18
48
1
60
0
100
AcDbSpline
70
4
71
3
72
24
73
20
40
0
40
0
40
0
40
0
40
0.0312499999999988
40
0.0312499999999988
40
0.0624999999999975
40
0.0624999999999975
40
0.0937499999999963
40
0.0937499999999963
40
0.124999999999995
40
0.124999999999995
40
0.187499999999993
40
0.187499999999993
40
0.24999999999999
40
0.24999999999999
40
0.499999999999993
40
0.499999999999993
40
0.749999999999997
40
0.749999999999997
40
1
40
1
40
1
40
1
41
1
10
89.5822309471547
20
18.6338009248804
30
0
41
1
10
89.5768963222809
20
18.6307209777731
30
0
41
1
10
89.5711127260331
20
18.626993925232
30
0
41
1
10
89.5582675889401
20
18.6170139122874
30
0
41
1
10
89.5511453212448
20
18.6105675694024
30
0
41
1
10
89.5383308947832
20
18.5963559030627
30
0
41
1
10
89.5330736613109
20
18.5891628016952
30
0
41
1
10
89.5248816218742
20
18.5762353510812
30
0
41
1
10
89.5218940647481
20
18.5705340764139
30
0
41
1
10
89.5144119298798
20
18.554452316906
30
0
41
1
10
89.5116006200037
20
18.5455363898464
30
0
41
1
10
89.5075054075064
20
18.5290790183307
30
0
41
1
10
89.5063345582235
20
18.5215831636595
30
0
41
1
10
89.5030168277578
20
18.486597772077
30
0
41
1
10
89.5075316287025
20
18.4658176000743
30
0
41
1
10
89.5209409367348
20
18.4288403389847
30
0
41
1
10
89.5304552559665
20
18.4131996622416
30
0
41
1
10
89.5533625577295
20
18.3863302368802
30
0
41
1
10
89.5667800854663
20
18.3751196342741
30
0
41
1
10
89.5822309471617
20
18.366199075115
30
0
0
SPLINE
5
146
100
AcDbEntity
8
1
62
256
6
ByLayer
370
18
48
1
60
0
100
AcDbSpline
70
4
71
3
72
8
73
4
40
0
40
0
40
0
40
0
40
1
40
1
40
1
40
1
41
1
10
90.0000000000001
20
18.1249999999997
30
0
41
1
10
89.8680323339882
20
18.201191567496
30
0
41
1
10
89.7287151352791
20
18.2816263896734
30
0
41
1
10
89.5822309471617
20
18.366199075115
30
0
0
SPLINE
5
147
100
AcDbEntity
8
1
62
256
6
ByLayer
370
18
48
1
60
0
100
AcDbSpline
70
4
71
3
72
8
73
4
40
0
40
0
40
0
40
0
40
1
40
1
40
1
40
1
41
1
10
89.5822309471617
20
17.1338009248844
30
0
41
1
10
89.7232720892918
20
17.21523106626
30
0
41
1
10
89.8625679249508
20
17.2956535544747
30
0
41
1
10
90.0000000000001
20
17.3749999999997
30
0
0
SPLINE
5
148
100
AcDbEntity
8
1
62
256
6
ByLayer
370
18
48
1
60
0
100
AcDbSpline
70
4
71
3
72
26
73
22
40
0
40
0
40
0
40
0
40
0.0312500000000161
40
0.0312500000000161
40
0.0468750000000229
40
0.0468750000000229
40
0.0625000000000298
40
0.0625000000000298
40
0.0937500000000335
40
0.0937500000000335
40
0.125000000000037
40
0.125000000000037
40
0.187500000000035
40
0.187500000000035
40
0.250000000000033
40
0.250000000000033
40
0.500000000000022
40
0.500000000000022
40
0.750000000000011
40
0.750000000000011
40
1
40
1
40
1
40
1
41
1
10
89.5822309471617
20
17.1338009248844
30
0
41
1
10
89.576238049932
20
17.1303409240556
30
0
41
1
10
89.5694530810358
20
17.1260098885219
30
0
41
1
10
89.557132515156
20
17.1158592384622
30
0
41
1
10
89.5526320128987
20
17.1117690784162
30
0
41
1
10
89.5439840849629
20
17.1028080564225
30
0
41
1
10
89.5400032364698
20
17.0980981990281
30
0
41
1
10
89.5303671548509
20
17.0855078864944
30
0
41
1
10
89.5262985397115
20
17.0786201523318
30
0
41
1
10
89.5197694876966
20
17.0663278983616
30
0
41
1
10
89.5174401773198
20
17.0610157361681
30
0
41
1
10
89.5116541521811
20
17.0461572325373
30
0
41
1
10
89.5094429069742
20
17.037707910268
30
0
41
1
10
89.5063677042851
20
17.0221276943199
30
0
41
1
10
89.5055769103708
20
17.015085889244
30
0
41
1
10
89.5037612180963
20
16.9820500279379
30
0
41
1
10
89.5085278906027
20
16.961962883369
30
0
41
1
10
89.5223008143041
20
16.92641155882
30
0
41
1
10
89.5317581505219
20
16.9114011366593
30
0
41
1
10
89.5542333577308
20
16.8856067472019
30
0
41
1
10
89.5672943487013
20
16.8748227242568
30
0
41
1
10
89.5822309471616
20
16.866199075115
30
0
0
SPLINE
5
149
100
AcDbEntity
8
1
62
256
6
ByLayer
370
18
48
1
60
0
100
AcDbSpline
70
4
71
3
72
8
73
4
40
0
40
0
40
0
40
0
40
1
40
1
40
1
40
1
41
1
10
90.0000000000001
20
16.6249999999997
30
0
41
1
10
89.8762656835866
20
16.696438040889
30
0
41
1
10
89.7368819119915
20
16.7769112989401
30
0
41
1
10
89.5822309471617
20
16.866199075115
30
0
0
SPLINE
5
14A
100
AcDbEntity
8
1
62
256
6
ByLayer
370
18
48
1
60
0
100
AcDbSpline
70
4
71
3
72
8
73
4
40
0
40
0
40
0
40
0
40
1
40
1
40
1
40
1
41
1
10
89.5822309471617
20
15.6338009248844
30
0
41
1
10
89.7329342764183
20
15.7208095325985
30
0
41
1
10
89.872519675583
20
15.8013992003811
30
0
41
1
10
90
20
15.8749999999997
30
0
0
SPLINE
5
14B
100
AcDbEntity
8
1
62
256
6
ByLayer
370
18
48
1
60
0
100
AcDbSpline
70
4
71
3
72
28
73
24
40
0
40
0
40
0
40
0
40
0.0156249999999949
40
0.0156249999999949
40
0.0234374999999923
40
0.0234374999999923
40
0.0312499999999898
40
0.0312499999999898
40
0.0390624999999872
40
0.0390624999999872
40
0.0468749999999847
40
0.0468749999999847
40
0.062499999999985
40
0.062499999999985
40
0.0937499999999843
40
0.0937499999999843
40
0.124999999999983
40
0.124999999999983
40
0.249999999999986
40
0.249999999999986
40
0.499999999999991
40
0.499999999999991
40
1
40
1
40
1
40
1
41
1
10
89.5822309471617
20
15.6338009248844
30
0
41
1
10
89.5784837000704
20
15.6316374507675
30
0
41
1
10
89.5744272741289
20
15.6291393494114
30
0
41
1
10
89.5666456185913
20
15.6235397263428
30
0
41
1
10
89.5637167245707
20
15.6213327997744
30
0
41
1
10
89.5565035768101
20
15.6152740032489
30
0
41
1
10
89.551668531477
20
15.6108459151279
30
0
41
1
10
89.5429606346682
20
15.6016530897354
30
0
41
1
10
89.5398252892373
20
15.5978219864869
30
0
41
1
10
89.5348697209435
20
15.591425706527
30
0
41
1
10
89.5330038783925
20
15.5887829938148
30
0
41
1
10
89.5280815123399
20
15.5814795323343
30
0
41
1
10
89.5257417191069
20
15.5774685108635
30
0
41
1
10
89.5197799727168
20
15.5665063374708
30
0
41
1
10
89.5172414239207
20
15.5605989802889
30
0
41
1
10
89.5130746841405
20
15.549694310862
30
0
41
1
10
89.5115371149081
20
15.5447843991881
30
0
41
1
10
89.5053327499807
20
15.521746307727
30
0
41
1
10
89.5046648377885
20
15.5078277606968
30
0
41
1
10
89.5058348413121
20
15.4700111621891
30
0
41
1
10
89.5118481454332
20
15.451013241668
30
0
41
1
10
89.534710492947
20
15.402009335611
30
0
41
1
10
89.5571250951549
20
15.3806939455295
30
0
41
1
10
89.5822309471617
20
15.3661990751151
30
0
0
SPLINE
5
14C
100
AcDbEntity
8
1
62
256
6
ByLayer
370
18
48
1
60
0
100
AcDbSpline
70
4
71
3
72
8
73
4
40
0
40
0
40
0
40
0
40
1
40
1
40
1
40
1
41
1
10
89.7621446420345
20
15.2623258549494
30
0
41
1
10
89.762585004649
20
15.2620716114753
30
0
41
1
10
89.7026120490127
20
15.296697013556
30
0
41
1
10
89.5822309471617
20
15.3661990751151
30
0
0
SPLINE
5
14D
100
AcDbEntity
8
1
62
256
6
ByLayer
370
18
48
1
60
0
100
AcDbSpline
70
4
71
3
72
8
73
4
40
0
40
0
40
0
40
0
40
1
40
1
40
1
40
1
41
1
10
90.0000000000001
20
24.1249999999997
30
0
41
1
10
89.8628132386427
20
24.2042048135986
30
0
41
1
10
89.7235403921873
20
24.2846140289905
30
0
41
1
10
89.5822309471617
20
24.366199075115
30
0
0
SPLINE
5
14E
100
AcDbEntity
8
1
62
256
6
ByLayer
370
18
48
1
60
0
100
AcDbSpline
70
4
71
3
72
8
73
4
40
0
40
0
40
0
40
0
40
1
40
1
40
1
40
1
41
1
10
89.5316709670317
20
24.4131964345248
30
0
41
1
10
89.5449887240068
20
24.3935873062011
30
0
41
1
10
89.5620157835621
20
24.377870305261
30
0
41
1
10
89.5822309471618
20
24.366199075115
30
0
0
SPLINE
5
14F
100
AcDbEntity
8
SK1
62
256
6
ByLayer
370
18
48
1
60
0
100
AcDbSpline
70
4
71
3
72
28
73
24
40
0
40
0
40
0
40
0
40
0.249999999999998
40
0.249999999999998
40
0.499999999999996
40
0.499999999999996
40
0.624999999999996
40
0.624999999999996
40
0.687499999999997
40
0.687499999999997
40
0.749999999999998
40
0.749999999999998
40
0.812499999999999
40
0.812499999999999
40
0.843749999999999
40
0.843749999999999
40
0.874999999999999
40
0.874999999999999
40
0.906249999999999
40
0.906249999999999
40
0.9375
40
0.9375
40
1
40
1
40
1
40
1
41
1
10
-1.30710678118655
20
4.39323937970204
30
0
41
1
10
-1.27807156294216
20
4.55728578669132
30
0
41
1
10
-1.24496336974434
20
4.7197353316003
30
0
41
1
10
-1.16607860111949
20
5.0407319550261
30
0
41
1
10
-1.12051611802914
20
5.19963508727912
30
0
41
1
10
-1.03498128866926
20
5.43038219900063
30
0
41
1
10
-1.00356748257121
20
5.50611038118018
30
0
41
1
10
-0.948836683011109
20
5.61682998569378
30
0
41
1
10
-0.929306813344112
20
5.65325165428482
30
0
41
1
10
-0.88640701167526
20
5.7246963655638
30
0
41
1
10
-0.863046539494832
20
5.75970799632543
30
0
41
1
10
-0.811378570729602
20
5.82566030070512
30
0
41
1
10
-0.783095962941758
20
5.85688967768857
30
0
41
1
10
-0.733309570496658
20
5.89841079112165
30
0
41
1
10
-0.715777016447589
20
5.91105263131413
30
0
41
1
10
-0.678015781761616
20
5.93289970518876
30
0
41
1
10
-0.657793110825338
20
5.94201442298743
30
0
41
1
10
-0.61579038827054
20
5.9544386474501
30
0
41
1
10
-0.593299286562996
20
5.95781478621092
30
0
41
1
10
-0.549231954733699
20
5.95741118630215
30
0
41
1
10
-0.527157757150661
20
5.95370558688927
30
0
41
1
10
-0.464334375972669
20
5.93399527965417
30
0
41
1
10
-0.427479743259966
20
5.91025974760839
30
0
41
1
10
-0.394976888875277
20
5.88246916452647
30
0
0
SPLINE
5
150
100
AcDbEntity
8
SK1
62
256
6
ByLayer
370
18
48
1
60
0
100
AcDbSpline
70
4
71
3
72
24
73
20
40
0
40
0
40
0
40
0
40
0.0625000000000007
40
0.0625000000000007
40
0.0937500000000008
40
0.0937500000000008
40
0.125000000000001
40
0.125000000000001
40
0.187500000000001
40
0.187500000000001
40
0.250000000000001
40
0.250000000000001
40
0.375000000000002
40
0.375000000000002
40
0.500000000000002
40
0.500000000000002
40
0.750000000000001
40
0.750000000000001
40
1
40
1
40
1
40
1
41
1
10
-0.394976888875277
20
5.8824691645265
30
0
41
1
10
-0.382350069157468
20
5.87167298403494
30
0
41
1
10
-0.366613896349719
20
5.86327777511369
30
0
41
1
10
-0.341634356785903
20
5.86524569625408
30
0
41
1
10
-0.333397011620207
20
5.86838955924898
30
0
41
1
10
-0.318988631582954
20
5.87770695780827
30
0
41
1
10
-0.31274338221445
20
5.88369895138626
30
0
41
1
10
-0.296018369933051
20
5.90340879022782
30
0
41
1
10
-0.287605201971843
20
5.91851163137159
30
0
41
1
10
-0.273097316105691
20
5.94954123300346
30
0
41
1
10
-0.267167369392212
20
5.96542317564126
30
0
41
1
10
-0.251432668896769
20
6.01363187356239
30
0
41
1
10
-0.243675661567892
20
6.04657147511216
30
0
41
1
10
-0.230718056341658
20
6.11291108254437
30
0
41
1
10
-0.225653098734966
20
6.14608265895785
30
0
41
1
10
-0.212997246629186
20
6.24556878217385
30
0
41
1
10
-0.207912798922933
20
6.31185420825221
30
0
41
1
10
-0.201370158980325
20
6.44430304126936
30
0
41
1
10
-0.200000000000102
20
6.51046842154437
30
0
41
1
10
-0.200000000000102
20
6.5765733851174
30
0
0
SPLINE
5
151
100
AcDbEntity
8
SK1
62
256
6
ByLayer
370
18
48
1
60
0
100
AcDbSpline
70
4
71
3
72
22
73
18
40
0
40
0
40
0
40
0
40
0.158273297185655
40
0.158273297185655
40
0.368704972889243
40
0.368704972889243
40
0.57913664859283
40
0.57913664859283
40
0.684352486444624
40
0.684352486444624
40
0.789568324296418
40
0.789568324296418
40
0.842176243222315
40
0.842176243222315
40
0.894784162148212
40
0.894784162148212
40
1
40
1
40
1
40
1
41
1
10
-0.213300679497053
20
27.3647995329166
30
0
41
1
10
-0.215619114099894
20
27.356273996602
30
0
41
1
10
-0.218333571349007
20
27.3475772454596
30
0
41
1
10
-0.22577371690133
20
27.3268678454447
30
0
41
1
10
-0.230865818535165
20
27.3147403187154
30
0
41
1
10
-0.24381716756011
20
27.2896495476071
30
0
41
1
10
-0.251609006750556
20
27.276675083279
30
0
41
1
10
-0.267310756234252
20
27.256565168276
30
0
41
1
10
-0.273218934106296
20
27.2497441426328
30
0
41
1
10
-0.287581776151313
20
27.2357375224533
30
0
41
1
10
-0.296059131080284
20
27.2284328994368
30
0
41
1
10
-0.31282051820358
20
27.2176202393924
30
0
41
1
10
-0.319036303829819
20
27.2140876538149
30
0
41
1
10
-0.333385409605995
20
27.2075198335421
30
0
41
1
10
-0.34162752558467
20
27.2045217689256
30
0
41
1
10
-0.366640769985906
20
27.1981793002157
30
0
41
1
10
-0.382346753396206
20
27.1976982552739
30
0
41
1
10
-0.394976888875391
20
27.1987923911108
30
0
0
SPLINE
5
152
100
AcDbEntity
8
SK1
62
256
6
ByLayer
370
18
48
1
60
0
100
AcDbSpline
70
4
71
3
72
24
73
20
40
0
40
0
40
0
40
0
40
0.0752927804709587
40
0.0752927804709587
40
0.112939170706438
40
0.112939170706438
40
0.150585560941918
40
0.150585560941918
40
0.225878341412871
40
0.225878341412871
40
0.301171121883825
40
0.301171121883825
40
0.451756682825742
40
0.451756682825742
40
0.602342243767658
40
0.602342243767658
40
0.903513365651469
40
0.903513365651469
40
1
40
1
40
1
40
1
41
1
10
-0.39497688887522
20
21.3163207485063
30
0
41
1
10
-0.382349965515175
20
21.3260228518101
30
0
41
1
10
-0.366613785015858
20
21.3349047707578
30
0
41
1
10
-0.341634362270042
20
21.3392717772514
30
0
41
1
10
-0.333397050192701
20
21.3391210512548
30
0
41
1
10
-0.318988537079008
20
21.3364012870416
30
0
41
1
10
-0.312743268224125
20
21.333964955833
30
0
41
1
10
-0.296018017563824
20
21.3250563044761
30
0
41
1
10
-0.287604805032487
20
21.3171963488634
30
0
41
1
10
-0.273096778868592
20
21.3003253911432
30
0
41
1
10
-0.267166824034945
20
21.2913089199107
30
0
41
1
10
-0.251432168957621
20
21.2633000291641
30
0
41
1
10
-0.243675296395253
20
21.2433169025036
30
0
41
1
10
-0.230717856606361
20
21.2021501855168
30
0
41
1
10
-0.225652972907142
20
21.1810894553286
30
0
41
1
10
-0.212997240785057
20
21.1169238357504
30
0
41
1
10
-0.20791278355091
20
21.0728446192841
30
0
41
1
10
-0.203593436459016
20
21.0135036869952
30
0
41
1
10
-0.202740531683475
20
20.9990144517736
30
0
41
1
10
-0.202065296927003
20
20.984440111424
30
0
0
SPLINE
5
153
100
AcDbEntity
8
SK1
62
256
6
ByLayer
370
18
48
1
60
0
100
AcDbSpline
70
4
71
3
72
24
73
20
40
0
40
0
40
0
40
0
40
0.0809361169342088
40
0.0809361169342088
40
0.387290744622808
40
0.387290744622808
40
0.540468058467118
40
0.540468058467118
40
0.693645372311428
40
0.693645372311428
40
0.770234029233579
40
0.770234029233579
40
0.84682268615573
40
0.84682268615573
40
0.885117014616798
40
0.885117014616798
40
0.923411343077865
40
0.923411343077865
40
1
40
1
40
1
40
1
41
1
10
-0.20244079131308
20
-20.9921763641855
30
0
41
1
10
-0.203050789492266
20
-21.0041854121619
30
0
41
1
10
-0.203784169051943
20
-21.016138172609
30
0
41
1
10
-0.207931557952776
20
-21.0730494344898
30
0
41
1
10
-0.213034753906641
20
-21.1172556348416
30
0
41
1
10
-0.225773717958418
20
-21.1816297574383
30
0
41
1
10
-0.230865811746185
20
-21.2026958321079
30
0
41
1
10
-0.243817136428191
20
-21.2436902841713
30
0
41
1
10
-0.25160895409843
20
-21.2636789837451
30
0
41
1
10
-0.267310695713633
20
-21.2915321766126
30
0
41
1
10
-0.273218876350512
20
-21.300477388173
30
0
41
1
10
-0.287581741531881
20
-21.3171594572105
30
0
41
1
10
-0.296059116619489
20
-21.3250925923255
30
0
41
1
10
-0.312820523952809
20
-21.3339988651795
30
0
41
1
10
-0.319036315930816
20
-21.3364124723145
30
0
41
1
10
-0.33338542140396
20
-21.3391167208396
30
0
41
1
10
-0.341627539192785
20
-21.3392735185936
30
0
41
1
10
-0.366640787853157
20
-21.3348990131656
30
0
41
1
10
-0.382346753004413
20
-21.3260253368875
30
0
41
1
10
-0.394976888875533
20
-21.3163207619745
30
0
0
SPLINE
5
154
100
AcDbEntity
8
SK1
62
256
6
ByLayer
370
18
48
1
60
0
100
AcDbSpline
70
4
71
3
72
20
73
16
40
0
40
0
40
0
40
0
40
0.140419608026043
40
0.140419608026043
40
0.210629412039064
40
0.210629412039064
40
0.280839216052086
40
0.280839216052086
40
0.421258824078117
40
0.421258824078117
40
0.561678432104148
40
0.561678432104148
40
0.84251764815621
40
0.84251764815621
40
1
40
1
40
1
40
1
41
1
10
-0.394976888875391
20
-27.1987924685777
30
0
41
1
10
-0.382349964116173
20
-27.1976986124495
30
0
41
1
10
-0.366613768654872
20
-27.198185626277
30
0
41
1
10
-0.341634338384608
20
-27.2045204221557
30
0
41
1
10
-0.333397026160242
20
-27.2075133993406
30
0
41
1
10
-0.318988520956054
20
-27.214110804013
30
0
41
1
10
-0.312743256447732
20
-27.2176663061609
30
0
41
1
10
-0.296018029478802
20
-27.2284672633262
30
0
41
1
10
-0.28760483433885
20
-27.2357099511214
30
0
41
1
10
-0.273096832408754
20
-27.2498684802421
30
0
41
1
10
-0.267166879186391
20
-27.2567338906934
30
0
41
1
10
-0.251432211917773
20
-27.2769335026168
30
0
41
1
10
-0.243675314291295
20
-27.2898897473708
30
0
41
1
10
-0.233563587875352
20
-27.3095340045212
30
0
41
1
10
-0.230375175742864
20
-27.3164423374439
30
0
41
1
10
-0.227531270551424
20
-27.3232254956662
30
0
0
SPLINE
5
155
100
AcDbEntity
8
SK1
62
256
6
ByLayer
370
18
48
1
60
0
100
AcDbSpline
70
4
71
3
72
24
73
20
40
0
40
0
40
0
40
0
40
0.249999999999997
40
0.249999999999997
40
0.499999999999994
40
0.499999999999994
40
0.624999999999992
40
0.624999999999992
40
0.749999999999991
40
0.749999999999991
40
0.812499999999991
40
0.812499999999991
40
0.874999999999991
40
0.874999999999991
40
0.906249999999992
40
0.906249999999992
40
0.937499999999994
40
0.937499999999994
40
1
40
1
40
1
40
1
41
1
10
-0.200000000000017
20
-6.57657332251966
30
0
41
1
10
-0.200000000000017
20
-6.51045005265189
30
0
41
1
10
-0.201370223899346
20
-6.44422604141064
30
0
41
1
10
-0.207931565681093
20
-6.31154981196997
30
0
41
1
10
-0.213034744860892
20
-6.24506994782286
30
0
41
1
10
-0.225773826026625
20
-6.14523693213602
30
0
41
1
10
-0.230865993702281
20
-6.11204321968501
30
0
41
1
10
-0.243817490224075
20
-6.04595778475252
30
0
41
1
10
-0.25160941149116
20
-6.01299451379089
30
0
41
1
10
-0.267311184438881
20
-5.96503123140516
30
0
41
1
10
-0.273219353624143
20
-5.94926493252873
30
0
41
1
10
-0.287582091983921
20
-5.91857610087365
30
0
41
1
10
-0.296059368926222
20
-5.90333821711974
30
0
41
1
10
-0.312820576486047
20
-5.88361899214848
30
0
41
1
10
-0.319036350199582
20
-5.8776726315289
30
0
41
1
10
-0.333385369898565
20
-5.86840030244349
30
0
41
1
10
-0.341627499784664
20
-5.8652452883629
30
0
41
1
10
-0.366640861536695
20
-5.8632771688726
30
0
41
1
10
-0.382346845143928
20
-5.87167009312165
30
0
41
1
10
-0.394976888875504
20
-5.88246902087073
30
0
0
SPLINE
5
156
100
AcDbEntity
8
SK1
62
256
6
ByLayer
370
18
48
1
60
0
100
AcDbSpline
70
4
71
3
72
26
73
22
40
0
40
0
40
0
40
0
40
0.0312499999999998
40
0.0312499999999998
40
0.0624999999999995
40
0.0624999999999995
40
0.0937499999999993
40
0.0937499999999993
40
0.124999999999999
40
0.124999999999999
40
0.187499999999999
40
0.187499999999999
40
0.249999999999999
40
0.249999999999999
40
0.374999999999999
40
0.374999999999999
40
0.5
40
0.5
40
0.75
40
0.75
40
1
40
1
40
1
40
1
41
1
10
-0.394976888875334
20
-5.88246902087485
30
0
41
1
10
-0.411243448014147
20
-5.89637723850251
30
0
41
1
10
-0.428449793960169
20
-5.90912350803342
30
0
41
1
10
-0.465564082935231
20
-5.9312897696465
30
0
41
1
10
-0.485501260594077
20
-5.94064321807929
30
0
41
1
10
-0.527078862046835
20
-5.95367340640217
30
0
41
1
10
-0.549438320144901
20
-5.95743908997451
30
0
41
1
10
-0.593606088483739
20
-5.95779086324143
30
0
41
1
10
-0.615789294920575
20
-5.9544654528637
30
0
41
1
10
-0.679608123678094
20
-5.93550756082419
30
0
41
1
10
-0.71733265132292
20
-5.91177816162454
30
0
41
1
10
-0.783015012079431
20
-5.85691368285359
30
0
41
1
10
-0.811905746603969
20
-5.82506288928457
30
0
41
1
10
-0.889505535911809
20
-5.72578032377578
30
0
41
1
10
-0.930486085809804
20
-5.65396988322578
30
0
41
1
10
-1.00381992840016
20
-5.5055827239178
30
0
41
1
10
-1.03559750467298
20
-5.42886588385059
30
0
41
1
10
-1.12127825547446
20
-5.19728125876009
30
0
41
1
10
-1.16642207539596
20
-5.03942758364951
30
0
41
1
10
-1.24501063644413
20
-4.71944904321029
30
0
41
1
10
-1.27807953909775
20
-4.55724063340097
30
0
41
1
10
-1.30710678118655
20
-4.3932391538923
30
0
0
SPLINE
5
157
100
AcDbEntity
8
SK1
62
256
6
ByLayer
370
18
48
1
60
0
100
AcDbSpline
70
4
71
3
72
307
73
303
40
0
40
0
40
0
40
0
40
0.0012811223499797
40
0.0046970053060953
40
0.0081128882622109
40
0.0115287712183266
40
0.0149446541744422
40
0.0183605371305578
40
0.0217764200866734
40
0.025192303042789
40
0.0286081859989047
40
0.0320240689550203
40
0.0354399519111359
40
0.0422717178233671
40
0.0491034837355984
40
0.052519366691714
40
0.0559352496478296
40
0.0593511326039452
40
0.0627670155600609
40
0.0661828985161765
40
0.0695987814722921
40
0.0730146644284077
40
0.0764305473845233
40
0.0832623132967546
40
0.0866781962528702
40
0.0900940792089858
40
0.0935099621651014
40
0.096925845121217
40
0.100341728077333
40
0.103757611033448
40
0.107173493989564
40
0.110589376945679
40
0.114005259901795
40
0.117421142857911
40
0.120837025814026
40
0.122544967292084
40
0.124252908770142
40
0.127668791726258
40
0.131084674682373
40
0.137916440594605
40
0.144748206506836
40
0.148164089462951
40
0.151579972419067
40
0.158411738331298
40
0.165243504243529
40
0.172075270155761
40
0.175491153111876
40
0.178907036067992
40
0.185738801980223
40
0.192570567892454
40
0.199402333804686
40
0.206234099716917
40
0.213065865629148
40
0.219897631541379
40
0.223313514497495
40
0.226729397453611
40
0.233561163365842
40
0.240392929278073
40
0.247224695190304
40
0.25064057814642
40
0.254056461102535
40
0.260888227014767
40
0.267719992926998
40
0.271135875883114
40
0.274551758839229
40
0.28138352475146
40
0.288215290663692
40
0.291631173619807
40
0.295047056575923
40
0.301878822488154
40
0.30529470544427
40
0.308710588400385
40
0.310418529878443
40
0.312126471356501
40
0.315542354312617
40
0.318958237268732
40
0.322374120224848
40
0.325790003180964
40
0.329205886137079
40
0.332621769093195
40
0.33603765204931
40
0.339453535005426
40
0.342869417961542
40
0.349701183873773
40
0.353117066829889
40
0.356532949786004
40
0.35994883274212
40
0.363364715698235
40
0.366780598654351
40
0.370196481610467
40
0.377028247522698
40
0.383860013434929
40
0.387275896391045
40
0.39069177934716
40
0.394107662303276
40
0.397523545259391
40
0.400939428215507
40
0.404355311171623
40
0.407771194127738
40
0.411187077083854
40
0.41460296003997
40
0.418018842996085
40
0.421434725952201
40
0.424850608908316
40
0.428266491864432
40
0.431682374820548
40
0.435098257776663
40
0.438514140732779
40
0.440222082210837
40
0.441930023688895
40
0.44534590664501
40
0.448761789601126
40
0.450469731079184
40
0.452177672557242
40
0.455593555513357
40
0.457301496991415
40
0.459009438469473
40
0.459863409208502
40
0.46071737994753
40
0.462425321425588
40
0.464133262903646
40
0.465841204381704
40
0.467549145859762
40
0.46925708733782
40
0.470965028815877
40
0.471818999554906
40
0.472672970293935
40
0.473526941032964
40
0.474380911771993
40
0.475234882511022
40
0.476088853250051
40
0.477796794728108
40
0.478650765467137
40
0.479504736206166
40
0.481212677684224
40
0.482066648423253
40
0.482920619162282
40
0.48462856064034
40
0.485482531379369
40
0.486336502118398
40
0.488044443596455
40
0.489752385074513
40
0.491460326552571
40
0.4923142972916
40
0.493168268030629
40
0.494022238769658
40
0.494876209508687
40
0.495730180247715
40
0.496584150986745
40
0.497438121725773
40
0.498292092464802
40
0.499146063203831
40
0.50000003394286
40
0.500854004681889
40
0.501707975420918
40
0.502561946159947
40
0.503415916898976
40
0.504269887638005
40
0.505123858377033
40
0.505977829116062
40
0.506831799855091
40
0.50768577059412
40
0.508539741333149
40
0.510247682811207
40
0.511955624289265
40
0.513663565767323
40
0.514517536506351
40
0.51537150724538
40
0.517079448723438
40
0.517933419462467
40
0.518787390201496
40
0.520495331679554
40
0.521349302418583
40
0.522203273157612
40
0.523911214635669
40
0.524765185374698
40
0.525619156113727
40
0.526473126852756
40
0.527327097591785
40
0.528181068330814
40
0.529035039069843
40
0.530742980547901
40
0.532450922025958
40
0.534158863504016
40
0.535866804982074
40
0.537574746460132
40
0.53928268793819
40
0.540136658677219
40
0.540990629416248
40
0.542698570894305
40
0.544406512372363
40
0.547822395328479
40
0.549530336806537
40
0.551238278284594
40
0.55465416124071
40
0.558070044196826
40
0.559777985674883
40
0.561485927152941
40
0.564901810109057
40
0.568317693065172
40
0.571733576021288
40
0.575149458977404
40
0.578565341933519
40
0.581981224889635
40
0.585397107845751
40
0.588812990801866
40
0.592228873757982
40
0.595644756714097
40
0.599060639670213
40
0.602476522626329
40
0.605892405582444
40
0.60930828853856
40
0.612724171494676
40
0.616140054450791
40
0.619555937406907
40
0.622971820363022
40
0.629803586275254
40
0.633219469231369
40
0.636635352187485
40
0.6400512351436
40
0.643467118099716
40
0.646883001055832
40
0.650298884011947
40
0.657130649924178
40
0.660546532880294
40
0.66396241583641
40
0.667378298792525
40
0.670794181748641
40
0.674210064704757
40
0.677625947660872
40
0.681041830616988
40
0.684457713573103
40
0.687873596529219
40
0.691289479485335
40
0.69470536244145
40
0.698121245397566
40
0.704953011309797
40
0.708368894265913
40
0.711784777222028
40
0.71861654313426
40
0.725448309046491
40
0.728864192002606
40
0.732280074958722
40
0.739111840870953
40
0.745943606783185
40
0.7493594897393
40
0.752775372695416
40
0.759607138607647
40
0.766438904519878
40
0.77327067043211
40
0.776686553388225
40
0.780102436344341
40
0.786934202256572
40
0.793765968168803
40
0.800597734081035
40
0.807429499993266
40
0.814261265905497
40
0.821093031817728
40
0.824508914773844
40
0.827924797729959
40
0.834756563642191
40
0.841588329554422
40
0.848420095466653
40
0.851835978422769
40
0.855251861378884
40
0.862083627291116
40
0.868915393203347
40
0.872331276159463
40
0.875747159115578
40
0.882578925027809
40
0.885994807983925
40
0.889410690940041
40
0.892826573896156
40
0.896242456852272
40
0.899658339808388
40
0.903074222764503
40
0.906490105720619
40
0.909905988676734
40
0.91332187163285
40
0.916737754588966
40
0.923569520501197
40
0.926985403457312
40
0.930401286413428
40
0.933817169369544
40
0.937233052325659
40
0.940648935281775
40
0.944064818237891
40
0.947480701194006
40
0.950896584150122
40
0.957728350062353
40
0.964560115974584
40
0.9679759989307
40
0.971391881886816
40
0.974807764842931
40
0.978223647799047
40
0.981639530755162
40
0.985055413711278
40
0.988471296667394
40
0.991887179623509
40
0.995303062579625
40
0.99871894553574
40
1
40
1
40
1
40
1
41
1
10
-2.1999999999999
20
27.5061346540021
30
0
41
1
10
-2.1999999999999
20
27.5075056366166
30
0
41
1
10
-2.1999999999999
20
27.5121546489727
30
0
41
1
10
-2.1999999999999
20
27.5178156594359
30
0
41
1
10
-2.1999999999999
20
27.520712257972
30
0
41
1
10
-2.1999999999999
20
27.5194470153286
30
0
41
1
10
-2.1999999999999
20
27.5141077677523
30
0
41
1
10
-2.1999999999999
20
27.5047765837315
30
0
41
1
10
-2.1999999999999
20
27.4915322439684
30
0
41
1
10
-2.1999999999999
20
27.4744481367885
30
0
41
1
10
-2.1999999999999
20
27.4535951162672
30
0
41
1
10
-2.1999999999999
20
27.4290396962773
30
0
41
1
10
-2.1999999999999
20
27.3914487450129
30
0
41
1
10
-2.1999999999999
20
27.335511616751
30
0
41
1
10
-2.1999999999999
20
27.2680242938405
30
0
41
1
10
-2.1999999999999
20
27.2073129452677
30
0
41
1
10
-2.1999999999999
20
27.1584629254513
30
0
41
1
10
-2.1999999999999
20
27.1063432629948
30
0
41
1
10
-2.1999999999999
20
27.0509995322118
30
0
41
1
10
-2.1999999999999
20
26.9924724007358
30
0
41
1
10
-2.1999999999999
20
26.9308035073645
30
0
41
1
10
-2.1999999999999
20
26.8660318549495
30
0
41
1
10
-2.1999999999999
20
26.7755840284526
30
0
41
1
10
-2.1999999999999
20
26.6790690105836
30
0
41
1
10
-2.1999999999999
20
26.5766398127168
30
0
41
1
10
-2.1999999999999
20
26.4968867532829
30
0
41
1
10
-2.1999999999999
20
26.414234345797
30
0
41
1
10
-2.1999999999999
20
26.3287134555966
30
0
41
1
10
-2.1999999999999
20
26.2403534869032
30
0
41
1
10
-2.1999999999999
20
26.1491804877762
30
0
41
1
10
-2.1999999999999
20
26.0552228914818
30
0
41
1
10
-2.1999999999999
20
25.9585067097828
30
0
41
1
10
-2.1999999999999
20
25.8590554134204
30
0
41
1
10
-2.1999999999999
20
25.7568951729796
30
0
41
1
10
-2.1999999999999
20
25.6695210442988
30
0
41
1
10
-2.1999999999999
20
25.5982933540587
30
0
41
1
10
-2.1999999999999
20
25.5261818034759
30
0
41
1
10
-2.1999999999999
20
25.4343867299332
30
0
41
1
10
-2.1999999999999
20
25.284028449355
30
0
41
1
10
-2.1999999999999
20
25.0895715317905
30
0
41
1
10
-2.1999999999999
20
24.8865804660961
30
0
41
1
10
-2.1999999999999
20
24.7191499291268
30
0
41
1
10
-2.1999999999999
20
24.5483785892839
30
0
41
1
10
-2.1999999999999
20
24.3286812886663
30
0
41
1
10
-2.1999999999999
20
24.0552273098675
30
0
41
1
10
-2.1999999999999
20
23.8192595747193
30
0
41
1
10
-2.1999999999999
20
23.625702822842
30
0
41
1
10
-2.19999999999993
20
23.4289695970825
30
0
41
1
10
-2.19999999999993
20
23.1771173063638
30
0
41
1
10
-2.19999999999993
20
22.865528155817
30
0
41
1
10
-2.19999999999993
20
22.5446620300357
30
0
41
1
10
-2.19999999999993
20
22.2146097450714
30
0
41
1
10
-2.19999999999993
20
21.8754567939978
30
0
41
1
10
-2.19999999999993
20
21.585305748713
30
0
41
1
10
-2.19999999999993
20
21.348724524242
30
0
41
1
10
-2.19999999999993
20
21.1091737057828
30
0
41
1
10
-2.19999999999993
20
20.8041728408687
30
0
41
1
10
-2.19999999999993
20
20.4293723348014
30
0
41
1
10
-2.19999999999993
20
20.1097427976019
30
0
41
1
10
-2.19999999999993
20
19.8497084000872
30
0
41
1
10
-2.19999999999993
20
19.5867870400026
30
0
41
1
10
-2.19999999999993
20
19.2527208742123
30
0
41
1
10
-2.19999999999993
20
18.9115004820266
30
0
41
1
10
-2.19999999999993
20
18.6342692782274
30
0
41
1
10
-2.19999999999993
20
18.3541989021743
30
0
41
1
10
-2.19999999999993
20
17.9987810562909
30
0
41
1
10
-2.19999999999993
20
17.6363146514327
30
0
41
1
10
-2.19999999999993
20
17.342145790273
30
0
41
1
10
-2.19999999999993
20
17.0451744942955
30
0
41
1
10
-2.19999999999993
20
16.7439793214723
30
0
41
1
10
-2.19999999999993
20
16.4386305854398
30
0
41
1
10
-2.19999999999993
20
16.2460368243143
30
0
41
1
10
-2.19999999999993
20
16.0909280537241
30
0
41
1
10
-2.19999999999993
20
15.9351247349383
30
0
41
1
10
-2.19999999999993
20
15.7390582874331
30
0
41
1
10
-2.19999999999993
20
15.5017057162253
30
0
41
1
10
-2.19999999999993
20
15.2622749109486
30
0
41
1
10
-2.19999999999993
20
15.0207692194115
30
0
41
1
10
-2.19999999999993
20
14.7771909058554
30
0
41
1
10
-2.19999999999993
20
14.5315403640059
30
0
41
1
10
-2.19999999999993
20
14.2838204496865
30
0
41
1
10
-2.19999999999996
20
14.0340319983603
30
0
41
1
10
-2.19999999999996
20
13.6982347575132
30
0
41
1
10
-2.19999999999996
20
13.3582704108556
30
0
41
1
10
-2.19999999999996
20
13.0142109423231
30
0
41
1
10
-2.19999999999996
20
12.7540926975445
30
0
41
1
10
-2.19999999999996
20
12.491909102254
30
0
41
1
10
-2.19999999999996
20
12.2276612824087
30
0
41
1
10
-2.19999999999996
20
11.9613483314474
30
0
41
1
10
-2.19999999999996
20
11.6035237684601
30
0
41
1
10
-2.19999999999996
20
11.1510479282636
30
0
41
1
10
-2.19999999999996
20
10.6916821947193
30
0
41
1
10
-2.19999999999996
20
10.3200777862056
30
0
41
1
10
-2.19999999999996
20
10.0392927830108
30
0
41
1
10
-2.19999999999996
20
9.75643631256764
30
0
41
1
10
-2.19999999999996
20
9.47150741663737
30
0
41
1
10
-2.19999999999996
20
9.18450458163332
30
0
41
1
10
-2.19999999999996
20
8.89542705327116
30
0
41
1
10
-2.19999999999996
20
8.60427351086133
30
0
41
1
10
-2.19999999999996
20
8.31104332875668
30
0
41
1
10
-2.19999999999996
20
8.01573570434201
30
0
41
1
10
-2.19999999999996
20
7.71835052760531
30
0
41
1
10
-2.19999999999996
20
7.41888792583899
30
0
41
1
10
-2.19999999999996
20
7.11734871686417
30
0
41
1
10
-2.19999999999996
20
6.81373435160455
30
0
41
1
10
-2.19999999999996
20
6.50804761437217
30
0
41
1
10
-2.19999999999996
20
6.20029192554162
30
0
41
1
10
-2.19999999999996
20
5.9420983893643
30
0
41
1
10
-2.19999999999996
20
5.73453666635555
30
0
41
1
10
-2.19999999999996
20
5.52629102616373
30
0
41
1
10
-2.19999999999996
20
5.2646764075686
30
0
41
1
10
-2.19999999999996
20
5.00136826964862
30
0
41
1
10
-2.19999999999996
20
4.78973719162454
30
0
41
1
10
-2.19999999999999
20
4.5774371918485
30
0
41
1
10
-2.19999999999999
20
4.3640968112588
30
0
41
1
10
-2.19999999999999
20
4.14981698400791
30
0
41
1
10
-2.19999999999999
20
4.01546868863096
30
0
41
1
10
-2.19999999999999
20
3.90776230457831
30
0
41
1
10
-2.19999999999999
20
3.7998956890315
30
0
41
1
10
-2.19999999999999
20
3.66474577486338
30
0
41
1
10
-2.19999999999999
20
3.50210371592672
30
0
41
1
10
-2.19999999999999
20
3.33899661229887
30
0
41
1
10
-2.19999999999999
20
3.17543128081249
30
0
41
1
10
-2.19999999999999
20
3.01141672767267
30
0
41
1
10
-2.19999999999999
20
2.87436211322455
30
0
41
1
10
-2.19999999999999
20
2.76452001856484
30
0
41
1
10
-2.19999999999999
20
2.68202546661416
30
0
41
1
10
-2.19999999999999
20
2.59942633274221
30
0
41
1
10
-2.19999999999999
20
2.51672422226801
30
0
41
1
10
-2.19999999999999
20
2.43392090537259
30
0
41
1
10
-2.19999999999999
20
2.32339362702302
30
0
41
1
10
-2.19999999999999
20
2.21264124345481
30
0
41
1
10
-2.19999999999999
20
2.1017319037741
30
0
41
1
10
-2.19999999999999
20
1.99070061185216
30
0
41
1
10
-2.19999999999999
20
1.87945967457651
30
0
41
1
10
-2.19999999999999
20
1.76808196044797
30
0
41
1
10
-2.19999999999999
20
1.65659534610089
30
0
41
1
10
-2.19999999999999
20
1.54491819828837
30
0
41
1
10
-2.19999999999999
20
1.43312830574621
30
0
41
1
10
-2.19999999999999
20
1.32124507985105
30
0
41
1
10
-2.19999999999999
20
1.18119882266058
30
0
41
1
10
-2.19999999999999
20
1.0129186171477
30
0
41
1
10
-2.19999999999999
20
0.872498995392078
30
0
41
1
10
-2.19999999999999
20
0.760095827222472
30
0
41
1
10
-2.19999999999999
20
0.675743919086329
30
0
41
1
10
-2.19999999999999
20
0.591356022200159
30
0
41
1
10
-2.19999999999999
20
0.506936438011195
30
0
41
1
10
-2.19999999999999
20
0.422489242090819
30
0
41
1
10
-2.19999999999999
20
0.338019061527263
30
0
41
1
10
-2.19999999999999
20
0.253530604877341
30
0
41
1
10
-2.19999999999999
20
0.169028167934272
30
0
41
1
10
-2.19999999999999
20
0.0845163058477283
30
0
41
1
10
-2.19999999999999
20
2.9737635E-09
30
0
41
1
10
-2.19999999999999
20
-0.0845162996800468
30
0
41
1
10
-2.19999999999999
20
-0.169028161239794
30
0
41
1
10
-2.19999999999999
20
-0.253530597556249
30
0
41
1
10
-2.19999999999999
20
-0.338019053908852
30
0
41
1
10
-2.19999999999999
20
-0.422489234806477
30
0
41
1
10
-2.19999999999999
20
-0.506936431545654
30
0
41
1
10
-2.19999999999999
20
-0.591356016553533
30
0
41
1
10
-2.19999999999999
20
-0.675743913418643
30
0
41
1
10
-2.19999999999999
20
-0.760095820637474
30
0
41
1
10
-2.19999999999999
20
-0.87249898691482
30
0
41
1
10
-2.19999999999999
20
-1.01291860933941
30
0
41
1
10
-2.19999999999999
20
-1.18119881783468
30
0
41
1
10
-2.19999999999999
20
-1.32124507363099
30
0
41
1
10
-2.19999999999999
20
-1.43312829673272
30
0
41
1
10
-2.19999999999999
20
-1.54491818810743
30
0
41
1
10
-2.19999999999999
20
-1.65659533844251
30
0
41
1
10
-2.19999999999999
20
-1.76808195565891
30
0
41
1
10
-2.19999999999999
20
-1.87945966995704
30
0
41
1
10
-2.19999999999999
20
-1.9907006034768
30
0
41
1
10
-2.19999999999999
20
-2.10173189222928
30
0
41
1
10
-2.19999999999999
20
-2.21264123208619
30
0
41
1
10
-2.19999999999999
20
-2.32339361988261
30
0
41
1
10
-2.19999999999999
20
-2.43392090149777
30
0
41
1
10
-2.19999999999999
20
-2.51672421834661
30
0
41
1
10
-2.19999999999999
20
-2.5994263263795
30
0
41
1
10
-2.19999999999999
20
-2.68202545651479
30
0
41
1
10
-2.19999999999999
20
-2.76452000553434
30
0
41
1
10
-2.19999999999999
20
-2.87436209926597
30
0
41
1
10
-2.19999999999999
20
-3.01141672008131
30
0
41
1
10
-2.19999999999999
20
-3.17543127927689
30
0
41
1
10
-2.19999999999999
20
-3.33899660464962
30
0
41
1
10
-2.19999999999999
20
-3.50210369883953
30
0
41
1
10
-2.19999999999999
20
-3.66474576021935
30
0
41
1
10
-2.19999999999999
20
-3.79989568244895
30
0
41
1
10
-2.19999999999999
20
-3.90776230194615
30
0
41
1
10
-2.19999999999999
20
-4.01546868648907
30
0
41
1
10
-2.19999999999999
20
-4.14981697452481
30
0
41
1
10
-2.19999999999999
20
-4.36409678795761
30
0
41
1
10
-2.19999999999999
20
-4.57743718277371
30
0
41
1
10
-2.20000000000002
20
-4.78973719244794
30
0
41
1
10
-2.20000000000002
20
-5.00136826160576
30
0
41
1
10
-2.20000000000002
20
-5.2646763781224
30
0
41
1
10
-2.20000000000002
20
-5.52629101970234
30
0
41
1
10
-2.20000000000002
20
-5.73453666830338
30
0
41
1
10
-2.20000000000002
20
-5.94209838158557
30
0
41
1
10
-2.20000000000002
20
-6.20029189348725
30
0
41
1
10
-2.20000000000002
20
-6.50804760816206
30
0
41
1
10
-2.20000000000002
20
-6.81373435633816
30
0
41
1
10
-2.20000000000002
20
-7.11734869113025
30
0
41
1
10
-2.20000000000002
20
-7.41888794723957
30
0
41
1
10
-2.20000000000002
20
-7.71835058358695
30
0
41
1
10
-2.20000000000002
20
-8.01573561602433
30
0
41
1
10
-2.20000000000002
20
-8.31104318061551
30
0
41
1
10
-2.20000000000002
20
-8.60427356074339
30
0
41
1
10
-2.20000000000002
20
-8.8954271911569
30
0
41
1
10
-2.20000000000002
20
-9.1845043611271
30
0
41
1
10
-2.20000000000002
20
-9.47150729415071
30
0
41
1
10
-2.20000000000002
20
-9.7564363484619
30
0
41
1
10
-2.20000000000002
20
-10.0392928286736
30
0
41
1
10
-2.20000000000002
20
-10.3200778010582
30
0
41
1
10
-2.20000000000002
20
-10.5987925508876
30
0
41
1
10
-2.20000000000002
20
-10.8754383363526
30
0
41
1
10
-2.20000000000002
20
-11.2415269571056
30
0
41
1
10
-2.20000000000002
20
-11.6035238164174
30
0
41
1
10
-2.20000000000002
20
-11.9613483258762
30
0
41
1
10
-2.20000000000002
20
-12.2276612856808
30
0
41
1
10
-2.20000000000002
20
-12.4919091491304
30
0
41
1
10
-2.20000000000002
20
-12.7540927464655
30
0
41
1
10
-2.20000000000002
20
-13.0142109860464
30
0
41
1
10
-2.20000000000002
20
-13.3582704046987
30
0
41
1
10
-2.20000000000002
20
-13.6982347944475
30
0
41
1
10
-2.20000000000002
20
-14.034031998634
30
0
41
1
10
-2.20000000000005
20
-14.2838204606995
30
0
41
1
10
-2.20000000000005
20
-14.5315403886931
30
0
41
1
10
-2.20000000000005
20
-14.7771908994275
30
0
41
1
10
-2.20000000000005
20
-15.0207692449601
30
0
41
1
10
-2.20000000000005
20
-15.2622748554345
30
0
41
1
10
-2.20000000000005
20
-15.5017056049151
30
0
41
1
10
-2.20000000000005
20
-15.73905841291
30
0
41
1
10
-2.20000000000005
20
-15.9743322626435
30
0
41
1
10
-2.20000000000005
20
-16.2075239950657
30
0
41
1
10
-2.20000000000005
20
-16.4386302461311
30
0
41
1
10
-2.20000000000005
20
-16.7439792746615
30
0
41
1
10
-2.20000000000005
20
-17.0451745383014
30
0
41
1
10
-2.20000000000005
20
-17.342145790903
30
0
41
1
10
-2.20000000000005
20
-17.6363146551971
30
0
41
1
10
-2.20000000000005
20
-17.9987810588702
30
0
41
1
10
-2.20000000000005
20
-18.3541988970414
30
0
41
1
10
-2.20000000000005
20
-18.634269279738
30
0
41
1
10
-2.20000000000005
20
-18.9115004851851
30
0
41
1
10
-2.20000000000005
20
-19.2527208752522
30
0
41
1
10
-2.20000000000005
20
-19.5867870393814
30
0
41
1
10
-2.20000000000005
20
-19.8497084005984
30
0
41
1
10
-2.20000000000005
20
-20.109742802778
30
0
41
1
10
-2.20000000000005
20
-20.4293723340896
30
0
41
1
10
-2.20000000000005
20
-20.8041728419317
30
0
41
1
10
-2.20000000000005
20
-21.1091737088127
30
0
41
1
10
-2.20000000000005
20
-21.3487245268705
30
0
41
1
10
-2.20000000000005
20
-21.5853057494763
30
0
41
1
10
-2.20000000000005
20
-21.8754567982465
30
0
41
1
10
-2.20000000000005
20
-22.2146097463896
30
0
41
1
10
-2.20000000000005
20
-22.5446620340323
30
0
41
1
10
-2.20000000000005
20
-22.8655281588585
30
0
41
1
10
-2.20000000000005
20
-23.177117307697
30
0
41
1
10
-2.20000000000005
20
-23.4289696038094
30
0
41
1
10
-2.20000000000007
20
-23.6257028262786
30
0
41
1
10
-2.20000000000007
20
-23.8192595766845
30
0
41
1
10
-2.20000000000007
20
-24.055227314874
30
0
41
1
10
-2.20000000000007
20
-24.3286812980358
30
0
41
1
10
-2.20000000000007
20
-24.5483785868417
30
0
41
1
10
-2.20000000000007
20
-24.7191499364504
30
0
41
1
10
-2.20000000000007
20
-24.8865804716972
30
0
41
1
10
-2.20000000000007
20
-25.0895715372854
30
0
41
1
10
-2.20000000000007
20
-25.2840285001251
30
0
41
1
10
-2.20000000000007
20
-25.434386577261
30
0
41
1
10
-2.20000000000007
20
-25.5812511874437
30
0
41
1
10
-2.20000000000007
20
-25.7228460886287
30
0
41
1
10
-2.20000000000007
20
-25.8590558590047
30
0
41
1
10
-2.20000000000007
20
-25.9585066378384
30
0
41
1
10
-2.20000000000007
20
-26.0552227938057
30
0
41
1
10
-2.20000000000007
20
-26.1491804785364
30
0
41
1
10
-2.20000000000007
20
-26.2403534959289
30
0
41
1
10
-2.20000000000007
20
-26.3287134281848
30
0
41
1
10
-2.20000000000007
20
-26.4142343357678
30
0
41
1
10
-2.20000000000007
20
-26.496886760278
30
0
41
1
10
-2.20000000000007
20
-26.5766397788825
30
0
41
1
10
-2.20000000000007
20
-26.6790690300398
30
0
41
1
10
-2.20000000000007
20
-26.7755839801004
30
0
41
1
10
-2.20000000000007
20
-26.8660318680525
30
0
41
1
10
-2.20000000000007
20
-26.9308034813114
30
0
41
1
10
-2.20000000000007
20
-26.9924723817988
30
0
41
1
10
-2.20000000000007
20
-27.0509995447849
30
0
41
1
10
-2.20000000000007
20
-27.1063432161342
30
0
41
1
10
-2.20000000000007
20
-27.1584628619196
30
0
41
1
10
-2.20000000000007
20
-27.207312873948
30
0
41
1
10
-2.20000000000007
20
-27.2680242980374
30
0
41
1
10
-2.20000000000007
20
-27.3355116051596
30
0
41
1
10
-2.20000000000007
20
-27.391448663995
30
0
41
1
10
-2.20000000000007
20
-27.4290397313646
30
0
41
1
10
-2.20000000000007
20
-27.4535951682728
30
0
41
1
10
-2.20000000000007
20
-27.4744481426486
30
0
41
1
10
-2.20000000000007
20
-27.4915322394784
30
0
41
1
10
-2.20000000000007
20
-27.5047766256087
30
0
41
1
10
-2.20000000000007
20
-27.5141077922089
30
0
41
1
10
-2.20000000000007
20
-27.5194469555196
30
0
41
1
10
-2.20000000000007
20
-27.5207122693016
30
0
41
1
10
-2.20000000000007
20
-27.5178158074899
30
0
41
1
10
-2.20000000000007
20
-27.5121547974679
30
0
41
1
10
-2.20000000000007
20
-27.5075058885517
30
0
41
1
10
-2.2000000000001
20
-27.5061349926411
30
0
0
SPLINE
5
158
100
AcDbEntity
8
SK1
62
256
6
ByLayer
370
18
48
1
60
0
100
AcDbSpline
70
4
71
2
72
6
73
3
40
0
40
0
40
0
40
1
40
1
40
1
41
1
10
-46.5000000000001
20
-26.3937603074469
30
0
41
1
10
-24.3499999999991
20
-26.9499706126623
30
0
41
1
10
-2.20000000000007
20
-27.506180857905
30
0
0
SPLINE
5
159
100
AcDbEntity
8
SK1
62
256
6
ByLayer
370
18
48
1
60
0
100
AcDbSpline
70
4
71
2
72
6
73
3
40
0
40
0
40
0
40
1
40
1
40
1
41
1
10
-2.1999999999999
20
27.5061808177903
30
0
41
1
10
-24.3499999999989
20
26.9499705725249
30
0
41
1
10
-46.4999999999999
20
26.3937602673103
30
0
0
SPLINE
5
15A
100
AcDbEntity
8
SK1
62
256
6
ByLayer
370
18
48
1
60
0
100
AcDbSpline
70
4
71
3
72
307
73
303
40
0
40
0
40
0
40
0
40
0.0012883042156384
40
0.0047041375912126
40
0.0081199709667869
40
0.0115358043423611
40
0.0149516377179354
40
0.0183674710935096
40
0.0217833044690839
40
0.025199137844658
40
0.0286149712202323
40
0.0320308045958066
40
0.0354466379713808
40
0.0422783047225293
40
0.0491099714736778
40
0.0525258048492521
40
0.0559416382248263
40
0.0593574716004006
40
0.0627733049759748
40
0.066189138351549
40
0.0696049717271233
40
0.0730208051026975
40
0.0764366384782718
40
0.0832683052294203
40
0.0866841386049945
40
0.0900999719805688
40
0.093515805356143
40
0.0969316387317173
40
0.100347472107292
40
0.103763305482866
40
0.10717913885844
40
0.110594972234014
40
0.114010805609588
40
0.117426638985163
40
0.120842472360737
40
0.122550389048524
40
0.124258305736311
40
0.127674139111885
40
0.13108997248746
40
0.137921639238608
40
0.144753305989757
40
0.148169139365331
40
0.151584972740905
40
0.158416639492054
40
0.165248306243202
40
0.172079972994351
40
0.175495806369925
40
0.178911639745499
40
0.185743306496648
40
0.192574973247796
40
0.199406639998945
40
0.206238306750093
40
0.213069973501242
40
0.21990164025239
40
0.223317473627964
40
0.226733307003539
40
0.233564973754687
40
0.240396640505836
40
0.247228307256984
40
0.250644140632558
40
0.254059974008133
40
0.260891640759281
40
0.26772330751043
40
0.271139140886004
40
0.274554974261578
40
0.281386641012727
40
0.288218307763875
40
0.291634141139449
40
0.295049974515024
40
0.301881641266172
40
0.305297474641746
40
0.308713308017321
40
0.310421224705108
40
0.312129141392895
40
0.315544974768469
40
0.318960808144043
40
0.322376641519617
40
0.325792474895192
40
0.329208308270766
40
0.33262414164634
40
0.336039975021915
40
0.339455808397489
40
0.342871641773063
40
0.349703308524212
40
0.353119141899786
40
0.35653497527536
40
0.359950808650934
40
0.363366642026508
40
0.366782475402083
40
0.370198308777657
40
0.377029975528806
40
0.383861642279954
40
0.387277475655528
40
0.390693309031102
40
0.394109142406677
40
0.397524975782251
40
0.400940809157825
40
0.404356642533399
40
0.407772475908974
40
0.411188309284548
40
0.414604142660122
40
0.418019976035697
40
0.421435809411271
40
0.424851642786845
40
0.428267476162419
40
0.431683309537993
40
0.435099142913568
40
0.438514976289142
40
0.440222892976929
40
0.441930809664716
40
0.44534664304029
40
0.448762476415865
40
0.450470393103652
40
0.452178309791439
40
0.455594143167013
40
0.4573020598548
40
0.459009976542588
40
0.459863934886481
40
0.460717893230374
40
0.462425809918162
40
0.464133726605949
40
0.465841643293736
40
0.467549559981523
40
0.46925747666931
40
0.470965393357097
40
0.471819351700991
40
0.472673310044884
40
0.473527268388778
40
0.474381226732672
40
0.475235185076565
40
0.476089143420459
40
0.477797060108246
40
0.478651018452139
40
0.479504976796033
40
0.48121289348382
40
0.482066851827714
40
0.482920810171607
40
0.484628726859394
40
0.485482685203288
40
0.486336643547181
40
0.488044560234968
40
0.489752476922756
40
0.491460393610543
40
0.492314351954436
40
0.49316831029833
40
0.494022268642223
40
0.494876226986117
40
0.495730185330011
40
0.496584143673904
40
0.497438102017798
40
0.498292060361691
40
0.499146018705585
40
0.499999977049478
40
0.500853935393372
40
0.501707893737265
40
0.502561852081159
40
0.503415810425053
40
0.504269768768946
40
0.50512372711284
40
0.505977685456733
40
0.506831643800627
40
0.50768560214452
40
0.508539560488414
40
0.510247477176201
40
0.511955393863988
40
0.513663310551775
40
0.514517268895669
40
0.515371227239563
40
0.51707914392735
40
0.517933102271243
40
0.518787060615137
40
0.520494977302924
40
0.521348935646817
40
0.522202893990711
40
0.523910810678498
40
0.524764769022392
40
0.525618727366285
40
0.526472685710179
40
0.527326644054072
40
0.528180602397966
40
0.52903456074186
40
0.530742477429647
40
0.532450394117434
40
0.534158310805221
40
0.535866227493008
40
0.537574144180795
40
0.539282060868582
40
0.540136019212476
40
0.540989977556369
40
0.542697894244156
40
0.544405810931944
40
0.547821644307518
40
0.549529560995305
40
0.551237477683092
40
0.554653311058666
40
0.558069144434241
40
0.559777061122028
40
0.561484977809815
40
0.564900811185389
40
0.568316644560964
40
0.571732477936537
40
0.575148311312112
40
0.578564144687686
40
0.58197997806326
40
0.585395811438835
40
0.588811644814409
40
0.592227478189983
40
0.595643311565557
40
0.599059144941132
40
0.602474978316706
40
0.60589081169228
40
0.609306645067854
40
0.612722478443429
40
0.616138311819003
40
0.619554145194577
40
0.622969978570151
40
0.6298016453213
40
0.633217478696874
40
0.636633312072448
40
0.640049145448023
40
0.643464978823597
40
0.646880812199171
40
0.650296645574745
40
0.657128312325894
40
0.660544145701468
40
0.663959979077042
40
0.667375812452617
40
0.670791645828191
40
0.674207479203765
40
0.677623312579339
40
0.681039145954914
40
0.684454979330488
40
0.687870812706062
40
0.691286646081636
40
0.69470247945721
40
0.698118312832785
40
0.704949979583933
40
0.708365812959508
40
0.711781646335082
40
0.71861331308623
40
0.725444979837379
40
0.728860813212953
40
0.732276646588527
40
0.739108313339676
40
0.745939980090824
40
0.749355813466398
40
0.752771646841973
40
0.759603313593121
40
0.76643498034427
40
0.773266647095418
40
0.776682480470992
40
0.780098313846567
40
0.786929980597715
40
0.793761647348864
40
0.800593314100012
40
0.807424980851161
40
0.814256647602309
40
0.821088314353458
40
0.824504147729032
40
0.827919981104606
40
0.834751647855755
40
0.841583314606903
40
0.848414981358052
40
0.851830814733626
40
0.8552466481092
40
0.862078314860349
40
0.868909981611497
40
0.872325814987071
40
0.875741648362646
40
0.882573315113794
40
0.885989148489368
40
0.889404981864943
40
0.892820815240517
40
0.896236648616091
40
0.899652481991665
40
0.90306831536724
40
0.906484148742814
40
0.909899982118388
40
0.913315815493962
40
0.916731648869536
40
0.923563315620685
40
0.926979148996259
40
0.930394982371834
40
0.933810815747408
40
0.937226649122982
40
0.940642482498556
40
0.944058315874131
40
0.947474149249705
40
0.950889982625279
40
0.957721649376427
40
0.964553316127576
40
0.96796914950315
40
0.971384982878724
40
0.974800816254299
40
0.978216649629873
40
0.981632483005447
40
0.985048316381022
40
0.988464149756596
40
0.99187998313217
40
0.995295816507744
40
0.998711649883319
40
1
40
1
40
1
40
1
41
1
10
-46.4999999999999
20
26.3937389220062
30
0
41
1
10
-46.4999999999999
20
26.3950594651905
30
0
41
1
10
-46.4999999999999
20
26.3995184399976
30
0
41
1
10
-46.4999999999999
20
26.4049465213073
30
0
41
1
10
-46.4999999999999
20
26.4077241817033
30
0
41
1
10
-46.4999999999999
20
26.4065097812845
30
0
41
1
10
-46.4999999999999
20
26.401380692584
30
0
41
1
10
-46.4999999999999
20
26.3924095772422
30
0
41
1
10
-46.4999999999999
20
26.3796666810736
30
0
41
1
10
-46.4999999999999
20
26.3632177076784
30
0
41
1
10
-46.4999999999999
20
26.3431264444614
30
0
41
1
10
-46.4999999999999
20
26.3194531047686
30
0
41
1
10
-46.4999999999999
20
26.283105789845
30
0
41
1
10
-46.4999999999999
20
26.2291931100505
30
0
41
1
10
-46.4999999999999
20
26.1640888628637
30
0
41
1
10
-46.4999999999999
20
26.105252152073
30
0
41
1
10
-46.4999999999999
20
26.0579887905967
30
0
41
1
10
-46.4999999999999
20
26.0075411501125
30
0
41
1
10
-46.4999999999999
20
25.9539520524799
30
0
41
1
10
-46.4999999999999
20
25.8972596743868
30
0
41
1
10
-46.4999999999999
20
25.8375026707195
30
0
41
1
10
-46.4999999999999
20
25.774718489125
30
0
41
1
10
-46.4999999999999
20
25.6868435181956
30
0
41
1
10
-46.4999999999999
20
25.5935790481263
30
0
41
1
10
-46.4999999999999
20
25.4939882551943
30
0
41
1
10
-46.4999999999999
20
25.4165702144949
30
0
41
1
10
-46.4999999999999
20
25.3363180183905
30
0
41
1
10
-46.4999999999999
20
25.2532602572422
30
0
41
1
10
-46.4999999999999
20
25.1674263270687
30
0
41
1
10
-46.4999999999999
20
25.0788408467532
30
0
41
1
10
-46.4999999999999
20
24.9875303375033
30
0
41
1
10
-46.4999999999999
20
24.8935214266579
30
0
41
1
10
-46.4999999999999
20
24.79683593051
30
0
41
1
10
-46.4999999999999
20
24.6974986639862
30
0
41
1
10
-46.4999999999999
20
24.6126465048793
30
0
41
1
10
-46.4999999999999
20
24.5432464906719
30
0
41
1
10
-46.4999999999999
20
24.4729784939734
30
0
41
1
10
-46.4999999999999
20
24.3838015951595
30
0
41
1
10
-46.4999999999999
20
24.237252616561
30
0
41
1
10
-46.4999999999999
20
24.0482725027175
30
0
41
1
10
-46.4999999999999
20
23.8509558936156
30
0
41
1
10
-46.4999999999999
20
23.687678590657
30
0
41
1
10
-46.4999999999999
20
23.5211247275233
30
0
41
1
10
-46.4999999999999
20
23.307472693444
30
0
41
1
10
-46.4999999999999
20
23.0411451496902
30
0
41
1
10
-46.4999999999999
20
22.8116032876095
30
0
41
1
10
-46.4999999999999
20
22.622736530731
30
0
41
1
10
-46.4999999999999
20
22.4307591244261
30
0
41
1
10
-46.4999999999999
20
22.1857080904647
30
0
41
1
10
-46.4999999999999
20
21.8821131555326
30
0
41
1
10
-46.4999999999999
20
21.5694639835236
30
0
41
1
10
-46.4999999999999
20
21.2478549102088
30
0
41
1
10
-46.4999999999999
20
20.9173756105159
30
0
41
1
10
-46.4999999999999
20
20.6350195683324
30
0
41
1
10
-46.4999999999999
20
20.4041184350776
30
0
41
1
10
-46.4999999999999
20
20.1703249889742
30
0
41
1
10
-46.4999999999999
20
19.873548582141
30
0
41
1
10
-46.4999999999999
20
19.5084001184171
30
0
41
1
10
-46.4999999999999
20
19.1974433350663
30
0
41
1
10
-46.4999999999999
20
18.9437303704575
30
0
41
1
10
-46.4999999999999
20
18.6872198886412
30
0
41
1
10
-46.4999999999999
20
18.3623163315052
30
0
41
1
10
-46.4999999999999
20
18.0305055709472
30
0
41
1
10
-46.4999999999999
20
17.760137527207
30
0
41
1
10
-46.4999999999999
20
17.4870326281008
30
0
41
1
10
-46.4999999999999
20
17.1415784247605
30
0
41
1
10
-46.4999999999999
20
16.7893526547044
30
0
41
1
10
-46.4999999999999
20
16.5026612295205
30
0
41
1
10
-46.4999999999999
20
16.2132866640403
30
0
41
1
10
-46.4999999999999
20
15.9214100558919
30
0
41
1
10
-46.4999999999999
20
15.6240006368158
30
0
41
1
10
-46.4999999999999
20
15.4370522522145
30
0
41
1
10
-46.4999999999999
20
15.2860238298401
30
0
41
1
10
-46.4999999999999
20
15.1343352185845
30
0
41
1
10
-46.4999999999999
20
14.9440981523706
30
0
41
1
10
-46.4999999999999
20
14.7135143004556
30
0
41
1
10
-46.4999999999999
20
14.4809640927088
30
0
41
1
10
-46.4999999999999
20
14.2464507858615
30
0
41
1
10
-46.5
20
14.0099844885451
30
0
41
1
10
-46.5
20
13.7715679648217
30
0
41
1
10
-46.5
20
13.5312064646773
30
0
41
1
10
-46.5
20
13.2889085755411
30
0
41
1
10
-46.5
20
12.9626507143562
30
0
41
1
10
-46.5
20
12.6344409590499
30
0
41
1
10
-46.5
20
12.3004440719816
30
0
41
1
10
-46.5
20
12.0485415470733
30
0
41
1
10
-46.5
20
11.7947359709948
30
0
41
1
10
-46.5
20
11.5390341996309
30
0
41
1
10
-46.5
20
11.2814445510787
30
0
41
1
10
-46.5
20
10.9347668341362
30
0
41
1
10
-46.5
20
10.4984187798351
30
0
41
1
10
-46.5
20
10.0558459740263
30
0
41
1
10
-46.5
20
9.69666715624237
30
0
41
1
10
-46.5
20
9.4260814607614
30
0
41
1
10
-46.5
20
9.15367831122094
30
0
41
1
10
-46.5
20
8.87947089935219
30
0
41
1
10
-46.5
20
8.60347202441511
30
0
41
1
10
-46.5
20
8.32569671953044
30
0
41
1
10
-46.5
20
8.04616134412498
30
0
41
1
10
-46.5
20
7.76488385459575
30
0
41
1
10
-46.5
20
7.48188420282105
30
0
41
1
10
-46.5
20
7.19718434586207
30
0
41
1
10
-46.5
20
6.91080932637607
30
0
41
1
10
-46.5
20
6.62278715303714
30
0
41
1
10
-46.5
20
6.33314809321152
30
0
41
1
10
-46.5
20
6.04192837587715
30
0
41
1
10
-46.5
20
5.74916634577866
30
0
41
1
10
-46.5
20
5.50455842781813
30
0
41
1
10
-46.5
20
5.30698795114381
30
0
41
1
10
-46.5
20
5.10896425509645
30
0
41
1
10
-46.5
20
4.86210998685621
30
0
41
1
10
-46.5
20
4.61410950054301
30
0
41
1
10
-46.5
20
4.4137736315304
30
0
41
1
10
-46.5
20
4.21306074878731
30
0
41
1
10
-46.5
20
4.01407320205558
30
0
41
1
10
-46.5
20
3.81214228534731
30
0
41
1
10
-46.5
20
3.68664884198924
30
0
41
1
10
-46.5
20
3.58538042770672
30
0
41
1
10
-46.5
20
3.48404260664458
30
0
41
1
10
-46.5
20
3.35820726744217
30
0
41
1
10
-46.5
20
3.20645090100788
30
0
41
1
10
-46.5
20
3.05450136741521
30
0
41
1
10
-46.5
20
2.90237261804779
30
0
41
1
10
-46.5
20
2.75008141374244
30
0
41
1
10
-46.5
20
2.62353063115788
30
0
41
1
10
-46.5
20
2.52133342108181
30
0
41
1
10
-46.5
20
2.44503927940099
30
0
41
1
10
-46.5
20
2.36872134228494
30
0
41
1
10
-46.5
20
2.29238050761512
30
0
41
1
10
-46.5
20
2.21601237541196
30
0
41
1
10
-46.5
20
2.1136385507813
30
0
41
1
10
-46.5
20
2.01284827062057
30
0
41
1
10
-46.5
20
1.91037865662716
30
0
41
1
10
-46.5
20
1.80790531000545
30
0
41
1
10
-46.5
20
1.70711256984492
30
0
41
1
10
-46.5
20
1.60457743182724
30
0
41
1
10
-46.5
20
1.50205128730946
30
0
41
1
10
-46.5
20
1.40129776039706
30
0
41
1
10
-46.5
20
1.29873779453169
30
0
41
1
10
-46.5
20
1.19620014128856
30
0
41
1
10
-46.5
20
1.06942542909613
30
0
41
1
10
-46.5
20
0.916562722132994
30
0
41
1
10
-46.5
20
0.789831382943106
30
0
41
1
10
-46.5
20
0.687306419566113
30
0
41
1
10
-46.5
20
0.610920675348581
30
0
41
1
10
-46.5
20
0.534534760307906
30
0
41
1
10
-46.5
20
0.458151993845746
30
0
41
1
10
-46.5
20
0.381785837912616
30
0
41
1
10
-46.5
20
0.305424650134853
30
0
41
1
10
-46.5
20
0.229059014473307
30
0
41
1
10
-46.5
20
0.152702860966826
30
0
41
1
10
-46.5
20
0.0763563556612041
30
0
41
1
10
-46.5
20
2.80733161E-08
30
0
41
1
10
-46.5
20
-0.076356310577296
30
0
41
1
10
-46.5
20
-0.152702843052822
30
0
41
1
10
-46.5
20
-0.229059030613456
30
0
41
1
10
-46.5
20
-0.305424686924113
30
0
41
1
10
-46.5
20
-0.381785863077568
30
0
41
1
10
-46.5
20
-0.458151977723702
30
0
41
1
10
-46.5
20
-0.534534693051455
30
0
41
1
10
-46.5
20
-0.610920589347131
30
0
41
1
10
-46.5
20
-0.687306363873148
30
0
41
1
10
-46.5
20
-0.789831419581105
30
0
41
1
10
-46.5
20
-0.916562784856694
30
0
41
1
10
-46.5
20
-1.06942535695802
30
0
41
1
10
-46.5
20
-1.19620002438884
30
0
41
1
10
-46.5
20
-1.29873778818714
30
0
41
1
10
-46.5
20
-1.4012978622037
30
0
41
1
10
-46.5
20
-1.5020513722005
30
0
41
1
10
-46.5
20
-1.60457738401544
30
0
41
1
10
-46.5
20
-1.70711241828627
30
0
41
1
10
-46.5
20
-1.8079051974614
30
0
41
1
10
-46.5
20
-1.91037868910013
30
0
41
1
10
-46.5
20
-2.01284840665622
30
0
41
1
10
-46.5
20
-2.11363864625309
30
0
41
1
10
-46.5
20
-2.21601232318548
30
0
41
1
10
-46.5
20
-2.29238035464505
30
0
41
1
10
-46.5
20
-2.36872116745494
30
0
41
1
10
-46.5
20
-2.44503916247581
30
0
41
1
10
-46.5
20
-2.52133341402529
30
0
41
1
10
-46.5
20
-2.6235307556029
30
0
41
1
10
-46.5
20
-2.75008154091444
30
0
41
1
10
-46.5
20
-2.90237254212084
30
0
41
1
10
-46.5
20
-3.05450118032678
30
0
41
1
10
-46.5
20
-3.20645087454685
30
0
41
1
10
-46.5
20
-3.35820741865715
30
0
41
1
10
-46.5
20
-3.48404272537229
30
0
41
1
10
-46.5
20
-3.58538042142948
30
0
41
1
10
-46.5
20
-3.68664870804315
30
0
41
1
10
-46.5
20
-3.81214209897169
30
0
41
1
10
-46.5
20
-4.01407322556258
30
0
41
1
10
-46.5
20
-4.21306090369279
30
0
41
1
10
-46.5
20
-4.41377359776462
30
0
41
1
10
-46.5
20
-4.61410932418934
30
0
41
1
10
-46.5
20
-4.86210999380603
30
0
41
1
10
-46.5
20
-5.10896440271227
30
0
41
1
10
-46.5
20
-5.30698791061064
30
0
41
1
10
-46.5
20
-5.50455825405018
30
0
41
1
10
-46.5
20
-5.74916632270831
30
0
41
1
10
-46.5
20
-6.04192849679615
30
0
41
1
10
-46.5
20
-6.33314802823844
30
0
41
1
10
-46.5
20
-6.62278719976086
30
0
41
1
10
-46.5
20
-6.9108095828278
30
0
41
1
10
-46.5
20
-7.19718401656101
30
0
41
1
10
-46.5
20
-7.48188354614001
30
0
41
1
10
-46.5
20
-7.76488418006772
30
0
41
1
10
-46.5
20
-8.04616213876736
30
0
41
1
10
-46.5
20
-8.32569604592507
30
0
41
1
10
-46.5
20
-8.60347117534127
30
0
41
1
10
-46.5
20
-8.87947149804464
30
0
41
1
10
-46.5
20
-9.1536787403094
30
0
41
1
10
-46.5
20
-9.42608142898092
30
0
41
1
10
-46.5
20
-9.69666702608507
30
0
41
1
10
-46.5
20
-9.96542491303094
30
0
41
1
10
-46.5
20
-10.2323434264719
30
0
41
1
10
-46.5
20
-10.5865661574939
30
0
41
1
10
-46.5
20
-10.9347667406993
30
0
41
1
10
-46.5
20
-11.2814444878529
30
0
41
1
10
-46.5
20
-11.5390343183573
30
0
41
1
10
-46.5
20
-11.7947361066788
30
0
41
1
10
-46.5
20
-12.048541583354
30
0
41
1
10
-46.5
20
-12.3004440311798
30
0
41
1
10
-46.5
20
-12.6344409449824
30
0
41
1
10
-46.5
20
-12.9626507598826
30
0
41
1
10
-46.5
20
-13.2889085465964
30
0
41
1
10
-46.5
20
-13.5312065194642
30
0
41
1
10
-46.5
20
-13.7715679573403
30
0
41
1
10
-46.5
20
-14.0099844817143
30
0
41
1
10
-46.5000000000001
20
-14.2464507208459
30
0
41
1
10
-46.5000000000001
20
-14.4809638211461
30
0
41
1
10
-46.5000000000001
20
-14.7135145143935
30
0
41
1
10
-46.5000000000001
20
-14.9440989510646
30
0
41
1
10
-46.5000000000001
20
-15.1727131739383
30
0
41
1
10
-46.5000000000001
20
-15.399347939174
30
0
41
1
10
-46.5000000000001
20
-15.6239999053157
30
0
41
1
10
-46.5000000000001
20
-15.9214104773831
30
0
41
1
10
-46.5000000000001
20
-16.2132867359669
30
0
41
1
10
-46.5000000000001
20
-16.5026611888571
30
0
41
1
10
-46.5000000000001
20
-16.7893526613562
30
0
41
1
10
-46.5000000000001
20
-17.1415784199829
30
0
41
1
10
-46.5000000000001
20
-17.4870326238006
30
0
41
1
10
-46.5000000000001
20
-17.7601375367849
30
0
41
1
10
-46.5000000000001
20
-18.0305055738419
30
0
41
1
10
-46.5000000000001
20
-18.3623163297429
30
0
41
1
10
-46.5000000000001
20
-18.6872198879944
30
0
41
1
10
-46.5000000000001
20
-18.9437303760811
30
0
41
1
10
-46.5000000000001
20
-19.1974433400248
30
0
41
1
10
-46.5000000000001
20
-19.5084001148028
30
0
41
1
10
-46.5000000000001
20
-19.8735485854935
30
0
41
1
10
-46.5000000000001
20
-20.1703249928587
30
0
41
1
10
-46.5000000000001
20
-20.4041184359553
30
0
41
1
10
-46.5000000000001
20
-20.6350195698473
30
0
41
1
10
-46.5000000000001
20
-20.9173756153363
30
0
41
1
10
-46.5000000000001
20
-21.2478549114362
30
0
41
1
10
-46.5000000000001
20
-21.5694639882745
30
0
41
1
10
-46.5000000000001
20
-21.882113157423
30
0
41
1
10
-46.5000000000001
20
-22.1857080938536
30
0
41
1
10
-46.5000000000001
20
-22.4307591316749
30
0
41
1
10
-46.5000000000001
20
-22.6227365313404
30
0
41
1
10
-46.5000000000001
20
-22.8116032902179
30
0
41
1
10
-46.5000000000001
20
-23.041145157649
30
0
41
1
10
-46.5000000000001
20
-23.3074726991925
30
0
41
1
10
-46.5000000000001
20
-23.5211247254415
30
0
41
1
10
-46.5000000000001
20
-23.6876786019556
30
0
41
1
10
-46.5000000000001
20
-23.8509558984209
30
0
41
1
10
-46.5000000000001
20
-24.0482725228684
30
0
41
1
10
-46.5000000000001
20
-24.2372525971633
30
0
41
1
10
-46.5000000000001
20
-24.3838015939207
30
0
41
1
10
-46.5000000000001
20
-24.5269227085664
30
0
41
1
10
-46.5000000000001
20
-24.6641535645996
30
0
41
1
10
-46.5000000000001
20
-24.7968362527738
30
0
41
1
10
-46.5000000000001
20
-24.8935210874342
30
0
41
1
10
-46.5000000000001
20
-24.9875302738735
30
0
41
1
10
-46.5000000000001
20
-25.0788408868141
30
0
41
1
10
-46.5000000000001
20
-25.1674263269855
30
0
41
1
10
-46.5000000000001
20
-25.2532602220168
30
0
41
1
10
-46.5000000000001
20
-25.3363180229215
30
0
41
1
10
-46.5000000000001
20
-25.4165702112603
30
0
41
1
10
-46.5000000000001
20
-25.4939882216234
30
0
41
1
10
-46.5000000000001
20
-25.5935790625543
30
0
41
1
10
-46.5000000000001
20
-25.6868434692656
30
0
41
1
10
-46.5000000000001
20
-25.7747185038324
30
0
41
1
10
-46.5000000000001
20
-25.8375026350056
30
0
41
1
10
-46.5000000000001
20
-25.8972596671493
30
0
41
1
10
-46.5000000000001
20
-25.9539520563291
30
0
41
1
10
-46.5000000000001
20
-26.0075410833253
30
0
41
1
10
-46.5000000000001
20
-26.057988721179
30
0
41
1
10
-46.5000000000001
20
-26.1052520927382
30
0
41
1
10
-46.5000000000001
20
-26.1640888761726
30
0
41
1
10
-46.5000000000001
20
-26.2291930886235
30
0
41
1
10
-46.5000000000001
20
-26.2831057174251
30
0
41
1
10
-46.5000000000001
20
-26.3194531526335
30
0
41
1
10
-46.5000000000001
20
-26.3431264926156
30
0
41
1
10
-46.5000000000001
20
-26.3632177086404
30
0
41
1
10
-46.5000000000001
20
-26.3796666797907
30
0
41
1
10
-46.5000000000001
20
-26.3924096200979
30
0
41
1
10
-46.5000000000001
20
-26.4013807127482
30
0
41
1
10
-46.5000000000001
20
-26.4065097228091
30
0
41
1
10
-46.5000000000001
20
-26.4077241928711
30
0
41
1
10
-46.5000000000001
20
-26.404946665427
30
0
41
1
10
-46.5000000000001
20
-26.3995185100216
30
0
41
1
10
-46.5000000000001
20
-26.3950594992875
30
0
41
1
10
-46.5000000000001
20
-26.393738906468
30
0
0
SPLINE
5
15B
100
AcDbEntity
8
SK1
62
256
6
ByLayer
370
18
48
1
60
0
100
AcDbSpline
70
4
71
3
72
13
73
9
40
0
40
0
40
0
40
0
40
0.23945613558961
40
0.368359721696765
40
0.499998983755371
40
0.631638415030343
40
0.760542467577835
40
1
40
1
40
1
40
1
41
1
10
-2.20000000000007
20
-27.520098663655
30
0
41
1
10
-2.1990919864206
20
-27.4940411875707
30
0
41
1
10
-2.19103284106737
20
-27.4566686032801
30
0
41
1
10
-2.16563592203031
20
-27.4104494295044
30
0
41
1
10
-2.13886378678808
20
-27.3791678756854
30
0
41
1
10
-2.10627712749326
20
-27.3540005055176
30
0
41
1
10
-2.05884064232893
20
-27.3309567030812
30
0
41
1
10
-2.02111030872436
20
-27.3247844480697
30
0
41
1
10
-1.99503997793937
20
-27.3251860880175
30
0
0
SPLINE
5
15C
100
AcDbEntity
8
SK1
62
256
6
ByLayer
370
18
48
1
60
0
100
AcDbSpline
70
4
71
3
72
301
73
297
40
0
40
0
40
0
40
0
40
0.0027621599874117
40
0.0062392108315619
40
0.009716261675712
40
0.0131933125198622
40
0.0166703633640123
40
0.0201474142081624
40
0.0236244650523126
40
0.0271015158964627
40
0.034055617584763
40
0.0410097192730633
40
0.0444867701172134
40
0.0479638209613636
40
0.0514408718055137
40
0.0549179226496638
40
0.058394973493814
40
0.0618720243379641
40
0.0653490751821142
40
0.0688261260262644
40
0.0757802277145647
40
0.0792572785587148
40
0.0827343294028649
40
0.0862113802470151
40
0.0896884310911652
40
0.0931654819353154
40
0.0966425327794655
40
0.100119583623616
40
0.103596634467766
40
0.107073685311916
40
0.110550736156066
40
0.114027787000216
40
0.115766312422291
40
0.117504837844366
40
0.120981888688517
40
0.124458939532667
40
0.131413041220967
40
0.138367142909267
40
0.141844193753417
40
0.145321244597567
40
0.152275346285868
40
0.159229447974168
40
0.166183549662468
40
0.169660600506618
40
0.173137651350769
40
0.180091753039069
40
0.187045854727369
40
0.193999956415669
40
0.20095405810397
40
0.20790815979227
40
0.21486226148057
40
0.21833931232472
40
0.22181636316887
40
0.228770464857171
40
0.235724566545471
40
0.242678668233771
40
0.246155719077921
40
0.249632769922072
40
0.256586871610372
40
0.263540973298672
40
0.267018024142822
40
0.270495074986972
40
0.277449176675273
40
0.284403278363573
40
0.287880329207723
40
0.291357380051873
40
0.298311481740174
40
0.301788532584324
40
0.305265583428474
40
0.307004108850549
40
0.308742634272624
40
0.312219685116774
40
0.315696735960924
40
0.319173786805074
40
0.322650837649224
40
0.326127888493375
40
0.329604939337525
40
0.333081990181675
40
0.336559041025825
40
0.340036091869975
40
0.346990193558275
40
0.350467244402426
40
0.353944295246576
40
0.357421346090726
40
0.360898396934876
40
0.364375447779026
40
0.367852498623176
40
0.374806600311477
40
0.381760701999777
40
0.385237752843927
40
0.388714803688077
40
0.392191854532227
40
0.395668905376377
40
0.399145956220528
40
0.402623007064678
40
0.406100057908828
40
0.409577108752978
40
0.413054159597128
40
0.416531210441278
40
0.420008261285428
40
0.423485312129579
40
0.426962362973729
40
0.430439413817879
40
0.433916464662029
40
0.437393515506179
40
0.439132040928254
40
0.440870566350329
40
0.444347617194479
40
0.44782466803863
40
0.449563193460705
40
0.45130171888278
40
0.45477876972693
40
0.456517295149005
40
0.45825582057108
40
0.459125083282117
40
0.459994345993155
40
0.46173287141523
40
0.463471396837305
40
0.46520992225938
40
0.466948447681455
40
0.46868697310353
40
0.470425498525605
40
0.471294761236643
40
0.47216402394768
40
0.473033286658718
40
0.473902549369756
40
0.474771812080793
40
0.475641074791831
40
0.477379600213906
40
0.478248862924943
40
0.479118125635981
40
0.480856651058056
40
0.481725913769093
40
0.482595176480131
40
0.484333701902206
40
0.485202964613244
40
0.486072227324281
40
0.487810752746356
40
0.489549278168431
40
0.491287803590506
40
0.492157066301544
40
0.493026329012581
40
0.493895591723619
40
0.494764854434656
40
0.495634117145694
40
0.496503379856731
40
0.497372642567769
40
0.498241905278807
40
0.499111167989844
40
0.499980430700882
40
0.500849693411919
40
0.501718956122957
40
0.502588218833994
40
0.503457481545032
40
0.504326744256069
40
0.505196006967107
40
0.506065269678144
40
0.506934532389182
40
0.507803795100219
40
0.508673057811257
40
0.510411583233332
40
0.512150108655407
40
0.513888634077482
40
0.51475789678852
40
0.515627159499557
40
0.517365684921632
40
0.51823494763267
40
0.519104210343707
40
0.520842735765782
40
0.52171199847682
40
0.522581261187858
40
0.524319786609933
40
0.52518904932097
40
0.526058312032008
40
0.526927574743045
40
0.527796837454083
40
0.52866610016512
40
0.529535362876158
40
0.531273888298233
40
0.533012413720308
40
0.534750939142383
40
0.536489464564458
40
0.538227989986533
40
0.539966515408608
40
0.540835778119646
40
0.541705040830683
40
0.543443566252758
40
0.545182091674833
40
0.548659142518984
40
0.550397667941059
40
0.552136193363134
40
0.555613244207284
40
0.559090295051434
40
0.560828820473509
40
0.562567345895584
40
0.566044396739734
40
0.569521447583884
40
0.572998498428035
40
0.576475549272185
40
0.579952600116335
40
0.583429650960485
40
0.586906701804635
40
0.590383752648785
40
0.593860803492935
40
0.597337854337085
40
0.600814905181236
40
0.604291956025386
40
0.607769006869536
40
0.611246057713686
40
0.614723108557836
40
0.618200159401986
40
0.621677210246136
40
0.625154261090287
40
0.632108362778587
40
0.635585413622737
40
0.639062464466887
40
0.642539515311037
40
0.646016566155187
40
0.649493616999338
40
0.652970667843488
40
0.659924769531788
40
0.663401820375938
40
0.666878871220088
40
0.670355922064238
40
0.673832972908389
40
0.677310023752539
40
0.680787074596689
40
0.684264125440839
40
0.687741176284989
40
0.691218227129139
40
0.694695277973289
40
0.69817232881744
40
0.70164937966159
40
0.70860348134989
40
0.71208053219404
40
0.71555758303819
40
0.72251168472649
40
0.729465786414791
40
0.732942837258941
40
0.736419888103091
40
0.743373989791391
40
0.750328091479692
40
0.753805142323842
40
0.757282193167992
40
0.764236294856292
40
0.771190396544592
40
0.778144498232893
40
0.781621549077043
40
0.785098599921193
40
0.792052701609493
40
0.799006803297794
40
0.805960904986094
40
0.812915006674394
40
0.819869108362694
40
0.826823210050995
40
0.830300260895145
40
0.833777311739295
40
0.840731413427595
40
0.847685515115896
40
0.854639616804196
40
0.858116667648346
40
0.861593718492496
40
0.868547820180796
40
0.875501921869097
40
0.878978972713247
40
0.882456023557397
40
0.889410125245697
40
0.892887176089847
40
0.896364226933997
40
0.899841277778147
40
0.903318328622298
40
0.906795379466448
40
0.910272430310598
40
0.913749481154748
40
0.917226531998898
40
0.920703582843048
40
0.924180633687199
40
0.931134735375499
40
0.934611786219649
40
0.938088837063799
40
0.941565887907949
40
0.945042938752099
40
0.94851998959625
40
0.9519970404404
40
0.95547409128455
40
0.9589511421287
40
0.965905243817
40
0.9728593455053
40
0.976336396349451
40
0.979813447193601
40
0.983290498037751
40
0.986767548881901
40
0.990244599726051
40
0.993721650570201
40
0.997198701414351
40
1
40
1
40
1
40
1
41
1
10
-1.9950399779392
20
27.3251859090856
30
0
41
1
10
-1.99503997793917
20
27.3251758363055
30
0
41
1
10
-1.99503997793923
20
27.32417558927
30
0
41
1
10
-1.9950399779392
20
27.319236545434
30
0
41
1
10
-1.9950399779392
20
27.309968420024
30
0
41
1
10
-1.9950399779392
20
27.2968118977755
30
0
41
1
10
-1.9950399779392
20
27.2798390211927
30
0
41
1
10
-1.9950399779392
20
27.2591194067693
30
0
41
1
10
-1.9950399779392
20
27.2347184649703
30
0
41
1
10
-1.9950399779392
20
27.1973453109891
30
0
41
1
10
-1.9950399779392
20
27.1417627231677
30
0
41
1
10
-1.9950399779392
20
27.074692746873
30
0
41
1
10
-1.9950399779392
20
27.0143097024856
30
0
41
1
10
-1.9950399779392
20
26.9657375531884
30
0
41
1
10
-1.9950399779392
20
26.9139107109326
30
0
41
1
10
-1.9950399779392
20
26.8588742679962
30
0
41
1
10
-1.9950399779392
20
26.8006684557748
30
0
41
1
10
-1.9950399779392
20
26.7393343904955
30
0
41
1
10
-1.9950399779392
20
26.674910802648
30
0
41
1
10
-1.9950399779392
20
26.5849135587966
30
0
41
1
10
-1.9950399779392
20
26.4889678074055
30
0
41
1
10
-1.9950399779392
20
26.387035697685
30
0
41
1
10
-1.9950399779392
20
26.3076915686753
30
0
41
1
10
-1.9950399779392
20
26.2254595087626
30
0
41
1
10
-1.9950399779392
20
26.1403699848693
30
0
41
1
10
-1.9950399779392
20
26.0524523997801
30
0
41
1
10
-1.9950399779392
20
25.9617325512638
30
0
41
1
10
-1.9950399779392
20
25.8682385377286
30
0
41
1
10
-1.9950399779392
20
25.7719964787433
30
0
41
1
10
-1.9950399779392
20
25.6730295553062
30
0
41
1
10
-1.9950399779392
20
25.5713637005868
30
0
41
1
10
-1.9950399779392
20
25.4844312429181
30
0
41
1
10
-1.9950399779392
20
25.4135236324805
30
0
41
1
10
-1.9950399779392
20
25.3417349423789
30
0
41
1
10
-1.9950399779392
20
25.2503983881992
30
0
41
1
10
-1.9950399779392
20
25.1007072283818
30
0
41
1
10
-1.9950399779392
20
24.9072094601534
30
0
41
1
10
-1.9950399779392
20
24.7052121586235
30
0
41
1
10
-1.9950399779392
20
24.5385089750245
30
0
41
1
10
-1.9950399779392
20
24.3684762393368
30
0
41
1
10
-1.9950399779392
20
24.1498376426061
30
0
41
1
10
-1.9950399779392
20
23.8776317120835
30
0
41
1
10
-1.9950399779392
20
23.6427893362144
30
0
41
1
10
-1.99503997793923
20
23.4500539403358
30
0
41
1
10
-1.99503997793923
20
23.2541535983723
30
0
41
1
10
-1.99503997793923
20
23.0034924076521
30
0
41
1
10
-1.99503997793923
20
22.6933032792697
30
0
41
1
10
-1.99503997793923
20
22.3738761836524
30
0
41
1
10
-1.99503997793923
20
22.0453025532578
30
0
41
1
10
-1.99503997793923
20
21.707668613525
30
0
41
1
10
-1.99503997793923
20
21.4188827024373
30
0
41
1
10
-1.99503997793923
20
21.1832962289191
30
0
41
1
10
-1.99503997793923
20
20.9447536956121
30
0
41
1
10
-1.99503997793923
20
20.6411931750868
30
0
41
1
10
-1.99503997793923
20
20.2680830253803
30
0
41
1
10
-1.99503997793923
20
19.9499723423375
30
0
41
1
10
-1.99503997793923
20
19.6910450135594
30
0
41
1
10
-1.99503997793923
20
19.4292463867237
30
0
41
1
10
-1.99503997793923
20
19.096784863067
30
0
41
1
10
-1.99503997793923
20
18.7572123739995
30
0
41
1
10
-1.99503997793923
20
18.4811831112868
30
0
41
1
10
-1.99503997793923
20
18.202332595015
30
0
41
1
10
-1.99503997793923
20
17.8486596758477
30
0
41
1
10
-1.99503997793923
20
17.487986707193
30
0
41
1
10
-1.99503997793923
20
17.1951273648909
30
0
41
1
10
-1.99503997793923
20
16.8994864797488
30
0
41
1
10
-1.99503997793923
20
16.5999232615433
30
0
41
1
10
-1.99503997793923
20
16.2959649333064
30
0
41
1
10
-1.99503997793923
20
16.1043598435705
30
0
41
1
10
-1.99503997793923
20
15.9499656619051
30
0
41
1
10
-1.99503997793923
20
15.7948829493702
30
0
41
1
10
-1.99503997793923
20
15.5998373978987
30
0
41
1
10
-1.99503997793923
20
15.3636702284228
30
0
41
1
10
-1.99503997793923
20
15.1254444180464
30
0
41
1
10
-1.99503997793923
20
14.8851632986275
30
0
41
1
10
-1.99503997793923
20
14.6428305081908
30
0
41
1
10
-1.99503997793923
20
14.3984468555777
30
0
41
1
10
-1.99503997793926
20
14.1520156158997
30
0
41
1
10
-1.99503997793926
20
13.9035389822172
30
0
41
1
10
-1.99503997793926
20
13.5694123671834
30
0
41
1
10
-1.99503997793926
20
13.2315065950277
30
0
41
1
10
-1.99503997793926
20
12.8892093803249
30
0
41
1
10
-1.99503997793926
20
12.6305299496176
30
0
41
1
10
-1.99503997793926
20
12.3698135917844
30
0
41
1
10
-1.99503997793926
20
12.1070624362612
30
0
41
1
10
-1.99503997793926
20
11.8422771919954
30
0
41
1
10
-1.99503997793926
20
11.4864047694406
30
0
41
1
10
-1.99503997793926
20
11.0367533786719
30
0
41
1
10
-1.99503997793926
20
10.5803285804451
30
0
41
1
10
-1.99503997793926
20
10.2109002581502
30
0
41
1
10
-1.99503997793926
20
9.93190145357084
30
0
41
1
10
-1.99503997793926
20
9.6508756669198
30
0
41
1
10
-1.99503997793926
20
9.36782441803413
30
0
41
1
10
-1.99503997793926
20
9.08274869992735
30
0
41
1
10
-1.99503997793926
20
8.79565052315385
30
0
41
1
10
-1.99503997793926
20
8.5065316633322
30
0
41
1
10
-1.99503997793926
20
8.21539474907743
30
0
41
1
10
-1.99503997793926
20
7.92224261249635
30
0
41
1
10
-1.99503997793926
20
7.62707900817011
30
0
41
1
10
-1.99503997793926
20
7.32990842680402
30
0
41
1
10
-1.99503997793926
20
7.03073644813685
30
0
41
1
10
-1.99503997793926
20
6.72956956969853
30
0
41
1
10
-1.99503997793926
20
6.42641643294533
30
0
41
1
10
-1.99503997793926
20
6.12128657453567
30
0
41
1
10
-1.99503997793926
20
5.86547227949208
30
0
41
1
10
-1.99503997793926
20
5.65966031743471
30
0
41
1
10
-1.99503997793926
20
5.45320484016275
30
0
41
1
10
-1.99503997793926
20
5.194175192833
30
0
41
1
10
-1.99503997793926
20
4.93354787471691
30
0
41
1
10
-1.99503997793926
20
4.72389491984228
30
0
41
1
10
-1.99503997793928
20
4.51362416489164
30
0
41
1
10
-1.99503997793928
20
4.30279738744869
30
0
41
1
10
-1.99503997793928
20
4.09068021746162
30
0
41
1
10
-1.99503997793928
20
3.95788266698418
30
0
41
1
10
-1.99503997793928
20
3.85130376069884
30
0
41
1
10
-1.99503997793928
20
3.74458052899692
30
0
41
1
10
-1.99503997793928
20
3.61106187073102
30
0
41
1
10
-1.99503997793928
20
3.45032621656429
30
0
41
1
10
-1.99503997793928
20
3.28917313145487
30
0
41
1
10
-1.99503997793928
20
3.12761068170508
30
0
41
1
10
-1.99503997793928
20
2.96564923158397
30
0
41
1
10
-1.99503997793928
20
2.83043414688217
30
0
41
1
10
-1.99503997793928
20
2.72193089625395
30
0
41
1
10
-1.99503997793928
20
2.64052221841842
30
0
41
1
10
-1.99503997793928
20
2.55902310675029
30
0
41
1
10
-1.99503997793928
20
2.47743504267538
30
0
41
1
10
-1.99503997793928
20
2.39575871579831
30
0
41
1
10
-1.99503997793928
20
2.28665934688652
30
0
41
1
10
-1.99503997793928
20
2.17765162048644
30
0
41
1
10
-1.99503997793928
20
2.06822032488088
30
0
41
1
10
-1.99503997793928
20
1.95868778076368
30
0
41
1
10
-1.99503997793928
20
1.84927662995438
30
0
41
1
10
-1.99503997793928
20
1.73944751085296
30
0
41
1
10
-1.99503997793928
20
1.6295301381889
30
0
41
1
10
-1.99503997793928
20
1.51976603752374
30
0
41
1
10
-1.99503997793928
20
1.40959257647998
30
0
41
1
10
-1.99503997793928
20
1.29934603509318
30
0
41
1
10
-1.99503997793928
20
1.16162401558285
30
0
41
1
10
-1.99503997793928
20
0.996043867302802
30
0
41
1
10
-1.99503997793928
20
0.858021466226489
30
0
41
1
10
-1.99503997793928
20
0.74734826211116
30
0
41
1
10
-1.99503997793928
20
0.664391463462891
30
0
41
1
10
-1.99503997793928
20
0.581404948836564
30
0
41
1
10
-1.99503997793928
20
0.498392847694362
30
0
41
1
10
-1.99503997793928
20
0.415360879438595
30
0
41
1
10
-1.99503997793928
20
0.332310821896414
30
0
41
1
10
-1.99503997793928
20
0.249244909992626
30
0
41
1
10
-1.99503997793928
20
0.166169126760138
30
0
41
1
10
-1.99503997793928
20
0.083087258687442
30
0
41
1
10
-1.99503997793928
20
7.3694082E-09
30
0
41
1
10
-1.99503997793928
20
-0.0830872457044336
30
0
41
1
10
-1.99503997793928
20
-0.166169118100839
30
0
41
1
10
-1.99503997793928
20
-0.249244906780348
30
0
41
1
10
-1.99503997793928
20
-0.332310822055121
30
0
41
1
10
-1.99503997793928
20
-0.415360877837117
30
0
41
1
10
-1.99503997793928
20
-0.498392839537729
30
0
41
1
10
-1.99503997793928
20
-0.581404932400318
30
0
41
1
10
-1.99503997793928
20
-0.664391443726458
30
0
41
1
10
-1.99503997793928
20
-0.747348246925924
30
0
41
1
10
-1.99503997793928
20
-0.858021465650296
30
0
41
1
10
-1.99503997793928
20
-0.99604387184678
30
0
41
1
10
-1.99503997793928
20
-1.16162399896865
30
0
41
1
10
-1.99503997793928
20
-1.29934600948991
30
0
41
1
10
-1.99503997793928
20
-1.40959256793391
30
0
41
1
10
-1.99503997793928
20
-1.51976604695517
30
0
41
1
10
-1.99503997793928
20
-1.62953014673869
30
0
41
1
10
-1.99503997793928
20
-1.73944749852939
30
0
41
1
10
-1.99503997793928
20
-1.84927659960155
30
0
41
1
10
-1.99503997793928
20
-1.95868775414536
30
0
41
1
10
-1.99503997793928
20
-2.06822032104492
30
0
41
1
10
-1.99503997793928
20
-2.17765163493269
30
0
41
1
10
-1.99503997793928
20
-2.28665935771656
30
0
41
1
10
-1.99503997793928
20
-2.39575870345573
30
0
41
1
10
-1.99503997793928
20
-2.47743501265126
30
0
41
1
10
-1.99503997793928
20
-2.55902307088405
30
0
41
1
10
-1.99503997793928
20
-2.64052218961078
30
0
41
1
10
-1.99503997793928
20
-2.72193088426971
30
0
41
1
10
-1.99503997793928
20
-2.83043415716216
30
0
41
1
10
-1.99503997793928
20
-2.96564924759372
30
0
41
1
10
-1.99503997793928
20
-3.12761066714143
30
0
41
1
10
-1.99503997793928
20
-3.28917309238062
30
0
41
1
10
-1.99503997793928
20
-3.45032619783549
30
0
41
1
10
-1.99503997793928
20
-3.61106188513384
30
0
41
1
10
-1.99503997793928
20
-3.74458054435991
30
0
41
1
10
-1.99503997793928
20
-3.85130375742838
30
0
41
1
10
-1.99503997793928
20
-3.95788264175957
30
0
41
1
10
-1.99503997793928
20
-4.09068017699948
30
0
41
1
10
-1.99503997793928
20
-4.30279737234505
30
0
41
1
10
-1.99503997793928
20
-4.51362418453465
30
0
41
1
10
-1.99503997793931
20
-4.72389491460817
30
0
41
1
10
-1.99503997793931
20
-4.93354783719795
30
0
41
1
10
-1.99503997793931
20
-5.19417516976088
30
0
41
1
10
-1.99503997793931
20
-5.45320486068488
30
0
41
1
10
-1.99503997793931
20
-5.65966031194296
30
0
41
1
10
-1.99503997793931
20
-5.86547224264382
30
0
41
1
10
-1.99503997793931
20
-6.12128654405475
30
0
41
1
10
-1.99503997793931
20
-6.42641644899933
30
0
41
1
10
-1.99503997793931
20
-6.7295695622245
30
0
41
1
10
-1.99503997793931
20
-7.03073643509245
30
0
41
1
10
-1.99503997793931
20
-7.32990848936902
30
0
41
1
10
-1.99503997793931
20
-7.62707899667751
30
0
41
1
10
-1.99503997793931
20
-7.92224242464158
30
0
41
1
10
-1.99503997793931
20
-8.21539468387994
30
0
41
1
10
-1.99503997793931
20
-8.50653184364373
30
0
41
1
10
-1.99503997793931
20
-8.79565051892371
30
0
41
1
10
-1.99503997793931
20
-9.08274836934052
30
0
41
1
10
-1.99503997793931
20
-9.36782442184719
30
0
41
1
10
-1.99503997793931
20
-9.65087577167401
30
0
41
1
10
-1.99503997793931
20
-9.93190148567106
30
0
41
1
10
-1.99503997793931
20
-10.2109002476074
30
0
41
1
10
-1.99503997793931
20
-10.4878712580384
30
0
41
1
10
-1.99503997793931
20
-10.7628135122141
30
0
41
1
10
-1.99503997793931
20
-11.1268240668469
30
0
41
1
10
-1.99503997793931
20
-11.4864047926356
30
0
41
1
10
-1.99503997793931
20
-11.8422771763273
30
0
41
1
10
-1.99503997793931
20
-12.1070624597528
30
0
41
1
10
-1.99503997793931
20
-12.3698136542137
30
0
41
1
10
-1.99503997793931
20
-12.630529996325
30
0
41
1
10
-1.99503997793931
20
-12.8892094092454
30
0
41
1
10
-1.99503997793931
20
-13.2315065874855
30
0
41
1
10
-1.99503997793931
20
-13.5694124056225
30
0
41
1
10
-1.99503997793931
20
-13.903538977374
30
0
41
1
10
-1.99503997793931
20
-14.1520156345789
30
0
41
1
10
-1.99503997793934
20
-14.3984468746313
30
0
41
1
10
-1.99503997793934
20
-14.6428305016925
30
0
41
1
10
-1.99503997793934
20
-14.8851633083157
30
0
41
1
10
-1.99503997793934
20
-15.1254443246959
30
0
41
1
10
-1.99503997793934
20
-15.3636701740732
30
0
41
1
10
-1.99503997793934
20
-15.5998376412757
30
0
41
1
10
-1.99503997793934
20
-15.8339451945693
30
0
41
1
10
-1.99503997793934
20
-16.0659886092783
30
0
41
1
10
-1.99503997793934
20
-16.2959645253135
30
0
41
1
10
-1.99503997793934
20
-16.5999232967459
30
0
41
1
10
-1.99503997793934
20
-16.8994865286446
30
0
41
1
10
-1.99503997793934
20
-17.1951273582893
30
0
41
1
10
-1.99503997793934
20
-17.487986711463
30
0
41
1
10
-1.99503997793934
20
-17.8486596771386
30
0
41
1
10
-1.99503997793934
20
-18.2023325900281
30
0
41
1
10
-1.99503997793934
20
-18.4811831142102
30
0
41
1
10
-1.99503997793934
20
-18.7572123771119
30
0
41
1
10
-1.99503997793934
20
-19.0967848636163
30
0
41
1
10
-1.99503997793934
20
-19.4292463860981
30
0
41
1
10
-1.99503997793934
20
-19.6910450149659
30
0
41
1
10
-1.99503997793934
20
-19.9499723474756
30
0
41
1
10
-1.99503997793934
20
-20.2680830241603
30
0
41
1
10
-1.99503997793934
20
-20.641193176551
30
0
41
1
10
-1.99503997793934
20
-20.9447536987916
30
0
41
1
10
-1.99503997793934
20
-21.183296231241
30
0
41
1
10
-1.99503997793934
20
-21.4188827033323
30
0
41
1
10
-1.99503997793934
20
-21.7076686178739
30
0
41
1
10
-1.99503997793934
20
-22.0453025545601
30
0
41
1
10
-1.99503997793934
20
-22.3738761877812
30
0
41
1
10
-1.99503997793934
20
-22.6933032821098
30
0
41
1
10
-1.99503997793934
20
-23.0034924093454
30
0
41
1
10
-1.99503997793934
20
-23.2541536051906
30
0
41
1
10
-1.99503997793934
20
-23.4500539432773
30
0
41
1
10
-1.99503997793937
20
-23.6427893382923
30
0
41
1
10
-1.99503997793937
20
-23.8776317176072
30
0
41
1
10
-1.99503997793937
20
-24.1498376513416
30
0
41
1
10
-1.99503997793937
20
-24.3684762369579
30
0
41
1
10
-1.99503997793937
20
-24.5385089830443
30
0
41
1
10
-1.99503997793937
20
-24.7052121640853
30
0
41
1
10
-1.99503997793937
20
-24.9072094682151
30
0
41
1
10
-1.99503997793937
20
-25.1007072668634
30
0
41
1
10
-1.99503997793937
20
-25.2503982620474
30
0
41
1
10
-1.99503997793937
20
-25.396607276112
30
0
41
1
10
-1.99503997793937
20
-25.5374379046987
30
0
41
1
10
-1.99503997793937
20
-25.6730299792935
30
0
41
1
10
-1.99503997793937
20
-25.7719963599905
30
0
41
1
10
-1.99503997793937
20
-25.8682384460151
30
0
41
1
10
-1.99503997793937
20
-25.961732550658
30
0
41
1
10
-1.99503997793937
20
-26.0524524072106
30
0
41
1
10
-1.99503997793937
20
-26.1403699560892
30
0
41
1
10
-1.99503997793937
20
-26.2254595012835
30
0
41
1
10
-1.99503997793937
20
-26.307691573879
30
0
41
1
10
-1.99503997793937
20
-26.3870356638969
30
0
41
1
10
-1.99503997793937
20
-26.4889678259813
30
0
41
1
10
-1.99503997793937
20
-26.5849135103433
30
0
41
1
10
-1.99503997793937
20
-26.6749108160321
30
0
41
1
10
-1.99503997793937
20
-26.7393343627507
30
0
41
1
10
-1.99503997793937
20
-26.8006684388868
30
0
41
1
10
-1.99503997793937
20
-26.8588742790415
30
0
41
1
10
-1.99503997793937
20
-26.9139106605824
30
0
41
1
10
-1.99503997793937
20
-26.965737488626
30
0
41
1
10
-1.99503997793937
20
-27.014309633265
30
0
41
1
10
-1.99503997793937
20
-27.0746927526657
30
0
41
1
10
-1.99503997793937
20
-27.1417627098538
30
0
41
1
10
-1.99503997793937
20
-27.197345231477
30
0
41
1
10
-1.99503997793937
20
-27.2347185022954
30
0
41
1
10
-1.99503997793937
20
-27.2591194581005
30
0
41
1
10
-1.99503997793937
20
-27.2798390261952
30
0
41
1
10
-1.99503997793937
20
-27.2968118938473
30
0
41
1
10
-1.99503997793937
20
-27.3099684620727
30
0
41
1
10
-1.99503997793937
20
-27.319236569139
30
0
41
1
10
-1.99503997793937
20
-27.3241954303188
30
0
41
1
10
-1.99503997793937
20
-27.3251882794345
30
0
41
1
10
-1.99503997793937
20
-27.3251860799865
30
0
0
SPLINE
5
15D
100
AcDbEntity
8
SK1
62
256
6
ByLayer
370
18
48
1
60
0
100
AcDbSpline
70
4
71
3
72
13
73
9
40
0
40
0
40
0
40
0
40
0.239457532426895
40
0.368361584976162
40
0.500001016251877
40
0.631640278310011
40
0.76054386441552
40
1
40
1
40
1
40
1
41
1
10
-1.9950399779392
20
27.3251860847967
30
0
41
1
10
-2.0211103087241
20
27.3247844448489
30
0
41
1
10
-2.05884064232862
20
27.33095669986
30
0
41
1
10
-2.10627712749292
20
27.3540005022953
30
0
41
1
10
-2.13886378678777
20
27.3791678724618
30
0
41
1
10
-2.16563592203002
20
27.4104494262792
30
0
41
1
10
-2.19103284106714
20
27.4566686000526
30
0
41
1
10
-2.19909198642034
20
27.4940411843415
30
0
41
1
10
-2.1999999999999
20
27.5200986604247
30
0
0
SPLINE
5
15E
100
AcDbEntity
8
SK1
62
256
6
ByLayer
370
18
48
1
60
0
100
AcDbSpline
70
4
71
3
72
22
73
18
40
0
40
0
40
0
40
0
40
0.25
40
0.25
40
0.3125
40
0.3125
40
0.375
40
0.375
40
0.5
40
0.5
40
0.625
40
0.625
40
0.6875
40
0.6875
40
0.75
40
0.75
40
1
40
1
40
1
40
1
41
1
10
-1.30710678118655
20
4.39323937970207
30
0
41
1
10
-1.43200052969667
20
3.68760078156763
30
0
41
1
10
-1.54096915123293
20
2.97036065166384
30
0
41
1
10
-1.63962286912502
20
2.05292564755379
30
0
41
1
10
-1.65743175171488
20
1.8683765568492
30
0
41
1
10
-1.68862850343612
20
1.49693538310095
30
0
41
1
10
-1.70203107558444
20
1.30957156780721
30
0
41
1
10
-1.73448227948859
20
0.747398775748906
30
0
41
1
10
-1.74566524731259
20
0.373309638071561
30
0
41
1
10
-1.74566298261809
20
-0.373423897839672
30
0
41
1
10
-1.73448345443984
20
-0.746068577695922
30
0
41
1
10
-1.70238872850288
20
-1.30401975761976
30
0
41
1
10
-1.68916426022977
20
-1.48983541056816
30
0
41
1
10
-1.65809696113624
20
-1.86115004723791
30
0
41
1
10
-1.64022877292862
20
-2.04692746231274
30
0
41
1
10
-1.54131598259173
20
-2.9685639286163
30
0
41
1
10
-1.43205802899382
20
-3.68727509970668
30
0
41
1
10
-1.30710678118658
20
-4.39323915389227
30
0
0
SPLINE
5
15F
100
AcDbEntity
8
SK1
62
256
6
ByLayer
370
18
48
1
60
0
100
AcDbSpline
70
4
71
3
72
108
73
104
40
0
40
0
40
0
40
0
40
0.0065964390758291
40
0.0145559256767252
40
0.0225154122776213
40
0.0304748988785174
40
0.0384343854794134
40
0.0463938720803095
40
0.0543533586812056
40
0.0623128452821017
40
0.0702723318829977
40
0.0782318184838938
40
0.0861913050847899
40
0.0941507916856859
40
0.102110278286582
40
0.110069764887478
40
0.118029251488374
40
0.12598873808927
40
0.133948224690166
40
0.141907711291062
40
0.157826684492855
40
0.165786171093751
40
0.173745657694647
40
0.181705144295543
40
0.189664630896439
40
0.197624117497335
40
0.205583604098231
40
0.221502577300023
40
0.229462063900919
40
0.237421550501815
40
0.245381037102711
40
0.253340523703607
40
0.261300010304504
40
0.2692594969054
40
0.277218983506296
40
0.285178470107192
40
0.293137956708088
40
0.301097443308984
40
0.30905692990988
40
0.317016416510776
40
0.332935389712568
40
0.340894876313464
40
0.34885436291436
40
0.364773336116152
40
0.380692309317945
40
0.388651795918841
40
0.396611282519737
40
0.412530255721529
40
0.428449228923321
40
0.436408715524217
40
0.444368202125113
40
0.460287175326905
40
0.476206148528697
40
0.49212512173049
40
0.500084608331386
40
0.508044094932282
40
0.523963068134074
40
0.539882041335866
40
0.555801014537658
40
0.57171998773945
40
0.587638960941243
40
0.603557934143035
40
0.611517420743931
40
0.619476907344827
40
0.635395880546619
40
0.651314853748411
40
0.667233826950203
40
0.675193313551099
40
0.683152800151995
40
0.699071773353787
40
0.71499074655558
40
0.722950233156476
40
0.730909719757372
40
0.746828692959164
40
0.75478817956006
40
0.762747666160956
40
0.770707152761852
40
0.778666639362748
40
0.786626125963644
40
0.79458561256454
40
0.802545099165436
40
0.810504585766332
40
0.818464072367229
40
0.826423558968125
40
0.842342532169917
40
0.850302018770813
40
0.858261505371709
40
0.866220991972605
40
0.874180478573501
40
0.882139965174397
40
0.890099451775293
40
0.898058938376189
40
0.906018424977085
40
0.921937398178878
40
0.93785637138067
40
0.945815857981566
40
0.953775344582462
40
0.961734831183358
40
0.969694317784254
40
0.97765380438515
40
0.985613290986046
40
0.993572777586942
40
1
40
1
40
1
40
1
41
1
10
-0.394976888875334
20
-5.88246902087042
30
0
41
1
10
-0.394976888875334
20
-5.96764081676275
30
0
41
1
10
-0.394976888875334
20
-6.15502922001536
30
0
41
1
10
-0.394976888875334
20
-6.44325211457954
30
0
41
1
10
-0.394976888875334
20
-6.74692776639381
30
0
41
1
10
-0.394976888875334
20
-7.04859940546743
30
0
41
1
10
-0.394976888875334
20
-7.34825967305403
30
0
41
1
10
-0.394976888875334
20
-7.6459029106087
30
0
41
1
10
-0.394976888875334
20
-7.94152452378475
30
0
41
1
10
-0.394976888875334
20
-8.23512129465951
30
0
41
1
10
-0.394976888875334
20
-8.52669016160962
30
0
41
1
10
-0.394976888875334
20
-8.81622852741523
30
0
41
1
10
-0.394976888875334
20
-9.10373459403795
30
0
41
1
10
-0.394976888875334
20
-9.38920804768813
30
0
41
1
10
-0.394976888875334
20
-9.67264665656018
30
0
41
1
10
-0.394976888875334
20
-9.95404994902185
30
0
41
1
10
-0.394976888875334
20
-10.2334171002114
30
0
41
1
10
-0.394976888875334
20
-10.5107477406375
30
0
41
1
10
-0.394976888875334
20
-10.7860413322607
30
0
41
1
10
-0.394976888875334
20
-11.1504804686583
30
0
41
1
10
-0.394976888875334
20
-11.510559499462
30
0
41
1
10
-0.394976888875334
20
-11.8668344908947
30
0
41
1
10
-0.394976888875334
20
-12.1319348433318
30
0
41
1
10
-0.394976888875334
20
-12.394994711819
30
0
41
1
10
-0.394976888875334
20
-12.6560136616419
30
0
41
1
10
-0.394976888875334
20
-12.9149898191478
30
0
41
1
10
-0.394976888875334
20
-13.2576504430446
30
0
41
1
10
-0.394976888875334
20
-13.5959808223858
30
0
41
1
10
-0.394976888875334
20
-13.9304519465026
30
0
41
1
10
-0.394976888875362
20
-14.1791991512309
30
0
41
1
10
-0.394976888875362
20
-14.4258961711575
30
0
41
1
10
-0.394976888875362
20
-14.6705410811659
30
0
41
1
10
-0.394976888875362
20
-14.9131307685779
30
0
41
1
10
-0.394976888875362
20
-15.1536643460738
30
0
41
1
10
-0.394976888875362
20
-15.3921386948648
30
0
41
1
10
-0.394976888875362
20
-15.6285506275557
30
0
41
1
10
-0.394976888875362
20
-15.8628987186173
30
0
41
1
10
-0.394976888875362
20
-16.0951789631496
30
0
41
1
10
-0.394976888875362
20
-16.3253880002474
30
0
41
1
10
-0.394976888875362
20
-16.6296334992457
30
0
41
1
10
-0.394976888875362
20
-16.9295333224765
30
0
41
1
10
-0.394976888875362
20
-17.2254485394534
30
0
41
1
10
-0.394976888875362
20
-17.5185779670879
30
0
41
1
10
-0.394976888875362
20
-17.8796208126314
30
0
41
1
10
-0.394976888875362
20
-18.2336536000934
30
0
41
1
10
-0.394976888875362
20
-18.5127557087222
30
0
41
1
10
-0.394976888875362
20
-18.7890328610688
30
0
41
1
10
-0.394976888875362
20
-19.1289452123206
30
0
41
1
10
-0.394976888875362
20
-19.4617376771832
30
0
41
1
10
-0.394976888875362
20
-19.7237678591314
30
0
41
1
10
-0.394976888875362
20
-19.98292351444
30
0
41
1
10
-0.394976888875362
20
-20.3013474407322
30
0
41
1
10
-0.394976888875362
20
-20.6748062131765
30
0
41
1
10
-0.394976888875362
20
-20.9786637930718
30
0
41
1
10
-0.394976888875362
20
-21.2174142750283
30
0
41
1
10
-0.394976888875362
20
-21.4532059051397
30
0
41
1
10
-0.394976888875362
20
-21.7422733658898
30
0
41
1
10
-0.394976888875362
20
-22.0802205845281
30
0
41
1
10
-0.394976888875362
20
-22.409099176439
30
0
41
1
10
-0.394976888875362
20
-22.7288230573926
30
0
41
1
10
-0.394976888875362
20
-23.0393009260323
30
0
41
1
10
-0.394976888875362
20
-23.2902077752038
30
0
41
1
10
-0.394976888875362
20
-23.4862798879298
30
0
41
1
10
-0.394976888875391
20
-23.6791846798372
30
0
41
1
10
-0.394976888875391
20
-23.9142591539289
30
0
41
1
10
-0.394976888875391
20
-24.1867224862229
30
0
41
1
10
-0.394976888875391
20
-24.4055794195024
30
0
41
1
10
-0.394976888875391
20
-24.5757644956797
30
0
41
1
10
-0.394976888875391
20
-24.7426176867451
30
0
41
1
10
-0.394976888875391
20
-24.9448199449114
30
0
41
1
10
-0.394976888875391
20
-25.1385155622326
30
0
41
1
10
-0.394976888875391
20
-25.2883441368503
30
0
41
1
10
-0.394976888875391
20
-25.4346883615024
30
0
41
1
10
-0.394976888875391
20
-25.5756766141878
30
0
41
1
10
-0.394976888875391
20
-25.7113960827791
30
0
41
1
10
-0.394976888875391
20
-25.810462366076
30
0
41
1
10
-0.394976888875391
20
-25.9068022246068
30
0
41
1
10
-0.394976888875391
20
-26.0003919383211
30
0
41
1
10
-0.394976888875391
20
-26.0912052550724
30
0
41
1
10
-0.394976888875391
20
-26.1792140413985
30
0
41
1
10
-0.394976888875391
20
-26.2643925510642
30
0
41
1
10
-0.394976888875391
20
-26.3467113173234
30
0
41
1
10
-0.394976888875391
20
-26.4261397450501
30
0
41
1
10
-0.394976888875391
20
-26.5281744271217
30
0
41
1
10
-0.394976888875391
20
-26.6242375172272
30
0
41
1
10
-0.394976888875391
20
-26.7143277513072
30
0
41
1
10
-0.394976888875391
20
-26.778823083505
30
0
41
1
10
-0.394976888875391
20
-26.8402262140422
30
0
41
1
10
-0.394976888875391
20
-26.8984983240354
30
0
41
1
10
-0.394976888875391
20
-26.9535980812345
30
0
41
1
10
-0.394976888875391
20
-27.0054853002076
30
0
41
1
10
-0.394976888875391
20
-27.0541147524053
30
0
41
1
10
-0.394976888875391
20
-27.1145655815875
30
0
41
1
10
-0.394976888875391
20
-27.1817216133088
30
0
41
1
10
-0.394976888875391
20
-27.2373772549269
30
0
41
1
10
-0.394976888875391
20
-27.2747954442536
30
0
41
1
10
-0.394976888875391
20
-27.299228260346
30
0
41
1
10
-0.394976888875391
20
-27.3199753422425
30
0
41
1
10
-0.394976888875391
20
-27.3369711498757
30
0
41
1
10
-0.394976888875391
20
-27.3501458297252
30
0
41
1
10
-0.394976888875391
20
-27.3594269422325
30
0
41
1
10
-0.394976888875419
20
-27.3643961562244
30
0
41
1
10
-0.394976888875391
20
-27.3653892155695
30
0
41
1
10
-0.394976888875391
20
-27.3653849594815
30
0
0
SPLINE
5
160
100
AcDbEntity
8
SK1
62
256
6
ByLayer
370
18
48
1
60
0
100
AcDbSpline
70
4
71
2
72
6
73
3
40
0
40
0
40
0
40
1
40
1
40
1
41
1
10
-1.99503997793937
20
-27.3251858139979
30
0
41
1
10
-1.19500843340737
20
-27.3452852646244
30
0
41
1
10
-0.394976888875391
20
-27.3653847152514
30
0
0
SPLINE
5
161
100
AcDbEntity
8
SK1
62
256
6
ByLayer
370
18
48
1
60
0
100
AcDbSpline
70
4
71
2
72
6
73
3
40
0
40
0
40
0
40
1
40
1
40
1
41
1
10
-0.39497688887522
20
27.3653847121227
30
0
41
1
10
-1.1950084334072
20
27.3452852614966
30
0
41
1
10
-1.9950399779392
20
27.3251858108711
30
0
0
SPLINE
5
162
100
AcDbEntity
8
SK1
62
256
6
ByLayer
370
18
48
1
60
0
100
AcDbSpline
70
4
71
3
72
11
73
7
40
0
40
0
40
0
40
0
40
0.179448106066408
40
0.541776898757724
40
0.904105691449041
40
1
40
1
40
1
40
1
41
1
10
-0.39497688887522
20
27.1987923911124
30
0
41
1
10
-0.39497688887522
20
27.2053581271127
30
0
41
1
10
-0.39497688887522
20
27.2245496739058
30
0
41
1
10
-0.39497688887522
20
27.2534374285165
30
0
41
1
10
-0.394976888875192
20
27.2759520282529
30
0
41
1
10
-0.39497688887522
20
27.2872519708391
30
0
41
1
10
-0.394976888875249
20
27.2895613911121
30
0
0
SPLINE
5
163
100
AcDbEntity
8
SK1
62
256
6
ByLayer
370
18
48
1
60
0
100
AcDbSpline
70
4
71
3
72
110
73
106
40
0
40
0
40
0
40
0
40
0.0064701769161616
40
0.014429319434003
40
0.0223884619518444
40
0.0303476044696858
40
0.0383067469875272
40
0.0462658895053686
40
0.0542250320232101
40
0.0621841745410514
40
0.0781024595767343
40
0.0940207446124171
40
0.101979887130259
40
0.1099390296481
40
0.117898172165941
40
0.125857314683783
40
0.133816457201624
40
0.141775599719466
40
0.149734742237307
40
0.157693884755148
40
0.173612169790831
40
0.181571312308673
40
0.189530454826514
40
0.197489597344356
40
0.205448739862197
40
0.213407882380038
40
0.22136702489788
40
0.229326167415721
40
0.237285309933563
40
0.245244452451404
40
0.253203594969245
40
0.261162737487087
40
0.265142308746008
40
0.269121880004928
40
0.27708102252277
40
0.285040165040611
40
0.300958450076294
40
0.316876735111977
40
0.324835877629818
40
0.332795020147659
40
0.348713305183342
40
0.364631590219025
40
0.380549875254708
40
0.388509017772549
40
0.396468160290391
40
0.412386445326074
40
0.428304730361756
40
0.444223015397439
40
0.460141300433122
40
0.476059585468805
40
0.491977870504488
40
0.499937013022329
40
0.507896155540171
40
0.523814440575854
40
0.539732725611536
40
0.555651010647219
40
0.563610153165061
40
0.571569295682902
40
0.587487580718585
40
0.603405865754268
40
0.611365008272109
40
0.61932415078995
40
0.635242435825633
40
0.651160720861316
40
0.659119863379158
40
0.667079005896999
40
0.682997290932682
40
0.690956433450523
40
0.698915575968365
40
0.702895147227285
40
0.706874718486206
40
0.714833861004048
40
0.722793003521889
40
0.73075214603973
40
0.738711288557572
40
0.746670431075413
40
0.754629573593255
40
0.762588716111096
40
0.770547858628937
40
0.778507001146779
40
0.794425286182462
40
0.802384428700303
40
0.810343571218144
40
0.818302713735986
40
0.826261856253827
40
0.834220998771669
40
0.84218014128951
40
0.858098426325193
40
0.874016711360876
40
0.881975853878717
40
0.889934996396559
40
0.8978941389144
40
0.905853281432242
40
0.913812423950083
40
0.921771566467924
40
0.929730708985766
40
0.937689851503607
40
0.945648994021449
40
0.95360813653929
40
0.961567279057131
40
0.969526421574973
40
0.977485564092814
40
0.985444706610656
40
0.993403849128497
40
1
40
1
40
1
40
1
41
1
10
-0.39497688887522
20
27.365384808739
30
0
41
1
10
-0.39497688887522
20
27.3653951845121
30
0
41
1
10
-0.394976888875192
20
27.3644058248098
30
0
41
1
10
-0.39497688887522
20
27.3594269183726
30
0
41
1
10
-0.39497688887522
20
27.3501457877119
30
0
41
1
10
-0.39497688887522
20
27.3369711539198
30
0
41
1
10
-0.39497688887522
20
27.3199753370632
30
0
41
1
10
-0.39497688887522
20
27.2992282088758
30
0
41
1
10
-0.39497688887522
20
27.2747954073901
30
0
41
1
10
-0.39497688887522
20
27.2373773347495
30
0
41
1
10
-0.39497688887522
20
27.1817216262675
30
0
41
1
10
-0.39497688887522
20
27.1145655761239
30
0
41
1
10
-0.39497688887522
20
27.0541148220589
30
0
41
1
10
-0.39497688887522
20
27.0054853645575
30
0
41
1
10
-0.39497688887522
20
26.9535981308651
30
0
41
1
10
-0.39497688887522
20
26.8984983126749
30
0
41
1
10
-0.39497688887522
20
26.8402262313527
30
0
41
1
10
-0.39497688887522
20
26.778823110901
30
0
41
1
10
-0.39497688887522
20
26.7143277379811
30
0
41
1
10
-0.39497688887522
20
26.6242375656596
30
0
41
1
10
-0.39497688887522
20
26.5281744083644
30
0
41
1
10
-0.39497688887522
20
26.4261397788477
30
0
41
1
10
-0.39497688887522
20
26.3467113117502
30
0
41
1
10
-0.39497688887522
20
26.2643925590693
30
0
41
1
10
-0.39497688887522
20
26.1792140698964
30
0
41
1
10
-0.39497688887522
20
26.091205247313
30
0
41
1
10
-0.39497688887522
20
26.0003919407075
30
0
41
1
10
-0.39497688887522
20
25.90680231755
30
0
41
1
10
-0.39497688887522
20
25.810462475175
30
0
41
1
10
-0.39497688887522
20
25.7113956543375
30
0
41
1
10
-0.39497688887522
20
25.609627837172
30
0
41
1
10
-0.39497688887522
20
25.5226042889744
30
0
41
1
10
-0.39497688887522
20
25.4516306650615
30
0
41
1
10
-0.39497688887522
20
25.3797753879955
30
0
41
1
10
-0.39497688887522
20
25.2883442684716
30
0
41
1
10
-0.39497688887522
20
25.1385155212165
30
0
41
1
10
-0.39497688887522
20
24.9448199373791
30
0
41
1
10
-0.39497688887522
20
24.7426176812546
30
0
41
1
10
-0.39497688887522
20
24.5757644878036
30
0
41
1
10
-0.39497688887522
20
24.4055794218944
30
0
41
1
10
-0.39497688887522
20
24.1867224773567
30
0
41
1
10
-0.39497688887522
20
23.9142591485119
30
0
41
1
10
-0.39497688887522
20
23.6791846777825
30
0
41
1
10
-0.394976888875249
20
23.4862798848862
30
0
41
1
10
-0.394976888875249
20
23.2902077684041
30
0
41
1
10
-0.394976888875249
20
23.0393009244131
30
0
41
1
10
-0.394976888875249
20
22.728823054511
30
0
41
1
10
-0.394976888875249
20
22.4090991723375
30
0
41
1
10
-0.394976888875249
20
22.0802205832225
30
0
41
1
10
-0.394976888875249
20
21.7422733615616
30
0
41
1
10
-0.394976888875249
20
21.453205904272
30
0
41
1
10
-0.394976888875249
20
21.2174142726431
30
0
41
1
10
-0.394976888875249
20
20.9786637899232
30
0
41
1
10
-0.394976888875249
20
20.6748062117951
30
0
41
1
10
-0.394976888875249
20
20.3013474418474
30
0
41
1
10
-0.394976888875249
20
19.982923509294
30
0
41
1
10
-0.394976888875249
20
19.7237678579096
30
0
41
1
10
-0.394976888875249
20
19.4617376778078
30
0
41
1
10
-0.394976888875249
20
19.1289452116702
30
0
41
1
10
-0.394976888875249
20
18.789032857947
30
0
41
1
10
-0.394976888875249
20
18.5127557060901
30
0
41
1
10
-0.394976888875249
20
18.2336536051105
30
0
41
1
10
-0.394976888875249
20
17.8796208110747
30
0
41
1
10
-0.394976888875249
20
17.5185779629222
30
0
41
1
10
-0.394976888875249
20
17.2254485445637
30
0
41
1
10
-0.394976888875249
20
16.9295332745893
30
0
41
1
10
-0.394976888875249
20
16.6296334809576
30
0
41
1
10
-0.394976888875249
20
16.3253883940748
30
0
41
1
10
-0.394976888875249
20
16.1335794000815
30
0
41
1
10
-0.394976888875249
20
15.9790378411121
30
0
41
1
10
-0.394976888875249
20
15.8238065102557
30
0
41
1
10
-0.394976888875249
20
15.6285504084944
30
0
41
1
10
-0.394976888875249
20
15.3921387609621
30
0
41
1
10
-0.394976888875249
20
15.1536644316209
30
0
41
1
10
-0.394976888875249
20
14.9131307556186
30
0
41
1
10
-0.394976888875249
20
14.6705410876498
30
0
41
1
10
-0.394976888875249
20
14.4258961509421
30
0
41
1
10
-0.394976888875249
20
14.1791991341328
30
0
41
1
10
-0.394976888875277
20
13.9304519502905
30
0
41
1
10
-0.394976888875277
20
13.595980784257
30
0
41
1
10
-0.394976888875277
20
13.2576504503011
30
0
41
1
10
-0.394976888875277
20
12.9149897871743
30
0
41
1
10
-0.394976888875277
20
12.656013614478
30
0
41
1
10
-0.394976888875277
20
12.3949946525974
30
0
41
1
10
-0.394976888875277
20
12.1319348240102
30
0
41
1
10
-0.394976888875277
20
11.8668345044804
30
0
41
1
10
-0.394976888875277
20
11.51055947116
30
0
41
1
10
-0.394976888875277
20
11.0603255640274
30
0
41
1
10
-0.394976888875277
20
10.6032942253079
30
0
41
1
10
-0.394976888875277
20
10.2334171055167
30
0
41
1
10
-0.394976888875277
20
9.95404991412451
30
0
41
1
10
-0.394976888875277
20
9.67264656600767
30
0
41
1
10
-0.394976888875277
20
9.3892080699232
30
0
41
1
10
-0.394976888875277
20
9.10373490192168
30
0
41
1
10
-0.394976888875277
20
8.81622850233529
30
0
41
1
10
-0.394976888875277
20
8.52669000819793
30
0
41
1
10
-0.394976888875277
20
8.23512137696338
30
0
41
1
10
-0.394976888875277
20
7.94152469111089
30
0
41
1
10
-0.394976888875277
20
7.64590290818538
30
0
41
1
10
-0.394976888875277
20
7.34825961897883
30
0
41
1
10
-0.394976888875277
20
7.04859942112893
30
0
41
1
10
-0.394976888875277
20
6.74692777135016
30
0
41
1
10
-0.394976888875277
20
6.44325210311729
30
0
41
1
10
-0.394976888875277
20
6.15502928738746
30
0
41
1
10
-0.394976888875277
20
5.96764092579403
30
0
41
1
10
-0.394976888875277
20
5.88246916452653
30
0
0
SPLINE
5
164
100
AcDbEntity
8
SK1
62
256
6
ByLayer
370
18
48
1
60
0
100
AcDbSpline
70
4
71
3
72
301
73
297
40
0
40
0
40
0
40
0
40
0.0032423664226543
40
0.0067162051733576
40
0.0101900439240609
40
0.0136638826747642
40
0.0171377214254675
40
0.0206115601761707
40
0.024085398926874
40
0.0275592376775773
40
0.0345069151789838
40
0.0414545926803904
40
0.0449284314310937
40
0.0484022701817969
40
0.0518761089325002
40
0.0553499476832035
40
0.0588237864339068
40
0.06229762518461
40
0.0657714639353133
40
0.0692453026860166
40
0.0761929801874231
40
0.0796668189381264
40
0.0831406576888296
40
0.086614496439533
40
0.0900883351902363
40
0.0935621739409395
40
0.0970360126916429
40
0.100509851442346
40
0.103983690193049
40
0.107457528943753
40
0.110931367694456
40
0.114405206445159
40
0.116142125820511
40
0.117879045195862
40
0.121352883946566
40
0.124826722697269
40
0.131774400198676
40
0.138722077700082
40
0.142195916450785
40
0.145669755201489
40
0.152617432702895
40
0.159565110204302
40
0.166512787705708
40
0.169986626456411
40
0.173460465207115
40
0.180408142708521
40
0.187355820209928
40
0.194303497711335
40
0.201251175212741
40
0.208198852714148
40
0.215146530215554
40
0.218620368966257
40
0.222094207716961
40
0.229041885218367
40
0.235989562719774
40
0.24293724022118
40
0.246411078971884
40
0.249884917722587
40
0.256832595223993
40
0.2637802727254
40
0.267254111476103
40
0.270727950226807
40
0.277675627728213
40
0.28462330522962
40
0.288097143980323
40
0.291570982731026
40
0.298518660232433
40
0.301992498983136
40
0.305466337733839
40
0.307203257109191
40
0.308940176484542
40
0.312414015235246
40
0.315887853985949
40
0.319361692736652
40
0.322835531487356
40
0.326309370238059
40
0.329783208988762
40
0.333257047739465
40
0.336730886490169
40
0.340204725240872
40
0.347152402742279
40
0.350626241492982
40
0.354100080243685
40
0.357573918994388
40
0.361047757745092
40
0.364521596495795
40
0.367995435246498
40
0.374943112747905
40
0.381890790249311
40
0.385364629000015
40
0.388838467750718
40
0.392312306501421
40
0.395786145252124
40
0.399259984002828
40
0.402733822753531
40
0.406207661504234
40
0.409681500254937
40
0.413155339005641
40
0.416629177756344
40
0.420103016507047
40
0.423576855257751
40
0.427050694008454
40
0.430524532759157
40
0.43399837150986
40
0.437472210260564
40
0.439209129635915
40
0.440946049011267
40
0.44441988776197
40
0.447893726512674
40
0.449630645888025
40
0.451367565263377
40
0.45484140401408
40
0.456578323389432
40
0.458315242764783
40
0.459183702452459
40
0.460052162140135
40
0.461789081515487
40
0.463526000890838
40
0.46526292026619
40
0.466999839641542
40
0.468736759016893
40
0.470473678392245
40
0.471342138079921
40
0.472210597767597
40
0.473079057455272
40
0.473947517142948
40
0.474815976830624
40
0.4756844365183
40
0.477421355893651
40
0.478289815581327
40
0.479158275269003
40
0.480895194644355
40
0.48176365433203
40
0.482632114019706
40
0.484369033395058
40
0.485237493082734
40
0.48610595277041
40
0.487842872145761
40
0.489579791521113
40
0.491316710896464
40
0.49218517058414
40
0.493053630271816
40
0.493922089959492
40
0.494790549647168
40
0.495659009334844
40
0.496527469022519
40
0.497395928710195
40
0.498264388397871
40
0.499132848085547
40
0.500001307773223
40
0.500869767460898
40
0.501738227148574
40
0.50260668683625
40
0.503475146523926
40
0.504343606211602
40
0.505212065899278
40
0.506080525586953
40
0.506948985274629
40
0.507817444962305
40
0.508685904649981
40
0.510422824025333
40
0.512159743400684
40
0.513896662776036
40
0.514765122463712
40
0.515633582151388
40
0.517370501526739
40
0.518238961214415
40
0.519107420902091
40
0.520844340277442
40
0.521712799965118
40
0.522581259652794
40
0.524318179028146
40
0.525186638715822
40
0.526055098403497
40
0.526923558091173
40
0.527792017778849
40
0.528660477466525
40
0.529528937154201
40
0.531265856529552
40
0.533002775904904
40
0.534739695280255
40
0.536476614655607
40
0.538213534030959
40
0.53995045340631
40
0.540818913093986
40
0.541687372781662
40
0.543424292157014
40
0.545161211532365
40
0.548635050283069
40
0.55037196965842
40
0.552108889033772
40
0.555582727784475
40
0.559056566535178
40
0.56079348591053
40
0.562530405285882
40
0.566004244036585
40
0.569478082787288
40
0.572951921537991
40
0.576425760288695
40
0.579899599039398
40
0.583373437790101
40
0.586847276540805
40
0.590321115291508
40
0.593794954042211
40
0.597268792792914
40
0.600742631543618
40
0.604216470294321
40
0.607690309045024
40
0.611164147795727
40
0.614637986546431
40
0.618111825297134
40
0.621585664047837
40
0.625059502798541
40
0.632007180299947
40
0.63548101905065
40
0.638954857801354
40
0.642428696552057
40
0.64590253530276
40
0.649376374053463
40
0.652850212804167
40
0.659797890305573
40
0.663271729056277
40
0.66674556780698
40
0.670219406557683
40
0.673693245308386
40
0.67716708405909
40
0.680640922809793
40
0.684114761560496
40
0.6875886003112
40
0.691062439061903
40
0.694536277812606
40
0.698010116563309
40
0.701483955314013
40
0.708431632815419
40
0.711905471566122
40
0.715379310316826
40
0.722326987818232
40
0.729274665319639
40
0.732748504070342
40
0.736222342821045
40
0.743170020322452
40
0.750117697823859
40
0.753591536574562
40
0.757065375325265
40
0.764013052826672
40
0.770960730328078
40
0.777908407829485
40
0.781382246580188
40
0.784856085330891
40
0.791803762832298
40
0.798751440333704
40
0.805699117835111
40
0.812646795336517
40
0.819594472837924
40
0.826542150339331
40
0.830015989090034
40
0.833489827840737
40
0.840437505342144
40
0.84738518284355
40
0.854332860344957
40
0.85780669909566
40
0.861280537846363
40
0.86822821534777
40
0.875175892849176
40
0.87864973159988
40
0.882123570350583
40
0.88907124785199
40
0.892545086602693
40
0.896018925353396
40
0.899492764104099
40
0.902966602854802
40
0.906440441605506
40
0.909914280356209
40
0.913388119106912
40
0.916861957857616
40
0.920335796608319
40
0.923809635359022
40
0.930757312860429
40
0.934231151611132
40
0.937704990361835
40
0.941178829112539
40
0.944652667863242
40
0.948126506613945
40
0.951600345364648
40
0.955074184115352
40
0.958548022866055
40
0.965495700367462
40
0.972443377868868
40
0.975917216619571
40
0.979391055370274
40
0.982864894120978
40
0.986338732871681
40
0.989812571622384
40
0.993286410373088
40
0.996760249123791
40
1
40
1
40
1
40
1
41
1
10
-47.9999999999999
20
25.5410832906419
30
0
41
1
10
-48
20
25.5412382575916
30
0
41
1
10
-47.9999999999999
20
25.5403997353304
30
0
41
1
10
-47.9999999999999
20
25.5355444657105
30
0
41
1
10
-47.9999999999999
20
25.5268535273442
30
0
41
1
10
-47.9999999999999
20
25.5145008149316
30
0
41
1
10
-47.9999999999999
20
25.4985460524281
30
0
41
1
10
-47.9999999999999
20
25.4790475285133
30
0
41
1
10
-47.9999999999999
20
25.4560605539618
30
0
41
1
10
-47.9999999999999
20
25.4206809385046
30
0
41
1
10
-47.9999999999999
20
25.3683435244348
30
0
41
1
10
-47.9999999999999
20
25.305093598347
30
0
41
1
10
-47.9999999999999
20
25.2477155824514
30
0
41
1
10
-47.9999999999999
20
25.2016868330387
30
0
41
1
10
-47.9999999999999
20
25.1525402278471
30
0
41
1
10
-47.9999999999999
20
25.1003164469938
30
0
41
1
10
-47.9999999999999
20
25.0450517289098
30
0
41
1
10
-47.9999999999999
20
24.9867824066376
30
0
41
1
10
-47.9999999999999
20
24.9255447176866
30
0
41
1
10
-47.9999999999999
20
24.8396717395252
30
0
41
1
10
-47.9999999999999
20
24.7489365887335
30
0
41
1
10
-47.9999999999999
20
24.65155441809
30
0
41
1
10
-47.9999999999999
20
24.5759533043404
30
0
41
1
10
-47.9999999999999
20
24.4975687629491
30
0
41
1
10
-47.9999999999999
20
24.4164276140702
30
0
41
1
10
-47.9999999999999
20
24.3325592473396
30
0
41
1
10
-47.9999999999999
20
24.2459871695688
30
0
41
1
10
-47.9999999999999
20
24.1567364141526
30
0
41
1
10
-47.9999999999999
20
24.0648340874223
30
0
41
1
10
-47.9999999999999
20
23.9703007183103
30
0
41
1
10
-47.9999999999999
20
23.8731600668769
30
0
41
1
10
-47.9999999999999
20
23.790270305081
30
0
41
1
10
-47.9999999999999
20
23.7222924438484
30
0
41
1
10
-47.9999999999999
20
23.6534589550132
30
0
41
1
10
-47.9999999999999
20
23.566319312755
30
0
41
1
10
-47.9999999999999
20
23.4227344317566
30
0
41
1
10
-47.9999999999999
20
23.2380159335197
30
0
41
1
10
-47.9999999999999
20
23.0451147378602
30
0
41
1
10
-47.9999999999999
20
22.8850691532135
30
0
41
1
10
-47.9999999999999
20
22.7217969969804
30
0
41
1
10
-47.9999999999999
20
22.5128489113237
30
0
41
1
10
-47.9999999999999
20
22.2520665958365
30
0
41
1
10
-47.9999999999999
20
22.027524840085
30
0
41
1
10
-47.9999999999999
20
21.8423074664779
30
0
41
1
10
-47.9999999999999
20
21.6540306628313
30
0
41
1
10
-47.9999999999999
20
21.4142718291049
30
0
41
1
10
-47.9999999999999
20
21.1168973606636
30
0
41
1
10
-47.9999999999999
20
20.810641972368
30
0
41
1
10
-47.9999999999999
20
20.4956027387564
30
0
41
1
10
-47.9999999999999
20
20.1718725887446
30
0
41
1
10
-47.9999999999999
20
19.8955820016261
30
0
41
1
10
-47.9999999999999
20
19.6691006662324
30
0
41
1
10
-47.9999999999999
20
19.4397871520625
30
0
41
1
10
-47.9999999999999
20
19.1494103682021
30
0
41
1
10
-47.9999999999999
20
18.7917723606455
30
0
41
1
10
-47.9999999999999
20
18.4875640285876
30
0
41
1
10
-47.9999999999999
20
18.2387699032323
30
0
41
1
10
-47.9999999999999
20
17.9872478599779
30
0
41
1
10
-47.9999999999999
20
17.6694739204116
30
0
41
1
10
-47.9999999999999
20
17.3449849911695
30
0
41
1
10
-47.9999999999999
20
17.079957315919
30
0
41
1
10
-47.9999999999999
20
16.8122724002145
30
0
41
1
10
-47.9999999999999
20
16.4745711156788
30
0
41
1
10
-47.9999999999999
20
16.1303137979016
30
0
41
1
10
-47.9999999999999
20
15.8494407221552
30
0
41
1
10
-47.9999999999999
20
15.5659773316765
30
0
41
1
10
-47.9999999999999
20
15.2813516937417
30
0
41
1
10
-47.9999999999999
20
14.9901200233616
30
0
41
1
10
-47.9999999999999
20
14.807564424393
30
0
41
1
10
-47.9999999999999
20
14.6597110063682
30
0
41
1
10
-47.9999999999999
20
14.5112241351639
30
0
41
1
10
-47.9999999999999
20
14.3255230325431
30
0
41
1
10
-48
20
14.1002060627811
30
0
41
1
10
-48
20
13.8730097919852
30
0
41
1
10
-48
20
13.6439374060175
30
0
41
1
10
-48
20
13.4130051173937
30
0
41
1
10
-48
20
13.1802175345842
30
0
41
1
10
-48
20
12.945581770523
30
0
41
1
10
-48
20
12.7091124446064
30
0
41
1
10
-48
20
12.3902773743986
30
0
41
1
10
-48
20
12.0712141126494
30
0
41
1
10
-48
20
11.745047130831
30
0
41
1
10
-48
20
11.4995374295112
30
0
41
1
10
-48
20
11.2522509655357
30
0
41
1
10
-48
20
11.0031990533663
30
0
41
1
10
-48
20
10.7523971889998
30
0
41
1
10
-48
20
10.4143930662712
30
0
41
1
10
-48
20
9.9905943797344
30
0
41
1
10
-48
20
9.56108850247739
30
0
41
1
10
-48
20
9.21157829691126
30
0
41
1
10
-48
20
8.94892889623665
30
0
41
1
10
-48
20
8.68465969448152
30
0
41
1
10
-48
20
8.4187948937647
30
0
41
1
10
-48
20
8.15135843047165
30
0
41
1
10
-48
20
7.88237762223346
30
0
41
1
10
-48
20
7.61188258574555
30
0
41
1
10
-48
20
7.33990573648239
30
0
41
1
10
-48
20
7.06648317582815
30
0
41
1
10
-48
20
6.79165403169546
30
0
41
1
10
-48
20
6.51546273390844
30
0
41
1
10
-48
20
6.2379584489131
30
0
41
1
10
-48
20
5.95919386675266
30
0
41
1
10
-48
20
5.6792312403997
30
0
41
1
10
-48
20
5.39813608998202
30
0
41
1
10
-48
20
5.1640994259067
30
0
41
1
10
-48
20
4.97430334712476
30
0
41
1
10
-48
20
4.78423355976435
30
0
41
1
10
-48
20
4.54886462907339
30
0
41
1
10
-48
20
4.31277534686888
30
0
41
1
10
-48
20
4.12122851639992
30
0
41
1
10
-48
20
3.92953181194173
30
0
41
1
10
-48
20
3.74171250564365
30
0
41
1
10
-48
20
3.54939053469471
30
0
41
1
10
-48
20
3.43078723702701
30
0
41
1
10
-48
20
3.33452834177115
30
0
41
1
10
-48
20
3.23827071234697
30
0
41
1
10
-48
20
3.11968323888198
30
0
41
1
10
-48
20
2.97639725762434
30
0
41
1
10
-48
20
2.8331296628071
30
0
41
1
10
-48
20
2.68989995735723
30
0
41
1
10
-48
20
2.54673093615295
30
0
41
1
10
-48
20
2.42835340498948
30
0
41
1
10
-48
20
2.3321048396175
30
0
41
1
10
-48
20
2.26063536694397
30
0
41
1
10
-48
20
2.18920496049086
30
0
41
1
10
-48
20
2.1178139676677
30
0
41
1
10
-48
20
2.04645318736377
30
0
41
1
10
-48
20
1.95042373572585
30
0
41
1
10
-48
20
1.85738517673602
30
0
41
1
10
-48
20
1.76148268994569
30
0
41
1
10
-48
20
1.66566845968225
30
0
41
1
10
-48
20
1.57300568038067
30
0
41
1
10
-48
20
1.47735113591239
30
0
41
1
10
-48
20
1.38179732051387
30
0
41
1
10
-48
20
1.28954369165828
30
0
41
1
10
-48
20
1.19416572492503
30
0
41
1
10
-48
20
1.09890005736787
30
0
41
1
10
-48
20
0.982452212115533
30
0
41
1
10
-48
20
0.841586183466404
30
0
41
1
10
-48
20
0.725505983440513
30
0
41
1
10
-48
20
0.630667457966211
30
0
41
1
10
-48
20
0.560480352627707
30
0
41
1
10
-48
20
0.49032094714471
30
0
41
1
10
-48
20
0.420191796768591
30
0
41
1
10
-48
20
0.350113667187969
30
0
41
1
10
-48
20
0.280062256420251
30
0
41
1
10
-48
20
0.210017157782659
30
0
41
1
10
-48
20
0.139999797922144
30
0
41
1
10
-48
20
0.0700069276309421
30
0
41
1
10
-48
20
4.76036917E-08
30
0
41
1
10
-48
20
-0.0700068522657489
30
0
41
1
10
-48
20
-0.139999771278212
30
0
41
1
10
-48
20
-0.210017192178725
30
0
41
1
10
-48
20
-0.280062327764284
30
0
41
1
10
-48
20
-0.350113717602596
30
0
41
1
10
-48
20
-0.420191773132842
30
0
41
1
10
-48
20
-0.490320831948594
30
0
41
1
10
-48
20
-0.560480204117141
30
0
41
1
10
-48
20
-0.630667364061509
30
0
41
1
10
-48
20
-0.725506055183843
30
0
41
1
10
-48
20
-0.841586301072766
30
0
41
1
10
-48
20
-0.982452087600592
30
0
41
1
10
-48
20
-1.09889985434626
30
0
41
1
10
-48
20
-1.19416572065748
30
0
41
1
10
-48
20
-1.28954388060504
30
0
41
1
10
-48
20
-1.38179747741981
30
0
41
1
10
-48
20
-1.47735105462391
30
0
41
1
10
-48
20
-1.57300541448578
30
0
41
1
10
-48
20
-1.6656682660826
30
0
41
1
10
-48
20
-1.76148275667006
30
0
41
1
10
-48
20
-1.85738542747029
30
0
41
1
10
-48
20
-1.95042391104255
30
0
41
1
10
-48
20
-2.04645309751408
30
0
41
1
10
-48
20
-2.11781369871994
30
0
41
1
10
-48
20
-2.18920465457316
30
0
41
1
10
-48
20
-2.26063516689558
30
0
41
1
10
-48
20
-2.33210483720967
30
0
41
1
10
-48
20
-2.42835363712948
30
0
41
1
10
-48
20
-2.54673116818731
30
0
41
1
10
-48
20
-2.68989982354503
30
0
41
1
10
-48
20
-2.83312933609346
30
0
41
1
10
-48
20
-2.97639722386955
30
0
41
1
10
-48
20
-3.11968351915559
30
0
41
1
10
-48
20
-3.23827092858144
30
0
41
1
10
-48
20
-3.33452833265778
30
0
41
1
10
-48
20
-3.43078700052152
30
0
41
1
10
-48
20
-3.54939021067551
30
0
41
1
10
-48
20
-3.74171256557332
30
0
41
1
10
-48
20
-3.92953209444389
30
0
41
1
10
-48
20
-4.12122845571977
30
0
41
1
10
-48
20
-4.31277503954925
30
0
41
1
10
-48
20
-4.54886466434399
30
0
41
1
10
-48
20
-4.78423382727109
30
0
41
1
10
-48
20
-4.97430327353644
30
0
41
1
10
-48
20
-5.16409912297928
30
0
41
1
10
-48
20
-5.39813607390252
30
0
41
1
10
-48
20
-5.67923146024069
30
0
41
1
10
-48
20
-5.95919374753959
30
0
41
1
10
-48
20
-6.23795855201783
30
0
41
1
10
-48
20
-6.51546317325861
30
0
41
1
10
-48
20
-6.79165340259803
30
0
41
1
10
-48
20
-7.06648207689187
30
0
41
1
10
-48
20
-7.3399064304829
30
0
41
1
10
-48
20
-7.61188395990172
30
0
41
1
10
-48
20
-7.88237631719005
30
0
41
1
10
-48
20
-8.15135709229639
30
0
41
1
10
-48
20
-8.41879605362189
30
0
41
1
10
-48
20
-8.68466042952284
30
0
41
1
10
-48
20
-8.94892880419624
30
0
41
1
10
-48
20
-9.21157805391886
30
0
41
1
10
-48
20
-9.47258829745525
30
0
41
1
10
-48
20
-9.73193781693971
30
0
41
1
10
-48
20
-10.0769274508057
30
0
41
1
10
-48
20
-10.4143928628128
30
0
41
1
10
-48
20
-10.752397080912
30
0
41
1
10
-48
20
-11.0031992619303
30
0
41
1
10
-48
20
-11.2522511703229
30
0
41
1
10
-48
20
-11.4995374559564
30
0
41
1
10
-48
20
-11.7450470242587
30
0
41
1
10
-48
20
-12.0712140924268
30
0
41
1
10
-48
20
-12.3902774266107
30
0
41
1
10
-48
20
-12.7091123929264
30
0
41
1
10
-48
20
-12.9455818593714
30
0
41
1
10
-48
20
-13.1802175020719
30
0
41
1
10
-48
20
-13.4130051102496
30
0
41
1
10
-48
20
-13.6439372705322
30
0
41
1
10
-48
20
-13.8730093523107
30
0
41
1
10
-48
20
-14.1002065298016
30
0
41
1
10
-48.0000000000001
20
-14.3255243550818
30
0
41
1
10
-48.0000000000001
20
-14.5489565829081
30
0
41
1
10
-48.0000000000001
20
-14.7704892347368
30
0
41
1
10
-48.0000000000001
20
-14.9901189866893
30
0
41
1
10
-48.0000000000001
20
-15.2813524796289
30
0
41
1
10
-48.0000000000001
20
-15.5659774253291
30
0
41
1
10
-48.0000000000001
20
-15.8494406493608
30
0
41
1
10
-48.0000000000001
20
-16.1303138068002
30
0
41
1
10
-48.0000000000001
20
-16.4745711051769
30
0
41
1
10
-48.0000000000001
20
-16.8122723965625
30
0
41
1
10
-48.0000000000001
20
-17.0799573317745
30
0
41
1
10
-48.0000000000001
20
-17.3449849938591
30
0
41
1
10
-48.0000000000001
20
-17.6694739164693
30
0
41
1
10
-48.0000000000001
20
-17.9872478593114
30
0
41
1
10
-48.0000000000001
20
-18.2387699128342
30
0
41
1
10
-48.0000000000001
20
-18.4875640333769
30
0
41
1
10
-48.0000000000001
20
-18.7917723547729
30
0
41
1
10
-48.0000000000001
20
-19.1494103733364
30
0
41
1
10
-48.0000000000001
20
-19.4397871566122
30
0
41
1
10
-48.0000000000001
20
-19.6691006657478
30
0
41
1
10
-48.0000000000001
20
-19.8955820037258
30
0
41
1
10
-48.0000000000001
20
-20.1718725940102
30
0
41
1
10
-48.0000000000001
20
-20.4956027399133
30
0
41
1
10
-48.0000000000001
20
-20.8106419777061
30
0
41
1
10
-48.0000000000001
20
-21.1168973616586
30
0
41
1
10
-48.0000000000001
20
-21.4142718340935
30
0
41
1
10
-48.0000000000001
20
-21.6540306704862
30
0
41
1
10
-48.0000000000001
20
-21.8423074648876
30
0
41
1
10
-48.0000000000001
20
-22.0275248431939
30
0
41
1
10
-48.0000000000001
20
-22.2520666060927
30
0
41
1
10
-48.0000000000001
20
-22.5128489142548
30
0
41
1
10
-48.0000000000001
20
-22.7217969951792
30
0
41
1
10
-48.0000000000001
20
-22.8850691676054
30
0
41
1
10
-48.0000000000001
20
-23.0451147420463
30
0
41
1
10
-48.0000000000001
20
-23.2380159650747
30
0
41
1
10
-48.0000000000001
20
-23.42273435776
30
0
41
1
10
-48.0000000000001
20
-23.5663194293499
30
0
41
1
10
-48.0000000000001
20
-23.7065276517658
30
0
41
1
10
-48.0000000000001
20
-23.8403627529257
30
0
41
1
10
-48.0000000000001
20
-23.970300944616
30
0
41
1
10
-48.0000000000001
20
-24.0648335402231
30
0
41
1
10
-48.0000000000001
20
-24.1567363770151
30
0
41
1
10
-48.0000000000001
20
-24.2459872479918
30
0
41
1
10
-48.0000000000001
20
-24.3325592401688
30
0
41
1
10
-48.0000000000001
20
-24.4164275727651
30
0
41
1
10
-48.0000000000001
20
-24.4975687788097
30
0
41
1
10
-48.0000000000001
20
-24.575953293146
30
0
41
1
10
-48.0000000000001
20
-24.6515543847241
30
0
41
1
10
-48.0000000000001
20
-24.748936599249
30
0
41
1
10
-48.0000000000001
20
-24.8396716901455
30
0
41
1
10
-48.0000000000001
20
-24.9255447336428
30
0
41
1
10
-48.0000000000001
20
-24.9867823634065
30
0
41
1
10
-48.0000000000001
20
-25.045051730776
30
0
41
1
10
-48.0000000000001
20
-25.1003164440548
30
0
41
1
10
-48.0000000000001
20
-25.1525401455546
30
0
41
1
10
-48.0000000000001
20
-25.2016867590412
30
0
41
1
10
-48.0000000000001
20
-25.2477155324424
30
0
41
1
10
-48.0000000000001
20
-25.3050936187464
30
0
41
1
10
-48.0000000000001
20
-25.3683434953548
30
0
41
1
10
-48.0000000000001
20
-25.4206808727752
30
0
41
1
10
-48.0000000000001
20
-25.4560606117693
30
0
41
1
10
-48.0000000000001
20
-25.4790475736709
30
0
41
1
10
-48.0000000000001
20
-25.4985460495787
30
0
41
1
10
-48.0000000000001
20
-25.5145008161445
30
0
41
1
10
-48.0000000000001
20
-25.5268535709614
30
0
41
1
10
-48.0000000000001
20
-25.535544482535
30
0
41
1
10
-48.0000000000001
20
-25.5403984333266
30
0
41
1
10
-48.0000000000001
20
-25.5412375893757
30
0
41
1
10
-48.0000000000001
20
-25.5410836793287
30
0
0
SPLINE
5
165
100
AcDbEntity
8
SK1
62
256
6
ByLayer
370
18
48
1
60
0
100
AcDbSpline
70
4
71
2
72
6
73
3
40
0
40
0
40
0
40
1
40
1
40
1
41
1
10
-48.0000000000001
20
-25.5410840926422
30
0
41
1
10
-47.2499999994059
20
-25.9740938984542
30
0
41
1
10
-46.5000000000001
20
-26.4071037202259
30
0
0
SPLINE
5
166
100
AcDbEntity
8
SK1
62
256
6
ByLayer
370
18
48
1
60
0
100
AcDbSpline
70
4
71
2
72
6
73
3
40
0
40
0
40
0
40
1
40
1
40
1
41
1
10
-46.4999999999999
20
26.4071037337153
30
0
41
1
10
-47.249999999406
20
25.9740939119355
30
0
41
1
10
-47.9999999999999
20
25.5410841061087
30
0
0
INSERT
5
179
100
AcDbEntity
8
SK2
62
256
6
ByLayer
370
25
48
1
60
0
100
AcDbBlockReference
2
DimnDraft3D11
10
0
20
0
30
0
41
1
42
1
43
1
50
0
210
0
220
0
230
1
0
INSERT
5
187
100
AcDbEntity
8
SK2
62
256
6
ByLayer
370
25
48
1
60
0
100
AcDbBlockReference
2
DimnDraft3D22
10
0
20
0
30
0
41
1
42
1
43
1
50
0
210
0
220
0
230
1
0
LINE
5
70
100
AcDbEntity
8
1
62
256
6
ByLayer
370
18
48
1
60
0
100
AcDbLine
10
13.461325
20
38.115458
30
0
11
10.538675
21
38.115458
31
0
39
0
210
0
220
0
230
1
0
LINE
5
72
100
AcDbEntity
8
1
62
256
6
ByLayer
370
18
48
1
60
0
100
AcDbLine
10
105.5
20
48.867292
30
0
11
98
21
48.867292
31
0
39
0
210
0
220
0
230
1
0
LINE
5
73
100
AcDbEntity
8
1
62
256
6
ByLayer
370
18
48
1
60
0
100
AcDbLine
10
98
20
48.867292
30
0
11
98
21
35.867292
31
0
39
0
210
0
220
0
230
1
0
LINE
5
74
100
AcDbEntity
8
1
62
256
6
ByLayer
370
18
48
1
60
0
100
AcDbLine
10
98
20
35.867292
30
0
11
105.5
21
35.867292
31
0
39
0
210
0
220
0
230
1
0
LINE
5
75
100
AcDbEntity
8
1
62
256
6
ByLayer
370
18
48
1
60
0
100
AcDbLine
10
105.5
20
35.867292
30
0
11
105.5
21
48.867292
31
0
39
0
210
0
220
0
230
1
0
LINE
5
76
100
AcDbEntity
8
1
62
256
6
ByLayer
370
18
48
1
60
0
100
AcDbLine
10
106
20
48.367292
30
0
11
106
21
36.367292
31
0
39
0
210
0
220
0
230
1
0
LINE
5
77
100
AcDbEntity
8
1
62
256
6
ByLayer
370
18
48
1
60
0
100
AcDbLine
10
89.986742
20
38.367292
30
0
11
98
21
38.367292
31
0
39
0
210
0
220
0
230
1
0
LINE
5
78
100
AcDbEntity
8
1
62
256
6
ByLayer
370
18
48
1
60
0
100
AcDbLine
10
98
20
46.367292
30
0
11
90.000063
21
46.367292
31
0
39
0
210
0
220
0
230
1
0
LINE
5
79
100
AcDbEntity
8
1
62
256
6
ByLayer
370
18
48
1
60
0
100
AcDbLine
10
105.5
20
21.132708
30
0
11
105.5
21
34.132708
31
0
39
0
210
0
220
0
230
1
0
LINE
5
7A
100
AcDbEntity
8
1
62
256
6
ByLayer
370
18
48
1
60
0
100
AcDbLine
10
106
20
33.632708
30
0
11
106
21
21.632708
31
0
39
0
210
0
220
0
230
1
0
LINE
5
7B
100
AcDbEntity
8
1
62
256
6
ByLayer
370
18
48
1
60
0
100
AcDbLine
10
98
20
34.132708
30
0
11
98
21
21.132708
31
0
39
0
210
0
220
0
230
1
0
LINE
5
7C
100
AcDbEntity
8
1
62
256
6
ByLayer
370
18
48
1
60
0
100
AcDbLine
10
105.5
20
34.132708
30
0
11
98
21
34.132708
31
0
39
0
210
0
220
0
230
1
0
LINE
5
7D
100
AcDbEntity
8
1
62
256
6
ByLayer
370
18
48
1
60
0
100
AcDbLine
10
98
20
21.132708
30
0
11
105.5
21
21.132708
31
0
39
0
210
0
220
0
230
1
0
LINE
5
7E
100
AcDbEntity
8
1
62
256
6
ByLayer
370
18
48
1
60
0
100
AcDbLine
10
90.000063
20
23.632708
30
0
11
98
21
23.632708
31
0
39
0
210
0
220
0
230
1
0
LINE
5
7F
100
AcDbEntity
8
1
62
256
6
ByLayer
370
18
48
1
60
0
100
AcDbLine
10
98
20
31.632708
30
0
11
89.986742
21
31.632708
31
0
39
0
210
0
220
0
230
1
0
LINE
5
80
100
AcDbEntity
8
SK1
62
256
6
ByLayer
370
18
48
1
60
0
100
AcDbLine
10
0.3
20
40
30
0
11
0
21
39.7
31
0
39
0
210
0
220
0
230
1
0
LINE
5
82
100
AcDbEntity
8
1
62
256
6
ByLayer
370
18
48
1
60
0
100
AcDbLine
10
0.3
20
-40
30
0
11
0.3
21
40
31
0
39
0
210
0
220
0
230
1
0
LINE
5
83
100
AcDbEntity
8
SK1
62
256
6
ByLayer
370
18
48
1
60
0
100
AcDbLine
10
0
20
-39.7
30
0
11
0.3
21
-40
31
0
39
0
210
0
220
0
230
1
0
LINE
5
84
100
AcDbEntity
8
1
62
256
6
ByLayer
370
18
48
1
60
0
100
AcDbLine
10
0
20
-39.7
30
0
11
0
21
39.7
31
0
39
0
210
0
220
0
230
1
0
LINE
5
85
100
AcDbEntity
8
1
62
256
6
ByLayer
370
18
48
1
60
0
100
AcDbLine
10
30
20
40
30
0
11
30
21
19.364917
31
0
39
0
210
0
220
0
230
1
0
LINE
5
86
100
AcDbEntity
8
1
62
256
6
ByLayer
370
18
48
1
60
0
100
AcDbLine
10
0.3
20
-40
30
0
11
29.021946
21
-40
31
0
39
0
210
0
220
0
230
1
0
LINE
5
87
100
AcDbEntity
8
1
62
256
6
ByLayer
370
18
48
1
60
0
100
AcDbLine
10
30
20
40
30
0
11
0.3
21
40
31
0
39
0
210
0
220
0
230
1
0
LINE
5
88
100
AcDbEntity
8
1
62
256
6
ByLayer
370
18
48
1
60
0
100
AcDbLine
10
30
20
-35.398616
30
0
11
30
21
-19.364917
31
0
39
0
210
0
220
0
230
1
0
LINE
5
89
100
AcDbEntity
8
1
62
256
6
ByLayer
370
18
48
1
60
0
100
AcDbLine
10
29.021946
20
-40
30
0
11
30
21
-35.398616
31
0
39
0
210
0
220
0
230
1
0
LINE
5
8A
100
AcDbEntity
8
1
62
256
6
ByLayer
370
18
48
1
60
0
100
AcDbLine
10
10.538675
20
-38.115458
30
0
11
13.461325
21
-38.115458
31
0
39
0
210
0
220
0
230
1
0
LINE
5
8B
100
AcDbEntity
8
1
62
256
6
ByLayer
370
18
48
1
60
0
100
AcDbLine
10
13.461325
20
-12.13309
30
0
11
10.538675
21
-12.13309
31
0
39
0
210
0
220
0
230
1
0
LINE
5
8C
100
AcDbEntity
8
1
62
256
6
ByLayer
370
18
48
1
60
0
100
AcDbLine
10
10.538675
20
12.13309
30
0
11
13.461325
21
12.13309
31
0
39
0
210
0
220
0
230
1
0
LINE
5
8D
100
AcDbEntity
8
1
62
256
6
ByLayer
370
18
48
1
60
0
100
AcDbLine
10
30
20
-19.364917
30
0
11
30
21
19.364917
31
0
39
0
210
0
220
0
230
1
0
LINE
5
8E
100
AcDbEntity
8
1
62
256
6
ByLayer
370
18
48
1
60
0
100
AcDbLine
10
10.105662
20
12.6576
30
0
11
10.105662
21
37.944501
31
0
39
0
210
0
220
0
230
1
0
LINE
5
8F
100
AcDbEntity
8
1
62
256
6
ByLayer
370
18
48
1
60
0
100
AcDbLine
10
10.538675
20
12.13309
30
0
11
10.538675
21
38.115458
31
0
39
0
210
0
220
0
230
1
0
LINE
5
90
100
AcDbEntity
8
1
62
256
6
ByLayer
370
18
48
1
60
0
100
AcDbLine
10
13.461325
20
-38.115458
30
0
11
13.461325
21
-12.13309
31
0
39
0
210
0
220
0
230
1
0
LINE
5
91
100
AcDbEntity
8
1
62
256
6
ByLayer
370
18
48
1
60
0
100
AcDbLine
10
13.894338
20
-37.944501
30
0
11
13.894338
21
-12.6576
31
0
39
0
210
0
220
0
230
1
0
LINE
5
92
100
AcDbEntity
8
1
62
256
6
ByLayer
370
18
48
1
60
0
100
AcDbLine
10
13.461325
20
12.13309
30
0
11
13.461325
21
38.115458
31
0
39
0
210
0
220
0
230
1
0
LINE
5
93
100
AcDbEntity
8
1
62
256
6
ByLayer
370
18
48
1
60
0
100
AcDbLine
10
13.894338
20
12.6576
30
0
11
13.894338
21
37.944501
31
0
39
0
210
0
220
0
230
1
0
LINE
5
94
100
AcDbEntity
8
1
62
256
6
ByLayer
370
18
48
1
60
0
100
AcDbLine
10
10.105662
20
-37.944501
30
0
11
10.105662
21
-12.6576
31
0
39
0
210
0
220
0
230
1
0
LINE
5
95
100
AcDbEntity
8
1
62
256
6
ByLayer
370
18
48
1
60
0
100
AcDbLine
10
10.538675
20
-38.115458
30
0
11
10.538675
21
-12.13309
31
0
39
0
210
0
220
0
230
1
0
LINE
5
96
100
AcDbEntity
8
1
62
256
6
ByLayer
370
18
48
1
60
0
100
AcDbLine
10
89.3
20
24.38648
30
0
11
89.5
21
24.38648
31
0
39
0
210
0
220
0
230
1
0
LINE
5
97
100
AcDbEntity
8
1
62
256
6
ByLayer
370
18
48
1
60
0
100
AcDbLine
10
89.3
20
29.447832
30
0
11
89.5
21
29.447832
31
0
39
0
210
0
220
0
230
1
0
LINE
5
98
100
AcDbEntity
8
1
62
256
6
ByLayer
370
18
48
1
60
0
100
AcDbLine
10
89.5
20
29.447832
30
0
11
89.5
21
24.38648
31
0
39
0
210
0
220
0
230
1
0
LINE
5
99
100
AcDbEntity
8
1
62
256
6
ByLayer
370
18
48
1
60
0
100
AcDbLine
10
89.3
20
40.710365
30
0
11
34.588312
21
40.710365
31
0
39
0
210
0
220
0
230
1
0
LINE
5
9A
100
AcDbEntity
8
1
62
256
6
ByLayer
370
18
48
1
60
0
100
AcDbLine
10
89.3
20
40.710365
30
0
11
89.3
21
40.552168
31
0
39
0
210
0
220
0
230
1
0
LINE
5
9B
100
AcDbEntity
8
1
62
256
6
ByLayer
370
18
48
1
60
0
100
AcDbLine
10
89.3
20
40.552168
30
0
11
89.5
21
40.552168
31
0
39
0
210
0
220
0
230
1
0
LINE
5
9C
100
AcDbEntity
8
1
62
256
6
ByLayer
370
18
48
1
60
0
100
AcDbLine
10
89.5
20
40.552168
30
0
11
89.5
21
29.447832
31
0
39
0
210
0
220
0
230
1
0
LINE
5
9D
100
AcDbEntity
8
1
62
256
6
ByLayer
370
18
48
1
60
0
100
AcDbLine
10
41.6
20
29.447832
30
0
11
89.3
21
29.447832
31
0
39
0
210
0
220
0
230
1
0
LINE
5
9E
100
AcDbEntity
8
1
62
256
6
ByLayer
370
18
48
1
60
0
100
AcDbLine
10
40
20
24.698095
30
0
11
40
21
11.647685
31
0
39
0
210
0
220
0
230
1
0
LINE
5
9F
100
AcDbEntity
8
1
62
256
6
ByLayer
370
18
48
1
60
0
100
AcDbLine
10
33.36434
20
-19.570641
30
0
11
40
21
11.647685
31
0
39
0
210
0
220
0
230
1
0
LINE
5
A0
100
AcDbEntity
8
1
62
256
6
ByLayer
370
18
48
1
60
0
100
AcDbLine
10
33.36434
20
-19.570641
30
0
11
30.479583
21
-19.570641
31
0
39
0
210
0
220
0
230
1
0
LINE
5
A1
100
AcDbEntity
8
1
62
256
6
ByLayer
370
18
48
1
60
0
100
AcDbLine
10
89.3
20
29.447832
30
0
11
89.3
21
24.17559
31
0
39
0
210
0
220
0
230
1
0
LINE
5
A2
100
AcDbEntity
8
1
62
256
6
ByLayer
370
18
48
1
60
0
100
AcDbLine
10
41.6
20
24.17559
30
0
11
89.3
21
24.17559
31
0
39
0
210
0
220
0
230
1
0
LINE
5
A3
100
AcDbEntity
8
1
62
256
6
ByLayer
370
18
48
1
60
0
100
AcDbLine
10
41.6
20
29.447832
30
0
11
41.6
21
24.17559
31
0
39
0
210
0
220
0
230
1
0
LINE
5
A4
100
AcDbEntity
8
1
62
256
6
ByLayer
370
18
48
1
60
0
100
AcDbLine
10
30.479583
20
-19.570641
30
0
11
30.479583
21
-33.142355
31
0
39
0
210
0
220
0
230
1
0
LINE
5
A5
100
AcDbEntity
8
1
62
256
6
ByLayer
370
18
48
1
60
0
100
AcDbLine
10
90
20
45.125
30
0
11
90
21
44.375
31
0
39
0
210
0
220
0
230
1
0
LINE
5
A6
100
AcDbEntity
8
1
62
256
6
ByLayer
370
18
48
1
60
0
100
AcDbLine
10
90
20
43.625
30
0
11
90
21
42.875
31
0
39
0
210
0
220
0
230
1
0
LINE
5
A7
100
AcDbEntity
8
1
62
256
6
ByLayer
370
18
48
1
60
0
100
AcDbLine
10
90
20
42.125
30
0
11
90
21
41.375
31
0
39
0
210
0
220
0
230
1
0
LINE
5
A8
100
AcDbEntity
8
1
62
256
6
ByLayer
370
18
48
1
60
0
100
AcDbLine
10
90
20
40.625
30
0
11
90
21
40.552168
31
0
39
0
210
0
220
0
230
1
0
LINE
5
A9
100
AcDbEntity
8
1
62
256
6
ByLayer
370
18
48
1
60
0
100
AcDbLine
10
89.5
20
40.552168
30
0
11
90
21
40.552168
31
0
39
0
210
0
220
0
230
1
0
LINE
5
AA
100
AcDbEntity
8
1
62
256
6
ByLayer
370
18
48
1
60
0
100
AcDbLine
10
89.5
20
45.61352
30
0
11
89.5
21
40.552168
31
0
39
0
210
0
220
0
230
1
0
LINE
5
AB
100
AcDbEntity
8
1
62
256
6
ByLayer
370
18
48
1
60
0
100
AcDbLine
10
89.5
20
45.61352
30
0
11
89.531671
21
45.586804
31
0
39
0
210
0
220
0
230
1
0
LINE
5
AC
100
AcDbEntity
8
1
62
256
6
ByLayer
370
18
48
1
60
0
100
AcDbLine
10
90
20
29.447832
30
0
11
90
21
29.375
31
0
39
0
210
0
220
0
230
1
0
LINE
5
AD
100
AcDbEntity
8
1
62
256
6
ByLayer
370
18
48
1
60
0
100
AcDbLine
10
90
20
28.625
30
0
11
90
21
27.875
31
0
39
0
210
0
220
0
230
1
0
LINE
5
AE
100
AcDbEntity
8
1
62
256
6
ByLayer
370
18
48
1
60
0
100
AcDbLine
10
90
20
27.125
30
0
11
90
21
26.375
31
0
39
0
210
0
220
0
230
1
0
LINE
5
AF
100
AcDbEntity
8
1
62
256
6
ByLayer
370
18
48
1
60
0
100
AcDbLine
10
90
20
25.625
30
0
11
90
21
24.875
31
0
39
0
210
0
220
0
230
1
0
LINE
5
B0
100
AcDbEntity
8
1
62
256
6
ByLayer
370
18
48
1
60
0
100
AcDbLine
10
89.5
20
24.38648
30
0
11
89.531671
21
24.413196
31
0
39
0
210
0
220
0
230
1
0
LINE
5
B1
100
AcDbEntity
8
1
62
256
6
ByLayer
370
18
48
1
60
0
100
AcDbLine
10
89.5
20
29.447832
30
0
11
90
21
29.447832
31
0
39
0
210
0
220
0
230
1
0
LINE
5
B2
100
AcDbEntity
8
1
62
256
6
ByLayer
370
18
48
1
60
0
100
AcDbLine
10
30.479583
20
-33.142355
30
0
11
33.36434
21
-19.570641
31
0
39
0
210
0
220
0
230
1
0
LINE
5
B3
100
AcDbEntity
8
1
62
256
6
ByLayer
370
18
48
1
60
0
100
AcDbLine
10
89.3
20
46.000917
30
0
11
35.229623
21
46.000917
31
0
39
0
210
0
220
0
230
1
0
LINE
5
B4
100
AcDbEntity
8
1
62
256
6
ByLayer
370
18
48
1
60
0
100
AcDbLine
10
89.3
20
46.000917
30
0
11
89.3
21
40.710365
31
0
39
0
210
0
220
0
230
1
0
LINE
5
B5
100
AcDbEntity
8
1
62
256
6
ByLayer
370
18
48
1
60
0
100
AcDbLine
10
89.3
20
45.61352
30
0
11
89.5
21
45.61352
31
0
39
0
210
0
220
0
230
1
0
LINE
5
B6
100
AcDbEntity
8
1
62
256
6
ByLayer
370
18
48
1
60
0
100
AcDbLine
10
90
20
40.552168
30
0
11
90
21
39.875
31
0
39
0
210
0
220
0
230
1
0
LINE
5
B7
100
AcDbEntity
8
1
62
256
6
ByLayer
370
18
48
1
60
0
100
AcDbLine
10
89.582231
20
39.633801
30
0
11
90
21
39.875
31
0
39
0
210
0
220
0
230
1
0
LINE
5
B8
100
AcDbEntity
8
1
62
256
6
ByLayer
370
18
48
1
60
0
100
AcDbLine
10
90
20
39.125
30
0
11
89.582231
21
39.366199
31
0
39
0
210
0
220
0
230
1
0
LINE
5
B9
100
AcDbEntity
8
1
62
256
6
ByLayer
370
18
48
1
60
0
100
AcDbLine
10
90
20
39.125
30
0
11
90
21
38.375
31
0
39
0
210
0
220
0
230
1
0
LINE
5
BA
100
AcDbEntity
8
1
62
256
6
ByLayer
370
18
48
1
60
0
100
AcDbLine
10
89.582231
20
38.133801
30
0
11
90
21
38.375
31
0
39
0
210
0
220
0
230
1
0
LINE
5
BB
100
AcDbEntity
8
1
62
256
6
ByLayer
370
18
48
1
60
0
100
AcDbLine
10
90
20
37.625
30
0
11
89.582231
21
37.866199
31
0
39
0
210
0
220
0
230
1
0
LINE
5
BC
100
AcDbEntity
8
1
62
256
6
ByLayer
370
18
48
1
60
0
100
AcDbLine
10
90
20
37.625
30
0
11
90
21
36.875
31
0
39
0
210
0
220
0
230
1
0
LINE
5
BD
100
AcDbEntity
8
1
62
256
6
ByLayer
370
18
48
1
60
0
100
AcDbLine
10
89.582231
20
36.633801
30
0
11
90
21
36.875
31
0
39
0
210
0
220
0
230
1
0
LINE
5
BE
100
AcDbEntity
8
1
62
256
6
ByLayer
370
18
48
1
60
0
100
AcDbLine
10
90
20
36.125
30
0
11
89.582231
21
36.366199
31
0
39
0
210
0
220
0
230
1
0
LINE
5
BF
100
AcDbEntity
8
1
62
256
6
ByLayer
370
18
48
1
60
0
100
AcDbLine
10
90
20
36.125
30
0
11
90
21
35.375
31
0
39
0
210
0
220
0
230
1
0
LINE
5
C0
100
AcDbEntity
8
1
62
256
6
ByLayer
370
18
48
1
60
0
100
AcDbLine
10
89.582231
20
35.133801
30
0
11
90
21
35.375
31
0
39
0
210
0
220
0
230
1
0
LINE
5
C1
100
AcDbEntity
8
1
62
256
6
ByLayer
370
18
48
1
60
0
100
AcDbLine
10
90
20
34.625
30
0
11
89.582231
21
34.866199
31
0
39
0
210
0
220
0
230
1
0
LINE
5
C2
100
AcDbEntity
8
1
62
256
6
ByLayer
370
18
48
1
60
0
100
AcDbLine
10
90
20
34.625
30
0
11
90
21
33.875
31
0
39
0
210
0
220
0
230
1
0
LINE
5
C3
100
AcDbEntity
8
1
62
256
6
ByLayer
370
18
48
1
60
0
100
AcDbLine
10
89.582231
20
33.633801
30
0
11
90
21
33.875
31
0
39
0
210
0
220
0
230
1
0
LINE
5
C4
100
AcDbEntity
8
1
62
256
6
ByLayer
370
18
48
1
60
0
100
AcDbLine
10
90
20
33.125
30
0
11
89.582231
21
33.366199
31
0
39
0
210
0
220
0
230
1
0
LINE
5
C5
100
AcDbEntity
8
1
62
256
6
ByLayer
370
18
48
1
60
0
100
AcDbLine
10
90
20
33.125
30
0
11
90
21
32.375
31
0
39
0
210
0
220
0
230
1
0
LINE
5
C6
100
AcDbEntity
8
1
62
256
6
ByLayer
370
18
48
1
60
0
100
AcDbLine
10
89.582231
20
32.133801
30
0
11
90
21
32.375
31
0
39
0
210
0
220
0
230
1
0
LINE
5
C7
100
AcDbEntity
8
1
62
256
6
ByLayer
370
18
48
1
60
0
100
AcDbLine
10
90
20
31.625
30
0
11
89.582231
21
31.866199
31
0
39
0
210
0
220
0
230
1
0
LINE
5
C8
100
AcDbEntity
8
1
62
256
6
ByLayer
370
18
48
1
60
0
100
AcDbLine
10
90
20
31.625
30
0
11
90
21
30.875
31
0
39
0
210
0
220
0
230
1
0
LINE
5
C9
100
AcDbEntity
8
1
62
256
6
ByLayer
370
18
48
1
60
0
100
AcDbLine
10
89.582231
20
30.633801
30
0
11
90
21
30.875
31
0
39
0
210
0
220
0
230
1
0
LINE
5
CA
100
AcDbEntity
8
1
62
256
6
ByLayer
370
18
48
1
60
0
100
AcDbLine
10
90
20
30.125
30
0
11
89.582231
21
30.366199
31
0
39
0
210
0
220
0
230
1
0
LINE
5
CB
100
AcDbEntity
8
1
62
256
6
ByLayer
370
18
48
1
60
0
100
AcDbLine
10
90
20
30.125
30
0
11
90
21
29.447832
31
0
39
0
210
0
220
0
230
1
0
LINE
5
CC
100
AcDbEntity
8
1
62
256
6
ByLayer
370
18
48
1
60
0
100
AcDbLine
10
35.007018
20
55.25
30
0
11
31.159111
21
40.889417
31
0
39
0
210
0
220
0
230
1
0
LINE
5
CD
100
AcDbEntity
8
1
62
256
6
ByLayer
370
18
48
1
60
0
100
AcDbLine
10
31.159111
20
40.889417
30
0
11
31.159111
21
21.14106
31
0
39
0
210
0
220
0
230
1
0
LINE
5
CE
100
AcDbEntity
8
1
62
256
6
ByLayer
370
18
48
1
60
0
100
AcDbLine
10
41.6
20
14.75
30
0
11
41.6
21
24.17559
31
0
39
0
210
0
220
0
230
1
0
LINE
5
CF
100
AcDbEntity
8
1
62
256
6
ByLayer
370
18
48
1
60
0
100
AcDbLine
10
90
20
54.125
30
0
11
90
21
53.375
31
0
39
0
210
0
220
0
230
1
0
LINE
5
D0
100
AcDbEntity
8
1
62
256
6
ByLayer
370
18
48
1
60
0
100
AcDbLine
10
89.762163
20
54.737837
30
0
11
89.5
21
55
31
0
39
0
210
0
220
0
230
1
0
LINE
5
D1
100
AcDbEntity
8
1
62
256
6
ByLayer
370
18
48
1
60
0
100
AcDbLine
10
90
20
52.625
30
0
11
90
21
51.875
31
0
39
0
210
0
220
0
230
1
0
LINE
5
D2
100
AcDbEntity
8
1
62
256
6
ByLayer
370
18
48
1
60
0
100
AcDbLine
10
90
20
51.125
30
0
11
90
21
50.375
31
0
39
0
210
0
220
0
230
1
0
LINE
5
D3
100
AcDbEntity
8
1
62
256
6
ByLayer
370
18
48
1
60
0
100
AcDbLine
10
90
20
49.625
30
0
11
90
21
48.875
31
0
39
0
210
0
220
0
230
1
0
LINE
5
D4
100
AcDbEntity
8
1
62
256
6
ByLayer
370
18
48
1
60
0
100
AcDbLine
10
90
20
48.125
30
0
11
90
21
47.375
31
0
39
0
210
0
220
0
230
1
0
LINE
5
D5
100
AcDbEntity
8
1
62
256
6
ByLayer
370
18
48
1
60
0
100
AcDbLine
10
90
20
46.625
30
0
11
90
21
45.875
31
0
39
0
210
0
220
0
230
1
0
LINE
5
D6
100
AcDbEntity
8
1
62
256
6
ByLayer
370
18
48
1
60
0
100
AcDbLine
10
89.5
20
45.61352
30
0
11
89.5
21
55
31
0
39
0
210
0
220
0
230
1
0
LINE
5
D7
100
AcDbEntity
8
1
62
256
6
ByLayer
370
18
48
1
60
0
100
AcDbLine
10
89.5
20
24.38648
30
0
11
89.5
21
15
31
0
39
0
210
0
220
0
230
1
0
LINE
5
D8
100
AcDbEntity
8
1
62
256
6
ByLayer
370
18
48
1
60
0
100
AcDbLine
10
89.5
20
55
30
0
11
89.3
21
55
31
0
39
0
210
0
220
0
230
1
0
LINE
5
D9
100
AcDbEntity
8
1
62
256
6
ByLayer
370
18
48
1
60
0
100
AcDbLine
10
89.3
20
15
30
0
11
89.5
21
15
31
0
39
0
210
0
220
0
230
1
0
LINE
5
DA
100
AcDbEntity
8
1
62
256
6
ByLayer
370
18
48
1
60
0
100
AcDbLine
10
90
20
24.125
30
0
11
90
21
23.375
31
0
39
0
210
0
220
0
230
1
0
LINE
5
DB
100
AcDbEntity
8
1
62
256
6
ByLayer
370
18
48
1
60
0
100
AcDbLine
10
89.5
20
15
30
0
11
89.762163
21
15.262163
31
0
39
0
210
0
220
0
230
1
0
LINE
5
DC
100
AcDbEntity
8
1
62
256
6
ByLayer
370
18
48
1
60
0
100
AcDbLine
10
90
20
22.625
30
0
11
90
21
21.875
31
0
39
0
210
0
220
0
230
1
0
LINE
5
DD
100
AcDbEntity
8
1
62
256
6
ByLayer
370
18
48
1
60
0
100
AcDbLine
10
90
20
21.125
30
0
11
90
21
20.375
31
0
39
0
210
0
220
0
230
1
0
LINE
5
DE
100
AcDbEntity
8
1
62
256
6
ByLayer
370
18
48
1
60
0
100
AcDbLine
10
90
20
19.625
30
0
11
90
21
18.875
31
0
39
0
210
0
220
0
230
1
0
LINE
5
DF
100
AcDbEntity
8
1
62
256
6
ByLayer
370
18
48
1
60
0
100
AcDbLine
10
90
20
18.125
30
0
11
90
21
17.375
31
0
39
0
210
0
220
0
230
1
0
LINE
5
E0
100
AcDbEntity
8
1
62
256
6
ByLayer
370
18
48
1
60
0
100
AcDbLine
10
90
20
16.625
30
0
11
90
21
15.875
31
0
39
0
210
0
220
0
230
1
0
LINE
5
E1
100
AcDbEntity
8
1
62
256
6
ByLayer
370
18
48
1
60
0
100
AcDbLine
10
89.3
20
14.75
30
0
11
89.3
21
24.17559
31
0
39
0
210
0
220
0
230
1
0
LINE
5
E2
100
AcDbEntity
8
1
62
256
6
ByLayer
370
18
48
1
60
0
100
AcDbLine
10
41.6
20
14.75
30
0
11
89.3
21
14.75
31
0
39
0
210
0
220
0
230
1
0
LINE
5
E3
100
AcDbEntity
8
1
62
256
6
ByLayer
370
18
48
1
60
0
100
AcDbLine
10
89.3
20
46.000917
30
0
11
89.3
21
55.25
31
0
39
0
210
0
220
0
230
1
0
LINE
5
E4
100
AcDbEntity
8
1
62
256
6
ByLayer
370
18
48
1
60
0
100
AcDbLine
10
89.3
20
55.25
30
0
11
35.007018
21
55.25
31
0
39
0
210
0
220
0
230
1
0
LINE
5
E5
100
AcDbEntity
8
SK1
62
256
6
ByLayer
370
18
48
1
60
0
100
AcDbLine
10
-1.307107
20
-4.393239
30
0
11
-1.307107
21
4.393239
31
0
39
0
210
0
220
0
230
1
0
LINE
5
E6
100
AcDbEntity
8
SK1
62
256
6
ByLayer
370
18
48
1
60
0
100
AcDbLine
10
-0.2
20
6.576573
30
0
11
-0.2
21
28.683485
31
0
39
0
210
0
220
0
230
1
0
LINE
5
E7
100
AcDbEntity
8
SK1
62
256
6
ByLayer
370
18
48
1
60
0
100
AcDbLine
10
-0.2
20
-28.683485
30
0
11
-0.2
21
-6.576573
31
0
39
0
210
0
220
0
230
1
0
LINE
5
E8
100
AcDbEntity
8
80
62
256
6
ByLayer
370
13
48
1
60
0
100
AcDbLine
10
0
20
0
30
0
11
-22.3827
21
0
31
0
39
0
210
0
220
0
230
1
0
LINE
5
E9
100
AcDbEntity
8
81
62
256
6
ByLayer
370
13
48
1
60
0
100
AcDbLine
10
90.001481
20
35
30
0
11
99.501481
21
35
31
0
39
0
210
0
220
0
230
1
0
LINE
5
EA
100
AcDbEntity
8
4
62
256
6
ByLayer
370
13
48
0.05
60
0
100
AcDbLine
10
89.5
20
0
30
0
11
0
21
0
31
0
39
0
210
0
220
0
230
1
0
LINE
5
EC
100
AcDbEntity
8
SK4
62
256
6
ByLayer
370
13
48
0.05
60
0
100
AcDbLine
10
-52
20
0
30
0
11
94.48318
21
0
31
0
39
0
210
0
220
0
230
1
0
MTEXT
5
167
100
AcDbEntity
8
SK6
62
256
6
ByLayer
370
18
48
1
60
0
100
AcDbMText
10
4.372728
20
60.878315
30
0
210
0
220
0
230
1
1
\W0.7319;C8-SL70-RG-090
40
3.5
41
0
44
1.084337
50
0
71
7
72
5
7
iso_b_vert
0
DIMENSION
5
196
100
AcDbEntity
8
SK2
62
256
6
ByLayer
370
13
48
1
60
0
100
AcDbDimension
2
DimnDraft3D3
10
-65.23404
20
40
30
0
11
-64.68413
21
2.461803
31
0
70
33
71
5
72
1
41
1
210
0
220
0
230
1
3
Standard
100
AcDbAlignedDimension
13
-1.2875
23
-40
33
0
14
-1.2875
24
40
34
0
1001
ACAD
1000
DSTYLE
1002
{
1070
   279
1070
     0
1070
    74
1070
     0
1070
   173
1070
     1
1070
   340
1005
168
1070
   271
1070
     1
1070
   272
1070
     2
1070
    77
1070
     1
1070
    73
1070
     0
1070
   171
1070
     3
1070
   274
1070
     4
1070
   177
1070
     7
1070
   176
1070
     7
1070
   178
1070
     7
1070
    78
1070
     8
1070
    48
1040
-0.005
1070
    41
1041
3.175
1070
   147
1041
1.75006
1070
    42
1041
1.5875
1070
    44
1041
3.175
1070
   140
1041
3.50012
1070
   343
1005
0
1070
   344
1005
0
1002
}
0
DIMENSION
5
1A5
100
AcDbEntity
8
2
62
256
6
ByLayer
370
13
48
1
60
0
100
AcDbDimension
2
DimnDraft3D4
10
90.001481
20
-50.909183
30
0
11
45.00074
21
-50.909183
31
0
70
32
71
5
72
1
41
1
210
0
220
0
230
1
3
Standard
100
AcDbAlignedDimension
13
0
23
-41.2875
33
0
14
90.001481
24
33.4125
34
0
50
0
100
AcDbRotatedDimension
1001
ACAD
1000
DSTYLE
1002
{
1070
   279
1070
     0
1070
   172
1070
     1
1070
   173
1070
     1
1070
   340
1005
168
1070
   271
1070
     1
1070
   272
1070
     2
1070
    77
1070
     1
1070
    73
1070
     0
1070
   171
1070
     3
1070
   274
1070
     4
1070
   177
1070
     7
1070
   176
1070
     7
1070
   178
1070
     7
1070
    78
1070
     8
1070
    48
1040
-0.005
1070
    41
1041
3.175
1070
   147
1041
1.75006
1070
    42
1041
1.5875
1070
    44
1041
3.175
1070
   140
1041
3.50012
1070
   343
1005
0
1070
   344
1005
0
1002
}
0
DIMENSION
5
1B3
100
AcDbEntity
8
SK2
62
256
6
ByLayer
370
13
48
1
60
0
100
AcDbDimension
2
DimnDraft3D5
10
90.001481
20
-19.053168
30
0
11
65.00074
21
-19.053168
31
0
70
32
71
5
72
1
41
1
210
0
220
0
230
1
3
Standard
100
AcDbAlignedDimension
13
40
23
10.060185
33
0
14
90.001481
24
33.4125
34
0
50
0
100
AcDbRotatedDimension
1001
ACAD
1000
DSTYLE
1002
{
1070
   279
1070
     0
1070
   172
1070
     1
1070
   173
1070
     1
1070
   340
1005
168
1070
   271
1070
     1
1070
   272
1070
     2
1070
    77
1070
     1
1070
    73
1070
     0
1070
   171
1070
     3
1070
   274
1070
     4
1070
   177
1070
     7
1070
   176
1070
     7
1070
   178
1070
     7
1070
    78
1070
     8
1070
    48
1040
-0.005
1070
    41
1041
3.175
1070
   147
1041
1.75006
1070
    42
1041
1.5875
1070
    44
1041
3.175
1070
   140
1041
3.50012
1070
   343
1005
0
1070
   344
1005
0
1002
}
0
ENDSEC
0
SECTION
2
OBJECTS
0
DICTIONARY
5
21e
330
0
100
AcDbDictionary
280
0
281
1
3
ACAD_GROUP
350
21f
3
ACAD_MLINESTYLE
350
220
0
DICTIONARY
5
21f
330
0
100
AcDbDictionary
280
0
281
1
0
DICTIONARY
5
220
330
0
100
AcDbDictionary
280
0
281
1
3
Standard
350
18
0
MLINESTYLE
5
18
330
220
100
AcDbMlineStyle
2
Standard
70
0
3

62
256
51
90
52
90
71
2
49
-0.5
62
256
6
ByLayer
49
0.5
62
256
6
ByLayer
0
RASTERVARIABLES
5
20c
330

100
AcDbRasterVariables
90
0
70
1
71
1
72
1
0
ENDSEC
0
EOF
