0
SECTION
2
HEADER
9
$ACADVER
1
AC1015
9
$DWGCODEPAGE
3
ANSI_1252
9
$HANDSEED
5
18c
9
$ANGBASE
50
0
9
$ANGDIR
70
0
9
$ATTMODE
70
1
9
$AUNITS
70
0
9
$AUPREC
70
0
9
$CECOLOR
62
256
9
$CELTSCALE
40
1
9
$CELTYPE
6
ByLayer
9
$CELWEIGHT
370
18
9
$CLAYER
8
0
9
$CMLJUST
70
0
9
$CMLSCALE
40
1
9
$CMLSTYLE
2
Standard
9
$DIMSTYLE
2
Standard
9
$TEXTSIZE
40
0.2
9
$TEXTSTYLE
7
Standard
9
$LUNITS
70
2
9
$LUPREC
70
4
9
$EXTNAMES
290
1
9
$INSUNITS
70
4
9
$LTSCALE
40
1
9
$LWDISPLAY
290
1
9
$PDMODE
70
0
9
$PDSIZE
40
0
9
$PLINEGEN
70
0
0
ENDSEC
0
SECTION
2
CLASSES
0
CLASS
1
RASTERVARIABLES
2
AcDbRasterVariables
3
ISM
90
0
280
0
281
0
0
ENDSEC
0
SECTION
2
TABLES
0
TABLE
2
VPORT
5
182
100
AcDbSymbolTable
0
VPORT
5
1
100
AcDbSymbolTableRecord
100
AcDbViewportTableRecord
2
*Active
70
0
10
0
20
0
11
1
21
1
12
-1
22
1
13
0
23
0
14
0.5
24
0.5
15
10
25
10
16
0
26
0
36
1
17
0
27
0
37
0
0
ENDTAB
0
TABLE
2
LTYPE
5
183
100
AcDbSymbolTable
0
LTYPE
5
14
100
AcDbSymbolTableRecord
100
AcDbLinetypeTableRecord
70
0
2
ByBlock
3

72
65
73
0
40
0
0
LTYPE
5
15
100
AcDbSymbolTableRecord
100
AcDbLinetypeTableRecord
70
0
2
ByLayer
3

72
65
73
0
40
0
0
LTYPE
5
16
100
AcDbSymbolTableRecord
100
AcDbLinetypeTableRecord
70
0
2
CONTINUOUS
3
Solid line
72
65
73
0
40
0
0
LTYPE
5
6A
100
AcDbSymbolTableRecord
100
AcDbLinetypeTableRecord
70
0
2
CENTER
3
____ _ ____ _ ____ _ ____
72
65
73
4
40
47.5
49
22
74
0
49
-8.5
74
0
49
8.5
74
0
49
-8.5
74
0
0
LTYPE
5
6B
100
AcDbSymbolTableRecord
100
AcDbLinetypeTableRecord
70
0
2
DASHED
3
__ __ __ __ __ __ __ __ __
72
65
73
2
40
25.72
49
12.86
74
0
49
-12.86
74
0
0
ENDTAB
0
TABLE
2
LAYER
5
184
100
AcDbSymbolTable
0
LAYER
5
10
100
AcDbSymbolTableRecord
100
AcDbLayerTableRecord
2
0
70
0
62
7
6
CONTINUOUS
290
1
370
-3
390
0
0
LAYER
5
6D
100
AcDbSymbolTableRecord
100
AcDbLayerTableRecord
2
80
70
0
62
-6
6
CONTINUOUS
290
1
370
-3
390
0
0
LAYER
5
6F
100
AcDbSymbolTableRecord
100
AcDbLayerTableRecord
2
81
70
0
62
-3
6
CONTINUOUS
290
1
370
-3
390
0
0
LAYER
5
71
100
AcDbSymbolTableRecord
100
AcDbLayerTableRecord
2
1
70
0
62
4
6
CONTINUOUS
290
1
370
-3
390
0
0
LAYER
5
AE
100
AcDbSymbolTableRecord
100
AcDbLayerTableRecord
2
4
70
0
62
-2
6
CENTER
290
1
370
-3
390
0
0
LAYER
5
101
100
AcDbSymbolTableRecord
100
AcDbLayerTableRecord
2
2
70
0
62
7
6
CONTINUOUS
290
1
370
-3
390
0
0
LAYER
5
16e
100
AcDbSymbolTableRecord
100
AcDbLayerTableRecord
2
SK4
70
0
62
2
6
CENTER
290
1
370
-3
390
0
0
LAYER
5
16f
100
AcDbSymbolTableRecord
100
AcDbLayerTableRecord
2
SK1
70
0
62
4
6
CONTINUOUS
290
1
370
-3
390
0
0
LAYER
5
170
100
AcDbSymbolTableRecord
100
AcDbLayerTableRecord
2
SK6
70
0
62
5
6
CONTINUOUS
290
1
370
-3
390
0
0
LAYER
5
171
100
AcDbSymbolTableRecord
100
AcDbLayerTableRecord
2
SK2
70
0
62
7
6
CONTINUOUS
290
1
370
-3
390
0
0
ENDTAB
0
TABLE
2
STYLE
5
185
100
AcDbSymbolTable
0
STYLE
5
11
100
AcDbSymbolTableRecord
100
AcDbTextStyleTableRecord
2
Standard
3
txt
70
0
71
0
40
0
41
1
42
0
50
0
0
STYLE
5
E6
100
AcDbSymbolTableRecord
100
AcDbTextStyleTableRecord
2
iso_b_vert
3
simplex.shx
70
0
71
0
40
0
41
1
42
0
50
0
0
STYLE
5
E7
100
AcDbSymbolTableRecord
100
AcDbTextStyleTableRecord
2
DWGDirectTextStyle
3
simplex
70
0
71
0
40
0
41
1
42
0
50
0
0
ENDTAB
0
TABLE
2
DIMSTYLE
5
186
100
AcDbSymbolTable
100
AcDbDimStyleTable
0
DIMSTYLE
105
27
100
AcDbSymbolTableRecord
100
AcDbDimStyleTableRecord
2
Standard
70
0
3
<>
41
0.18
42
0.0625
44
0.18
140
0.18
147
0.09
73
0
74
0
77
1
271
2
275
0
278
52
280
0
340
11
0
ENDTAB
0
TABLE
2
VIEW
5
187
100
AcDbSymbolTable
0
ENDTAB
0
TABLE
2
UCS
5
188
100
AcDbSymbolTable
0
ENDTAB
0
TABLE
2
APPID
5
189
100
AcDbSymbolTable
0
APPID
5
12
100
AcDbSymbolTableRecord
100
AcDbRegAppTableRecord
2
ACAD
70
0
0
ENDTAB
0
TABLE
2
BLOCK_RECORD
5
18a
100
AcDbSymbolTable
0
BLOCK_RECORD
5
1F
100
AcDbSymbolTableRecord
100
AcDbBlockTableRecord
2
*Model_Space
340
0
70
0
0
BLOCK_RECORD
5
1B
100
AcDbSymbolTableRecord
100
AcDbBlockTableRecord
2
*Paper_Space
340
0
70
0
0
BLOCK_RECORD
5
23
100
AcDbSymbolTableRecord
100
AcDbBlockTableRecord
2
*Paper_Space0
340
0
70
0
0
BLOCK_RECORD
5
E9
100
AcDbSymbolTableRecord
100
AcDbBlockTableRecord
2
DimnDraft3D1
340
0
70
0
0
BLOCK_RECORD
5
F4
100
AcDbSymbolTableRecord
100
AcDbBlockTableRecord
2
DimnDraft3D2
340
0
70
0
0
BLOCK_RECORD
5
FF
100
AcDbSymbolTableRecord
100
AcDbBlockTableRecord
2
DimnDraft3D3
340
0
70
0
0
BLOCK_RECORD
5
10A
100
AcDbSymbolTableRecord
100
AcDbBlockTableRecord
2
DimnDraft3D4
340
0
70
0
0
ENDTAB
0
ENDSEC
0
SECTION
2
BLOCKS
0
BLOCK
5
20
100
AcDbEntity
8
0
100
AcDbBlockBegin
2
*Model_Space
70
0
10
0
20
0
30
0
3
*Model_Space
0
ENDBLK
5
21
100
AcDbEntity
8
0
100
AcDbBlockEnd
0
BLOCK
5
1C
100
AcDbEntity
8
0
100
AcDbBlockBegin
2
*Paper_Space
70
0
10
0
20
0
30
0
3
*Paper_Space
0
ENDBLK
5
1D
100
AcDbEntity
8
0
100
AcDbBlockEnd
0
BLOCK
5
24
100
AcDbEntity
8
0
100
AcDbBlockBegin
2
*Paper_Space0
70
0
10
0
20
0
30
0
3
*Paper_Space0
0
ENDBLK
5
25
100
AcDbEntity
8
0
100
AcDbBlockEnd
0
BLOCK
5
F1
100
AcDbEntity
8
0
100
AcDbBlockBegin
2
DimnDraft3D1
70
0
10
0
20
0
30
0
3
DimnDraft3D1
0
MTEXT
5
EA
100
AcDbEntity
8
SK2
62
256
6
ByLayer
370
18
48
1
60
0
100
AcDbMText
10
150.875
20
16.05
30
0
210
0
220
0
230
1
1
\W0.6912;8.5
40
3.5
41
0
44
1.084337
50
90
71
7
72
5
7
iso_b_vert
0
LINE
5
EC
100
AcDbEntity
8
SK2
62
256
6
ByLayer
370
13
48
1
60
0
100
AcDbLine
10
124
20
8.5
30
0
11
153.75
21
8.5
31
0
39
0
210
0
220
0
230
1
0
LINE
5
ED
100
AcDbEntity
8
SK2
62
256
6
ByLayer
370
13
48
1
60
0
100
AcDbLine
10
124
20
0
30
0
11
153.75
21
0
31
0
39
0
210
0
220
0
230
1
0
LINE
5
EE
100
AcDbEntity
8
SK2
62
256
6
ByLayer
370
13
48
1
60
0
100
AcDbLine
10
151.75
20
0
30
0
11
151.75
21
20.636842
31
0
39
0
210
0
220
0
230
1
0
SOLID
5
EF
100
AcDbEntity
8
SK2
62
256
6
ByLayer
370
13
48
1
60
0
100
AcDbTrace
10
151.75
20
8.5
30
0
11
152.167997
21
5.325002
31
0
12
151.332003
22
5.324998
32
0
13
151.75
23
8.5
33
0
39
0
210
0
220
0
230
1
0
SOLID
5
F0
100
AcDbEntity
8
SK2
62
256
6
ByLayer
370
13
48
1
60
0
100
AcDbTrace
10
151.75
20
0
30
0
11
151.332003
21
3.174998
31
0
12
152.167997
22
3.175002
32
0
13
151.75
23
0
33
0
39
0
210
0
220
0
230
1
0
ENDBLK
5
F2
100
AcDbEntity
8
0
100
AcDbBlockEnd
0
BLOCK
5
FC
100
AcDbEntity
8
0
100
AcDbBlockBegin
2
DimnDraft3D2
70
0
10
0
20
0
30
0
3
DimnDraft3D2
0
MTEXT
5
F5
100
AcDbEntity
8
SK2
62
256
6
ByLayer
370
18
48
1
60
0
100
AcDbMText
10
-59.125
20
1.708553
30
0
210
0
220
0
230
1
1
\W0.6740;80
40
3.5
41
0
44
1.084337
50
90
71
7
72
5
7
iso_b_vert
0
MTEXT
5
F6
100
AcDbEntity
8
SK2
62
256
6
ByLayer
370
18
48
1
60
0
100
AcDbMText
10
-59.125
20
-4.140132
30
0
210
0
220
0
230
1
1
\W1.3781;%%c
40
3.5
41
0
44
1.084337
50
90
71
7
72
5
7
iso_b_vert
0
LINE
5
F7
100
AcDbEntity
8
SK2
62
256
6
ByLayer
370
13
48
1
60
0
100
AcDbLine
10
-1.7
20
40
30
0
11
-60.25
21
40
31
0
39
0
210
0
220
0
230
1
0
LINE
5
F8
100
AcDbEntity
8
SK2
62
256
6
ByLayer
370
13
48
1
60
0
100
AcDbLine
10
-1.7
20
-40
30
0
11
-60.25
21
-40
31
0
39
0
210
0
220
0
230
1
0
LINE
5
F9
100
AcDbEntity
8
SK2
62
256
6
ByLayer
370
13
48
1
60
0
100
AcDbLine
10
-58.25
20
40
30
0
11
-58.25
21
-40
31
0
39
0
210
0
220
0
230
1
0
SOLID
5
FA
100
AcDbEntity
8
SK2
62
256
6
ByLayer
370
13
48
1
60
0
100
AcDbTrace
10
-58.25
20
40
30
0
11
-57.832003
21
36.825002
31
0
12
-58.667997
22
36.824998
32
0
13
-58.25
23
40
33
0
39
0
210
0
220
0
230
1
0
SOLID
5
FB
100
AcDbEntity
8
SK2
62
256
6
ByLayer
370
13
48
1
60
0
100
AcDbTrace
10
-58.25
20
-40
30
0
11
-58.667997
21
-36.825002
31
0
12
-57.832003
22
-36.824998
32
0
13
-58.25
23
-40
33
0
39
0
210
0
220
0
230
1
0
ENDBLK
5
FD
100
AcDbEntity
8
0
100
AcDbBlockEnd
0
BLOCK
5
107
100
AcDbEntity
8
0
100
AcDbBlockBegin
2
DimnDraft3D3
70
0
10
0
20
0
30
0
3
DimnDraft3D3
0
MTEXT
5
100
100
AcDbEntity
8
2
62
256
6
ByLayer
370
18
48
1
60
0
100
AcDbMText
10
57.913816
20
59.125
30
0
210
0
220
0
230
1
1
\W0.6217;120
40
3.5
41
0
44
1.084337
50
0
71
7
72
5
7
iso_b_vert
0
LINE
5
102
100
AcDbEntity
8
2
62
256
6
ByLayer
370
13
48
1
60
0
100
AcDbLine
10
0
20
41.7
30
0
11
0
21
60.25
31
0
39
0
210
0
220
0
230
1
0
LINE
5
103
100
AcDbEntity
8
2
62
256
6
ByLayer
370
13
48
1
60
0
100
AcDbLine
10
120
20
41.8
30
0
11
120
21
60.25
31
0
39
0
210
0
220
0
230
1
0
LINE
5
104
100
AcDbEntity
8
2
62
256
6
ByLayer
370
13
48
1
60
0
100
AcDbLine
10
0
20
58.25
30
0
11
120
21
58.25
31
0
39
0
210
0
220
0
230
1
0
SOLID
5
105
100
AcDbEntity
8
2
62
256
6
ByLayer
370
13
48
1
60
0
100
AcDbTrace
10
0
20
58.25
30
0
11
3.174998
21
58.667997
31
0
12
3.175002
22
57.832003
32
0
13
0
23
58.25
33
0
39
0
210
0
220
0
230
1
0
SOLID
5
106
100
AcDbEntity
8
2
62
256
6
ByLayer
370
13
48
1
60
0
100
AcDbTrace
10
120
20
58.25
30
0
11
116.825002
21
57.832003
31
0
12
116.824998
22
58.667997
32
0
13
120
23
58.25
33
0
39
0
210
0
220
0
230
1
0
ENDBLK
5
108
100
AcDbEntity
8
0
100
AcDbBlockEnd
0
BLOCK
5
112
100
AcDbEntity
8
0
100
AcDbBlockBegin
2
DimnDraft3D4
70
0
10
0
20
0
30
0
3
DimnDraft3D4
0
MTEXT
5
10B
100
AcDbEntity
8
SK2
62
256
6
ByLayer
370
18
48
1
60
0
100
AcDbMText
10
165.875
20
10.208553
30
0
210
0
220
0
230
1
1
\W0.6740;63
40
3.5
41
0
44
1.084337
50
90
71
7
72
5
7
iso_b_vert
0
MTEXT
5
10C
100
AcDbEntity
8
SK2
62
256
6
ByLayer
370
18
48
1
60
0
100
AcDbMText
10
165.875
20
4.359868
30
0
210
0
220
0
230
1
1
\W1.3781;%%c
40
3.5
41
0
44
1.084337
50
90
71
7
72
5
7
iso_b_vert
0
LINE
5
10D
100
AcDbEntity
8
SK2
62
256
6
ByLayer
370
13
48
1
60
0
100
AcDbLine
10
121.8
20
-23
30
0
11
168.75
21
-23
31
0
39
0
210
0
220
0
230
1
0
LINE
5
10E
100
AcDbEntity
8
SK2
62
256
6
ByLayer
370
13
48
1
60
0
100
AcDbLine
10
121.8
20
40
30
0
11
168.75
21
40
31
0
39
0
210
0
220
0
230
1
0
LINE
5
10F
100
AcDbEntity
8
SK2
62
256
6
ByLayer
370
13
48
1
60
0
100
AcDbLine
10
166.75
20
-23
30
0
11
166.75
21
40
31
0
39
0
210
0
220
0
230
1
0
SOLID
5
110
100
AcDbEntity
8
SK2
62
256
6
ByLayer
370
13
48
1
60
0
100
AcDbTrace
10
166.75
20
-23
30
0
11
166.332003
21
-19.825002
31
0
12
167.167997
22
-19.824998
32
0
13
166.75
23
-23
33
0
39
0
210
0
220
0
230
1
0
SOLID
5
111
100
AcDbEntity
8
SK2
62
256
6
ByLayer
370
13
48
1
60
0
100
AcDbTrace
10
166.75
20
40
30
0
11
167.167997
21
36.825002
31
0
12
166.332003
22
36.824998
32
0
13
166.75
23
40
33
0
39
0
210
0
220
0
230
1
0
ENDBLK
5
113
100
AcDbEntity
8
0
100
AcDbBlockEnd
0
ENDSEC
0
SECTION
2
ENTITIES
0
ELLIPSE
5
AF
100
AcDbEntity
8
1
62
256
6
ByLayer
370
18
48
1
60
0
100
AcDbEllipse
10
30.763884
20
0
30
0
11
-18.7348357595618
21
39.4834983054974
31
0
210
0
220
0
230
-1
40
0.341999
41
-1.08794676716935
42
-0.161099005228948
0
ELLIPSE
5
B0
100
AcDbEntity
8
1
62
256
6
ByLayer
370
18
48
1
60
0
100
AcDbEllipse
10
-6.763884
20
0
30
0
11
18.7348357595606
21
39.4834983054962
31
0
210
0
220
0
230
-1
40
0.341999
41
0.161099005228954
42
1.08794676716938
0
ELLIPSE
5
B1
100
AcDbEntity
8
1
62
256
6
ByLayer
370
18
48
1
60
0
100
AcDbEllipse
10
-6.763884
20
0
30
0
11
-18.7348357595632
21
39.4834983054996
31
0
210
0
220
0
230
-1
40
0.341999
41
2.05364588642048
42
2.98049364836084
0
ELLIPSE
5
B2
100
AcDbEntity
8
1
62
256
6
ByLayer
370
18
48
1
60
0
100
AcDbEllipse
10
30.763884
20
0
30
0
11
18.7348357595626
21
39.4834983054985
31
0
210
0
220
0
230
-1
40
0.341999
41
-2.98049364836084
42
-2.05364588642046
0
POINT
5
6C
100
AcDbEntity
8
80
62
256
6
ByLayer
370
13
48
1
60
0
100
AcDbPoint
10
0
20
0
30
0
39
0
210
0
220
0
230
1
50
360
0
POINT
5
6E
100
AcDbEntity
8
81
62
256
6
ByLayer
370
13
48
1
60
0
100
AcDbPoint
10
120
20
8.5
30
0
39
0
210
0
220
0
230
1
50
360
0
POINT
5
70
100
AcDbEntity
8
1
62
256
6
ByLayer
370
13
48
1
60
1
100
AcDbPoint
10
276.426281
20
175.173124
30
0
39
0
210
0
220
0
230
1
50
360
0
POINT
5
72
100
AcDbEntity
8
1
62
256
6
ByLayer
370
13
48
1
60
1
100
AcDbPoint
10
187.663825
20
175.173124
30
0
39
0
210
0
220
0
230
1
50
360
0
POINT
5
73
100
AcDbEntity
8
1
62
256
6
ByLayer
370
13
48
1
60
1
100
AcDbPoint
10
223.924544
20
165.173124
30
0
39
0
210
0
220
0
230
1
50
360
0
POINT
5
74
100
AcDbEntity
8
1
62
256
6
ByLayer
370
13
48
1
60
1
100
AcDbPoint
10
287.363825
20
165.173124
30
0
39
0
210
0
220
0
230
1
50
360
0
POINT
5
75
100
AcDbEntity
8
1
62
256
6
ByLayer
370
18
48
1
60
1
100
AcDbPoint
10
278.863825
20
196.673124
30
0
39
0
210
0
220
0
230
1
50
360
0
POINT
5
76
100
AcDbEntity
8
1
62
256
6
ByLayer
370
18
48
1
60
1
100
AcDbPoint
10
278.863825
20
133.673124
30
0
39
0
210
0
220
0
230
1
50
360
0
POINT
5
77
100
AcDbEntity
8
1
62
256
6
ByLayer
370
13
48
1
60
1
100
AcDbPoint
10
163.741873
20
151.064532
30
0
39
0
210
0
220
0
230
1
50
360
0
POINT
5
78
100
AcDbEntity
8
1
62
256
6
ByLayer
370
13
48
1
60
1
100
AcDbPoint
10
163.741873
20
151.064532
30
0
39
0
210
0
220
0
230
1
50
360
0
POINT
5
79
100
AcDbEntity
8
1
62
256
6
ByLayer
370
13
48
1
60
1
100
AcDbPoint
10
163.741873
20
151.064532
30
0
39
0
210
0
220
0
230
1
50
360
0
SPLINE
5
B3
100
AcDbEntity
8
1
62
256
6
ByLayer
370
18
48
1
60
1
100
AcDbSpline
70
4
71
3
72
11
73
7
40
0
40
0
40
0
40
0
40
0.264736090039167
40
0.505383016247574
40
0.746029942455982
40
1
40
1
40
1
40
1
41
1
10
-414.778517083935
20
873.157104635017
30
-2.38
41
1
10
-414.811380267814
20
873.134093585935
30
-2.16997603523559
41
1
10
-414.874116311811
20
873.090165335011
30
-1.76903884234585
41
1
10
-414.966725215926
20
873.025319882244
30
-1.17718842133077
41
1
10
-415.05799767171
20
872.961410220673
30
-0.593879052761846
41
1
10
-415.119397267377
20
872.918417760945
30
-0.201482912318254
41
1
10
-415.150924002925
20
872.896342503058
30
0
0
SPLINE
5
B4
100
AcDbEntity
8
1
62
256
6
ByLayer
370
18
48
1
60
1
100
AcDbSpline
70
4
71
3
72
11
73
7
40
0
40
0
40
0
40
0
40
0.264736090039167
40
0.505383016247574
40
0.746029942455982
40
1
40
1
40
1
40
1
41
1
10
-407.431053779592
20
878.301853827437
30
-2.38
41
1
10
-407.398190595713
20
878.324864876519
30
-2.16997603523559
41
1
10
-407.335454551716
20
878.368793127443
30
-1.76903884234585
41
1
10
-407.242845647601
20
878.433638580209
30
-1.17718842133077
41
1
10
-407.151573191817
20
878.49754824178
30
-0.593879052761846
41
1
10
-407.090173596151
20
878.540540701509
30
-0.201482912318254
41
1
10
-407.058646860602
20
878.562615959395
30
0
0
SPLINE
5
B5
100
AcDbEntity
8
1
62
256
6
ByLayer
370
18
48
1
60
1
100
AcDbSpline
70
4
71
3
72
13
73
9
40
0
40
0
40
0
40
0
40
0.194056351224286
40
0.368982012730964
40
0.500176258860972
40
0.63137050499098
40
0.806296166497658
40
1
40
1
40
1
40
1
41
1
10
-413.263264006694
20
878.812106105608
30
-2.38
41
1
10
-413.27741753311
20
878.832319436149
30
-2.22604862802873
41
1
10
-413.304329286483
20
878.870753403086
30
-1.93332289792884
41
1
10
-413.340809710072
20
878.92285284732
30
-1.53651639923246
41
1
10
-413.372705277461
20
878.968404438311
30
-1.18958050391089
41
1
10
-413.404600844851
20
879.013956029301
30
-0.84264460858931
41
1
10
-413.441055557512
20
879.066018754525
30
-0.446117773952347
41
1
10
-413.467941599956
20
879.104416002451
30
-0.153671707911858
41
1
10
-413.482069415445
20
879.124592613981
30
0
0
SPLINE
5
B6
100
AcDbEntity
8
1
62
256
6
ByLayer
370
18
48
1
60
1
100
AcDbSpline
70
4
71
3
72
13
73
9
40
0
40
0
40
0
40
0
40
0.194056351224286
40
0.368982012730964
40
0.500176258860972
40
0.63137050499098
40
0.806296166497658
40
1
40
1
40
1
40
1
41
1
10
-408.946306856834
20
872.646852356845
30
-2.38
41
1
10
-408.932153330417
20
872.626639026305
30
-2.22604862802873
41
1
10
-408.905241577045
20
872.588205059368
30
-1.93332289792884
41
1
10
-408.868761153456
20
872.536105615134
30
-1.53651639923246
41
1
10
-408.836865586066
20
872.490554024143
30
-1.18958050391089
41
1
10
-408.804970018677
20
872.445002433152
30
-0.84264460858931
41
1
10
-408.768515306016
20
872.392939707929
30
-0.446117773952347
41
1
10
-408.741629263572
20
872.354542460003
30
-0.153671707911858
41
1
10
-408.727501448083
20
872.334365848473
30
0
0
SPLINE
5
B7
100
AcDbEntity
8
1
62
256
6
ByLayer
370
18
48
1
60
1
100
AcDbSpline
70
4
71
3
72
11
73
7
40
0
40
0
40
0
40
0
40
0.264736090039167
40
0.505383016247574
40
0.746029942455982
40
1
40
1
40
1
40
1
41
1
10
-428.7908907235
20
879.333951406164
30
-2.7260753721363
41
1
10
-428.746836858612
20
879.372452995544
30
-2.52041437045278
41
1
10
-428.66273772762
20
879.445952794415
30
-2.12780610408481
41
1
10
-428.538593330525
20
879.554450802774
30
-1.54825057303238
41
1
10
-428.416240473605
20
879.661383065556
30
-0.977058665642987
41
1
10
-428.333932882788
20
879.733317118847
30
-0.592814022938045
41
1
10
-428.291670558074
20
879.77025296265
30
-0.39551664491756
0
SPLINE
5
B8
100
AcDbEntity
8
1
62
256
6
ByLayer
370
18
48
1
60
1
100
AcDbSpline
70
4
71
3
72
11
73
7
40
0
40
0
40
0
40
0
40
0.264736090039167
40
0.505383016247574
40
0.746029942455982
40
1
40
1
40
1
40
1
41
1
10
-433.89928183315
20
871.996230220737
30
-2.00784884981668
41
1
10
-433.900924827004
20
871.96909259
30
-1.79576298847968
41
1
10
-433.904061313567
20
871.917286666321
30
-1.39088962085497
41
1
10
-433.908691292841
20
871.840812449701
30
-0.793228746942546
41
1
10
-433.913254456422
20
871.765441840126
30
-0.204192776701463
41
1
10
-433.916324127293
20
871.714739523494
30
0.192055687251906
41
1
10
-433.917900305453
20
871.688705499804
30
0.395516644917561
0
SPLINE
5
B9
100
AcDbEntity
8
1
62
256
6
ByLayer
370
18
48
1
60
1
100
AcDbSpline
70
4
71
3
72
13
73
9
40
0
40
0
40
0
40
0
40
0.194056351224286
40
0.368982012730964
40
0.500176258860972
40
0.63137050499098
40
0.806296166497658
40
1
40
1
40
1
40
1
41
1
10
-428.275259052307
20
873.503182583078
30
-2.61980951740564
41
1
10
-428.239585682835
20
873.493171561608
30
-2.46835947239721
41
1
10
-428.171755737638
20
873.474136436871
30
-2.1803898074888
41
1
10
-428.079808360648
20
873.448333234684
30
-1.79003042765541
41
1
10
-427.999416921336
20
873.425772976517
30
-1.44873137790546
41
1
10
-427.919025482024
20
873.40321271835
30
-1.10743232815552
41
1
10
-427.827142908349
20
873.377427701924
30
-0.717348068536015
41
1
10
-427.759377766467
20
873.358410762948
30
-0.429653523841492
41
1
10
-427.723769200311
20
873.348417927239
30
-0.278478599046945
0
SPLINE
5
BA
100
AcDbEntity
8
1
62
256
6
ByLayer
370
18
48
1
60
1
100
AcDbSpline
70
4
71
3
72
13
73
9
40
0
40
0
40
0
40
0
40
0.194056351224286
40
0.368982012730964
40
0.500176258860972
40
0.63137050499098
40
0.806296166497658
40
1
40
1
40
1
40
1
41
1
10
-434.414913504343
20
877.826999043823
30
-2.11411470454734
41
1
10
-434.419498936828
20
877.845340052903
30
-1.95934872906095
41
1
10
-434.428217755341
20
877.880213956298
30
-1.66507409812534
41
1
10
-434.440036613376
20
877.92748753043
30
-1.2661679756028
41
1
10
-434.450370078446
20
877.968819766219
30
-0.917396336979738
41
1
10
-434.460703543516
20
878.010152002007
30
-0.568624698356674
41
1
10
-434.472514071773
20
878.057392258339
30
-0.169999719681113
41
1
10
-434.481224560509
20
878.092232843935
30
0.123993767407529
41
1
10
-434.485801663216
20
878.110540535215
30
0.278478599046944
0
SPLINE
5
BB
100
AcDbEntity
8
1
62
256
6
ByLayer
370
18
48
1
60
1
100
AcDbSpline
70
4
71
3
72
11
73
7
40
0
40
0
40
0
40
0
40
0.264736090039167
40
0.505383016247574
40
0.746029942455982
40
1
40
1
40
1
40
1
41
1
10
-343.967257520151
20
1505.05327841336
30
-2.38
41
1
10
-344.00012070403
20
1505.03026736428
30
-2.16997603523559
41
1
10
-344.062856748027
20
1504.98633911335
30
-1.76903884234585
41
1
10
-344.155465652142
20
1504.92149366059
30
-1.17718842133077
41
1
10
-344.246738107926
20
1504.85758399902
30
-0.593879052761846
41
1
10
-344.308137703593
20
1504.81459153929
30
-0.201482912318254
41
1
10
-344.339664439141
20
1504.7925162814
30
0
0
SPLINE
5
BC
100
AcDbEntity
8
1
62
256
6
ByLayer
370
18
48
1
60
1
100
AcDbSpline
70
4
71
3
72
11
73
7
40
0
40
0
40
0
40
0
40
0.264736090039167
40
0.505383016247574
40
0.746029942455982
40
1
40
1
40
1
40
1
41
1
10
-336.619794215808
20
1510.19802760578
30
-2.38
41
1
10
-336.586931031929
20
1510.22103865486
30
-2.16997603523559
41
1
10
-336.524194987932
20
1510.26496690579
30
-1.76903884234585
41
1
10
-336.431586083817
20
1510.32981235855
30
-1.17718842133077
41
1
10
-336.340313628033
20
1510.39372202012
30
-0.593879052761846
41
1
10
-336.278914032366
20
1510.43671447985
30
-0.201482912318254
41
1
10
-336.247387296818
20
1510.45878973774
30
0
0
SPLINE
5
BD
100
AcDbEntity
8
1
62
256
6
ByLayer
370
18
48
1
60
1
100
AcDbSpline
70
4
71
3
72
13
73
9
40
0
40
0
40
0
40
0
40
0.194056351224286
40
0.368982012730964
40
0.500176258860972
40
0.63137050499098
40
0.806296166497658
40
1
40
1
40
1
40
1
41
1
10
-342.452004442909
20
1510.70827988395
30
-2.38
41
1
10
-342.466157969326
20
1510.72849321449
30
-2.22604862802873
41
1
10
-342.493069722699
20
1510.76692718143
30
-1.93332289792884
41
1
10
-342.529550146288
20
1510.81902662566
30
-1.53651639923246
41
1
10
-342.561445713677
20
1510.86457821665
30
-1.18958050391089
41
1
10
-342.593341281066
20
1510.91012980765
30
-0.84264460858931
41
1
10
-342.629795993727
20
1510.96219253287
30
-0.446117773952347
41
1
10
-342.656682036172
20
1511.00058978079
30
-0.153671707911858
41
1
10
-342.670809851661
20
1511.02076639232
30
0
0
SPLINE
5
BE
100
AcDbEntity
8
1
62
256
6
ByLayer
370
18
48
1
60
1
100
AcDbSpline
70
4
71
3
72
13
73
9
40
0
40
0
40
0
40
0
40
0.194056351224286
40
0.368982012730964
40
0.500176258860972
40
0.63137050499098
40
0.806296166497658
40
1
40
1
40
1
40
1
41
1
10
-338.13504729305
20
1504.54302613519
30
-2.38
41
1
10
-338.120893766633
20
1504.52281280465
30
-2.22604862802873
41
1
10
-338.09398201326
20
1504.48437883771
30
-1.93332289792884
41
1
10
-338.057501589671
20
1504.43227939348
30
-1.53651639923246
41
1
10
-338.025606022282
20
1504.38672780249
30
-1.18958050391089
41
1
10
-337.993710454893
20
1504.3411762115
30
-0.84264460858931
41
1
10
-337.957255742232
20
1504.28911348627
30
-0.446117773952347
41
1
10
-337.930369699787
20
1504.25071623835
30
-0.153671707911858
41
1
10
-337.916241884298
20
1504.23053962682
30
0
0
SPLINE
5
BF
100
AcDbEntity
8
1
62
256
6
ByLayer
370
18
48
1
60
1
100
AcDbSpline
70
4
71
3
72
11
73
7
40
0
40
0
40
0
40
0
40
0.264736090039167
40
0.505383016247574
40
0.746029942455982
40
1
40
1
40
1
40
1
41
1
10
-357.979631159715
20
1511.23012518451
30
-2.7260753721363
41
1
10
-357.935577294827
20
1511.26862677389
30
-2.52041437045278
41
1
10
-357.851478163836
20
1511.34212657276
30
-2.12780610408481
41
1
10
-357.727333766741
20
1511.45062458112
30
-1.54825057303238
41
1
10
-357.60498090982
20
1511.5575568439
30
-0.977058665642987
41
1
10
-357.522673319003
20
1511.62949089719
30
-0.592814022938045
41
1
10
-357.48041099429
20
1511.66642674099
30
-0.39551664491756
0
SPLINE
5
C0
100
AcDbEntity
8
1
62
256
6
ByLayer
370
18
48
1
60
1
100
AcDbSpline
70
4
71
3
72
11
73
7
40
0
40
0
40
0
40
0
40
0.264736090039167
40
0.505383016247574
40
0.746029942455982
40
1
40
1
40
1
40
1
41
1
10
-363.088022269366
20
1503.89240399908
30
-2.00784884981668
41
1
10
-363.089665263219
20
1503.86526636834
30
-1.79576298847968
41
1
10
-363.092801749783
20
1503.81346044467
30
-1.39088962085497
41
1
10
-363.097431729056
20
1503.73698622804
30
-0.793228746942546
41
1
10
-363.101994892637
20
1503.66161561847
30
-0.204192776701463
41
1
10
-363.105064563508
20
1503.61091330184
30
0.192055687251906
41
1
10
-363.106640741669
20
1503.58487927815
30
0.395516644917561
0
SPLINE
5
C1
100
AcDbEntity
8
1
62
256
6
ByLayer
370
18
48
1
60
1
100
AcDbSpline
70
4
71
3
72
13
73
9
40
0
40
0
40
0
40
0
40
0.194056351224286
40
0.368982012730964
40
0.500176258860972
40
0.63137050499098
40
0.806296166497658
40
1
40
1
40
1
40
1
41
1
10
-357.463999488523
20
1505.39935636142
30
-2.61980951740564
41
1
10
-357.428326119051
20
1505.38934533995
30
-2.46835947239721
41
1
10
-357.360496173854
20
1505.37031021521
30
-2.1803898074888
41
1
10
-357.268548796864
20
1505.34450701303
30
-1.79003042765541
41
1
10
-357.188157357552
20
1505.32194675486
30
-1.44873137790546
41
1
10
-357.107765918239
20
1505.29938649669
30
-1.10743232815552
41
1
10
-357.015883344564
20
1505.27360148027
30
-0.717348068536015
41
1
10
-356.948118202683
20
1505.25458454129
30
-0.429653523841492
41
1
10
-356.912509636527
20
1505.24459170558
30
-0.278478599046945
0
SPLINE
5
C2
100
AcDbEntity
8
1
62
256
6
ByLayer
370
18
48
1
60
1
100
AcDbSpline
70
4
71
3
72
13
73
9
40
0
40
0
40
0
40
0
40
0.194056351224286
40
0.368982012730964
40
0.500176258860972
40
0.63137050499098
40
0.806296166497658
40
1
40
1
40
1
40
1
41
1
10
-363.603653940558
20
1509.72317282217
30
-2.11411470454734
41
1
10
-363.608239373044
20
1509.74151383125
30
-1.95934872906095
41
1
10
-363.616958191557
20
1509.77638773464
30
-1.66507409812534
41
1
10
-363.628777049591
20
1509.82366130877
30
-1.2661679756028
41
1
10
-363.639110514662
20
1509.86499354456
30
-0.917396336979738
41
1
10
-363.649443979731
20
1509.90632578035
30
-0.568624698356674
41
1
10
-363.661254507988
20
1509.95356603668
30
-0.169999719681113
41
1
10
-363.669964996724
20
1509.98840662228
30
0.123993767407529
41
1
10
-363.674542099432
20
1510.00671431356
30
0.278478599046944
0
SPLINE
5
C3
100
AcDbEntity
8
SK1
62
256
6
ByLayer
370
18
48
1
60
0
100
AcDbSpline
70
4
71
2
72
6
73
3
40
0
40
0
40
0
40
1
40
1
40
1
41
1
10
-46.5000001
20
26.4069955837556
30
1E-16
41
1
10
-47.2500000497395
20
25.9739910261881
30
-4E-16
41
1
10
-48.0000000000001
20
25.5409864408732
30
0
0
SPLINE
5
C4
100
AcDbEntity
8
SK1
62
256
6
ByLayer
370
18
48
1
60
0
100
AcDbSpline
70
4
71
2
72
6
73
3
40
0
40
0
40
0
40
1
40
1
40
1
41
1
10
-48.0000000000001
20
-25.5409864408732
30
-3E-16
41
1
10
-47.2500000497395
20
-25.9739910261881
30
1E-16
41
1
10
-46.5000001
20
-26.4069955837556
30
-4E-16
0
SPLINE
5
C5
100
AcDbEntity
8
SK1
62
256
6
ByLayer
370
18
48
1
60
0
100
AcDbSpline
70
4
71
2
72
6
73
3
40
0
40
0
40
0
40
1
40
1
40
1
41
1
10
-1.99993701093305
20
27.5112040202267
30
-1E-16
41
1
10
-24.2499685554619
20
26.9524858176161
30
-4E-16
41
1
10
-46.5000001
20
26.3937674352006
30
1E-16
0
SPLINE
5
C6
100
AcDbEntity
8
SK1
62
256
6
ByLayer
370
18
48
1
60
0
100
AcDbSpline
70
4
71
2
72
6
73
3
40
0
40
0
40
0
40
1
40
1
40
1
41
1
10
-46.5000001
20
-26.3937674352006
30
-4E-16
41
1
10
-24.2499685554619
20
-26.9524858176161
30
4E-16
41
1
10
-1.99993701093305
20
-27.5112040202267
30
3E-16
0
SPLINE
5
C7
100
AcDbEntity
8
SK1
62
256
6
ByLayer
370
18
48
1
60
0
100
AcDbSpline
70
4
71
3
72
13
73
9
40
0
40
0
40
0
40
0
40
0.239458241268496
40
0.368362536318642
40
0.500002060578917
40
0.631641241907322
40
0.76054459153826
40
1
40
1
40
1
40
1
41
1
10
-1.79497698875898
20
27.3302129674589
30
4E-16
41
1
10
-1.8210473043244
20
27.329811321019
30
4E-16
41
1
10
-1.85877762411116
20
27.3359835376882
30
-4E-16
41
1
10
-1.90621411706084
20
27.3590271876185
30
-4E-16
41
1
10
-1.93880077784317
20
27.3841943907283
30
-3E-16
41
1
10
-1.96557291799152
20
27.415475741267
30
-2E-16
41
1
10
-1.99096984076016
20
27.4616946074942
30
-1E-16
41
1
10
-1.99902898608036
20
27.4990669675907
30
-1E-16
41
1
10
-1.99993701093305
20
27.5251242927964
30
-1E-16
0
SPLINE
5
C8
100
AcDbEntity
8
SK1
62
256
6
ByLayer
370
18
48
1
60
0
100
AcDbSpline
70
4
71
3
72
13
73
9
40
0
40
0
40
0
40
0
40
0.239455408461756
40
0.36835875809268
40
0.499997939421081
40
0.631637463681358
40
0.760541758731509
40
1
40
1
40
1
40
1
41
1
10
-1.99993701093305
20
-27.5251242927964
30
3E-16
41
1
10
-1.99902898608036
20
-27.4990669675907
30
3E-16
41
1
10
-1.99096984076016
20
-27.4616946074942
30
4E-16
41
1
10
-1.96557291799152
20
-27.415475741267
30
4E-16
41
1
10
-1.93880077784317
20
-27.3841943907283
30
4E-16
41
1
10
-1.90621411706084
20
-27.3590271876185
30
4E-16
41
1
10
-1.85877762411116
20
-27.3359835376882
30
4E-16
41
1
10
-1.8210473043244
20
-27.329811321019
30
3E-16
41
1
10
-1.79497698875895
20
-27.3302129674589
30
3E-16
0
SPLINE
5
C9
100
AcDbEntity
8
SK1
62
256
6
ByLayer
370
18
48
1
60
0
100
AcDbSpline
70
4
71
2
72
6
73
3
40
0
40
0
40
0
40
1
40
1
40
1
41
1
10
-0.19491389969204
20
27.3576379530093
30
3E-16
41
1
10
-0.994945444225493
20
27.3375476912569
30
3E-16
41
1
10
-1.79497698875895
20
27.3174574292974
30
4E-16
0
SPLINE
5
CA
100
AcDbEntity
8
SK1
62
256
6
ByLayer
370
18
48
1
60
0
100
AcDbSpline
70
4
71
2
72
6
73
3
40
0
40
0
40
0
40
1
40
1
40
1
41
1
10
-1.79497698875895
20
-27.3174574292974
30
3E-16
41
1
10
-0.994945444225493
20
-27.3375476912569
30
2E-16
41
1
10
-0.19491389969204
20
-27.3576379530093
30
2E-16
0
SPLINE
5
CB
100
AcDbEntity
8
SK1
62
256
6
ByLayer
370
18
48
1
60
0
100
AcDbSpline
70
4
71
3
72
11
73
7
40
0
40
0
40
0
40
0
40
0.233610379315133
40
0.485122841879598
40
0.74457838534352
40
1
40
1
40
1
40
1
41
1
10
-0.19491389969204
20
-27.3704064601496
30
1E-16
41
1
10
-0.175857240733222
20
-27.3709884225321
30
1E-16
41
1
10
-0.138130570198172
20
-27.3772092104923
30
1E-16
41
1
10
-0.0840044064534595
20
-27.403480825252
30
0
41
1
10
-0.0390854528053239
20
-27.4462765373767
30
-1E-16
41
1
10
-0.0195417489039755
20
-27.4818039558034
30
-2E-16
41
1
10
-0.0121890295235403
20
-27.5014168083454
30
-2E-16
0
SPLINE
5
CC
100
AcDbEntity
8
1
62
256
6
ByLayer
370
18
48
1
60
0
100
AcDbSpline
70
4
71
3
72
9
73
5
40
0
40
0
40
0
40
0
40
0.992078294151055
40
1
40
1
40
1
40
1
41
1
10
-0.0298366491182094
20
-27.4557771179995
30
-2E-16
41
1
10
-0.0249120814858657
20
-27.4749943713184
30
-2E-16
41
1
10
-0.0206745135602091
20
-27.4839282481973
30
-2E-16
41
1
10
-0.0171931461003112
20
-27.4827590440588
30
-2E-16
41
1
10
-0.0171656151428863
20
-27.4827491472265
30
-2E-16
0
SPLINE
5
CD
100
AcDbEntity
8
1
62
256
6
ByLayer
370
18
48
1
60
0
100
AcDbSpline
70
4
71
1
72
4
73
2
40
0
40
0
40
1
40
1
41
1
10
-0.0027608435353272
20
5.86599672684929
30
-2E-16
41
1
10
-0.0027608434005231
20
6.04586777651434
30
0
0
SPLINE
5
CE
100
AcDbEntity
8
1
62
256
6
ByLayer
370
18
48
1
60
0
100
AcDbSpline
70
4
71
3
72
11
73
7
40
0
40
0
40
0
40
0
40
0.255421625065726
40
0.514877231765331
40
0.766389719511724
40
1
40
1
40
1
40
1
41
1
10
-0.0121890295235403
20
27.501416400915
30
3E-16
41
1
10
-0.0195417506324134
20
27.4818035802092
30
2E-16
41
1
10
-0.0390854569583041
20
27.4462762235326
30
2E-16
41
1
10
-0.0840044038124859
20
27.4034806180785
30
2E-16
41
1
10
-0.138130554333515
20
27.3772091010133
30
3E-16
41
1
10
-0.175857236751767
20
27.3709883820437
30
3E-16
41
1
10
-0.19491389969204
20
27.3704064518942
30
3E-16
0
SPLINE
5
CF
100
AcDbEntity
8
SK1
62
256
6
ByLayer
370
18
48
1
60
0
100
AcDbSpline
70
4
71
3
72
28
73
24
40
0
40
0
40
0
40
0
40
0.125
40
0.125
40
0.25
40
0.25
40
0.3125
40
0.3125
40
0.343749999999999
40
0.343749999999999
40
0.374999999999999
40
0.374999999999999
40
0.499999999999999
40
0.499999999999999
40
0.624999999999999
40
0.624999999999999
40
0.6875
40
0.6875
40
0.75
40
0.75
40
0.875
40
0.875
40
1
40
1
40
1
40
1
41
1
10
-1.30710678118652
20
4.39323590818168
30
-4E-16
41
1
10
-1.36955455589623
20
4.04041740427519
30
-8E-16
41
1
10
-1.42789525578226
20
3.68464721550728
30
-1.1E-15
41
1
10
-1.53333120698079
20
2.96613022308353
30
1.7E-15
41
1
10
-1.58043158859294
20
2.60338596250929
30
1.3E-15
41
1
10
-1.63962305036174
20
2.05292544018039
30
8E-16
41
1
10
-1.65743459464349
20
1.86837752769594
30
6E-16
41
1
10
-1.6808294799724
20
1.58979608890033
30
3E-16
41
1
10
-1.68807365734978
20
1.49664216909596
30
2E-16
41
1
10
-1.70137753661635
20
1.30971808064115
30
0
41
1
10
-1.70743982085398
20
1.21587690417886
30
-1E-16
41
1
10
-1.73448183497951
20
0.74739907247789
30
-6E-16
41
1
10
-1.74566653628162
20
0.373309428388751
30
-1.1E-15
41
1
10
-1.74566425630226
20
-0.373424955644282
30
1.6E-15
41
1
10
-1.73448288920079
20
-0.746069973189122
30
1.2E-15
41
1
10
-1.70238902301608
20
-1.30402182378066
30
5E-16
41
1
10
-1.68916317457203
20
-1.48983762295387
30
2E-16
41
1
10
-1.65809969652912
20
-1.86115285473548
30
-2E-16
41
1
10
-1.64022890153709
20
-2.04692997241074
30
-5E-16
41
1
10
-1.58088138326579
20
-2.59991059472833
30
-1.2E-15
41
1
10
-1.53364869367604
20
-2.96385300386461
30
-1.7E-15
41
1
10
-1.42800287730384
20
-3.68402698297456
30
9E-16
41
1
10
-1.36958328491289
20
-4.04025509058644
30
4E-16
41
1
10
-1.30710678118652
20
-4.39323590818174
30
-1E-16
0
SPLINE
5
D0
100
AcDbEntity
8
SK1
62
256
6
ByLayer
370
18
48
1
60
0
100
AcDbSpline
70
4
71
3
72
188
73
184
40
0
40
0
40
0
40
0
40
0.0021277344377675
40
0.0071394134317349
40
0.0123012373122156
40
0.0176125884917624
40
0.0230724395389965
40
0.0286793559947259
40
0.0344315003036971
40
0.0403266368512075
40
0.0463621380907679
40
0.0525349917460268
40
0.0588418090672094
40
0.0652788341194454
40
0.0718419540775258
40
0.0785267104988686
40
0.0853283115438034
40
0.0922416451096681
40
0.0992612928427284
40
0.106381544989508
40
0.113596416046826
40
0.120899661167645
40
0.128284793277762
40
0.135745100856431
40
0.143273666332171
40
0.150863385043349
40
0.158506984711567
40
0.166197045374468
40
0.173926019723337
40
0.181686253789753
40
0.189470007924582
40
0.197269478011815
40
0.205076816859113
40
0.212884155706411
40
0.220683625793645
40
0.228467379928473
40
0.23622761399489
40
0.243956588343759
40
0.25164664900666
40
0.259290248674877
40
0.266879967386056
40
0.274408532861795
40
0.281868840440464
40
0.289253972550582
40
0.296557217671401
40
0.303772088728718
40
0.310892340875498
40
0.317911988608558
40
0.324825322174423
40
0.331626923219358
40
0.338311679640701
40
0.34487479959878
40
0.351311824651017
40
0.357618641972199
40
0.363791495627458
40
0.369826996867018
40
0.375722133414528
40
0.3814742777235
40
0.387081194179229
40
0.392541045226463
40
0.39785239640601
40
0.403014220286491
40
0.408025899280458
40
0.412887227337162
40
0.417598410507317
40
0.422160066378336
40
0.426573222381562
40
0.430839312976151
40
0.434960175717324
40
0.438938046219747
40
0.442775552029874
40
0.446475705424023
40
0.450041895151934
40
0.453477877148445
40
0.456787764238733
40
0.459976014865349
40
0.463047420867935
40
0.466007094349128
40
0.468860453662639
40
0.471613208561926
40
0.474271344550157
40
0.47684110647436
40
0.479328981408737
40
0.48174168087404
40
0.484086122441765
40
0.486369410773567
40
0.488598818147879
40
0.490781764527098
40
0.492925797219991
40
0.495038570195038
40
0.497127823101442
40
0.499201360055284
40
0.501267028248981
40
0.503332696442678
40
0.505406233396519
40
0.507495486302924
40
0.509608259277971
40
0.511752291970863
40
0.513935238350083
40
0.516164645724394
40
0.518447934056197
40
0.520792375623922
40
0.523205075089226
40
0.525692950023602
40
0.528262711947805
40
0.530920847936036
40
0.533673602835323
40
0.536526962148834
40
0.539486635630027
40
0.542558041632613
40
0.545746292259229
40
0.549056179349517
40
0.552492161346028
40
0.556058351073939
40
0.559758504468088
40
0.563596010278215
40
0.567573880780638
40
0.571694743521811
40
0.575960834116401
40
0.580373990119627
40
0.584935645990645
40
0.5896468291608
40
0.594508157217504
40
0.599519836211472
40
0.604681660091952
40
0.609993011271499
40
0.615452862318733
40
0.621059778774463
40
0.626811923083434
40
0.632707059630944
40
0.638742560870504
40
0.644915414525763
40
0.651222231846946
40
0.657659256899182
40
0.664222376857262
40
0.670907133278605
40
0.67770873432354
40
0.684622067889405
40
0.691641715622466
40
0.698761967769245
40
0.705976838826563
40
0.713280083947382
40
0.720665216057499
40
0.728125523636168
40
0.735654089111908
40
0.743243807823086
40
0.750887407491304
40
0.758577468154205
40
0.766306442503074
40
0.77406667656949
40
0.781850430704319
40
0.789649900791552
40
0.79745723963885
40
0.805264578486149
40
0.813064048573382
40
0.820847802708211
40
0.828608036774627
40
0.836337011123496
40
0.844027071786397
40
0.851670671454615
40
0.859260390165793
40
0.866788955641533
40
0.874249263220202
40
0.881634395330319
40
0.888937640451138
40
0.896152511508456
40
0.903272763655235
40
0.910292411388295
40
0.91720574495416
40
0.924007345999096
40
0.930692102420438
40
0.937255222378518
40
0.943692247430755
40
0.949999064751937
40
0.956171918407196
40
0.962207419646756
40
0.968102556194266
40
0.973854700503238
40
0.979461616958967
40
0.984921468006201
40
0.990232819185748
40
0.995394643066229
40
1
40
1
40
1
40
1
41
1
10
-48
20
-25.5404042919761
30
-3E-16
41
1
10
-48
20
-25.5408881139988
30
-3E-16
41
1
10
-48
20
-25.541694093906
30
-3E-16
41
1
10
-48
20
-25.5384104654396
30
-3E-16
41
1
10
-48
20
-25.5261085293141
30
-3E-16
41
1
10
-48
20
-25.5050155777571
30
-3E-16
41
1
10
-48
20
-25.4746377686082
30
-3E-16
41
1
10
-48
20
-25.4344928679074
30
-2E-16
41
1
10
-48
20
-25.384113253232
30
-2E-16
41
1
10
-48
20
-25.3230488536802
30
-1E-16
41
1
10
-48
20
-25.2508700114084
30
0
41
1
10
-48
20
-25.1671702500157
30
1E-16
41
1
10
-48
20
-25.0715689355232
30
0
41
1
10
-48
20
-24.9637138162256
30
0
41
1
10
-48
20
-24.8432834282835
30
0
41
1
10
-48
20
-24.7099893545887
30
0
41
1
10
-48
20
-24.5635783251511
30
-1E-16
41
1
10
-48
20
-24.4038341480402
30
1E-16
41
1
10
-48
20
-24.2305794607424
30
-1E-16
41
1
10
-48
20
-24.0436772926825
30
1E-16
41
1
10
-48
20
-23.843032430587
30
-1E-16
41
1
10
-48
20
-23.6285925793343
30
1E-16
41
1
10
-48
20
-23.4003493119502
30
4E-16
41
1
10
-48
20
-23.1583388034392
30
-2E-16
41
1
10
-48
20
-22.9026423442147
30
1E-16
41
1
10
-48
20
-22.6333866299719
30
4E-16
41
1
10
-48
20
-22.3507438259566
30
-2E-16
41
1
10
-48
20
-22.0549314046898
30
2E-16
41
1
10
-48
20
-21.7462117573356
30
6E-16
41
1
10
-48
20
-21.4248915800098
30
-8E-16
41
1
10
-48
20
-21.0913210374477
30
-5E-16
41
1
10
-48
20
-20.7458927075456
30
0
41
1
10
-48
20
-20.3890403113797
30
4E-16
41
1
10
-48
20
-20.0212372343682
30
8E-16
41
1
10
-48
20
-19.6429948452788
30
-5E-16
41
1
10
-48
20
-19.25486062079
30
-1E-16
41
1
10
-48
20
-18.8574160842791
30
4E-16
41
1
10
-48
20
-18.451274568438
30
9E-16
41
1
10
-48
20
-18.0370788121967
30
-4E-16
41
1
10
-48
20
-17.6154984032615
30
1E-16
41
1
10
-48
20
-17.187227078352
30
6E-16
41
1
10
-48
20
-16.7529798939314
30
1.1E-15
41
1
10
-48
20
-16.3134902808857
30
1.6E-15
41
1
10
-48
20
-15.8695069971876
30
-1.4E-15
41
1
10
-48
20
-15.4217909931064
30
-9E-16
41
1
10
-48
20
-14.9711122039731
30
-4E-16
41
1
10
-48
20
-14.5182462858867
30
1E-16
41
1
10
-48
20
-14.0639713100485
30
7E-16
41
1
10
-48
20
-13.6090644316392
30
1.2E-15
41
1
10
-48
20
-13.1542985492984
30
1.7E-15
41
1
10
-48
20
-12.7004389713403
30
-1.3E-15
41
1
10
-48
20
-12.2482401048276
30
-8E-16
41
1
10
-48
20
-11.7984421835398
30
-2E-16
41
1
10
-48
20
-11.351768050708
30
3E-16
41
1
10
-48
20
-10.9089200121444
30
8E-16
41
1
10
-48
20
-10.4705767750772
30
1.3E-15
41
1
10
-48
20
-10.0373904876077
30
-1.7E-15
41
1
10
-48
20
-9.60998389324075
30
-1.2E-15
41
1
10
-48
20
-9.18894761440183
30
-7E-16
41
1
10
-48
20
-8.77483757825101
30
-2E-16
41
1
10
-48
20
-8.36817259743137
30
2E-16
41
1
10
-48
20
-7.96943211765955
30
7E-16
41
1
10
-48
20
-7.57905414327399
30
1.2E-15
41
1
10
-48
20
-7.19743335100887
30
1.6E-15
41
1
10
-48
20
-6.82491940136836
30
-1.5E-15
41
1
10
-48
20
-6.46181545602781
30
-1.1E-15
41
1
10
-48
20
-6.10837690870375
30
-7E-16
41
1
10
-48
20
-5.76481033590846
30
-3E-16
41
1
10
-48
20
-5.43127267294699
30
1E-16
41
1
10
-48
20
-5.10787061942565
30
5E-16
41
1
10
-48
20
-4.79466027742998
30
9E-16
41
1
10
-48
20
-4.491647024401
30
1.2E-15
41
1
10
-48
20
-4.19878562159167
30
1.6E-15
41
1
10
-48
20
-3.91598055783859
30
-1.6E-15
41
1
10
-48
20
-3.64308662722908
30
-1.3E-15
41
1
10
-48
20
-3.37990973809994
30
-1E-15
41
1
10
-48
20
-3.1262079496741
30
-7E-16
41
1
10
-48
20
-2.88169273153471
30
-4E-16
41
1
10
-48
20
-2.64603044006691
30
-2E-16
41
1
10
-48
20
-2.41884400497622
30
1E-16
41
1
10
-48
20
-2.19971481802963
30
4E-16
41
1
10
-48
20
-1.98818481527707
30
6E-16
41
1
10
-48
20
-1.78375874320409
30
8E-16
41
1
10
-48
20
-1.58590659854354
30
1.1E-15
41
1
10
-48
20
-1.3940662308338
30
1.3E-15
41
1
10
-48
20
-1.20764609622844
30
1.5E-15
41
1
10
-48
20
-1.02602815052359
30
1.7E-15
41
1
10
-48
20
-0.848570868814903
30
-1.6E-15
41
1
10
-48
20
-0.674612378598141
30
-1.4E-15
41
1
10
-48
20
-0.503473692450143
30
-1.2E-15
41
1
10
-48
20
-0.334462025644029
30
-1E-15
41
1
10
-48
20
-0.166874183199866
30
-8E-16
41
1
10
-48
20
-2.84E-14
30
-6E-16
41
1
10
-48
20
0.166874183199866
30
-4E-16
41
1
10
-48
20
0.334462025644001
30
-2E-16
41
1
10
-48
20
0.503473692450171
30
0
41
1
10
-48
20
0.674612378598113
30
2E-16
41
1
10
-48
20
0.848570868814846
30
4E-16
41
1
10
-48
20
1.02602815052359
30
6E-16
41
1
10
-48
20
1.20764609622836
30
8E-16
41
1
10
-48
20
1.3940662308338
30
1E-15
41
1
10
-48
20
1.58590659854366
30
1.2E-15
41
1
10
-48
20
1.78375874320409
30
1.5E-15
41
1
10
-48
20
1.98818481527707
30
1.7E-15
41
1
10
-48
20
2.19971481802963
30
-1.6E-15
41
1
10
-48
20
2.41884400497622
30
-1.3E-15
41
1
10
-48
20
2.64603044006688
30
-1.1E-15
41
1
10
-48
20
2.88169273153463
30
-8E-16
41
1
10
-48
20
3.12620794967413
30
-5E-16
41
1
10
-48
20
3.3799097381
30
-2E-16
41
1
10
-48
20
3.64308662722908
30
1E-16
41
1
10
-48
20
3.91598055783859
30
4E-16
41
1
10
-48
20
4.19878562159172
30
8E-16
41
1
10
-48
20
4.49164702440109
30
1.1E-15
41
1
10
-48
20
4.79466027743001
30
1.5E-15
41
1
10
-48
20
5.10787061942563
30
-1.7E-15
41
1
10
-48
20
5.43127267294705
30
-1.4E-15
41
1
10
-48
20
5.76481033590849
30
-1E-15
41
1
10
-48
20
6.10837690870378
30
-6E-16
41
1
10
-48
20
6.46181545602784
30
-1E-16
41
1
10
-48
20
6.82491940136839
30
3E-16
41
1
10
-48
20
7.19743335100893
30
7E-16
41
1
10
-48
20
7.57905414327408
30
1.2E-15
41
1
10
-48
20
7.96943211765964
30
1.6E-15
41
1
10
-48
20
8.3681725974314
30
-1.5E-15
41
1
10
-48
20
8.77483757825104
30
-1E-15
41
1
10
-48
20
9.18894761440191
30
-5E-16
41
1
10
-48
20
9.60998389324087
30
0
41
1
10
-48
20
10.0373904876078
30
5E-16
41
1
10
-48
20
10.4705767750773
30
1E-15
41
1
10
-48
20
10.9089200121445
30
1.5E-15
41
1
10
-48
20
11.3517680507081
30
-1.5E-15
41
1
10
-48
20
11.7984421835399
30
-1E-15
41
1
10
-48
20
12.2482401048277
30
-5E-16
41
1
10
-48
20
12.7004389713404
30
1E-16
41
1
10
-48
20
13.1542985492985
30
6E-16
41
1
10
-48
20
13.6090644316393
30
1.1E-15
41
1
10
-48
20
14.0639713100487
30
1.7E-15
41
1
10
-48
20
14.5182462858868
30
-1.4E-15
41
1
10
-48
20
14.9711122039732
30
-8E-16
41
1
10
-48
20
15.4217909931064
30
-3E-16
41
1
10
-48
20
15.8695069971878
30
2E-16
41
1
10
-48
20
16.3134902808858
30
7E-16
41
1
10
-48
20
16.7529798939315
30
1.2E-15
41
1
10
-48
20
17.187227078352
30
1.8E-15
41
1
10
-48
20
17.6154984032617
30
5E-16
41
1
10
-48
20
18.0370788121967
30
-8E-16
41
1
10
-48
20
18.451274568438
30
-3E-16
41
1
10
-48
20
18.8574160842792
30
2E-16
41
1
10
-48
20
19.2548606207901
30
6E-16
41
1
10
-48
20
19.6429948452788
30
-7E-16
41
1
10
-48
20
20.0212372343682
30
-3E-16
41
1
10
-48
20
20.3890403113798
30
2E-16
41
1
10
-48
20
20.7458927075457
30
6E-16
41
1
10
-48
20
21.0913210374478
30
-8E-16
41
1
10
-48
20
21.4248915800098
30
-4E-16
41
1
10
-48
20
21.7462117573357
30
0
41
1
10
-48
20
22.0549314046899
30
4E-16
41
1
10
-48
20
22.3507438259567
30
-2E-16
41
1
10
-48
20
22.633386629972
30
1E-16
41
1
10
-48
20
22.9026423442147
30
-4E-16
41
1
10
-48
20
23.1583388034393
30
-1E-16
41
1
10
-48
20
23.4003493119502
30
2E-16
41
1
10
-48
20
23.6285925793344
30
4E-16
41
1
10
-48
20
23.843032430587
30
-2E-16
41
1
10
-48
20
24.0436772926826
30
0
41
1
10
-48
20
24.2305794607424
30
-2E-16
41
1
10
-48
20
24.4038341480403
30
0
41
1
10
-48
20
24.5635783251511
30
0
41
1
10
-48
20
24.7099893545887
30
0
41
1
10
-48
20
24.8432834282836
30
0
41
1
10
-48
20
24.9637138162257
30
0
41
1
10
-48
20
25.0715689355233
30
0
41
1
10
-48
20
25.1671702500157
30
0
41
1
10
-48
20
25.2508700114085
30
1E-16
41
1
10
-48
20
25.3230488536802
30
2E-16
41
1
10
-48
20
25.384113253232
30
-2E-16
41
1
10
-48
20
25.4344928679074
30
-1E-16
41
1
10
-48
20
25.4746377686082
30
-1E-16
41
1
10
-48
20
25.5050155777571
30
0
41
1
10
-48
20
25.5261085293142
30
0
41
1
10
-48
20
25.538087663041
30
0
41
1
10
-48
20
25.5409006438948
30
0
41
1
10
-48
20
25.5411009586624
30
0
0
SPLINE
5
D1
100
AcDbEntity
8
SK1
62
256
6
ByLayer
370
18
48
1
60
0
100
AcDbSpline
70
4
71
3
72
191
73
187
40
0
40
0
40
0
40
0
40
0.002578599697426
40
0.0073693341463702
40
0.012308236216627
40
0.0173951028496043
40
0.02262932542613
40
0.0280098914346348
40
0.0335353872463761
40
0.0392040019900959
40
0.0450135325154927
40
0.0509613894319038
40
0.0570446042056449
40
0.063259837296554
40
0.0696033873114396
40
0.0760712011493415
40
0.0826588851107989
40
0.0893617169406757
40
0.0961746587715323
40
0.103092370932071
40
0.110109226582804
40
0.117219327138828
40
0.124416518437437
40
0.131694407606253
40
0.139046380585646
40
0.146465620257411
40
0.153945125130015
40
0.161477728529198
40
0.169056118241332
40
0.176672856555686
40
0.184320400650675
40
0.191991123268215
40
0.199677333619499
40
0.207371298464919
40
0.21506526331034
40
0.222751473661623
40
0.230422196279163
40
0.238069740374153
40
0.245686478688506
40
0.25326486840064
40
0.260797471799823
40
0.268276976672427
40
0.275696216344192
40
0.283048189323585
40
0.290326078492402
40
0.297523269791011
40
0.304633370347035
40
0.311650225997768
40
0.318567938158307
40
0.325380879989163
40
0.33208371181904
40
0.338671395780497
40
0.345139209618399
40
0.351482759633285
40
0.357697992724194
40
0.363781207497935
40
0.369729064414346
40
0.375538594939743
40
0.381207209683463
40
0.386732705495204
40
0.392113271503709
40
0.397347494080235
40
0.402434360713212
40
0.407373262783469
40
0.412163997232413
40
0.416806767118602
40
0.421302181061174
40
0.425651251571662
40
0.429855392278776
40
0.433916414053738
40
0.437836520046815
40
0.441618299648635
40
0.445264721392851
40
0.448779124819588
40
0.452165211322008
40
0.455427034001038
40
0.458568986556109
40
0.461595791242329
40
0.464512485927113
40
0.467324410281735
40
0.470037191145666
40
0.472656727103795
40
0.47518917231882
40
0.477640919663117
40
0.480018583196324
40
0.482328980036659
40
0.484579111675678
40
0.486776144787672
40
0.488927391586312
40
0.49104028978238
40
0.493122382197518
40
0.495181296089878
40
0.497224722248339
40
0.499260393912584
40
0.50129606557683
40
0.503339491735291
40
0.505398405627651
40
0.507480498042789
40
0.509593396238856
40
0.511744643037497
40
0.513941676149491
40
0.51619180778851
40
0.518502204628845
40
0.520879868162051
40
0.523331615506349
40
0.525864060721374
40
0.528483596679502
40
0.531196377543433
40
0.534008301898056
40
0.536924996582839
40
0.53995180126906
40
0.543093753824131
40
0.54635557650316
40
0.54974166300558
40
0.553256066432318
40
0.556902488176533
40
0.560684267778354
40
0.564604373771431
40
0.568665395546393
40
0.572869536253506
40
0.577218606763994
40
0.581714020706566
40
0.586356790592755
40
0.591147525041699
40
0.596086427111956
40
0.601173293744933
40
0.606407516321459
40
0.611788082329964
40
0.617313578141705
40
0.622982192885425
40
0.628791723410821
40
0.634739580327232
40
0.640822795100974
40
0.647038028191883
40
0.653381578206768
40
0.65984939204467
40
0.666437076006128
40
0.673139907836004
40
0.679952849666861
40
0.686870561827399
40
0.693887417478132
40
0.700997518034156
40
0.708194709332765
40
0.715472598501582
40
0.722824571480975
40
0.73024381115274
40
0.737723316025343
40
0.745255919424527
40
0.752834309136661
40
0.760451047451014
40
0.768098591546004
40
0.775769314163543
40
0.783455524514827
40
0.791149489360248
40
0.798843454205668
40
0.806529664556951
40
0.814200387174491
40
0.821847931269481
40
0.829464669583834
40
0.837043059295968
40
0.844575662695152
40
0.852055167567755
40
0.85947440723952
40
0.866826380218913
40
0.87410426938773
40
0.881301460686339
40
0.888411561242362
40
0.895428416893096
40
0.902346129053634
40
0.909159070884491
40
0.915861902714367
40
0.922449586675825
40
0.928917400513727
40
0.935260950528613
40
0.941476183619522
40
0.947559398393263
40
0.953507255309674
40
0.959316785835071
40
0.964985400578791
40
0.970510896390532
40
0.975891462399037
40
0.981125684975562
40
0.98621255160854
40
0.991151453678797
40
0.995942188127741
40
1
40
1
40
1
40
1
41
1
10
-1.99993701093305
20
27.5153512158084
30
-1E-16
41
1
10
-1.99993701093305
20
27.5176494421262
30
-1E-16
41
1
10
-1.99993701093302
20
27.5230400552098
30
-1E-16
41
1
10
-1.99993701093305
20
27.5265211294698
30
-1E-16
41
1
10
-1.99993701093305
20
27.5222011631238
30
-1E-16
41
1
10
-1.99993701093305
20
27.5089885894898
30
-1E-16
41
1
10
-1.99993701093305
20
27.4863812950221
30
-1E-16
41
1
10
-1.99993701093305
20
27.4538859047652
30
-1E-16
41
1
10
-1.99993701093305
20
27.4110208338677
30
-2E-16
41
1
10
-1.99993701093305
20
27.3573192910395
30
2E-16
41
1
10
-1.99993701093305
20
27.292332218555
30
1E-16
41
1
10
-1.99993701093305
20
27.2156311537157
30
0
41
1
10
-1.99993701093305
20
27.1268109970709
30
-1E-16
41
1
10
-1.99993701093305
20
27.0254926731472
30
0
41
1
10
-1.99993701093305
20
26.9113256699691
30
0
41
1
10
-1.99993701093305
20
26.7839904442431
30
0
41
1
10
-1.99993701093305
20
26.6432006797397
30
0
41
1
10
-1.99993701093305
20
26.4887053871264
30
1E-16
41
1
10
-1.99993701093305
20
26.3202908342848
30
-1E-16
41
1
10
-1.99993701093302
20
26.1377822969779
30
1E-16
41
1
10
-1.99993701093302
20
25.9410456206165
30
-1E-16
41
1
10
-1.99993701093302
20
25.7299885848037
30
-4E-16
41
1
10
-1.99993701093302
20
25.5045620633054
30
2E-16
41
1
10
-1.99993701093302
20
25.2647609731053
30
0
41
1
10
-1.99993701093302
20
25.0106250072375
30
-3E-16
41
1
10
-1.99993701093302
20
24.7422391471585
30
2E-16
41
1
10
-1.99993701093302
20
24.4597339515072
30
8E-16
41
1
10
-1.99993701093302
20
24.1632856192016
30
5E-16
41
1
10
-1.99993701093302
20
23.8531158259396
30
1E-16
41
1
10
-1.99993701093302
20
23.5294913342844
30
-3E-16
41
1
10
-1.99993701093302
20
23.19272337864
30
-7E-16
41
1
10
-1.99993701093302
20
22.8431668275301
30
7E-16
41
1
10
-1.99993701093302
20
22.4812191266986
30
3E-16
41
1
10
-1.99993701093302
20
22.1073190276349
30
-2E-16
41
1
10
-1.99993701093302
20
21.7219451071902
30
-6E-16
41
1
10
-1.99993701093302
20
21.3256140849873
30
7E-16
41
1
10
-1.99993701093302
20
20.9188789463329
30
2E-16
41
1
10
-1.999937010933
20
20.5023268793051
30
-3E-16
41
1
10
-1.999937010933
20
20.0765770356182
30
-8E-16
41
1
10
-1.999937010933
20
19.642278125744
30
5E-16
41
1
10
-1.999937010933
20
19.2001058595974
30
0
41
1
10
-1.999937010933
20
18.7507602448693
30
-6E-16
41
1
10
-1.999937010933
20
18.2949627558034
30
-1.1E-15
41
1
10
-1.999937010933
20
17.8334533858696
30
-1.6E-15
41
1
10
-1.999937010933
20
17.3669875983719
30
1.4E-15
41
1
10
-1.999937010933
20
16.8963331895501
30
8E-16
41
1
10
-1.999937010933
20
16.4222670791859
30
3E-16
41
1
10
-1.999937010933
20
15.9455720440961
30
-3E-16
41
1
10
-1.999937010933
20
15.4670334102015
30
-9E-16
41
1
10
-1.999937010933
20
14.9874357190837
30
-1.4E-15
41
1
10
-1.999937010933
20
14.5075593850896
30
1.6E-15
41
1
10
-1.999937010933
20
14.0281773591146
30
1E-15
41
1
10
-1.999937010933
20
13.550051815185
30
5E-16
41
1
10
-1.999937010933
20
13.0739308758769
30
-1E-16
41
1
10
-1.999937010933
20
12.6005453924361
30
-7E-16
41
1
10
-1.999937010933
20
12.1306057952311
30
-1.2E-15
41
1
10
-1.999937010933
20
11.664799029842
30
-1.8E-15
41
1
10
-1.999937010933
20
11.2037855937037
30
1.3E-15
41
1
10
-1.999937010933
20
10.7481966877477
30
7E-16
41
1
10
-1.999937010933
20
10.298631496957
30
2E-16
41
1
10
-1.999937010933
20
9.855654613138
30
-3E-16
41
1
10
-1.999937010933
20
9.41979361254681
30
-8E-16
41
1
10
-1.999937010933
20
8.99153680027536
30
-1.3E-15
41
1
10
-1.999937010933
20
8.57133113251112
30
1.7E-15
41
1
10
-1.999937010933
20
8.15958032694206
30
1.2E-15
41
1
10
-1.99993701093297
20
7.75664317068183
30
8E-16
41
1
10
-1.99993701093297
20
7.3628320341509
30
3E-16
41
1
10
-1.99993701093297
20
6.97841159836594
30
-1E-16
41
1
10
-1.99993701093297
20
6.60359780207176
30
-6E-16
41
1
10
-1.99993701093297
20
6.23855701409855
30
-1E-15
41
1
10
-1.99993701093297
20
5.88340543525072
30
-1.4E-15
41
1
10
-1.99993701093297
20
5.53820873293367
30
1.7E-15
41
1
10
-1.99993701093297
20
5.20298191061127
30
1.3E-15
41
1
10
-1.99993701093297
20
4.8776894130597
30
1E-15
41
1
10
-1.99993701093297
20
4.5622454672538
30
6E-16
41
1
10
-1.99993701093297
20
4.25651465759049
30
2E-16
41
1
10
-1.99993701093297
20
3.96031273302938
30
-1E-16
41
1
10
-1.99993701093297
20
3.67340764261661
30
-5E-16
41
1
10
-1.99993701093297
20
3.39552079476027
30
-8E-16
41
1
10
-1.99993701093297
20
3.12632853455142
30
-1.1E-15
41
1
10
-1.99993701093297
20
2.86546383237351
30
-1.4E-15
41
1
10
-1.99993701093297
20
2.6125181760284
30
-1.7E-15
41
1
10
-1.99993701093297
20
2.36704365762518
30
1.6E-15
41
1
10
-1.99993701093297
20
2.12855524553945
30
1.3E-15
41
1
10
-1.99993701093297
20
1.89653323085778
30
1E-15
41
1
10
-1.99993701093297
20
1.67042583687854
30
7E-16
41
1
10
-1.99993701093297
20
1.44965197945308
30
5E-16
41
1
10
-1.99993701093297
20
1.23360416522178
30
2E-16
41
1
10
-1.99993701093297
20
1.0216515141332
30
0
41
1
10
-1.99993701093297
20
0.813142892036353
30
-3E-16
41
1
10
-1.99993701093297
20
0.60741013860752
30
-5E-16
41
1
10
-1.99993701093297
20
0.403771375417222
30
-7E-16
41
1
10
-1.99993701093297
20
0.201534378564446
30
-1E-15
41
1
10
-1.99993701093297
20
0
30
-1.2E-15
41
1
10
-1.99993701093297
20
-0.201534378564475
30
-1.4E-15
41
1
10
-1.99993701093297
20
-0.40377137541725
30
-1.7E-15
41
1
10
-1.99993701093297
20
-0.60741013860752
30
1.6E-15
41
1
10
-1.99993701093297
20
-0.813142892036382
30
1.4E-15
41
1
10
-1.99993701093297
20
-1.0216515141332
30
1.1E-15
41
1
10
-1.99993701093297
20
-1.23360416522178
30
9E-16
41
1
10
-1.99993701093297
20
-1.44965197945308
30
6E-16
41
1
10
-1.99993701093297
20
-1.67042583687854
30
4E-16
41
1
10
-1.99993701093297
20
-1.89653323085778
30
1E-16
41
1
10
-1.99993701093297
20
-2.12855524553945
30
-2E-16
41
1
10
-1.99993701093297
20
-2.36704365762518
30
-4E-16
41
1
10
-1.99993701093297
20
-2.6125181760284
30
-7E-16
41
1
10
-1.99993701093297
20
-2.86546383237351
30
-1E-15
41
1
10
-1.99993701093297
20
-3.12632853455142
30
-1.3E-15
41
1
10
-1.99993701093297
20
-3.39552079476027
30
-1.6E-15
41
1
10
-1.99993701093297
20
-3.67340764261658
30
1.6E-15
41
1
10
-1.99993701093297
20
-3.96031273302938
30
1.3E-15
41
1
10
-1.99993701093297
20
-4.25651465759049
30
9E-16
41
1
10
-1.99993701093297
20
-4.56224546725377
30
6E-16
41
1
10
-1.99993701093297
20
-4.87768941305967
30
2E-16
41
1
10
-1.99993701093297
20
-5.20298191061124
30
-2E-16
41
1
10
-1.99993701093297
20
-5.53820873293364
30
-6E-16
41
1
10
-1.99993701093297
20
-5.88340543525067
30
-1E-15
41
1
10
-1.99993701093297
20
-6.23855701409852
30
-1.4E-15
41
1
10
-1.99993701093297
20
-6.6035978020717
30
1.7E-15
41
1
10
-1.99993701093297
20
-6.97841159836591
30
1.3E-15
41
1
10
-1.99993701093297
20
-7.36283203415084
30
8E-16
41
1
10
-1.99993701093297
20
-7.75664317068177
30
4E-16
41
1
10
-1.999937010933
20
-8.15958032694201
30
-1E-16
41
1
10
-1.99993701093297
20
-8.57133113251106
30
-6E-16
41
1
10
-1.999937010933
20
-8.9915368002753
30
-1.1E-15
41
1
10
-1.999937010933
20
-9.41979361254676
30
-1.6E-15
41
1
10
-1.999937010933
20
-9.85565461313794
30
1.5E-15
41
1
10
-1.999937010933
20
-10.298631496957
30
9E-16
41
1
10
-1.999937010933
20
-10.7481966877476
30
4E-16
41
1
10
-1.999937010933
20
-11.2037855937036
30
-1E-16
41
1
10
-1.999937010933
20
-11.664799029842
30
-7E-16
41
1
10
-1.999937010933
20
-12.130605795231
30
-1.2E-15
41
1
10
-1.999937010933
20
-12.6005453924361
30
-1.8E-15
41
1
10
-1.999937010933
20
-13.0739308758768
30
1.2E-15
41
1
10
-1.999937010933
20
-13.550051815185
30
7E-16
41
1
10
-1.999937010933
20
-14.0281773591145
30
1E-16
41
1
10
-1.999937010933
20
-14.5075593850896
30
-4E-16
41
1
10
-1.999937010933
20
-14.9874357190836
30
-1E-15
41
1
10
-1.999937010933
20
-15.4670334102014
30
-1.6E-15
41
1
10
-1.999937010933
20
-15.945572044096
30
1.4E-15
41
1
10
-1.999937010933
20
-16.4222670791858
30
9E-16
41
1
10
-1.999937010933
20
-16.89633318955
30
3E-16
41
1
10
-1.999937010933
20
-17.3669875983718
30
-2E-16
41
1
10
-1.999937010933
20
-17.8334533858696
30
-8E-16
41
1
10
-1.999937010933
20
-18.2949627558033
30
-1.3E-15
41
1
10
-1.999937010933
20
-18.7507602448692
30
1.7E-15
41
1
10
-1.999937010933
20
-19.2001058595973
30
1.2E-15
41
1
10
-1.999937010933
20
-19.6422781257439
30
6E-16
41
1
10
-1.999937010933
20
-20.076577035618
30
1E-16
41
1
10
-1.999937010933
20
-20.502326879305
30
-4E-16
41
1
10
-1.999937010933
20
-20.9188789463328
30
-8E-16
41
1
10
-1.99993701093302
20
-21.3256140849872
30
5E-16
41
1
10
-1.99993701093302
20
-21.7219451071901
30
0
41
1
10
-1.99993701093302
20
-22.1073190276348
30
-5E-16
41
1
10
-1.99993701093302
20
-22.4812191266985
30
9E-16
41
1
10
-1.99993701093302
20
-22.84316682753
30
5E-16
41
1
10
-1.99993701093302
20
-23.1927233786399
30
0
41
1
10
-1.99993701093302
20
-23.5294913342843
30
-4E-16
41
1
10
-1.99993701093302
20
-23.8531158259395
30
-7E-16
41
1
10
-1.99993701093302
20
-24.1632856192016
30
7E-16
41
1
10
-1.99993701093302
20
-24.4597339515071
30
3E-16
41
1
10
-1.99993701093302
20
-24.7422391471584
30
0
41
1
10
-1.99993701093302
20
-25.0106250072374
30
-3E-16
41
1
10
-1.99993701093302
20
-25.2647609731053
30
3E-16
41
1
10
-1.99993701093302
20
-25.5045620633054
30
0
41
1
10
-1.99993701093302
20
-25.7299885848037
30
-3E-16
41
1
10
-1.99993701093302
20
-25.9410456206165
30
-1E-16
41
1
10
-1.99993701093302
20
-26.1377822969778
30
1E-16
41
1
10
-1.99993701093305
20
-26.3202908342847
30
-1E-16
41
1
10
-1.99993701093305
20
-26.4887053871263
30
2E-16
41
1
10
-1.99993701093305
20
-26.6432006797397
30
0
41
1
10
-1.99993701093305
20
-26.7839904442431
30
1E-16
41
1
10
-1.99993701093305
20
-26.9113256699691
30
0
41
1
10
-1.99993701093305
20
-27.0254926731472
30
0
41
1
10
-1.99993701093305
20
-27.1268109970709
30
1E-16
41
1
10
-1.99993701093305
20
-27.2156311537157
30
0
41
1
10
-1.99993701093305
20
-27.2923322185549
30
1E-16
41
1
10
-1.99993701093305
20
-27.3573192910395
30
0
41
1
10
-1.99993701093305
20
-27.4110208338677
30
0
41
1
10
-1.99993701093305
20
-27.4538859047652
30
-1E-16
41
1
10
-1.99993701093305
20
-27.4863812950221
30
3E-16
41
1
10
-1.99993701093305
20
-27.5089885894897
30
3E-16
41
1
10
-1.99993701093305
20
-27.5222011631238
30
3E-16
41
1
10
-1.99993701093305
20
-27.5265211294698
30
3E-16
41
1
10
-1.99993701093305
20
-27.5226216973446
30
3E-16
41
1
10
-1.99993701093302
20
-27.5153521603689
30
3E-16
41
1
10
-1.99993701093305
20
-27.5109879975883
30
3E-16
0
SPLINE
5
D2
100
AcDbEntity
8
SK1
62
256
6
ByLayer
370
18
48
1
60
0
100
AcDbSpline
70
4
71
3
72
185
73
181
40
0
40
0
40
0
40
0
40
0.003868016540278
40
0.0092572118543991
40
0.0147970834774358
40
0.0204861759264995
40
0.026322624714791
40
0.0323041614620294
40
0.0384281201119235
40
0.0446914442396488
40
0.0510906954292933
40
0.0576220626983187
40
0.0642813729431968
40
0.0710641023775958
40
0.0779653889317662
40
0.0849800455791345
40
0.0921025745535824
40
0.0993271824184424
40
0.106647795945903
40
0.114058078763307
40
0.121551448720706
40
0.129121095932076
40
0.136760001440744
40
0.144460956457857
40
0.152216582121173
40
0.16001934972001
40
0.167861601330916
40
0.175735570807509
40
0.183633405066939
40
0.191547185614647
40
0.199468950248407
40
0.207390714882168
40
0.215304495429877
40
0.223202329689307
40
0.231076299165899
40
0.238918550776805
40
0.246721318375642
40
0.254476944038958
40
0.262177899056071
40
0.269816804564739
40
0.277386451776109
40
0.284879821733508
40
0.292290104550912
40
0.299610718078373
40
0.306835325943232
40
0.31395785491768
40
0.320972511565048
40
0.327873798119219
40
0.334656527553618
40
0.341315837798496
40
0.347847205067521
40
0.354246456257166
40
0.360509780384891
40
0.366633739034785
40
0.372615275782023
40
0.378451724570315
40
0.384140817019379
40
0.389680688642416
40
0.395069883956536
40
0.400307360472141
40
0.405392491550307
40
0.410325068120367
40
0.415105299252953
40
0.419733811586951
40
0.424211647611926
40
0.428540262810732
40
0.432721521670131
40
0.436757692570371
40
0.440651441567705
40
0.444405825086925
40
0.448024281543906
40
0.451510621921154
40
0.454869019322166
40
0.458103997533241
40
0.461220418624101
40
0.464223469621293
40
0.467118648290911
40
0.469911748069606
40
0.472608842185174
40
0.475216267010264
40
0.477740604694824
40
0.480188665124883
40
0.482567467257129
40
0.484884219880439
40
0.487146301857088
40
0.489361241897801
40
0.491536697926082
40
0.493680436088373
40
0.495800309467592
40
0.497904236558374
40
0.500000179563022
40
0.50209612256767
40
0.504200049658451
40
0.50631992303767
40
0.508463661199962
40
0.510639117228242
40
0.512854057268956
40
0.515116139245605
40
0.517432891868915
40
0.519811694001161
40
0.52225975443122
40
0.52478409211578
40
0.52739151694087
40
0.530088611056438
40
0.532881710835133
40
0.535776889504751
40
0.538779940501943
40
0.541896361592803
40
0.545131339803878
40
0.54848973720489
40
0.551976077582138
40
0.555594534039119
40
0.559348917558339
40
0.563242666555673
40
0.567278837455912
40
0.571460096315312
40
0.575788711514117
40
0.580266547539093
40
0.584895059873091
40
0.589675291005677
40
0.594607867575737
40
0.599692998653903
40
0.604930475169508
40
0.610319670483629
40
0.615859542106666
40
0.62154863455573
40
0.627385083344021
40
0.633366620091259
40
0.639490578741153
40
0.645753902868879
40
0.652153154058523
40
0.658684521327549
40
0.665343831572427
40
0.672126561006826
40
0.679027847560997
40
0.686042504208365
40
0.693165033182813
40
0.700389641047673
40
0.707710254575133
40
0.715120537392537
40
0.722613907349936
40
0.730183554561307
40
0.737822460069975
40
0.745523415087088
40
0.753279040750404
40
0.761081808349241
40
0.768924059960147
40
0.776798029436739
40
0.784695863696169
40
0.792609644243878
40
0.800531408877638
40
0.808453173511398
40
0.816366954059107
40
0.824264788318538
40
0.832138757795129
40
0.839981009406036
40
0.847783777004873
40
0.855539402668189
40
0.863240357685302
40
0.87087926319397
40
0.87844891040534
40
0.885942280362739
40
0.893352563180143
40
0.900673176707604
40
0.907897784572463
40
0.915020313546911
40
0.922034970194279
40
0.92893625674845
40
0.935718986182849
40
0.942378296427727
40
0.948909663696752
40
0.955308914886397
40
0.961572239014122
40
0.967696197664016
40
0.973677734411254
40
0.979514183199546
40
0.98520327564861
40
0.990743147271647
40
0.996132342585768
40
1
40
1
40
1
40
1
41
1
10
-46.5000001
20
-26.4005383679092
30
-4E-16
41
1
10
-46.5000001
20
-26.3979161118035
30
-4E-16
41
1
10
-46.5000001
20
-26.3897927174099
30
-4E-16
41
1
10
-46.5000001
20
-26.3698815227888
30
-4E-16
41
1
10
-46.5000001
20
-26.33857938969
30
-4E-16
41
1
10
-46.5000001
20
-26.2972471349599
30
1E-16
41
1
10
-46.5000001
20
-26.2454174989653
30
2E-16
41
1
10
-46.5000001
20
-26.1826408530556
30
-2E-16
41
1
10
-46.5000001
20
-26.108488061068
30
-1E-16
41
1
10
-46.5000001
20
-26.0225532476402
30
0
41
1
10
-46.5000001
20
-25.9244564590809
30
0
41
1
10
-46.5000001
20
-25.8138462030764
30
0
41
1
10
-46.5000001
20
-25.6904018541057
30
0
41
1
10
-46.5000001
20
-25.5538359120938
30
-1E-16
41
1
10
-46.5000001
20
-25.4038961025575
30
1E-16
41
1
10
-46.5000001
20
-25.240367307274
30
0
41
1
10
-46.5000001
20
-25.0630733153372
30
-2E-16
41
1
10
-46.5000001
20
-24.8718783853496
30
0
41
1
10
-46.5000001
20
-24.6666886104278
30
-2E-16
41
1
10
-46.5000001
20
-24.4474530786696
30
1E-16
41
1
10
-46.5000001
20
-24.2141648227378
30
3E-16
41
1
10
-46.5000001
20
-23.9668615532567
30
-2E-16
41
1
10
-46.5000001
20
-23.7056261717796
30
1E-16
41
1
10
-46.5000001
20
-23.4305870601763
30
4E-16
41
1
10
-46.5000001
20
-23.14191814439
30
7E-16
41
1
10
-46.5000001
20
-22.839838731628
30
-7E-16
41
1
10
-46.5000001
20
-22.5246131211699
30
-3E-16
41
1
10
-46.5000001
20
-22.1965499900937
30
0
41
1
10
-46.5000001
20
-21.8560015563379
30
4E-16
41
1
10
-46.5000001
20
-21.5033625226138
30
9E-16
41
1
10
-46.5000001
20
-21.1390688057726
30
-5E-16
41
1
10
-46.5000001
20
-20.7635960572923
30
0
41
1
10
-46.5000001
20
-20.3774579815885
30
4E-16
41
1
10
-46.5000001
20
-19.9812044598554
30
9E-16
41
1
10
-46.5000001
20
-19.5754194881114
30
-4E-16
41
1
10
-46.5000001
20
-19.1607189390514
30
1E-16
41
1
10
-46.5000001
20
-18.7377481581827
30
5E-16
41
1
10
-46.5000001
20
-18.3071794055552
30
1.1E-15
41
1
10
-46.5000001
20
-17.8697091551667
30
1.6E-15
41
1
10
-46.5000001
20
-17.426055264841
30
-1.5E-15
41
1
10
-46.5000001
20
-16.9769540300313
30
-9E-16
41
1
10
-46.5000001
20
-16.5231571355869
30
-4E-16
41
1
10
-46.5000001
20
-16.0654285200425
30
1E-16
41
1
10
-46.5000001
20
-15.6045411674411
30
7E-16
41
1
10
-46.5000001
20
-15.1412738420744
30
1.2E-15
41
1
10
-46.5000001
20
-14.6764077818282
30
1.8E-15
41
1
10
-46.5000001
20
-14.2107233660462
30
-1.3E-15
41
1
10
-46.5000001
20
-13.7449967739737
30
-7E-16
41
1
10
-46.5000001
20
-13.2799966499108
30
-2E-16
41
1
10
-46.5000001
20
-12.8164807911991
30
4E-16
41
1
10
-46.5000001
20
-12.355192875077
30
9E-16
41
1
10
-46.5000001
20
-11.8968592402733
30
1.5E-15
41
1
10
-46.5000001
20
-11.4421857389682
30
-1.6E-15
41
1
10
-46.5000001
20
-10.9918546744298
30
-1E-15
41
1
10
-46.5000001
20
-10.5465218392425
30
-5E-16
41
1
10
-46.5000001
20
-10.1068136685774
30
0
41
1
10
-46.5000001
20
-9.67332452241521
30
5E-16
41
1
10
-46.5000001
20
-9.24661411003345
30
1E-15
41
1
10
-46.5000001
20
-8.8272050693914
30
1.5E-15
41
1
10
-46.5000001
20
-8.41558071332216
30
-1.6E-15
41
1
10
-46.5000001
20
-8.01218295364544
30
-1.1E-15
41
1
10
-46.5000001
20
-7.61741041347085
30
-6E-16
41
1
10
-46.5000001
20
-7.23161673706673
30
-2E-16
41
1
10
-46.5000001
20
-6.85510910572481
30
3E-16
41
1
10
-46.5000001
20
-6.48814696706719
30
7E-16
41
1
10
-46.5000001
20
-6.13094098421979
30
1.1E-15
41
1
10
-46.5000001
20
-5.78365221022045
30
1.5E-15
41
1
10
-46.5000001
20
-5.44639149194757
30
-1.6E-15
41
1
10
-46.5000001
20
-5.11921910674783
30
-1.3E-15
41
1
10
-46.5000001
20
-4.80214463382038
30
-9E-16
41
1
10
-46.5000001
20
-4.49512706127504
30
-5E-16
41
1
10
-46.5000001
20
-4.19807512864489
30
-2E-16
41
1
10
-46.5000001
20
-3.91084790348648
30
2E-16
41
1
10
-46.5000001
20
-3.6332555895674
30
5E-16
41
1
10
-46.5000001
20
-3.36506056301749
30
8E-16
41
1
10
-46.5000001
20
-3.10597863171614
30
1.1E-15
41
1
10
-46.5000001
20
-2.85568051211757
30
1.4E-15
41
1
10
-46.5000001
20
-2.61379351668225
30
1.7E-15
41
1
10
-46.5000001
20
-2.37990344409545
30
-1.6E-15
41
1
10
-46.5000001
20
-2.15355666352593
30
-1.3E-15
41
1
10
-46.5000001
20
-1.93426238331327
30
-1.1E-15
41
1
10
-46.5000001
20
-1.72149509367469
30
-8E-16
41
1
10
-46.5000001
20
-1.51469717229392
30
-6E-16
41
1
10
-46.5000001
20
-1.31328164098153
30
-4E-16
41
1
10
-46.5000001
20
-1.11663506097611
30
-1E-16
41
1
10
-46.5000001
20
-0.924120553850599
30
1E-16
41
1
10
-46.5000001
20
-0.735080934390993
30
3E-16
41
1
10
-46.5000001
20
-0.548841941201943
30
5E-16
41
1
10
-46.5000001
20
-0.364715550154329
30
8E-16
41
1
10
-46.5000001
20
-0.182003355143138
30
1E-15
41
1
10
-46.5000001
20
-2.84E-14
30
1.2E-15
41
1
10
-46.5000001
20
0.18200335514311
30
1.4E-15
41
1
10
-46.5000001
20
0.364715550154301
30
1.6E-15
41
1
10
-46.5000001
20
0.548841941201943
30
-1.7E-15
41
1
10
-46.5000001
20
0.735080934390993
30
-1.5E-15
41
1
10
-46.5000001
20
0.924120553850571
30
-1.3E-15
41
1
10
-46.5000001
20
1.11663506097608
30
-1.1E-15
41
1
10
-46.5000001
20
1.31328164098144
30
-8E-16
41
1
10
-46.5000001
20
1.51469717229389
30
-6E-16
41
1
10
-46.5000001
20
1.72149509367478
30
-4E-16
41
1
10
-46.5000001
20
1.93426238331327
30
-1E-16
41
1
10
-46.5000001
20
2.15355666352593
30
2E-16
41
1
10
-46.5000001
20
2.37990344409545
30
4E-16
41
1
10
-46.5000001
20
2.61379351668225
30
7E-16
41
1
10
-46.5000001
20
2.85568051211754
30
1E-15
41
1
10
-46.5000001
20
3.10597863171608
30
1.3E-15
41
1
10
-46.5000001
20
3.36506056301752
30
1.6E-15
41
1
10
-46.5000001
20
3.63325558956746
30
-1.7E-15
41
1
10
-46.5000001
20
3.91084790348646
30
-1.3E-15
41
1
10
-46.5000001
20
4.19807512864489
30
-1E-15
41
1
10
-46.5000001
20
4.4951270612751
30
-7E-16
41
1
10
-46.5000001
20
4.80214463382043
30
-3E-16
41
1
10
-46.5000001
20
5.11921910674786
30
1E-16
41
1
10
-46.5000001
20
5.44639149194757
30
5E-16
41
1
10
-46.5000001
20
5.78365221022048
30
9E-16
41
1
10
-46.5000001
20
6.13094098421982
30
1.3E-15
41
1
10
-46.5000001
20
6.48814696706722
30
1.7E-15
41
1
10
-46.5000001
20
6.85510910572484
30
-1.4E-15
41
1
10
-46.5000001
20
7.23161673706679
30
-1E-15
41
1
10
-46.5000001
20
7.61741041347091
30
-6E-16
41
1
10
-46.5000001
20
8.01218295364552
30
-1E-16
41
1
10
-46.5000001
20
8.41558071332221
30
4E-16
41
1
10
-46.5000001
20
8.82720506939143
30
9E-16
41
1
10
-46.5000001
20
9.24661411003348
30
1.4E-15
41
1
10
-46.5000001
20
9.67332452241527
30
-1.7E-15
41
1
10
-46.5000001
20
10.1068136685774
30
-1.2E-15
41
1
10
-46.5000001
20
10.5465218392426
30
-7E-16
41
1
10
-46.5000001
20
10.9918546744298
30
-2E-16
41
1
10
-46.5000001
20
11.4421857389683
30
4E-16
41
1
10
-46.5000001
20
11.8968592402734
30
9E-16
41
1
10
-46.5000001
20
12.355192875077
30
1.4E-15
41
1
10
-46.5000001
20
12.8164807911992
30
-1.6E-15
41
1
10
-46.5000001
20
13.2799966499109
30
-1E-15
41
1
10
-46.5000001
20
13.7449967739738
30
-5E-16
41
1
10
-46.5000001
20
14.2107233660463
30
1E-16
41
1
10
-46.5000001
20
14.6764077818283
30
6E-16
41
1
10
-46.5000001
20
15.1412738420745
30
1.2E-15
41
1
10
-46.5000001
20
15.6045411674412
30
1.7E-15
41
1
10
-46.5000001
20
16.0654285200425
30
-1.3E-15
41
1
10
-46.5000001
20
16.523157135587
30
-8E-16
41
1
10
-46.5000001
20
16.9769540300314
30
-2E-16
41
1
10
-46.5000001
20
17.426055264841
30
3E-16
41
1
10
-46.5000001
20
17.8697091551667
30
8E-16
41
1
10
-46.5000001
20
18.3071794055553
30
1.3E-15
41
1
10
-46.5000001
20
18.7377481581828
30
0
41
1
10
-46.5000001
20
19.1607189390515
30
5E-16
41
1
10
-46.5000001
20
19.5754194881115
30
-8E-16
41
1
10
-46.5000001
20
19.9812044598554
30
-3E-16
41
1
10
-46.5000001
20
20.3774579815886
30
2E-16
41
1
10
-46.5000001
20
20.7635960572924
30
6E-16
41
1
10
-46.5000001
20
21.1390688057726
30
-7E-16
41
1
10
-46.5000001
20
21.5033625226139
30
-3E-16
41
1
10
-46.5000001
20
21.8560015563379
30
1E-16
41
1
10
-46.5000001
20
22.1965499900937
30
5E-16
41
1
10
-46.5000001
20
22.5246131211699
30
-9E-16
41
1
10
-46.5000001
20
22.8398387316281
30
-5E-16
41
1
10
-46.5000001
20
23.14191814439
30
-1E-16
41
1
10
-46.5000001
20
23.4305870601763
30
2E-16
41
1
10
-46.5000001
20
23.7056261717796
30
-4E-16
41
1
10
-46.5000001
20
23.9668615532567
30
-1E-16
41
1
10
-46.5000001
20
24.2141648227378
30
2E-16
41
1
10
-46.5000001
20
24.4474530786696
30
-4E-16
41
1
10
-46.5000001
20
24.6666886104278
30
-1E-16
41
1
10
-46.5000001
20
24.8718783853496
30
1E-16
41
1
10
-46.5000001
20
25.0630733153372
30
-1E-16
41
1
10
-46.5000001
20
25.2403673072741
30
1E-16
41
1
10
-46.5000001
20
25.4038961025575
30
1E-16
41
1
10
-46.5000001
20
25.5538359120938
30
0
41
1
10
-46.5000001
20
25.6904018541057
30
0
41
1
10
-46.5000001
20
25.8138462030765
30
0
41
1
10
-46.5000001
20
25.9244564590809
30
0
41
1
10
-46.5000001
20
26.0225532476403
30
-1E-16
41
1
10
-46.5000001
20
26.108488061068
30
0
41
1
10
-46.5000001
20
26.1826408530556
30
-1E-16
41
1
10
-46.5000001
20
26.2454174989653
30
0
41
1
10
-46.5000001
20
26.2972471349599
30
0
41
1
10
-46.5000001
20
26.33857938969
30
1E-16
41
1
10
-46.5000001
20
26.3698815227889
30
1E-16
41
1
10
-46.5000001
20
26.3897922341641
30
1E-16
41
1
10
-46.5000001
20
26.397915481516
30
1E-16
41
1
10
-46.5000001
20
26.400537637499
30
1E-16
0
SPLINE
5
D3
100
AcDbEntity
8
1
62
256
6
ByLayer
370
18
48
1
60
0
100
AcDbSpline
70
4
71
3
72
20
73
16
40
0
40
0
40
0
40
0
40
0.0625000000000017
40
0.0625000000000017
40
0.125000000000003
40
0.125000000000003
40
0.250000000000003
40
0.250000000000003
40
0.375000000000004
40
0.375000000000004
40
0.500000000000004
40
0.500000000000004
40
0.750000000000002
40
0.750000000000002
40
1
40
1
40
1
40
1
41
1
10
13.4613248654051
20
38.1154578595255
30
5E-16
41
1
10
13.4771581646438
20
38.1154578595255
30
4E-16
41
1
10
13.4927109378492
20
38.1149629513186
30
4E-16
41
1
10
13.523303588079
20
38.1130672446235
30
4E-16
41
1
10
13.5384855310202
20
38.111646103256
30
4E-16
41
1
10
13.5821025167059
20
38.106259584402
30
3E-16
41
1
10
13.6087165484603
20
38.1012223724971
30
3E-16
41
1
10
13.6578193477347
20
38.0892461845822
30
2E-16
41
1
10
13.6796527871486
20
38.0824813306425
30
2E-16
41
1
10
13.7197115387033
20
38.067892855027
30
1E-16
41
1
10
13.7380002717292
20
38.060008333153
30
1E-16
41
1
10
13.7877239021534
20
38.0355963060414
30
0
41
1
10
13.8144435864619
20
38.0182809822056
30
-1E-16
41
1
10
13.8600743518479
20
37.9822540226331
30
-2E-16
41
1
10
13.878871877196
20
37.9634637345889
30
-2E-16
41
1
10
13.8943375672973
20
37.9445010117191
30
-2E-16
0
SPLINE
5
D4
100
AcDbEntity
8
1
62
256
6
ByLayer
370
18
48
1
60
0
100
AcDbSpline
70
4
71
3
72
20
73
16
40
0
40
0
40
0
40
0
40
0.250000000000003
40
0.250000000000003
40
0.500000000000005
40
0.500000000000005
40
0.625000000000006
40
0.625000000000006
40
0.750000000000006
40
0.750000000000006
40
0.875000000000006
40
0.875000000000006
40
0.937500000000003
40
0.937500000000003
40
1
40
1
40
1
40
1
41
1
10
10.1056624327025
20
37.9445010117191
30
6E-16
41
1
10
10.1209906769471
20
37.9632952100889
30
6E-16
41
1
10
10.1394128644444
20
37.9818032996582
30
6E-16
41
1
10
10.1852906111848
20
38.0181162151367
30
6E-16
41
1
10
10.2121862825547
20
38.0355343997718
30
6E-16
41
1
10
10.2617406486492
20
38.0598899607714
30
6E-16
41
1
10
10.2799558568029
20
38.0677634248588
30
6E-16
41
1
10
10.3202766013588
20
38.0824638362168
30
5E-16
41
1
10
10.342214905586
20
38.089256473033
30
5E-16
41
1
10
10.3913456975561
20
38.1012356164617
30
5E-16
41
1
10
10.4179256100856
20
38.1062640050576
30
5E-16
41
1
10
10.4615353242581
20
38.1116482046723
30
4E-16
41
1
10
10.4767096145032
20
38.1130682330004
30
4E-16
41
1
10
10.5072924746207
20
38.1149629924189
30
4E-16
41
1
10
10.522847093869
20
38.1154578595255
30
3E-16
41
1
10
10.5386751345947
20
38.1154578595255
30
3E-16
0
SPLINE
5
D5
100
AcDbEntity
8
1
62
256
6
ByLayer
370
18
48
1
60
0
100
AcDbSpline
70
4
71
3
72
20
73
16
40
0
40
0
40
0
40
0
40
0.0624999999999964
40
0.0624999999999964
40
0.124999999999993
40
0.124999999999993
40
0.249999999999994
40
0.249999999999994
40
0.374999999999996
40
0.374999999999996
40
0.499999999999998
40
0.499999999999998
40
0.749999999999999
40
0.749999999999999
40
1
40
1
40
1
40
1
41
1
10
10.5386751345948
20
12.1330899674708
30
1.9E-15
41
1
10
10.5228418353561
20
12.1330899674708
30
1.9E-15
41
1
10
10.5072890621507
20
12.1346449876804
30
1.9E-15
41
1
10
10.4766964119209
20
12.1405978009418
30
1.9E-15
41
1
10
10.4615144689797
20
12.1450593344653
30
2E-15
41
1
10
10.417897483294
20
12.161953800118
30
2E-15
41
1
10
10.3912834515397
20
12.1777353972348
30
2.1E-15
41
1
10
10.3421806522652
20
12.2151426833186
30
2.2E-15
41
1
10
10.3203472128513
20
12.2362241795836
30
2.2E-15
41
1
10
10.2802884612966
20
12.2815349223926
30
2.3E-15
41
1
10
10.2619997282707
20
12.3059523175497
30
2.4E-15
41
1
10
10.2122760978465
20
12.3812842908057
30
2.5E-15
41
1
10
10.1855564135379
20
12.4343733114211
30
2.6E-15
41
1
10
10.1399256481519
20
12.5439909060031
30
2.8E-15
41
1
10
10.1211281228038
20
12.6007544337325
30
2.9E-15
41
1
10
10.1056624327025
20
12.6576002058704
30
3E-15
0
SPLINE
5
D6
100
AcDbEntity
8
SK1
62
256
6
ByLayer
370
18
48
1
60
0
100
AcDbSpline
70
4
71
3
72
28
73
24
40
0
40
0
40
0
40
0
40
0.249999999999999
40
0.249999999999999
40
0.499999999999998
40
0.499999999999998
40
0.624999999999995
40
0.624999999999995
40
0.687499999999994
40
0.687499999999994
40
0.749999999999993
40
0.749999999999993
40
0.781249999999994
40
0.781249999999994
40
0.812499999999995
40
0.812499999999995
40
0.843749999999996
40
0.843749999999996
40
0.874999999999996
40
0.874999999999996
40
0.937499999999998
40
0.937499999999998
40
1
40
1
40
1
40
1
41
1
10
-9.99999088E-08
20
-6.09250566171562
30
0
41
1
10
0.0003146997963199
20
-6.02910138648528
30
0
41
1
10
-0.0004753147466374
20
-5.96557257882361
30
1E-16
41
1
10
-0.0056665271887937
20
-5.83816681677965
30
3E-16
41
1
10
-0.0098371537660853
20
-5.77430191531153
30
4E-16
41
1
10
-0.0224773936798783
20
-5.67802594938308
30
5E-16
41
1
10
-0.0277306116242357
20
-5.64585516511997
30
5E-16
41
1
10
-0.039314358825294
20
-5.59845034138729
30
6E-16
41
1
10
-0.0437775834313925
20
-5.58282919014806
30
6E-16
41
1
10
-0.0552358268625426
20
-5.55234531498112
30
7E-16
41
1
10
-0.0621923490212168
20
-5.53720616851359
30
7E-16
41
1
10
-0.0768546737587599
20
-5.51871608278242
30
7E-16
41
1
10
-0.0826519449379362
20
-5.51318519454998
30
7E-16
41
1
10
-0.0958651528083863
20
-5.50616317863833
30
8E-16
41
1
10
-0.103253553574575
20
-5.50491880688037
30
8E-16
41
1
10
-0.117177148124881
20
-5.50695839182171
30
8E-16
41
1
10
-0.123720280124417
20
-5.50998546897978
30
8E-16
41
1
10
-0.135598429046723
20
-5.51777680353675
30
8E-16
41
1
10
-0.141075667685897
20
-5.52262254532292
30
8E-16
41
1
10
-0.156180002575326
20
-5.53820190033824
30
8E-16
41
1
10
-0.164820493895235
20
-5.5501647736875
30
8E-16
41
1
10
-0.180857486031726
20
-5.57546287499051
30
8E-16
41
1
10
-0.188110254151582
20
-5.58871201124376
30
8E-16
41
1
10
-0.194913899722479
20
-5.60230754165886
30
8E-16
0
SPLINE
5
D7
100
AcDbEntity
8
SK1
62
256
6
ByLayer
370
18
48
1
60
0
100
AcDbSpline
70
4
71
3
72
42
73
38
40
0
40
0
40
0
40
0
40
0.0625000000000006
40
0.0625000000000006
40
0.125000000000001
40
0.125000000000001
40
0.156250000000001
40
0.156250000000001
40
0.1875
40
0.1875
40
0.21875
40
0.21875
40
0.234375
40
0.234375
40
0.25
40
0.25
40
0.265625
40
0.265625
40
0.28125
40
0.28125
40
0.3125
40
0.3125
40
0.34375
40
0.34375
40
0.375
40
0.375
40
0.4375
40
0.4375
40
0.5
40
0.5
40
0.562500000000001
40
0.562500000000001
40
0.625000000000001
40
0.625000000000001
40
0.750000000000001
40
0.750000000000001
40
1
40
1
40
1
40
1
41
1
10
-0.194913899691954
20
-5.60230754167614
30
8E-16
41
1
10
-0.216651548048247
20
-5.64574526286827
30
7E-16
41
1
10
-0.240180300389198
20
-5.6882098430691
30
7E-16
41
1
10
-0.292994422679413
20
-5.77011056099923
30
7E-16
41
1
10
-0.322198869921465
20
-5.80955960763029
30
7E-16
41
1
10
-0.372737744398449
20
-5.86293805769745
30
7E-16
41
1
10
-0.390751247719692
20
-5.87980077689804
30
7E-16
41
1
10
-0.430445563405584
20
-5.91062503249839
30
7E-16
41
1
10
-0.451788035145057
20
-5.92430657826043
30
7E-16
41
1
10
-0.4982821360841
20
-5.94578665385745
30
7E-16
41
1
10
-0.523055785929898
20
-5.95330503947841
30
7E-16
41
1
10
-0.56173107282072
20
-5.95770177975379
30
8E-16
41
1
10
-0.57500812645111
20
-5.9580048621718
30
8E-16
41
1
10
-0.600914540450844
20
-5.95623022095697
30
8E-16
41
1
10
-0.613702556072894
20
-5.95418542358962
30
8E-16
41
1
10
-0.638971418363838
20
-5.94794308381253
30
9E-16
41
1
10
-0.651412028800564
20
-5.94373260339194
30
9E-16
41
1
10
-0.67512289935658
20
-5.93378082068853
30
9E-16
41
1
10
-0.686526914022835
20
-5.92801004358148
30
1E-15
41
1
10
-0.719634654670926
20
-5.90875079641776
30
1E-15
41
1
10
-0.740128826012494
20
-5.8933583848146
30
1.1E-15
41
1
10
-0.777734140279819
20
-5.86033071014407
30
1.2E-15
41
1
10
-0.795098251074307
20
-5.84251699516574
30
1.2E-15
41
1
10
-0.827854622693536
20
-5.80509601242048
30
1.3E-15
41
1
10
-0.843197057026771
20
-5.78550919339486
30
1.3E-15
41
1
10
-0.886309341406701
20
-5.72579588002449
30
1.4E-15
41
1
10
-0.911580654983538
20
-5.68434404492464
30
1.5E-15
41
1
10
-0.958104530267292
20
-5.59947844442809
30
1.7E-15
41
1
10
-0.979297468912961
20
-5.55603748002395
30
1.7E-15
41
1
10
-1.01885898747869
20
-5.46773077864358
30
-1.7E-15
41
1
10
-1.03724177857194
20
-5.42277325433031
30
-1.6E-15
41
1
10
-1.07169536748646
20
-5.33221856184622
30
-1.4E-15
41
1
10
-1.08776447588394
20
-5.28662765619492
30
-1.4E-15
41
1
10
-1.13329537407878
20
-5.14908179873225
30
-1.2E-15
41
1
10
-1.16012029712948
20
-5.05636232396256
30
-1E-15
41
1
10
-1.2334857863253
20
-4.77585095293159
30
-6E-16
41
1
10
-1.2730354972723
20
-4.58573242985295
30
-3E-16
41
1
10
-1.30710678118905
20
-4.39323590818219
30
-1E-16
0
SPLINE
5
D8
100
AcDbEntity
8
SK1
62
256
6
ByLayer
370
18
48
1
60
0
100
AcDbSpline
70
4
71
3
72
36
73
32
40
0
40
0
40
0
40
0
40
0.249999999999997
40
0.249999999999997
40
0.374999999999997
40
0.374999999999997
40
0.499999999999996
40
0.499999999999996
40
0.562499999999996
40
0.562499999999996
40
0.624999999999996
40
0.624999999999996
40
0.656249999999996
40
0.656249999999996
40
0.687499999999997
40
0.687499999999997
40
0.718749999999997
40
0.718749999999997
40
0.749999999999998
40
0.749999999999998
40
0.781249999999998
40
0.781249999999998
40
0.812499999999998
40
0.812499999999998
40
0.843749999999999
40
0.843749999999999
40
0.874999999999999
40
0.874999999999999
40
0.937499999999999
40
0.937499999999999
40
1
40
1
40
1
40
1
41
1
10
-1.30710678118652
20
4.39323590818168
30
-4E-16
41
1
10
-1.27314810732949
20
4.58509620361374
30
-2E-16
41
1
10
-1.23377762624634
20
4.77434264179445
30
-1E-16
41
1
10
-1.16104319841835
20
5.05302557245633
30
2E-16
41
1
10
-1.13448965959677
20
5.14504777537468
30
3E-16
41
1
10
-1.07459528128982
20
5.32681492051336
30
4E-16
41
1
10
-1.04137080756314
20
5.41658986764168
30
5E-16
41
1
10
-0.982795320400669
20
5.54862228524084
30
5E-16
41
1
10
-0.961793468905256
20
5.5921895351762
30
6E-16
41
1
10
-0.915296974702045
20
5.67804229422933
30
6E-16
41
1
10
-0.88964907732327
20
5.72063144746136
30
6E-16
41
1
10
-0.846433507424933
20
5.78125246264028
30
7E-16
41
1
10
-0.831218318086655
20
5.80093801777272
30
7E-16
41
1
10
-0.798520103368276
20
5.83886390766619
30
7E-16
41
1
10
-0.781037254222127
20
5.85709190221158
30
7E-16
41
1
10
-0.743533857628506
20
5.89065018246924
30
7E-16
41
1
10
-0.723472034396139
20
5.90609126052522
30
7E-16
41
1
10
-0.679122646417738
20
5.9326781358439
30
6E-16
41
1
10
-0.655546156534058
20
5.94337135244325
30
6E-16
41
1
10
-0.604617893785161
20
5.95684146621778
30
6E-16
41
1
10
-0.578675941002274
20
5.95915897843173
30
6E-16
41
1
10
-0.526170955288421
20
5.95406837077127
30
5E-16
41
1
10
-0.501005069833298
20
5.94675370260589
30
4E-16
41
1
10
-0.453979362654053
20
5.92558099814866
30
4E-16
41
1
10
-0.432617590836543
20
5.91209978575645
30
3E-16
41
1
10
-0.392624797762778
20
5.88144716973957
30
2E-16
41
1
10
-0.374173222137387
20
5.8643397219638
30
2E-16
41
1
10
-0.32303557057989
20
5.81066023766064
30
1E-16
41
1
10
-0.293750256624094
20
5.77119950952113
30
0
41
1
10
-0.240476309072818
20
5.68875039804672
30
-2E-16
41
1
10
-0.216785141129549
20
5.64601221810292
30
-2E-16
41
1
10
-0.194913899691954
20
5.60230754167611
30
-3E-16
0
SPLINE
5
D9
100
AcDbEntity
8
SK1
62
256
6
ByLayer
370
18
48
1
60
0
100
AcDbSpline
70
4
71
3
72
28
73
24
40
0
40
0
40
0
40
0
40
0.0624999999999937
40
0.0624999999999937
40
0.124999999999987
40
0.124999999999987
40
0.156249999999987
40
0.156249999999987
40
0.187499999999987
40
0.187499999999987
40
0.218749999999987
40
0.218749999999987
40
0.249999999999987
40
0.249999999999987
40
0.312499999999989
40
0.312499999999989
40
0.374999999999992
40
0.374999999999992
40
0.499999999999994
40
0.499999999999994
40
0.749999999999997
40
0.749999999999997
40
1
40
1
40
1
40
1
41
1
10
-0.194913899691954
20
5.60230754167608
30
-3E-16
41
1
10
-0.188076453628412
20
5.58864446870211
30
-3E-16
41
1
10
-0.180804146361993
20
5.57537363637596
30
-4E-16
41
1
10
-0.164808240170089
20
5.55015056072315
30
-4E-16
41
1
10
-0.156159016787029
20
5.53813114837854
30
-4E-16
41
1
10
-0.140752123248063
20
5.52231418583574
30
-5E-16
41
1
10
-0.135242940354772
20
5.51747757308792
30
-5E-16
41
1
10
-0.123136463699552
20
5.50967390141915
30
-5E-16
41
1
10
-0.116556393420211
20
5.50672670436669
30
-5E-16
41
1
10
-0.102413885532655
20
5.50495187200622
30
-5E-16
41
1
10
-0.0950509720388482
20
5.50640717825331
30
-5E-16
41
1
10
-0.0818241884381052
20
5.51383870658577
30
-6E-16
41
1
10
-0.0760847401812441
20
5.5195142776812
30
-6E-16
41
1
10
-0.061386449822038
20
5.53861275337465
30
-5E-16
41
1
10
-0.0545909199165919
20
5.55381794136247
30
-5E-16
41
1
10
-0.0433112282466652
20
5.58433812280447
30
-5E-16
41
1
10
-0.0389012002300433
20
5.59996619318321
30
-5E-16
41
1
10
-0.0274493154306583
20
5.64738281071706
30
-5E-16
41
1
10
-0.0222352049424046
20
5.67961675428921
30
-4E-16
41
1
10
-0.0097671224824296
20
5.77536030259063
30
-3E-16
41
1
10
-0.0056230284556307
20
5.83896302727857
30
-3E-16
41
1
10
-0.0004724488272529
20
5.96591672590304
30
-1E-16
41
1
10
0.0003139097386793
20
6.02926051312045
30
0
41
1
10
-9.99999088E-08
20
6.09250566171551
30
0
0
SPLINE
5
DA
100
AcDbEntity
8
1
62
256
6
ByLayer
370
18
48
1
60
0
100
AcDbSpline
70
4
71
3
72
133
73
129
40
0
40
0
40
0
40
0
40
0.0241969923949441
40
0.0241969923949441
40
0.0362954885924162
40
0.0362954885924162
40
0.0423447366911523
40
0.0423447366911523
40
0.0453693607405203
40
0.0453693607405203
40
0.0483939847898883
40
0.0483939847898883
40
0.0725909771848329
40
0.0725909771848329
40
0.0846894733823052
40
0.0846894733823052
40
0.0907387214810414
40
0.0937633455304095
40
0.0937633455304095
40
0.0967879695797776
40
0.0967879695797776
40
0.120984961974722
40
0.120984961974722
40
0.145181954369667
40
0.145181954369667
40
0.169378946764612
40
0.169378946764612
40
0.175428194863348
40
0.175428194863348
40
0.181477442962084
40
0.181477442962084
40
0.193575939159557
40
0.193575939159557
40
0.217772931554503
40
0.217772931554503
40
0.241969923949449
40
0.241969923949449
40
0.266166916344394
40
0.266166916344394
40
0.29036390873934
40
0.29036390873934
40
0.302462404936813
40
0.302462404936813
40
0.30851165303555
40
0.30851165303555
40
0.314560901134286
40
0.314560901134286
40
0.338757893529232
40
0.338757893529232
40
0.362954885924179
40
0.362954885924179
40
0.387151878319125
40
0.387151878319125
40
0.435545863109018
40
0.435545863109018
40
0.483939847898911
40
0.483939847898911
40
0.489989095997647
40
0.489989095997647
40
0.496038344096384
40
0.496038344096384
40
0.508136840293857
40
0.508136840293857
40
0.532333832688804
40
0.532333832688804
40
0.556530825083751
40
0.556530825083751
40
0.559555449133119
40
0.559555449133119
40
0.562580073182487
40
0.562580073182487
40
0.568629321281224
40
0.580727817478698
40
0.580727817478698
40
0.604924809873645
40
0.604924809873645
40
0.629121802268592
40
0.629121802268592
40
0.653318794663539
40
0.653318794663539
40
0.677515787058487
40
0.677515787058487
40
0.701712779453434
40
0.701712779453434
40
0.713811275650908
40
0.713811275650908
40
0.719860523749644
40
0.719860523749644
40
0.725909771848381
40
0.725909771848381
40
0.750106764243329
40
0.750106764243329
40
0.774303756638276
40
0.774303756638276
40
0.798500749033224
40
0.798500749033224
40
0.810599245230697
40
0.810599245230697
40
0.816648493329434
40
0.816648493329434
40
0.822697741428171
40
0.822697741428171
40
0.846894733823118
40
0.846894733823118
40
0.871091726218066
40
0.871091726218066
40
0.895288718613013
40
0.895288718613013
40
0.898313342662381
40
0.898313342662381
40
0.90133796671175
40
0.90133796671175
40
0.907387214810486
40
0.907387214810486
40
0.91948571100796
40
0.91948571100796
40
0.943682703402908
40
0.943682703402908
40
0.967879695797855
40
0.967879695797855
40
0.970904319847223
40
0.970904319847223
40
0.973928943896591
40
0.979978191995328
40
0.979978191995328
40
0.992076688192802
40
0.992076688192802
40
1
40
1
40
1
40
1
41
1
10
115.000004018387
20
40.0000029761659
30
-3E-16
41
1
10
114.999995981613
20
39.999997023834
30
1E-16
41
1
10
114.919257461114
20
39.9401990926058
30
1E-16
41
1
10
114.68192795599
20
39.7640291639475
30
2E-16
41
1
10
114.583423501315
20
39.6908675407739
30
2E-16
41
1
10
114.406971633771
20
39.5596419799252
30
2E-16
41
1
10
114.343370380719
20
39.5123180721179
30
3E-16
41
1
10
114.240829381531
20
39.4359672551756
30
3E-16
41
1
10
114.205443082985
20
39.4096107701888
30
3E-16
41
1
10
114.132590236672
20
39.3553290629136
30
3E-16
41
1
10
114.09509231271
20
39.3273804860828
30
3E-16
41
1
10
113.748153795129
20
39.0686974842578
30
-4E-16
41
1
10
113.372773648563
20
38.7881503791199
30
-3E-16
41
1
10
112.722255230959
20
38.299692460885
30
-1E-16
41
1
10
112.490792004439
20
38.1255611872583
30
-1E-16
41
1
10
112.122915815079
20
37.8481315419545
30
0
41
1
10
111.933803990201
20
37.7053558362884
30
1E-16
41
1
10
111.737138267304
20
37.5566039866986
30
1E-16
41
1
10
111.604370305572
20
37.4561194166265
30
2E-16
41
1
10
111.537108166271
20
37.4051813298594
30
2E-16
41
1
10
110.92585859538
20
36.941981270721
30
4E-16
41
1
10
110.340135167806
20
36.4960322385923
30
-1.2E-15
41
1
10
109.098420551226
20
35.5448454057487
30
-9E-16
41
1
10
108.442359362144
20
35.0395564894938
30
-7E-16
41
1
10
107.069829297184
20
33.9754813668985
30
-4E-16
41
1
10
106.353322119458
20
33.4166677612386
30
-2E-16
41
1
10
105.42430275496
20
32.6870492074425
30
1E-16
41
1
10
105.236823883785
20
32.5395663008464
30
1E-16
41
1
10
104.858605197174
20
32.241525908016
30
2E-16
41
1
10
104.667705620021
20
32.0908420365739
30
2E-16
41
1
10
104.091405760752
20
31.6351599904193
30
4E-16
41
1
10
103.703118657732
20
31.3270977422913
30
5E-16
41
1
10
102.527014008259
20
30.3907030551765
30
8E-16
41
1
10
101.727995176059
20
29.7501917834294
30
9E-16
41
1
10
100.104246986546
20
28.4390905469882
30
1.3E-15
41
1
10
99.279502947499
20
27.768490562376
30
1.5E-15
41
1
10
97.607273148344
20
26.3987839588642
30
-1.7E-15
41
1
10
96.7597785459766
20
25.6996714791512
30
-1.5E-15
41
1
10
95.0441849478839
20
24.2739282812649
30
-1.2E-15
41
1
10
94.1760804682344
20
23.5472941014731
30
2.5E-15
41
1
10
92.8596048058158
20
22.4371081930628
30
2.8E-15
41
1
10
92.418388687133
20
22.0636705672308
30
2.8E-15
41
1
10
91.7530848082892
20
21.4984748934315
30
3E-15
41
1
10
91.5307366657045
20
21.3092362868637
30
3E-15
41
1
10
91.0848951032751
20
20.9290809623175
30
3.1E-15
41
1
10
90.8612627785364
20
20.7380451310745
30
3.1E-15
41
1
10
89.7427803852135
20
19.7808219306017
30
3.3E-15
41
1
10
88.8460013840588
20
19.0076847779075
30
3.5E-15
41
1
10
87.0490726321781
20
17.4470841803521
30
-3.4E-15
41
1
10
86.1489212592897
20
16.6596197222368
30
-3.2E-15
41
1
10
84.3456688897444
20
15.0706132099514
30
-3E-15
41
1
10
83.4425668580593
20
14.2690705606219
30
-2.9E-15
41
1
10
80.7292422638789
20
11.8435259652912
30
-2.5E-15
41
1
10
78.9150551311704
20
10.1986549888522
30
-2.3E-15
41
1
10
75.2767862406186
20
6.85308989306193
30
-2E-15
41
1
10
73.4527011568623
20
5.1524000526403
30
-1.9E-15
41
1
10
71.3944740342749
20
3.20675229655365
30
-1.7E-15
41
1
10
71.1656958773867
20
2.99011850180301
30
-1.7E-15
41
1
10
70.7079631901402
20
2.55594414101506
30
-1.7E-15
41
1
10
70.4790258716929
20
2.33841948350417
30
-1.7E-15
41
1
10
69.7931584247399
20
1.6856363565648
30
-1.6E-15
41
1
10
69.3367706756374
20
1.24978768365935
30
-1.6E-15
41
1
10
67.9701560521456
20
-0.0597106002318526
30
-1.5E-15
41
1
10
67.0624773267096
20
-0.935312699328506
30
-1.5E-15
41
1
10
65.2538038635193
20
-2.69157173674483
30
-1.4E-15
41
1
10
64.3528091043481
20
-3.5722287320657
30
-1.4E-15
41
1
10
63.342895769056
20
-4.56572154966594
30
-1.4E-15
41
1
10
63.2307346554895
20
-4.67614788056943
30
-1.4E-15
41
1
10
63.0065152172584
20
-4.89707670077095
30
-1.4E-15
41
1
10
62.8943748261725
20
-5.00766018852693
30
-1.4E-15
41
1
10
62.5586376012357
20
-5.33900129011948
30
-1.4E-15
41
1
10
61.8887429689154
20
-6.00118525840884
30
-1.4E-15
41
1
10
61.2235706724467
20
-6.6618465656077
30
-1.4E-15
41
1
10
59.8994894224516
20
-7.98105388650518
30
-1.4E-15
41
1
10
59.0251151289148
20
-8.85770919514604
30
-1.4E-15
41
1
10
57.2929918237834
20
-10.6048383655815
30
-1.4E-15
41
1
10
56.4352423682629
20
-11.4753129850273
30
-1.4E-15
41
1
10
54.7364524168839
20
-13.2093910215515
30
-1.4E-15
41
1
10
53.8954110776292
20
-14.0729956288939
30
-1.5E-15
41
1
10
52.2302916959182
20
-15.7924735075917
30
-1.5E-15
41
1
10
51.4062122535059
20
-16.6483485970907
30
-1.6E-15
41
1
10
49.775474594376
20
-18.3512926843112
30
-1.6E-15
41
1
10
48.9688141311929
20
-19.198364475941
30
-1.7E-15
41
1
10
47.7724255276969
20
-20.46134985834
30
-1.8E-15
41
1
10
47.3758985546729
20
-20.881072141122
30
-1.8E-15
41
1
10
46.7846024566368
20
-21.5085925653206
30
-1.8E-15
41
1
10
46.5879112687451
20
-21.7176083940961
30
-1.9E-15
41
1
10
46.1966700255797
20
-22.1339032707853
30
-1.9E-15
41
1
10
46.0021775515328
20
-22.3411204372229
30
-1.9E-15
41
1
10
45.0353777058941
20
-23.3724851439005
30
-2E-15
41
1
10
44.2800343684711
20
-24.1824937848736
30
1.5E-15
41
1
10
42.8064614520597
20
-25.7701854032687
30
1.4E-15
41
1
10
42.0882265764952
20
-26.5478750534371
30
1.3E-15
41
1
10
40.6904648603444
20
-28.068052111081
30
1.2E-15
41
1
10
40.0109291241627
20
-28.810550289224
30
1.1E-15
41
1
10
39.0225169999027
20
-29.8950035696782
30
1E-15
41
1
10
38.6982026001449
20
-30.2515970360014
30
9E-16
41
1
10
38.2197823034859
20
-30.7786940521188
30
9E-16
41
1
10
38.0616514002113
20
-30.9530934616737
30
9E-16
41
1
10
37.7481359474925
20
-31.2992073015111
30
8E-16
41
1
10
37.5926430282704
20
-31.4710419528711
30
8E-16
41
1
10
36.8256770352487
20
-32.3194353725173
30
7E-16
41
1
10
36.2430960690268
20
-32.9665212257508
30
6E-16
41
1
10
35.1419437543467
20
-34.1936323073169
30
5E-16
41
1
10
34.6233578377935
20
-34.7736750884049
30
4E-16
41
1
10
33.6538759259566
20
-35.8611435562329
30
3E-16
41
1
10
33.2029537035517
20
-36.3685997202686
30
2E-16
41
1
10
32.7370826726153
20
-36.8941266961971
30
1E-16
41
1
10
32.6858962565061
20
-36.9518865735145
30
1E-16
41
1
10
32.5846924708749
20
-37.0661228852778
30
1E-16
41
1
10
32.5346399306361
20
-37.1226390490707
30
1E-16
41
1
10
32.3865309181859
20
-37.2899253765781
30
1E-16
41
1
10
32.2906144399367
20
-37.3983299885941
30
1E-16
41
1
10
32.0113405310318
20
-37.7141427511026
30
0
41
1
10
31.8364536990016
20
-37.9121547791828
30
0
41
1
10
31.3459099389239
20
-38.4680898943655
30
-1E-16
41
1
10
31.0642805269953
20
-38.7880037447108
30
-1E-16
41
1
10
30.5950430802941
20
-39.3216544385398
30
-2E-16
41
1
10
30.4074079124949
20
-39.5354217708424
30
-2E-16
41
1
10
30.2527826512857
20
-39.7116800424063
30
-2E-16
41
1
10
30.2363789692166
20
-39.7303807833471
30
-3E-16
41
1
10
30.205264697155
20
-39.7658553257676
30
-3E-16
41
1
10
30.1610944410624
20
-39.8162206222534
30
2E-16
41
1
10
30.1243858407355
20
-39.8580891534085
30
2E-16
41
1
10
30.0608253323699
20
-39.9305920423377
30
2E-16
41
1
10
30.0315875304249
20
-39.9639547784894
30
-1E-16
41
1
10
30.0046650916801
20
-39.9946760912654
30
0
41
1
10
29.9995630866351
20
-40.0004967881878
30
0
41
1
10
30.0000085647811
20
-39.9999874802419
30
0
0
SPLINE
5
DB
100
AcDbEntity
8
1
62
256
6
ByLayer
370
18
48
1
60
0
100
AcDbSpline
70
4
71
3
72
20
73
16
40
0
40
0
40
0
40
0
40
0.249999999999994
40
0.249999999999994
40
0.499999999999988
40
0.499999999999988
40
0.62499999999999
40
0.62499999999999
40
0.749999999999993
40
0.749999999999993
40
0.874999999999995
40
0.874999999999995
40
0.937499999999998
40
0.937499999999998
40
1
40
1
40
1
40
1
41
1
10
13.8943375672974
20
12.6576002058705
30
-1.4E-15
41
1
10
13.8790093230528
20
12.6012596304488
30
-1.5E-15
41
1
10
13.8605871355554
20
12.5453576727329
30
-1.5E-15
41
1
10
13.814709388815
20
12.4348791905302
30
-1.6E-15
41
1
10
13.7878137174452
20
12.381473941064
30
-1.6E-15
41
1
10
13.7382593513507
20
12.3063182829532
30
-1.7E-15
41
1
10
13.720044143197
20
12.2819364517831
30
-1.7E-15
41
1
10
13.6797233986411
20
12.2362789825949
30
-1.7E-15
41
1
10
13.6577850944139
20
12.2151106097227
30
-1.7E-15
41
1
10
13.6086543024438
20
12.1776939678709
30
-1.7E-15
41
1
10
13.5820743899143
20
12.1619399442185
30
-1.7E-15
41
1
10
13.5384646757418
20
12.1450527389051
30
-1.6E-15
41
1
10
13.5232903854966
20
12.1405946977213
30
-1.6E-15
41
1
10
13.4927075253792
20
12.1346448581826
30
-1.6E-15
41
1
10
13.4771529061308
20
12.1330899674708
30
-1.6E-15
41
1
10
13.4613248654051
20
12.1330899674708
30
-1.6E-15
0
SPLINE
5
DC
100
AcDbEntity
8
1
62
256
6
ByLayer
370
18
48
1
60
0
100
AcDbSpline
70
4
71
3
72
39
73
35
40
0
40
0
40
0
40
0
40
0.0624831383479306
40
0.0624831383479306
40
0.0937337004029999
40
0.0937337004029999
40
0.124984262458069
40
0.124984262458069
40
0.249986510678346
40
0.249986510678346
40
0.374988758898623
40
0.374988758898623
40
0.390614039926157
40
0.390614039926157
40
0.406239320953692
40
0.437489883008761
40
0.437489883008761
40
0.499991007118899
40
0.499991007118899
40
0.624993255339176
40
0.624993255339176
40
0.656243817394245
40
0.656243817394245
40
0.687494379449314
40
0.687494379449314
40
0.749995503559451
40
0.749995503559451
40
0.874997751779728
40
0.874997751779728
40
0.906248313834796
40
0.906248313834796
40
0.937498875889864
40
0.937498875889864
40
1
40
1
40
1
40
1
41
1
10
61.5249943851665
20
39.9999980312978
30
0
41
1
10
61.5253110397675
20
40.0001090548306
30
0
41
1
10
61.5122548708422
20
39.995525253424
30
0
41
1
10
61.4723424880227
20
39.9815654295343
30
-1E-16
41
1
10
61.4556428286674
20
39.9757299562705
30
-1E-16
41
1
10
61.4153676991321
20
39.9616876142309
30
0
41
1
10
61.3917561888162
20
39.9534682144199
30
0
41
1
10
61.2566005439798
20
39.9065552402743
30
-1E-16
41
1
10
61.0959790224323
20
39.851106535304
30
0
41
1
10
60.6747910866237
20
39.7093838618268
30
3E-16
41
1
10
60.4142125789417
20
39.6230862963947
30
-4E-16
41
1
10
60.0635198682907
20
39.5112647546749
30
-1E-16
41
1
10
60.02371357726
20
39.4986240696782
30
-1E-16
41
1
10
59.9427943598403
20
39.4730418528113
30
0
41
1
10
59.8193790764956
20
39.4341926698343
30
1E-16
41
1
10
59.6899134786557
20
39.3939868444383
30
2E-16
41
1
10
59.4230332449085
20
39.3119502478555
30
4E-16
41
1
10
59.2345269065787
20
39.2550932857102
30
-3E-16
41
1
10
58.6377182237203
20
39.0794517723233
30
2E-16
41
1
10
58.1983257884841
20
38.9555805651729
30
6E-16
41
1
10
57.5957537868609
20
38.7970372740398
30
-7E-16
41
1
10
57.4723795595762
20
38.7650996264667
30
-6E-16
41
1
10
57.220973790486
20
38.7011876614265
30
-4E-16
41
1
10
57.0933153562875
20
38.669306796821
30
-3E-16
41
1
10
56.7045414608877
20
38.5740821406182
30
1E-16
41
1
10
56.4376364352841
20
38.5111563571403
30
3E-16
41
1
10
55.6139578882501
20
38.3255719236056
30
-7E-16
41
1
10
55.0343648044292
20
38.2060825148406
30
-2E-16
41
1
10
54.270302282031
20
38.0672272113476
30
6E-16
41
1
10
54.1154997671906
20
38.0399832419383
30
7E-16
41
1
10
53.8018299457017
20
37.9866890968638
30
-8E-16
41
1
10
53.6428422167325
20
37.9606199777559
30
-6E-16
41
1
10
53.1604161633847
20
37.8845459326944
30
-1E-16
41
1
10
52.8331051428255
20
37.836918063992
30
2E-16
41
1
10
52.5
20
37.7928481990971
30
5E-16
0
SPLINE
5
DD
100
AcDbEntity
8
SK1
62
256
6
ByLayer
370
18
48
1
60
0
100
AcDbSpline
70
4
71
3
72
77
73
73
40
0
40
0
40
0
40
0
40
0.0054115733943892
40
0.0142958976450685
40
0.0234995860916429
40
0.033027631839242
40
0.0428841389521835
40
0.0530723112050155
40
0.0635944433011985
40
0.0744519145834775
40
0.0856451852531994
40
0.0971737951089391
40
0.109036364807872
40
0.121230599646462
40
0.133753295850078
40
0.146600349354327
40
0.159766767054001
40
0.173246680488832
40
0.187033361928539
40
0.201119242813062
40
0.215495934497464
40
0.230154251244622
40
0.245084235402691
40
0.260275184698338
40
0.275715681570934
40
0.291393624467282
40
0.307296261011145
40
0.323410222956616
40
0.339721562829551
40
0.356215792156631
40
0.372877921177253
40
0.389692499929427
40
0.406643660597046
40
0.42371516100247
40
0.440890429125197
40
0.45815260852463
40
0.475484604542403
40
0.492869131157652
40
0.510288758366796
40
0.527725959957967
40
0.545163161549138
40
0.562582788758282
40
0.579967315373531
40
0.597299311391303
40
0.614561490790737
40
0.631736758913465
40
0.648808259318887
40
0.665759419986507
40
0.682573998738682
40
0.699236127759303
40
0.715730357086382
40
0.732041696959318
40
0.748155658904788
40
0.764058295448651
40
0.779736238344999
40
0.795176735217594
40
0.810367684513243
40
0.825297668671311
40
0.839955985418468
40
0.85433267710287
40
0.868418557987393
40
0.8822052394271
40
0.895685152861932
40
0.908851570561605
40
0.921698624065855
40
0.934221320269471
40
0.94641555510806
40
0.958278124806993
40
0.969806734662732
40
0.981000005332455
40
0.991857476614733
40
1
40
1
40
1
40
1
41
1
10
-0.194913899691954
20
5.60230754167611
30
-3E-16
41
1
10
-0.194913899691954
20
5.67448124669883
30
-2E-16
41
1
10
-0.194913899691954
20
5.86472347642055
30
0
41
1
10
-0.194913899691954
20
6.17560472854927
30
4E-16
41
1
10
-0.194913899691954
20
6.53818889297568
30
8E-16
41
1
10
-0.194913899691954
20
6.91056602100312
30
1.2E-15
41
1
10
-0.194913899691954
20
7.29257047943062
30
1.7E-15
41
1
10
-0.194913899691954
20
7.68398705958322
30
-1.4E-15
41
1
10
-0.194913899691954
20
8.08455180467078
30
-1E-15
41
1
10
-0.194913899691954
20
8.49395306237372
30
-5E-16
41
1
10
-0.194913899691954
20
8.9118327572742
30
0
41
1
10
-0.194913899691954
20
9.3377878767007
30
5E-16
41
1
10
-0.194913899691954
20
9.77137216253368
30
1E-15
41
1
10
-0.194913899691954
20
10.2120980005381
30
1.5E-15
41
1
10
-0.194913899691954
20
10.6594384978472
30
-1.5E-15
41
1
10
-0.194913899691954
20
11.1128297383262
30
-1E-15
41
1
10
-0.194913899691954
20
11.5716732047034
30
-4E-16
41
1
10
-0.194913899691954
20
12.0353383555596
30
1E-16
41
1
10
-0.194913899691954
20
12.503165344544
30
7E-16
41
1
10
-0.194913899691954
20
12.9744678685053
30
1.2E-15
41
1
10
-0.194913899691954
20
13.4485361306309
30
1.8E-15
41
1
10
-0.194913899691954
20
13.9246399041421
30
-1.2E-15
41
1
10
-0.194913899691983
20
14.402031681634
30
-7E-16
41
1
10
-0.194913899691983
20
14.8799498947503
30
-1E-16
41
1
10
-0.194913899691983
20
15.3576221885665
30
5E-16
41
1
10
-0.194913899691983
20
15.8342687348129
30
1E-15
41
1
10
-0.194913899691983
20
16.3091055679019
30
1.6E-15
41
1
10
-0.194913899691983
20
16.7813479276378
30
-1.4E-15
41
1
10
-0.194913899691983
20
17.2502135924797
30
-9E-16
41
1
10
-0.194913899691983
20
17.7149261872957
30
-3E-16
41
1
10
-0.194913899691983
20
18.1747184496966
30
2E-16
41
1
10
-0.194913899691983
20
18.6288354392624
30
7E-16
41
1
10
-0.194913899691983
20
19.0765376742756
30
1.3E-15
41
1
10
-0.194913899691983
20
19.5171041809529
30
1.8E-15
41
1
10
-0.194913899691983
20
19.9498354406159
30
5E-16
41
1
10
-0.194913899691983
20
20.3740562207613
30
-8E-16
41
1
10
-0.194913899691983
20
20.78911827658
30
-3E-16
41
1
10
-0.194913899691983
20
21.194402910127
30
2E-16
41
1
10
-0.194913899691983
20
21.5893233750591
30
7E-16
41
1
10
-0.194913899691983
20
21.9733271156344
30
-7E-16
41
1
10
-0.194913899691983
20
22.3458978294913
30
-2E-16
41
1
10
-0.194913899691983
20
22.7065573446083
30
2E-16
41
1
10
-0.194913899691983
20
23.0548673017691
30
6E-16
41
1
10
-0.194913899692011
20
23.3904306348261
30
-8E-16
41
1
10
-0.194913899692011
20
23.7128928420585
30
-4E-16
41
1
10
-0.194913899692011
20
24.0219430429594
30
-1E-16
41
1
10
-0.194913899692011
20
24.3173148158487
30
3E-16
41
1
10
-0.194913899692011
20
24.5987868127935
30
-3E-16
41
1
10
-0.194913899692011
20
24.8661831494229
30
0
41
1
10
-0.194913899692011
20
25.1193735683316
30
3E-16
41
1
10
-0.194913899692011
20
25.3582733758917
30
-3E-16
41
1
10
-0.194913899692011
20
25.5828431534061
30
0
41
1
10
-0.194913899692011
20
25.7930882446542
30
-2E-16
41
1
10
-0.194913899692011
20
25.9890580229806
30
0
41
1
10
-0.194913899692011
20
26.170844942168
30
-2E-16
41
1
10
-0.194913899692011
20
26.3385833763968
30
0
41
1
10
-0.194913899692011
20
26.4924482556379
30
0
41
1
10
-0.194913899692011
20
26.6326535038264
30
0
41
1
10
-0.194913899692011
20
26.7594502881412
30
0
41
1
10
-0.194913899692011
20
26.8731250886392
30
0
41
1
10
-0.194913899692011
20
26.9739975983784
30
1E-16
41
1
10
-0.19491389969204
20
27.062418464999
30
0
41
1
10
-0.19491389969204
20
27.1387668855073
30
0
41
1
10
-0.19491389969204
20
27.2034480667291
30
1E-16
41
1
10
-0.19491389969204
20
27.2568905645603
30
2E-16
41
1
10
-0.19491389969204
20
27.2995435157347
30
-2E-16
41
1
10
-0.19491389969204
20
27.3318737763541
30
3E-16
41
1
10
-0.19491389969204
20
27.3543629818877
30
3E-16
41
1
10
-0.19491389969204
20
27.3675045437239
30
3E-16
41
1
10
-0.19491389969204
20
27.3718005976735
30
3E-16
41
1
10
-0.19491389969204
20
27.3680541844886
30
3E-16
41
1
10
-0.19491389969204
20
27.3614431414359
30
3E-16
41
1
10
-0.19491389969204
20
27.3578097078178
30
3E-16
0
SPLINE
5
DE
100
AcDbEntity
8
1
62
256
6
ByLayer
370
18
48
1
60
0
100
AcDbSpline
70
4
71
3
72
38
73
34
40
0
40
0
40
0
40
0
40
0.124999501745742
40
0.124999501745742
40
0.249999003491484
40
0.249999003491484
40
0.281248878927919
40
0.281248878927919
40
0.312498754364354
40
0.312498754364354
40
0.374998505237226
40
0.374998505237226
40
0.499998006982968
40
0.499998006982968
40
0.562497757855839
40
0.562497757855839
40
0.593747633292275
40
0.593747633292275
40
0.62499750872871
40
0.62499750872871
40
0.74999701047445
40
0.74999701047445
40
0.81249676134732
40
0.81249676134732
40
0.843746636783755
40
0.843746636783755
40
0.859371574501973
40
0.859371574501973
40
0.87499651222019
40
0.87499651222019
40
0.999996013965929
40
0.999996013965929
40
1
40
1
40
1
40
1
41
1
10
42.5
20
37.7928481990971
30
-2E-16
41
1
10
41.8337618884291
20
37.8809916102607
30
7E-16
41
1
10
41.1974340694805
20
37.9824103395374
30
-2E-16
41
1
10
39.9802080128678
20
38.2032515556228
30
-3E-16
41
1
10
39.3993261653584
20
38.3227048200509
30
5E-16
41
1
10
38.7077533018621
20
38.4783681478667
30
-3E-16
41
1
10
38.5711750924022
20
38.509818452056
30
-1E-16
41
1
10
38.3015288257982
20
38.5732300296772
30
3E-16
41
1
10
38.169183824262
20
38.6050214901887
30
5E-16
41
1
10
37.7799886388293
20
38.7003192605871
30
-7E-16
41
1
10
37.5307190836099
20
38.7638054121331
30
-3E-16
41
1
10
36.8126761841844
20
38.9525988542918
30
7E-16
41
1
10
36.3734847422578
20
39.0762442972751
30
-4E-16
41
1
10
35.7741302812499
20
39.2525022585948
30
-4E-16
41
1
10
35.5842965027341
20
39.3097209646061
30
-1E-16
41
1
10
35.3149350939084
20
39.3924850845409
30
3E-16
41
1
10
35.2281637949233
20
39.419424627568
30
-4E-16
41
1
10
35.0609955001199
20
39.4717862158824
30
-2E-16
41
1
10
34.9805273309507
20
39.4972301627595
30
0
41
1
10
34.5935913413015
20
39.6205587210501
30
-3E-16
41
1
10
34.3330621007047
20
39.70677471307
30
1E-16
41
1
10
34.0158191252461
20
39.8134724839561
30
1E-16
41
1
10
33.9223838893036
20
39.8452666488549
30
-2E-16
41
1
10
33.8012116938425
20
39.8867739491945
30
0
41
1
10
33.7639880840549
20
39.8995787014029
30
1E-16
41
1
10
33.7130028478952
20
39.9171693763569
30
2E-16
41
1
10
33.696814114659
20
39.9227643017222
30
2E-16
41
1
10
33.6662109634497
20
39.9333555816859
30
-2E-16
41
1
10
33.6517756509368
20
39.9383591364098
30
-2E-16
41
1
10
33.5295906494605
20
39.9807620885441
30
0
41
1
10
33.4756547849686
20
39.9997704161046
30
0
41
1
10
33.4750067940706
20
39.9999976178295
30
0
41
1
10
33.4750058503019
20
39.9999979487382
30
0
41
1
10
33.4750049065326
20
39.9999982796454
30
0
0
SPLINE
5
DF
100
AcDbEntity
8
SK1
62
256
6
ByLayer
370
18
48
1
60
0
100
AcDbSpline
70
4
71
3
72
77
73
73
40
0
40
0
40
0
40
0
40
0.0081425241120566
40
0.0189999953863789
40
0.0301932660478995
40
0.0417218758951919
40
0.0535844455854328
40
0.065778680415086
40
0.0783013766095265
40
0.0911484301043615
40
0.104314847794388
40
0.117794761219342
40
0.131581442648947
40
0.145667323523148
40
0.160044015197016
40
0.174702331933433
40
0.189632316080561
40
0.204823265365078
40
0.220263762226358
40
0.235941705111219
40
0.25184434164343
40
0.267958303577092
40
0.284269643438075
40
0.300763872753069
40
0.317426001761481
40
0.334240580501335
40
0.351191741156533
40
0.368263241549447
40
0.385438509659589
40
0.402700689046374
40
0.420032685051447
40
0.437417211653957
40
0.454836838850336
40
0.47227404042873
40
0.489711242007124
40
0.507130869203504
40
0.524515395806014
40
0.541847391811087
40
0.559109571197871
40
0.576284839308013
40
0.593356339700927
40
0.610307500356126
40
0.627122079095979
40
0.643784208104391
40
0.660278437419385
40
0.676589777280369
40
0.692703739214031
40
0.708606375746241
40
0.724284318631101
40
0.739724815492382
40
0.754915764776899
40
0.769845748924027
40
0.784504065660443
40
0.798880757334311
40
0.812966638208513
40
0.826753319638117
40
0.840233233063071
40
0.853399650753097
40
0.866246704247932
40
0.878769400442372
40
0.890963635272026
40
0.902826204962267
40
0.914354814809559
40
0.925548085471079
40
0.936405556745402
40
0.946927688833875
40
0.957115861079242
40
0.966972368184961
40
0.976500413925578
40
0.985704102365408
40
0.994588426609578
40
1
40
1
40
1
40
1
41
1
10
-0.194913899692011
20
-27.357809706837
30
2E-16
41
1
10
-0.19491389969204
20
-27.361443140926
30
2E-16
41
1
10
-0.19491389969204
20
-27.3680541843977
30
1E-16
41
1
10
-0.19491389969204
20
-27.3718005976735
30
1E-16
41
1
10
-0.19491389969204
20
-27.3675045437238
30
1E-16
41
1
10
-0.19491389969204
20
-27.3543629818877
30
2E-16
41
1
10
-0.19491389969204
20
-27.3318737763541
30
2E-16
41
1
10
-0.19491389969204
20
-27.2995435157347
30
-2E-16
41
1
10
-0.19491389969204
20
-27.2568905645603
30
-2E-16
41
1
10
-0.19491389969204
20
-27.203448066729
30
-1E-16
41
1
10
-0.19491389969204
20
-27.1387668855073
30
0
41
1
10
-0.19491389969204
20
-27.062418464999
30
1E-16
41
1
10
-0.194913899692011
20
-26.9739975983783
30
-1E-16
41
1
10
-0.194913899692011
20
-26.8731250886391
30
-1E-16
41
1
10
-0.194913899692011
20
-26.7594502881412
30
0
41
1
10
-0.194913899692011
20
-26.6326535038263
30
0
41
1
10
-0.194913899692011
20
-26.4924482556378
30
1E-16
41
1
10
-0.194913899692011
20
-26.3385833763968
30
0
41
1
10
-0.194913899692011
20
-26.1708449421679
30
2E-16
41
1
10
-0.194913899692011
20
-25.9890580229806
30
0
41
1
10
-0.194913899692011
20
-25.7930882446541
30
2E-16
41
1
10
-0.194913899692011
20
-25.5828431534061
30
-4E-16
41
1
10
-0.194913899692011
20
-25.3582733758916
30
-2E-16
41
1
10
-0.194913899692011
20
-25.1193735683316
30
1E-16
41
1
10
-0.194913899692011
20
-24.8661831494228
30
4E-16
41
1
10
-0.194913899692011
20
-24.5987868127934
30
-2E-16
41
1
10
-0.194913899692011
20
-24.3173148158486
30
2E-16
41
1
10
-0.194913899692011
20
-24.0219430429594
30
5E-16
41
1
10
-0.194913899692011
20
-23.7128928420584
30
9E-16
41
1
10
-0.194913899692011
20
-23.390430634826
30
-5E-16
41
1
10
-0.194913899691983
20
-23.054867301769
30
-1E-16
41
1
10
-0.194913899691983
20
-22.7065573446082
30
3E-16
41
1
10
-0.194913899691983
20
-22.3458978294912
30
7E-16
41
1
10
-0.194913899691983
20
-21.9733271156343
30
-6E-16
41
1
10
-0.194913899691983
20
-21.589323375059
30
-2E-16
41
1
10
-0.194913899691983
20
-21.1944029101269
30
3E-16
41
1
10
-0.194913899691983
20
-20.78911827658
30
7E-16
41
1
10
-0.194913899691983
20
-20.3740562207612
30
-5E-16
41
1
10
-0.194913899691983
20
-19.9498354406158
30
0
41
1
10
-0.194913899691983
20
-19.5171041809528
30
-1.3E-15
41
1
10
-0.194913899691983
20
-19.0765376742755
30
-8E-16
41
1
10
-0.194913899691983
20
-18.6288354392623
30
-3E-16
41
1
10
-0.194913899691983
20
-18.1747184496965
30
3E-16
41
1
10
-0.194913899691983
20
-17.7149261872956
30
8E-16
41
1
10
-0.194913899691983
20
-17.2502135924796
30
1.3E-15
41
1
10
-0.194913899691983
20
-16.7813479276377
30
-1.7E-15
41
1
10
-0.194913899691983
20
-16.3091055679018
30
-1.1E-15
41
1
10
-0.194913899691983
20
-15.8342687348128
30
-6E-16
41
1
10
-0.194913899691983
20
-15.3576221885664
30
0
41
1
10
-0.194913899691983
20
-14.8799498947502
30
6E-16
41
1
10
-0.194913899691983
20
-14.402031681634
30
1.1E-15
41
1
10
-0.194913899691954
20
-13.924639904142
30
1.7E-15
41
1
10
-0.194913899691954
20
-13.4485361306309
30
-1.3E-15
41
1
10
-0.194913899691954
20
-12.9744678685053
30
-8E-16
41
1
10
-0.194913899691954
20
-12.5031653445439
30
-2E-16
41
1
10
-0.194913899691954
20
-12.0353383555595
30
3E-16
41
1
10
-0.194913899691954
20
-11.5716732047033
30
9E-16
41
1
10
-0.194913899691954
20
-11.1128297383262
30
1.4E-15
41
1
10
-0.194913899691954
20
-10.6594384978471
30
-1.6E-15
41
1
10
-0.194913899691954
20
-10.2120980005381
30
-1.1E-15
41
1
10
-0.194913899691954
20
-9.77137216253362
30
-6E-16
41
1
10
-0.194913899691954
20
-9.33778787670062
30
-1E-16
41
1
10
-0.194913899691954
20
-8.91183275727414
30
4E-16
41
1
10
-0.194913899691954
20
-8.49395306237366
30
9E-16
41
1
10
-0.194913899691954
20
-8.08455180467072
30
1.4E-15
41
1
10
-0.194913899691954
20
-7.68398705958316
30
-1.7E-15
41
1
10
-0.194913899691954
20
-7.29257047943057
30
-1.2E-15
41
1
10
-0.194913899691954
20
-6.91056602100306
30
-8E-16
41
1
10
-0.194913899691954
20
-6.53818889297563
30
-3E-16
41
1
10
-0.194913899691954
20
-6.17560472854922
30
1E-16
41
1
10
-0.194913899691954
20
-5.86472347642055
30
5E-16
41
1
10
-0.194913899691954
20
-5.67448124669883
30
7E-16
41
1
10
-0.194913899691954
20
-5.60230754167614
30
8E-16
0
SPLINE
5
E0
100
AcDbEntity
8
1
62
256
6
ByLayer
370
18
48
1
60
0
100
AcDbSpline
70
4
71
3
72
20
73
16
40
0
40
0
40
0
40
0
40
0.0625000000000017
40
0.0625000000000017
40
0.125000000000003
40
0.125000000000003
40
0.250000000000003
40
0.250000000000003
40
0.375000000000004
40
0.375000000000004
40
0.500000000000004
40
0.500000000000004
40
0.750000000000002
40
0.750000000000002
40
1
40
1
40
1
40
1
41
1
10
13.4613248654051
20
-12.1330899674706
30
-1.6E-15
41
1
10
13.4771581646438
20
-12.1330899674706
30
-1.6E-15
41
1
10
13.4927109378493
20
-12.1346449876802
30
-1.6E-15
41
1
10
13.5233035880791
20
-12.1405978009416
30
-1.6E-15
41
1
10
13.5384855310203
20
-12.1450593344651
30
-1.7E-15
41
1
10
13.5821025167059
20
-12.1619538001178
30
-1.7E-15
41
1
10
13.6087165484603
20
-12.1777353972346
30
-1.8E-15
41
1
10
13.6578193477347
20
-12.2151426833184
30
-1.9E-15
41
1
10
13.6796527871486
20
-12.2362241795834
30
-1.9E-15
41
1
10
13.7197115387033
20
-12.2815349223924
30
-2E-15
41
1
10
13.7380002717292
20
-12.3059523175495
30
-2.1E-15
41
1
10
13.7877239021535
20
-12.3812842908055
30
-2.2E-15
41
1
10
13.814443586462
20
-12.434373311421
30
-2.3E-15
41
1
10
13.8600743518479
20
-12.5439909060029
30
-2.5E-15
41
1
10
13.878871877196
20
-12.6007544337323
30
-2.6E-15
41
1
10
13.8943375672974
20
-12.6576002058702
30
-2.7E-15
0
SPLINE
5
E1
100
AcDbEntity
8
SK1
62
256
6
ByLayer
370
18
48
1
60
0
100
AcDbSpline
70
4
71
3
72
185
73
181
40
0
40
0
40
0
40
0
40
0.0004567402620656
40
0.0058667583077815
40
0.0114280348443816
40
0.0171391087652941
40
0.0229981083797295
40
0.029002756542857
40
0.0351503768972972
40
0.0414379012088348
40
0.0478618777762329
40
0.0544184808921078
40
0.0611035213289261
40
0.0679124578213848
40
0.0748404095137067
40
0.0818821693377243
40
0.0890322182850932
40
0.0962847405345094
40
0.10363363939247
40
0.111072554003891
40
0.118594876786761
40
0.126193771543073
40
0.133862192196362
40
0.141592902104511
40
0.149378493894888
40
0.157211409767435
40
0.165083962210074
40
0.172988355069647
40
0.180916704920622
40
0.188861062673022
40
0.196813435360325
40
0.204765808047628
40
0.212710165800029
40
0.220638515651004
40
0.228542908510576
40
0.236415460953216
40
0.244248376825763
40
0.252033968616139
40
0.259764678524288
40
0.267433099177577
40
0.275031993933889
40
0.28255431671676
40
0.28999323132818
40
0.297342130186141
40
0.304594652435557
40
0.311744701382926
40
0.318786461206943
40
0.325714412899266
40
0.332523349391724
40
0.339208389828542
40
0.345764992944417
40
0.352188969511815
40
0.358476493823353
40
0.364624114177793
40
0.37062876234092
40
0.376487761955355
40
0.382198835876268
40
0.387760112412869
40
0.393170130458584
40
0.398427843495851
40
0.403532622464545
40
0.408484257486192
40
0.413282958439231
40
0.417929354383749
40
0.422424491837275
40
0.426769831906346
40
0.430967246281714
40
0.435019012108177
40
0.438927805743076
40
0.442696695420593
40
0.44632913284193
40
0.449828943714436
40
0.453200317265614
40
0.456447794760734
40
0.459576257055545
40
0.462590911218188
40
0.465497276256985
40
0.468301167993221
40
0.471008683120383
40
0.47362618249355
40
0.476160273694729
40
0.478617792921935
40
0.481005786251647
40
0.483331490326006
40
0.485602312517678
40
0.487825810626763
40
0.49000967216539
40
0.49216169328678
40
0.494289757416532
40
0.496401813644699
40
0.498505854937882
40
0.500609896231065
40
0.502721952459232
40
0.504850016588984
40
0.507002037710374
40
0.509185899249001
40
0.511409397358086
40
0.513680219549758
40
0.516005923624117
40
0.51839391695383
40
0.520851436181036
40
0.523385527382215
40
0.526003026755381
40
0.528710541882544
40
0.531514433618779
40
0.534420798657576
40
0.537435452820219
40
0.54056391511503
40
0.54381139261015
40
0.547182766161328
40
0.550682577033835
40
0.554315014455171
40
0.558083904132688
40
0.561992697767588
40
0.56604446359405
40
0.570241877969419
40
0.574587218038489
40
0.579082355492016
40
0.583728751436534
40
0.588527452389572
40
0.593479087411219
40
0.598583866379913
40
0.60384157941718
40
0.609251597462896
40
0.614812873999497
40
0.620523947920409
40
0.626382947534845
40
0.632387595697972
40
0.638535216052412
40
0.64482274036395
40
0.651246716931348
40
0.657803320047223
40
0.664488360484041
40
0.6712972969765
40
0.678225248668822
40
0.68526700849284
40
0.692417057440209
40
0.699669579689625
40
0.707018478547586
40
0.714457393159006
40
0.721979715941877
40
0.729578610698189
40
0.737247031351478
40
0.744977741259626
40
0.752763333050004
40
0.76059624892255
40
0.76846880136519
40
0.776373194224762
40
0.784301544075737
40
0.792245901828138
40
0.800198274515441
40
0.808150647202744
40
0.816095004955144
40
0.82402335480612
40
0.831927747665692
40
0.839800300108332
40
0.847633215980878
40
0.855418807771255
40
0.863149517679404
40
0.870817938332693
40
0.878416833089005
40
0.885939155871876
40
0.893378070483296
40
0.900726969341257
40
0.907979491590673
40
0.915129540538042
40
0.92217130036206
40
0.929099252054382
40
0.935908188546841
40
0.942593228983658
40
0.949149832099533
40
0.955573808666932
40
0.961861332978469
40
0.968008953332909
40
0.974013601496036
40
0.979872601110472
40
0.985583675031385
40
0.991144951567985
40
0.996554969613701
40
1
40
1
40
1
40
1
41
1
10
-1.79497698875895
20
-27.3143640416311
30
3E-16
41
1
10
-1.79497698875895
20
-27.3138814113131
30
3E-16
41
1
10
-1.79497698875895
20
-27.3075431317918
30
3E-16
41
1
10
-1.79497698875895
20
-27.2917284383368
30
3E-16
41
1
10
-1.79497698875895
20
-27.2594410829764
30
-1E-16
41
1
10
-1.79497698875895
20
-27.2168432463884
30
0
41
1
10
-1.79497698875895
20
-27.163468055631
30
0
41
1
10
-1.79497698875895
20
-27.098866353442
30
1E-16
41
1
10
-1.79497698875895
20
-27.0226095597102
30
0
41
1
10
-1.79497698875895
20
-26.9342924397105
30
1E-16
41
1
10
-1.79497698875895
20
-26.8335357648594
30
0
41
1
10
-1.79497698875895
20
-26.7199888522671
30
0
41
1
10
-1.79497698875895
20
-26.5933319699624
30
0
41
1
10
-1.79497698875895
20
-26.4532785953218
30
0
41
1
10
-1.79497698875895
20
-26.299577514957
30
-1E-16
41
1
10
-1.79497698875895
20
-26.1320147550932
30
-1E-16
41
1
10
-1.79497698875895
20
-25.9504153323046
30
1E-16
41
1
10
-1.79497698875895
20
-25.7546448153546
30
-1E-16
41
1
10
-1.79497698875895
20
-25.5446106898206
30
-3E-16
41
1
10
-1.79497698875895
20
-25.3202635181516
30
0
41
1
10
-1.79497698875895
20
-25.081597888815
30
3E-16
41
1
10
-1.79497698875892
20
-24.8286531492274
30
-3E-16
41
1
10
-1.79497698875892
20
-24.5615139182308
30
0
41
1
10
-1.79497698875892
20
-24.2803103749616
30
3E-16
41
1
10
-1.79497698875892
20
-23.9852183220629
30
7E-16
41
1
10
-1.79497698875892
20
-23.6764590223049
30
-8E-16
41
1
10
-1.79497698875892
20
-23.354298808797
30
-4E-16
41
1
10
-1.79497698875892
20
-23.0190484700938
30
0
41
1
10
-1.79497698875892
20
-22.6710624126104
30
4E-16
41
1
10
-1.79497698875892
20
-22.3107376038649
30
8E-16
41
1
10
-1.79497698875892
20
-21.9385123011501
30
-5E-16
41
1
10
-1.79497698875892
20
-21.5548645713015
30
-1E-16
41
1
10
-1.79497698875892
20
-21.1603106082646
30
4E-16
41
1
10
-1.79497698875892
20
-20.7554028561688
30
9E-16
41
1
10
-1.79497698875892
20
-20.3407279465818
30
-4E-16
41
1
10
-1.79497698875892
20
-19.9169044595472
30
1E-16
41
1
10
-1.79497698875892
20
-19.4845805188818
30
6E-16
41
1
10
-1.79497698875892
20
-19.0444312330441
30
1.1E-15
41
1
10
-1.79497698875892
20
-18.5971559936536
30
1.6E-15
41
1
10
-1.79497698875892
20
-18.14347564446
30
-1.4E-15
41
1
10
-1.79497698875889
20
-17.6841295342135
30
-8E-16
41
1
10
-1.79497698875889
20
-17.2198724674743
30
-3E-16
41
1
10
-1.79497698875889
20
-16.7514715679222
30
2E-16
41
1
10
-1.79497698875889
20
-16.2797030691741
30
8E-16
41
1
10
-1.79497698875889
20
-15.805349048495
30
1.4E-15
41
1
10
-1.79497698875889
20
-15.3291941190893
30
-1.6E-15
41
1
10
-1.79497698875889
20
-14.8520220968855
30
-1.1E-15
41
1
10
-1.79497698875889
20
-14.3746126578742
30
-5E-16
41
1
10
-1.79497698875889
20
-13.8977380021301
30
0
41
1
10
-1.79497698875889
20
-13.4221595406395
30
6E-16
41
1
10
-1.79497698875889
20
-12.948624620969
30
1.1E-15
41
1
10
-1.79497698875889
20
-12.4778633076432
30
1.7E-15
41
1
10
-1.79497698875889
20
-12.0105852328596
30
-1.3E-15
41
1
10
-1.79497698875889
20
-11.5474765328483
30
-8E-16
41
1
10
-1.79497698875889
20
-11.0891968847909
30
-2E-16
41
1
10
-1.79497698875889
20
-10.6363766587465
30
3E-16
41
1
10
-1.79497698875889
20
-10.1896141984972
30
8E-16
41
1
10
-1.79497698875889
20
-9.74947324461942
30
1.3E-15
41
1
10
-1.79497698875889
20
-9.31648051241646
30
-1.7E-15
41
1
10
-1.79497698875889
20
-8.89112343661964
30
-1.2E-15
41
1
10
-1.79497698875889
20
-8.47384809397101
30
-7E-16
41
1
10
-1.79497698875889
20
-8.0650573139593
30
-2E-16
41
1
10
-1.79497698875889
20
-7.66510898708401
30
2E-16
41
1
10
-1.79497698875889
20
-7.27431457908227
30
7E-16
41
1
10
-1.79497698875889
20
-6.89293785857001
30
1.1E-15
41
1
10
-1.79497698875889
20
-6.52119384452979
30
1.6E-15
41
1
10
-1.79497698875889
20
-6.15924797902579
30
-1.6E-15
41
1
10
-1.79497698875889
20
-5.80721552944792
30
-1.1E-15
41
1
10
-1.79497698875889
20
-5.46516122348774
30
-7E-16
41
1
10
-1.79497698875889
20
-5.13309911893165
30
-4E-16
41
1
10
-1.79497698875889
20
-4.81099270922948
30
0
41
1
10
-1.79497698875889
20
-4.49875526466423
30
4E-16
41
1
10
-1.79497698875889
20
-4.19625040781557
30
7E-16
41
1
10
-1.79497698875889
20
-3.90329292088299
30
1.1E-15
41
1
10
-1.79497698875889
20
-3.619649781319
30
1.4E-15
41
1
10
-1.79497698875889
20
-3.34504142112399
30
1.7E-15
41
1
10
-1.79497698875889
20
-3.07914320408099
30
-1.5E-15
41
1
10
-1.79497698875889
20
-2.82158711415957
30
-1.2E-15
41
1
10
-1.79497698875889
20
-2.57196364730936
30
-9E-16
41
1
10
-1.79497698875889
20
-2.32982389789029
30
-6E-16
41
1
10
-1.79497698875889
20
-2.09468183006149
30
-4E-16
41
1
10
-1.79497698875889
20
-1.86601672357415
30
-1E-16
41
1
10
-1.79497698875889
20
-1.64327578259008
30
2E-16
41
1
10
-1.79497698875889
20
-1.42587689538161
30
4E-16
41
1
10
-1.79497698875889
20
-1.21321153205554
30
7E-16
41
1
10
-1.79497698875889
20
-1.00464776679138
30
9E-16
41
1
10
-1.79497698875889
20
-0.799533410483377
30
1.2E-15
41
1
10
-1.79497698875889
20
-0.597199239134511
30
1.4E-15
41
1
10
-1.79497698875889
20
-0.396962302861482
30
1.6E-15
41
1
10
-1.79497698875889
20
-0.198129299945094
30
-1.7E-15
41
1
10
-1.79497698875889
20
0
30
-1.4E-15
41
1
10
-1.79497698875889
20
0.198129299945094
30
-1.2E-15
41
1
10
-1.79497698875889
20
0.396962302861482
30
-1E-15
41
1
10
-1.79497698875889
20
0.597199239134511
30
-8E-16
41
1
10
-1.79497698875889
20
0.799533410483377
30
-5E-16
41
1
10
-1.79497698875889
20
1.00464776679135
30
-3E-16
41
1
10
-1.79497698875889
20
1.21321153205554
30
0
41
1
10
-1.79497698875889
20
1.42587689538158
30
2E-16
41
1
10
-1.79497698875889
20
1.64327578259008
30
5E-16
41
1
10
-1.79497698875889
20
1.86601672357415
30
7E-16
41
1
10
-1.79497698875889
20
2.09468183006149
30
1E-15
41
1
10
-1.79497698875889
20
2.32982389789029
30
1.3E-15
41
1
10
-1.79497698875889
20
2.57196364730936
30
1.6E-15
41
1
10
-1.79497698875889
20
2.8215871141596
30
-1.7E-15
41
1
10
-1.79497698875889
20
3.07914320408099
30
-1.4E-15
41
1
10
-1.79497698875889
20
3.34504142112399
30
-1.1E-15
41
1
10
-1.79497698875889
20
3.619649781319
30
-8E-16
41
1
10
-1.79497698875889
20
3.90329292088302
30
-4E-16
41
1
10
-1.79497698875889
20
4.1962504078156
30
-1E-16
41
1
10
-1.79497698875889
20
4.49875526466425
30
3E-16
41
1
10
-1.79497698875889
20
4.81099270922951
30
6E-16
41
1
10
-1.79497698875889
20
5.13309911893168
30
1E-15
41
1
10
-1.79497698875889
20
5.46516122348777
30
1.4E-15
41
1
10
-1.79497698875889
20
5.80721552944794
30
-1.8E-15
41
1
10
-1.79497698875889
20
6.15924797902585
30
-1.3E-15
41
1
10
-1.79497698875889
20
6.52119384452985
30
-9E-16
41
1
10
-1.79497698875889
20
6.89293785857004
30
-5E-16
41
1
10
-1.79497698875889
20
7.2743145790823
30
0
41
1
10
-1.79497698875889
20
7.66510898708407
30
4E-16
41
1
10
-1.79497698875889
20
8.06505731395936
30
9E-16
41
1
10
-1.79497698875889
20
8.47384809397107
30
1.4E-15
41
1
10
-1.79497698875889
20
8.89112343661969
30
-1.7E-15
41
1
10
-1.79497698875889
20
9.31648051241655
30
-1.2E-15
41
1
10
-1.79497698875889
20
9.74947324461948
30
-7E-16
41
1
10
-1.79497698875889
20
10.1896141984973
30
-2E-16
41
1
10
-1.79497698875889
20
10.6363766587465
30
4E-16
41
1
10
-1.79497698875889
20
11.089196884791
30
9E-16
41
1
10
-1.79497698875889
20
11.5474765328484
30
1.4E-15
41
1
10
-1.79497698875889
20
12.0105852328597
30
-1.6E-15
41
1
10
-1.79497698875889
20
12.4778633076433
30
-1E-15
41
1
10
-1.79497698875889
20
12.9486246209691
30
-5E-16
41
1
10
-1.79497698875889
20
13.4221595406396
30
1E-16
41
1
10
-1.79497698875889
20
13.8977380021302
30
6E-16
41
1
10
-1.79497698875889
20
14.3746126578743
30
1.2E-15
41
1
10
-1.79497698875889
20
14.8520220968856
30
1.7E-15
41
1
10
-1.79497698875889
20
15.3291941190894
30
-1.3E-15
41
1
10
-1.79497698875889
20
15.8053490484951
30
-7E-16
41
1
10
-1.79497698875889
20
16.2797030691743
30
-1E-16
41
1
10
-1.79497698875889
20
16.7514715679223
30
4E-16
41
1
10
-1.79497698875889
20
17.2198724674744
30
1E-15
41
1
10
-1.79497698875889
20
17.6841295342136
30
1.5E-15
41
1
10
-1.79497698875889
20
18.1434756444601
30
-1.5E-15
41
1
10
-1.79497698875892
20
18.5971559936537
30
-1E-15
41
1
10
-1.79497698875892
20
19.0444312330442
30
-5E-16
41
1
10
-1.79497698875892
20
19.4845805188819
30
1E-16
41
1
10
-1.79497698875892
20
19.9169044595473
30
6E-16
41
1
10
-1.79497698875892
20
20.3407279465819
30
-7E-16
41
1
10
-1.79497698875892
20
20.7554028561688
30
-2E-16
41
1
10
-1.79497698875892
20
21.1603106082647
30
2E-16
41
1
10
-1.79497698875892
20
21.5548645713016
30
7E-16
41
1
10
-1.79497698875892
20
21.9385123011502
30
-6E-16
41
1
10
-1.79497698875892
20
22.310737603865
30
-2E-16
41
1
10
-1.79497698875892
20
22.6710624126105
30
2E-16
41
1
10
-1.79497698875892
20
23.0190484700939
30
6E-16
41
1
10
-1.79497698875892
20
23.3542988087971
30
-7E-16
41
1
10
-1.79497698875892
20
23.676459022305
30
-4E-16
41
1
10
-1.79497698875892
20
23.985218322063
30
0
41
1
10
-1.79497698875892
20
24.2803103749617
30
3E-16
41
1
10
-1.79497698875892
20
24.5615139182308
30
-2E-16
41
1
10
-1.79497698875892
20
24.8286531492274
30
1E-16
41
1
10
-1.79497698875895
20
25.0815978888151
30
4E-16
41
1
10
-1.79497698875895
20
25.3202635181517
30
-2E-16
41
1
10
-1.79497698875895
20
25.5446106898206
30
1E-16
41
1
10
-1.79497698875895
20
25.7546448153546
30
-1E-16
41
1
10
-1.79497698875895
20
25.9504153323046
30
1E-16
41
1
10
-1.79497698875895
20
26.1320147550932
30
-1E-16
41
1
10
-1.79497698875895
20
26.299577514957
30
0
41
1
10
-1.79497698875895
20
26.4532785953219
30
0
41
1
10
-1.79497698875895
20
26.5933319699625
30
-1E-16
41
1
10
-1.79497698875895
20
26.7199888522671
30
0
41
1
10
-1.79497698875895
20
26.8335357648594
30
0
41
1
10
-1.79497698875895
20
26.9342924397105
30
-1E-16
41
1
10
-1.79497698875895
20
27.0226095597102
30
0
41
1
10
-1.79497698875895
20
27.0988663534421
30
1E-16
41
1
10
-1.79497698875895
20
27.163468055631
30
2E-16
41
1
10
-1.79497698875895
20
27.2168432463885
30
-2E-16
41
1
10
-1.79497698875895
20
27.2594410829764
30
-2E-16
41
1
10
-1.79497698875895
20
27.2917284383368
30
3E-16
41
1
10
-1.79497698875892
20
27.3116784790246
30
3E-16
41
1
10
-1.79497698875895
20
27.3198764096061
30
4E-16
41
1
10
-1.79497698875898
20
27.3224399582445
30
4E-16
0
SPLINE
5
E2
100
AcDbEntity
8
1
62
256
6
ByLayer
370
18
48
1
60
0
100
AcDbSpline
70
4
71
3
72
20
73
16
40
0
40
0
40
0
40
0
40
0.250000000000002
40
0.250000000000002
40
0.500000000000004
40
0.500000000000004
40
0.625000000000004
40
0.625000000000004
40
0.750000000000004
40
0.750000000000004
40
0.875000000000004
40
0.875000000000004
40
0.937500000000002
40
0.937500000000002
40
1
40
1
40
1
40
1
41
1
10
13.8943375672973
20
-37.944501011719
30
-3E-16
41
1
10
13.8790093230528
20
-37.9632952100888
30
-3E-16
41
1
10
13.8605871355554
20
-37.9818032996581
30
-3E-16
41
1
10
13.814709388815
20
-38.0181162151366
30
-3E-16
41
1
10
13.7878137174452
20
-38.0355343997718
30
-3E-16
41
1
10
13.7382593513507
20
-38.0598899607713
30
-3E-16
41
1
10
13.720044143197
20
-38.0677634248587
30
-3E-16
41
1
10
13.679723398641
20
-38.0824638362167
30
-2E-16
41
1
10
13.6577850944139
20
-38.0892564730329
30
-2E-16
41
1
10
13.6086543024437
20
-38.1012356164616
30
-2E-16
41
1
10
13.5820743899143
20
-38.1062640050575
30
-2E-16
41
1
10
13.5384646757418
20
-38.1116482046722
30
-1E-16
41
1
10
13.5232903854966
20
-38.1130682330003
30
-1E-16
41
1
10
13.4927075253792
20
-38.1149629924189
30
-1E-16
41
1
10
13.4771529061308
20
-38.1154578595254
30
0
41
1
10
13.4613248654051
20
-38.1154578595254
30
0
0
SPLINE
5
E3
100
AcDbEntity
8
1
62
256
6
ByLayer
370
18
48
1
60
0
100
AcDbSpline
70
4
71
3
72
20
73
16
40
0
40
0
40
0
40
0
40
0.250000000000001
40
0.250000000000001
40
0.500000000000001
40
0.500000000000001
40
0.625000000000003
40
0.625000000000003
40
0.750000000000004
40
0.750000000000004
40
0.875000000000005
40
0.875000000000005
40
0.937500000000003
40
0.937500000000003
40
1
40
1
40
1
40
1
41
1
10
10.1056624327026
20
-12.6576002058702
30
1.8E-15
41
1
10
10.1209906769471
20
-12.6012596304485
30
1.8E-15
41
1
10
10.1394128644445
20
-12.5453576727326
30
1.8E-15
41
1
10
10.1852906111849
20
-12.43487919053
30
1.9E-15
41
1
10
10.2121862825547
20
-12.3814739410637
30
2E-15
41
1
10
10.2617406486492
20
-12.306318282953
30
2E-15
41
1
10
10.2799558568029
20
-12.2819364517829
30
2E-15
41
1
10
10.3202766013588
20
-12.2362789825947
30
2E-15
41
1
10
10.342214905586
20
-12.2151106097224
30
2E-15
41
1
10
10.3913456975561
20
-12.1776939678707
30
2E-15
41
1
10
10.4179256100856
20
-12.1619399442182
30
2E-15
41
1
10
10.4615353242581
20
-12.1450527389049
30
1.9E-15
41
1
10
10.4767096145032
20
-12.140594697721
30
1.9E-15
41
1
10
10.5072924746207
20
-12.1346448581823
30
1.9E-15
41
1
10
10.5228470938691
20
-12.1330899674705
30
1.9E-15
41
1
10
10.5386751345948
20
-12.1330899674705
30
1.9E-15
0
SPLINE
5
E4
100
AcDbEntity
8
1
62
256
6
ByLayer
370
18
48
1
60
0
100
AcDbSpline
70
4
71
3
72
20
73
16
40
0
40
0
40
0
40
0
40
0.0625000000000013
40
0.0625000000000013
40
0.125000000000003
40
0.125000000000003
40
0.250000000000003
40
0.250000000000003
40
0.375000000000003
40
0.375000000000003
40
0.500000000000003
40
0.500000000000003
40
0.750000000000002
40
0.750000000000002
40
1
40
1
40
1
40
1
41
1
10
10.5386751345948
20
-38.1154578595255
30
-2E-16
41
1
10
10.5228418353561
20
-38.1154578595255
30
-1E-16
41
1
10
10.5072890621506
20
-38.1149629513186
30
-1E-16
41
1
10
10.4766964119209
20
-38.1130672446235
30
-1E-16
41
1
10
10.4615144689797
20
-38.111646103256
30
-1E-16
41
1
10
10.417897483294
20
-38.1062595844019
30
0
41
1
10
10.3912834515396
20
-38.101222372497
30
0
41
1
10
10.3421806522652
20
-38.0892461845821
30
1E-16
41
1
10
10.3203472128513
20
-38.0824813306425
30
1E-16
41
1
10
10.2802884612965
20
-38.0678928550269
30
2E-16
41
1
10
10.2619997282707
20
-38.0600083331529
30
2E-16
41
1
10
10.2122760978464
20
-38.0355963060413
30
3E-16
41
1
10
10.1855564135379
20
-38.0182809822055
30
4E-16
41
1
10
10.1399256481519
20
-37.9822540226331
30
5E-16
41
1
10
10.1211281228038
20
-37.9634637345888
30
5E-16
41
1
10
10.1056624327025
20
-37.9445010117191
30
6E-16
0
LINE
5
7A
100
AcDbEntity
8
81
62
256
6
ByLayer
370
13
48
0.05
60
0
100
AcDbLine
10
120
20
8.5
30
0
11
143
21
8.5
31
0
39
0
210
0
220
0
230
1
0
LINE
5
7B
100
AcDbEntity
8
1
62
256
6
ByLayer
370
18
48
1
60
1
100
AcDbLine
10
301.795592
20
175.173124
30
0
11
301.377595
21
178.348123
31
0
39
0
210
0
220
0
230
1
0
LINE
5
7C
100
AcDbEntity
8
1
62
256
6
ByLayer
370
18
48
1
60
1
100
AcDbLine
10
301.377595
20
178.348123
30
0
11
302.213588
21
178.348126
31
0
39
0
210
0
220
0
230
1
0
LINE
5
7D
100
AcDbEntity
8
1
62
256
6
ByLayer
370
18
48
1
60
1
100
AcDbLine
10
302.213588
20
178.348126
30
0
11
301.795592
21
175.173124
31
0
39
0
210
0
220
0
230
1
0
LINE
5
7E
100
AcDbEntity
8
1
62
256
6
ByLayer
370
18
48
1
60
1
100
AcDbLine
10
301.795592
20
165.173124
30
0
11
302.213588
21
161.998126
31
0
39
0
210
0
220
0
230
1
0
LINE
5
7F
100
AcDbEntity
8
1
62
256
6
ByLayer
370
18
48
1
60
1
100
AcDbLine
10
302.213588
20
161.998126
30
0
11
301.377595
21
161.998123
31
0
39
0
210
0
220
0
230
1
0
LINE
5
80
100
AcDbEntity
8
1
62
256
6
ByLayer
370
18
48
1
60
1
100
AcDbLine
10
301.377595
20
161.998123
30
0
11
301.795592
21
165.173124
31
0
39
0
210
0
220
0
230
1
0
LINE
5
81
100
AcDbEntity
8
80
62
256
6
ByLayer
370
13
48
0.05
60
0
100
AcDbLine
10
0
20
0
30
0
11
-31
21
0
31
0
39
0
210
0
220
0
230
1
0
LINE
5
82
100
AcDbEntity
8
SK4
62
256
6
ByLayer
370
13
48
0.05
60
0
100
AcDbLine
10
-50
20
0
30
0
11
122
21
0
31
0
39
0
210
0
220
0
230
1
0
LINE
5
84
100
AcDbEntity
8
SK4
62
256
6
ByLayer
370
13
48
0.05
60
0
100
AcDbLine
10
45
20
8.5
30
0
11
122
21
8.5
31
0
39
0
210
0
220
0
230
1
0
LINE
5
85
100
AcDbEntity
8
1
62
256
6
ByLayer
370
18
48
1
60
0
100
AcDbLine
10
120
20
39.8
30
0
11
119.8
21
40
31
0
39
0
210
0
220
0
230
1
0
LINE
5
86
100
AcDbEntity
8
1
62
256
6
ByLayer
370
18
48
1
60
0
100
AcDbLine
10
0.3
20
40
30
0
11
0
21
39.7
31
0
39
0
210
0
220
0
230
1
0
LINE
5
87
100
AcDbEntity
8
1
62
256
6
ByLayer
370
18
48
1
60
0
100
AcDbLine
10
0
20
-39.7
30
0
11
0.3
21
-40
31
0
39
0
210
0
220
0
230
1
0
LINE
5
88
100
AcDbEntity
8
1
62
256
6
ByLayer
370
18
48
1
60
0
100
AcDbLine
10
0.3
20
-40
30
0
11
30.004777
21
-40
31
0
39
0
210
0
220
0
230
1
0
LINE
5
89
100
AcDbEntity
8
1
62
256
6
ByLayer
370
18
48
1
60
0
100
AcDbLine
10
33.484217
20
40
30
0
11
0.3
21
40
31
0
39
0
210
0
220
0
230
1
0
LINE
5
8A
100
AcDbEntity
8
1
62
256
6
ByLayer
370
18
48
1
60
0
100
AcDbLine
10
115
20
40
30
0
11
61.515783
21
40
31
0
39
0
210
0
220
0
230
1
0
LINE
5
8B
100
AcDbEntity
8
1
62
256
6
ByLayer
370
18
48
1
60
0
100
AcDbLine
10
30
20
-40
30
0
11
115
21
-23
31
0
39
0
210
0
220
0
230
1
0
LINE
5
8C
100
AcDbEntity
8
1
62
256
6
ByLayer
370
18
48
1
60
0
100
AcDbLine
10
119.8
20
40
30
0
11
115
21
40
31
0
39
0
210
0
220
0
230
1
0
LINE
5
8D
100
AcDbEntity
8
1
62
256
6
ByLayer
370
18
48
1
60
0
100
AcDbLine
10
115
20
-23
30
0
11
119.8
21
-23
31
0
39
0
210
0
220
0
230
1
0
LINE
5
8E
100
AcDbEntity
8
1
62
256
6
ByLayer
370
18
48
1
60
0
100
AcDbLine
10
119.8
20
-23
30
0
11
120
21
-22.8
31
0
39
0
210
0
220
0
230
1
0
LINE
5
8F
100
AcDbEntity
8
1
62
256
6
ByLayer
370
18
48
1
60
0
100
AcDbLine
10
10.105662
20
12.6576
30
0
11
10.105662
21
37.944501
31
0
39
0
210
0
220
0
230
1
0
LINE
5
90
100
AcDbEntity
8
1
62
256
6
ByLayer
370
18
48
1
60
0
100
AcDbLine
10
13.894338
20
12.6576
30
0
11
13.894338
21
37.944501
31
0
39
0
210
0
220
0
230
1
0
LINE
5
91
100
AcDbEntity
8
1
62
256
6
ByLayer
370
18
48
1
60
0
100
AcDbLine
10
13.461325
20
-38.115458
30
0
11
13.461325
21
-12.13309
31
0
39
0
210
0
220
0
230
1
0
LINE
5
92
100
AcDbEntity
8
1
62
256
6
ByLayer
370
18
48
1
60
0
100
AcDbLine
10
10.538675
20
-38.115458
30
0
11
10.538675
21
-12.13309
31
0
39
0
210
0
220
0
230
1
0
LINE
5
93
100
AcDbEntity
8
1
62
256
6
ByLayer
370
18
48
1
60
0
100
AcDbLine
10
10.105662
20
-37.944501
30
0
11
10.105662
21
-12.6576
31
0
39
0
210
0
220
0
230
1
0
LINE
5
94
100
AcDbEntity
8
1
62
256
6
ByLayer
370
18
48
1
60
0
100
AcDbLine
10
0.3
20
40
30
0
11
0.3
21
0
31
0
39
0
210
0
220
0
230
1
0
LINE
5
95
100
AcDbEntity
8
1
62
256
6
ByLayer
370
18
48
1
60
0
100
AcDbLine
10
0.3
20
0
30
0
11
0.3
21
-40
31
0
39
0
210
0
220
0
230
1
0
LINE
5
96
100
AcDbEntity
8
1
62
256
6
ByLayer
370
18
48
1
60
0
100
AcDbLine
10
13.461325
20
38.115458
30
0
11
10.538675
21
38.115458
31
0
39
0
210
0
220
0
230
1
0
LINE
5
97
100
AcDbEntity
8
1
62
256
6
ByLayer
370
18
48
1
60
0
100
AcDbLine
10
10.538675
20
12.13309
30
0
11
13.461325
21
12.13309
31
0
39
0
210
0
220
0
230
1
0
LINE
5
98
100
AcDbEntity
8
1
62
256
6
ByLayer
370
18
48
1
60
0
100
AcDbLine
10
10.538675
20
12.13309
30
0
11
10.538675
21
38.115458
31
0
39
0
210
0
220
0
230
1
0
LINE
5
99
100
AcDbEntity
8
1
62
256
6
ByLayer
370
18
48
1
60
0
100
AcDbLine
10
120
20
39.8
30
0
11
120
21
-22.8
31
0
39
0
210
0
220
0
230
1
0
LINE
5
9A
100
AcDbEntity
8
SK1
62
256
6
ByLayer
370
18
48
1
60
0
100
AcDbLine
10
-1.307107
20
4.393236
30
0
11
-1.307107
21
-4.393236
31
0
39
0
210
0
220
0
230
1
0
LINE
5
9C
100
AcDbEntity
8
1
62
256
6
ByLayer
370
18
48
1
60
0
100
AcDbLine
10
115
20
8.5
30
0
11
115
21
40
31
0
39
0
210
0
220
0
230
1
0
LINE
5
9D
100
AcDbEntity
8
1
62
256
6
ByLayer
370
18
48
1
60
0
100
AcDbLine
10
115
20
-23
30
0
11
115
21
8.5
31
0
39
0
210
0
220
0
230
1
0
LINE
5
9E
100
AcDbEntity
8
1
62
256
6
ByLayer
370
18
48
1
60
0
100
AcDbLine
10
52.5
20
34.5
30
0
11
42.5
21
34.5
31
0
39
0
210
0
220
0
230
1
0
LINE
5
9F
100
AcDbEntity
8
1
62
256
6
ByLayer
370
18
48
1
60
0
100
AcDbLine
10
52.5
20
37.792848
30
0
11
52.5
21
34.5
31
0
39
0
210
0
220
0
230
1
0
LINE
5
A0
100
AcDbEntity
8
1
62
256
6
ByLayer
370
18
48
1
60
0
100
AcDbLine
10
42.5
20
34.5
30
0
11
42.5
21
37.792848
31
0
39
0
210
0
220
0
230
1
0
LINE
5
A1
100
AcDbEntity
8
1
62
256
6
ByLayer
370
18
48
1
60
0
100
AcDbLine
10
119.8
20
40
30
0
11
119.8
21
8.5
31
0
39
0
210
0
220
0
230
1
0
LINE
5
A2
100
AcDbEntity
8
1
62
256
6
ByLayer
370
18
48
1
60
0
100
AcDbLine
10
119.8
20
8.5
30
0
11
119.8
21
-23
31
0
39
0
210
0
220
0
230
1
0
LINE
5
A3
100
AcDbEntity
8
1
62
256
6
ByLayer
370
18
48
1
60
0
100
AcDbLine
10
13.461325
20
-12.13309
30
0
11
10.538675
21
-12.13309
31
0
39
0
210
0
220
0
230
1
0
LINE
5
A4
100
AcDbEntity
8
1
62
256
6
ByLayer
370
18
48
1
60
0
100
AcDbLine
10
13.461325
20
12.13309
30
0
11
13.461325
21
38.115458
31
0
39
0
210
0
220
0
230
1
0
LINE
5
A5
100
AcDbEntity
8
1
62
256
6
ByLayer
370
18
48
1
60
0
100
AcDbLine
10
10.538675
20
-38.115458
30
0
11
13.461325
21
-38.115458
31
0
39
0
210
0
220
0
230
1
0
LINE
5
A6
100
AcDbEntity
8
1
62
256
6
ByLayer
370
18
48
1
60
0
100
AcDbLine
10
0
20
-39.7
30
0
11
0
21
39.7
31
0
39
0
210
0
220
0
230
1
0
LINE
5
A7
100
AcDbEntity
8
1
62
256
6
ByLayer
370
18
48
1
60
0
100
AcDbLine
10
13.894338
20
-37.944501
30
0
11
13.894338
21
-12.6576
31
0
39
0
210
0
220
0
230
1
0
LINE
5
A8
100
AcDbEntity
8
1
62
256
6
ByLayer
370
18
48
1
60
0
100
AcDbLine
10
42.500603
20
37.345299
30
0
11
52.499397
21
37.345299
31
0
39
0
210
0
220
0
230
1
0
LINE
5
A9
100
AcDbEntity
8
1
62
256
6
ByLayer
370
18
48
1
60
0
100
AcDbLine
10
56.390997
20
38.5
30
0
11
47.5
21
38.5
31
0
39
0
210
0
220
0
230
1
0
LINE
5
AA
100
AcDbEntity
8
1
62
256
6
ByLayer
370
18
48
1
60
0
100
AcDbLine
10
47.5
20
38.5
30
0
11
38.601143
21
38.5
31
0
39
0
210
0
220
0
230
1
0
LINE
5
AB
100
AcDbEntity
8
1
62
256
6
ByLayer
370
13
48
1
60
0
100
AcDbLine
10
52.50083
20
34.75
30
0
11
42.500364
21
34.75
31
0
39
0
210
0
220
0
230
1
0
LINE
5
AC
100
AcDbEntity
8
1
62
256
6
ByLayer
370
13
48
1
60
0
100
AcDbLine
10
52.50083
20
35.95
30
0
11
42.500364
21
35.95
31
0
39
0
210
0
220
0
230
1
0
LINE
5
AD
100
AcDbEntity
8
4
62
256
6
ByLayer
370
13
48
0.05
60
0
100
AcDbLine
10
0
20
0
30
0
11
120
21
0
31
0
39
0
210
0
220
0
230
1
0
MTEXT
5
E5
100
AcDbEntity
8
SK6
62
256
6
ByLayer
370
18
48
1
60
0
100
AcDbMText
10
5.583872
20
-16.939875
30
0
210
0
220
0
230
1
1
\W0.7065;C8-QC-C6-120R09
40
3
41
0
44
1.084337
50
89.9999999999985
71
7
72
5
7
iso_b_vert
0
DIMENSION
5
F3
100
AcDbEntity
8
SK2
62
256
6
ByLayer
370
13
48
1
60
0
100
AcDbDimension
2
DimnDraft3D1
10
151.75
20
0
30
0
11
151.75
21
15.175
31
0
70
32
71
5
72
1
41
1
210
0
220
0
230
1
3
Standard
100
AcDbAlignedDimension
13
124
23
8.5
33
0
14
124
24
0
34
0
50
90
100
AcDbRotatedDimension
1001
ACAD
1000
DSTYLE
1002
{
1070
    74
1070
     0
1070
   279
1070
     0
1070
   172
1070
     1
1070
   173
1070
     1
1070
   340
1005
E6
1070
   271
1070
     1
1070
    77
1070
     1
1070
    73
1070
     0
1070
   171
1070
     4
1070
   274
1070
     4
1070
   177
1070
     7
1070
   176
1070
     7
1070
   178
1070
     7
1070
    78
1070
     8
1070
    41
1041
3.175
1070
   147
1041
1.75
1070
    42
1041
2.0
1070
    44
1041
2.0
1070
   140
1041
3.5
1070
   343
1005
0
1070
   344
1005
0
1002
}
0
DIMENSION
5
FE
100
AcDbEntity
8
SK2
62
256
6
ByLayer
370
13
48
1
60
0
100
AcDbDimension
2
DimnDraft3D2
10
-60.25
20
-40
30
0
11
-60
21
0.833553
31
0
70
33
71
5
72
1
41
1
210
0
220
0
230
1
3
Standard
100
AcDbAlignedDimension
13
-1.7
23
40
33
0
14
-1.7
24
-40
34
0
1001
ACAD
1000
DSTYLE
1002
{
1070
   279
1070
     0
1070
    74
1070
     0
1070
   173
1070
     1
1070
   340
1005
E6
1070
    77
1070
     1
1070
    73
1070
     0
1070
   171
1070
     4
1070
   274
1070
     4
1070
   177
1070
     7
1070
   176
1070
     7
1070
   178
1070
     7
1070
    78
1070
     8
1070
    41
1041
3.175
1070
   147
1041
1.75
1070
    42
1041
2.0
1070
    44
1041
2.0
1070
   140
1041
3.5
1070
   343
1005
0
1070
   344
1005
0
1002
}
0
DIMENSION
5
109
100
AcDbEntity
8
2
62
256
6
ByLayer
370
13
48
1
60
0
100
AcDbDimension
2
DimnDraft3D3
10
120
20
58.25
30
0
11
57.038816
21
58.25
31
0
70
32
71
5
72
1
41
1
210
0
220
0
230
1
3
Standard
100
AcDbAlignedDimension
13
0
23
41.7
33
0
14
120
24
41.8
34
0
50
0
100
AcDbRotatedDimension
1001
ACAD
1000
DSTYLE
1002
{
1070
   279
1070
     0
1070
   172
1070
     1
1070
   173
1070
     1
1070
   340
1005
E6
1070
    77
1070
     1
1070
    73
1070
     0
1070
   171
1070
     4
1070
   274
1070
     4
1070
   177
1070
     7
1070
   176
1070
     7
1070
   178
1070
     7
1070
    78
1070
     8
1070
    41
1041
3.175
1070
   147
1041
1.75
1070
    42
1041
2.0
1070
    44
1041
2.0
1070
   140
1041
3.5
1070
   343
1005
0
1070
   344
1005
0
1002
}
0
DIMENSION
5
114
100
AcDbEntity
8
SK2
62
256
6
ByLayer
370
13
48
1
60
0
100
AcDbDimension
2
DimnDraft3D4
10
168.75
20
40
30
0
11
165
21
9.333553
31
0
70
33
71
5
72
1
41
1
210
0
220
0
230
1
3
Standard
100
AcDbAlignedDimension
13
121.8
23
-23
33
0
14
121.8
24
40
34
0
1001
ACAD
1000
DSTYLE
1002
{
1070
   279
1070
     0
1070
    74
1070
     0
1070
   173
1070
     1
1070
   340
1005
E6
1070
    77
1070
     1
1070
    73
1070
     0
1070
   171
1070
     4
1070
   274
1070
     4
1070
   177
1070
     7
1070
   176
1070
     7
1070
   178
1070
     7
1070
    78
1070
     8
1070
    41
1041
3.175
1070
   147
1041
1.75
1070
    42
1041
2.0
1070
    44
1041
2.0
1070
   140
1041
3.5
1070
   343
1005
0
1070
   344
1005
0
1002
}
0
ENDSEC
0
SECTION
2
OBJECTS
0
DICTIONARY
5
17f
330
0
100
AcDbDictionary
280
0
281
1
3
ACAD_GROUP
350
180
3
ACAD_MLINESTYLE
350
181
0
DICTIONARY
5
180
330
0
100
AcDbDictionary
280
0
281
1
0
DICTIONARY
5
181
330
0
100
AcDbDictionary
280
0
281
1
3
Standard
350
18
0
MLINESTYLE
5
18
330
181
100
AcDbMlineStyle
2
Standard
70
0
3

62
256
51
90
52
90
71
2
49
-0.5
62
256
6
ByLayer
49
0.5
62
256
6
ByLayer
0
RASTERVARIABLES
5
16d
330

100
AcDbRasterVariables
90
0
70
1
71
1
72
1
0
ENDSEC
0
EOF
