0
SECTION
2
HEADER
9
$ACADVER
1
AC1015
9
$DWGCODEPAGE
3
ANSI_1252
9
$HANDSEED
5
23d
9
$ANGBASE
50
0
9
$ANGDIR
70
0
9
$ATTMODE
70
1
9
$AUNITS
70
0
9
$AUPREC
70
0
9
$CECOLOR
62
256
9
$CELTSCALE
40
1
9
$CELTYPE
6
ByLayer
9
$CELWEIGHT
370
18
9
$CLAYER
8
0
9
$CMLJUST
70
0
9
$CMLSCALE
40
1
9
$CMLSTYLE
2
Standard
9
$DIMSTYLE
2
Standard
9
$TEXTSIZE
40
0.2
9
$TEXTSTYLE
7
Standard
9
$LUNITS
70
2
9
$LUPREC
70
4
9
$EXTNAMES
290
1
9
$INSUNITS
70
4
9
$LTSCALE
40
1
9
$LWDISPLAY
290
1
9
$PDMODE
70
0
9
$PDSIZE
40
0
9
$PLINEGEN
70
0
0
ENDSEC
0
SECTION
2
CLASSES
0
CLASS
1
RASTERVARIABLES
2
AcDbRasterVariables
3
ISM
90
0
280
0
281
0
0
ENDSEC
0
SECTION
2
TABLES
0
TABLE
2
VPORT
5
233
100
AcDbSymbolTable
0
VPORT
5
1
100
AcDbSymbolTableRecord
100
AcDbViewportTableRecord
2
*Active
70
0
10
0
20
0
11
1
21
1
12
-1
22
1
13
0
23
0
14
0.5
24
0.5
15
10
25
10
16
0
26
0
36
1
17
0
27
0
37
0
0
ENDTAB
0
TABLE
2
LTYPE
5
234
100
AcDbSymbolTable
0
LTYPE
5
14
100
AcDbSymbolTableRecord
100
AcDbLinetypeTableRecord
70
0
2
ByBlock
3

72
65
73
0
40
0
0
LTYPE
5
15
100
AcDbSymbolTableRecord
100
AcDbLinetypeTableRecord
70
0
2
ByLayer
3

72
65
73
0
40
0
0
LTYPE
5
16
100
AcDbSymbolTableRecord
100
AcDbLinetypeTableRecord
70
0
2
CONTINUOUS
3
Solid line
72
65
73
0
40
0
0
LTYPE
5
6A
100
AcDbSymbolTableRecord
100
AcDbLinetypeTableRecord
70
0
2
CENTER
3
____ _ ____ _ ____ _ ____
72
65
73
4
40
47.5
49
22
74
0
49
-8.5
74
0
49
8.5
74
0
49
-8.5
74
0
0
LTYPE
5
6B
100
AcDbSymbolTableRecord
100
AcDbLinetypeTableRecord
70
0
2
DASHED
3
__ __ __ __ __ __ __ __ __
72
65
73
2
40
25.72
49
12.86
74
0
49
-12.86
74
0
0
ENDTAB
0
TABLE
2
LAYER
5
235
100
AcDbSymbolTable
0
LAYER
5
10
100
AcDbSymbolTableRecord
100
AcDbLayerTableRecord
2
0
70
0
62
7
6
CONTINUOUS
290
1
370
-3
390
0
0
LAYER
5
6D
100
AcDbSymbolTableRecord
100
AcDbLayerTableRecord
2
1
70
0
62
4
6
CONTINUOUS
290
1
370
-3
390
0
0
LAYER
5
7A
100
AcDbSymbolTableRecord
100
AcDbLayerTableRecord
2
80
70
0
62
-6
6
CONTINUOUS
290
1
370
-3
390
0
0
LAYER
5
7C
100
AcDbSymbolTableRecord
100
AcDbLayerTableRecord
2
81
70
0
62
-3
6
CONTINUOUS
290
1
370
-3
390
0
0
LAYER
5
F0
100
AcDbSymbolTableRecord
100
AcDbLayerTableRecord
2
4
70
0
62
-2
6
CENTER
290
1
370
-3
390
0
0
LAYER
5
19D
100
AcDbSymbolTableRecord
100
AcDbLayerTableRecord
2
2
70
0
62
7
6
CONTINUOUS
290
1
370
-3
390
0
0
LAYER
5
21f
100
AcDbSymbolTableRecord
100
AcDbLayerTableRecord
2
SK1
70
0
62
4
6
CONTINUOUS
290
1
370
-3
390
0
0
LAYER
5
220
100
AcDbSymbolTableRecord
100
AcDbLayerTableRecord
2
SK4
70
0
62
2
6
CENTER
290
1
370
-3
390
0
0
LAYER
5
221
100
AcDbSymbolTableRecord
100
AcDbLayerTableRecord
2
SK6
70
0
62
5
6
CONTINUOUS
290
1
370
-3
390
0
0
LAYER
5
222
100
AcDbSymbolTableRecord
100
AcDbLayerTableRecord
2
SK2
70
0
62
7
6
CONTINUOUS
290
1
370
-3
390
0
0
ENDTAB
0
TABLE
2
STYLE
5
236
100
AcDbSymbolTable
0
STYLE
5
11
100
AcDbSymbolTableRecord
100
AcDbTextStyleTableRecord
2
Standard
3
txt
70
0
71
0
40
0
41
1
42
0
50
0
0
STYLE
5
188
100
AcDbSymbolTableRecord
100
AcDbTextStyleTableRecord
2
iso_b_vert
3
simplex.shx
70
0
71
0
40
0
41
1
42
0
50
0
0
STYLE
5
189
100
AcDbSymbolTableRecord
100
AcDbTextStyleTableRecord
2
DWGDirectTextStyle
3
simplex
70
0
71
0
40
0
41
1
42
0
50
0
0
ENDTAB
0
TABLE
2
DIMSTYLE
5
237
100
AcDbSymbolTable
100
AcDbDimStyleTable
0
DIMSTYLE
105
27
100
AcDbSymbolTableRecord
100
AcDbDimStyleTableRecord
2
Standard
70
0
3
<>
41
0.18
42
0.0625
44
0.18
140
0.18
147
0.09
73
0
74
0
77
1
271
2
275
0
278
52
280
0
340
11
0
ENDTAB
0
TABLE
2
VIEW
5
238
100
AcDbSymbolTable
0
ENDTAB
0
TABLE
2
UCS
5
239
100
AcDbSymbolTable
0
ENDTAB
0
TABLE
2
APPID
5
23a
100
AcDbSymbolTable
0
APPID
5
12
100
AcDbSymbolTableRecord
100
AcDbRegAppTableRecord
2
ACAD
70
0
0
ENDTAB
0
TABLE
2
BLOCK_RECORD
5
23b
100
AcDbSymbolTable
0
BLOCK_RECORD
5
1F
100
AcDbSymbolTableRecord
100
AcDbBlockTableRecord
2
*Model_Space
340
0
70
0
0
BLOCK_RECORD
5
1B
100
AcDbSymbolTableRecord
100
AcDbBlockTableRecord
2
*Paper_Space
340
0
70
0
0
BLOCK_RECORD
5
23
100
AcDbSymbolTableRecord
100
AcDbBlockTableRecord
2
*Paper_Space0
340
0
70
0
0
BLOCK_RECORD
5
18B
100
AcDbSymbolTableRecord
100
AcDbBlockTableRecord
2
DimnDraft3D1
340
0
70
0
0
BLOCK_RECORD
5
19B
100
AcDbSymbolTableRecord
100
AcDbBlockTableRecord
2
DimnDraft3D2
340
0
70
0
0
BLOCK_RECORD
5
1AA
100
AcDbSymbolTableRecord
100
AcDbBlockTableRecord
2
DimnDraft3D3
340
0
70
0
0
BLOCK_RECORD
5
1B8
100
AcDbSymbolTableRecord
100
AcDbBlockTableRecord
2
DimnDraft3D4
340
0
70
0
0
ENDTAB
0
ENDSEC
0
SECTION
2
BLOCKS
0
BLOCK
5
20
100
AcDbEntity
8
0
100
AcDbBlockBegin
2
*Model_Space
70
0
10
0
20
0
30
0
3
*Model_Space
0
ENDBLK
5
21
100
AcDbEntity
8
0
100
AcDbBlockEnd
0
BLOCK
5
1C
100
AcDbEntity
8
0
100
AcDbBlockBegin
2
*Paper_Space
70
0
10
0
20
0
30
0
3
*Paper_Space
0
ENDBLK
5
1D
100
AcDbEntity
8
0
100
AcDbBlockEnd
0
BLOCK
5
24
100
AcDbEntity
8
0
100
AcDbBlockBegin
2
*Paper_Space0
70
0
10
0
20
0
30
0
3
*Paper_Space0
0
ENDBLK
5
25
100
AcDbEntity
8
0
100
AcDbBlockEnd
0
BLOCK
5
198
100
AcDbEntity
8
0
100
AcDbBlockBegin
2
DimnDraft3D1
70
0
10
0
20
0
30
0
3
DimnDraft3D1
0
MTEXT
5
18C
100
AcDbEntity
8
SK2
62
256
6
ByLayer
370
18
48
1
60
0
100
AcDbMText
10
-64.221543
20
4.080403
30
0
210
0
220
0
230
1
1
\W0.6562;80
40
3.50012
41
0
44
1.084337
50
90
71
7
72
5
7
iso_b_vert
0
MTEXT
5
18E
100
AcDbEntity
8
SK2
62
256
6
ByLayer
370
18
48
1
60
0
100
AcDbMText
10
-64.221543
20
-4.642552
30
0
210
0
220
0
230
1
1
%%c
40
3.50012
41
0
44
1.084337
50
90
71
7
72
5
7
iso_b_vert
0
LINE
5
18F
100
AcDbEntity
8
SK2
62
256
6
ByLayer
370
13
48
1
60
0
100
AcDbLine
10
-1.2875
20
40
30
0
11
-65.646483
21
40
31
0
39
0
210
0
220
0
230
1
0
LINE
5
190
100
AcDbEntity
8
SK2
62
256
6
ByLayer
370
13
48
1
60
0
100
AcDbLine
10
-1.2875
20
-40
30
0
11
-65.646483
21
-40
31
0
39
0
210
0
220
0
230
1
0
LINE
5
191
100
AcDbEntity
8
SK2
62
256
6
ByLayer
370
13
48
1
60
0
100
AcDbLine
10
-62.471483
20
40
30
0
11
-62.471483
21
-40
31
0
39
0
210
0
220
0
230
1
0
LINE
5
192
100
AcDbEntity
8
SK2
62
256
6
ByLayer
370
13
48
1
60
0
100
AcDbLine
10
-62.471483
20
40
30
0
11
-62.053486
21
36.825002
31
0
39
0
210
0
220
0
230
1
0
LINE
5
193
100
AcDbEntity
8
SK2
62
256
6
ByLayer
370
13
48
1
60
0
100
AcDbLine
10
-62.471483
20
40
30
0
11
-62.889479
21
36.824998
31
0
39
0
210
0
220
0
230
1
0
LINE
5
194
100
AcDbEntity
8
SK2
62
256
6
ByLayer
370
13
48
1
60
0
100
AcDbLine
10
-62.053486
20
36.825002
30
0
11
-62.889479
21
36.824998
31
0
39
0
210
0
220
0
230
1
0
LINE
5
195
100
AcDbEntity
8
SK2
62
256
6
ByLayer
370
13
48
1
60
0
100
AcDbLine
10
-62.471483
20
-40
30
0
11
-62.889479
21
-36.825002
31
0
39
0
210
0
220
0
230
1
0
LINE
5
196
100
AcDbEntity
8
SK2
62
256
6
ByLayer
370
13
48
1
60
0
100
AcDbLine
10
-62.471483
20
-40
30
0
11
-62.053486
21
-36.824998
31
0
39
0
210
0
220
0
230
1
0
LINE
5
197
100
AcDbEntity
8
SK2
62
256
6
ByLayer
370
13
48
1
60
0
100
AcDbLine
10
-62.889479
20
-36.825002
30
0
11
-62.053486
21
-36.824998
31
0
39
0
210
0
220
0
230
1
0
ENDBLK
5
199
100
AcDbEntity
8
0
100
AcDbBlockEnd
0
BLOCK
5
1A7
100
AcDbEntity
8
0
100
AcDbBlockBegin
2
DimnDraft3D2
70
0
10
0
20
0
30
0
3
DimnDraft3D2
0
MTEXT
5
19C
100
AcDbEntity
8
2
62
256
6
ByLayer
370
18
48
1
60
0
100
AcDbMText
10
98.743167
20
36.022971
30
0
210
0
220
0
230
1
1
\W0.6562;55
40
3.50012
41
0
44
1.084337
50
90
71
7
72
5
7
iso_b_vert
0
LINE
5
19E
100
AcDbEntity
8
2
62
256
6
ByLayer
370
13
48
1
60
0
100
AcDbLine
10
69.8875
20
0
30
0
11
102.793197
21
0
31
0
39
0
210
0
220
0
230
1
0
LINE
5
19F
100
AcDbEntity
8
2
62
256
6
ByLayer
370
13
48
1
60
0
100
AcDbLine
10
80.808116
20
54.99976
30
0
11
102.793197
21
54.99976
31
0
39
0
210
0
220
0
230
1
0
LINE
5
1A0
100
AcDbEntity
8
2
62
256
6
ByLayer
370
13
48
1
60
0
100
AcDbLine
10
99.618197
20
0
30
0
11
99.618197
21
54.99976
31
0
39
0
210
0
220
0
230
1
0
LINE
5
1A1
100
AcDbEntity
8
2
62
256
6
ByLayer
370
13
48
1
60
0
100
AcDbLine
10
99.618197
20
0
30
0
11
99.2002
21
3.174998
31
0
39
0
210
0
220
0
230
1
0
LINE
5
1A2
100
AcDbEntity
8
2
62
256
6
ByLayer
370
13
48
1
60
0
100
AcDbLine
10
99.618197
20
0
30
0
11
100.036193
21
3.175002
31
0
39
0
210
0
220
0
230
1
0
LINE
5
1A3
100
AcDbEntity
8
2
62
256
6
ByLayer
370
13
48
1
60
0
100
AcDbLine
10
99.2002
20
3.174998
30
0
11
100.036193
21
3.175002
31
0
39
0
210
0
220
0
230
1
0
LINE
5
1A4
100
AcDbEntity
8
2
62
256
6
ByLayer
370
13
48
1
60
0
100
AcDbLine
10
99.618197
20
54.99976
30
0
11
100.036193
21
51.824762
31
0
39
0
210
0
220
0
230
1
0
LINE
5
1A5
100
AcDbEntity
8
2
62
256
6
ByLayer
370
13
48
1
60
0
100
AcDbLine
10
99.618197
20
54.99976
30
0
11
99.2002
21
51.824759
31
0
39
0
210
0
220
0
230
1
0
LINE
5
1A6
100
AcDbEntity
8
2
62
256
6
ByLayer
370
13
48
1
60
0
100
AcDbLine
10
100.036193
20
51.824762
30
0
11
99.2002
21
51.824759
31
0
39
0
210
0
220
0
230
1
0
ENDBLK
5
1A8
100
AcDbEntity
8
0
100
AcDbBlockEnd
0
BLOCK
5
1B5
100
AcDbEntity
8
0
100
AcDbBlockBegin
2
DimnDraft3D3
70
0
10
0
20
0
30
0
3
DimnDraft3D3
0
MTEXT
5
1AB
100
AcDbEntity
8
2
62
256
6
ByLayer
370
18
48
1
60
0
100
AcDbMText
10
47.995223
20
81.398187
30
0
210
0
220
0
230
1
1
\W0.6562;80
40
3.50012
41
0
44
1.084337
50
0
71
7
72
5
7
iso_b_vert
0
LINE
5
1AC
100
AcDbEntity
8
2
62
256
6
ByLayer
370
13
48
1
60
0
100
AcDbLine
10
0
20
41.2875
30
0
11
0
21
83.698157
31
0
39
0
210
0
220
0
230
1
0
LINE
5
1AD
100
AcDbEntity
8
2
62
256
6
ByLayer
370
13
48
1
60
0
100
AcDbLine
10
79.998921
20
55.747705
30
0
11
79.998921
21
83.698157
31
0
39
0
210
0
220
0
230
1
0
LINE
5
1AE
100
AcDbEntity
8
2
62
256
6
ByLayer
370
13
48
1
60
0
100
AcDbLine
10
0
20
80.523157
30
0
11
79.998921
21
80.523157
31
0
39
0
210
0
220
0
230
1
0
LINE
5
1AF
100
AcDbEntity
8
2
62
256
6
ByLayer
370
13
48
1
60
0
100
AcDbLine
10
0
20
80.523157
30
0
11
3.174998
21
80.941154
31
0
39
0
210
0
220
0
230
1
0
LINE
5
1B0
100
AcDbEntity
8
2
62
256
6
ByLayer
370
13
48
1
60
0
100
AcDbLine
10
0
20
80.523157
30
0
11
3.175002
21
80.105161
31
0
39
0
210
0
220
0
230
1
0
LINE
5
1B1
100
AcDbEntity
8
2
62
256
6
ByLayer
370
13
48
1
60
0
100
AcDbLine
10
3.174998
20
80.941154
30
0
11
3.175002
21
80.105161
31
0
39
0
210
0
220
0
230
1
0
LINE
5
1B2
100
AcDbEntity
8
2
62
256
6
ByLayer
370
13
48
1
60
0
100
AcDbLine
10
79.998921
20
80.523157
30
0
11
76.823923
21
80.105161
31
0
39
0
210
0
220
0
230
1
0
LINE
5
1B3
100
AcDbEntity
8
2
62
256
6
ByLayer
370
13
48
1
60
0
100
AcDbLine
10
79.998921
20
80.523157
30
0
11
76.82392
21
80.941154
31
0
39
0
210
0
220
0
230
1
0
LINE
5
1B4
100
AcDbEntity
8
2
62
256
6
ByLayer
370
13
48
1
60
0
100
AcDbLine
10
76.823923
20
80.105161
30
0
11
76.82392
21
80.941154
31
0
39
0
210
0
220
0
230
1
0
ENDBLK
5
1B6
100
AcDbEntity
8
0
100
AcDbBlockEnd
0
BLOCK
5
1C3
100
AcDbEntity
8
0
100
AcDbBlockBegin
2
DimnDraft3D4
70
0
10
0
20
0
30
0
3
DimnDraft3D4
0
MTEXT
5
1B9
100
AcDbEntity
8
SK2
62
256
6
ByLayer
370
18
48
1
60
0
100
AcDbMText
10
64.891948
20
62.005052
30
0
210
0
220
0
230
1
1
\W0.8385;93%%d
40
3.50012
41
0
44
1.084337
50
57.3282454439749
71
7
72
5
7
iso_b_vert
0
LINE
5
1BA
100
AcDbEntity
8
SK2
62
256
6
ByLayer
370
13
48
1
60
0
100
AcDbLine
10
80.082004
20
55.745529
30
0
11
81.028686
21
73.809292
31
0
39
0
210
0
220
0
230
1
0
LINE
5
1BB
100
AcDbEntity
8
SK2
62
256
6
ByLayer
370
13
48
1
60
0
100
AcDbLine
10
77.633116
20
54.99976
30
0
11
61.207575
21
54.99976
31
0
39
0
210
0
220
0
230
1
0
ARC
5
1BC
100
AcDbEntity
8
SK2
62
256
6
ByLayer
370
13
48
1
60
0
100
AcDbCircle
39
0
10
80.04292
20
54.99976
30
0
40
15.6603448335987
210
0
220
0
230
1
100
AcDbArc
50
87
51
180
0
LINE
5
1BD
100
AcDbEntity
8
SK2
62
256
6
ByLayer
370
13
48
1
60
0
100
AcDbLine
10
80.862519
20
70.638643
30
0
11
77.686754
21
70.226512
31
0
39
0
210
0
220
0
230
1
0
LINE
5
1BE
100
AcDbEntity
8
SK2
62
256
6
ByLayer
370
13
48
1
60
0
100
AcDbLine
10
80.862519
20
70.638643
30
0
11
77.688295
21
71.062504
31
0
39
0
210
0
220
0
230
1
0
LINE
5
1BF
100
AcDbEntity
8
SK2
62
256
6
ByLayer
370
13
48
1
60
0
100
AcDbLine
10
77.686754
20
70.226512
30
0
11
77.688295
21
71.062504
31
0
39
0
210
0
220
0
230
1
0
LINE
5
1C0
100
AcDbEntity
8
SK2
62
256
6
ByLayer
370
13
48
1
60
0
100
AcDbLine
10
64.382575
20
54.99976
30
0
11
64.125422
21
58.191814
31
0
39
0
210
0
220
0
230
1
0
LINE
5
1C1
100
AcDbEntity
8
SK2
62
256
6
ByLayer
370
13
48
1
60
0
100
AcDbLine
10
64.382575
20
54.99976
30
0
11
64.960349
21
58.149607
31
0
39
0
210
0
220
0
230
1
0
LINE
5
1C2
100
AcDbEntity
8
SK2
62
256
6
ByLayer
370
13
48
1
60
0
100
AcDbLine
10
64.125422
20
58.191814
30
0
11
64.960349
21
58.149607
31
0
39
0
210
0
220
0
230
1
0
ENDBLK
5
1C4
100
AcDbEntity
8
0
100
AcDbBlockEnd
0
ENDSEC
0
SECTION
2
ENTITIES
0
ARC
5
F5
100
AcDbEntity
8
1
62
256
6
ByLayer
370
18
48
1
60
0
100
AcDbCircle
39
0
10
-30.013425
20
52
30
0
40
12
210
0
220
0
230
-1
100
AcDbArc
50
251.200115
51
270
0
ELLIPSE
5
F6
100
AcDbEntity
8
1
62
256
6
ByLayer
370
18
48
1
60
0
100
AcDbEllipse
10
78.187691
20
42.404824
30
0
11
-0.859508502671574
21
0.837403805720555
31
0
210
0
220
0
230
1
40
0.987534
41
-2.90775915580857
42
-2.42779361151012
0
ELLIPSE
5
F7
100
AcDbEntity
8
1
62
256
6
ByLayer
370
18
48
1
60
0
100
AcDbEllipse
10
76.916355
20
40.263061
30
0
11
-0.859508502671574
21
0.837403805720555
31
0
210
0
220
0
230
1
40
0.987534
41
3.14158555023991
42
-2.90775915580857
0
ELLIPSE
5
F8
100
AcDbEntity
8
1
62
256
6
ByLayer
370
18
48
1
60
0
100
AcDbEllipse
10
68.09499
20
45.567059
30
0
11
-0.859508502671574
21
0.837403805720555
31
0
210
0
220
0
230
1
40
0.987534
41
0.233833497781211
42
0.71379904207967
0
ELLIPSE
5
F9
100
AcDbEntity
8
1
62
256
6
ByLayer
370
18
48
1
60
0
100
AcDbEllipse
10
69.366326
20
47.708822
30
0
11
-0.859508502671574
21
0.837403805720555
31
0
210
0
220
0
230
1
40
0.987534
41
-0.246132046517222
42
-7.01823657854855E-06
0
ELLIPSE
5
FA
100
AcDbEntity
8
1
62
256
6
ByLayer
370
18
48
1
60
0
100
AcDbEllipse
10
66.374112
20
33.044643
30
0
11
0.568529061662969
21
-0.553907725658908
31
0
210
0
220
0
230
1
40
0.987534
41
-2.42779361151011
42
-1.07318688551318
0
ELLIPSE
5
FB
100
AcDbEntity
8
1
62
256
6
ByLayer
370
18
48
1
60
0
100
AcDbEllipse
10
67.071628
20
33.760572
30
0
11
-0.568529061662968
21
0.553907725658908
31
0
210
0
220
0
230
1
40
0.987534
41
0.71379904207969
42
2.89546060707258
0
ELLIPSE
5
FC
100
AcDbEntity
8
1
62
256
6
ByLayer
370
18
48
1
60
0
100
AcDbEllipse
10
79.211053
20
54.211311
30
0
11
-0.568529061662968
21
0.553907725658908
31
0
210
0
220
0
230
1
40
0.987534
41
-2.42779361151012
42
-0.246132046517231
0
ELLIPSE
5
FD
100
AcDbEntity
8
1
62
256
6
ByLayer
370
18
48
1
60
0
100
AcDbEllipse
10
72.443824
20
43.270013
30
0
11
-1.84651076657277
21
1.79902250928966
31
0
210
0
220
0
230
1
40
0.987534
41
-2.94394728759316
42
-2.20361129206692
0
ELLIPSE
5
FE
100
AcDbEntity
8
1
62
256
6
ByLayer
370
18
48
1
60
0
100
AcDbEllipse
10
72.443824
20
43.270013
30
0
11
-1.84651076657277
21
1.79902250928966
31
0
210
0
220
0
230
1
40
0.987534
41
-0.604737108030113
42
-0.197606362476159
0
ELLIPSE
5
FF
100
AcDbEntity
8
1
62
256
6
ByLayer
370
18
48
1
60
0
100
AcDbEllipse
10
73.141341
20
43.985941
30
0
11
-1.84651076657277
21
1.79902250928966
31
0
210
0
220
0
230
1
40
0.987534
41
0
42
6.28318530717959
0
ELLIPSE
5
100
100
AcDbEntity
8
1
62
256
6
ByLayer
370
18
48
1
60
0
100
AcDbEllipse
10
70.774984
20
28.377119
30
0
11
-1.11377976804525
21
1.08513576491288
31
0
210
0
220
0
230
1
40
0.987534
41
-2.94637219173845
42
-2.72786213045495
0
ELLIPSE
5
101
100
AcDbEntity
8
1
62
256
6
ByLayer
370
18
48
1
60
0
100
AcDbEllipse
10
70.774984
20
28.377119
30
0
11
-1.11377976804525
21
1.08513576491288
31
0
210
0
220
0
230
1
40
0.987534
41
-2.28480472524478
42
-1.68066457925837
0
ELLIPSE
5
102
100
AcDbEntity
8
1
62
256
6
ByLayer
370
18
48
1
60
0
100
AcDbEllipse
10
70.774984
20
28.377119
30
0
11
-1.11377976804525
21
1.08513576491288
31
0
210
0
220
0
230
1
40
0.987534
41
-1.2376071740482
42
-0.633467028061766
0
ELLIPSE
5
103
100
AcDbEntity
8
1
62
256
6
ByLayer
370
18
48
1
60
0
100
AcDbEllipse
10
70.774984
20
28.377119
30
0
11
-1.11377976804525
21
1.08513576491288
31
0
210
0
220
0
230
1
40
0.987534
41
-0.190409622851586
42
-0.0776434011775234
0
ELLIPSE
5
104
100
AcDbEntity
8
1
62
256
6
ByLayer
370
18
48
1
60
0
100
AcDbEllipse
10
71.190747
20
28.803858
30
0
11
-1.11377976804525
21
1.08513576491288
31
0
210
0
220
0
230
1
40
0.987534
41
-0.633467028061758
42
-0.190409622851583
0
ELLIPSE
5
105
100
AcDbEntity
8
1
62
256
6
ByLayer
370
18
48
1
60
0
100
AcDbEllipse
10
71.190747
20
28.803858
30
0
11
-1.11377976804525
21
1.08513576491288
31
0
210
0
220
0
230
1
40
0.987534
41
0.413730523134806
42
0.856787928345021
0
ELLIPSE
5
106
100
AcDbEntity
8
1
62
256
6
ByLayer
370
18
48
1
60
0
100
AcDbEllipse
10
71.190747
20
28.803858
30
0
11
-1.11377976804525
21
1.08513576491288
31
0
210
0
220
0
230
1
40
0.987534
41
1.46092807433142
42
1.90398547954161
0
ELLIPSE
5
107
100
AcDbEntity
8
1
62
256
6
ByLayer
370
18
48
1
60
0
100
AcDbEllipse
10
71.190747
20
28.803858
30
0
11
-1.11377976804525
21
1.08513576491288
31
0
210
0
220
0
230
1
40
0.987534
41
2.50812562552803
42
2.95118303073821
0
ELLIPSE
5
108
100
AcDbEntity
8
1
62
256
6
ByLayer
370
18
48
1
60
0
100
AcDbEllipse
10
71.190747
20
28.803858
30
0
11
-1.11377976804525
21
1.08513576491288
31
0
210
0
220
0
230
1
40
0.987534
41
-2.72786213045496
42
-2.28480472524478
0
ELLIPSE
5
109
100
AcDbEntity
8
1
62
256
6
ByLayer
370
18
48
1
60
0
100
AcDbEllipse
10
71.190747
20
28.803858
30
0
11
-1.11377976804525
21
1.08513576491288
31
0
210
0
220
0
230
1
40
0.987534
41
-1.68066457925835
42
-1.2376071740482
0
ELLIPSE
5
10A
100
AcDbEntity
8
1
62
256
6
ByLayer
370
18
48
1
60
0
100
AcDbEllipse
10
71.214364
20
28.828098
30
0
11
1.38050740569141
21
-1.34500374546397
31
0
210
0
220
0
230
1
40
0.987534
41
0
42
6.28318530717959
0
ELLIPSE
5
10B
100
AcDbEntity
8
1
62
256
6
ByLayer
370
18
48
1
60
0
100
AcDbEllipse
10
71.214364
20
28.828098
30
0
11
2.31709167178545
21
-2.25750109292166
31
0
210
0
220
0
230
1
40
0.987534
41
0
42
6.28318530717959
0
ELLIPSE
5
10C
100
AcDbEntity
8
1
62
256
6
ByLayer
370
18
48
1
60
0
100
AcDbEllipse
10
71.130333
20
28.741848
30
0
11
2.86502834223858
21
-2.79134601906851
31
0
210
0
220
0
230
1
40
0.987534
41
0
42
6.28318530717959
0
ELLIPSE
5
10D
100
AcDbEntity
8
1
62
256
6
ByLayer
370
18
48
1
60
0
100
AcDbEllipse
10
70.665138
20
28.264374
30
0
11
1.11377976804525
21
-1.08513576491289
31
0
210
0
220
0
230
1
40
0.987534
41
0.290125617850826
42
0.778643379997383
0
ELLIPSE
5
10E
100
AcDbEntity
8
1
62
256
6
ByLayer
370
18
48
1
60
0
100
AcDbEllipse
10
70.665138
20
28.264374
30
0
11
1.11377976804525
21
-1.08513576491289
31
0
210
0
220
0
230
1
40
0.987534
41
0.778643379997383
42
2.96116660441733
0
ELLIPSE
5
10F
100
AcDbEntity
8
1
62
256
6
ByLayer
370
18
48
1
60
0
100
AcDbEllipse
10
41.003437
20
-22.483838
30
0
11
1.99986495356135
21
2.48366785057031
31
0
210
0
220
0
230
-1
40
0.009358
41
-2.08621517839277
42
-1.66924252529159
0
ELLIPSE
5
110
100
AcDbEntity
8
1
62
256
6
ByLayer
370
18
48
1
60
0
100
AcDbEllipse
10
46.332415
20
0.109793
30
0
11
-4.23987482325011
21
-4.3517935265543
31
0
210
0
220
0
230
-1
40
0.987534
41
0.804692889521071
42
1.59868646060979
0
ELLIPSE
5
111
100
AcDbEntity
8
1
62
256
6
ByLayer
370
18
48
1
60
0
100
AcDbEllipse
10
57.635404
20
52.900288
30
0
11
-7.30582227270838
21
7.11793234862472
31
0
210
0
220
0
230
1
40
0.987534
41
2.44623228079792
42
2.89546060707258
0
ELLIPSE
5
112
100
AcDbEntity
8
1
62
256
6
ByLayer
370
18
48
1
60
0
100
AcDbEllipse
10
58.880691
20
-3E-06
30
0
11
32.4291863296246
21
40.148259141428
31
0
210
0
220
0
230
-1
40
0.01152
41
2.4912038664847
42
2.56731663796651
0
ELLIPSE
5
113
100
AcDbEntity
8
1
62
256
6
ByLayer
370
18
48
1
60
0
100
AcDbEllipse
10
33.665325
20
-31.884164
30
0
11
3.99973361321672
21
4.95395678208629
31
0
210
0
220
0
230
-1
40
0.009303
41
-1.63768126292691
42
-1.55927480133923
0
ELLIPSE
5
114
100
AcDbEntity
8
1
62
256
6
ByLayer
370
18
48
1
60
0
100
AcDbEllipse
10
32.099728
20
0
30
0
11
-2.44921270764471E-15
21
39.9999999999992
31
0
210
0
220
0
230
-1
40
0.087489
41
-2.37832756049343
42
-0.763265093096477
0
ELLIPSE
5
115
100
AcDbEntity
8
1
62
256
6
ByLayer
370
18
48
1
60
0
100
AcDbEllipse
10
30.763884
20
0
30
0
11
18.7348357595638
21
39.4834983055003
31
0
210
0
220
0
230
-1
40
0.341999
41
-2.98049364836081
42
-2.05364588642052
0
ELLIPSE
5
116
100
AcDbEntity
8
1
62
256
6
ByLayer
370
18
48
1
60
0
100
AcDbEllipse
10
-6.763884
20
0
30
0
11
18.7348357595648
21
-39.4834983055034
31
0
210
0
220
0
230
-1
40
0.341999
41
-1.08794676716924
42
-0.161099005228981
0
ELLIPSE
5
117
100
AcDbEntity
8
1
62
256
6
ByLayer
370
18
48
1
60
0
100
AcDbEllipse
10
30.763884
20
0
30
0
11
18.7348357595637
21
-39.4834983055003
31
0
210
0
220
0
230
-1
40
0.341999
41
2.05364588642052
42
2.98049364836082
0
ELLIPSE
5
118
100
AcDbEntity
8
1
62
256
6
ByLayer
370
18
48
1
60
0
100
AcDbEllipse
10
-6.763884
20
0
30
0
11
18.7348357595629
21
39.4834983055011
31
0
210
0
220
0
230
-1
40
0.341999
41
0.161099005228988
42
1.08794676716929
0
ELLIPSE
5
119
100
AcDbEntity
8
1
62
256
6
ByLayer
370
18
48
1
60
0
100
AcDbEllipse
10
65.784732
20
38.467998
30
0
11
0.155667896756009
21
0.0958602873508028
31
0
210
0
220
0
230
-1
40
0.022144
41
1.68968919257552
42
-3.01106425944055
0
ELLIPSE
5
11A
100
AcDbEntity
8
1
62
256
6
ByLayer
370
18
48
1
60
0
100
AcDbEllipse
10
58.880693
20
0
30
0
11
32.3080334086025
21
39.9982684004881
31
0
210
0
220
0
230
-1
40
0.01152
41
2.6899376556737
42
3.13229610980789
0
ELLIPSE
5
11B
100
AcDbEntity
8
1
62
256
6
ByLayer
370
18
48
1
60
0
100
AcDbEllipse
10
65.229427
20
34.509413
30
0
11
-1.73046830441889
21
1.6859644079087
31
0
210
0
220
0
230
1
40
0.987534
41
2.02775084115432
42
2.8954606070726
0
ELLIPSE
5
11C
100
AcDbEntity
8
1
62
256
6
ByLayer
370
18
48
1
60
0
100
AcDbEllipse
10
72.233216
20
38.837775
30
0
11
1.86293517491469
21
-1.81502451742511
31
0
210
0
220
0
230
1
40
0.987534
41
-0.246132046517209
42
0.0951440371362131
0
ELLIPSE
5
11D
100
AcDbEntity
8
1
62
256
6
ByLayer
370
18
48
1
60
0
100
AcDbEllipse
10
69.58452
20
37.216355
30
0
11
1.86293517491469
21
-1.81502451742511
31
0
210
0
220
0
230
1
40
0.987534
41
-0.587408130170633
42
-0.246132046517222
0
ELLIPSE
5
11E
100
AcDbEntity
8
1
62
256
6
ByLayer
370
18
48
1
60
0
100
AcDbEllipse
10
64.72534
20
35.097046
30
0
11
-1.80209401297486
21
1.75574805838542
31
0
210
0
220
0
230
1
40
0.987534
41
-0.246132046517213
42
0.115475494352904
0
ELLIPSE
5
11F
100
AcDbEntity
8
1
62
256
6
ByLayer
370
18
48
1
60
0
100
AcDbEllipse
10
57.962356
20
28.03275
30
0
11
4.29754251335787
21
-4.18701902860277
31
0
210
0
220
0
230
1
40
0.987534
41
-0.02789013381488
42
1.34650475549435E-05
0
ELLIPSE
5
120
100
AcDbEntity
8
1
62
256
6
ByLayer
370
18
48
1
60
0
100
AcDbEllipse
10
53.561564
20
35.587544
30
0
11
-6.44631377003681
21
6.28052854290416
31
0
210
0
220
0
230
1
40
0.987534
41
-1.99304913600416
42
-1.42227813434979
0
ELLIPSE
5
121
100
AcDbEntity
8
1
62
256
6
ByLayer
370
18
48
1
60
0
100
AcDbEllipse
10
57.742666
20
27.807261
30
0
11
-5.73005668447716
21
5.58269203813703
31
0
210
0
220
0
230
1
40
0.987534
41
3.11370251977491
42
-1.99304913600417
0
ELLIPSE
5
122
100
AcDbEntity
8
1
62
256
6
ByLayer
370
18
48
1
60
0
100
AcDbEllipse
10
44.759541
20
-1.504599
30
0
11
2.86502834223858
21
-2.79134601906851
31
0
210
0
220
0
230
1
40
0.987534
41
3.11370251977491
42
-2.37548921631597
0
ELLIPSE
5
123
100
AcDbEntity
8
1
62
256
6
ByLayer
370
18
48
1
60
0
100
AcDbEllipse
10
41.003437
20
-1.22927
30
0
11
-2
21
2.44921270764475E-16
31
0
210
0
220
0
230
1
40
0.113431
41
1.19877419606067
42
1.46072911462644
0
ELLIPSE
5
124
100
AcDbEntity
8
1
62
256
6
ByLayer
370
18
48
1
60
0
100
AcDbEllipse
10
42.192188
20
1.59005
30
0
11
-1.39253152106519
21
1.43556816725639
31
0
210
0
220
0
230
1
40
0.157347
41
0.574300158383604
42
1.57524127355282
0
ELLIPSE
5
125
100
AcDbEntity
8
1
62
256
6
ByLayer
370
18
48
1
60
0
100
AcDbEllipse
10
63.536444
20
22.29443
30
0
11
-1.39253152106519
21
1.43556816725639
31
0
210
0
220
0
230
1
40
0.157347
41
0.00444494675792296
42
1.57524127355281
0
ELLIPSE
5
126
100
AcDbEntity
8
1
62
256
6
ByLayer
370
18
48
1
60
0
100
AcDbEllipse
10
65.339498
20
30.906487
30
0
11
-1.85670474441874
21
-0.743402644636777
31
0
210
0
220
0
230
1
40
0.064508
41
1.05838030580553
42
1.42641289690695
0
ELLIPSE
5
127
100
AcDbEntity
8
1
62
256
6
ByLayer
370
18
48
1
60
0
100
AcDbEllipse
10
62.080538
20
39.045987
30
0
11
-1.85670474441874
21
-0.743402644636777
31
0
210
0
220
0
230
1
40
0.064508
41
1.03224132213666
42
1.42641289690695
0
ELLIPSE
5
128
100
AcDbEntity
8
1
62
256
6
ByLayer
370
18
48
1
60
0
100
AcDbEllipse
10
58.390123
20
27.564722
30
0
11
1.35054125206315
21
-0.947912615421746
31
0
210
0
220
0
230
1
40
0.492463
41
-0.909785274233757
42
0
0
ELLIPSE
5
129
100
AcDbEntity
8
1
62
256
6
ByLayer
370
18
48
1
60
0
100
AcDbEllipse
10
58.390123
20
27.564722
30
0
11
1.35054125206315
21
-0.947912615421746
31
0
210
0
220
0
230
1
40
0.492463
41
0
42
2.66446317311231
0
ELLIPSE
5
12A
100
AcDbEntity
8
1
62
256
6
ByLayer
370
18
48
1
60
0
100
AcDbEllipse
10
58.390123
20
27.564722
30
0
11
1.8416471619043
21
-1.29260811193875
31
0
210
0
220
0
230
1
40
0.492463
41
0.159141214789126
42
2.46919386862219
0
ELLIPSE
5
12B
100
AcDbEntity
8
1
62
256
6
ByLayer
370
18
48
1
60
0
100
AcDbEllipse
10
56.238583
20
32.908729
30
0
11
1.29004617386235
21
-1.02872779164516
31
0
210
0
220
0
230
1
40
0.391983
41
-0.241018457809853
42
0
0
ELLIPSE
5
12C
100
AcDbEntity
8
1
62
256
6
ByLayer
370
18
48
1
60
0
100
AcDbEllipse
10
56.238583
20
32.908729
30
0
11
1.29004617386235
21
-1.02872779164516
31
0
210
0
220
0
230
1
40
0.391983
41
0
42
2.37926559390739
0
ELLIPSE
5
12D
100
AcDbEntity
8
1
62
256
6
ByLayer
370
18
48
1
60
0
100
AcDbEllipse
10
56.238583
20
32.908729
30
0
11
1.75915387344865
21
-1.40281062497067
31
0
210
0
220
0
230
1
40
0.391983
41
0.344495523201927
42
2.2764765576669
0
ELLIPSE
5
12E
100
AcDbEntity
8
1
62
256
6
ByLayer
370
18
48
1
60
0
100
AcDbEllipse
10
54.471839
20
38.242973
30
0
11
1.19628682725518
21
-1.13639686154782
31
0
210
0
220
0
230
1
40
0.30432
41
0
42
2.31339054094657
0
ELLIPSE
5
12F
100
AcDbEntity
8
1
62
256
6
ByLayer
370
18
48
1
60
0
100
AcDbEllipse
10
54.471839
20
38.242973
30
0
11
1.63130021898434
21
-1.54963208392884
31
0
210
0
220
0
230
1
40
0.30432
41
0.458181670290893
42
2.21580433326232
0
ELLIPSE
5
130
100
AcDbEntity
8
1
62
256
6
ByLayer
370
18
48
1
60
0
100
AcDbEllipse
10
126.230289
20
-13.251205
30
0
11
76.9364528874269
21
-52.6229267732275
31
0
210
0
220
0
230
-1
40
0.554079
41
3.13325789202859
42
-3.02677405710541
0
ELLIPSE
5
131
100
AcDbEntity
8
1
62
256
6
ByLayer
370
18
48
1
60
0
100
AcDbEllipse
10
55.147767
20
37.215617
30
0
11
4.10243348067571
21
-5.70684432937316
31
0
210
0
220
0
230
-1
40
0.857113
41
-2.43514146022222
42
-1.29907428860296
0
ELLIPSE
5
132
100
AcDbEntity
8
1
62
256
6
ByLayer
370
18
48
1
60
0
100
AcDbEllipse
10
59.290645
20
29.396101
30
0
11
3.5163715548664
21
-4.89158085374753
31
0
210
0
220
0
230
-1
40
0.857113
41
-1.29907428860259
42
-0.122640637202146
0
ELLIPSE
5
133
100
AcDbEntity
8
1
62
256
6
ByLayer
370
18
48
1
60
0
100
AcDbEllipse
10
59.049327
20
28.503925
30
0
11
1.0279054290325
21
-2.22438959534396
31
0
210
0
220
0
230
-1
40
0.614425
41
0
42
6.28318530717959
0
ELLIPSE
5
134
100
AcDbEntity
8
1
62
256
6
ByLayer
370
18
48
1
60
0
100
AcDbEllipse
10
57.174258
20
34.082085
30
0
11
0.904266106160528
21
-2.26152087720681
31
0
210
0
220
0
230
-1
40
0.632805
41
0
42
6.28318530717959
0
ELLIPSE
5
135
100
AcDbEntity
8
1
62
256
6
ByLayer
370
18
48
1
60
0
100
AcDbEllipse
10
55.546754
20
39.374538
30
0
11
0.800923704480747
21
-2.25114479344895
31
0
210
0
220
0
230
-1
40
0.667941
41
0
42
6.28318530717959
0
ELLIPSE
5
136
100
AcDbEntity
8
1
62
256
6
ByLayer
370
18
48
1
60
0
100
AcDbEllipse
10
71.611748
20
42.415972
30
0
11
2.04133269384499
21
-1.98883403858632
31
0
210
0
220
0
230
1
40
0.987534
41
2.48380758121559
42
2.61091993943936
0
ELLIPSE
5
137
100
AcDbEntity
8
1
62
256
6
ByLayer
370
18
48
1
60
0
100
AcDbEllipse
10
71.611748
20
42.415972
30
0
11
2.04133269384499
21
-1.98883403858632
31
0
210
0
220
0
230
1
40
0.987534
41
0.530654414282366
42
0.721163086681007
0
ELLIPSE
5
138
100
AcDbEntity
8
1
62
256
6
ByLayer
370
18
48
1
60
0
100
AcDbEllipse
10
72.929889
20
43.768908
30
0
11
1.68320415106517
21
-1.63991578620275
31
0
210
0
220
0
230
1
40
0.987534
41
-0.794959419956274
42
-0.565444110906575
0
ELLIPSE
5
139
100
AcDbEntity
8
1
62
256
6
ByLayer
370
18
48
1
60
0
100
AcDbEllipse
10
73.471888
20
43.690818
30
0
11
1.86226842245508
21
-1.81437491239453
31
0
210
0
220
0
230
1
40
0.987534
41
2.774665852799
42
-1.66180360962842
0
ELLIPSE
5
13A
100
AcDbEntity
8
1
62
256
6
ByLayer
370
18
48
1
60
0
100
AcDbEllipse
10
72.38789
20
43.846998
30
0
11
1.86226842245508
21
-1.81437491239453
31
0
210
0
220
0
230
1
40
0.987534
41
-0.366926800790784
42
1.63744525227064
0
ELLIPSE
5
13B
100
AcDbEntity
8
1
62
256
6
ByLayer
370
18
48
1
60
0
100
AcDbEllipse
10
72.962842
20
43.802731
30
0
11
-1.46832702539727
21
1.43056483477261
31
0
210
0
220
0
230
1
40
0.987534
41
-1.29109700141774
42
-0.579977200692213
0
ELLIPSE
5
13C
100
AcDbEntity
8
1
62
256
6
ByLayer
370
18
48
1
60
0
100
AcDbEllipse
10
72.420843
20
43.880822
30
0
11
-1.64739129678718
21
1.6050239609644
31
0
210
0
220
0
230
1
40
0.987534
41
2.78771005382949
42
-1.51719160234965
0
ELLIPSE
5
13D
100
AcDbEntity
8
1
62
256
6
ByLayer
370
18
48
1
60
0
100
AcDbEllipse
10
73.504841
20
43.724641
30
0
11
-1.64739129678718
21
1.6050239609644
31
0
210
0
220
0
230
1
40
0.987534
41
-0.353882599760294
42
1.62440105124014
0
ELLIPSE
5
13E
100
AcDbEntity
8
1
62
256
6
ByLayer
370
18
48
1
60
0
100
AcDbEllipse
10
72.962842
20
43.802731
30
0
11
-1.46832702539727
21
1.43056483477261
31
0
210
0
220
0
230
1
40
0.987534
41
1.85049565217206
42
2.56161545289758
0
ELLIPSE
5
13F
100
AcDbEntity
8
1
62
256
6
ByLayer
370
18
48
1
60
0
100
AcDbEllipse
10
72.929889
20
43.768908
30
0
11
1.68320415106517
21
-1.63991578620275
31
0
210
0
220
0
230
1
40
0.987534
41
1.83596256238643
42
2.57614854268321
0
ELLIPSE
5
140
100
AcDbEntity
8
1
62
256
6
ByLayer
370
18
48
1
60
0
100
AcDbEllipse
10
72.900693
20
43.104545
30
0
11
-1.86226842245508
21
1.81437491239453
31
0
210
0
220
0
230
1
40
0.987534
41
6.72351584949284E-06
42
0.298020477504075
0
ELLIPSE
5
141
100
AcDbEntity
8
1
62
256
6
ByLayer
370
18
48
1
60
0
100
AcDbEllipse
10
71.812215
20
42.621731
30
0
11
-1.98761341242802
21
1.93649630072878
31
0
210
0
220
0
230
1
40
0.987534
41
-2.67926087458813
42
-2.46189801856483
0
ELLIPSE
5
142
100
AcDbEntity
8
1
62
256
6
ByLayer
370
18
48
1
60
0
100
AcDbEllipse
10
71.812215
20
42.621731
30
0
11
-1.98761341242802
21
1.93649630072878
31
0
210
0
220
0
230
1
40
0.987534
41
-0.693032898926625
42
-0.462367183752304
0
ELLIPSE
5
143
100
AcDbEntity
8
1
62
256
6
ByLayer
370
18
48
1
60
0
100
AcDbEllipse
10
54.471839
20
38.242973
30
0
11
-1.08753347932289
21
1.03308805595256
31
0
210
0
220
0
230
1
40
0.30432
41
2.9356211717461
42
-0.79570674135007
0
ELLIPSE
5
144
100
AcDbEntity
8
1
62
256
6
ByLayer
370
18
48
1
60
0
100
AcDbEllipse
10
58.390123
20
27.564722
30
0
11
-1.22776477460286
21
0.861738741292501
31
0
210
0
220
0
230
1
40
0.492463
41
2.09632554495585
42
-0.407131327246299
0
ELLIPSE
5
145
100
AcDbEntity
8
1
62
256
6
ByLayer
370
18
48
1
60
0
100
AcDbEllipse
10
56.238583
20
32.908729
30
0
11
-1.17276924896577
21
0.935207083313777
31
0
210
0
220
0
230
1
40
0.391983
41
2.73033913730292
42
-0.728455973144116
0
POINT
5
6C
100
AcDbEntity
8
1
62
256
6
ByLayer
370
13
48
1
60
1
100
AcDbPoint
10
31.953891
20
-61.470776
30
0
39
0
210
0
220
0
230
1
50
360
0
POINT
5
6E
100
AcDbEntity
8
1
62
256
6
ByLayer
370
13
48
1
60
1
100
AcDbPoint
10
24.200077
20
-56.028559
30
0
39
0
210
0
220
0
230
1
50
360
0
POINT
5
6F
100
AcDbEntity
8
1
62
256
6
ByLayer
370
13
48
1
60
1
100
AcDbPoint
10
37.562189
20
-59.949414
30
0
39
0
210
0
220
0
230
1
50
360
0
POINT
5
70
100
AcDbEntity
8
1
62
256
6
ByLayer
370
13
48
1
60
1
100
AcDbPoint
10
29.677121
20
-53.661586
30
0
39
0
210
0
220
0
230
1
50
360
0
POINT
5
71
100
AcDbEntity
8
1
62
256
6
ByLayer
370
13
48
1
60
1
100
AcDbPoint
10
37.159382
20
-53.442496
30
0
39
0
210
0
220
0
230
1
50
360
0
POINT
5
72
100
AcDbEntity
8
1
62
256
6
ByLayer
370
13
48
1
60
1
100
AcDbPoint
10
40.598672
20
-56.709604
30
0
39
0
210
0
220
0
230
1
50
360
0
POINT
5
73
100
AcDbEntity
8
1
62
256
6
ByLayer
370
13
48
1
60
1
100
AcDbPoint
10
0
20
-31.755143
30
0
39
0
210
0
220
0
230
1
50
360
0
POINT
5
74
100
AcDbEntity
8
1
62
256
6
ByLayer
370
13
48
1
60
1
100
AcDbPoint
10
0
20
1.5
30
0
39
0
210
0
220
0
230
1
50
360
0
POINT
5
75
100
AcDbEntity
8
1
62
256
6
ByLayer
370
13
48
1
60
1
100
AcDbPoint
10
29.151533
20
-71.529481
30
0
39
0
210
0
220
0
230
1
50
360
0
POINT
5
76
100
AcDbEntity
8
1
62
256
6
ByLayer
370
13
48
1
60
1
100
AcDbPoint
10
28.029224
20
-70.436035
30
0
39
0
210
0
220
0
230
1
50
360
0
POINT
5
77
100
AcDbEntity
8
1
62
256
6
ByLayer
370
13
48
1
60
1
100
AcDbPoint
10
42.99142
20
-72.172396
30
0
39
0
210
0
220
0
230
1
50
360
0
POINT
5
78
100
AcDbEntity
8
1
62
256
6
ByLayer
370
13
48
1
60
1
100
AcDbPoint
10
44.264534
20
-73.412769
30
0
39
0
210
0
220
0
230
1
50
360
0
POINT
5
79
100
AcDbEntity
8
80
62
256
6
ByLayer
370
18
48
1
60
0
100
AcDbPoint
10
0
20
0
30
0
39
0
210
0
220
0
230
1
50
360
0
POINT
5
7B
100
AcDbEntity
8
81
62
256
6
ByLayer
370
18
48
1
60
0
100
AcDbPoint
10
80.078155
20
55.672078
30
0
39
0
210
0
220
0
230
1
50
360
0
SPLINE
5
146
100
AcDbEntity
8
SK1
62
256
6
ByLayer
370
18
48
1
60
0
100
AcDbSpline
70
4
71
2
72
6
73
3
40
0
40
0
40
0
40
1
40
1
40
1
41
1
10
-46.5
20
-26.394212124955
30
-2E-16
41
1
10
-24.2499999944403
20
-26.952715334999
30
3E-16
41
1
10
-2.00000000000006
20
-27.5112150367565
30
-1E-16
0
SPLINE
5
147
100
AcDbEntity
8
SK1
62
256
6
ByLayer
370
18
48
1
60
0
100
AcDbSpline
70
4
71
3
72
13
73
9
40
0
40
0
40
0
40
0
40
0.239404237444155
40
0.368290935227155
40
0.499924386713332
40
0.631570377730801
40
0.760491679444723
40
1
40
1
40
1
40
1
41
1
10
-2.00000000000007
20
-27.5251040814074
30
-1E-16
41
1
10
-1.9990911835341
20
-27.4990573435654
30
-1E-16
41
1
10
-1.99103204131609
20
-27.4617007168947
30
-1E-16
41
1
10
-1.96563486157088
20
-27.4155034456482
30
-1E-16
41
1
10
-1.93886237725961
20
-27.3842363671184
30
-1E-16
41
1
10
-1.9062756087901
20
-27.3590808959353
30
-1E-16
41
1
10
-1.85883853102175
20
-27.3360479605507
30
-1E-16
41
1
10
-1.82110920461702
20
-27.329878461637
30
-1E-16
41
1
10
-1.79503997793937
20
-27.3302805958679
30
-1E-16
0
SPLINE
5
148
100
AcDbEntity
8
SK1
62
256
6
ByLayer
370
18
48
1
60
0
100
AcDbSpline
70
4
71
2
72
6
73
3
40
0
40
0
40
0
40
1
40
1
40
1
41
1
10
-2.00000000000004
20
27.5112149532763
30
-1E-16
41
1
10
-24.2499999944407
20
26.9527152505115
30
3E-16
41
1
10
-46.5
20
26.394212039677
30
-2E-16
0
SPLINE
5
149
100
AcDbEntity
8
SK1
62
256
6
ByLayer
370
18
48
1
60
0
100
AcDbSpline
70
4
71
3
72
13
73
9
40
0
40
0
40
0
40
0
40
0.239508320587775
40
0.368429622314978
40
0.50007561333864
40
0.631709064821875
40
0.76059576259328
40
1
40
1
40
1
40
1
41
1
10
-1.79503997793931
20
27.330280593053
30
-1E-16
41
1
10
-1.8211092046165
20
27.329878458822
30
-1E-16
41
1
10
-1.85883853102091
20
27.3360479577337
30
-1E-16
41
1
10
-1.90627560878904
20
27.3590808931096
30
-1E-16
41
1
10
-1.93886237725857
20
27.3842363642835
30
-1E-16
41
1
10
-1.96563486157005
20
27.415503442802
30
-1E-16
41
1
10
-1.99103204131548
20
27.4617007140314
30
-1E-16
41
1
10
-1.99909118353348
20
27.4990573406897
30
-1E-16
41
1
10
-2.00000000000006
20
27.5251040785234
30
-1E-16
0
SPLINE
5
14A
100
AcDbEntity
8
SK1
62
256
6
ByLayer
370
18
48
1
60
0
100
AcDbSpline
70
4
71
2
72
6
73
3
40
0
40
0
40
0
40
1
40
1
40
1
41
1
10
-46.5
20
26.407590744263
30
-2E-16
41
1
10
-47.2499999132837
20
25.9747784772614
30
-2E-16
41
1
10
-48
20
25.5419663338579
30
-3E-16
0
SPLINE
5
14B
100
AcDbEntity
8
SK1
62
256
6
ByLayer
370
18
48
1
60
0
100
AcDbSpline
70
4
71
2
72
6
73
3
40
0
40
0
40
0
40
1
40
1
40
1
41
1
10
-48.0000000000001
20
-25.541966328741
30
-3E-16
41
1
10
-47.2499999132885
20
-25.9747784724423
30
-2E-16
41
1
10
-46.5
20
-26.4075907397312
30
-2E-16
0
SPLINE
5
14C
100
AcDbEntity
8
1
62
256
6
ByLayer
370
18
48
1
60
0
100
AcDbSpline
70
4
71
3
72
21
73
17
40
0
40
0
40
0
40
0
40
0.0023529634271198
40
0.0089573662068274
40
0.0334344820155323
40
0.072190079326612
40
0.124325502039857
40
0.188941534065411
40
0.265141485093867
40
0.352028943867789
40
0.448713042135682
40
0.554298657712907
40
0.667878794576869
40
0.78855625923991
40
0.915444822382975
40
1
40
1
40
1
40
1
41
1
10
-0.0130379526191859
20
14.7180623738893
30
0
41
1
10
-0.0135486250179326
20
14.7273530622868
30
0
41
1
10
-0.0153188474854602
20
14.7630518250543
30
0
41
1
10
-0.0176895844604701
20
14.9045860276389
30
0
41
1
10
-0.0221072268716398
20
15.1990011358555
30
0
41
1
10
-0.0270384187807764
20
15.6831322341388
30
0
41
1
10
-0.0332941706435008
20
16.3227982979281
30
0
41
1
10
-0.0403492624709259
20
17.0961101064324
30
0
41
1
10
-0.048398998349569
20
17.9778285198591
30
0
41
1
10
-0.0573591234671227
20
18.9421596928661
30
0
41
1
10
-0.0672217250850053
20
19.9626478381932
30
0
41
1
10
-0.0779262322902099
20
21.0124066075482
30
0
41
1
10
-0.0894032542102821
20
22.0652121491287
30
0
41
1
10
-0.101554243109177
20
23.0908739509144
30
0
41
1
10
-0.112683151184257
20
23.9525247055671
30
0
41
1
10
-0.119707350948886
20
24.4318717122695
30
0
41
1
10
-0.12250871078119
20
24.6139816102223
30
0
0
SPLINE
5
14D
100
AcDbEntity
8
SK1
62
256
6
ByLayer
370
18
48
1
60
0
100
AcDbSpline
70
4
71
2
72
6
73
3
40
0
40
0
40
0
40
1
40
1
40
1
41
1
10
-1.79503997793937
20
-27.3302802805384
30
-1E-16
41
1
10
-0.995008433390552
20
-27.3503705409133
30
-1E-16
41
1
10
-0.194976888875331
20
-27.3704608021961
30
0
0
SPLINE
5
14E
100
AcDbEntity
8
1
62
256
6
ByLayer
370
18
48
1
60
0
100
AcDbSpline
70
4
71
3
72
20
73
16
40
0
40
0
40
0
40
0
40
0.0945164258353575
40
0.220672013969597
40
0.340659956245746
40
0.453599284935225
40
0.558593861059748
40
0.654744228818353
40
0.741165250453013
40
0.816970384210932
40
0.881269715054474
40
0.933171296505041
40
0.971782413628656
40
0.996210822297635
40
1
40
1
40
1
40
1
41
1
10
-0.123166102006721
20
-24.5534319192831
30
0
41
1
10
-0.120001434100416
20
-24.3396257196972
30
0
41
1
10
-0.112593014796232
20
-23.8119523141633
30
0
41
1
10
-0.101065489447436
20
-22.8824785608344
30
0
41
1
10
-0.0888717022249637
20
-21.8070976747243
30
0
41
1
10
-0.0773653278655644
20
-20.7040543328929
30
0
41
1
10
-0.0666421984503671
20
-19.6039989000879
30
0
41
1
10
-0.0567782159025114
20
-18.5345014812539
30
0
41
1
10
-0.0478140610967159
20
-17.5235554983689
30
0
41
1
10
-0.0398176051381114
20
-16.5988380926086
30
0
41
1
10
-0.0326878157617898
20
-15.7877985855748
30
0
41
1
10
-0.0267426242851769
20
-15.1157507794994
30
0
41
1
10
-0.0211898401703223
20
-14.6082395008829
30
0
41
1
10
-0.0181320476958149
20
-14.3086552322603
30
0
41
1
10
-0.0152749788204432
20
-14.1842799408559
30
0
41
1
10
-0.0148764543241953
20
-14.1675916609987
30
0
0
SPLINE
5
14F
100
AcDbEntity
8
SK1
62
256
6
ByLayer
370
18
48
1
60
0
100
AcDbSpline
70
4
71
2
72
6
73
3
40
0
40
0
40
0
40
1
40
1
40
1
41
1
10
-0.194976888875331
20
27.3704607993536
30
0
41
1
10
-0.99500843339051
20
27.3503705380781
30
-1E-16
41
1
10
-1.79503997793931
20
27.3302802777103
30
-1E-16
0
SPLINE
5
150
100
AcDbEntity
8
1
62
256
6
ByLayer
370
18
48
1
60
0
100
AcDbSpline
70
4
71
3
72
16
73
12
40
0
40
0
40
0
40
0
40
0.249999999999999
40
0.249999999999999
40
0.499999999999997
40
0.499999999999997
40
0.749999999999996
40
0.749999999999996
40
0.874999999999998
40
0.874999999999998
40
1
40
1
40
1
40
1
41
1
10
13.8943375672977
20
12.6576002058711
30
9E-16
41
1
10
13.8787561873891
20
12.6003292036671
30
8E-16
41
1
10
13.8601238798745
20
12.5441499637062
30
8E-16
41
1
10
13.8146289914016
20
12.4347788334241
30
8E-16
41
1
10
13.7876921654476
20
12.3812044282573
30
8E-16
41
1
10
13.7212171221614
20
12.2805575148748
30
8E-16
41
1
10
13.6816031920021
20
12.2332416215837
30
8E-16
41
1
10
13.6089776935102
20
12.1779443514626
30
8E-16
41
1
10
13.5819554640974
20
12.1619018862408
30
8E-16
41
1
10
13.5241733156586
20
12.1395106480546
30
8E-16
41
1
10
13.4929397308719
20
12.1330899674714
30
8E-16
41
1
10
13.4613248654056
20
12.1330899674714
30
8E-16
0
SPLINE
5
151
100
AcDbEntity
8
1
62
256
6
ByLayer
370
18
48
1
60
0
100
AcDbSpline
70
4
71
3
72
10
73
6
40
0
40
0
40
0
40
0
40
0.5
40
0.5
40
1
40
1
40
1
40
1
41
1
10
70.9760597570472
20
27.094009252663
30
-1E-16
41
1
10
71.0537923309529
20
27.1234875387196
30
-1E-16
41
1
10
71.1329876202928
20
27.1537245321046
30
-1E-16
41
1
10
71.2925286868612
20
27.2151557314834
30
-1E-16
41
1
10
71.3729368198413
20
27.246372963092
30
-1E-16
41
1
10
71.4541010772324
20
27.2781850760059
30
-1E-16
0
SPLINE
5
152
100
AcDbEntity
8
1
62
256
6
ByLayer
370
18
48
1
60
0
100
AcDbSpline
70
4
71
3
72
8
73
4
40
0
40
0
40
0
40
0
40
1
40
1
40
1
40
1
41
1
10
70.5423443635729
20
27.4095495444161
30
-1E-16
41
1
10
70.6887343485711
20
27.3000340799785
30
-1E-16
41
1
10
70.8330307695046
20
27.1955106037593
30
-1E-16
41
1
10
70.9760597570472
20
27.094009252663
30
-1E-16
0
SPLINE
5
153
100
AcDbEntity
8
1
62
256
6
ByLayer
370
18
48
1
60
0
100
AcDbSpline
70
4
71
3
72
10
73
6
40
0
40
0
40
0
40
0
40
0.5
40
0.5
40
1
40
1
40
1
40
1
41
1
10
69.5947086837022
20
28.1707221104155
30
-2E-16
41
1
10
69.6610708935653
20
28.1139744179896
30
-2E-16
41
1
10
69.7287279697145
20
28.0567125662562
30
-2E-16
41
1
10
69.8651420610768
20
27.9427627436206
30
-2E-16
41
1
10
69.9339521704855
20
27.8860275642803
30
-2E-16
41
1
10
70.0034774483744
20
27.8295766811864
30
-2E-16
0
SPLINE
5
154
100
AcDbEntity
8
1
62
256
6
ByLayer
370
18
48
1
60
0
100
AcDbSpline
70
4
71
3
72
10
73
6
40
0
40
0
40
0
40
0
40
0.5
40
0.5
40
1
40
1
40
1
40
1
41
1
10
69.6515079248142
20
28.6832407942494
30
-2E-16
41
1
10
69.641039567136
20
28.5955915590047
30
-2E-16
41
1
10
69.6310277331308
20
28.5082090800012
30
-2E-16
41
1
10
69.6121558944587
20
28.3373938402106
30
-2E-16
41
1
10
69.6032362943356
20
28.2534879273901
30
-2E-16
41
1
10
69.5947086837022
20
28.1707221104155
30
-2E-16
0
SPLINE
5
155
100
AcDbEntity
8
1
62
256
6
ByLayer
370
18
48
1
60
0
100
AcDbSpline
70
4
71
3
72
10
73
6
40
0
40
0
40
0
40
0
40
0.5
40
0.5
40
1
40
1
40
1
40
1
41
1
10
69.8218695578529
20
29.8933730803464
30
-2E-16
41
1
10
69.8077816317147
20
29.804688157601
30
-2E-16
41
1
10
69.7938563318177
20
29.7154006976817
30
-2E-16
41
1
10
69.7664356520279
20
29.5352329058539
30
-2E-16
41
1
10
69.7530313902696
20
29.4449215991989
30
-2E-16
41
1
10
69.7401236879388
20
29.3552492590364
30
-2E-16
0
SPLINE
5
156
100
AcDbEntity
8
1
62
256
6
ByLayer
370
18
48
1
60
0
100
AcDbSpline
70
4
71
3
72
8
73
4
40
0
40
0
40
0
40
0
40
1
40
1
40
1
40
1
41
1
10
70.2999108780381
20
30.0775489036892
30
-1E-16
41
1
10
70.1349489741009
20
30.0128925280477
30
-1E-16
41
1
10
69.9764522668377
20
29.9519950078846
30
-2E-16
41
1
10
69.8218695578529
20
29.8933730803464
30
-2E-16
0
SPLINE
5
157
100
AcDbEntity
8
1
62
256
6
ByLayer
370
18
48
1
60
0
100
AcDbSpline
70
4
71
3
72
10
73
6
40
0
40
0
40
0
40
0
40
0.5
40
0.5
40
1
40
1
40
1
40
1
41
1
10
71.4303815053485
20
30.5393111925248
30
-1E-16
41
1
10
71.3470884054589
20
30.5041256009487
30
-1E-16
41
1
10
71.2628809623572
20
30.4687441494832
30
-1E-16
41
1
10
71.0949006979093
20
30.3986509852511
30
-1E-16
41
1
10
71.0110590713134
20
30.3639096271262
30
-1E-16
41
1
10
70.9273935563612
20
30.3295302317059
30
-1E-16
0
SPLINE
5
158
100
AcDbEntity
8
1
62
256
6
ByLayer
370
18
48
1
60
0
100
AcDbSpline
70
4
71
3
72
8
73
4
40
0
40
0
40
0
40
0
40
1
40
1
40
1
40
1
41
1
10
71.8391502700207
20
30.1981657632957
30
0
41
1
10
71.6978439539033
20
30.312899088696
30
-1E-16
41
1
10
71.5623525653483
20
30.4264600210909
30
-1E-16
41
1
10
71.4303815053485
20
30.5393111925248
30
-1E-16
0
SPLINE
5
159
100
AcDbEntity
8
1
62
256
6
ByLayer
370
18
48
1
60
0
100
AcDbSpline
70
4
71
3
72
10
73
6
40
0
40
0
40
0
40
0
40
0.5
40
0.5
40
1
40
1
40
1
40
1
41
1
10
72.8117325786934
20
29.4625983347723
30
0
41
1
10
72.7398098428465
20
29.5136387216787
30
0
41
1
10
72.6671406129355
20
29.5657561153316
30
0
41
1
10
72.5222873236937
20
29.6710439731139
30
0
41
1
10
72.4500437206693
20
29.7242550259379
30
0
41
1
10
72.3780171852192
20
29.7781386265254
30
0
0
SPLINE
5
15A
100
AcDbEntity
8
1
62
256
6
ByLayer
370
18
48
1
60
0
100
AcDbSpline
70
4
71
3
72
10
73
6
40
0
40
0
40
0
40
0
40
0.5
40
0.5
40
1
40
1
40
1
40
1
41
1
10
72.8117325786934
20
29.4625983347723
30
0
41
1
10
72.7976446525552
20
29.373913412027
30
0
41
1
10
72.7837193526582
20
29.2846259521077
30
0
41
1
10
72.7562986728684
20
29.1044581602798
30
0
41
1
10
72.7428944111101
20
29.0141468536248
30
0
41
1
10
72.7299867087793
20
28.9244745134624
30
0
0
SPLINE
5
15B
100
AcDbEntity
8
1
62
256
6
ByLayer
370
18
48
1
60
0
100
AcDbSpline
70
4
71
3
72
8
73
4
40
0
40
0
40
0
40
0
40
1
40
1
40
1
40
1
41
1
10
72.0815837555554
20
27.5301664040226
30
0
41
1
10
72.2516293283735
20
27.6000406406267
30
0
41
1
10
72.4189310680152
20
27.6699756169657
30
0
41
1
10
72.5845717045428
20
27.7399473648414
30
0
0
SPLINE
5
15C
100
AcDbEntity
8
1
62
256
6
ByLayer
370
18
48
1
60
0
100
AcDbSpline
70
4
71
3
72
10
73
6
40
0
40
0
40
0
40
0
40
0.5
40
0.5
40
1
40
1
40
1
40
1
41
1
10
72.6413709456548
20
28.2524660486754
30
0
41
1
10
72.6309025879765
20
28.1648168134307
30
0
41
1
10
72.6208907539714
20
28.0774343344272
30
0
41
1
10
72.6020189152991
20
27.9066190946365
30
0
41
1
10
72.5930993151761
20
27.822713181816
30
0
41
1
10
72.5845717045428
20
27.7399473648414
30
0
0
SPLINE
5
15D
100
AcDbEntity
8
1
62
256
6
ByLayer
370
18
48
1
60
0
100
AcDbSpline
70
4
71
3
72
16
73
12
40
0
40
0
40
0
40
0
40
0.249500975494536
40
0.249500975494536
40
0.499001950989071
40
0.499001950989071
40
0.748502926483591
40
0.748502926483591
40
0.99800390197811
40
0.99800390197811
40
1
40
1
40
1
40
1
41
1
10
62.7354736490848
20
36.6360537101228
30
-2E-16
41
1
10
62.6825336026306
20
36.5671970039654
30
-2E-16
41
1
10
62.6332098100165
20
36.4951192874693
30
-2E-16
41
1
10
62.5447585611524
20
36.3491794120644
30
-2E-16
41
1
10
62.5052704893553
20
36.2749364991824
30
-2E-16
41
1
10
62.4351186267996
20
36.1236779497928
30
-2E-16
41
1
10
62.4044575545477
20
36.0466637032063
30
-2E-16
41
1
10
62.3517019053397
20
35.889526115332
30
-2E-16
41
1
10
62.3297322481932
20
35.8096127048348
30
-2E-16
41
1
10
62.3121543393036
20
35.7289338468112
30
-2E-16
41
1
10
62.3120151036488
20
35.7282934771184
30
-2E-16
41
1
10
62.3118761457732
20
35.7276530747028
30
-2E-16
0
SPLINE
5
15E
100
AcDbEntity
8
1
62
256
6
ByLayer
370
18
48
1
60
0
100
AcDbSpline
70
4
71
3
72
8
73
4
40
0
40
0
40
0
40
0
40
1
40
1
40
1
40
1
41
1
10
58.3449850681509
20
42.7838307051512
30
0
41
1
10
58.1838276830172
20
42.7759455708314
30
0
41
1
10
58.0252234785428
20
42.768943621797
30
0
41
1
10
57.8688339869641
20
42.7627077767332
30
0
0
SPLINE
5
15F
100
AcDbEntity
8
1
62
256
6
ByLayer
370
18
48
1
60
0
100
AcDbSpline
70
4
71
3
72
18
73
14
40
0
40
0
40
0
40
0
40
0.125000000000001
40
0.125000000000001
40
0.250000000000002
40
0.250000000000002
40
0.500000000000001
40
0.500000000000001
40
0.625
40
0.625
40
0.75
40
0.75
40
1
40
1
40
1
40
1
41
1
10
31.9048532699212
20
-31.8788381725114
30
-1.6E-15
41
1
10
31.7950541013861
20
-31.8155601147219
30
-1.6E-15
41
1
10
31.6882758144578
20
-31.7509080674459
30
-1.6E-15
41
1
10
31.4809273701885
20
-31.6182606708818
30
-1.6E-15
41
1
10
31.3799529651809
20
-31.5499651645974
30
-1.6E-15
41
1
10
31.0901415244518
20
-31.3415647699499
30
-1.6E-15
41
1
10
30.9146042277901
20
-31.1982838343454
30
-1.7E-15
41
1
10
30.6765509301954
20
-30.9740343280822
30
-1.7E-15
41
1
10
30.6014221718413
20
-30.8977321801197
30
-1.7E-15
41
1
10
30.4595383913257
20
-30.7415752869273
30
-1.7E-15
41
1
10
30.3925621223782
20
-30.6614136293613
30
-1.7E-15
41
1
10
30.2061890454495
20
-30.4176404760476
30
-1.7E-15
41
1
10
30.1011445006624
20
-30.2508269578389
30
-1.7E-15
41
1
10
30.0134252380847
20
-30.0787617744053
30
-1.7E-15
0
SPLINE
5
160
100
AcDbEntity
8
1
62
256
6
ByLayer
370
18
48
1
60
0
100
AcDbSpline
70
4
71
3
72
26
73
22
40
0
40
0
40
0
40
0
40
0.0625000000000007
40
0.0625000000000007
40
0.125000000000001
40
0.125000000000001
40
0.250000000000004
40
0.250000000000004
40
0.375000000000006
40
0.375000000000006
40
0.437500000000007
40
0.437500000000007
40
0.500000000000008
40
0.500000000000008
40
0.750000000000007
40
0.750000000000007
40
0.812500000000006
40
0.812500000000006
40
0.875000000000005
40
0.875000000000005
40
1
40
1
40
1
40
1
41
1
10
30.0134252380843
20
30.0787617744051
30
-1.7E-15
41
1
10
30.048744465442
20
30.1480419889834
30
-1.7E-15
41
1
10
30.0869877967007
20
30.2166814508691
30
-1.7E-15
41
1
10
30.1696517732485
20
30.3527824590469
30
-1.7E-15
41
1
10
30.2140915612131
20
30.4202221070078
30
-1.7E-15
41
1
10
30.3550877462869
20
30.6181926895686
30
-1.7E-15
41
1
10
30.4598556746541
20
30.745327547838
30
-1.7E-15
41
1
10
30.6912607510429
20
30.9915312741195
30
-1.7E-15
41
1
10
30.8178935503275
20
31.1105978416587
30
-1.7E-15
41
1
10
31.0248930131605
20
31.2844489224448
30
-1.7E-15
41
1
10
31.0967391152799
20
31.3416089125047
30
-1.6E-15
41
1
10
31.2463000562005
20
31.4545821057657
30
-1.6E-15
41
1
10
31.3242488733074
20
31.5105543149791
30
-1.6E-15
41
1
10
31.7266008099287
20
31.7858686475373
30
-1.6E-15
41
1
10
32.079634231554
20
31.986194413786
30
-1.6E-15
41
1
10
32.5565495562961
20
32.2236712565826
30
-1.6E-15
41
1
10
32.6537415247209
20
32.2705000678255
30
-1.6E-15
41
1
10
32.8517859984024
20
32.3630451376
30
-1.5E-15
41
1
10
32.9528139746451
20
32.4088265136426
30
-1.5E-15
41
1
10
33.2559802606042
20
32.542400832595
30
-1.5E-15
41
1
10
33.4598893532227
20
32.6272855569976
30
-1.5E-15
41
1
10
33.6653246960696
20
32.7086902973619
30
-1.5E-15
0
SPLINE
5
161
100
AcDbEntity
8
1
62
256
6
ByLayer
370
18
48
1
60
0
100
AcDbSpline
70
4
71
3
72
16
73
12
40
0
40
0
40
0
40
0
40
0.250000000000002
40
0.250000000000002
40
0.500000000000005
40
0.500000000000005
40
0.750000000000007
40
0.750000000000007
40
0.875000000000004
40
0.875000000000004
40
1
40
1
40
1
40
1
41
1
10
10.1056624327027
20
-12.6576002058714
30
6E-16
41
1
10
10.1212438126113
20
-12.6003292036673
30
6E-16
41
1
10
10.1398761201259
20
-12.5441499637066
30
6E-16
41
1
10
10.1853710085988
20
-12.4347788334245
30
6E-16
41
1
10
10.2123078345528
20
-12.3812044282577
30
6E-16
41
1
10
10.2787828778389
20
-12.2805575148753
30
6E-16
41
1
10
10.3183968079982
20
-12.2332416215841
30
6E-16
41
1
10
10.3910223064901
20
-12.177944351463
30
6E-16
41
1
10
10.4180445359029
20
-12.1619018862412
30
6E-16
41
1
10
10.4758266843416
20
-12.1395106480551
30
6E-16
41
1
10
10.5070602691284
20
-12.1330899674719
30
6E-16
41
1
10
10.5386751345947
20
-12.1330899674719
30
6E-16
0
SPLINE
5
162
100
AcDbEntity
8
1
62
256
6
ByLayer
370
18
48
1
60
0
100
AcDbSpline
70
4
71
3
72
16
73
12
40
0
40
0
40
0
40
0
40
0.125
40
0.125
40
0.249999999999999
40
0.249999999999999
40
0.499999999999999
40
0.499999999999999
40
0.75
40
0.75
40
1
40
1
40
1
40
1
41
1
10
10.5386751345945
20
-38.115457859525
30
6E-16
41
1
10
10.5070097812324
20
-38.115457859525
30
6E-16
41
1
10
10.4761852218636
20
-38.1134542929023
30
6E-16
41
1
10
10.417941489638
20
-38.1062685963602
30
6E-16
41
1
10
10.391460202463
20
-38.1012604668276
30
6E-16
41
1
10
10.3176492454752
20
-38.0832729594602
30
6E-16
41
1
10
10.2787320432276
20
-38.0682137252771
30
6E-16
41
1
10
10.2123318812523
20
-38.0356330717494
30
6E-16
41
1
10
10.185624279505
20
-38.0183244490832
30
6E-16
41
1
10
10.1400321601286
20
-37.9823481941388
30
6E-16
41
1
10
10.1212495620847
20
-37.9636126331773
30
6E-16
41
1
10
10.1056624327024
20
-37.9445010117188
30
6E-16
0
SPLINE
5
163
100
AcDbEntity
8
1
62
256
6
ByLayer
370
18
48
1
60
0
100
AcDbSpline
70
4
71
3
72
16
73
12
40
0
40
0
40
0
40
0
40
0.125000000000002
40
0.125000000000002
40
0.250000000000004
40
0.250000000000004
40
0.500000000000003
40
0.500000000000003
40
0.750000000000001
40
0.750000000000001
40
1
40
1
40
1
40
1
41
1
10
13.4613248654059
20
-12.1330899674716
30
8E-16
41
1
10
13.492990218768
20
-12.1330899674716
30
8E-16
41
1
10
13.5238147781367
20
-12.1393880305623
30
8E-16
41
1
10
13.5820585103623
20
-12.1619255694057
30
8E-16
41
1
10
13.6085397975373
20
-12.1776162497599
30
8E-16
41
1
10
13.6823507545252
20
-12.2338002045604
30
8E-16
41
1
10
13.7212679567729
20
-12.2806309384221
30
8E-16
41
1
10
13.7876681187481
20
-12.3811715645313
30
8E-16
41
1
10
13.8143757204955
20
-12.4342400380063
30
8E-16
41
1
10
13.8599678398718
20
-12.5437053894658
30
8E-16
41
1
10
13.8787504379158
20
-12.6003080708713
30
8E-16
41
1
10
13.8943375672981
20
-12.6576002058712
30
9E-16
0
SPLINE
5
164
100
AcDbEntity
8
1
62
256
6
ByLayer
370
18
48
1
60
0
100
AcDbSpline
70
4
71
3
72
16
73
12
40
0
40
0
40
0
40
0
40
0.249999999999998
40
0.249999999999998
40
0.499999999999997
40
0.499999999999997
40
0.749999999999995
40
0.749999999999995
40
0.874999999999997
40
0.874999999999997
40
1
40
1
40
1
40
1
41
1
10
13.8943375672977
20
-37.9445010117189
30
9E-16
41
1
10
13.8787561873891
20
-37.9636055836584
30
8E-16
41
1
10
13.8601238798746
20
-37.9822012953858
30
8E-16
41
1
10
13.8146289914017
20
-38.0181481521521
30
8E-16
41
1
10
13.7876921654477
20
-38.035622451738
30
8E-16
41
1
10
13.7212171221615
20
-38.0682374888739
30
8E-16
41
1
10
13.6816031920022
20
-38.0834517571982
30
8E-16
41
1
10
13.6089776935102
20
-38.1011554411596
30
8E-16
41
1
10
13.5819554640974
20
-38.1062761312749
30
8E-16
41
1
10
13.5241733156587
20
-38.1134152144528
30
8E-16
41
1
10
13.492939730872
20
-38.1154578595253
30
8E-16
41
1
10
13.4613248654056
20
-38.1154578595253
30
8E-16
0
SPLINE
5
165
100
AcDbEntity
8
1
62
256
6
ByLayer
370
18
48
1
60
0
100
AcDbSpline
70
4
71
3
72
16
73
12
40
0
40
0
40
0
40
0
40
0.250000000000001
40
0.250000000000001
40
0.500000000000003
40
0.500000000000003
40
0.750000000000004
40
0.750000000000004
40
0.875000000000002
40
0.875000000000002
40
1
40
1
40
1
40
1
41
1
10
10.1056624327026
20
37.9445010117188
30
6E-16
41
1
10
10.1212438126112
20
37.9636055836584
30
6E-16
41
1
10
10.1398761201257
20
37.9822012953858
30
6E-16
41
1
10
10.1853710085985
20
38.018148152152
30
6E-16
41
1
10
10.2123078345526
20
38.0356224517379
30
6E-16
41
1
10
10.2787828778387
20
38.0682374888738
30
6E-16
41
1
10
10.3183968079981
20
38.0834517571981
30
6E-16
41
1
10
10.3910223064899
20
38.1011554411594
30
6E-16
41
1
10
10.4180445359027
20
38.1062761312748
30
6E-16
41
1
10
10.4758266843415
20
38.1134152144527
30
6E-16
41
1
10
10.5070602691282
20
38.1154578595252
30
6E-16
41
1
10
10.5386751345945
20
38.1154578595252
30
6E-16
0
SPLINE
5
166
100
AcDbEntity
8
1
62
256
6
ByLayer
370
18
48
1
60
0
100
AcDbSpline
70
4
71
3
72
16
73
12
40
0
40
0
40
0
40
0
40
0.125
40
0.125
40
0.249999999999999
40
0.249999999999999
40
0.499999999999999
40
0.499999999999999
40
0.75
40
0.75
40
1
40
1
40
1
40
1
41
1
10
10.5386751345944
20
12.133089967472
30
6E-16
41
1
10
10.5070097812323
20
12.133089967472
30
6E-16
41
1
10
10.4761852218636
20
12.1393880305627
30
6E-16
41
1
10
10.4179414896379
20
12.161925569406
30
6E-16
41
1
10
10.391460202463
20
12.1776162497602
30
6E-16
41
1
10
10.3176492454751
20
12.2338002045607
30
6E-16
41
1
10
10.2787320432275
20
12.2806309384225
30
6E-16
41
1
10
10.2123318812523
20
12.3811715645316
30
6E-16
41
1
10
10.1856242795049
20
12.4342400380065
30
6E-16
41
1
10
10.1400321601286
20
12.543705389466
30
6E-16
41
1
10
10.1212495620846
20
12.6003080708715
30
6E-16
41
1
10
10.1056624327023
20
12.6576002058714
30
6E-16
0
SPLINE
5
167
100
AcDbEntity
8
1
62
256
6
ByLayer
370
18
48
1
60
0
100
AcDbSpline
70
4
71
3
72
16
73
12
40
0
40
0
40
0
40
0
40
0.125000000000003
40
0.125000000000003
40
0.250000000000007
40
0.250000000000007
40
0.500000000000005
40
0.500000000000005
40
0.750000000000002
40
0.750000000000002
40
1
40
1
40
1
40
1
41
1
10
13.4613248654057
20
38.1154578595254
30
8E-16
41
1
10
13.4929902187678
20
38.1154578595254
30
8E-16
41
1
10
13.5238147781366
20
38.1134542929025
30
8E-16
41
1
10
13.5820585103622
20
38.1062685963604
30
8E-16
41
1
10
13.6085397975372
20
38.1012604668278
30
8E-16
41
1
10
13.6823507545251
20
38.0832729594603
30
8E-16
41
1
10
13.7212679567727
20
38.0682137252773
30
8E-16
41
1
10
13.7876681187479
20
38.0356330717495
30
8E-16
41
1
10
13.8143757204953
20
38.0183244490833
30
8E-16
41
1
10
13.8599678398716
20
37.982348194139
30
8E-16
41
1
10
13.8787504379156
20
37.9636126331775
30
8E-16
41
1
10
13.8943375672979
20
37.9445010117189
30
9E-16
0
SPLINE
5
168
100
AcDbEntity
8
SK1
62
256
6
ByLayer
370
18
48
1
60
0
100
AcDbSpline
70
4
71
3
72
30
73
26
40
0
40
0
40
0
40
0
40
0.249999999999999
40
0.249999999999999
40
0.374999999999998
40
0.374999999999998
40
0.499999999999998
40
0.499999999999998
40
0.562499999999998
40
0.562499999999998
40
0.624999999999998
40
0.624999999999998
40
0.687499999999998
40
0.687499999999998
40
0.749999999999999
40
0.749999999999999
40
0.781249999999999
40
0.781249999999999
40
0.812499999999999
40
0.812499999999999
40
0.874999999999999
40
0.874999999999999
40
0.9375
40
0.9375
40
1
40
1
40
1
40
1
41
1
10
-1.31543506509497
20
4.38399907131228
30
-1E-16
41
1
10
-1.28121812986873
20
4.57758590549273
30
-1E-16
41
1
10
-1.24152673835435
20
4.76853099513591
30
-1E-16
41
1
10
-1.16813947608728
20
5.04971472545935
30
-1E-16
41
1
10
-1.14133996621419
20
5.14256293382422
30
-1E-16
41
1
10
-1.08086322314892
20
5.32596306218505
30
-1E-16
41
1
10
-1.0473064393787
20
5.41654564889348
30
-1E-16
41
1
10
-0.988062729303593
20
5.54975130898609
30
-1E-16
41
1
10
-0.966809553322946
20
5.59370324011573
30
-1E-16
41
1
10
-0.919698171291216
20
5.68030020708358
30
-1E-16
41
1
10
-0.893709194685172
20
5.72320516925009
30
-1E-16
41
1
10
-0.835306236939715
20
5.80445110729187
30
-1E-16
41
1
10
-0.802581931080738
20
5.84347933461595
30
0
41
1
10
-0.726279699104438
20
5.91050387040147
30
0
41
1
10
-0.681328535287818
20
5.9394985482723
30
0
41
1
10
-0.604122065382725
20
5.95805172197504
30
0
41
1
10
-0.577814361441568
20
5.95970793693377
30
0
41
1
10
-0.525150235194147
20
5.95322523506425
30
0
41
1
10
-0.499968846879668
20
5.94522506793035
30
0
41
1
10
-0.42987411508048
20
5.91190156841253
30
0
41
1
10
-0.390754464791868
20
5.87837692738827
30
0
41
1
10
-0.322877206728848
20
5.80561607003713
30
0
41
1
10
-0.293618792873161
20
5.76557430734474
30
0
41
1
10
-0.240484435954542
20
5.6821917934011
30
0
41
1
10
-0.216826690820397
20
5.63900858772752
30
0
41
1
10
-0.194976888875288
20
5.59486670063126
30
0
0
SPLINE
5
169
100
AcDbEntity
8
SK1
62
256
6
ByLayer
370
18
48
1
60
0
100
AcDbSpline
70
4
71
3
72
24
73
20
40
0
40
0
40
0
40
0
40
0.125000000000007
40
0.125000000000007
40
0.18750000000001
40
0.18750000000001
40
0.218750000000007
40
0.218750000000007
40
0.250000000000005
40
0.250000000000005
40
0.312500000000003
40
0.312500000000003
40
0.375000000000002
40
0.375000000000002
40
0.500000000000002
40
0.500000000000002
40
0.750000000000001
40
0.750000000000001
40
1
40
1
40
1
40
1
41
1
10
-0.194976888875274
20
5.59486670063137
30
0
41
1
10
-0.181860587805161
20
5.56836859861599
30
0
41
1
10
-0.167605643773939
20
5.54288269962828
30
0
41
1
10
-0.138887611178745
20
5.5112453492516
30
0
41
1
10
-0.127891586528008
20
5.50159219331519
30
0
41
1
10
-0.108231686435417
20
5.49584242030812
30
0
41
1
10
-0.101047559001529
20
5.4956955227579
30
0
41
1
10
-0.0876027946320477
20
5.50019175456896
30
0
41
1
10
-0.0814042474616627
20
5.50470866332918
30
0
41
1
10
-0.0655822137732684
20
5.52133842570154
30
0
41
1
10
-0.058265165255392
20
5.53584523655417
30
0
41
1
10
-0.046292585071896
20
5.56498009545163
30
0
41
1
10
-0.0416795126921983
20
5.5799850462133
30
0
41
1
10
-0.0297059143758958
20
5.62559545069564
30
0
41
1
10
-0.0242788061646735
20
5.65676598916193
30
0
41
1
10
-0.0112408410799389
20
5.74934809292762
30
0
41
1
10
-0.0068199182227175
20
5.81093949886204
30
0
41
1
10
-0.0010810054945978
20
5.93395321314028
30
0
41
1
10
-2.84E-14
20
5.99541947992356
30
0
41
1
10
-2.84E-14
20
6.05669444010729
30
0
0
SPLINE
5
16A
100
AcDbEntity
8
SK1
62
256
6
ByLayer
370
18
48
1
60
0
100
AcDbSpline
70
4
71
3
72
22
73
18
40
0
40
0
40
0
40
0
40
0.177180414214209
40
0.177180414214209
40
0.382885310660655
40
0.382885310660655
40
0.485737758883874
40
0.485737758883874
40
0.588590207107092
40
0.588590207107092
40
0.640016431218704
40
0.640016431218704
40
0.691442655330315
40
0.691442655330315
40
0.794295103553544
40
0.794295103553544
40
1
40
1
40
1
40
1
41
1
10
-0.0109255030374129
20
27.3144790387218
30
0
41
1
10
-0.0133220189601957
20
27.3043239631805
30
0
41
1
10
-0.016303187389255
20
27.2937636898503
30
0
41
1
10
-0.0244934412874187
20
27.269789073058
30
0
41
1
10
-0.029960961081656
20
27.2561688976325
30
0
41
1
10
-0.042115617443983
20
27.2338174464209
30
0
41
1
10
-0.0467993497779844
20
27.2260814646066
30
0
41
1
10
-0.0589567576682413
20
27.2094542211952
30
0
41
1
10
-0.0664342805405624
20
27.2004108328037
30
0
41
1
10
-0.0823133386182917
20
27.1864478285357
30
0
41
1
10
-0.0885838409329267
20
27.1816570728264
30
0
41
1
10
-0.102130511928323
20
27.1732811847523
30
0
41
1
10
-0.10914503011773
20
27.1698674697551
30
0
41
1
10
-0.128502130867773
20
27.1623574206503
30
0
41
1
10
-0.139370478370807
20
27.1605091012094
30
0
41
1
10
-0.167686070579975
20
27.1581403672337
30
0
41
1
10
-0.181946975975791
20
27.1606638006973
30
0
41
1
10
-0.19497688887536
20
27.1641448091076
30
0
0
SPLINE
5
16B
100
AcDbEntity
8
SK1
62
256
6
ByLayer
370
18
48
1
60
0
100
AcDbSpline
70
4
71
3
72
22
73
18
40
0
40
0
40
0
40
0
40
0.205248330668059
40
0.205248330668059
40
0.307872496002089
40
0.307872496002089
40
0.3591845786691
40
0.3591845786691
40
0.410496661336111
40
0.410496661336111
40
0.513120826670134
40
0.513120826670134
40
0.615744992004157
40
0.615744992004157
40
0.820993322672202
40
0.820993322672202
40
1
40
1
40
1
40
1
41
1
10
-0.194976888875331
20
-27.1641447772418
30
0
41
1
10
-0.18185578435353
20
-27.1606394043735
30
0
41
1
10
-0.167595472868854
20
-27.1580901586648
30
0
41
1
10
-0.13886368056879
20
-27.1605811737613
30
0
41
1
10
-0.127859511617189
20
-27.1624953750406
30
0
41
1
10
-0.108195431038041
20
-27.1702970802012
30
0
41
1
10
-0.101012789049278
20
-27.173888615104
30
0
41
1
10
-0.0875756591902075
20
-27.1823783370237
30
0
41
1
10
-0.0813824554722515
20
-27.1871952297834
30
0
41
1
10
-0.065572911460805
20
-27.2013305097611
30
0
41
1
10
-0.0582573703190405
20
-27.2103212673671
30
0
41
1
10
-0.0462863249474452
20
-27.2268820319086
30
0
41
1
10
-0.0416739224648381
20
-27.2345718074636
30
0
41
1
10
-0.0297021704780462
20
-27.2567691243318
30
0
41
1
10
-0.0242743942290247
20
-27.2703625577241
30
0
41
1
10
-0.0161381116819683
20
-27.2943083486673
30
0
41
1
10
-0.0131602178165195
20
-27.3049337163935
30
0
41
1
10
-0.0107691043057514
20
-27.3151567538522
30
0
0
SPLINE
5
16C
100
AcDbEntity
8
SK1
62
256
6
ByLayer
370
18
48
1
60
0
100
AcDbSpline
70
4
71
3
72
24
73
20
40
0
40
0
40
0
40
0
40
0.249999999999997
40
0.249999999999997
40
0.499999999999993
40
0.499999999999993
40
0.624999999999993
40
0.624999999999993
40
0.687499999999993
40
0.687499999999993
40
0.749999999999993
40
0.749999999999993
40
0.781249999999996
40
0.781249999999996
40
0.812499999999999
40
0.812499999999999
40
0.875
40
0.875
40
1
40
1
40
1
40
1
41
1
10
1.42E-14
20
-6.05669285502375
30
0
41
1
10
1.42E-14
20
-5.99525310400136
30
0
41
1
10
-0.00108384205123
20
-5.93371103757258
30
0
41
1
10
-0.0068560581742645
20
-5.81034457888634
30
0
41
1
10
-0.0112961912980722
20
-5.74852960841343
30
0
41
1
10
-0.024497965550438
20
-5.65542671131664
30
0
41
1
10
-0.0299656833063011
20
-5.62424791150548
30
0
41
1
10
-0.0421214797173661
20
-5.57849187792033
30
0
41
1
10
-0.0468057139467106
20
-5.56346837437317
30
0
41
1
10
-0.0589668170236024
20
-5.5344265678506
30
0
41
1
10
-0.0664460293188398
20
-5.52001458992041
30
0
41
1
10
-0.0823389139515598
20
-5.50396097159751
30
0
41
1
10
-0.088618423612985
20
-5.49962304217971
30
0
41
1
10
-0.102167959895922
20
-5.49558733179191
30
0
41
1
10
-0.109184071739861
20
-5.49598010941742
30
0
41
1
10
-0.12853815291686
20
-5.50209005544573
30
0
41
1
10
-0.13939873592463
20
-5.51173416312795
30
0
41
1
10
-0.167693922825066
20
-5.54313010318972
30
0
41
1
10
-0.181952125666072
20
-5.56855249324639
30
0
41
1
10
-0.194976888875331
20
-5.59486561641282
30
0
0
SPLINE
5
16D
100
AcDbEntity
8
SK1
62
256
6
ByLayer
370
18
48
1
60
0
100
AcDbSpline
70
4
71
3
72
32
73
28
40
0
40
0
40
0
40
0
40
0.0625000000000008
40
0.0625000000000008
40
0.125000000000002
40
0.125000000000002
40
0.156250000000001
40
0.156250000000001
40
0.187500000000001
40
0.187500000000001
40
0.218750000000001
40
0.218750000000001
40
0.250000000000001
40
0.250000000000001
40
0.281250000000001
40
0.281250000000001
40
0.3125
40
0.3125
40
0.375
40
0.375
40
0.5
40
0.5
40
0.625
40
0.625
40
0.75
40
0.75
40
1
40
1
40
1
40
1
41
1
10
-0.194976888875331
20
-5.59486561641282
30
0
41
1
10
-0.216682243978667
20
-5.6387156022459
30
0
41
1
10
-0.240165959450096
20
-5.68160299231269
30
0
41
1
10
-0.29281691472184
20
-5.76440051472127
30
0
41
1
10
-0.32195529339144
20
-5.80438203293272
30
0
41
1
10
-0.372202616394546
20
-5.85860373994978
30
0
41
1
10
-0.390088060586009
20
-5.87575909724649
30
0
41
1
10
-0.429376887936883
20
-5.90724716164885
30
0
41
1
10
-0.450777963486104
20
-5.92151785629275
30
0
41
1
10
-0.496955511615582
20
-5.94407516841349
30
0
41
1
10
-0.521971758045908
20
-5.95235051585141
30
0
41
1
10
-0.573499738232101
20
-5.95959186050277
30
0
41
1
10
-0.600439262876023
20
-5.95844110962028
30
0
41
1
10
-0.651525835656173
20
-5.94708314928241
30
0
41
1
10
-0.676026515423843
20
-5.93699817666302
30
0
41
1
10
-0.720897813695444
20
-5.91181873455966
30
0
41
1
10
-0.741829104692442
20
-5.8964910492839
30
0
41
1
10
-0.799296446696601
20
-5.84698171587456
30
0
41
1
10
-0.831994604675259
20
-5.8085096046469
30
-1E-16
41
1
10
-0.919647975309061
20
-5.68812608095939
30
-1E-16
41
1
10
-0.964564382905579
20
-5.60166203208584
30
-1E-16
41
1
10
-1.04445846156351
20
-5.42379781739743
30
-1E-16
41
1
10
-1.07875286200806
20
-5.33190718892399
30
-1E-16
41
1
10
-1.14008963978499
20
-5.14678567696978
30
-1E-16
41
1
10
-1.16717487152844
20
-5.05320225586053
30
-1E-16
41
1
10
-1.24122521482531
20
-4.77009645193363
30
-1E-16
41
1
10
-1.28110238807439
20
-4.5782434722087
30
-1E-16
41
1
10
-1.31543506509631
20
-4.38400264074451
30
-1E-16
0
SPLINE
5
16E
100
AcDbEntity
8
SK1
62
256
6
ByLayer
370
18
48
1
60
0
100
AcDbSpline
70
4
71
3
72
22
73
18
40
0
40
0
40
0
40
0
40
0.25
40
0.25
40
0.3125
40
0.3125
40
0.375
40
0.375
40
0.5
40
0.5
40
0.625
40
0.625
40
0.6875
40
0.6875
40
0.75
40
0.75
40
1
40
1
40
1
40
1
41
1
10
-1.31543506509497
20
-4.38400264074437
30
-1E-16
41
1
10
-1.43991568780641
20
-3.67974006194291
30
-1E-16
41
1
10
-1.5486203954092
20
-2.96398363263734
30
-1E-16
41
1
10
-1.64685915613927
20
-2.04846278384238
30
-1E-16
41
1
10
-1.66459569776927
20
-1.86430471160531
30
-1E-16
41
1
10
-1.69567652588223
20
-1.49366530479102
30
-1E-16
41
1
10
-1.70904414079274
20
-1.30672410166474
30
-1E-16
41
1
10
-1.74143205331269
20
-0.745703376016877
30
-1E-16
41
1
10
-1.75242020520676
20
-0.372408728667637
30
-1E-16
41
1
10
-1.75241455741647
20
0.372714161543797
30
-1E-16
41
1
10
-1.74142573127891
20
0.744542647752212
30
-1E-16
41
1
10
-1.70939811331594
20
1.30123119718755
30
-1E-16
41
1
10
-1.6962076464187
20
1.48662190359406
30
-1E-16
41
1
10
-1.66525971144661
20
1.85708042666053
30
-1E-16
41
1
10
-1.64746622370814
20
2.04244616648924
30
-1E-16
41
1
10
-1.54896179692291
20
2.96222215323553
30
-1E-16
41
1
10
-1.4399671576831
20
3.67944229559271
30
-1E-16
41
1
10
-1.31543506509497
20
4.38399907131239
30
-1E-16
0
SPLINE
5
16F
100
AcDbEntity
8
SK1
62
256
6
ByLayer
370
18
48
1
60
0
100
AcDbSpline
70
4
71
3
72
47
73
43
40
0
40
0
40
0
40
0
40
0.0038701232342941
40
0.0314328783147998
40
0.0589956333953054
40
0.0865583884758111
40
0.114121143556317
40
0.169246653717328
40
0.224372163878339
40
0.251934918958845
40
0.279497674039351
40
0.307060429119856
40
0.334623184200362
40
0.362185939280868
40
0.389748694361373
40
0.417311449441879
40
0.444874204522385
40
0.458655582062638
40
0.47243695960289
40
0.486218337143143
40
0.49310902591327
40
0.499999714683396
40
0.506890403453522
40
0.513781092223649
40
0.527562469763902
40
0.541343847304155
40
0.555125224844408
40
0.582687979924913
40
0.610250735005419
40
0.637813490085925
40
0.66537624516643
40
0.692939000246936
40
0.720501755327442
40
0.748064510407947
40
0.775627265488453
40
0.830752775649464
40
0.885878285810476
40
0.913441040890981
40
0.941003795971487
40
0.968566551051993
40
0.996129306132498
40
1
40
1
40
1
40
1
41
1
10
-48
20
25.5388486480875
30
0
41
1
10
-48
20
25.540703549545
30
0
41
1
10
-48
20
25.5490576773922
30
-1E-16
41
1
10
-48
20
25.465303512748
30
2E-16
41
1
10
-48.0000000000001
20
25.1322423058747
30
-1E-16
41
1
10
-48.0000000000001
20
24.6051668540654
30
-1E-16
41
1
10
-48
20
23.6617751291127
30
-3E-16
41
1
10
-48
20
22.0785994450274
30
6E-16
41
1
10
-48
20
20.0084884196853
30
6E-16
41
1
10
-48
20
18.0723405110571
30
6E-16
41
1
10
-48
20
16.4949787828177
30
6E-16
41
1
10
-48
20
14.7914038742059
30
6E-16
41
1
10
-48
20
12.9663999898933
30
6E-16
41
1
10
-47.9999999999999
20
11.0239030413057
30
6E-16
41
1
10
-48
20
8.96954478625133
30
6E-16
41
1
10
-48
20
6.81203164324441
30
6E-16
41
1
10
-47.9999999999999
20
4.94841081345484
30
6E-16
41
1
10
-48
20
3.4106793959277
30
6E-16
41
1
10
-47.9999999999999
20
2.26472380069384
30
6E-16
41
1
10
-47.9999999999999
20
1.32161426908746
30
6E-16
41
1
10
-47.9999999999999
20
0.561043122685021
30
6E-16
41
1
10
-47.9999999999999
20
5.831893191E-07
30
6E-16
41
1
10
-47.9999999999999
20
-0.561042317098611
30
6E-16
41
1
10
-48
20
-1.32161475206269
30
6E-16
41
1
10
-48
20
-2.26472549138484
30
6E-16
41
1
10
-48
20
-3.41067960209264
30
6E-16
41
1
10
-47.9999999999999
20
-4.94841006414566
30
6E-16
41
1
10
-48
20
-6.81203204898688
30
6E-16
41
1
10
-47.9999999999999
20
-8.96954490339243
30
6E-16
41
1
10
-48.0000000000001
20
-11.0239029344512
30
6E-16
41
1
10
-48
20
-12.9663998681848
30
6E-16
41
1
10
-48.0000000000001
20
-14.7914034438287
30
6E-16
41
1
10
-48
20
-16.4949784350184
30
6E-16
41
1
10
-47.9999999999999
20
-18.0723405810304
30
6E-16
41
1
10
-48
20
-20.0084888582825
30
6E-16
41
1
10
-48.0000000000001
20
-22.0785972347299
30
6E-16
41
1
10
-48
20
-23.661779391174
30
-3E-16
41
1
10
-48
20
-24.6051666315128
30
-1E-16
41
1
10
-48
20
-25.1322425559442
30
-1E-16
41
1
10
-47.9999999999999
20
-25.4653034534996
30
2E-16
41
1
10
-48
20
-25.5490584838552
30
-1E-16
41
1
10
-48
20
-25.540703251547
30
0
41
1
10
-48
20
-25.5388478336989
30
0
0
SPLINE
5
170
100
AcDbEntity
8
SK1
62
256
6
ByLayer
370
18
48
1
60
0
100
AcDbSpline
70
4
71
3
72
45
73
41
40
0
40
0
40
0
40
0
40
0.0210420963094458
40
0.0492160788966387
40
0.0773900614838316
40
0.105564044071024
40
0.16191200924541
40
0.218259974419796
40
0.246433957006989
40
0.274607939594182
40
0.302781922181375
40
0.330955904768567
40
0.35912988735576
40
0.387303869942953
40
0.415477852530146
40
0.443651835117339
40
0.457738826410935
40
0.471825817704532
40
0.485912808998128
40
0.492956304644926
40
0.499999800291725
40
0.507043295938523
40
0.514086791585321
40
0.528173782878917
40
0.542260774172514
40
0.55634776546611
40
0.584521748053303
40
0.612695730640496
40
0.640869713227689
40
0.669043695814882
40
0.697217678402074
40
0.725391660989267
40
0.75356564357646
40
0.781739626163653
40
0.838087591338039
40
0.894435556512425
40
0.922609539099618
40
0.95078352168681
40
0.978957504274003
40
1
40
1
40
1
40
1
41
1
10
-46.5
20
26.4009330949509
30
-1E-16
41
1
10
-46.5
20
26.3866024190785
30
-2E-16
41
1
10
-46.5
20
26.2998091991115
30
-2E-16
41
1
10
-46.5
20
25.9864884897471
30
0
41
1
10
-46.5
20
25.4462941395868
30
0
41
1
10
-46.5
20
24.4826071473009
30
-2E-16
41
1
10
-46.5
20
22.8634674815502
30
7E-16
41
1
10
-46.5
20
20.747797882028
30
7E-16
41
1
10
-46.5
20
18.7736711096439
30
7E-16
41
1
10
-46.5
20
17.1623226060283
30
7E-16
41
1
10
-46.5
20
15.420618795328
30
7E-16
41
1
10
-46.4999999999999
20
13.5524250592331
30
7E-16
41
1
10
-46.4999999999999
20
11.5601449979832
30
7E-16
41
1
10
-46.4999999999999
20
9.44716984285802
30
7E-16
41
1
10
-46.5
20
7.21817811682646
30
7E-16
41
1
10
-46.4999999999999
20
5.27511525453414
30
7E-16
41
1
10
-46.5
20
3.66578677888233
30
7E-16
41
1
10
-46.4999999999999
20
2.44929422403007
30
7E-16
41
1
10
-46.5
20
1.43224163626343
30
7E-16
41
1
10
-46.4999999999999
20
0.611404309986312
30
7E-16
41
1
10
-46.5
20
2.931147378E-07
30
7E-16
41
1
10
-46.4999999999999
20
-0.611403917250897
30
7E-16
41
1
10
-46.4999999999999
20
-1.43224195120058
30
7E-16
41
1
10
-46.5
20
-2.44929526927129
30
7E-16
41
1
10
-46.5
20
-3.66578709559644
30
7E-16
41
1
10
-46.5
20
-5.27511481381038
30
7E-16
41
1
10
-46.4999999999999
20
-7.21817840877895
30
7E-16
41
1
10
-46.5000000000001
20
-9.4471699819033
30
7E-16
41
1
10
-46.5
20
-11.5601449483229
30
7E-16
41
1
10
-46.5
20
-13.5524250001033
30
7E-16
41
1
10
-46.5000000000001
20
-15.4206184068412
30
7E-16
41
1
10
-46.5
20
-17.162322240109
30
7E-16
41
1
10
-46.5000000000001
20
-18.7736710721148
30
7E-16
41
1
10
-46.5000000000001
20
-20.7477984603655
30
7E-16
41
1
10
-46.5
20
-22.8634650615598
30
7E-16
41
1
10
-46.5000000000001
20
-24.4826114117778
30
-2E-16
41
1
10
-46.4999999999999
20
-25.4462940152453
30
0
41
1
10
-46.5000000000001
20
-25.9864887447116
30
0
41
1
10
-46.5000000000001
20
-26.2998107841104
30
-2E-16
41
1
10
-46.5000000000001
20
-26.3866038123175
30
-2E-16
41
1
10
-46.5
20
-26.4009339049774
30
-1E-16
0
SPLINE
5
171
100
AcDbEntity
8
SK1
62
256
6
ByLayer
370
18
48
1
60
0
100
AcDbSpline
70
4
71
3
72
45
73
41
40
0
40
0
40
0
40
0
40
0.0183315646256995
40
0.0466649887239827
40
0.074998412822266
40
0.103331836920549
40
0.159998685117116
40
0.216665533313682
40
0.244998957411966
40
0.273332381510249
40
0.301665805608532
40
0.329999229706815
40
0.358332653805098
40
0.386666077903382
40
0.414999502001665
40
0.443332926099948
40
0.45749963814909
40
0.471666350198232
40
0.485833062247373
40
0.492916418271944
40
0.499999774296515
40
0.507083130321086
40
0.514166486345656
40
0.528333198394798
40
0.54249991044394
40
0.556666622493081
40
0.585000046591365
40
0.613333470689648
40
0.641666894787931
40
0.670000318886214
40
0.698333742984497
40
0.726667167082781
40
0.755000591181064
40
0.783334015279347
40
0.840000863475914
40
0.89666771167248
40
0.925001135770763
40
0.953334559869047
40
0.98166798396733
40
1
40
1
40
1
40
1
41
1
10
-2.00000000000006
20
27.5110618293151
30
-1E-16
41
1
10
-2.00000000000003
20
27.4927921582471
30
-1E-16
41
1
10
-2
20
27.4016098123517
30
-1E-16
41
1
10
-2.00000000000003
20
27.0892770055134
30
0
41
1
10
-2.00000000000004
20
26.5321468226692
30
1E-16
41
1
10
-2.00000000000006
20
25.5422596691629
30
-1E-16
41
1
10
-2.00000000000001
20
23.8766923263436
30
-1E-16
41
1
10
-2.00000000000004
20
21.7022089172322
30
-1E-16
41
1
10
-1.99999999999999
20
19.6790533571493
30
-1E-16
41
1
10
-2.00000000000001
20
18.0238296495461
30
-1E-16
41
1
10
-1.99999999999999
20
16.2329033592661
30
-1E-16
41
1
10
-2.00000000000001
20
14.3089537141105
30
-1E-16
41
1
10
-2.00000000000001
20
12.2524061782619
30
-1E-16
41
1
10
-2.00000000000006
20
10.063759576839
30
-1E-16
41
1
10
-2.00000000000007
20
7.7424926238636
30
-1E-16
41
1
10
-2.00000000000001
20
5.69687412507278
30
-1E-16
41
1
10
-2.00000000000004
20
3.9951174771291
30
-1E-16
41
1
10
-2.00000000000001
20
2.68756528341362
30
-1E-16
41
1
10
-2
20
1.57505595882586
30
-1E-16
41
1
10
-2.00000000000001
20
0.676418049637306
30
-1E-16
41
1
10
-2.00000000000006
20
-8.13568306E-08
30
-1E-16
41
1
10
-2.00000000000004
20
-0.67641818987147
30
-1E-16
41
1
10
-2.00000000000001
20
-1.57505605683451
30
-1E-16
41
1
10
-2.00000000000004
20
-2.68756549541183
30
-1E-16
41
1
10
-2.00000000000001
20
-3.99511793655668
30
-1E-16
41
1
10
-2.00000000000001
20
-5.69687408271722
30
-1E-16
41
1
10
-2.00000000000001
20
-7.74249276891916
30
-1E-16
41
1
10
-2.00000000000007
20
-10.0637597441614
30
-1E-16
41
1
10
-2.00000000000006
20
-12.2524062024366
30
-1E-16
41
1
10
-2
20
-14.3089537357663
30
-1E-16
41
1
10
-2.00000000000004
20
-16.2329030248573
30
-1E-16
41
1
10
-2.00000000000004
20
-18.0238292602347
30
-1E-16
41
1
10
-1.99999999999999
20
-19.6790531808394
30
-1E-16
41
1
10
-2.00000000000006
20
-21.7022096759676
30
-1E-16
41
1
10
-2.00000000000006
20
-23.8766896356505
30
-1E-16
41
1
10
-2.00000000000004
20
-25.5422639367581
30
-1E-16
41
1
10
-2.00000000000003
20
-26.5321468251133
30
1E-16
41
1
10
-2.00000000000007
20
-27.0892772667966
30
0
41
1
10
-2.00000000000004
20
-27.4016116721743
30
-1E-16
41
1
10
-2.00000000000006
20
-27.4927939066515
30
-1E-16
41
1
10
-2.00000000000006
20
-27.5110631701899
30
-1E-16
0
SPLINE
5
172
100
AcDbEntity
8
SK1
62
256
6
ByLayer
370
18
48
1
60
0
100
AcDbSpline
70
4
71
3
72
45
73
41
40
0
40
0
40
0
40
0
40
0.0274931671554536
40
0.055288635437225
40
0.0830841037189964
40
0.110879572000768
40
0.166470508564311
40
0.222061445127853
40
0.249856913409625
40
0.277652381691396
40
0.305447849973167
40
0.333243318254939
40
0.36103878653671
40
0.388834254818482
40
0.416629723100253
40
0.444425191382025
40
0.45832292552291
40
0.472220659663796
40
0.486118393804682
40
0.493067260875124
40
0.500016127945567
40
0.50696499501601
40
0.513913862086453
40
0.527811596227339
40
0.541709330368224
40
0.55560706450911
40
0.583402532790882
40
0.611198001072653
40
0.638993469354424
40
0.666788937636196
40
0.694584405917967
40
0.722379874199738
40
0.75017534248151
40
0.777970810763281
40
0.833561747326824
40
0.889152683890367
40
0.916948152172138
40
0.94474362045391
40
0.972539088735681
40
1
40
1
40
1
40
1
41
1
10
-1.79503997793931
20
27.3302593415713
30
-1E-16
41
1
10
-1.79503997793931
20
27.3313592163341
30
-1E-16
41
1
10
-1.79503997793932
20
27.2476686013574
30
-1E-16
41
1
10
-1.7950399779393
20
26.8970143202097
30
0
41
1
10
-1.79503997793927
20
26.3428367693735
30
-1E-16
41
1
10
-1.79503997793927
20
25.3575174122121
30
-1E-16
41
1
10
-1.7950399779393
20
23.7000443773568
30
-1E-16
41
1
10
-1.79503997793932
20
21.5358147030303
30
-1E-16
41
1
10
-1.79503997793931
20
19.5212069345187
30
-1E-16
41
1
10
-1.79503997793932
20
17.873632530854
30
-1E-16
41
1
10
-1.79503997793932
20
16.0912878008333
30
-1E-16
41
1
10
-1.79503997793932
20
14.177058769054
30
-1E-16
41
1
10
-1.79503997793928
20
12.1317157724869
30
-1E-16
41
1
10
-1.79503997793932
20
9.95626190499075
30
-1E-16
41
1
10
-1.79503997793935
20
7.65108242723446
30
-1E-16
41
1
10
-1.7950399779393
20
5.62334371390031
30
-1E-16
41
1
10
-1.79503997793935
20
3.9377012060194
30
-1E-16
41
1
10
-1.7950399779393
20
2.64602455910227
30
-1E-16
41
1
10
-1.79503997793935
20
1.5501573814802
30
-1E-16
41
1
10
-1.79503997793935
20
0.665083404790863
30
-1E-16
41
1
10
-1.79503997793935
20
-1.60705724E-08
30
-1E-16
41
1
10
-1.79503997793932
20
-0.66508345210579
30
-1E-16
41
1
10
-1.79503997793927
20
-1.55015751730875
30
-1E-16
41
1
10
-1.79503997793935
20
-2.64602491637001
30
-1E-16
41
1
10
-1.7950399779393
20
-3.93770164056599
30
-1E-16
41
1
10
-1.79503997793932
20
-5.62334360209255
30
-1E-16
41
1
10
-1.79503997793932
20
-7.65108259790031
30
-1E-16
41
1
10
-1.79503997793931
20
-9.95626206738328
30
-1E-16
41
1
10
-1.79503997793937
20
-12.131715783789
30
-1E-16
41
1
10
-1.79503997793928
20
-14.1770587766255
30
-1E-16
41
1
10
-1.79503997793935
20
-16.0912874569965
30
-1E-16
41
1
10
-1.79503997793928
20
-17.8736321456209
30
-1E-16
41
1
10
-1.79503997793932
20
-19.5212067824043
30
-1E-16
41
1
10
-1.7950399779394
20
-21.5358154303147
30
-1E-16
41
1
10
-1.79503997793938
20
-23.7000417338586
30
-1E-16
41
1
10
-1.79503997793934
20
-25.3575216792637
30
-1E-16
41
1
10
-1.7950399779393
20
-26.3428367497135
30
-1E-16
41
1
10
-1.79503997793938
20
-26.8970145803912
30
0
41
1
10
-1.79503997793932
20
-27.2475324097343
30
-1E-16
41
1
10
-1.79503997793935
20
-27.3312615073493
30
-1E-16
41
1
10
-1.79503997793938
20
-27.3302630395688
30
-1E-16
0
SPLINE
5
173
100
AcDbEntity
8
SK1
62
256
6
ByLayer
370
18
48
1
60
0
100
AcDbSpline
70
4
71
3
72
9
73
5
40
0
40
0
40
0
40
0
40
0.360902818712028
40
1
40
1
40
1
40
1
41
1
10
-0.194976888875303
20
27.1641448091076
30
0
41
1
10
-0.194976888875303
20
27.1855302546535
30
0
41
1
10
-0.194976888875303
20
27.2397795475552
30
0
41
1
10
-0.194976888875317
20
27.2807729334441
30
0
41
1
10
-0.194976888875303
20
27.3018728091073
30
0
0
SPLINE
5
174
100
AcDbEntity
8
SK1
62
256
6
ByLayer
370
18
48
1
60
0
100
AcDbSpline
70
4
71
3
72
21
73
17
40
0
40
0
40
0
40
0
40
0.0619103168415391
40
0.125098696198974
40
0.18828707555641
40
0.251475454913845
40
0.377852213628716
40
0.504228972343586
40
0.567417351701021
40
0.630605731058457
40
0.693794110415892
40
0.756982489773327
40
0.820170869130762
40
0.883359248488198
40
0.946547627845633
40
1
40
1
40
1
40
1
41
1
10
-0.194976888875331
20
27.3704595354143
30
0
41
1
10
-0.194976888875331
20
27.370756945623
30
0
41
1
10
-0.194976888875317
20
27.2866452068185
30
0
41
1
10
-0.194976888875317
20
26.9366667067068
30
0
41
1
10
-0.194976888875303
20
26.3818802030445
30
0
41
1
10
-0.194976888875317
20
25.3956187804698
30
0
41
1
10
-0.194976888875345
20
23.7364763700552
30
0
41
1
10
-0.194976888875317
20
21.5701319585185
30
0
41
1
10
-0.194976888875246
20
19.5537612876812
30
0
41
1
10
-0.194976888875274
20
17.9046092863889
30
0
41
1
10
-0.194976888875303
20
16.1204946895653
30
0
41
1
10
-0.194976888875331
20
14.2042608718964
30
0
41
1
10
-0.194976888875331
20
12.1566070435556
30
0
41
1
10
-0.194976888875246
20
9.97843229767469
30
0
41
1
10
-0.194976888875274
20
7.78849864320111
30
0
41
1
10
-0.19497688887526
20
6.29468288761274
30
0
41
1
10
-0.194976888875274
20
5.59486670063126
30
0
0
SPLINE
5
175
100
AcDbEntity
8
SK1
62
256
6
ByLayer
370
18
48
1
60
0
100
AcDbSpline
70
4
71
3
72
21
73
17
40
0
40
0
40
0
40
0
40
0.0534527275439602
40
0.11664149291043
40
0.1798302582769
40
0.24301902364337
40
0.30620778900984
40
0.36939655437631
40
0.43258531974278
40
0.49577408510925
40
0.62215161584219
40
0.74852914657513
40
0.8117179119416
40
0.87490667730807
40
0.93809544267454
40
1
40
1
40
1
40
1
41
1
10
-0.194976888875331
20
-5.59486561641282
30
0
41
1
10
-0.194976888875331
20
-6.29468213472424
30
0
41
1
10
-0.194976888875317
20
-7.78849845707578
30
0
41
1
10
-0.194976888875288
20
-9.97843246108408
30
0
41
1
10
-0.194976888875317
20
-12.1566070575125
30
0
41
1
10
-0.194976888875303
20
-14.2042608823728
30
0
41
1
10
-0.19497688887536
20
-16.1204943476729
30
0
41
1
10
-0.194976888875317
20
-17.9046089003147
30
0
41
1
10
-0.194976888875303
20
-19.5537611305766
30
0
41
1
10
-0.194976888875288
20
-21.5701326922894
30
0
41
1
10
-0.194976888875303
20
-23.7364737168234
30
0
41
1
10
-0.194976888875331
20
-25.3956230476335
30
0
41
1
10
-0.194976888875288
20
-26.3818801879433
30
0
41
1
10
-0.194976888875345
20
-26.9366669671155
30
0
41
1
10
-0.194976888875303
20
-27.2866337428416
30
0
41
1
10
-0.194976888875331
20
-27.3707486850687
30
0
41
1
10
-0.194976888875317
20
-27.3704596255616
30
0
0
SPLINE
5
176
100
AcDbEntity
8
1
62
256
6
ByLayer
370
18
48
1
60
0
100
AcDbSpline
70
4
71
3
72
10
73
6
40
0
40
0
40
0
40
0
40
0.5
40
0.5
40
1
40
1
40
1
40
1
41
1
10
29.680545903703
20
-28.9033103363538
30
-1.7E-15
41
1
10
29.6993311583824
20
-29.1087264379913
30
-1.7E-15
41
1
10
29.7354768190101
20
-29.3094034545143
30
-1.7E-15
41
1
10
29.8450667105732
20
-29.7012814958973
30
-1.7E-15
41
1
10
29.9184619810824
20
-29.8924871779566
30
-1.7E-15
41
1
10
30.0134252380846
20
-30.0787617743837
30
-1.7E-15
0
SPLINE
5
177
100
AcDbEntity
8
1
62
256
6
ByLayer
370
18
48
1
60
0
100
AcDbSpline
70
4
71
3
72
10
73
6
40
0
40
0
40
0
40
0
40
0.5
40
0.5
40
1
40
1
40
1
40
1
41
1
10
30.0134252380838
20
30.0787617743839
30
-1.7E-15
41
1
10
29.9184619810831
20
29.8924871779597
30
-1.7E-15
41
1
10
29.8450667105685
20
29.7012814958848
30
-1.7E-15
41
1
10
29.7354768190085
20
29.3094034545079
30
-1.7E-15
41
1
10
29.6993311583817
20
29.1087264379881
30
-1.7E-15
41
1
10
29.6805459037026
20
28.9033103363539
30
-1.7E-15
0
SPLINE
5
178
100
AcDbEntity
8
1
62
256
6
ByLayer
370
18
48
1
60
0
100
AcDbSpline
70
4
71
3
72
8
73
4
40
0
40
0
40
0
40
0
40
1
40
1
40
1
40
1
41
1
10
33.8805908117322
20
32.7967368449457
30
-1.5E-15
41
1
10
33.8091372014515
20
32.766594883146
30
-1.5E-15
41
1
10
33.7373827393526
20
32.7372436427763
30
-1.5E-15
41
1
10
33.6653246960696
20
32.7086902973619
30
-1.5E-15
0
SPLINE
5
179
100
AcDbEntity
8
1
62
256
6
ByLayer
370
18
48
1
60
0
100
AcDbSpline
70
4
71
3
72
10
73
6
40
0
40
0
40
0
40
0
40
0.5
40
0.5
40
1
40
1
40
1
40
1
41
1
10
49.0534926258563
20
39.0145963371801
30
-5E-16
41
1
10
46.5149403806716
20
37.9999884996436
30
-7E-16
41
1
10
43.9804923338645
20
36.9762314986788
30
-9E-16
41
1
10
38.9219909465183
20
34.905545403764
30
-1.2E-15
41
1
10
36.3979236193271
20
33.8586474891464
30
-1.3E-15
41
1
10
33.8805908117323
20
32.7967368449455
30
-1.5E-15
0
SPLINE
5
17A
100
AcDbEntity
8
1
62
256
6
ByLayer
370
18
48
1
60
0
100
AcDbSpline
70
4
71
3
72
8
73
4
40
0
40
0
40
0
40
0
40
1
40
1
40
1
40
1
41
1
10
74.1224814441554
20
37.0442228452091
30
0
41
1
10
74.1676568713647
20
37.0980601065852
30
1E-16
41
1
10
74.2128311640639
20
37.1518966733036
30
1E-16
41
1
10
74.2580043118236
20
37.2057325389774
30
1E-16
0
SPLINE
5
17B
100
AcDbEntity
8
1
62
256
6
ByLayer
370
18
48
1
60
0
100
AcDbSpline
70
4
71
3
72
8
73
4
40
0
40
0
40
0
40
0
40
1
40
1
40
1
40
1
41
1
10
31.9048532699293
20
-33.910852946496
30
-1.6E-15
41
1
10
31.2476036095556
20
-34.6910948033879
30
-1.6E-15
41
1
10
30.6130991660749
20
-35.4425508250279
30
-1.7E-15
41
1
10
30.0134252380841
20
-36.1499261291549
30
-1.7E-15
0
SPLINE
5
17C
100
AcDbEntity
8
1
62
256
6
ByLayer
370
18
48
1
60
0
100
AcDbSpline
70
4
71
3
72
12
73
8
40
0
40
0
40
0
40
0
40
0.500000000000001
40
0.500000000000001
40
0.75
40
0.75
40
1
40
1
40
1
40
1
41
1
10
31.9048532699211
20
-31.8788381725115
30
-1.6E-15
41
1
10
32.1260166149793
20
-31.9618363950665
30
-1.6E-15
41
1
10
32.3570401331993
20
-32.0284537446249
30
-1.6E-15
41
1
10
32.7188402688646
20
-32.1038323900825
30
-1.5E-15
41
1
10
32.8420001748983
20
-32.1248387060775
30
-1.5E-15
41
1
10
33.0937474498175
20
-32.1582101339206
30
-1.5E-15
41
1
10
33.2228551153092
20
-32.1705638741757
30
-1.5E-15
41
1
10
33.352020160851
20
-32.1781367468593
30
-1.5E-15
0
SPLINE
5
17D
100
AcDbEntity
8
1
62
256
6
ByLayer
370
18
48
1
60
0
100
AcDbSpline
70
4
71
3
72
30
73
26
40
0
40
0
40
0
40
0
40
0.0303787800075623
40
0.0303787800075623
40
0.0950201946737257
40
0.0950201946737257
40
0.159661609339889
40
0.159661609339889
40
0.191982316672971
40
0.191982316672971
40
0.224303024006052
40
0.224303024006052
40
0.353585853338377
40
0.353585853338377
40
0.482868682670702
40
0.482868682670702
40
0.547510097336865
40
0.547510097336865
40
0.612151512003027
40
0.612151512003027
40
0.741434341335351
40
0.741434341335351
40
0.870717170667676
40
0.870717170667676
40
1
40
1
40
1
40
1
41
1
10
34.1810234307501
20
40.7424842388484
30
0
41
1
10
34.2778160617653
20
40.7753821937968
30
0
41
1
10
34.3814619388845
20
40.8083881836155
30
0
41
1
10
34.7250880371274
20
40.9119323052294
30
-1E-16
41
1
10
34.98702877643
20
40.9828166235905
30
-1E-16
41
1
10
35.5579564692682
20
41.1253268988852
30
0
41
1
10
35.8669673746704
20
41.1969532333969
30
0
41
1
10
36.3603973316779
20
41.3048642944419
30
0
41
1
10
36.5301522716173
20
41.3409686546575
30
-4E-16
41
1
10
36.8762473734783
20
41.4127815728403
30
-4E-16
41
1
10
37.0528356267697
20
41.4485474393327
30
-4E-16
41
1
10
37.9516569797303
20
41.6267462125426
30
-3E-16
41
1
10
38.7207634498809
20
41.767317892784
30
-3E-16
41
1
10
40.3272722971516
20
42.0457493904549
30
7E-16
41
1
10
41.1649948854677
20
42.1835964930841
30
7E-16
41
1
10
42.4592966348813
20
42.3888694631222
30
8E-16
41
1
10
42.8970895572506
20
42.4570412859542
30
9E-16
41
1
10
43.7837423798629
20
42.5929454890944
30
-9E-16
41
1
10
44.2328773603719
20
42.6607169137012
30
-8E-16
41
1
10
45.5901972396668
20
42.8627641045021
30
-8E-16
41
1
10
46.509626387041
20
42.9960017405718
30
-7E-16
41
1
10
48.3708585807464
20
43.2602310597755
30
-6E-16
41
1
10
49.3126977874158
20
43.3912191130362
30
-5E-16
41
1
10
51.2142066006302
20
43.6514053554386
30
-4E-16
41
1
10
52.1738956926886
20
43.7806015885713
30
-4E-16
41
1
10
53.1408606036163
20
43.9090674551827
30
-3E-16
0
SPLINE
5
17E
100
AcDbEntity
8
1
62
256
6
ByLayer
370
18
48
1
60
0
100
AcDbSpline
70
4
71
3
72
14
73
10
40
0
40
0
40
0
40
0
40
0.459360960067783
40
0.459360960067783
40
0.594520720050837
40
0.594520720050837
40
0.729680480033891
40
0.729680480033891
40
1
40
1
40
1
40
1
41
1
10
63.4549726990889
20
32.9491616257681
30
-1E-16
41
1
10
63.5824808243078
20
32.7980373840607
30
-1E-16
41
1
10
63.7250607874452
20
32.6646303258733
30
-1E-16
41
1
10
63.9312180416558
20
32.5148448129604
30
-1E-16
41
1
10
63.9797811858176
20
32.4822429646698
30
-1E-16
41
1
10
64.0785424536762
20
32.421264421272
30
-1E-16
41
1
10
64.1288315333599
20
32.3927986849995
30
-1E-16
41
1
10
64.2824856428698
20
32.3134354807533
30
-1E-16
41
1
10
64.3886187988647
20
32.2685356081415
30
-1E-16
41
1
10
64.4988156214071
20
32.2319727861932
30
0
0
SPLINE
5
17F
100
AcDbEntity
8
1
62
256
6
ByLayer
370
18
48
1
60
0
100
AcDbSpline
70
4
71
3
72
8
73
4
40
0
40
0
40
0
40
0
40
1
40
1
40
1
40
1
41
1
10
58.3449850681509
20
42.7838307051512
30
0
41
1
10
58.4767191997134
20
42.7902762138135
30
0
41
1
10
58.6088699130957
20
42.7998586643776
30
0
41
1
10
58.7416405542508
20
42.8127626503194
30
0
0
SPLINE
5
180
100
AcDbEntity
8
1
62
256
6
ByLayer
370
18
48
1
60
0
100
AcDbSpline
70
4
71
3
72
10
73
6
40
0
40
0
40
0
40
0
40
0.234759224048485
40
0.234759224048485
40
1
40
1
40
1
40
1
41
1
10
74.321967377307
20
41.7514103868437
30
1E-16
41
1
10
74.3329819331667
20
41.8018476404633
30
1E-16
41
1
10
74.3439807627361
20
41.8518018360285
30
1E-16
41
1
10
74.3907678583346
20
42.0626115978237
30
1E-16
41
1
10
74.4264255952637
20
42.2194577548194
30
1E-16
41
1
10
74.4618400812462
20
42.368832071494
30
1E-16
0
SPLINE
5
181
100
AcDbEntity
8
1
62
256
6
ByLayer
370
18
48
1
60
0
100
AcDbSpline
70
4
71
3
72
8
73
4
40
0
40
0
40
0
40
0
40
1
40
1
40
1
40
1
41
1
10
71.8669405845934
20
41.8161320345276
30
0
41
1
10
71.9147570904874
20
41.8821066901362
30
0
41
1
10
71.962567059122
20
41.9481031001463
30
0
41
1
10
72.0103685032711
20
42.0141278021997
30
0
0
SPLINE
5
182
100
AcDbEntity
8
1
62
256
6
ByLayer
370
18
48
1
60
0
100
AcDbSpline
70
4
71
3
72
8
73
4
40
0
40
0
40
0
40
0
40
1
40
1
40
1
40
1
41
1
10
73.4168780444468
20
41.8114801271978
30
1E-16
41
1
10
73.4390336067904
20
41.7054887627831
30
-1E-16
41
1
10
73.4612118028505
20
41.599547936178
30
0
41
1
10
73.4834052281213
20
41.4936411936865
30
0
0
SPLINE
5
183
100
AcDbEntity
8
1
62
256
6
ByLayer
370
18
48
1
60
0
100
AcDbSpline
70
4
71
3
72
8
73
4
40
0
40
0
40
0
40
0
40
1
40
1
40
1
40
1
41
1
10
72.3763724933782
20
46.0441747124167
30
0
41
1
10
72.4205425247466
20
45.9608246858986
30
0
41
1
10
72.4646908026439
20
45.8774338787877
30
0
41
1
10
72.5088067409731
20
45.793982571813
30
0
0
SPLINE
5
184
100
AcDbEntity
8
1
62
256
6
ByLayer
370
18
48
1
60
0
100
AcDbSpline
70
4
71
3
72
8
73
4
40
0
40
0
40
0
40
0
40
1
40
1
40
1
40
1
41
1
10
73.9153162821487
20
45.5913348968111
30
0
41
1
10
73.9607516843886
20
45.6618837879626
30
0
41
1
10
74.0061943261653
20
45.7323664767553
30
0
41
1
10
74.0516418194919
20
45.8028045517457
30
0
0
SPLINE
5
185
100
AcDbEntity
8
1
62
256
6
ByLayer
370
18
48
1
60
0
100
AcDbSpline
70
4
71
3
72
12
73
8
40
0
40
0
40
0
40
0
40
0.324978807889748
40
0.324978807889748
40
0.827738361400307
40
0.827738361400307
40
1
40
1
40
1
40
1
41
1
10
73.6862159686228
20
41.4831851753197
30
1E-16
41
1
10
73.7126009029179
20
41.5036082341263
30
1E-16
41
1
10
73.7381519915226
20
41.5243605543908
30
1E-16
41
1
10
73.8009917523461
20
41.5778123461142
30
1E-16
41
1
10
73.8369863953441
20
41.6108047929736
30
1E-16
41
1
10
73.8814115629041
20
41.654362447004
30
1E-16
41
1
10
73.8924476581677
20
41.6654692236759
30
1E-16
41
1
10
73.9031443118785
20
41.6764918394263
30
1E-16
0
SPLINE
5
186
100
AcDbEntity
8
1
62
256
6
ByLayer
370
18
48
1
60
0
100
AcDbSpline
70
4
71
3
72
14
73
10
40
0
40
0
40
0
40
0
40
0.214165462719991
40
0.214165462719991
40
0.687964931730668
40
0.687964931730668
40
0.924864666236006
40
0.924864666236006
40
1
40
1
40
1
40
1
41
1
10
71.4050759128907
20
45.3013622114269
30
-1E-16
41
1
10
71.3573502711961
20
45.28021886966
30
-1E-16
41
1
10
71.3092921383512
20
45.2573830964498
30
-1E-16
41
1
10
71.1569858675635
20
45.1793110292375
30
-1E-16
41
1
10
71.0555857353452
20
45.1186433505474
30
-1E-16
41
1
10
70.9098555918905
20
45.0166950763965
30
-1E-16
41
1
10
70.8623317934531
20
44.9808879928193
30
-1E-16
41
1
10
70.8012189980214
20
44.9312323976993
30
-1E-16
41
1
10
70.7866051171727
20
44.9190724368758
30
-1E-16
41
1
10
70.7721204314484
20
44.9067317426871
30
-1E-16
0
LINE
5
7D
100
AcDbEntity
8
1
62
256
6
ByLayer
370
18
48
1
60
1
100
AcDbLine
10
-176.787543
20
-124.343771
30
0
11
-176.787543
21
172.656229
31
0
39
0
210
0
220
0
230
1
0
LINE
5
7E
100
AcDbEntity
8
1
62
256
6
ByLayer
370
18
48
1
60
1
100
AcDbLine
10
243.212457
20
172.656229
30
0
11
-176.787543
21
172.656229
31
0
39
0
210
0
220
0
230
1
0
LINE
5
7F
100
AcDbEntity
8
1
62
256
6
ByLayer
370
18
48
1
60
1
100
AcDbLine
10
243.212457
20
172.656229
30
0
11
243.212457
21
-124.343771
31
0
39
0
210
0
220
0
230
1
0
LINE
5
80
100
AcDbEntity
8
1
62
256
6
ByLayer
370
18
48
1
60
1
100
AcDbLine
10
-176.787543
20
-124.343771
30
0
11
243.212457
21
-124.343771
31
0
39
0
210
0
220
0
230
1
0
LINE
5
81
100
AcDbEntity
8
1
62
256
6
ByLayer
370
18
48
1
60
0
100
AcDbLine
10
55.622629
20
37.112286
30
0
11
55.60282
21
37.369756
31
0
39
0
210
0
220
0
230
1
0
LINE
5
82
100
AcDbEntity
8
1
62
256
6
ByLayer
370
18
48
1
60
0
100
AcDbLine
10
57.617931
20
28.617362
30
0
11
57.426008
21
28.615354
31
0
39
0
210
0
220
0
230
1
0
LINE
5
83
100
AcDbEntity
8
1
62
256
6
ByLayer
370
18
48
1
60
0
100
AcDbLine
10
0.3
20
-40
30
0
11
26.578345
21
-40
31
0
39
0
210
0
220
0
230
1
0
LINE
5
84
100
AcDbEntity
8
1
62
256
6
ByLayer
370
18
48
1
60
0
100
AcDbLine
10
30.013425
20
40
30
0
11
0.3
21
40
31
0
39
0
210
0
220
0
230
1
0
LINE
5
85
100
AcDbEntity
8
1
62
256
6
ByLayer
370
18
48
1
60
0
100
AcDbLine
10
0.3
20
40
30
0
11
0
21
39.7
31
0
39
0
210
0
220
0
230
1
0
LINE
5
86
100
AcDbEntity
8
1
62
256
6
ByLayer
370
18
48
1
60
0
100
AcDbLine
10
0
20
-39.7
30
0
11
0.3
21
-40
31
0
39
0
210
0
220
0
230
1
0
LINE
5
87
100
AcDbEntity
8
1
62
256
6
ByLayer
370
18
48
1
60
0
100
AcDbLine
10
34.192691
20
40.746448
30
0
11
33.880591
21
40.640201
31
0
39
0
210
0
220
0
230
1
0
LINE
5
88
100
AcDbEntity
8
1
62
256
6
ByLayer
370
18
48
1
60
0
100
AcDbLine
10
62.259899
20
23.845731
30
0
11
63.395992
21
25.011814
31
0
39
0
210
0
220
0
230
1
0
LINE
5
89
100
AcDbEntity
8
1
62
256
6
ByLayer
370
18
48
1
60
0
100
AcDbLine
10
77.615467
20
39.261027
30
0
11
77.775864
21
39.425657
31
0
39
0
210
0
220
0
230
1
0
LINE
5
8A
100
AcDbEntity
8
1
62
256
6
ByLayer
370
18
48
1
60
0
100
AcDbLine
10
68.506818
20
48.546225
30
0
11
67.809301
21
47.830297
31
0
39
0
210
0
220
0
230
1
0
LINE
5
8B
100
AcDbEntity
8
1
62
256
6
ByLayer
370
18
48
1
60
0
100
AcDbLine
10
71.609619
20
45.505193
30
0
11
71.038425
21
44.91892
31
0
39
0
210
0
220
0
230
1
0
LINE
5
8C
100
AcDbEntity
8
1
62
256
6
ByLayer
370
18
48
1
60
0
100
AcDbLine
10
73.900873
20
41.674118
30
0
11
74.250158
21
42.032623
31
0
39
0
210
0
220
0
230
1
0
LINE
5
8D
100
AcDbEntity
8
1
62
256
6
ByLayer
370
18
48
1
60
0
100
AcDbLine
10
67.489743
20
33.08656
30
0
11
67.431632
21
33.026914
31
0
39
0
210
0
220
0
230
1
0
LINE
5
8E
100
AcDbEntity
8
1
62
256
6
ByLayer
370
18
48
1
60
0
100
AcDbLine
10
65.586244
20
33.09575
30
0
11
66.28376
21
33.811678
31
0
39
0
210
0
220
0
230
1
0
LINE
5
8F
100
AcDbEntity
8
1
62
256
6
ByLayer
370
18
48
1
60
0
100
AcDbLine
10
65.586244
20
33.09575
30
0
11
65.874029
21
38.587021
31
0
39
0
210
0
220
0
230
1
0
LINE
5
90
100
AcDbEntity
8
1
62
256
6
ByLayer
370
18
48
1
60
0
100
AcDbLine
10
66.28376
20
33.811678
30
0
11
66.903883
21
45.644322
31
0
39
0
210
0
220
0
230
1
0
LINE
5
91
100
AcDbEntity
8
1
62
256
6
ByLayer
370
18
48
1
60
0
100
AcDbLine
10
77.548466
20
39.244083
30
0
11
67.489743
21
33.08656
31
0
39
0
210
0
220
0
230
1
0
LINE
5
92
100
AcDbEntity
8
1
62
256
6
ByLayer
370
18
48
1
60
0
100
AcDbLine
10
79.215423
20
41.786882
30
0
11
77.944087
21
39.64512
31
0
39
0
210
0
220
0
230
1
0
LINE
5
93
100
AcDbEntity
8
1
62
256
6
ByLayer
370
18
48
1
60
0
100
AcDbLine
10
79.998921
20
54.160205
30
0
11
79.378798
21
42.32756
31
0
39
0
210
0
220
0
230
1
0
LINE
5
94
100
AcDbEntity
8
1
62
256
6
ByLayer
370
18
48
1
60
0
100
AcDbLine
10
68.734215
20
48.7278
30
0
11
78.792938
21
54.885323
31
0
39
0
210
0
220
0
230
1
0
LINE
5
95
100
AcDbEntity
8
1
62
256
6
ByLayer
370
18
48
1
60
0
100
AcDbLine
10
70.51163
20
29.902792
30
0
11
70.927394
21
30.32953
31
0
39
0
210
0
220
0
230
1
0
LINE
5
96
100
AcDbEntity
8
1
62
256
6
ByLayer
370
18
48
1
60
0
100
AcDbLine
10
70.299911
20
30.077549
30
0
11
69.884147
21
29.65081
31
0
39
0
210
0
220
0
230
1
0
LINE
5
97
100
AcDbEntity
8
1
62
256
6
ByLayer
370
18
48
1
60
0
100
AcDbLine
10
71.962253
20
29.3514
30
0
11
72.378017
21
29.778139
31
0
39
0
210
0
220
0
230
1
0
LINE
5
98
100
AcDbEntity
8
1
62
256
6
ByLayer
370
18
48
1
60
0
100
AcDbLine
10
71.83915
20
30.198166
30
0
11
71.423387
21
29.771427
31
0
39
0
210
0
220
0
230
1
0
LINE
5
99
100
AcDbEntity
8
1
62
256
6
ByLayer
370
18
48
1
60
0
100
AcDbLine
10
72.314223
20
28.497736
30
0
11
72.729987
21
28.924475
31
0
39
0
210
0
220
0
230
1
0
LINE
5
9A
100
AcDbEntity
8
1
62
256
6
ByLayer
370
18
48
1
60
0
100
AcDbLine
10
72.641371
20
28.252466
30
0
11
72.225607
21
27.825728
31
0
39
0
210
0
220
0
230
1
0
LINE
5
9B
100
AcDbEntity
8
1
62
256
6
ByLayer
370
18
48
1
60
0
100
AcDbLine
10
71.430382
20
30.539311
30
0
11
71.002144
21
30.09977
31
0
39
0
210
0
220
0
230
1
0
LINE
5
9C
100
AcDbEntity
8
1
62
256
6
ByLayer
370
18
48
1
60
0
100
AcDbLine
10
72.811733
20
29.462598
30
0
11
72.383496
21
29.023057
31
0
39
0
210
0
220
0
230
1
0
LINE
5
9D
100
AcDbEntity
8
1
62
256
6
ByLayer
370
18
48
1
60
0
100
AcDbLine
10
72.192746
20
27.576528
30
0
11
72.225607
21
27.825728
31
0
39
0
210
0
220
0
230
1
0
LINE
5
9E
100
AcDbEntity
8
1
62
256
6
ByLayer
370
18
48
1
60
0
100
AcDbLine
10
72.314223
20
28.497736
30
0
11
72.383496
21
29.023057
31
0
39
0
210
0
220
0
230
1
0
LINE
5
9F
100
AcDbEntity
8
1
62
256
6
ByLayer
370
18
48
1
60
0
100
AcDbLine
10
71.002144
20
30.09977
30
0
11
71.423387
21
29.771427
31
0
39
0
210
0
220
0
230
1
0
LINE
5
A0
100
AcDbEntity
8
1
62
256
6
ByLayer
370
18
48
1
60
0
100
AcDbLine
10
71.962253
20
29.3514
30
0
11
72.383496
21
29.023057
31
0
39
0
210
0
220
0
230
1
0
LINE
5
A1
100
AcDbEntity
8
1
62
256
6
ByLayer
370
18
48
1
60
0
100
AcDbLine
10
69.777583
20
29.608017
30
0
11
69.884147
21
29.65081
31
0
39
0
210
0
220
0
230
1
0
LINE
5
A2
100
AcDbEntity
8
1
62
256
6
ByLayer
370
18
48
1
60
0
100
AcDbLine
10
70.51163
20
29.902792
30
0
11
71.002144
21
30.09977
31
0
39
0
210
0
220
0
230
1
0
LINE
5
A3
100
AcDbEntity
8
1
62
256
6
ByLayer
370
18
48
1
60
0
100
AcDbLine
10
42.154779
20
4.41654
30
0
11
58.935161
21
20.71666
31
0
39
0
210
0
220
0
230
1
0
LINE
5
A4
100
AcDbEntity
8
1
62
256
6
ByLayer
370
18
48
1
60
0
100
AcDbLine
10
39.994245
20
-23.95278
30
0
11
40.295886
21
0.109793
31
0
39
0
210
0
220
0
230
1
0
LINE
5
A5
100
AcDbEntity
8
1
62
256
6
ByLayer
370
18
48
1
60
0
100
AcDbLine
10
10.538675
20
-12.13309
30
0
11
13.461325
21
-12.13309
31
0
39
0
210
0
220
0
230
1
0
LINE
5
A6
100
AcDbEntity
8
1
62
256
6
ByLayer
370
18
48
1
60
0
100
AcDbLine
10
13.461325
20
-38.115458
30
0
11
10.538675
21
-38.115458
31
0
39
0
210
0
220
0
230
1
0
LINE
5
A7
100
AcDbEntity
8
1
62
256
6
ByLayer
370
18
48
1
60
0
100
AcDbLine
10
10.538675
20
38.115458
30
0
11
13.461325
21
38.115458
31
0
39
0
210
0
220
0
230
1
0
LINE
5
A8
100
AcDbEntity
8
1
62
256
6
ByLayer
370
18
48
1
60
0
100
AcDbLine
10
13.461325
20
12.13309
30
0
11
10.538675
21
12.13309
31
0
39
0
210
0
220
0
230
1
0
LINE
5
A9
100
AcDbEntity
8
1
62
256
6
ByLayer
370
18
48
1
60
0
100
AcDbLine
10
0.3
20
40
30
0
11
0.3
21
-40
31
0
39
0
210
0
220
0
230
1
0
LINE
5
AA
100
AcDbEntity
8
SK1
62
256
6
ByLayer
370
18
48
1
60
0
100
AcDbLine
10
-1.315435
20
-4.384003
30
0
11
-1.315435
21
4.383999
31
0
39
0
210
0
220
0
230
1
0
LINE
5
AC
100
AcDbEntity
8
1
62
256
6
ByLayer
370
18
48
1
60
0
100
AcDbLine
10
0
20
39.7
30
0
11
0
21
-39.7
31
0
39
0
210
0
220
0
230
1
0
LINE
5
AD
100
AcDbEntity
8
1
62
256
6
ByLayer
370
18
48
1
60
0
100
AcDbLine
10
13.894338
20
12.6576
30
0
11
13.894338
21
37.944501
31
0
39
0
210
0
220
0
230
1
0
LINE
5
AE
100
AcDbEntity
8
1
62
256
6
ByLayer
370
18
48
1
60
0
100
AcDbLine
10
13.461325
20
12.13309
30
0
11
13.461325
21
38.115458
31
0
39
0
210
0
220
0
230
1
0
LINE
5
AF
100
AcDbEntity
8
1
62
256
6
ByLayer
370
18
48
1
60
0
100
AcDbLine
10
10.538675
20
12.13309
30
0
11
10.538675
21
38.115458
31
0
39
0
210
0
220
0
230
1
0
LINE
5
B0
100
AcDbEntity
8
1
62
256
6
ByLayer
370
18
48
1
60
0
100
AcDbLine
10
10.105662
20
12.6576
30
0
11
10.105662
21
37.944501
31
0
39
0
210
0
220
0
230
1
0
LINE
5
B1
100
AcDbEntity
8
1
62
256
6
ByLayer
370
18
48
1
60
0
100
AcDbLine
10
13.894338
20
-37.944501
30
0
11
13.894338
21
-12.6576
31
0
39
0
210
0
220
0
230
1
0
LINE
5
B2
100
AcDbEntity
8
1
62
256
6
ByLayer
370
18
48
1
60
0
100
AcDbLine
10
13.461325
20
-38.115458
30
0
11
13.461325
21
-12.13309
31
0
39
0
210
0
220
0
230
1
0
LINE
5
B3
100
AcDbEntity
8
1
62
256
6
ByLayer
370
18
48
1
60
0
100
AcDbLine
10
10.538675
20
-38.115458
30
0
11
10.538675
21
-12.13309
31
0
39
0
210
0
220
0
230
1
0
LINE
5
B4
100
AcDbEntity
8
1
62
256
6
ByLayer
370
18
48
1
60
0
100
AcDbLine
10
10.105662
20
-37.944501
30
0
11
10.105662
21
-12.6576
31
0
39
0
210
0
220
0
230
1
0
LINE
5
B5
100
AcDbEntity
8
1
62
256
6
ByLayer
370
18
48
1
60
0
100
AcDbLine
10
30.013425
20
-30.078762
30
0
11
30.013425
21
-36.149926
31
0
39
0
210
0
220
0
230
1
0
LINE
5
B6
100
AcDbEntity
8
1
62
256
6
ByLayer
370
18
48
1
60
0
100
AcDbLine
10
30.013425
20
40
30
0
11
30.013425
21
30.078762
31
0
39
0
210
0
220
0
230
1
0
LINE
5
B7
100
AcDbEntity
8
1
62
256
6
ByLayer
370
18
48
1
60
0
100
AcDbLine
10
33.880591
20
32.796737
30
0
11
33.880591
21
40.640201
31
0
39
0
210
0
220
0
230
1
0
LINE
5
B8
100
AcDbEntity
8
1
62
256
6
ByLayer
370
18
48
1
60
0
100
AcDbLine
10
33.665325
20
-31.789882
30
0
11
33.665325
21
32.70869
31
0
39
0
210
0
220
0
230
1
0
LINE
5
B9
100
AcDbEntity
8
1
62
256
6
ByLayer
370
18
48
1
60
0
100
AcDbLine
10
29.680546
20
28.90331
30
0
11
29.680546
21
-28.90331
31
0
39
0
210
0
220
0
230
1
0
LINE
5
BA
100
AcDbEntity
8
1
62
256
6
ByLayer
370
18
48
1
60
0
100
AcDbLine
10
62.51108
20
36.224064
30
0
11
65.857515
21
38.272609
31
0
39
0
210
0
220
0
230
1
0
LINE
5
BB
100
AcDbEntity
8
1
62
256
6
ByLayer
370
18
48
1
60
0
100
AcDbLine
10
65.867398
20
38.461293
30
0
11
62.635621
21
36.482937
31
0
39
0
210
0
220
0
230
1
0
LINE
5
BC
100
AcDbEntity
8
1
62
256
6
ByLayer
370
18
48
1
60
0
100
AcDbLine
10
65.768376
20
38.453205
30
0
11
65.770842
21
38.496641
31
0
39
0
210
0
220
0
230
1
0
LINE
5
BD
100
AcDbEntity
8
1
62
256
6
ByLayer
370
18
48
1
60
0
100
AcDbLine
10
65.836711
20
32.474028
30
0
11
65.240267
21
32.10891
31
0
39
0
210
0
220
0
230
1
0
LINE
5
BE
100
AcDbEntity
8
1
62
256
6
ByLayer
370
18
48
1
60
0
100
AcDbLine
10
65.884866
20
32.432151
30
0
11
65.360184
21
32.110963
31
0
39
0
210
0
220
0
230
1
0
LINE
5
BF
100
AcDbEntity
8
1
62
256
6
ByLayer
370
18
48
1
60
0
100
AcDbLine
10
65.630112
20
38.373402
30
0
11
66.485745
21
39.122444
31
0
39
0
210
0
220
0
230
1
0
LINE
5
C0
100
AcDbEntity
8
1
62
256
6
ByLayer
370
18
48
1
60
0
100
AcDbLine
10
63.40002
20
37.233494
30
0
11
62.75575
21
36.662057
31
0
39
0
210
0
220
0
230
1
0
LINE
5
C1
100
AcDbEntity
8
1
62
256
6
ByLayer
370
18
48
1
60
0
100
AcDbLine
10
65.768376
20
38.453205
30
0
11
65.870289
21
38.515592
31
0
39
0
210
0
220
0
230
1
0
LINE
5
C2
100
AcDbEntity
8
1
62
256
6
ByLayer
370
18
48
1
60
0
100
AcDbLine
10
33.665325
20
-31.789882
30
0
11
39.994245
21
-23.95278
31
0
39
0
210
0
220
0
230
1
0
LINE
5
C3
100
AcDbEntity
8
1
62
256
6
ByLayer
370
18
48
1
60
0
100
AcDbLine
10
31.904853
20
-33.910853
30
0
11
31.904853
21
-31.878838
31
0
39
0
210
0
220
0
230
1
0
LINE
5
C4
100
AcDbEntity
8
1
62
256
6
ByLayer
370
18
48
1
60
0
100
AcDbLine
10
40.783746
20
-22.709328
30
0
11
77.495109
21
22.969526
31
0
39
0
210
0
220
0
230
1
0
LINE
5
C5
100
AcDbEntity
8
1
62
256
6
ByLayer
370
18
48
1
60
0
100
AcDbLine
10
78.354943
20
39.376134
30
0
11
77.495109
21
22.969526
31
0
39
0
210
0
220
0
230
1
0
LINE
5
C6
100
AcDbEntity
8
1
62
256
6
ByLayer
370
18
48
1
60
0
100
AcDbLine
10
70.141833
20
34.685988
30
0
11
66.502071
21
32.45788
31
0
39
0
210
0
220
0
230
1
0
LINE
5
C7
100
AcDbEntity
8
1
62
256
6
ByLayer
370
18
48
1
60
0
100
AcDbLine
10
78.076746
20
39.543404
30
0
11
78.354943
21
39.376134
31
0
39
0
210
0
220
0
230
1
0
LINE
5
C8
100
AcDbEntity
8
1
62
256
6
ByLayer
370
18
48
1
60
0
100
AcDbLine
10
78.076746
20
39.543404
30
0
11
74.258004
21
37.205733
31
0
39
0
210
0
220
0
230
1
0
LINE
5
C9
100
AcDbEntity
8
1
62
256
6
ByLayer
370
18
48
1
60
0
100
AcDbLine
10
73.603281
20
36.629197
30
0
11
70.954585
21
35.007778
31
0
39
0
210
0
220
0
230
1
0
LINE
5
CA
100
AcDbEntity
8
1
62
256
6
ByLayer
370
18
48
1
60
0
100
AcDbLine
10
66.485745
20
39.122444
30
0
11
63.40002
21
37.233494
31
0
39
0
210
0
220
0
230
1
0
LINE
5
CB
100
AcDbEntity
8
1
62
256
6
ByLayer
370
18
48
1
60
0
100
AcDbLine
10
66.485745
20
39.122444
30
0
11
66.891593
21
46.268671
31
0
39
0
210
0
220
0
230
1
0
LINE
5
CC
100
AcDbEntity
8
1
62
256
6
ByLayer
370
18
48
1
60
0
100
AcDbLine
10
66.605249
20
46.44084
30
0
11
66.891593
21
46.268671
31
0
39
0
210
0
220
0
230
1
0
LINE
5
CD
100
AcDbEntity
8
1
62
256
6
ByLayer
370
18
48
1
60
0
100
AcDbLine
10
63.008349
20
44.238971
30
0
11
66.605249
21
46.44084
31
0
39
0
210
0
220
0
230
1
0
LINE
5
CE
100
AcDbEntity
8
1
62
256
6
ByLayer
370
18
48
1
60
0
100
AcDbLine
10
62.142922
20
23.72901
30
0
11
41.607747
21
3.809456
31
0
39
0
210
0
220
0
230
1
0
LINE
5
CF
100
AcDbEntity
8
1
62
256
6
ByLayer
370
18
48
1
60
0
100
AcDbLine
10
65.119808
20
30.680998
30
0
11
64.498816
21
32.231973
31
0
39
0
210
0
220
0
230
1
0
LINE
5
D0
100
AcDbEntity
8
1
62
256
6
ByLayer
370
18
48
1
60
0
100
AcDbLine
10
62.735474
20
36.636054
30
0
11
61.860848
21
38.820497
31
0
39
0
210
0
220
0
230
1
0
LINE
5
D1
100
AcDbEntity
8
1
62
256
6
ByLayer
370
18
48
1
60
0
100
AcDbLine
10
40.783746
20
-22.709328
30
0
11
40.783746
21
-1.45476
31
0
39
0
210
0
220
0
230
1
0
LINE
5
D2
100
AcDbEntity
8
1
62
256
6
ByLayer
370
18
48
1
60
0
100
AcDbLine
10
41.972498
20
1.364561
30
0
11
63.316753
21
22.068941
31
0
39
0
210
0
220
0
230
1
0
LINE
5
D3
100
AcDbEntity
8
1
62
256
6
ByLayer
370
18
48
1
60
0
100
AcDbLine
10
63.293505
20
24.909965
30
0
11
62.142922
21
23.72901
31
0
39
0
210
0
220
0
230
1
0
LINE
5
D4
100
AcDbEntity
8
1
62
256
6
ByLayer
370
18
48
1
60
0
100
AcDbLine
10
42.154779
20
4.41654
30
0
11
41.918307
21
4.173826
31
0
39
0
210
0
220
0
230
1
0
LINE
5
D5
100
AcDbEntity
8
1
62
256
6
ByLayer
370
18
48
1
60
0
100
AcDbLine
10
58.935161
20
20.71666
30
0
11
49.053493
21
39.014596
31
0
39
0
210
0
220
0
230
1
0
LINE
5
D6
100
AcDbEntity
8
1
62
256
6
ByLayer
370
18
48
1
60
0
100
AcDbLine
10
53.140861
20
43.909067
30
0
11
55.20237
21
43.839176
31
0
39
0
210
0
220
0
230
1
0
LINE
5
D7
100
AcDbEntity
8
1
62
256
6
ByLayer
370
18
48
1
60
0
100
AcDbLine
10
60.960767
20
39.071191
30
0
11
64.273217
21
30.986594
31
0
39
0
210
0
220
0
230
1
0
LINE
5
D8
100
AcDbEntity
8
1
62
256
6
ByLayer
370
18
48
1
60
0
100
AcDbLine
10
63.293505
20
24.909965
30
0
11
58.935161
21
20.71666
31
0
39
0
210
0
220
0
230
1
0
LINE
5
D9
100
AcDbEntity
8
1
62
256
6
ByLayer
370
18
48
1
60
0
100
AcDbLine
10
73.428313
20
41.437095
30
0
11
73.483405
21
41.493641
31
0
39
0
210
0
220
0
230
1
0
LINE
5
DA
100
AcDbEntity
8
1
62
256
6
ByLayer
370
18
48
1
60
0
100
AcDbLine
10
55.729008
20
33.545754
30
0
11
55.821094
21
33.661231
31
0
39
0
210
0
220
0
230
1
0
LINE
5
DB
100
AcDbEntity
8
1
62
256
6
ByLayer
370
18
48
1
60
0
100
AcDbLine
10
56.339189
20
32.510434
30
0
11
56.764881
21
33.044261
31
0
39
0
210
0
220
0
230
1
0
LINE
5
DC
100
AcDbEntity
8
1
62
256
6
ByLayer
370
18
48
1
60
0
100
AcDbLine
10
57.18237
20
32.291758
30
0
11
56.689508
21
32.164837
31
0
39
0
210
0
220
0
230
1
0
LINE
5
DD
100
AcDbEntity
8
1
62
256
6
ByLayer
370
18
48
1
60
0
100
AcDbLine
10
56.764881
20
33.044261
30
0
11
57.18237
21
32.291758
31
0
39
0
210
0
220
0
230
1
0
LINE
5
DE
100
AcDbEntity
8
1
62
256
6
ByLayer
370
18
48
1
60
0
100
AcDbLine
10
55.821094
20
33.661231
30
0
11
56.764881
21
33.044261
31
0
39
0
210
0
220
0
230
1
0
LINE
5
DF
100
AcDbEntity
8
1
62
256
6
ByLayer
370
18
48
1
60
0
100
AcDbLine
10
55.697628
20
33.629437
30
0
11
55.821094
21
33.661231
31
0
39
0
210
0
220
0
230
1
0
LINE
5
E0
100
AcDbEntity
8
1
62
256
6
ByLayer
370
18
48
1
60
0
100
AcDbLine
10
57.77415
20
27.687046
30
0
11
58.203314
21
28.298499
31
0
39
0
210
0
220
0
230
1
0
LINE
5
E1
100
AcDbEntity
8
1
62
256
6
ByLayer
370
18
48
1
60
0
100
AcDbLine
10
58.584495
20
26.831647
30
0
11
59.147499
21
27.633788
31
0
39
0
210
0
220
0
230
1
0
LINE
5
E2
100
AcDbEntity
8
1
62
256
6
ByLayer
370
18
48
1
60
0
100
AcDbLine
10
59.147499
20
27.633788
30
0
11
59.334307
21
26.900011
31
0
39
0
210
0
220
0
230
1
0
LINE
5
E3
100
AcDbEntity
8
1
62
256
6
ByLayer
370
18
48
1
60
0
100
AcDbLine
10
58.203314
20
28.298499
30
0
11
59.147499
21
27.633788
31
0
39
0
210
0
220
0
230
1
0
LINE
5
E4
100
AcDbEntity
8
1
62
256
6
ByLayer
370
18
48
1
60
0
100
AcDbLine
10
57.535344
20
28.237586
30
0
11
58.203314
21
28.298499
31
0
39
0
210
0
220
0
230
1
0
LINE
5
E5
100
AcDbEntity
8
1
62
256
6
ByLayer
370
18
48
1
60
0
100
AcDbLine
10
58.576931
20
26.830945
30
0
11
58.107775
21
27.161234
31
0
39
0
210
0
220
0
230
1
0
LINE
5
E6
100
AcDbEntity
8
1
62
256
6
ByLayer
370
18
48
1
60
0
100
AcDbLine
10
59.334307
20
26.900011
30
0
11
58.576931
21
26.830945
31
0
39
0
210
0
220
0
230
1
0
LINE
5
E7
100
AcDbEntity
8
1
62
256
6
ByLayer
370
18
48
1
60
0
100
AcDbLine
10
54.357138
20
38.181542
30
0
11
54.684086
21
38.525721
31
0
39
0
210
0
220
0
230
1
0
LINE
5
E8
100
AcDbEntity
8
1
62
256
6
ByLayer
370
18
48
1
60
0
100
AcDbLine
10
55.062725
20
37.443608
30
0
11
55.309946
21
37.703858
31
0
39
0
210
0
220
0
230
1
0
LINE
5
E9
100
AcDbEntity
8
1
62
256
6
ByLayer
370
18
48
1
60
0
100
AcDbLine
10
54.684086
20
38.525721
30
0
11
55.309946
21
37.703858
31
0
39
0
210
0
220
0
230
1
0
LINE
5
EA
100
AcDbEntity
8
1
62
256
6
ByLayer
370
18
48
1
60
0
100
AcDbLine
10
54.001081
20
38.965065
30
0
11
54.684086
21
38.525721
31
0
39
0
210
0
220
0
230
1
0
LINE
5
EB
100
AcDbEntity
8
1
62
256
6
ByLayer
370
18
48
1
60
0
100
AcDbLine
10
55.097699
20
37.421111
30
0
11
54.82115
21
37.599002
31
0
39
0
210
0
220
0
230
1
0
LINE
5
EC
100
AcDbEntity
8
1
62
256
6
ByLayer
370
18
48
1
60
0
100
AcDbLine
10
55.309946
20
37.703858
30
0
11
55.097699
21
37.421111
31
0
39
0
210
0
220
0
230
1
0
LINE
5
ED
100
AcDbEntity
8
1
62
256
6
ByLayer
370
18
48
1
60
0
100
AcDbLine
10
67.809301
20
47.830297
30
0
11
67.067258
21
46.185001
31
0
39
0
210
0
220
0
230
1
0
LINE
5
EE
100
AcDbEntity
8
81
62
256
6
ByLayer
370
18
48
1
60
0
100
AcDbLine
10
80.078155
20
55.672078
30
0
11
80.950027
21
55.672078
31
0
39
0
210
0
220
0
230
1
0
LINE
5
EF
100
AcDbEntity
8
4
62
256
6
ByLayer
370
18
48
0.05
60
0
100
AcDbLine
10
-5.7
20
0
30
0
11
68.3
21
0
31
0
39
0
210
0
220
0
230
1
0
LINE
5
F1
100
AcDbEntity
8
SK4
62
256
6
ByLayer
370
18
48
0.05
60
0
100
AcDbLine
10
-53.7
20
0
30
0
11
74.3
21
0
31
0
39
0
210
0
220
0
230
1
0
LINE
5
F3
100
AcDbEntity
8
1
62
256
6
ByLayer
370
18
48
1
60
0
100
AcDbLine
10
0
20
0
30
0
11
-2.8
21
0
31
0
39
0
210
0
220
0
230
1
0
LINE
5
F4
100
AcDbEntity
8
80
62
256
6
ByLayer
370
18
48
1
60
0
100
AcDbLine
10
0
20
0
30
0
11
-1
21
0
31
0
39
0
210
0
220
0
230
1
0
MTEXT
5
187
100
AcDbEntity
8
SK6
62
256
6
ByLayer
370
18
48
1
60
0
100
AcDbMText
10
-1.752094
20
-65.168546
30
0
210
0
220
0
230
1
1
\W0.7306;C8-PDUNR-55080-15HP
40
3.175
41
0
44
1.084337
50
0
71
7
72
5
7
iso_b_vert
0
DIMENSION
5
19A
100
AcDbEntity
8
SK2
62
256
6
ByLayer
370
13
48
1
60
0
100
AcDbDimension
2
DimnDraft3D1
10
-65.646483
20
-40
30
0
11
-65.096573
21
3.205373
31
0
70
33
71
5
72
1
41
1
210
0
220
0
230
1
3
Standard
100
AcDbAlignedDimension
13
-1.2875
23
40
33
0
14
-1.2875
24
-40
34
0
1001
ACAD
1000
DSTYLE
1002
{
1070
   279
1070
     0
1070
    74
1070
     0
1070
   173
1070
     1
1070
   340
1005
188
1070
   271
1070
     1
1070
   272
1070
     2
1070
    77
1070
     1
1070
    73
1070
     0
1070
   171
1070
     3
1070
   274
1070
     4
1070
   177
1070
     7
1070
   176
1070
     7
1070
   178
1070
     7
1070
    78
1070
     8
1070
    48
1040
-0.005
1070
    41
1041
3.175
1070
   147
1041
1.75006
1070
    42
1041
1.5875
1070
    44
1041
3.175
1070
   140
1041
3.50012
1070
   343
1005
0
1070
   344
1005
0
1002
}
0
DIMENSION
5
1A9
100
AcDbEntity
8
2
62
256
6
ByLayer
370
13
48
1
60
0
100
AcDbDimension
2
DimnDraft3D2
10
54.99976
20
-99.618197
30
0
11
37.192748
21
-99.618197
31
0
70
32
71
5
72
1
41
1
210
0
220
0
230
1
3
Standard
100
AcDbAlignedDimension
13
0
23
-69.8875
33
0
14
54.99976
24
-80.808116
34
0
50
0
100
AcDbRotatedDimension
1001
ACAD
1000
DSTYLE
1002
{
1070
   279
1070
     0
1070
   172
1070
     1
1070
   173
1070
     1
1070
   340
1005
188
1070
   271
1070
     1
1070
   272
1070
     2
1070
    77
1070
     1
1070
    73
1070
     0
1070
   171
1070
     3
1070
   274
1070
     4
1070
   177
1070
     7
1070
   176
1070
     7
1070
   178
1070
     7
1070
    78
1070
     8
1070
    48
1040
-0.005
1070
    41
1041
3.175
1070
   147
1041
1.75006
1070
    42
1041
1.5875
1070
    44
1041
3.175
1070
   140
1041
3.50012
1070
   343
1005
0
1070
   344
1005
0
1002
}
0
DIMENSION
5
1B7
100
AcDbEntity
8
2
62
256
6
ByLayer
370
13
48
1
60
0
100
AcDbDimension
2
DimnDraft3D3
10
-80.523157
20
79.998921
30
0
11
-80.523157
21
49.165
31
0
70
32
71
5
72
1
41
1
210
0
220
0
230
1
3
Standard
100
AcDbAlignedDimension
13
-41.2875
23
0
33
0
14
-55.747705
24
79.998921
34
0
50
90
100
AcDbRotatedDimension
1001
ACAD
1000
DSTYLE
1002
{
1070
    74
1070
     0
1070
   279
1070
     0
1070
   172
1070
     1
1070
   173
1070
     1
1070
   340
1005
188
1070
   271
1070
     1
1070
   272
1070
     2
1070
    77
1070
     1
1070
    73
1070
     0
1070
   171
1070
     3
1070
   274
1070
     4
1070
   177
1070
     7
1070
   176
1070
     7
1070
   178
1070
     7
1070
    78
1070
     8
1070
    48
1040
-0.005
1070
    41
1041
3.175
1070
   147
1041
1.75006
1070
    42
1041
1.5875
1070
    44
1041
3.175
1070
   140
1041
3.50012
1070
   343
1005
0
1070
   344
1005
0
1002
}
0
DIMENSION
5
1C5
100
AcDbEntity
8
SK2
62
256
6
ByLayer
370
13
48
1
60
0
100
AcDbDimension
2
DimnDraft3D4
10
79.677993
20
54.799379
30
0
11
65.343066
21
-63.914082
31
0
70
34
71
5
72
1
41
1
210
0
220
0
230
1
3
Standard
100
AcDb2LineAngularDimension
13
79.998921
23
54.160205
33
0
14
79.378798
24
42.32756
34
0
15
78.677993
25
54.799379
35
0
16
66.359373
26
-69.26305
36
0
40
0
0
ENDSEC
0
SECTION
2
OBJECTS
0
DICTIONARY
5
230
330
0
100
AcDbDictionary
280
0
281
1
3
ACAD_GROUP
350
231
3
ACAD_MLINESTYLE
350
232
0
DICTIONARY
5
231
330
0
100
AcDbDictionary
280
0
281
1
0
DICTIONARY
5
232
330
0
100
AcDbDictionary
280
0
281
1
3
Standard
350
18
0
MLINESTYLE
5
18
330
232
100
AcDbMlineStyle
2
Standard
70
0
3

62
256
51
90
52
90
71
2
49
-0.5
62
256
6
ByLayer
49
0.5
62
256
6
ByLayer
0
RASTERVARIABLES
5
21e
330

100
AcDbRasterVariables
90
0
70
1
71
1
72
1
0
ENDSEC
0
EOF
