0
SECTION
2
HEADER
9
$ACADVER
1
AC1015
9
$DWGCODEPAGE
3
ANSI_1252
9
$HANDSEED
5
20b
9
$ANGBASE
50
0
9
$ANGDIR
70
0
9
$ATTMODE
70
1
9
$AUNITS
70
0
9
$AUPREC
70
0
9
$CECOLOR
62
256
9
$CELTSCALE
40
1
9
$CELTYPE
6
ByLayer
9
$CELWEIGHT
370
18
9
$CLAYER
8
0
9
$CMLJUST
70
0
9
$CMLSCALE
40
1
9
$CMLSTYLE
2
Standard
9
$DIMSTYLE
2
Standard
9
$TEXTSIZE
40
0.2
9
$TEXTSTYLE
7
Standard
9
$LUNITS
70
2
9
$LUPREC
70
4
9
$EXTNAMES
290
1
9
$INSUNITS
70
4
9
$LTSCALE
40
1
9
$LWDISPLAY
290
1
9
$PDMODE
70
0
9
$PDSIZE
40
0
9
$PLINEGEN
70
0
0
ENDSEC
0
SECTION
2
CLASSES
0
CLASS
1
RASTERVARIABLES
2
AcDbRasterVariables
3
ISM
90
0
280
0
281
0
0
ENDSEC
0
SECTION
2
TABLES
0
TABLE
2
VPORT
5
201
100
AcDbSymbolTable
0
VPORT
5
1
100
AcDbSymbolTableRecord
100
AcDbViewportTableRecord
2
*Active
70
0
10
0
20
0
11
1
21
1
12
-1
22
1
13
0
23
0
14
0.5
24
0.5
15
10
25
10
16
0
26
0
36
1
17
0
27
0
37
0
0
ENDTAB
0
TABLE
2
LTYPE
5
202
100
AcDbSymbolTable
0
LTYPE
5
14
100
AcDbSymbolTableRecord
100
AcDbLinetypeTableRecord
70
0
2
ByBlock
3

72
65
73
0
40
0
0
LTYPE
5
15
100
AcDbSymbolTableRecord
100
AcDbLinetypeTableRecord
70
0
2
ByLayer
3

72
65
73
0
40
0
0
LTYPE
5
16
100
AcDbSymbolTableRecord
100
AcDbLinetypeTableRecord
70
0
2
CONTINUOUS
3
Solid line
72
65
73
0
40
0
0
LTYPE
5
6A
100
AcDbSymbolTableRecord
100
AcDbLinetypeTableRecord
70
0
2
CENTER
3
____ _ ____ _ ____ _ ____
72
65
73
4
40
47.5
49
22
74
0
49
-8.5
74
0
49
8.5
74
0
49
-8.5
74
0
0
LTYPE
5
6B
100
AcDbSymbolTableRecord
100
AcDbLinetypeTableRecord
70
0
2
DASHED
3
__ __ __ __ __ __ __ __ __
72
65
73
2
40
25.72
49
12.86
74
0
49
-12.86
74
0
0
ENDTAB
0
TABLE
2
LAYER
5
203
100
AcDbSymbolTable
0
LAYER
5
10
100
AcDbSymbolTableRecord
100
AcDbLayerTableRecord
2
0
70
0
62
7
6
CONTINUOUS
290
1
370
-3
390
0
0
LAYER
5
6D
100
AcDbSymbolTableRecord
100
AcDbLayerTableRecord
2
80
70
0
62
-6
6
CONTINUOUS
290
1
370
-3
390
0
0
LAYER
5
6F
100
AcDbSymbolTableRecord
100
AcDbLayerTableRecord
2
81
70
0
62
-3
6
CONTINUOUS
290
1
370
-3
390
0
0
LAYER
5
71
100
AcDbSymbolTableRecord
100
AcDbLayerTableRecord
2
1
70
0
62
4
6
CONTINUOUS
290
1
370
-3
390
0
0
LAYER
5
C4
100
AcDbSymbolTableRecord
100
AcDbLayerTableRecord
2
4
70
0
62
-2
6
CENTER
290
1
370
-3
390
0
0
LAYER
5
166
100
AcDbSymbolTableRecord
100
AcDbLayerTableRecord
2
2
70
0
62
7
6
CONTINUOUS
290
1
370
-3
390
0
0
LAYER
5
1ed
100
AcDbSymbolTableRecord
100
AcDbLayerTableRecord
2
SK1
70
0
62
4
6
CONTINUOUS
290
1
370
-3
390
0
0
LAYER
5
1ee
100
AcDbSymbolTableRecord
100
AcDbLayerTableRecord
2
SK4
70
0
62
2
6
CENTER
290
1
370
-3
390
0
0
LAYER
5
1ef
100
AcDbSymbolTableRecord
100
AcDbLayerTableRecord
2
SK6
70
0
62
5
6
CONTINUOUS
290
1
370
-3
390
0
0
LAYER
5
1f0
100
AcDbSymbolTableRecord
100
AcDbLayerTableRecord
2
SK2
70
0
62
7
6
CONTINUOUS
290
1
370
-3
390
0
0
ENDTAB
0
TABLE
2
STYLE
5
204
100
AcDbSymbolTable
0
STYLE
5
11
100
AcDbSymbolTableRecord
100
AcDbTextStyleTableRecord
2
Standard
3
txt
70
0
71
0
40
0
41
1
42
0
50
0
0
STYLE
5
150
100
AcDbSymbolTableRecord
100
AcDbTextStyleTableRecord
2
iso_b_vert
3
simplex.shx
70
0
71
0
40
0
41
1
42
0
50
0
0
STYLE
5
151
100
AcDbSymbolTableRecord
100
AcDbTextStyleTableRecord
2
DWGDirectTextStyle
3
simplex
70
0
71
0
40
0
41
1
42
0
50
0
0
ENDTAB
0
TABLE
2
DIMSTYLE
5
205
100
AcDbSymbolTable
100
AcDbDimStyleTable
0
DIMSTYLE
105
27
100
AcDbSymbolTableRecord
100
AcDbDimStyleTableRecord
2
Standard
70
0
3
<>
41
0.18
42
0.0625
44
0.18
140
0.18
147
0.09
73
0
74
0
77
1
271
2
275
0
278
52
280
0
340
11
0
ENDTAB
0
TABLE
2
VIEW
5
206
100
AcDbSymbolTable
0
ENDTAB
0
TABLE
2
UCS
5
207
100
AcDbSymbolTable
0
ENDTAB
0
TABLE
2
APPID
5
208
100
AcDbSymbolTable
0
APPID
5
12
100
AcDbSymbolTableRecord
100
AcDbRegAppTableRecord
2
ACAD
70
0
0
ENDTAB
0
TABLE
2
BLOCK_RECORD
5
209
100
AcDbSymbolTable
0
BLOCK_RECORD
5
1F
100
AcDbSymbolTableRecord
100
AcDbBlockTableRecord
2
*Model_Space
340
0
70
0
0
BLOCK_RECORD
5
1B
100
AcDbSymbolTableRecord
100
AcDbBlockTableRecord
2
*Paper_Space
340
0
70
0
0
BLOCK_RECORD
5
23
100
AcDbSymbolTableRecord
100
AcDbBlockTableRecord
2
*Paper_Space0
340
0
70
0
0
BLOCK_RECORD
5
153
100
AcDbSymbolTableRecord
100
AcDbBlockTableRecord
2
DimnDraft3D1
340
0
70
0
0
BLOCK_RECORD
5
162
100
AcDbSymbolTableRecord
100
AcDbBlockTableRecord
2
DimnDraft3D22
340
0
70
0
0
BLOCK_RECORD
5
171
100
AcDbSymbolTableRecord
100
AcDbBlockTableRecord
2
DimnDraft3D3
340
0
70
0
0
BLOCK_RECORD
5
17F
100
AcDbSymbolTableRecord
100
AcDbBlockTableRecord
2
DimnDraft3D4
340
0
70
0
0
BLOCK_RECORD
5
18D
100
AcDbSymbolTableRecord
100
AcDbBlockTableRecord
2
_CLOSED
340
0
70
0
0
ENDTAB
0
ENDSEC
0
SECTION
2
BLOCKS
0
BLOCK
5
20
100
AcDbEntity
8
0
100
AcDbBlockBegin
2
*Model_Space
70
0
10
0
20
0
30
0
3
*Model_Space
0
ENDBLK
5
21
100
AcDbEntity
8
0
100
AcDbBlockEnd
0
BLOCK
5
1C
100
AcDbEntity
8
0
100
AcDbBlockBegin
2
*Paper_Space
70
0
10
0
20
0
30
0
3
*Paper_Space
0
ENDBLK
5
1D
100
AcDbEntity
8
0
100
AcDbBlockEnd
0
BLOCK
5
24
100
AcDbEntity
8
0
100
AcDbBlockBegin
2
*Paper_Space0
70
0
10
0
20
0
30
0
3
*Paper_Space0
0
ENDBLK
5
25
100
AcDbEntity
8
0
100
AcDbBlockEnd
0
BLOCK
5
15F
100
AcDbEntity
8
0
100
AcDbBlockBegin
2
DimnDraft3D1
70
0
10
0
20
0
30
0
3
DimnDraft3D1
0
MTEXT
5
154
100
AcDbEntity
8
SK2
62
256
6
ByLayer
370
18
48
1
60
0
100
AcDbMText
10
-72.135287
20
-1.981907
30
0
210
0
220
0
230
1
1
\W0.6562;80
40
3.50012
41
0
44
1.084337
50
90
71
7
72
5
7
iso_b_vert
0
LINE
5
156
100
AcDbEntity
8
SK2
62
256
6
ByLayer
370
13
48
1
60
0
100
AcDbLine
10
-1.5875
20
40
30
0
11
-74.435257
21
40
31
0
39
0
210
0
220
0
230
1
0
LINE
5
157
100
AcDbEntity
8
SK2
62
256
6
ByLayer
370
13
48
1
60
0
100
AcDbLine
10
-1.5875
20
-40
30
0
11
-74.435257
21
-40
31
0
39
0
210
0
220
0
230
1
0
LINE
5
158
100
AcDbEntity
8
SK2
62
256
6
ByLayer
370
13
48
1
60
0
100
AcDbLine
10
-71.260257
20
40
30
0
11
-71.260257
21
-40
31
0
39
0
210
0
220
0
230
1
0
LINE
5
159
100
AcDbEntity
8
SK2
62
256
6
ByLayer
370
13
48
1
60
0
100
AcDbLine
10
-71.260257
20
40
30
0
11
-70.842261
21
36.825002
31
0
39
0
210
0
220
0
230
1
0
LINE
5
15A
100
AcDbEntity
8
SK2
62
256
6
ByLayer
370
13
48
1
60
0
100
AcDbLine
10
-71.260257
20
40
30
0
11
-71.678254
21
36.824998
31
0
39
0
210
0
220
0
230
1
0
LINE
5
15B
100
AcDbEntity
8
SK2
62
256
6
ByLayer
370
13
48
1
60
0
100
AcDbLine
10
-70.842261
20
36.825002
30
0
11
-71.678254
21
36.824998
31
0
39
0
210
0
220
0
230
1
0
LINE
5
15C
100
AcDbEntity
8
SK2
62
256
6
ByLayer
370
13
48
1
60
0
100
AcDbLine
10
-71.260257
20
-40
30
0
11
-71.678254
21
-36.825002
31
0
39
0
210
0
220
0
230
1
0
LINE
5
15D
100
AcDbEntity
8
SK2
62
256
6
ByLayer
370
13
48
1
60
0
100
AcDbLine
10
-71.260257
20
-40
30
0
11
-70.842261
21
-36.824998
31
0
39
0
210
0
220
0
230
1
0
LINE
5
15E
100
AcDbEntity
8
SK2
62
256
6
ByLayer
370
13
48
1
60
0
100
AcDbLine
10
-71.678254
20
-36.825002
30
0
11
-70.842261
21
-36.824998
31
0
39
0
210
0
220
0
230
1
0
ENDBLK
5
160
100
AcDbEntity
8
0
100
AcDbBlockEnd
0
BLOCK
5
163
100
AcDbEntity
8
0
100
AcDbBlockBegin
2
DimnDraft3D22
70
0
10
0
20
0
30
0
3
DimnDraft3D22
0
LINE
5
165
100
AcDbEntity
8
2
62
256
6
ByLayer
370
25
48
1
60
0
100
AcDbLine
10
79.699654
20
55.813534
30
0
11
79.699654
21
86.33769
31
0
39
0
210
0
220
0
230
1
0
LINE
5
167
100
AcDbEntity
8
2
62
256
6
ByLayer
370
25
48
1
60
0
100
AcDbLine
10
-0.3
20
41.2875
30
0
11
-0.3
21
86.33769
31
0
39
0
210
0
220
0
230
1
0
LINE
5
168
100
AcDbEntity
8
2
62
256
6
ByLayer
370
25
48
1
60
0
100
AcDbLine
10
79.699654
20
83.16269
30
0
11
-0.3
21
83.16269
31
0
39
0
210
0
220
0
230
1
0
LINE
5
169
100
AcDbEntity
8
2
62
256
6
ByLayer
370
25
48
1
60
0
100
AcDbLine
10
79.699654
20
83.16269
30
0
11
76.524656
21
82.744694
31
0
39
0
210
0
220
0
230
1
0
LINE
5
16A
100
AcDbEntity
8
2
62
256
6
ByLayer
370
25
48
1
60
0
100
AcDbLine
10
79.699654
20
83.16269
30
0
11
76.524653
21
83.580687
31
0
39
0
210
0
220
0
230
1
0
LINE
5
16B
100
AcDbEntity
8
2
62
256
6
ByLayer
370
25
48
1
60
0
100
AcDbLine
10
76.524656
20
82.744694
30
0
11
76.524653
21
83.580687
31
0
39
0
210
0
220
0
230
1
0
LINE
5
16C
100
AcDbEntity
8
2
62
256
6
ByLayer
370
25
48
1
60
0
100
AcDbLine
10
-0.3
20
83.16269
30
0
11
2.874998
21
83.580687
31
0
39
0
210
0
220
0
230
1
0
LINE
5
16D
100
AcDbEntity
8
2
62
256
6
ByLayer
370
25
48
1
60
0
100
AcDbLine
10
-0.3
20
83.16269
30
0
11
2.875002
21
82.744694
31
0
39
0
210
0
220
0
230
1
0
LINE
5
16E
100
AcDbEntity
8
2
62
256
6
ByLayer
370
25
48
1
60
0
100
AcDbLine
10
2.874998
20
83.580687
30
0
11
2.875002
21
82.744694
31
0
39
0
210
0
220
0
230
1
0
MTEXT
5
16F
100
AcDbEntity
8
2
62
256
6
ByLayer
370
18
48
1
60
0
100
AcDbMText
10
38.53005
20
84.03772
30
0
210
0
220
0
230
1
1
\W0.6562;80
40
3.50012
41
0
44
1.084337
50
0
71
7
72
5
7
iso_b_vert
0
ENDBLK
5
164
100
AcDbEntity
8
0
100
AcDbBlockEnd
0
BLOCK
5
17C
100
AcDbEntity
8
0
100
AcDbBlockBegin
2
DimnDraft3D3
70
0
10
0
20
0
30
0
3
DimnDraft3D3
0
MTEXT
5
172
100
AcDbEntity
8
SK2
62
256
6
ByLayer
370
18
48
1
60
0
100
AcDbMText
10
63.025204
20
66.886216
30
0
210
0
220
0
230
1
1
\W0.8159;93%%d0'
40
3.50012
41
0
44
1.084337
50
42.8765692066777
71
7
72
5
7
iso_b_vert
0
LINE
5
173
100
AcDbEntity
8
SK2
62
256
6
ByLayer
370
13
48
1
60
0
100
AcDbLine
10
79.699654
20
55.813534
30
0
11
79.699654
21
77.367573
31
0
39
0
210
0
220
0
230
1
0
LINE
5
174
100
AcDbEntity
8
SK2
62
256
6
ByLayer
370
13
48
1
60
0
100
AcDbLine
10
65.421634
20
54.294695
30
0
11
57.40565
21
53.874595
31
0
39
0
210
0
220
0
230
1
0
ARC
5
175
100
AcDbEntity
8
SK2
62
256
6
ByLayer
370
13
48
1
60
0
100
AcDbCircle
39
0
10
79.699654
20
55.042974
30
0
40
19.1495990476069
210
0
220
0
230
1
100
AcDbArc
50
90
51
183
0
LINE
5
176
100
AcDbEntity
8
SK2
62
256
6
ByLayer
370
13
48
1
60
0
100
AcDbLine
10
79.699654
20
74.192573
30
0
11
76.544652
21
73.643668
31
0
39
0
210
0
220
0
230
1
0
LINE
5
177
100
AcDbEntity
8
SK2
62
256
6
ByLayer
370
13
48
1
60
0
100
AcDbLine
10
79.699654
20
74.192573
30
0
11
76.510086
21
74.478946
31
0
39
0
210
0
220
0
230
1
0
LINE
5
178
100
AcDbEntity
8
SK2
62
256
6
ByLayer
370
13
48
1
60
0
100
AcDbLine
10
76.544652
20
73.643668
30
0
11
76.510086
21
74.478946
31
0
39
0
210
0
220
0
230
1
0
LINE
5
179
100
AcDbEntity
8
SK2
62
256
6
ByLayer
370
13
48
1
60
0
100
AcDbLine
10
60.576299
20
54.040761
30
0
11
60.123389
21
57.210968
31
0
39
0
210
0
220
0
230
1
0
LINE
5
17A
100
AcDbEntity
8
SK2
62
256
6
ByLayer
370
13
48
1
60
0
100
AcDbLine
10
60.576299
20
54.040761
30
0
11
60.959332
21
57.22017
31
0
39
0
210
0
220
0
230
1
0
LINE
5
17B
100
AcDbEntity
8
SK2
62
256
6
ByLayer
370
13
48
1
60
0
100
AcDbLine
10
60.123389
20
57.210968
30
0
11
60.959332
21
57.22017
31
0
39
0
210
0
220
0
230
1
0
ENDBLK
5
17D
100
AcDbEntity
8
0
100
AcDbBlockEnd
0
BLOCK
5
18A
100
AcDbEntity
8
0
100
AcDbBlockBegin
2
DimnDraft3D4
70
0
10
0
20
0
30
0
3
DimnDraft3D4
0
MTEXT
5
180
100
AcDbEntity
8
2
62
256
6
ByLayer
370
18
48
1
60
0
100
AcDbMText
10
98.894399
20
26.321705
30
0
210
0
220
0
230
1
1
\W0.6562;55
40
3.50012
41
0
44
1.084337
50
90
71
7
72
5
7
iso_b_vert
0
LINE
5
181
100
AcDbEntity
8
2
62
256
6
ByLayer
370
13
48
1
60
0
100
AcDbLine
10
81.482916
20
54.982963
30
0
11
102.944429
21
54.982963
31
0
39
0
210
0
220
0
230
1
0
LINE
5
182
100
AcDbEntity
8
2
62
256
6
ByLayer
370
13
48
1
60
0
100
AcDbLine
10
64.967123
20
0
30
0
11
102.944429
21
0
31
0
39
0
210
0
220
0
230
1
0
LINE
5
183
100
AcDbEntity
8
2
62
256
6
ByLayer
370
13
48
1
60
0
100
AcDbLine
10
99.769429
20
54.982963
30
0
11
99.769429
21
0
31
0
39
0
210
0
220
0
230
1
0
LINE
5
184
100
AcDbEntity
8
2
62
256
6
ByLayer
370
13
48
1
60
0
100
AcDbLine
10
99.769429
20
54.982963
30
0
11
100.187426
21
51.807965
31
0
39
0
210
0
220
0
230
1
0
LINE
5
185
100
AcDbEntity
8
2
62
256
6
ByLayer
370
13
48
1
60
0
100
AcDbLine
10
99.769429
20
54.982963
30
0
11
99.351432
21
51.807962
31
0
39
0
210
0
220
0
230
1
0
LINE
5
186
100
AcDbEntity
8
2
62
256
6
ByLayer
370
13
48
1
60
0
100
AcDbLine
10
100.187426
20
51.807965
30
0
11
99.351432
21
51.807962
31
0
39
0
210
0
220
0
230
1
0
LINE
5
187
100
AcDbEntity
8
2
62
256
6
ByLayer
370
13
48
1
60
0
100
AcDbLine
10
99.769429
20
0
30
0
11
99.351432
21
3.174998
31
0
39
0
210
0
220
0
230
1
0
LINE
5
188
100
AcDbEntity
8
2
62
256
6
ByLayer
370
13
48
1
60
0
100
AcDbLine
10
99.769429
20
0
30
0
11
100.187426
21
3.175002
31
0
39
0
210
0
220
0
230
1
0
LINE
5
189
100
AcDbEntity
8
2
62
256
6
ByLayer
370
13
48
1
60
0
100
AcDbLine
10
99.351432
20
3.174998
30
0
11
100.187426
21
3.175002
31
0
39
0
210
0
220
0
230
1
0
ENDBLK
5
18B
100
AcDbEntity
8
0
100
AcDbBlockEnd
0
BLOCK
5
18E
100
AcDbEntity
8
0
100
AcDbBlockBegin
2
_CLOSED
70
0
10
0
20
0
30
0
3
_CLOSED
0
LINE
5
190
100
AcDbEntity
8
0
62
256
6
ByLayer
370
-2
48
1
60
0
100
AcDbLine
10
-1
20
0.166667
30
0
11
0
21
0
31
0
39
0
210
0
220
0
230
1
0
LINE
5
191
100
AcDbEntity
8
0
62
256
6
ByLayer
370
-2
48
1
60
0
100
AcDbLine
10
0
20
0
30
0
11
-1
21
-0.166667
31
0
39
0
210
0
220
0
230
1
0
LINE
5
192
100
AcDbEntity
8
0
62
256
6
ByLayer
370
-2
48
1
60
0
100
AcDbLine
10
-1
20
0.166667
30
0
11
-1
21
-0.166667
31
0
39
0
210
0
220
0
230
1
0
LINE
5
193
100
AcDbEntity
8
0
62
256
6
ByLayer
370
-2
48
1
60
0
100
AcDbLine
10
0
20
0
30
0
11
-1
21
0
31
0
39
0
210
0
220
0
230
1
0
ENDBLK
5
18F
100
AcDbEntity
8
0
100
AcDbBlockEnd
0
ENDSEC
0
SECTION
2
ENTITIES
0
ARC
5
C7
100
AcDbEntity
8
1
62
256
6
ByLayer
370
18
48
1
60
0
100
AcDbCircle
39
0
10
-32.235898
20
46
30
0
40
6
210
0
220
0
230
-1
100
AcDbArc
50
210
51
270
0
ARC
5
C8
100
AcDbEntity
8
SK1
62
256
6
ByLayer
370
18
48
1
60
0
100
AcDbCircle
39
0
10
0.9
20
-29.6
30
0
40
1
210
0
220
0
230
-1
100
AcDbArc
50
113.578178
51
126.870857
0
ARC
5
C9
100
AcDbEntity
8
SK1
62
256
6
ByLayer
370
18
48
1
60
0
100
AcDbCircle
39
0
10
0.9
20
29.6
30
0
40
1
210
0
220
0
230
-1
100
AcDbArc
50
233.129143
51
246.421822
0
ELLIPSE
5
CA
100
AcDbEntity
8
1
62
256
6
ByLayer
370
18
48
1
60
0
100
AcDbEllipse
10
67.487727
20
46.655074
30
0
11
2.17914399868174
21
-1.71812584900215
31
0
210
0
220
0
230
1
40
0.987534
41
2.46190841672189
42
2.63295508102038
0
ELLIPSE
5
CB
100
AcDbEntity
8
1
62
256
6
ByLayer
370
18
48
1
60
0
100
AcDbEllipse
10
67.487727
20
46.655074
30
0
11
2.17914399868174
21
-1.71812584900215
31
0
210
0
220
0
230
1
40
0.987534
41
0.462377244039182
42
0.651303521159612
0
ELLIPSE
5
CC
100
AcDbEntity
8
1
62
256
6
ByLayer
370
18
48
1
60
0
100
AcDbEllipse
10
40.795272
20
29.221668
30
0
11
-1.32586957187382
21
0.982125184678167
31
0
210
0
220
0
230
1
40
0.542563
41
-1.55333896542423
42
-0.813395586257679
0
ELLIPSE
5
CD
100
AcDbEntity
8
1
62
256
6
ByLayer
370
18
48
1
60
0
100
AcDbEllipse
10
-7.063884
20
0
30
0
11
18.7348357595667
21
-39.4834983055036
31
0
210
0
220
0
230
-1
40
0.341999
41
-1.08794676716923
42
-0.161099005228937
0
ELLIPSE
5
CE
100
AcDbEntity
8
1
62
256
6
ByLayer
370
18
48
1
60
0
100
AcDbEllipse
10
30.463884
20
0
30
0
11
18.7348357595626
21
39.4834983054988
31
0
210
0
220
0
230
-1
40
0.341999
41
-2.98049364836085
42
-2.05364588642046
0
ELLIPSE
5
CF
100
AcDbEntity
8
1
62
256
6
ByLayer
370
18
48
1
60
0
100
AcDbEllipse
10
-7.063884
20
0
30
0
11
18.7348357595647
21
39.4834983055013
31
0
210
0
220
0
230
-1
40
0.341999
41
0.161099005228944
42
1.08794676716928
0
ELLIPSE
5
D0
100
AcDbEntity
8
1
62
256
6
ByLayer
370
18
48
1
60
0
100
AcDbEllipse
10
30.463884
20
0
30
0
11
18.7348357595636
21
-39.4834983054998
31
0
210
0
220
0
230
-1
40
0.341999
41
2.05364588642048
42
2.98049364836085
0
ELLIPSE
5
D1
100
AcDbEntity
8
1
62
256
6
ByLayer
370
18
48
1
60
0
100
AcDbEllipse
10
48.21921
20
0
30
0
11
16.0609836381483
21
39.9943662872806
31
0
210
0
220
0
230
-1
40
0.041798
41
3.10247095431883
42
3.12481089987212
0
ELLIPSE
5
D2
100
AcDbEntity
8
1
62
256
6
ByLayer
370
18
48
1
60
0
100
AcDbEllipse
10
40.795272
20
29.221668
30
0
11
-1.80800396164612
21
1.33926161547023
31
0
210
0
220
0
230
1
40
0.542563
41
-1.80525529841244
42
-0.680467074959642
0
ELLIPSE
5
D3
100
AcDbEntity
8
1
62
256
6
ByLayer
370
18
48
1
60
0
100
AcDbEllipse
10
61.061131
20
31.590106
30
0
11
-1.66485407146646
21
1.51352598944374
31
0
210
0
220
0
230
1
40
0.446757
41
-1.78408578151306
42
-0.386273186146307
0
ELLIPSE
5
D4
100
AcDbEntity
8
1
62
256
6
ByLayer
370
18
48
1
60
0
100
AcDbEllipse
10
61.061131
20
31.590106
30
0
11
-1.22089298574206
21
1.1099190589254
31
0
210
0
220
0
230
1
40
0.446757
41
-1.6422233592261
42
-0.238324500487961
0
ELLIPSE
5
D5
100
AcDbEntity
8
1
62
256
6
ByLayer
370
18
48
1
60
0
100
AcDbEllipse
10
64.733973
20
39.649934
30
0
11
0.785277116642069
21
-0.619144450090864
31
0
210
0
220
0
230
1
40
0.987534
41
3.14158380579834
42
-3.02622153779024
0
ELLIPSE
5
D6
100
AcDbEntity
8
1
62
256
6
ByLayer
370
18
48
1
60
0
100
AcDbEllipse
10
48.20755
20
51.669044
30
0
11
-0.386238489391625
21
0.104018408526932
31
0
210
0
220
0
230
1
40
0.144979
41
0.592285665414875
42
1.50879522630881
0
ELLIPSE
5
D7
100
AcDbEntity
8
1
62
256
6
ByLayer
370
18
48
1
60
0
100
AcDbEllipse
10
57.590334
20
48.99104
30
0
11
7.69571574309228
21
-6.06761561089046
31
0
210
0
220
0
230
1
40
0.987534
41
-2.7415294944718
42
-2.07779604499587
0
ELLIPSE
5
D8
100
AcDbEntity
8
1
62
256
6
ByLayer
370
18
48
1
60
0
100
AcDbEllipse
10
59.031982
20
40.314579
30
0
11
2.98405304323986
21
-2.35274891034528
31
0
210
0
220
0
230
1
40
0.987534
41
-0.0443815429596476
42
0.115371115799555
0
ELLIPSE
5
D9
100
AcDbEntity
8
1
62
256
6
ByLayer
370
18
48
1
60
0
100
AcDbEllipse
10
62.302642
20
38.366143
30
0
11
0.340834411258434
21
-0.209360703337844
31
0
210
0
220
0
230
1
40
0.156362
41
-1.58914309632196
42
-0.854623822411632
0
ELLIPSE
5
DA
100
AcDbEntity
8
1
62
256
6
ByLayer
370
18
48
1
60
0
100
AcDbEllipse
10
46.822599
20
51.995109
30
0
11
-1.0993879632989
21
0.866802230127207
31
0
210
0
220
0
230
1
40
0.987534
41
-2.74152949447177
42
-2.07924293591412
0
ELLIPSE
5
DB
100
AcDbEntity
8
1
62
256
6
ByLayer
370
18
48
1
60
0
100
AcDbEllipse
10
63.525888
20
47.246071
30
0
11
2.04172050326938
21
-1.60977557023625
31
0
210
0
220
0
230
1
40
0.987534
41
2.91562599718995
42
-3.02622153779027
0
ELLIPSE
5
DC
100
AcDbEntity
8
1
62
256
6
ByLayer
370
18
48
1
60
0
100
AcDbEllipse
10
61.901376
20
44.601403
30
0
11
2.04172050326938
21
-1.60977557023625
31
0
210
0
220
0
230
1
40
0.987534
41
-3.02622153779027
42
-2.68488376559085
0
ELLIPSE
5
DD
100
AcDbEntity
8
1
62
256
6
ByLayer
370
18
48
1
60
0
100
AcDbEllipse
10
59.189281
20
40.252926
30
0
11
-1.89648884802891
21
1.49526902036484
31
0
210
0
220
0
230
1
40
0.987534
41
0.115371115799523
42
1.5590485633276
0
ELLIPSE
5
DE
100
AcDbEntity
8
1
62
256
6
ByLayer
370
18
48
1
60
0
100
AcDbEllipse
10
59.777785
20
39.749759
30
0
11
-1.97501655969312
21
1.55718346537393
31
0
210
0
220
0
230
1
40
0.987534
41
1.24623142314557
42
1.53976694733054
0
ELLIPSE
5
DF
100
AcDbEntity
8
1
62
256
6
ByLayer
370
18
48
1
60
0
100
AcDbEllipse
10
59.777785
20
39.749759
30
0
11
-1.97501655969312
21
1.55718346537393
31
0
210
0
220
0
230
1
40
0.987534
41
2.75362091606054
42
-3.02622153779025
0
ELLIPSE
5
E0
100
AcDbEntity
8
1
62
256
6
ByLayer
370
18
48
1
60
0
100
AcDbEllipse
10
64.69499
20
39.600491
30
0
11
-1.0993879632989
21
0.866802230127207
31
0
210
0
220
0
230
1
40
0.987534
41
-0.775172394143522
42
0.115371115799571
0
ELLIPSE
5
E1
100
AcDbEntity
8
1
62
256
6
ByLayer
370
18
48
1
60
0
100
AcDbEllipse
10
59.066339
20
38.847413
30
0
11
-2.04172050326938
21
1.60977557023624
31
0
210
0
220
0
230
1
40
0.987534
41
0.115371115799539
42
0.164204808404664
0
ELLIPSE
5
E2
100
AcDbEntity
8
1
62
256
6
ByLayer
370
18
48
1
60
0
100
AcDbEllipse
10
63.543356
20
40.385995
30
0
11
0.340834411258434
21
-0.209360703337844
31
0
210
0
220
0
230
1
40
0.156362
41
-1.58914309632191
42
-0.0183467695268428
0
ELLIPSE
5
E3
100
AcDbEntity
8
1
62
256
6
ByLayer
370
18
48
1
60
0
100
AcDbEllipse
10
63.256114
20
40.69968
30
0
11
0.0957704702144544
21
0.155678104917302
31
0
210
0
220
0
230
-1
40
0.005467
41
3.00799006953407
42
-1.69276338261445
0
ELLIPSE
5
E4
100
AcDbEntity
8
1
62
256
6
ByLayer
370
18
48
1
60
0
100
AcDbEllipse
10
68.508603
20
47.949878
30
0
11
1.60981808911624
21
-1.26924612268627
31
0
210
0
220
0
230
1
40
0.987534
41
0.440489623714526
42
1.15160942444008
0
ELLIPSE
5
E5
100
AcDbEntity
8
1
62
256
6
ByLayer
370
18
48
1
60
0
100
AcDbEllipse
10
68.435209
20
48.491584
30
0
11
1.80613736827676
21
-1.42403223520899
31
0
210
0
220
0
230
1
40
0.987534
41
-1.76388862821778
42
0.214395022782637
0
ELLIPSE
5
E6
100
AcDbEntity
8
1
62
256
6
ByLayer
370
18
48
1
60
0
100
AcDbEllipse
10
68.508603
20
47.949878
30
0
11
1.60981808911624
21
-1.26924612268627
31
0
210
0
220
0
230
1
40
0.987534
41
-2.70110302987521
42
-1.98998322914971
0
ELLIPSE
5
E7
100
AcDbEntity
8
1
62
256
6
ByLayer
370
18
48
1
60
0
100
AcDbEllipse
10
68.581997
20
47.408172
30
0
11
1.80613736827676
21
-1.42403223520899
31
0
210
0
220
0
230
1
40
0.987534
41
1.37770402537202
42
-2.92719763080715
0
ELLIPSE
5
E8
100
AcDbEntity
8
1
62
256
6
ByLayer
370
18
48
1
60
0
100
AcDbEllipse
10
68.405972
20
48.454501
30
0
11
-2.04172050326938
21
1.60977557023624
31
0
210
0
220
0
230
1
40
0.987534
41
1.50722076776556
42
-2.91415342977664
0
ELLIPSE
5
E9
100
AcDbEntity
8
1
62
256
6
ByLayer
370
18
48
1
60
0
100
AcDbEllipse
10
68.479366
20
47.912795
30
0
11
-1.84540122410886
21
1.45498945771353
31
0
210
0
220
0
230
1
40
0.987534
41
0.425956533928936
42
0.794962412148856
0
ELLIPSE
5
EA
100
AcDbEntity
8
1
62
256
6
ByLayer
370
18
48
1
60
0
100
AcDbEllipse
10
68.55276
20
47.371089
30
0
11
-2.04172050326938
21
1.60977557023624
31
0
210
0
220
0
230
1
40
0.987534
41
-1.77693282924829
42
0.227439223813097
0
ELLIPSE
5
EB
100
AcDbEntity
8
1
62
256
6
ByLayer
370
18
48
1
60
0
100
AcDbEllipse
10
67.899189
20
47.811735
30
0
11
2.04172050326938
21
-1.60977557023625
31
0
210
0
220
0
230
1
40
0.987534
41
-0.29220066044019
42
-2.15474416630229E-05
0
ELLIPSE
5
EC
100
AcDbEntity
8
1
62
256
6
ByLayer
370
18
48
1
60
0
100
AcDbEllipse
10
68.479366
20
47.912795
30
0
11
-1.84540122410886
21
1.45498945771353
31
0
210
0
220
0
230
1
40
0.987534
41
-2.71563611966085
42
-1.97545013936411
0
ELLIPSE
5
ED
100
AcDbEntity
8
1
62
256
6
ByLayer
370
18
48
1
60
0
100
AcDbEllipse
10
67.309866
20
46.429488
30
0
11
-2.2380397824299
21
1.76456168275896
31
0
210
0
220
0
230
1
40
0.987534
41
-2.61089252219001
42
-2.48974193783916
0
ELLIPSE
5
EE
100
AcDbEntity
8
1
62
256
6
ByLayer
370
18
48
1
60
0
100
AcDbEllipse
10
58.423918
20
42.089147
30
0
11
0.623313711334643
21
-0.491445907259623
31
0
210
0
220
0
230
1
40
0.987534
41
-3.02622153779028
42
-0.844559972797303
0
ELLIPSE
5
EF
100
AcDbEntity
8
1
62
256
6
ByLayer
370
18
48
1
60
0
100
AcDbEllipse
10
57.805057
20
41.30423
30
0
11
-0.623313711334643
21
0.491445907259622
31
0
210
0
220
0
230
1
40
0.987534
41
0.677625788822451
42
2.29703268079245
0
ELLIPSE
5
F0
100
AcDbEntity
8
1
62
256
6
ByLayer
370
18
48
1
60
0
100
AcDbEllipse
10
68.666973
20
48.150742
30
0
11
2.02444440670325
21
-1.59615439233425
31
0
210
0
220
0
230
1
40
0.987534
41
0
42
6.28318530717959
0
ELLIPSE
5
F1
100
AcDbEntity
8
1
62
256
6
ByLayer
370
18
48
1
60
0
100
AcDbEllipse
10
67.084144
20
53.18862
30
0
11
0.942332539970483
21
-0.742973340109036
31
0
210
0
220
0
230
1
40
0.987534
41
2.29703268079246
42
2.7769982250909
0
ELLIPSE
5
F2
100
AcDbEntity
8
1
62
256
6
ByLayer
370
18
48
1
60
0
100
AcDbEllipse
10
78.910029
20
54.212337
30
0
11
0.623313711334643
21
-0.491445907259623
31
0
210
0
220
0
230
1
40
0.987534
41
0.11537111579959
42
2.29703268079234
0
ELLIPSE
5
F3
100
AcDbEntity
8
1
62
256
6
ByLayer
370
18
48
1
60
0
100
AcDbEllipse
10
72.395269
20
44.382501
30
0
11
0.942332539970483
21
-0.742973340109036
31
0
210
0
220
0
230
1
40
0.987534
41
-7.46801658401215E-07
42
0.115371115799517
0
ELLIPSE
5
F4
100
AcDbEntity
8
1
62
256
6
ByLayer
370
18
48
1
60
0
100
AcDbEllipse
10
70.249802
20
43.112865
30
0
11
0.942332539970483
21
-0.742973340109036
31
0
210
0
220
0
230
1
40
0.987534
41
-0.844559972797346
42
-0.364594428498888
0
ELLIPSE
5
F5
100
AcDbEntity
8
1
62
256
6
ByLayer
370
18
48
1
60
0
100
AcDbEllipse
10
64.938677
20
51.918984
30
0
11
0.942332539970483
21
-0.742973340109036
31
0
210
0
220
0
230
1
40
0.987534
41
2.77699822509088
42
3.1415919645727
0
ELLIPSE
5
F6
100
AcDbEntity
8
1
62
256
6
ByLayer
370
18
48
1
60
0
100
AcDbEllipse
10
68.048113
20
47.365825
30
0
11
2.02444440670325
21
-1.59615439233425
31
0
210
0
220
0
230
1
40
0.987534
41
2.20022142441258
42
2.94409164563849
0
ELLIPSE
5
F7
100
AcDbEntity
8
1
62
256
6
ByLayer
370
18
48
1
60
0
100
AcDbEllipse
10
68.048113
20
47.365825
30
0
11
2.02444440670325
21
-1.59615439233425
31
0
210
0
220
0
230
1
40
0.987534
41
0.197554420237515
42
0.55314334275132
0
ELLIPSE
5
F8
100
AcDbEntity
8
1
62
256
6
ByLayer
370
18
48
1
60
0
100
AcDbEllipse
10
40.795272
20
29.221668
30
0
11
1.20533597443075
21
-0.892841076980154
31
0
210
0
220
0
230
1
40
0.542563
41
1.80165063348339
42
2.14693144391543
0
ELLIPSE
5
F9
100
AcDbEntity
8
1
62
256
6
ByLayer
370
18
48
1
60
0
100
AcDbEllipse
10
61.061131
20
31.590106
30
0
11
1.10990271431096
21
-1.00901732629581
31
0
210
0
220
0
230
1
40
0.446757
41
1.55122867469986
42
2.89887335443039
0
ELLIPSE
5
FA
100
AcDbEntity
8
1
62
256
6
ByLayer
370
18
48
1
60
0
100
AcDbEllipse
10
53.453774
20
46.367988
30
0
11
-2.5403714723371
21
2.00293229604394
31
0
210
0
220
0
230
1
40
0.987534
41
0
42
6.28318530717959
0
ELLIPSE
5
FB
100
AcDbEntity
8
1
62
256
6
ByLayer
370
18
48
1
60
0
100
AcDbEllipse
10
53.453774
20
46.367988
30
0
11
-1.51353598714815
21
1.19333339351935
31
0
210
0
220
0
230
1
40
0.987534
41
0
42
6.28318530717959
0
ELLIPSE
5
FC
100
AcDbEntity
8
1
62
256
6
ByLayer
370
18
48
1
60
0
100
AcDbEllipse
10
53.379218
20
46.273427
30
0
11
-3.14110846656828
21
2.47657780036345
31
0
210
0
220
0
230
1
40
0.987534
41
0
42
6.28318530717959
0
ELLIPSE
5
FD
100
AcDbEntity
8
1
62
256
6
ByLayer
370
18
48
1
60
0
100
AcDbEllipse
10
53.43282
20
46.341412
30
0
11
1.22110591637842
21
-0.962769619891293
31
0
210
0
220
0
230
1
40
0.987534
41
-2.04347305651932
42
-1.6004156513091
0
ELLIPSE
5
FE
100
AcDbEntity
8
1
62
256
6
ByLayer
370
18
48
1
60
0
100
AcDbEllipse
10
53.43282
20
46.341412
30
0
11
1.22110591637842
21
-0.962769619891293
31
0
210
0
220
0
230
1
40
0.987534
41
-0.996275505322697
42
-0.553218100112432
0
ELLIPSE
5
FF
100
AcDbEntity
8
1
62
256
6
ByLayer
370
18
48
1
60
0
100
AcDbEllipse
10
53.43282
20
46.341412
30
0
11
1.22110591637842
21
-0.962769619891293
31
0
210
0
220
0
230
1
40
0.987534
41
0.0509220458739383
42
0.493979451084159
0
ELLIPSE
5
100
100
AcDbEntity
8
1
62
256
6
ByLayer
370
18
48
1
60
0
100
AcDbEllipse
10
53.43282
20
46.341412
30
0
11
1.22110591637842
21
-0.962769619891293
31
0
210
0
220
0
230
1
40
0.987534
41
1.09811959707054
42
1.54117700228075
0
ELLIPSE
5
101
100
AcDbEntity
8
1
62
256
6
ByLayer
370
18
48
1
60
0
100
AcDbEllipse
10
53.43282
20
46.341412
30
0
11
1.22110591637842
21
-0.962769619891293
31
0
210
0
220
0
230
1
40
0.987534
41
2.14531714826717
42
2.58837455347729
0
ELLIPSE
5
102
100
AcDbEntity
8
1
62
256
6
ByLayer
370
18
48
1
60
0
100
AcDbEllipse
10
53.43282
20
46.341412
30
0
11
1.22110591637842
21
-0.962769619891293
31
0
210
0
220
0
230
1
40
0.987534
41
-3.09067060771591
42
-2.6476132025057
0
ELLIPSE
5
103
100
AcDbEntity
8
1
62
256
6
ByLayer
370
18
48
1
60
0
100
AcDbEllipse
10
52.966482
20
45.749943
30
0
11
-1.22110591637842
21
0.962769619891291
31
0
210
0
220
0
230
1
40
0.987534
41
-3.03502472103475
42
-0.247842905219175
0
ELLIPSE
5
104
100
AcDbEntity
8
1
62
256
6
ByLayer
370
18
48
1
60
0
100
AcDbEllipse
10
53.06394
20
45.873552
30
0
11
1.22110591637842
21
-0.962769619891293
31
0
210
0
220
0
230
1
40
0.987534
41
2.58837455347735
42
2.94635600775339
0
ELLIPSE
5
105
100
AcDbEntity
8
1
62
256
6
ByLayer
370
18
48
1
60
0
100
AcDbEllipse
10
53.06394
20
45.873552
30
0
11
1.22110591637842
21
-0.962769619891293
31
0
210
0
220
0
230
1
40
0.987534
41
1.54117700228075
42
2.14531714826716
0
ELLIPSE
5
106
100
AcDbEntity
8
1
62
256
6
ByLayer
370
18
48
1
60
0
100
AcDbEllipse
10
53.06394
20
45.873552
30
0
11
1.22110591637842
21
-0.962769619891293
31
0
210
0
220
0
230
1
40
0.987534
41
0.493979451084091
42
1.09811959707056
0
POINT
5
6C
100
AcDbEntity
8
80
62
256
6
ByLayer
370
18
48
1
60
0
100
AcDbPoint
10
0
20
0
30
0
39
0
210
0
220
0
230
1
50
360
0
POINT
5
6E
100
AcDbEntity
8
81
62
256
6
ByLayer
370
18
48
1
60
0
100
AcDbPoint
10
79.895416
20
54.982963
30
0
39
0
210
0
220
0
230
1
50
360
0
SPLINE
5
107
100
AcDbEntity
8
1
62
256
6
ByLayer
370
18
48
1
60
0
100
AcDbSpline
70
4
71
3
72
58
73
54
40
0
40
0
40
0
40
0
40
0.0312500000000005
40
0.0312500000000005
40
0.0468750000000007
40
0.0468750000000007
40
0.0625000000000009
40
0.0625000000000009
40
0.125000000000001
40
0.125000000000001
40
0.187500000000001
40
0.187500000000001
40
0.218750000000001
40
0.218750000000001
40
0.234375000000001
40
0.234375000000001
40
0.250000000000001
40
0.250000000000001
40
0.312500000000001
40
0.312500000000001
40
0.375000000000001
40
0.375000000000001
40
0.406250000000001
40
0.406250000000001
40
0.421875000000001
40
0.421875000000001
40
0.437500000000001
40
0.437500000000001
40
0.500000000000001
40
0.500000000000001
40
0.562500000000001
40
0.562500000000001
40
0.625000000000001
40
0.625000000000001
40
0.640625000000001
40
0.640625000000001
40
0.656250000000001
40
0.656250000000001
40
0.687500000000001
40
0.687500000000001
40
0.750000000000001
40
0.750000000000001
40
0.812500000000001
40
0.812500000000001
40
0.843750000000001
40
0.843750000000001
40
0.859375000000001
40
0.859375000000001
40
0.875000000000001
40
0.875000000000001
40
0.937500000000001
40
0.937500000000001
40
1
40
1
40
1
40
1
41
1
10
33.565974342084
20
-38.0972641062669
30
3E-16
41
1
10
33.6923857900444
20
-37.8660205829486
30
3E-16
41
1
10
33.8261744802046
20
-37.6156451274424
30
3E-16
41
1
10
34.0380066382924
20
-37.2111681229345
30
3E-16
41
1
10
34.1104765909691
20
-37.0715207714419
30
3E-16
41
1
10
34.2591616945933
20
-36.7825133767207
30
-1.4E-15
41
1
10
34.335369727751
20
-36.6331621772304
30
-1.4E-15
41
1
10
34.7233085182281
20
-35.866988734308
30
-1.4E-15
41
1
10
35.0575327309241
20
-35.188497902766
30
-1.4E-15
41
1
10
35.7712673931161
20
-33.7071672065047
30
-1.3E-15
41
1
10
36.1507873901443
20
-32.9043011257318
30
-1.3E-15
41
1
10
36.7534721229609
20
-31.6082777396048
30
-1.3E-15
41
1
10
36.9599467584254
20
-31.1609488798357
30
-1.3E-15
41
1
10
37.2780655801091
20
-30.4668716237878
30
-1.3E-15
41
1
10
37.3855070840488
20
-30.2316631459287
30
-1.2E-15
41
1
10
37.6032092729113
20
-29.7535051533224
30
-1.2E-15
41
1
10
37.7131860894806
20
-29.5111779258599
30
-1.2E-15
41
1
10
38.267323961687
20
-28.2863875220791
30
-1.2E-15
41
1
10
38.7255005735089
20
-27.2617434044783
30
-1.2E-15
41
1
10
39.6701809353416
20
-25.1270681733733
30
-1.1E-15
41
1
10
40.156689775407
20
-24.0170217168274
30
2.5E-15
41
1
10
40.9074031756609
20
-22.2888016523366
30
2.5E-15
41
1
10
41.1611399708859
20
-21.7021812142914
30
2.5E-15
41
1
10
41.5470210559565
20
-20.8063473415339
30
2.6E-15
41
1
10
41.6765278512512
20
-20.5050841535042
30
2.6E-15
41
1
10
41.9373110592351
20
-19.8972235882934
30
2.6E-15
41
1
10
42.068683966232
20
-19.5903989266251
30
2.6E-15
41
1
10
42.7265931255153
20
-18.0508397016421
30
2.6E-15
41
1
10
43.2587126351643
20
-16.796129522135
30
2.7E-15
41
1
10
44.3340533785506
20
-14.2425052988158
30
2.7E-15
41
1
10
44.8772762100225
20
-12.9435848932855
30
2.8E-15
41
1
10
45.9747182667045
20
-10.3019596130044
30
2.8E-15
41
1
10
46.5289371252315
20
-8.95925619827966
30
2.9E-15
41
1
10
47.2287377106583
20
-7.25289739315565
30
2.9E-15
41
1
10
47.3692360869721
20
-6.90976762627801
30
2.9E-15
41
1
10
47.6498554658177
20
-6.22333951683535
30
2.9E-15
41
1
10
47.7899623285091
20
-5.88007765208826
30
2.9E-15
41
1
10
48.2096811138468
20
-4.85015020177045
30
3E-15
41
1
10
48.4886916481218
20
-4.16334285779672
30
3E-15
41
1
10
49.3233551590374
20
-2.10236262265249
30
3E-15
41
1
10
49.8766461964463
20
-0.727632978559143
30
3.1E-15
41
1
10
50.9769737307368
20
2.02330062093583
30
3.1E-15
41
1
10
51.5240105051395
20
3.39950451092065
30
3.2E-15
41
1
10
52.3397600170984
20
5.46494312672888
30
3.2E-15
41
1
10
52.6108739920099
20
6.15361183633229
30
3.2E-15
41
1
10
53.0163112966785
20
7.186905696758
30
3.3E-15
41
1
10
53.151404759302
20
7.53177841329259
30
3.3E-15
41
1
10
53.4201282758942
20
8.21894626286027
30
3.3E-15
41
1
10
53.5538082142225
20
8.56136702101398
30
3.3E-15
41
1
10
54.2188109517622
20
10.267675698934
30
3.3E-15
41
1
10
54.7399707876834
20
11.6142258751293
30
3.4E-15
41
1
10
55.7604693909877
20
14.2701000681853
30
3.4E-15
41
1
10
56.2598109804054
20
15.5794288993617
30
3.5E-15
41
1
10
56.7478023133952
20
16.8693944966276
30
3.5E-15
0
SPLINE
5
108
100
AcDbEntity
8
1
62
256
6
ByLayer
370
18
48
1
60
0
100
AcDbSpline
70
4
71
3
72
68
73
64
40
0
40
0
40
0
40
0
40
0.0156249999999999
40
0.0156249999999999
40
0.0234374999999999
40
0.0234374999999999
40
0.0312499999999998
40
0.0312499999999998
40
0.0624999999999999
40
0.0624999999999999
40
0.125
40
0.125
40
0.140625
40
0.140625
40
0.15625
40
0.15625
40
0.1875
40
0.1875
40
0.25
40
0.25
40
0.28125
40
0.28125
40
0.296875
40
0.296875
40
0.312499999999999
40
0.312499999999999
40
0.375
40
0.375
40
0.40625
40
0.40625
40
0.421875
40
0.421875
40
0.4375
40
0.4375
40
0.5
40
0.5
40
0.5625
40
0.5625
40
0.578125
40
0.578125
40
0.59375
40
0.59375
40
0.625
40
0.625
40
0.687500000000001
40
0.687500000000001
40
0.703125000000001
40
0.703125000000001
40
0.718750000000001
40
0.718750000000001
40
0.75
40
0.75
40
0.8125
40
0.8125
40
0.84375
40
0.84375
40
0.859375
40
0.859375
40
0.875
40
0.875
40
0.9375
40
0.9375
40
1
40
1
40
1
40
1
41
1
10
33.5659743420796
20
-38.0972641062668
30
3E-16
41
1
10
33.5659798935507
20
-37.9386257634064
30
3E-16
41
1
10
33.5659855355385
20
-37.7707864474319
30
3E-16
41
1
10
33.5659940110529
20
-37.505066094352
30
3E-16
41
1
10
33.5659968384442
20
-37.4141651053414
30
3E-16
41
1
10
33.5660024785788
20
-37.227673477148
30
3E-16
41
1
10
33.5660052940037
20
-37.1319869766206
30
3E-16
41
1
10
33.5660192477444
20
-36.6431937993515
30
-1.5E-15
41
1
10
33.5660300075993
20
-36.219042910022
30
-1.5E-15
41
1
10
33.5660596799985
20
-34.849637080075
30
-1.5E-15
41
1
10
33.5660758993846
20
-33.8079603242657
30
-1.5E-15
41
1
10
33.5660887984553
20
-32.3445762755118
30
-1.5E-15
41
1
10
33.5660910166994
20
-32.0437926172583
30
-1.5E-15
41
1
10
33.5660946837541
20
-31.4258293012258
30
-1.5E-15
41
1
10
33.566096133563
20
-31.1083267150252
30
-1.5E-15
41
1
10
33.5660992672049
20
-30.132937442659
30
-1.5E-15
41
1
10
33.5660997169068
20
-29.4574285055917
30
-1.5E-15
41
1
10
33.5660962427094
20
-27.3573158519062
30
-1.5E-15
41
1
10
33.5660874147775
20
-25.8595240144719
30
-1.5E-15
41
1
10
33.5660662027233
20
-23.4672523090441
30
2.1E-15
41
1
10
33.5660578227558
20
-22.6454642000418
30
2.1E-15
41
1
10
33.566043722692
20
-21.3754248674924
30
2.1E-15
41
1
10
33.5660387636801
20
-20.9453710761321
30
2.1E-15
41
1
10
33.5660284588653
20
-20.07464034837
30
2.1E-15
41
1
10
33.5660231348139
20
-19.6357525840424
30
2.1E-15
41
1
10
33.5659959669201
20
-17.4239926852916
30
2.1E-15
41
1
10
33.5659723107037
20
-15.5994495482127
30
2.1E-15
41
1
10
33.5659416804461
20
-12.7818600449716
30
2.1E-15
41
1
10
33.5659323103794
20
-11.829143640706
30
2.1E-15
41
1
10
33.5659209061897
20
-10.3795145801753
30
2.1E-15
41
1
10
33.5659175503382
20
-9.89287556211531
30
2.1E-15
41
1
10
33.5659120167069
20
-8.91264813473447
30
2.1E-15
41
1
10
33.5659098370623
20
-8.41849784573503
30
2.1E-15
41
1
10
33.565902737752
20
-5.93620333762647
30
2.1E-15
41
1
10
33.5659118615526
20
-3.94513677613668
30
2.1E-15
41
1
10
33.5659440502828
20
0.0470423100096014
30
2.1E-15
41
1
10
33.5659665129365
20
2.04815560923424
30
2.1E-15
41
1
10
33.5659947385876
20
4.55599953486396
30
2.1E-15
41
1
10
33.5660004105085
20
5.05848055993835
30
2.1E-15
41
1
10
33.5660116150395
20
6.06152245716817
30
2.1E-15
41
1
10
33.5660171257676
20
6.56014193210882
30
2.1E-15
41
1
10
33.5660331920079
20
8.04743933736134
30
2.1E-15
41
1
10
33.5660432739246
20
9.02756842369323
30
2.1E-15
41
1
10
33.5660704280143
20
11.9344308697261
30
2.1E-15
41
1
10
33.5660843285351
20
13.8278242793311
30
2.1E-15
41
1
10
33.5660939904242
20
16.1383475203591
30
2.1E-15
41
1
10
33.5660955437566
20
16.59762650571
30
2.1E-15
41
1
10
33.5660978560025
20
17.5104581357676
30
2.1E-15
41
1
10
33.566098615268
20
17.9645557456736
30
2.1E-15
41
1
10
33.5660996586528
20
19.314502701669
30
2.1E-15
41
1
10
33.5660987024766
20
20.1912774343317
30
2.1E-15
41
1
10
33.5660911114206
20
22.7540067666291
30
2.1E-15
41
1
10
33.5660796698546
20
24.3727319222365
30
-1.5E-15
41
1
10
33.566055291438
20
26.6670461160081
30
-1.5E-15
41
1
10
33.5660459821469
20
27.4094298808788
30
-1.5E-15
41
1
10
33.5660307594155
20
28.4886734319409
30
-1.5E-15
41
1
10
33.5660254702944
20
28.8431303797617
30
-1.5E-15
41
1
10
33.5660146176662
20
29.5384466797791
30
-1.5E-15
41
1
10
33.5660090749183
20
29.8780380313457
30
-1.5E-15
41
1
10
33.5659811216011
20
31.5363340495445
30
-1.5E-15
41
1
10
33.5659578056282
20
32.7367256833157
30
-1.5E-15
41
1
10
33.5659206256025
20
34.8910779646997
30
-1.5E-15
41
1
10
33.5659065522887
20
35.8450653674952
30
-1.5E-15
41
1
10
33.5659065522888
20
36.6704019054826
30
-1.5E-15
0
SPLINE
5
109
100
AcDbEntity
8
1
62
256
6
ByLayer
370
18
48
1
60
0
100
AcDbSpline
70
4
71
3
72
23
73
19
40
0
40
0
40
0
40
0
40
0.250000000000002
40
0.250000000000002
40
0.375000000000002
40
0.375000000000002
40
0.500000000000003
40
0.500000000000003
40
0.531250000000003
40
0.531250000000003
40
0.562500000000003
40
0.625000000000003
40
0.625000000000003
40
0.750000000000002
40
0.750000000000002
40
0.875000000000001
40
0.875000000000001
40
1
40
1
40
1
40
1
41
1
10
57.4857019582043
20
18.3832255219069
30
3.5E-15
41
1
10
58.6563712417168
20
20.3110661588376
30
-3.5E-15
41
1
10
59.7724410218534
20
22.1558808362281
30
-3.4E-15
41
1
10
61.3621597569258
20
24.7947825782657
30
2E-16
41
1
10
61.8779349174075
20
25.6529282592186
30
3E-16
41
1
10
62.8798944685116
20
27.3242228371028
30
3E-16
41
1
10
63.366085494336
20
28.1373818237597
30
3E-16
41
1
10
63.9540190399347
20
29.1237140051388
30
4E-16
41
1
10
64.0707514449748
20
29.3197036017406
30
4E-16
41
1
10
64.3012557252013
20
29.7070311673537
30
4E-16
41
1
10
64.6427031676514
20
30.281265008157
30
4E-16
41
1
10
64.9712262390398
20
30.8352303448935
30
4E-16
41
1
10
65.6109578577223
20
31.9160077046496
30
5E-16
41
1
10
66.0143937106804
20
32.6003750647762
30
5E-16
41
1
10
66.7739341534047
20
33.8948830473468
30
6E-16
41
1
10
67.1300458123534
20
34.5050347559588
30
6E-16
41
1
10
67.7925431079604
20
35.6473558806423
30
6E-16
41
1
10
68.0989423799167
20
36.1795466801211
30
6E-16
41
1
10
68.3785447763509
20
36.6697135715956
30
7E-16
0
SPLINE
5
10A
100
AcDbEntity
8
1
62
256
6
ByLayer
370
18
48
1
60
0
100
AcDbSpline
70
4
71
3
72
8
73
4
40
0
40
0
40
0
40
0
40
1
40
1
40
1
40
1
41
1
10
56.7478023133951
20
16.8693944966275
30
3.5E-15
41
1
10
56.9475966576024
20
17.3975346768568
30
3.5E-15
41
1
10
57.1933846796312
20
17.9018418070977
30
3.5E-15
41
1
10
57.4857019582043
20
18.3832255219069
30
3.5E-15
0
SPLINE
5
10B
100
AcDbEntity
8
1
62
256
6
ByLayer
370
18
48
1
60
0
100
AcDbSpline
70
2053
71
3
72
101
73
97
40
0
40
0
40
0
40
0
40
0.0312500000000029
40
0.0312500000000029
40
0.0468750000000044
40
0.0468750000000044
40
0.0625000000000059
40
0.0625000000000059
40
0.0937500000000094
40
0.0937500000000094
40
0.109375000000011
40
0.109375000000011
40
0.125000000000013
40
0.140625000000015
40
0.140625000000015
40
0.156250000000017
40
0.156250000000017
40
0.18750000000002
40
0.18750000000002
40
0.203125000000022
40
0.203125000000022
40
0.218750000000024
40
0.218750000000024
40
0.234375000000026
40
0.234375000000026
40
0.250000000000028
40
0.250000000000028
40
0.26562500000003
40
0.26562500000003
40
0.281250000000031
40
0.281250000000031
40
0.312500000000036
40
0.312500000000036
40
0.343750000000041
40
0.343750000000041
40
0.375000000000046
40
0.375000000000046
40
0.390625000000047
40
0.390625000000047
40
0.406250000000048
40
0.406250000000048
40
0.437500000000048
40
0.437500000000048
40
0.453125000000047
40
0.453125000000047
40
0.468750000000047
40
0.468750000000047
40
0.500000000000047
40
0.500000000000047
40
0.531250000000047
40
0.531250000000047
40
0.562500000000047
40
0.562500000000047
40
0.578125000000046
40
0.578125000000046
40
0.593750000000045
40
0.593750000000045
40
0.609375000000044
40
0.609375000000044
40
0.625000000000043
40
0.625000000000043
40
0.656250000000041
40
0.656250000000041
40
0.671875000000041
40
0.671875000000041
40
0.68750000000004
40
0.68750000000004
40
0.703125000000039
40
0.703125000000039
40
0.718750000000038
40
0.718750000000038
40
0.734375000000038
40
0.734375000000038
40
0.750000000000037
40
0.750000000000037
40
0.781250000000036
40
0.781250000000036
40
0.796875000000034
40
0.796875000000034
40
0.812500000000032
40
0.812500000000032
40
0.843750000000027
40
0.843750000000027
40
0.875000000000023
40
0.875000000000023
40
0.906250000000019
40
0.906250000000019
40
0.921875000000017
40
0.921875000000017
40
0.937500000000015
40
0.937500000000015
40
0.968750000000008
40
0.968750000000008
40
0.984375000000004
40
0.984375000000004
40
1
40
1
40
1
40
1
41
1
10
61.0434965083935
20
32.1821561908002
30
2E-16
41
1
10
60.8950455672227
20
32.2284514383418
30
2E-16
41
1
10
60.7553286011621
20
32.2816211270866
30
2E-16
41
1
10
60.5598883001582
20
32.3722211518448
30
2E-16
41
1
10
60.4971122815384
20
32.4042397003994
30
2E-16
41
1
10
60.3767093585983
20
32.4721735949274
30
2E-16
41
1
10
60.3189995147359
20
32.5082007714174
30
2E-16
41
1
10
60.1585374620539
20
32.6196517106515
30
1E-16
41
1
10
60.0667354007014
20
32.6991975925928
30
1E-16
41
1
10
59.9541562708965
20
32.8268849398711
30
1E-16
41
1
10
59.9206695850452
20
32.8711522030424
30
1E-16
41
1
10
59.8639250799699
20
32.9613650341724
30
1E-16
41
1
10
59.8178659441024
20
33.0522940893456
30
1E-16
41
1
10
59.7929853263636
20
33.1445799938211
30
1E-16
41
1
10
59.7789973942014
20
33.2375460329816
30
1E-16
41
1
10
59.7774977315989
20
33.2847364614298
30
1E-16
41
1
10
59.7901044150656
20
33.424517879552
30
1E-16
41
1
10
59.8206102079724
20
33.5145141170923
30
1E-16
41
1
10
59.898052947578
20
33.6450604022029
30
1E-16
41
1
10
59.929253010569
20
33.6877528680489
30
1E-16
41
1
10
60.0002874630521
20
33.7694447233139
30
1E-16
41
1
10
60.040287905835
20
33.8087540470239
30
1E-16
41
1
10
60.1287928592185
20
33.8845060864973
30
1E-16
41
1
10
60.177506612032
20
33.9210829802992
30
2E-16
41
1
10
60.2823389711048
20
33.9908586467825
30
2E-16
41
1
10
60.3380086648493
20
34.0237973708588
30
2E-16
41
1
10
60.4553267558052
20
34.0861471772955
30
2E-16
41
1
10
60.5169775365712
20
34.1155567349331
30
2E-16
41
1
10
60.6459612788359
20
34.1710760556042
30
2E-16
41
1
10
60.713617261415
20
34.1972889628933
30
2E-16
41
1
10
60.9219157394329
20
34.2701624574111
30
2E-16
41
1
10
61.0679124044319
20
34.3112766922721
30
2E-16
41
1
10
61.372570600863
20
34.3805704270013
30
2E-16
41
1
10
61.5319866188983
20
34.4087329843603
30
2E-16
41
1
10
61.853544831727
20
34.4516153086868
30
3E-16
41
1
10
62.0167457915973
20
34.466625987764
30
3E-16
41
1
10
62.2649991998549
20
34.4800746039973
30
3E-16
41
1
10
62.3486107020015
20
34.483038714408
30
3E-16
41
1
10
62.5155550717933
20
34.4858837030884
30
3E-16
41
1
10
62.5987019243489
20
34.485773851562
30
3E-16
41
1
10
62.8471966229138
20
34.4809889094668
30
3E-16
41
1
10
63.0116059106473
20
34.4718960460285
30
3E-16
41
1
10
63.256322925645
20
34.4492668055047
30
3E-16
41
1
10
63.3375773177856
20
34.440216175319
30
3E-16
41
1
10
63.4994235696953
20
34.4189536338561
30
4E-16
41
1
10
63.5798203800131
20
34.4067513599691
30
4E-16
41
1
10
63.8159542347281
20
34.3658717360171
30
4E-16
41
1
10
63.9679740162029
20
34.332805709139
30
4E-16
41
1
10
64.2605467338722
20
34.2540627099602
30
4E-16
41
1
10
64.4011269864439
20
34.2084190015245
30
4E-16
41
1
10
64.6686563212751
20
34.1017681731987
30
4E-16
41
1
10
64.7915003575336
20
34.0423561182758
30
4E-16
41
1
10
64.9567056001458
20
33.9429856085043
30
4E-16
41
1
10
65.0086105322583
20
33.9081258554429
30
4E-16
41
1
10
65.1053601244798
20
33.8344785455742
30
5E-16
41
1
10
65.1497379201685
20
33.7959926468379
30
5E-16
41
1
10
65.2287171907343
20
33.7166732242545
30
5E-16
41
1
10
65.2635471927015
20
33.6756728313185
30
5E-16
41
1
10
65.3232386379018
20
33.5907628750988
30
5E-16
41
1
10
65.3482391053984
20
33.5464958975489
30
5E-16
41
1
10
65.4055463492274
20
33.4115813797033
30
5E-16
41
1
10
65.4203925240863
20
33.3197829344951
30
5E-16
41
1
10
65.4067494183526
20
33.1791760404768
30
5E-16
41
1
10
65.3960148305364
20
33.1317450743631
30
5E-16
41
1
10
65.3632664414495
20
33.0390637922313
30
5E-16
41
1
10
65.3412512256096
20
32.9934093871809
30
5E-16
41
1
10
65.2864655255727
20
32.9034349010598
30
5E-16
41
1
10
65.2534361476766
20
32.8588400724755
30
5E-16
41
1
10
65.1781117769298
20
32.7724895045863
30
5E-16
41
1
10
65.1359930298464
20
32.7308244363594
30
5E-16
41
1
10
65.0436327696493
20
32.6502889781584
30
4E-16
41
1
10
64.9933876230578
20
32.6114197649432
30
4E-16
41
1
10
64.8852111910199
20
32.5363721933073
30
4E-16
41
1
10
64.827616425603
20
32.5004617363477
30
4E-16
41
1
10
64.6477040144857
20
32.3986380855171
30
4E-16
41
1
10
64.5173922944637
20
32.3379089172949
30
4E-16
41
1
10
64.3083398776192
20
32.2564397134424
30
4E-16
41
1
10
64.2360243988287
20
32.2307978301895
30
4E-16
41
1
10
64.0889069513676
20
32.1833384999194
30
4E-16
41
1
10
64.0141555300736
20
32.1615088182755
30
4E-16
41
1
10
63.7865788515064
20
32.1013634906855
30
4E-16
41
1
10
63.6304580331429
20
32.0683507138357
30
4E-16
41
1
10
63.3099578369032
20
32.0158246027337
30
3E-16
41
1
10
63.1444763352188
20
31.9963059989843
30
3E-16
41
1
10
62.8143590838463
20
31.9718328078901
30
3E-16
41
1
10
62.6489269002001
20
31.9666584166122
30
3E-16
41
1
10
62.400220010142
20
31.9694843392809
30
3E-16
41
1
10
62.3172240770812
20
31.9722002677028
30
3E-16
41
1
10
62.1510384804169
20
31.9812975164131
30
3E-16
41
1
10
62.0676076248773
20
31.987714575226
30
3E-16
41
1
10
61.8208559057313
20
32.0123197977115
30
3E-16
41
1
10
61.6599816819361
20
32.0358378208316
30
2E-16
41
1
10
61.4243413171346
20
32.0821124693528
30
2E-16
41
1
10
61.3467449638808
20
32.0993798220823
30
2E-16
41
1
10
61.1935661945301
20
32.137787766198
30
2E-16
41
1
10
61.1177219789788
20
32.1590085670294
30
2E-16
41
1
10
61.0434965083935
20
32.1821561908002
30
2E-16
0
SPLINE
5
10C
100
AcDbEntity
8
1
62
256
6
ByLayer
370
18
48
1
60
0
100
AcDbSpline
70
2053
71
3
72
97
73
93
40
0
40
0
40
0
40
0
40
0.0312500000000022
40
0.0312500000000022
40
0.0468750000000032
40
0.0468750000000032
40
0.0625000000000041
40
0.0625000000000041
40
0.093750000000006
40
0.093750000000006
40
0.109375000000007
40
0.109375000000007
40
0.125000000000008
40
0.140625000000009
40
0.140625000000009
40
0.15625000000001
40
0.15625000000001
40
0.187500000000011
40
0.187500000000011
40
0.203125000000012
40
0.203125000000012
40
0.218750000000012
40
0.218750000000012
40
0.234375000000013
40
0.234375000000013
40
0.250000000000013
40
0.250000000000013
40
0.281250000000014
40
0.281250000000014
40
0.296875000000014
40
0.296875000000014
40
0.312500000000014
40
0.328125000000015
40
0.328125000000015
40
0.343750000000015
40
0.343750000000015
40
0.375000000000015
40
0.375000000000015
40
0.390625000000016
40
0.390625000000016
40
0.406250000000016
40
0.406250000000016
40
0.437500000000017
40
0.437500000000017
40
0.453125000000017
40
0.453125000000017
40
0.468750000000018
40
0.468750000000018
40
0.500000000000018
40
0.500000000000018
40
0.531250000000019
40
0.531250000000019
40
0.562500000000019
40
0.562500000000019
40
0.578125000000019
40
0.578125000000019
40
0.59375000000002
40
0.59375000000002
40
0.625000000000019
40
0.625000000000019
40
0.640625000000019
40
0.640625000000019
40
0.656250000000018
40
0.671875000000017
40
0.671875000000017
40
0.687500000000017
40
0.687500000000017
40
0.703125000000016
40
0.703125000000016
40
0.718750000000015
40
0.718750000000015
40
0.750000000000014
40
0.750000000000014
40
0.765625000000014
40
0.765625000000014
40
0.781250000000014
40
0.781250000000014
40
0.812500000000012
40
0.812500000000012
40
0.84375000000001
40
0.84375000000001
40
0.859375000000009
40
0.859375000000009
40
0.875000000000007
40
0.875000000000007
40
0.906250000000005
40
0.906250000000005
40
0.937500000000004
40
0.937500000000004
40
0.968750000000002
40
0.968750000000002
40
1
40
1
40
1
40
1
41
1
10
40.7343579577195
20
30.1398189241496
30
-1E-15
41
1
10
40.6013260171047
20
30.1987379568534
30
-1E-15
41
1
10
40.4787341940821
20
30.2648245964421
30
-1.1E-15
41
1
10
40.3110827814176
20
30.3748213741166
30
-1.1E-15
41
1
10
40.2579227266202
20
30.4133098568411
30
-1.1E-15
41
1
10
40.157402139295
20
30.4941188212624
30
-1.1E-15
41
1
10
40.1102239630106
20
30.5363569333697
30
-1.1E-15
41
1
10
39.9811617816414
20
30.6657898531662
30
-1.1E-15
41
1
10
39.9103686555672
20
30.7566220019644
30
-1.1E-15
41
1
10
39.828480274977
20
30.8998639795201
30
-1.1E-15
41
1
10
39.8051834017711
20
30.9491135248635
30
-1.1E-15
41
1
10
39.7682612696621
20
31.0475385902296
30
-1.1E-15
41
1
10
39.7406727400979
20
31.1462597336843
30
-1.1E-15
41
1
10
39.7315195839105
20
31.2455299641014
30
-1.1E-15
41
1
10
39.7317875457166
20
31.3450747220869
30
-1.1E-15
41
1
10
39.7367292327896
20
31.3953088108254
30
-1.1E-15
41
1
10
39.7656019312338
20
31.5428753777846
30
-1.1E-15
41
1
10
39.8031598719421
20
31.6377441324711
30
-1.1E-15
41
1
10
39.8861178311151
20
31.7750893703223
30
-1.1E-15
41
1
10
39.9184102230827
20
31.8201614109283
30
-1.1E-15
41
1
10
39.9902862806829
20
31.9065503550144
30
-1.1E-15
41
1
10
40.0300034381854
20
31.9481420362335
30
-1.1E-15
41
1
10
40.1166784743626
20
32.0282988007686
30
-1.1E-15
41
1
10
40.1636375056036
20
32.066863333753
30
-1.1E-15
41
1
10
40.2647174980138
20
32.1410475897029
30
-1.1E-15
41
1
10
40.3188367315779
20
32.1766109923092
30
-1.1E-15
41
1
10
40.4881704726224
20
32.2768576053847
30
-1.1E-15
41
1
10
40.6113642011951
20
32.335987072396
30
-1E-15
41
1
10
40.8106458416223
20
32.4141338726208
30
-1E-15
41
1
10
40.8796211670615
20
32.4384201797273
30
-1E-15
41
1
10
41.0197666812074
20
32.482707431826
30
-1E-15
41
1
10
41.1627171791139
20
32.5229688917731
30
-1E-15
41
1
10
41.3110224272596
20
32.5556181956433
30
-1E-15
41
1
10
41.46195259845
20
32.5845666060549
30
-1E-15
41
1
10
41.5390114134476
20
32.5972272842498
30
-1E-15
41
1
10
41.7720966314656
20
32.6293956830178
30
-1E-15
41
1
10
41.928730119502
20
32.6430347423967
30
-1E-15
41
1
10
42.1654278072036
20
32.6526010059561
30
-1E-15
41
1
10
42.2446202822427
20
32.6539608466773
30
-9E-16
41
1
10
42.4035948179944
20
32.6530060918997
30
-9E-16
41
1
10
42.4837122250734
20
32.6506674886665
30
-9E-16
41
1
10
42.7216720231033
20
32.6381754770752
30
-9E-16
41
1
10
42.8774733940131
20
32.6226665293884
30
-9E-16
41
1
10
43.1069793001404
20
32.5886988901764
30
-9E-16
41
1
10
43.1827775109664
20
32.5755803769232
30
-9E-16
41
1
10
43.3329209074124
20
32.5456104353535
30
-9E-16
41
1
10
43.4075702190751
20
32.5286795406703
30
-9E-16
41
1
10
43.6269954739008
20
32.4724772550768
30
-9E-16
41
1
10
43.7659196983318
20
32.4282781697851
30
-9E-16
41
1
10
44.0286689518403
20
32.3257646789401
30
-8E-16
41
1
10
44.1525194832013
20
32.2674769483624
30
-8E-16
41
1
10
44.3828322512091
20
32.1342666841539
30
-8E-16
41
1
10
44.4854751155216
20
32.0614956824596
30
-8E-16
41
1
10
44.6188548159614
20
31.9425800204443
30
-8E-16
41
1
10
44.6598927395603
20
31.9012844286281
30
-8E-16
41
1
10
44.7345550498325
20
31.8150594921331
30
-8E-16
41
1
10
44.7677962238464
20
31.7704986692272
30
-8E-16
41
1
10
44.8534490555433
20
31.634617671094
30
-8E-16
41
1
10
44.8927284598514
20
31.5402564577302
30
-8E-16
41
1
10
44.9227494504204
20
31.3924548646445
30
-8E-16
41
1
10
44.9277877002938
20
31.3421726849544
30
-8E-16
41
1
10
44.9276911319427
20
31.2425735787434
30
-8E-16
41
1
10
44.9176228587426
20
31.1431653886289
30
-8E-16
41
1
10
44.8879492348785
20
31.04414433524
30
-8E-16
41
1
10
44.8483190477196
20
30.94533746387
30
-8E-16
41
1
10
44.8237441152143
20
30.8966751056159
30
-8E-16
41
1
10
44.7661840498347
20
30.8018551047713
30
-8E-16
41
1
10
44.7331255510668
20
30.7555162641221
30
-8E-16
41
1
10
44.6587849581296
20
30.6649316029483
30
-8E-16
41
1
10
44.6172793532384
20
30.6204812009471
30
-8E-16
41
1
10
44.4821475385261
20
30.491817586698
30
-8E-16
41
1
10
44.3790790797763
20
30.4130125568311
30
-8E-16
41
1
10
44.2071310867683
20
30.3043694038217
30
-8E-16
41
1
10
44.146597541321
20
30.2696167349582
30
-8E-16
41
1
10
44.0214902904795
20
30.2042102350586
30
-8E-16
41
1
10
43.9569639988071
20
30.1735426340854
30
-8E-16
41
1
10
43.7578268268977
20
30.0873351972192
30
-9E-16
41
1
10
43.6176222079854
20
30.0375175896695
30
-9E-16
41
1
10
43.3233605016684
20
29.9530580338582
30
-9E-16
41
1
10
43.1728213187549
20
29.9194141223842
30
-9E-16
41
1
10
42.9422695262604
20
29.8810430963491
30
-9E-16
41
1
10
42.8646224296732
20
29.8702828758279
30
-9E-16
41
1
10
42.7077310587463
20
29.8528498562809
30
-9E-16
41
1
10
42.6281806802419
20
29.8461621410836
30
-9E-16
41
1
10
42.3893691101895
20
29.8325387583197
30
-9E-16
41
1
10
42.2309766979985
20
29.8319756799661
30
-9E-16
41
1
10
41.9157919518856
20
29.8475727778245
30
-1E-15
41
1
10
41.7588195983766
20
29.8637550085329
30
-1E-15
41
1
10
41.4473394497645
20
29.9140404304219
30
-1E-15
41
1
10
41.2969855270839
20
29.9474579965958
30
-1E-15
41
1
10
41.0071757034243
20
30.0308260058681
30
-1E-15
41
1
10
40.8673898983343
20
30.0808998914458
30
-1E-15
41
1
10
40.7343579577195
20
30.1398189241496
30
-1E-15
0
SPLINE
5
10D
100
AcDbEntity
8
1
62
256
6
ByLayer
370
18
48
1
60
0
100
AcDbSpline
70
4
71
3
72
22
73
18
40
0
40
0
40
0
40
0
40
0.125
40
0.125
40
0.1875
40
0.1875
40
0.249999999999999
40
0.249999999999999
40
0.375
40
0.375
40
0.5
40
0.5
40
0.75
40
0.75
40
0.875
40
0.875
40
1
40
1
40
1
40
1
41
1
10
33.5659065522888
20
36.6704019054826
30
-1.5E-15
41
1
10
33.5659065522888
20
36.8411705920992
30
3E-16
41
1
10
33.6536349431584
20
37.0151238401836
30
3E-16
41
1
10
33.848111984873
20
37.2840855725957
30
3E-16
41
1
10
33.9235386208614
20
37.3754393751696
30
3E-16
41
1
10
34.0850740521421
20
37.5598748512065
30
3E-16
41
1
10
34.1711419171511
20
37.6529371741931
30
3E-16
41
1
10
34.4378319962604
20
37.9360332330079
30
4E-16
41
1
10
34.6265565937763
20
38.1300397915393
30
4E-16
41
1
10
35.0075412397439
20
38.5324409536558
30
4E-16
41
1
10
35.2001992325292
20
38.7407637395483
30
4E-16
41
1
10
35.7723190818739
20
39.3905224426731
30
4E-16
41
1
10
36.1459484639186
20
39.8565140532672
30
5E-16
41
1
10
36.666688086953
20
40.6178142895821
30
5E-16
41
1
10
36.8340476268577
20
40.882548208872
30
5E-16
41
1
10
37.1488684269847
20
41.431609095361
30
5E-16
41
1
10
37.2965615468164
20
41.7161546047697
30
5E-16
41
1
10
37.4320508075692
20
42.0119556198393
30
5E-16
0
SPLINE
5
10E
100
AcDbEntity
8
1
62
256
6
ByLayer
370
18
48
1
60
0
100
AcDbSpline
70
4
71
3
72
14
73
10
40
0
40
0
40
0
40
0
40
0.5
40
0.5
40
0.75
40
0.75
40
0.875
40
0.875
40
1
40
1
40
1
40
1
41
1
10
32.2358983848629
20
-39.9900206817994
30
0
41
1
10
32.3509598766944
20
-39.9452967991016
30
-2E-16
41
1
10
32.523763921685
20
-39.7541069045
30
2E-16
41
1
10
32.8599660000155
20
-39.2720189797941
30
3E-16
41
1
10
32.9848799702832
20
-39.0787371258315
30
3E-16
41
1
10
33.1903673718555
20
-38.7428613435853
30
3E-16
41
1
10
33.2619571493526
20
-38.6231111375556
30
3E-16
41
1
10
33.4101604079352
20
-38.3702133424219
30
3E-16
41
1
10
33.4868496783802
20
-38.2369469247115
30
3E-16
41
1
10
33.5659743420837
20
-38.0972641062677
30
3E-16
0
SPLINE
5
10F
100
AcDbEntity
8
1
62
256
6
ByLayer
370
18
48
1
60
0
100
AcDbSpline
70
4
71
3
72
16
73
12
40
0
40
0
40
0
40
0
40
0.125
40
0.125
40
0.25
40
0.25
40
0.5
40
0.5
40
0.75
40
0.75
40
1
40
1
40
1
40
1
41
1
10
10.2386751345948
20
-38.1154578595255
30
6E-16
41
1
10
10.2070097812327
20
-38.1154578595255
30
6E-16
41
1
10
10.176185221864
20
-38.1134542929027
30
6E-16
41
1
10
10.1179414896383
20
-38.1062685963607
30
6E-16
41
1
10
10.0914602024634
20
-38.101260466828
30
6E-16
41
1
10
10.0176492454755
20
-38.0832729594606
30
6E-16
41
1
10
9.97873204322784
20
-38.0682137252776
30
6E-16
41
1
10
9.91233188125256
20
-38.0356330717497
30
6E-16
41
1
10
9.88562427950518
20
-38.0183244490836
30
6E-16
41
1
10
9.8400321601288
20
-37.9823481941392
30
6E-16
41
1
10
9.82124956208483
20
-37.9636126331776
30
6E-16
41
1
10
9.80566243270255
20
-37.9445010117191
30
6E-16
0
SPLINE
5
110
100
AcDbEntity
8
1
62
256
6
ByLayer
370
18
48
1
60
0
100
AcDbSpline
70
4
71
3
72
16
73
12
40
0
40
0
40
0
40
0
40
0.25
40
0.25
40
0.500000000000001
40
0.500000000000001
40
0.750000000000001
40
0.750000000000001
40
0.875
40
0.875
40
1
40
1
40
1
40
1
41
1
10
13.5943375672975
20
-37.9445010117191
30
9E-16
41
1
10
13.5787561873888
20
-37.9636055836586
30
8E-16
41
1
10
13.5601238798743
20
-37.9822012953861
30
8E-16
41
1
10
13.5146289914014
20
-38.0181481521524
30
8E-16
41
1
10
13.4876921654474
20
-38.0356224517383
30
8E-16
41
1
10
13.4212171221611
20
-38.0682374888742
30
8E-16
41
1
10
13.3816031920018
20
-38.0834517571985
30
8E-16
41
1
10
13.3089776935099
20
-38.1011554411598
30
8E-16
41
1
10
13.2819554640971
20
-38.1062761312751
30
8E-16
41
1
10
13.2241733156583
20
-38.1134152144531
30
8E-16
41
1
10
13.1929397308716
20
-38.1154578595255
30
8E-16
41
1
10
13.1613248654053
20
-38.1154578595255
30
8E-16
0
SPLINE
5
111
100
AcDbEntity
8
1
62
256
6
ByLayer
370
18
48
1
60
0
100
AcDbSpline
70
4
71
3
72
16
73
12
40
0
40
0
40
0
40
0
40
0.125
40
0.125
40
0.25
40
0.25
40
0.5
40
0.5
40
0.75
40
0.75
40
1
40
1
40
1
40
1
41
1
10
13.1613248654053
20
-12.1330899674707
30
8E-16
41
1
10
13.1929902187674
20
-12.1330899674707
30
8E-16
41
1
10
13.2238147781361
20
-12.1393880305614
30
8E-16
41
1
10
13.2820585103617
20
-12.1619255694048
30
8E-16
41
1
10
13.3085397975367
20
-12.177616249759
30
8E-16
41
1
10
13.3823507545246
20
-12.2338002045595
30
8E-16
41
1
10
13.4212679567723
20
-12.2806309384213
30
8E-16
41
1
10
13.4876681187475
20
-12.3811715645304
30
8E-16
41
1
10
13.5143757204949
20
-12.4342400380054
30
8E-16
41
1
10
13.5599678398713
20
-12.543705389465
30
8E-16
41
1
10
13.5787504379153
20
-12.6003080708704
30
8E-16
41
1
10
13.5943375672975
20
-12.6576002058703
30
9E-16
0
SPLINE
5
112
100
AcDbEntity
8
1
62
256
6
ByLayer
370
18
48
1
60
0
100
AcDbSpline
70
4
71
3
72
16
73
12
40
0
40
0
40
0
40
0
40
0.25
40
0.25
40
0.500000000000001
40
0.500000000000001
40
0.750000000000001
40
0.750000000000001
40
0.875
40
0.875
40
1
40
1
40
1
40
1
41
1
10
9.80566243270263
20
-12.6576002058703
30
6E-16
41
1
10
9.82124381261127
20
-12.6003292036662
30
6E-16
41
1
10
9.83987612012575
20
-12.5441499637055
30
6E-16
41
1
10
9.8853710085987
20
-12.4347788334234
30
6E-16
41
1
10
9.91230783455268
20
-12.3812044282565
30
6E-16
41
1
10
9.97878287783891
20
-12.2805575148741
30
6E-16
41
1
10
10.0183968079982
20
-12.2332416215829
30
6E-16
41
1
10
10.0910223064902
20
-12.1779443514618
30
6E-16
41
1
10
10.118044535903
20
-12.1619018862399
30
6E-16
41
1
10
10.1758266843418
20
-12.1395106480539
30
6E-16
41
1
10
10.2070602691285
20
-12.1330899674706
30
6E-16
41
1
10
10.2386751345948
20
-12.1330899674706
30
6E-16
0
SPLINE
5
113
100
AcDbEntity
8
1
62
256
6
ByLayer
370
18
48
1
60
0
100
AcDbSpline
70
4
71
3
72
16
73
12
40
0
40
0
40
0
40
0
40
0.125000000000004
40
0.125000000000004
40
0.250000000000008
40
0.250000000000008
40
0.500000000000005
40
0.500000000000005
40
0.750000000000003
40
0.750000000000003
40
1
40
1
40
1
40
1
41
1
10
10.2386751345948
20
12.1330899674707
30
6E-16
41
1
10
10.2070097812327
20
12.1330899674707
30
6E-16
41
1
10
10.176185221864
20
12.1393880305614
30
6E-16
41
1
10
10.1179414896383
20
12.1619255694047
30
6E-16
41
1
10
10.0914602024633
20
12.177616249759
30
6E-16
41
1
10
10.0176492454754
20
12.2338002045595
30
6E-16
41
1
10
9.97873204322778
20
12.2806309384212
30
6E-16
41
1
10
9.91233188125253
20
12.3811715645304
30
6E-16
41
1
10
9.88562427950512
20
12.4342400380054
30
6E-16
41
1
10
9.84003216012877
20
12.5437053894649
30
6E-16
41
1
10
9.82124956208483
20
12.6003080708704
30
6E-16
41
1
10
9.80566243270255
20
12.6576002058703
30
6E-16
0
SPLINE
5
114
100
AcDbEntity
8
1
62
256
6
ByLayer
370
18
48
1
60
0
100
AcDbSpline
70
4
71
3
72
16
73
12
40
0
40
0
40
0
40
0
40
0.25
40
0.25
40
0.5
40
0.5
40
0.75
40
0.75
40
0.875
40
0.875
40
1
40
1
40
1
40
1
41
1
10
13.5943375672974
20
12.6576002058704
30
9E-16
41
1
10
13.5787561873888
20
12.6003292036662
30
8E-16
41
1
10
13.5601238798743
20
12.5441499637055
30
8E-16
41
1
10
13.5146289914014
20
12.4347788334233
30
8E-16
41
1
10
13.4876921654474
20
12.3812044282564
30
8E-16
41
1
10
13.4212171221612
20
12.2805575148739
30
8E-16
41
1
10
13.3816031920018
20
12.2332416215828
30
8E-16
41
1
10
13.3089776935099
20
12.1779443514617
30
8E-16
41
1
10
13.2819554640971
20
12.1619018862398
30
8E-16
41
1
10
13.2241733156583
20
12.1395106480537
30
8E-16
41
1
10
13.1929397308716
20
12.1330899674705
30
8E-16
41
1
10
13.1613248654053
20
12.1330899674705
30
8E-16
0
SPLINE
5
115
100
AcDbEntity
8
1
62
256
6
ByLayer
370
18
48
1
60
0
100
AcDbSpline
70
4
71
3
72
16
73
12
40
0
40
0
40
0
40
0
40
0.125
40
0.125
40
0.25
40
0.25
40
0.5
40
0.5
40
0.75
40
0.75
40
1
40
1
40
1
40
1
41
1
10
13.1613248654052
20
38.1154578595255
30
8E-16
41
1
10
13.1929902187674
20
38.1154578595255
30
8E-16
41
1
10
13.2238147781361
20
38.1134542929028
30
8E-16
41
1
10
13.2820585103618
20
38.1062685963607
30
8E-16
41
1
10
13.3085397975367
20
38.1012604668281
30
8E-16
41
1
10
13.3823507545247
20
38.0832729594606
30
8E-16
41
1
10
13.4212679567723
20
38.0682137252776
30
8E-16
41
1
10
13.4876681187476
20
38.0356330717498
30
8E-16
41
1
10
13.5143757204949
20
38.0183244490836
30
8E-16
41
1
10
13.5599678398713
20
37.9823481941392
30
8E-16
41
1
10
13.5787504379152
20
37.9636126331777
30
8E-16
41
1
10
13.5943375672975
20
37.9445010117191
30
9E-16
0
SPLINE
5
116
100
AcDbEntity
8
1
62
256
6
ByLayer
370
18
48
1
60
0
100
AcDbSpline
70
4
71
3
72
16
73
12
40
0
40
0
40
0
40
0
40
0.249999999999998
40
0.249999999999998
40
0.499999999999997
40
0.499999999999997
40
0.749999999999995
40
0.749999999999995
40
0.874999999999997
40
0.874999999999997
40
1
40
1
40
1
40
1
41
1
10
9.8056624327026
20
37.9445010117191
30
6E-16
41
1
10
9.82124381261121
20
37.9636055836586
30
6E-16
41
1
10
9.83987612012569
20
37.9822012953861
30
6E-16
41
1
10
9.88537100859861
20
38.0181481521524
30
6E-16
41
1
10
9.91230783455259
20
38.0356224517383
30
6E-16
41
1
10
9.9787828778388
20
38.0682374888743
30
6E-16
41
1
10
10.0183968079982
20
38.0834517571985
30
6E-16
41
1
10
10.0910223064901
20
38.1011554411599
30
6E-16
41
1
10
10.1180445359029
20
38.1062761312752
30
6E-16
41
1
10
10.1758266843417
20
38.1134152144531
30
6E-16
41
1
10
10.2070602691284
20
38.1154578595256
30
6E-16
41
1
10
10.2386751345948
20
38.1154578595256
30
6E-16
0
SPLINE
5
117
100
AcDbEntity
8
SK1
62
256
6
ByLayer
370
18
48
1
60
0
100
AcDbSpline
70
4
71
3
72
24
73
20
40
0
40
0
40
0
40
0
40
0.25
40
0.25
40
0.499999999999999
40
0.499999999999999
40
0.624999999999999
40
0.624999999999999
40
0.749999999999999
40
0.749999999999999
40
0.812499999999999
40
0.812499999999999
40
0.875
40
0.875
40
0.90625
40
0.90625
40
0.9375
40
0.9375
40
1
40
1
40
1
40
1
41
1
10
-0.499999999999972
20
6.57657332251964
30
0
41
1
10
-0.499999999999972
20
6.51045005265189
30
0
41
1
10
-0.501370223899301
20
6.44422604141062
30
0
41
1
10
-0.507931565681048
20
6.31154981196997
30
0
41
1
10
-0.513034744860818
20
6.24506994782286
30
0
41
1
10
-0.52577382602658
20
6.14523693213602
30
0
41
1
10
-0.530865993702236
20
6.11204321968498
30
0
41
1
10
-0.543817490224029
20
6.04595778475252
30
0
41
1
10
-0.551609411491114
20
6.01299451379086
30
0
41
1
10
-0.567311184438864
20
5.96503123140511
30
0
41
1
10
-0.573219353624125
20
5.94926493252871
30
0
41
1
10
-0.587582091983904
20
5.91857610087365
30
0
41
1
10
-0.596059368926177
20
5.90333821711971
30
0
41
1
10
-0.612820576486001
20
5.88361899214846
30
0
41
1
10
-0.619036350199593
20
5.87767263152892
30
0
41
1
10
-0.633385369898548
20
5.86840030244352
30
0
41
1
10
-0.641627499784647
20
5.8652452883629
30
0
41
1
10
-0.666640861536678
20
5.86327716887257
30
0
41
1
10
-0.682346845143883
20
5.87167009312168
30
0
41
1
10
-0.694976888875459
20
5.88246902087076
30
0
0
SPLINE
5
118
100
AcDbEntity
8
SK1
62
256
6
ByLayer
370
18
48
1
60
0
100
AcDbSpline
70
4
71
3
72
22
73
18
40
0
40
0
40
0
40
0
40
0.0936042918796104
40
0.0936042918796104
40
0.140406437819416
40
0.140406437819416
40
0.187208583759221
40
0.187208583759221
40
0.280812875638826
40
0.280812875638826
40
0.374417167518431
40
0.374417167518431
40
0.561625751277648
40
0.561625751277648
40
0.748834335036865
40
0.748834335036865
40
1
40
1
40
1
40
1
41
1
10
-0.694976888875289
20
27.1987924685777
30
0
41
1
10
-0.682349964116099
20
27.1976986124495
30
0
41
1
10
-0.666613768654713
20
27.198185626277
30
0
41
1
10
-0.641634338384449
20
27.2045204221557
30
0
41
1
10
-0.633397026160026
20
27.2075133993407
30
0
41
1
10
-0.618988520955867
20
27.2141108040131
30
0
41
1
10
-0.612743256447601
20
27.217666306161
30
0
41
1
10
-0.596018029478643
20
27.2284672633262
30
0
41
1
10
-0.587604834338691
20
27.2357099511215
30
0
41
1
10
-0.573096832408595
20
27.2498684802422
30
0
41
1
10
-0.56716687918626
20
27.2567338906935
30
0
41
1
10
-0.551432211917671
20
27.2769335026168
30
0
41
1
10
-0.543675314291193
20
27.2898897473708
30
0
41
1
10
-0.530717844125121
20
27.3150624889475
30
0
41
1
10
-0.525652950982987
20
27.3271732528586
30
0
41
1
10
-0.515774564330457
20
27.3547422973147
30
0
41
1
10
-0.511623466613258
20
27.3699345682203
30
0
41
1
10
-0.508516339651464
20
27.384649175661
30
0
0
SPLINE
5
119
100
AcDbEntity
8
SK1
62
256
6
ByLayer
370
18
48
1
60
0
100
AcDbSpline
70
4
71
3
72
22
73
18
40
0
40
0
40
0
40
0
40
0.220464959446646
40
0.220464959446646
40
0.415348719584988
40
0.415348719584988
40
0.61023247972333
40
0.61023247972333
40
0.707674359792496
40
0.707674359792496
40
0.805116239861663
40
0.805116239861663
40
0.853837179896246
40
0.853837179896246
40
0.902558119930829
40
0.902558119930829
40
1
40
1
40
1
40
1
41
1
10
-0.510085931313796
20
-27.3775641738739
30
0
41
1
10
-0.513004371502205
20
-27.3649924269542
30
0
41
1
10
-0.516723671129341
20
-27.3520583496799
30
0
41
1
10
-0.525773716901369
20
-27.3268678454447
30
0
41
1
10
-0.530865818535204
20
-27.3147403187154
30
0
41
1
10
-0.54381716756015
20
-27.2896495476071
30
0
41
1
10
-0.551609006750596
20
-27.276675083279
30
0
41
1
10
-0.567310756234292
20
-27.2565651682759
30
0
41
1
10
-0.573218934106364
20
-27.2497441426328
30
0
41
1
10
-0.587581776151353
20
-27.2357375224533
30
0
41
1
10
-0.596059131080324
20
-27.2284328994368
30
0
41
1
10
-0.612820518203648
20
-27.2176202393924
30
0
41
1
10
-0.619036303829887
20
-27.2140876538149
30
0
41
1
10
-0.633385409606035
20
-27.2075198335421
30
0
41
1
10
-0.64162752558471
20
-27.2045217689256
30
0
41
1
10
-0.666640769985975
20
-27.1981793002157
30
0
41
1
10
-0.682346753396274
20
-27.1976982552738
30
0
41
1
10
-0.694976888875487
20
-27.1987923911108
30
0
0
SPLINE
5
11A
100
AcDbEntity
8
SK1
62
256
6
ByLayer
370
18
48
1
60
0
100
AcDbSpline
70
4
71
3
72
24
73
20
40
0
40
0
40
0
40
0
40
0.0625000000000019
40
0.0625000000000019
40
0.0937500000000013
40
0.0937500000000013
40
0.125000000000001
40
0.125000000000001
40
0.187499999999999
40
0.187499999999999
40
0.249999999999998
40
0.249999999999998
40
0.374999999999998
40
0.374999999999998
40
0.499999999999999
40
0.499999999999999
40
0.749999999999999
40
0.749999999999999
40
1
40
1
40
1
40
1
41
1
10
-0.69497688887526
20
-5.8824691645265
30
0
41
1
10
-0.682350069157479
20
-5.87167298403494
30
0
41
1
10
-0.666613896349759
20
-5.86327777511369
30
0
41
1
10
-0.641634356785971
20
-5.86524569625408
30
0
41
1
10
-0.633397011620275
20
-5.86838955924895
30
0
41
1
10
-0.618988631583022
20
-5.87770695780824
30
0
41
1
10
-0.612743382214461
20
-5.88369895138618
30
0
41
1
10
-0.596018369933063
20
-5.90340879022773
30
0
41
1
10
-0.587605201971854
20
-5.9185116313715
30
0
41
1
10
-0.573097316105731
20
-5.94954123300337
30
0
41
1
10
-0.567167369392223
20
-5.96542317564118
30
0
41
1
10
-0.551432668896751
20
-6.0136318735623
30
0
41
1
10
-0.543675661567903
20
-6.04657147511207
30
0
41
1
10
-0.530718056341669
20
-6.11291108254431
30
0
41
1
10
-0.525653098735859
20
-6.14608265895734
30
0
41
1
10
-0.512997246629624
20
-6.24556878217334
30
0
41
1
10
-0.507912798922916
20
-6.31185420825219
30
0
41
1
10
-0.501370158980365
20
-6.44430304126934
30
0
41
1
10
-0.500000000000114
20
-6.51046842154437
30
0
41
1
10
-0.500000000000114
20
-6.5765733851174
30
0
0
SPLINE
5
11B
100
AcDbEntity
8
SK1
62
256
6
ByLayer
370
18
48
1
60
0
100
AcDbSpline
70
4
71
3
72
28
73
24
40
0
40
0
40
0
40
0
40
0.249999999999999
40
0.249999999999999
40
0.499999999999998
40
0.499999999999998
40
0.624999999999998
40
0.624999999999998
40
0.687499999999998
40
0.687499999999998
40
0.749999999999997
40
0.749999999999997
40
0.812499999999997
40
0.812499999999997
40
0.843749999999998
40
0.843749999999998
40
0.874999999999998
40
0.874999999999998
40
0.906249999999998
40
0.906249999999998
40
0.937499999999999
40
0.937499999999999
40
1
40
1
40
1
40
1
41
1
10
-1.60710678118653
20
-4.39323937970204
30
-1E-16
41
1
10
-1.57807156294211
20
-4.55728578669129
30
-1E-16
41
1
10
-1.54496336974432
20
-4.71973533160028
30
-1E-16
41
1
10
-1.46607860111953
20
-5.0407319550261
30
-1E-16
41
1
10
-1.42051611802921
20
-5.19963508727912
30
-1E-16
41
1
10
-1.3349812886693
20
-5.43038219900063
30
-1E-16
41
1
10
-1.30356748257125
20
-5.50611038118015
30
-1E-16
41
1
10
-1.24883668301112
20
-5.61682998569376
30
-1E-16
41
1
10
-1.22930681334412
20
-5.65325165428476
30
-1E-16
41
1
10
-1.18640701167524
20
-5.72469636556374
30
-1E-16
41
1
10
-1.16304653949482
20
-5.75970799632535
30
-1E-16
41
1
10
-1.11137857072958
20
-5.82566030070507
30
0
41
1
10
-1.08309596294174
20
-5.85688967768849
30
0
41
1
10
-1.03330957049664
20
-5.89841079112156
30
0
41
1
10
-1.0157770164476
20
-5.91105263131408
30
0
41
1
10
-0.978015781761627
20
-5.93289970518873
30
0
41
1
10
-0.957793110825321
20
-5.94201442298737
30
0
41
1
10
-0.915790388270551
20
-5.95443864745005
30
0
41
1
10
-0.893299286563035
20
-5.95781478621083
30
0
41
1
10
-0.849231954733739
20
-5.9574111863021
30
0
41
1
10
-0.827157757150701
20
-5.95370558688921
30
0
41
1
10
-0.764334375972709
20
-5.93399527965411
30
0
41
1
10
-0.727479743259977
20
-5.91025974760836
30
0
41
1
10
-0.69497688887526
20
-5.88246916452644
30
0
0
SPLINE
5
11C
100
AcDbEntity
8
SK1
62
256
6
ByLayer
370
18
48
1
60
0
100
AcDbSpline
70
4
71
3
72
26
73
22
40
0
40
0
40
0
40
0
40
0.0312499999999997
40
0.0312499999999997
40
0.0624999999999994
40
0.0624999999999994
40
0.0937499999999992
40
0.0937499999999992
40
0.124999999999999
40
0.124999999999999
40
0.187499999999998
40
0.187499999999998
40
0.249999999999998
40
0.249999999999998
40
0.374999999999998
40
0.374999999999998
40
0.499999999999998
40
0.499999999999998
40
0.749999999999999
40
0.749999999999999
40
1
40
1
40
1
40
1
41
1
10
-0.69497688887526
20
5.88246902087488
30
0
41
1
10
-0.711243448014073
20
5.89637723850254
30
0
41
1
10
-0.728449793960152
20
5.90912350803339
30
0
41
1
10
-0.765564082935242
20
5.93128976964647
30
0
41
1
10
-0.78550126059406
20
5.94064321807929
30
0
41
1
10
-0.827078862046847
20
5.9536734064022
30
0
41
1
10
-0.849438320144913
20
5.95743908997451
30
0
41
1
10
-0.89360608848375
20
5.9577908632414
30
0
41
1
10
-0.915789294920614
20
5.95446545286367
30
0
41
1
10
-0.979608123678105
20
5.93550756082416
30
0
41
1
10
-1.01733265132296
20
5.91177816162454
30
0
41
1
10
-1.08301501207944
20
5.85691368285356
30
0
41
1
10
-1.11190574660401
20
5.82506288928451
30
0
41
1
10
-1.18950553591176
20
5.72578032377572
30
-1E-16
41
1
10
-1.23048608580979
20
5.65396988322576
30
-1E-16
41
1
10
-1.30381992840015
20
5.50558272391777
30
-1E-16
41
1
10
-1.33559750467296
20
5.42886588385056
30
-1E-16
41
1
10
-1.42127825547442
20
5.19728125876009
30
-1E-16
41
1
10
-1.46642207539591
20
5.03942758364948
30
-1E-16
41
1
10
-1.54501063644406
20
4.71944904321026
30
-1E-16
41
1
10
-1.5780795390977
20
4.55724063340097
30
-1E-16
41
1
10
-1.60710678118653
20
4.39323915389232
30
-1E-16
0
SPLINE
5
11D
100
AcDbEntity
8
SK1
62
256
6
ByLayer
370
18
48
1
60
0
100
AcDbSpline
70
4
71
3
72
307
73
303
40
0
40
0
40
0
40
0
40
0.0012811209257911
40
0.0046970038846665
40
0.0081128868435418
40
0.0115287698024172
40
0.0149446527612926
40
0.0183605357201679
40
0.0217764186790433
40
0.0251923016379187
40
0.0286081845967941
40
0.0320240675556694
40
0.0354399505145448
40
0.0422717164322955
40
0.0491034823500463
40
0.0525193653089216
40
0.055935248267797
40
0.0593511312266724
40
0.0627670141855478
40
0.0661828971444231
40
0.0695987801032985
40
0.0730146630621739
40
0.0764305460210492
40
0.0832623119388
40
0.0866781948976753
40
0.0900940778565507
40
0.0935099608154261
40
0.0969258437743014
40
0.100341726733177
40
0.103757609692052
40
0.107173492650928
40
0.110589375609803
40
0.114005258568678
40
0.117421141527554
40
0.120837024486429
40
0.122544965965867
40
0.124252907445304
40
0.12766879040418
40
0.131084673363055
40
0.137916439280806
40
0.144748205198557
40
0.148164088157432
40
0.151579971116307
40
0.158411737034058
40
0.165243502951809
40
0.17207526886956
40
0.175491151828435
40
0.17890703478731
40
0.185738800705061
40
0.192570566622812
40
0.199402332540562
40
0.206234098458313
40
0.213065864376064
40
0.219897630293815
40
0.22331351325269
40
0.226729396211565
40
0.233561162129316
40
0.240392928047067
40
0.247224693964818
40
0.250640576923693
40
0.254056459882568
40
0.260888225800319
40
0.26771999171807
40
0.271135874676945
40
0.274551757635821
40
0.281383523553571
40
0.288215289471322
40
0.291631172430197
40
0.295047055389073
40
0.301878821306824
40
0.305294704265699
40
0.308710587224574
40
0.310418528704012
40
0.31212647018345
40
0.315542353142325
40
0.3189582361012
40
0.322374119060076
40
0.325790002018951
40
0.329205884977826
40
0.332621767936702
40
0.336037650895577
40
0.339453533854453
40
0.342869416813328
40
0.349701182731079
40
0.353117065689954
40
0.35653294864883
40
0.359948831607705
40
0.36336471456658
40
0.366780597525456
40
0.370196480484331
40
0.377028246402082
40
0.383860012319832
40
0.387275895278708
40
0.390691778237583
40
0.394107661196459
40
0.397523544155334
40
0.400939427114209
40
0.404355310073085
40
0.40777119303196
40
0.411187075990835
40
0.414602958949711
40
0.418018841908586
40
0.421434724867461
40
0.424850607826337
40
0.428266490785212
40
0.431682373744088
40
0.435098256702963
40
0.438514139661838
40
0.440222081141276
40
0.441930022620714
40
0.445345905579589
40
0.448761788538464
40
0.450469730017902
40
0.45217767149734
40
0.455593554456215
40
0.457301495935653
40
0.45900943741509
40
0.459863408154809
40
0.460717378894528
40
0.462425320373966
40
0.464133261853404
40
0.465841203332841
40
0.467549144812279
40
0.469257086291717
40
0.470965027771154
40
0.471818998510873
40
0.472672969250592
40
0.473526939990311
40
0.47438091073003
40
0.475234881469749
40
0.476088852209467
40
0.477796793688905
40
0.478650764428624
40
0.479504735168343
40
0.48121267664778
40
0.482066647387499
40
0.482920618127218
40
0.484628559606656
40
0.485482530346375
40
0.486336501086094
40
0.488044442565531
40
0.489752384044969
40
0.491460325524406
40
0.492314296264125
40
0.493168267003844
40
0.494022237743563
40
0.494876208483282
40
0.495730179223001
40
0.49658414996272
40
0.497438120702438
40
0.498292091442157
40
0.499146062181876
40
0.500000032921595
40
0.500854003661314
40
0.501707974401033
40
0.502561945140751
40
0.50341591588047
40
0.504269886620189
40
0.505123857359908
40
0.505977828099627
40
0.506831798839346
40
0.507685769579065
40
0.508539740318783
40
0.510247681798221
40
0.511955623277659
40
0.513663564757096
40
0.514517535496815
40
0.515371506236534
40
0.517079447715972
40
0.517933418455691
40
0.51878738919541
40
0.520495330674847
40
0.521349301414566
40
0.522203272154285
40
0.523911213633723
40
0.524765184373441
40
0.52561915511316
40
0.526473125852879
40
0.527327096592598
40
0.528181067332317
40
0.529035038072036
40
0.530742979551473
40
0.532450921030911
40
0.534158862510349
40
0.535866803989786
40
0.537574745469224
40
0.539282686948662
40
0.540136657688381
40
0.540990628428099
40
0.542698569907537
40
0.544406511386975
40
0.54782239434585
40
0.549530335825288
40
0.551238277304726
40
0.554654160263601
40
0.558070043222476
40
0.559777984701914
40
0.561485926181352
40
0.564901809140227
40
0.568317692099102
40
0.571733575057978
40
0.575149458016853
40
0.578565340975728
40
0.581981223934604
40
0.585397106893479
40
0.588812989852355
40
0.59222887281123
40
0.595644755770105
40
0.599060638728981
40
0.602476521687856
40
0.605892404646731
40
0.609308287605607
40
0.612724170564482
40
0.616140053523358
40
0.619555936482233
40
0.622971819441108
40
0.629803585358859
40
0.633219468317734
40
0.63663535127661
40
0.640051234235485
40
0.64346711719436
40
0.646883000153236
40
0.650298883112111
40
0.657130649029862
40
0.660546531988737
40
0.663962414947613
40
0.667378297906488
40
0.670794180865363
40
0.674210063824239
40
0.677625946783114
40
0.68104182974199
40
0.684457712700865
40
0.68787359565974
40
0.691289478618616
40
0.694705361577491
40
0.698121244536366
40
0.704953010454117
40
0.708368893412992
40
0.711784776371868
40
0.718616542289619
40
0.725448308207369
40
0.728864191166245
40
0.73228007412512
40
0.739111840042871
40
0.745943605960622
40
0.749359488919497
40
0.752775371878372
40
0.759607137796123
40
0.766438903713874
40
0.773270669631625
40
0.7766865525905
40
0.780102435549375
40
0.786934201467126
40
0.793765967384877
40
0.800597733302628
40
0.807429499220378
40
0.814261265138129
40
0.82109303105588
40
0.824508914014755
40
0.82792479697363
40
0.834756562891381
40
0.841588328809132
40
0.848420094726883
40
0.851835977685758
40
0.855251860644633
40
0.862083626562384
40
0.868915392480135
40
0.87233127543901
40
0.875747158397886
40
0.882578924315636
40
0.885994807274512
40
0.889410690233387
40
0.892826573192262
40
0.896242456151138
40
0.899658339110013
40
0.903074222068889
40
0.906490105027764
40
0.909905987986639
40
0.913321870945515
40
0.91673775390439
40
0.923569519822141
40
0.926985402781016
40
0.930401285739892
40
0.933817168698767
40
0.937233051657642
40
0.940648934616518
40
0.944064817575393
40
0.947480700534268
40
0.950896583493144
40
0.957728349410894
40
0.964560115328645
40
0.967975998287521
40
0.971391881246396
40
0.974807764205271
40
0.978223647164147
40
0.981639530123022
40
0.985055413081897
40
0.988471296040773
40
0.991887178999648
40
0.995303061958523
40
0.998718944917399
40
1
40
1
40
1
40
1
41
1
10
-2.5
20
-27.5061346585777
30
-1E-16
41
1
10
-2.5
20
-27.5075056394379
30
-1E-16
41
1
10
-2.5
20
-27.5121546499672
30
-1E-16
41
1
10
-2.49999999999994
20
-27.5178156594359
30
-1E-16
41
1
10
-2.5
20
-27.520712257972
30
-1E-16
41
1
10
-2.5
20
-27.5194470153286
30
-1E-16
41
1
10
-2.49999999999994
20
-27.5141077677523
30
-1E-16
41
1
10
-2.5
20
-27.5047765837315
30
-1E-16
41
1
10
-2.49999999999994
20
-27.4915322439684
30
-1E-16
41
1
10
-2.49999999999994
20
-27.4744481367884
30
-1E-16
41
1
10
-2.49999999999994
20
-27.4535951162672
30
-1E-16
41
1
10
-2.5
20
-27.4290396962773
30
-1E-16
41
1
10
-2.49999999999994
20
-27.3914487450129
30
-1E-16
41
1
10
-2.49999999999994
20
-27.3355116167511
30
-1E-16
41
1
10
-2.49999999999994
20
-27.2680242938405
30
-1E-16
41
1
10
-2.5
20
-27.2073129452677
30
1E-16
41
1
10
-2.5
20
-27.1584629254513
30
1E-16
41
1
10
-2.49999999999994
20
-27.1063432629947
30
1E-16
41
1
10
-2.5
20
-27.0509995322117
30
0
41
1
10
-2.49999999999994
20
-26.9924724007358
30
0
41
1
10
-2.5
20
-26.9308035073645
30
0
41
1
10
-2.49999999999994
20
-26.8660318549495
30
0
41
1
10
-2.49999999999994
20
-26.7755840284526
30
0
41
1
10
-2.5
20
-26.6790690105836
30
1E-16
41
1
10
-2.5
20
-26.5766398127168
30
1E-16
41
1
10
-2.49999999999994
20
-26.4968867532828
30
1E-16
41
1
10
-2.49999999999994
20
-26.4142343457969
30
-1E-16
41
1
10
-2.49999999999994
20
-26.3287134555965
30
-1E-16
41
1
10
-2.49999999999994
20
-26.2403534869032
30
-1E-16
41
1
10
-2.49999999999994
20
-26.1491804877762
30
-1E-16
41
1
10
-2.49999999999994
20
-26.0552228914817
30
-1E-16
41
1
10
-2.49999999999994
20
-25.9585067097828
30
-1E-16
41
1
10
-2.49999999999994
20
-25.8590554134204
30
-1E-16
41
1
10
-2.5
20
-25.7568951729796
30
-1E-16
41
1
10
-2.5
20
-25.6695210442987
30
-1E-16
41
1
10
-2.5
20
-25.5982933540586
30
-1E-16
41
1
10
-2.49999999999994
20
-25.5261818034759
30
-1E-16
41
1
10
-2.49999999999994
20
-25.4343867299332
30
-1E-16
41
1
10
-2.49999999999994
20
-25.284028449355
30
-1E-16
41
1
10
-2.5
20
-25.0895715317904
30
-1E-16
41
1
10
-2.49999999999994
20
-24.8865804660961
30
-1E-16
41
1
10
-2.49999999999994
20
-24.7191499291269
30
-1E-16
41
1
10
-2.5
20
-24.5483785892839
30
-1E-16
41
1
10
-2.49999999999994
20
-24.3286812886663
30
-1E-16
41
1
10
-2.49999999999994
20
-24.0552273098675
30
-1E-16
41
1
10
-2.49999999999994
20
-23.8192595747193
30
-1E-16
41
1
10
-2.49999999999994
20
-23.625702822842
30
-1E-16
41
1
10
-2.49999999999994
20
-23.4289695970825
30
-1E-16
41
1
10
-2.5
20
-23.1771173063637
30
-1E-16
41
1
10
-2.5
20
-22.8655281558169
30
-1E-16
41
1
10
-2.49999999999994
20
-22.5446620300357
30
-1E-16
41
1
10
-2.49999999999994
20
-22.2146097450714
30
-1E-16
41
1
10
-2.49999999999994
20
-21.8754567939979
30
-1E-16
41
1
10
-2.49999999999994
20
-21.5853057487131
30
-1E-16
41
1
10
-2.49999999999994
20
-21.348724524242
30
-1E-16
41
1
10
-2.49999999999994
20
-21.1091737057829
30
-1E-16
41
1
10
-2.49999999999994
20
-20.8041728408687
30
-1E-16
41
1
10
-2.49999999999994
20
-20.4293723348014
30
-1E-16
41
1
10
-2.49999999999994
20
-20.1097427976019
30
-1E-16
41
1
10
-2.49999999999994
20
-19.8497084000872
30
-1E-16
41
1
10
-2.49999999999994
20
-19.5867870400026
30
-1E-16
41
1
10
-2.49999999999994
20
-19.2527208742123
30
-1E-16
41
1
10
-2.49999999999994
20
-18.9115004820266
30
-1E-16
41
1
10
-2.49999999999994
20
-18.6342692782274
30
-1E-16
41
1
10
-2.49999999999994
20
-18.3541989021743
30
-1E-16
41
1
10
-2.49999999999994
20
-17.9987810562909
30
-1E-16
41
1
10
-2.49999999999994
20
-17.6363146514327
30
-1E-16
41
1
10
-2.49999999999994
20
-17.342145790273
30
-1E-16
41
1
10
-2.49999999999994
20
-17.0451744942955
30
-1E-16
41
1
10
-2.49999999999994
20
-16.7439793214724
30
-1E-16
41
1
10
-2.49999999999994
20
-16.4386305854399
30
-1E-16
41
1
10
-2.49999999999994
20
-16.2460368243143
30
-1E-16
41
1
10
-2.49999999999994
20
-16.0909280537241
30
-1E-16
41
1
10
-2.49999999999994
20
-15.9351247349383
30
-1E-16
41
1
10
-2.49999999999994
20
-15.7390582874332
30
-1E-16
41
1
10
-2.49999999999994
20
-15.5017057162253
30
-1E-16
41
1
10
-2.49999999999994
20
-15.2622749109486
30
-1E-16
41
1
10
-2.49999999999994
20
-15.0207692194115
30
-1E-16
41
1
10
-2.49999999999994
20
-14.7771909058554
30
-1E-16
41
1
10
-2.49999999999994
20
-14.5315403640059
30
-1E-16
41
1
10
-2.49999999999994
20
-14.2838204496865
30
-1E-16
41
1
10
-2.5
20
-14.0340319983603
30
-1E-16
41
1
10
-2.49999999999994
20
-13.6982347575132
30
-1E-16
41
1
10
-2.49999999999994
20
-13.3582704108557
30
-1E-16
41
1
10
-2.49999999999994
20
-13.0142109423231
30
-1E-16
41
1
10
-2.49999999999994
20
-12.7540926975445
30
-1E-16
41
1
10
-2.49999999999994
20
-12.491909102254
30
-1E-16
41
1
10
-2.49999999999994
20
-12.2276612824087
30
-1E-16
41
1
10
-2.49999999999994
20
-11.9613483314474
30
-1E-16
41
1
10
-2.49999999999994
20
-11.6035237684601
30
-1E-16
41
1
10
-2.49999999999994
20
-11.1510479282636
30
-1E-16
41
1
10
-2.49999999999994
20
-10.6916821947193
30
-1E-16
41
1
10
-2.49999999999994
20
-10.3200777862056
30
-1E-16
41
1
10
-2.49999999999994
20
-10.0392927830108
30
-1E-16
41
1
10
-2.49999999999994
20
-9.75643631256762
30
-1E-16
41
1
10
-2.5
20
-9.47150741663737
30
-1E-16
41
1
10
-2.49999999999994
20
-9.18450458163332
30
-1E-16
41
1
10
-2.49999999999994
20
-8.89542705327116
30
-1E-16
41
1
10
-2.49999999999994
20
-8.60427351086133
30
-1E-16
41
1
10
-2.49999999999994
20
-8.31104332875665
30
-1E-16
41
1
10
-2.49999999999994
20
-8.01573570434201
30
-1E-16
41
1
10
-2.49999999999994
20
-7.71835052760531
30
-1E-16
41
1
10
-2.49999999999994
20
-7.41888792583899
30
-1E-16
41
1
10
-2.49999999999994
20
-7.11734871686417
30
-1E-16
41
1
10
-2.49999999999994
20
-6.81373435160455
30
-1E-16
41
1
10
-2.49999999999994
20
-6.50804761437215
30
-1E-16
41
1
10
-2.49999999999994
20
-6.20029192554162
30
-1E-16
41
1
10
-2.49999999999994
20
-5.9420983893643
30
-1E-16
41
1
10
-2.49999999999994
20
-5.73453666635555
30
-1E-16
41
1
10
-2.49999999999994
20
-5.5262910261637
30
-1E-16
41
1
10
-2.49999999999994
20
-5.2646764075686
30
-1E-16
41
1
10
-2.49999999999994
20
-5.00136826964859
30
-1E-16
41
1
10
-2.49999999999994
20
-4.78973719162451
30
-1E-16
41
1
10
-2.49999999999994
20
-4.5774371918485
30
-1E-16
41
1
10
-2.49999999999994
20
-4.3640968112588
30
-1E-16
41
1
10
-2.49999999999994
20
-4.14981698400791
30
-1E-16
41
1
10
-2.49999999999994
20
-4.01546868863096
30
-1E-16
41
1
10
-2.49999999999994
20
-3.90776230457831
30
-1E-16
41
1
10
-2.5
20
-3.79989568903153
30
-1E-16
41
1
10
-2.49999999999994
20
-3.66474577486338
30
-1E-16
41
1
10
-2.49999999999994
20
-3.50210371592672
30
-1E-16
41
1
10
-2.5
20
-3.33899661229887
30
-1E-16
41
1
10
-2.49999999999994
20
-3.17543128081249
30
-1E-16
41
1
10
-2.5
20
-3.01141672767267
30
-1E-16
41
1
10
-2.49999999999994
20
-2.87436211322455
30
-1E-16
41
1
10
-2.49999999999994
20
-2.76452001856484
30
-1E-16
41
1
10
-2.49999999999994
20
-2.68202546661414
30
-1E-16
41
1
10
-2.49999999999994
20
-2.59942633274224
30
-1E-16
41
1
10
-2.49999999999994
20
-2.51672422226801
30
-1E-16
41
1
10
-2.49999999999994
20
-2.43392090537259
30
-1E-16
41
1
10
-2.49999999999994
20
-2.32339362702302
30
-1E-16
41
1
10
-2.49999999999994
20
-2.21264124345481
30
-1E-16
41
1
10
-2.49999999999994
20
-2.10173190377407
30
-1E-16
41
1
10
-2.49999999999994
20
-1.99070061185216
30
-1E-16
41
1
10
-2.49999999999994
20
-1.87945967457651
30
-1E-16
41
1
10
-2.49999999999994
20
-1.76808196044797
30
-1E-16
41
1
10
-2.49999999999994
20
-1.65659534610089
30
-1E-16
41
1
10
-2.49999999999994
20
-1.54491819828834
30
-1E-16
41
1
10
-2.49999999999994
20
-1.43312830574621
30
-1E-16
41
1
10
-2.49999999999994
20
-1.32124507985105
30
-1E-16
41
1
10
-2.49999999999994
20
-1.18119882266055
30
-1E-16
41
1
10
-2.49999999999994
20
-1.0129186171477
30
-1E-16
41
1
10
-2.49999999999994
20
-0.872498995392078
30
-1E-16
41
1
10
-2.49999999999994
20
-0.760095827222472
30
-1E-16
41
1
10
-2.49999999999994
20
-0.675743919086329
30
-1E-16
41
1
10
-2.49999999999994
20
-0.591356022200131
30
-1E-16
41
1
10
-2.49999999999994
20
-0.506936438011195
30
-1E-16
41
1
10
-2.49999999999994
20
-0.422489242090791
30
-1E-16
41
1
10
-2.49999999999994
20
-0.338019061527291
30
-1E-16
41
1
10
-2.49999999999994
20
-0.253530604877341
30
-1E-16
41
1
10
-2.49999999999994
20
-0.169028167934272
30
-1E-16
41
1
10
-2.49999999999994
20
-0.0845163058477283
30
-1E-16
41
1
10
-2.49999999999994
20
-2.9737635E-09
30
-1E-16
41
1
10
-2.49999999999994
20
0.0845162996800468
30
-1E-16
41
1
10
-2.49999999999994
20
0.169028161239822
30
-1E-16
41
1
10
-2.49999999999994
20
0.253530597556278
30
-1E-16
41
1
10
-2.49999999999994
20
0.338019053908852
30
-1E-16
41
1
10
-2.49999999999994
20
0.422489234806477
30
-1E-16
41
1
10
-2.49999999999994
20
0.506936431545654
30
-1E-16
41
1
10
-2.49999999999994
20
0.591356016553533
30
-1E-16
41
1
10
-2.49999999999994
20
0.675743913418643
30
-1E-16
41
1
10
-2.49999999999994
20
0.760095820637474
30
-1E-16
41
1
10
-2.49999999999994
20
0.872498986914849
30
-1E-16
41
1
10
-2.49999999999994
20
1.01291860933941
30
-1E-16
41
1
10
-2.49999999999994
20
1.18119881783471
30
-1E-16
41
1
10
-2.49999999999994
20
1.32124507363099
30
-1E-16
41
1
10
-2.49999999999994
20
1.43312829673272
30
-1E-16
41
1
10
-2.49999999999994
20
1.54491818810746
30
-1E-16
41
1
10
-2.49999999999994
20
1.65659533844251
30
-1E-16
41
1
10
-2.49999999999994
20
1.76808195565891
30
-1E-16
41
1
10
-2.49999999999994
20
1.87945966995704
30
-1E-16
41
1
10
-2.49999999999994
20
1.9907006034768
30
-1E-16
41
1
10
-2.49999999999994
20
2.10173189222928
30
-1E-16
41
1
10
-2.49999999999994
20
2.21264123208619
30
-1E-16
41
1
10
-2.49999999999994
20
2.32339361988261
30
-1E-16
41
1
10
-2.49999999999994
20
2.4339209014978
30
-1E-16
41
1
10
-2.49999999999994
20
2.51672421834664
30
-1E-16
41
1
10
-2.49999999999994
20
2.5994263263795
30
-1E-16
41
1
10
-2.49999999999994
20
2.68202545651479
30
-1E-16
41
1
10
-2.49999999999994
20
2.76452000553434
30
-1E-16
41
1
10
-2.49999999999994
20
2.87436209926597
30
-1E-16
41
1
10
-2.49999999999994
20
3.01141672008131
30
-1E-16
41
1
10
-2.49999999999994
20
3.17543127927689
30
-1E-16
41
1
10
-2.49999999999994
20
3.33899660464965
30
-1E-16
41
1
10
-2.49999999999994
20
3.50210369883953
30
-1E-16
41
1
10
-2.49999999999994
20
3.66474576021937
30
-1E-16
41
1
10
-2.49999999999994
20
3.79989568244895
30
-1E-16
41
1
10
-2.49999999999994
20
3.90776230194615
30
-1E-16
41
1
10
-2.49999999999994
20
4.0154686864891
30
-1E-16
41
1
10
-2.49999999999994
20
4.14981697452481
30
-1E-16
41
1
10
-2.49999999999994
20
4.36409678795761
30
-1E-16
41
1
10
-2.49999999999994
20
4.57743718277371
30
-1E-16
41
1
10
-2.49999999999994
20
4.78973719244794
30
-1E-16
41
1
10
-2.49999999999994
20
5.00136826160579
30
-1E-16
41
1
10
-2.49999999999994
20
5.2646763781224
30
-1E-16
41
1
10
-2.49999999999994
20
5.52629101970237
30
-1E-16
41
1
10
-2.5
20
5.73453666830341
30
-1E-16
41
1
10
-2.49999999999994
20
5.94209838158557
30
-1E-16
41
1
10
-2.49999999999994
20
6.20029189348725
30
-1E-16
41
1
10
-2.49999999999994
20
6.50804760816206
30
-1E-16
41
1
10
-2.49999999999994
20
6.81373435633816
30
-1E-16
41
1
10
-2.49999999999994
20
7.11734869113025
30
-1E-16
41
1
10
-2.49999999999994
20
7.41888794723957
30
-1E-16
41
1
10
-2.49999999999994
20
7.71835058358695
30
-1E-16
41
1
10
-2.49999999999994
20
8.01573561602433
30
-1E-16
41
1
10
-2.49999999999994
20
8.31104318061551
30
-1E-16
41
1
10
-2.49999999999994
20
8.60427356074339
30
-1E-16
41
1
10
-2.49999999999994
20
8.89542719115693
30
-1E-16
41
1
10
-2.49999999999994
20
9.1845043611271
30
-1E-16
41
1
10
-2.49999999999994
20
9.47150729415071
30
-1E-16
41
1
10
-2.49999999999994
20
9.7564363484619
30
-1E-16
41
1
10
-2.49999999999994
20
10.0392928286736
30
-1E-16
41
1
10
-2.49999999999994
20
10.3200778010583
30
-1E-16
41
1
10
-2.49999999999994
20
10.5987925508876
30
-1E-16
41
1
10
-2.49999999999994
20
10.8754383363526
30
-1E-16
41
1
10
-2.49999999999994
20
11.2415269571056
30
-1E-16
41
1
10
-2.49999999999994
20
11.6035238164173
30
-1E-16
41
1
10
-2.49999999999994
20
11.9613483258762
30
-1E-16
41
1
10
-2.49999999999994
20
12.2276612856809
30
-1E-16
41
1
10
-2.49999999999994
20
12.4919091491304
30
-1E-16
41
1
10
-2.49999999999994
20
12.7540927464655
30
-1E-16
41
1
10
-2.49999999999994
20
13.0142109860464
30
-1E-16
41
1
10
-2.49999999999994
20
13.3582704046987
30
-1E-16
41
1
10
-2.49999999999994
20
13.6982347944475
30
-1E-16
41
1
10
-2.49999999999994
20
14.034031998634
30
-1E-16
41
1
10
-2.49999999999994
20
14.2838204606995
30
-1E-16
41
1
10
-2.5
20
14.5315403886931
30
-1E-16
41
1
10
-2.49999999999994
20
14.7771908994275
30
-1E-16
41
1
10
-2.49999999999994
20
15.0207692449601
30
-1E-16
41
1
10
-2.49999999999994
20
15.2622748554345
30
-1E-16
41
1
10
-2.49999999999994
20
15.501705604915
30
-1E-16
41
1
10
-2.49999999999994
20
15.73905841291
30
-1E-16
41
1
10
-2.49999999999994
20
15.9743322626435
30
-1E-16
41
1
10
-2.49999999999994
20
16.2075239950657
30
-1E-16
41
1
10
-2.5
20
16.4386302461311
30
-1E-16
41
1
10
-2.5
20
16.7439792746615
30
-1E-16
41
1
10
-2.49999999999994
20
17.0451745383014
30
-1E-16
41
1
10
-2.5
20
17.342145790903
30
-1E-16
41
1
10
-2.5
20
17.636314655197
30
-1E-16
41
1
10
-2.49999999999994
20
17.9987810588701
30
-1E-16
41
1
10
-2.5
20
18.3541988970415
30
-1E-16
41
1
10
-2.49999999999994
20
18.634269279738
30
-1E-16
41
1
10
-2.49999999999994
20
18.9115004851851
30
-1E-16
41
1
10
-2.49999999999994
20
19.2527208752522
30
-1E-16
41
1
10
-2.5
20
19.5867870393815
30
-1E-16
41
1
10
-2.49999999999994
20
19.8497084005983
30
-1E-16
41
1
10
-2.49999999999994
20
20.1097428027781
30
-1E-16
41
1
10
-2.49999999999994
20
20.4293723340897
30
-1E-16
41
1
10
-2.49999999999994
20
20.8041728419318
30
-1E-16
41
1
10
-2.5
20
21.1091737088127
30
-1E-16
41
1
10
-2.49999999999994
20
21.3487245268705
30
-1E-16
41
1
10
-2.5
20
21.5853057494763
30
-1E-16
41
1
10
-2.5
20
21.8754567982465
30
-1E-16
41
1
10
-2.5
20
22.2146097463897
30
-1E-16
41
1
10
-2.5
20
22.5446620340323
30
-1E-16
41
1
10
-2.5
20
22.8655281588586
30
-1E-16
41
1
10
-2.5
20
23.1771173076971
30
-1E-16
41
1
10
-2.49999999999994
20
23.4289696038095
30
-1E-16
41
1
10
-2.5
20
23.6257028262786
30
-1E-16
41
1
10
-2.5
20
23.8192595766845
30
-1E-16
41
1
10
-2.5
20
24.055227314874
30
-1E-16
41
1
10
-2.5
20
24.3286812980358
30
-1E-16
41
1
10
-2.5
20
24.5483785868417
30
-1E-16
41
1
10
-2.5
20
24.7191499364504
30
-1E-16
41
1
10
-2.5
20
24.8865804716972
30
-1E-16
41
1
10
-2.5
20
25.0895715372854
30
-1E-16
41
1
10
-2.5
20
25.2840285001251
30
-1E-16
41
1
10
-2.5
20
25.4343865772609
30
-1E-16
41
1
10
-2.5
20
25.5812511874436
30
-1E-16
41
1
10
-2.5
20
25.7228460886287
30
-1E-16
41
1
10
-2.5
20
25.8590558590047
30
-1E-16
41
1
10
-2.49999999999994
20
25.9585066378384
30
-1E-16
41
1
10
-2.5
20
26.0552227938057
30
-1E-16
41
1
10
-2.5
20
26.1491804785364
30
-1E-16
41
1
10
-2.5
20
26.2403534959289
30
-1E-16
41
1
10
-2.5
20
26.3287134281848
30
-1E-16
41
1
10
-2.5
20
26.4142343357678
30
-1E-16
41
1
10
-2.5
20
26.496886760278
30
1E-16
41
1
10
-2.5
20
26.5766397788825
30
1E-16
41
1
10
-2.5
20
26.6790690300398
30
1E-16
41
1
10
-2.5
20
26.7755839801004
30
0
41
1
10
-2.5
20
26.8660318680525
30
0
41
1
10
-2.5
20
26.9308034813115
30
0
41
1
10
-2.5
20
26.9924723817988
30
0
41
1
10
-2.5
20
27.0509995447849
30
0
41
1
10
-2.5
20
27.1063432161342
30
1E-16
41
1
10
-2.5
20
27.1584628619196
30
1E-16
41
1
10
-2.5
20
27.2073128739481
30
1E-16
41
1
10
-2.5
20
27.2680242980374
30
-1E-16
41
1
10
-2.5
20
27.3355116051596
30
-1E-16
41
1
10
-2.5
20
27.391448663995
30
-1E-16
41
1
10
-2.5
20
27.4290397313646
30
-1E-16
41
1
10
-2.5
20
27.4535951682729
30
-1E-16
41
1
10
-2.5
20
27.4744481426487
30
-1E-16
41
1
10
-2.49999999999994
20
27.4915322394785
30
-1E-16
41
1
10
-2.5
20
27.5047766256087
30
-1E-16
41
1
10
-2.5
20
27.5141077922089
30
-1E-16
41
1
10
-2.5
20
27.5194469555196
30
-1E-16
41
1
10
-2.5
20
27.5207122693016
30
-1E-16
41
1
10
-2.5
20
27.5178158074899
30
-1E-16
41
1
10
-2.5
20
27.5121547970371
30
-1E-16
41
1
10
-2.5
20
27.5075058873297
30
-1E-16
41
1
10
-2.5
20
27.5061349906594
30
-1E-16
0
SPLINE
5
11E
100
AcDbEntity
8
SK1
62
256
6
ByLayer
370
18
48
1
60
0
100
AcDbSpline
70
4
71
2
72
6
73
3
40
0
40
0
40
0
40
1
40
1
40
1
41
1
10
-46.7999999999999
20
-26.3937602673102
30
-2E-16
41
1
10
-24.649999999999
20
-26.9499705725249
30
3E-16
41
1
10
-2.49999999999997
20
-27.5061808177903
30
-1E-16
0
SPLINE
5
11F
100
AcDbEntity
8
SK1
62
256
6
ByLayer
370
18
48
1
60
0
100
AcDbSpline
70
4
71
2
72
6
73
3
40
0
40
0
40
0
40
1
40
1
40
1
41
1
10
-2.5
20
27.5061808579049
30
-1E-16
41
1
10
-24.649999999999
20
26.9499706126624
30
3E-16
41
1
10
-46.7999999999999
20
26.3937603074471
30
-2E-16
0
SPLINE
5
120
100
AcDbEntity
8
SK1
62
256
6
ByLayer
370
18
48
1
60
0
100
AcDbSpline
70
4
71
3
72
307
73
303
40
0
40
0
40
0
40
0
40
0.0012883040369413
40
0.0047041374108988
40
0.0081199707848562
40
0.0115358041588136
40
0.0149516375327711
40
0.0183674709067285
40
0.021783304280686
40
0.0251991376546435
40
0.0286149710286009
40
0.0320308044025583
40
0.0354466377765158
40
0.0422783045244307
40
0.0491099712723456
40
0.052525804646303
40
0.0559416380202604
40
0.0593574713942179
40
0.0627733047681754
40
0.0661891381421328
40
0.0696049715160903
40
0.0730208048900477
40
0.0764366382640052
40
0.08326830501192
40
0.0866841383858775
40
0.0900999717598349
40
0.0935158051337924
40
0.0969316385077498
40
0.100347471881707
40
0.103763305255665
40
0.107179138629622
40
0.11059497200358
40
0.114010805377537
40
0.117426638751495
40
0.120842472125452
40
0.122550388812431
40
0.124258305499409
40
0.127674138873367
40
0.131089972247324
40
0.137921638995239
40
0.144753305743154
40
0.148169139117111
40
0.151584972491069
40
0.158416639238984
40
0.165248305986899
40
0.172079972734814
40
0.175495806108771
40
0.178911639482729
40
0.185743306230643
40
0.192574972978558
40
0.199406639726473
40
0.206238306474388
40
0.213069973222303
40
0.219901639970218
40
0.223317473344175
40
0.226733306718133
40
0.233564973466048
40
0.240396640213963
40
0.247228306961878
40
0.250644140335835
40
0.254059973709792
40
0.260891640457707
40
0.267723307205622
40
0.27113914057958
40
0.274554973953537
40
0.281386640701452
40
0.288218307449367
40
0.291634140823324
40
0.295049974197282
40
0.301881640945197
40
0.305297474319154
40
0.308713307693112
40
0.31042122438009
40
0.312129141067069
40
0.315544974441026
40
0.318960807814984
40
0.322376641188941
40
0.325792474562899
40
0.329208307936856
40
0.332624141310814
40
0.336039974684771
40
0.339455808058728
40
0.342871641432686
40
0.349703308180601
40
0.353119141554558
40
0.356534974928516
40
0.359950808302473
40
0.363366641676431
40
0.366782475050388
40
0.370198308424346
40
0.37702997517226
40
0.383861641920175
40
0.387277475294133
40
0.39069330866809
40
0.394109142042048
40
0.397524975416005
40
0.400940808789963
40
0.40435664216392
40
0.407772475537877
40
0.411188308911835
40
0.414604142285792
40
0.41801997565975
40
0.421435809033707
40
0.424851642407665
40
0.428267475781622
40
0.43168330915558
40
0.435099142529537
40
0.438514975903494
40
0.440222892590473
40
0.441930809277452
40
0.44534664265141
40
0.448762476025367
40
0.450470392712346
40
0.452178309399324
40
0.455594142773282
40
0.45730205946026
40
0.459009976147239
40
0.459863934490728
40
0.460717892834218
40
0.462425809521197
40
0.464133726208175
40
0.465841642895154
40
0.467549559582133
40
0.469257476269112
40
0.47096539295609
40
0.47181935129958
40
0.472673309643069
40
0.473527267986558
40
0.474381226330048
40
0.475235184673537
40
0.476089143017026
40
0.477797059704005
40
0.478651018047495
40
0.479504976390984
40
0.481212893077963
40
0.482066851421452
40
0.482920809764941
40
0.48462872645192
40
0.48548268479541
40
0.486336643138899
40
0.488044559825878
40
0.489752476512856
40
0.491460393199835
40
0.492314351543324
40
0.493168309886814
40
0.494022268230303
40
0.494876226573792
40
0.495730184917282
40
0.496584143260771
40
0.497438101604261
40
0.49829205994775
40
0.499146018291239
40
0.499999976634729
40
0.500853934978218
40
0.501707893321707
40
0.502561851665197
40
0.503415810008686
40
0.504269768352175
40
0.505123726695665
40
0.505977685039154
40
0.506831643382644
40
0.507685601726133
40
0.508539560069622
40
0.510247476756601
40
0.51195539344358
40
0.513663310130558
40
0.514517268474048
40
0.515371226817537
40
0.517079143504516
40
0.517933101848005
40
0.518787060191495
40
0.520494976878473
40
0.521348935221963
40
0.522202893565452
40
0.523910810252431
40
0.52476476859592
40
0.525618726939409
40
0.526472685282899
40
0.527326643626388
40
0.528180601969877
40
0.529034560313367
40
0.530742477000346
40
0.532450393687324
40
0.534158310374303
40
0.535866227061282
40
0.53757414374826
40
0.539282060435239
40
0.540136018778729
40
0.540989977122218
40
0.542697893809197
40
0.544405810496175
40
0.547821643870133
40
0.549529560557112
40
0.55123747724409
40
0.554653310618048
40
0.558069143992005
40
0.559777060678984
40
0.561484977365963
40
0.56490081073992
40
0.568316644113878
40
0.571732477487835
40
0.575148310861792
40
0.57856414423575
40
0.581979977609707
40
0.585395810983665
40
0.588811644357622
40
0.59222747773158
40
0.595643311105537
40
0.599059144479495
40
0.602474977853452
40
0.60589081122741
40
0.609306644601367
40
0.612722477975324
40
0.616138311349282
40
0.619554144723239
40
0.622969978097197
40
0.629801644845112
40
0.633217478219069
40
0.636633311593027
40
0.640049144966984
40
0.643464978340942
40
0.646880811714899
40
0.650296645088856
40
0.657128311836771
40
0.660544145210729
40
0.663959978584686
40
0.667375811958644
40
0.670791645332601
40
0.674207478706559
40
0.677623312080516
40
0.681039145454473
40
0.684454978828431
40
0.687870812202388
40
0.691286645576346
40
0.694702478950303
40
0.698118312324261
40
0.704949979072175
40
0.708365812446133
40
0.71178164582009
40
0.718613312568005
40
0.72544497931592
40
0.728860812689877
40
0.732276646063835
40
0.73910831281175
40
0.745939979559665
40
0.749355812933622
40
0.75277164630758
40
0.759603313055495
40
0.766434979803409
40
0.773266646551324
40
0.776682479925282
40
0.780098313299239
40
0.786929980047154
40
0.793761646795069
40
0.800593313542984
40
0.807424980290899
40
0.814256647038814
40
0.821088313786729
40
0.824504147160686
40
0.827919980534644
40
0.834751647282559
40
0.841583314030473
40
0.848414980778388
40
0.851830814152346
40
0.855246647526303
40
0.862078314274218
40
0.868909981022133
40
0.87232581439609
40
0.875741647770048
40
0.882573314517963
40
0.88598914789192
40
0.889404981265878
40
0.892820814639835
40
0.896236648013793
40
0.89965248138775
40
0.903068314761707
40
0.906484148135665
40
0.909899981509622
40
0.91331581488358
40
0.916731648257537
40
0.923563315005452
40
0.92697914837941
40
0.930394981753367
40
0.933810815127325
40
0.937226648501282
40
0.940642481875239
40
0.944058315249197
40
0.947474148623154
40
0.950889981997112
40
0.957721648745026
40
0.964553315492941
40
0.967969148866899
40
0.971384982240856
40
0.974800815614814
40
0.978216648988771
40
0.981632482362729
40
0.985048315736686
40
0.988464149110644
40
0.991879982484601
40
0.995295815858558
40
0.998711649232516
40
1
40
1
40
1
40
1
41
1
10
-46.7999999999999
20
-26.3937389225536
30
-2E-16
41
1
10
-46.7999999999999
20
-26.3950594655279
30
-2E-16
41
1
10
-46.7999999999999
20
-26.3995184401166
30
-2E-16
41
1
10
-46.7999999999999
20
-26.4049465213072
30
-2E-16
41
1
10
-46.7999999999999
20
-26.4077241817032
30
-2E-16
41
1
10
-46.7999999999999
20
-26.4065097812844
30
-2E-16
41
1
10
-46.7999999999999
20
-26.4013806925839
30
-2E-16
41
1
10
-46.7999999999999
20
-26.3924095772421
30
-2E-16
41
1
10
-46.7999999999999
20
-26.3796666810734
30
-2E-16
41
1
10
-46.7999999999999
20
-26.3632177076783
30
-2E-16
41
1
10
-46.7999999999999
20
-26.3431264444613
30
-2E-16
41
1
10
-46.7999999999999
20
-26.3194531047685
30
-2E-16
41
1
10
-46.7999999999999
20
-26.2831057898449
30
-2E-16
41
1
10
-46.7999999999999
20
-26.2291931100503
30
-2E-16
41
1
10
-46.7999999999999
20
-26.1640888628635
30
-2E-16
41
1
10
-46.7999999999999
20
-26.1052521520729
30
0
41
1
10
-46.7999999999999
20
-26.0579887905965
30
0
41
1
10
-46.7999999999999
20
-26.0075411501124
30
0
41
1
10
-46.7999999999999
20
-25.9539520524798
30
0
41
1
10
-46.7999999999999
20
-25.8972596743867
30
0
41
1
10
-46.7999999999999
20
-25.8375026707194
30
0
41
1
10
-46.7999999999999
20
-25.7747184891248
30
0
41
1
10
-46.7999999999999
20
-25.6868435181955
30
0
41
1
10
-46.7999999999999
20
-25.5935790481261
30
0
41
1
10
-46.7999999999999
20
-25.4939882551942
30
0
41
1
10
-46.7999999999999
20
-25.4165702144947
30
0
41
1
10
-46.7999999999999
20
-25.3363180183904
30
-2E-16
41
1
10
-46.7999999999999
20
-25.2532602572421
30
-2E-16
41
1
10
-46.7999999999999
20
-25.1674263270686
30
-2E-16
41
1
10
-46.7999999999999
20
-25.078840846753
30
-2E-16
41
1
10
-46.7999999999999
20
-24.9875303375032
30
-2E-16
41
1
10
-46.7999999999999
20
-24.8935214266578
30
-2E-16
41
1
10
-46.7999999999999
20
-24.7968359305099
30
-2E-16
41
1
10
-46.7999999999999
20
-24.6974986639861
30
-2E-16
41
1
10
-46.7999999999999
20
-24.6126465048792
30
-2E-16
41
1
10
-46.7999999999999
20
-24.5432464906717
30
-2E-16
41
1
10
-46.7999999999999
20
-24.4729784939732
30
-2E-16
41
1
10
-46.7999999999999
20
-24.3838015951593
30
-2E-16
41
1
10
-46.7999999999999
20
-24.2372526165609
30
-2E-16
41
1
10
-46.7999999999999
20
-24.0482725027174
30
-2E-16
41
1
10
-46.7999999999999
20
-23.8509558936155
30
-2E-16
41
1
10
-46.7999999999999
20
-23.6876785906568
30
-2E-16
41
1
10
-46.7999999999999
20
-23.5211247275232
30
-2E-16
41
1
10
-46.7999999999999
20
-23.3074726934439
30
-2E-16
41
1
10
-46.7999999999999
20
-23.0411451496901
30
7E-16
41
1
10
-46.7999999999999
20
-22.8116032876094
30
7E-16
41
1
10
-46.7999999999999
20
-22.6227365307309
30
7E-16
41
1
10
-46.7999999999999
20
-22.430759124426
30
7E-16
41
1
10
-46.7999999999999
20
-22.1857080904646
30
7E-16
41
1
10
-46.7999999999999
20
-21.8821131555324
30
7E-16
41
1
10
-46.7999999999999
20
-21.5694639835235
30
7E-16
41
1
10
-46.7999999999999
20
-21.2478549102087
30
7E-16
41
1
10
-46.7999999999999
20
-20.9173756105157
30
7E-16
41
1
10
-46.7999999999999
20
-20.6350195683323
30
7E-16
41
1
10
-46.7999999999999
20
-20.4041184350775
30
7E-16
41
1
10
-46.7999999999999
20
-20.1703249889741
30
7E-16
41
1
10
-46.7999999999999
20
-19.8735485821408
30
7E-16
41
1
10
-46.7999999999999
20
-19.5084001184169
30
7E-16
41
1
10
-46.7999999999999
20
-19.1974433350662
30
7E-16
41
1
10
-46.7999999999999
20
-18.9437303704574
30
7E-16
41
1
10
-46.7999999999999
20
-18.687219888641
30
7E-16
41
1
10
-46.7999999999999
20
-18.362316331505
30
7E-16
41
1
10
-46.7999999999999
20
-18.0305055709471
30
7E-16
41
1
10
-46.7999999999999
20
-17.7601375272069
30
7E-16
41
1
10
-46.7999999999999
20
-17.4870326281007
30
7E-16
41
1
10
-46.7999999999999
20
-17.1415784247604
30
7E-16
41
1
10
-46.7999999999999
20
-16.7893526547043
30
7E-16
41
1
10
-46.7999999999999
20
-16.5026612295204
30
7E-16
41
1
10
-46.7999999999999
20
-16.2132866640401
30
7E-16
41
1
10
-46.7999999999999
20
-15.9214100558918
30
7E-16
41
1
10
-46.7999999999999
20
-15.6240006368157
30
7E-16
41
1
10
-46.7999999999999
20
-15.4370522522143
30
7E-16
41
1
10
-46.7999999999999
20
-15.28602382984
30
7E-16
41
1
10
-46.7999999999999
20
-15.1343352185844
30
7E-16
41
1
10
-46.7999999999999
20
-14.9440981523704
30
7E-16
41
1
10
-46.7999999999999
20
-14.7135143004554
30
7E-16
41
1
10
-46.7999999999999
20
-14.4809640927087
30
7E-16
41
1
10
-46.7999999999999
20
-14.2464507858614
30
7E-16
41
1
10
-46.7999999999999
20
-14.009984488545
30
7E-16
41
1
10
-46.7999999999999
20
-13.7715679648216
30
7E-16
41
1
10
-46.7999999999999
20
-13.5312064646771
30
7E-16
41
1
10
-46.7999999999999
20
-13.288908575541
30
7E-16
41
1
10
-46.7999999999999
20
-12.9626507143561
30
7E-16
41
1
10
-46.7999999999999
20
-12.6344409590498
30
7E-16
41
1
10
-46.7999999999999
20
-12.3004440719815
30
7E-16
41
1
10
-46.7999999999999
20
-12.0485415470732
30
7E-16
41
1
10
-46.7999999999999
20
-11.7947359709946
30
7E-16
41
1
10
-46.7999999999999
20
-11.5390341996307
30
7E-16
41
1
10
-46.7999999999999
20
-11.2814445510785
30
7E-16
41
1
10
-46.7999999999999
20
-10.934766834136
30
7E-16
41
1
10
-46.7999999999999
20
-10.4984187798349
30
7E-16
41
1
10
-46.7999999999999
20
-10.0558459740262
30
7E-16
41
1
10
-46.7999999999999
20
-9.69666715624223
30
7E-16
41
1
10
-46.7999999999999
20
-9.42608146076122
30
7E-16
41
1
10
-46.7999999999999
20
-9.1536783112208
30
7E-16
41
1
10
-46.7999999999999
20
-8.87947089935207
30
7E-16
41
1
10
-46.7999999999999
20
-8.60347202441497
30
7E-16
41
1
10
-46.7999999999999
20
-8.3256967195303
30
7E-16
41
1
10
-46.7999999999999
20
-8.04616134412484
30
7E-16
41
1
10
-46.7999999999999
20
-7.76488385459561
30
7E-16
41
1
10
-46.7999999999999
20
-7.48188420282091
30
7E-16
41
1
10
-46.7999999999999
20
-7.19718434586193
30
7E-16
41
1
10
-46.7999999999999
20
-6.91080932637593
30
7E-16
41
1
10
-46.7999999999999
20
-6.622787153037
30
7E-16
41
1
10
-46.7999999999999
20
-6.33314809321138
30
7E-16
41
1
10
-46.7999999999999
20
-6.04192837587701
30
7E-16
41
1
10
-46.7999999999999
20
-5.74916634577852
30
7E-16
41
1
10
-46.7999999999999
20
-5.50455842781798
30
7E-16
41
1
10
-46.7999999999999
20
-5.30698795114367
30
7E-16
41
1
10
-46.7999999999999
20
-5.10896425509631
30
7E-16
41
1
10
-46.7999999999999
20
-4.86210998685607
30
7E-16
41
1
10
-46.7999999999999
20
-4.61410950054287
30
7E-16
41
1
10
-46.7999999999999
20
-4.41377363153026
30
7E-16
41
1
10
-46.7999999999999
20
-4.2130607487872
30
7E-16
41
1
10
-46.7999999999999
20
-4.01407320205541
30
7E-16
41
1
10
-46.7999999999999
20
-3.81214228534719
30
7E-16
41
1
10
-46.7999999999999
20
-3.6866488419891
30
7E-16
41
1
10
-46.7999999999999
20
-3.58538042770658
30
7E-16
41
1
10
-46.7999999999999
20
-3.48404260664447
30
7E-16
41
1
10
-46.7999999999999
20
-3.35820726744203
30
7E-16
41
1
10
-46.7999999999999
20
-3.20645090100771
30
7E-16
41
1
10
-46.7999999999999
20
-3.05450136741507
30
7E-16
41
1
10
-46.7999999999999
20
-2.90237261804765
30
7E-16
41
1
10
-46.7999999999999
20
-2.75008141374229
30
7E-16
41
1
10
-46.7999999999999
20
-2.62353063115774
30
7E-16
41
1
10
-46.7999999999999
20
-2.52133342108166
30
7E-16
41
1
10
-46.7999999999999
20
-2.44503927940085
30
7E-16
41
1
10
-46.7999999999999
20
-2.3687213422848
30
7E-16
41
1
10
-46.7999999999999
20
-2.29238050761501
30
7E-16
41
1
10
-46.7999999999999
20
-2.21601237541182
30
7E-16
41
1
10
-46.7999999999999
20
-2.11363855078119
30
7E-16
41
1
10
-46.7999999999999
20
-2.01284827062042
30
7E-16
41
1
10
-46.7999999999999
20
-1.91037865662702
30
7E-16
41
1
10
-46.7999999999999
20
-1.80790531000531
30
7E-16
41
1
10
-46.7999999999999
20
-1.70711256984478
30
7E-16
41
1
10
-46.7999999999999
20
-1.6045774318271
30
7E-16
41
1
10
-46.7999999999999
20
-1.50205128730929
30
7E-16
41
1
10
-46.7999999999999
20
-1.40129776039692
30
7E-16
41
1
10
-46.7999999999999
20
-1.29873779453155
30
7E-16
41
1
10
-46.7999999999999
20
-1.19620014128841
30
7E-16
41
1
10
-46.7999999999999
20
-1.06942542909602
30
7E-16
41
1
10
-46.7999999999999
20
-0.916562722132852
30
7E-16
41
1
10
-46.7999999999999
20
-0.789831382942964
30
7E-16
41
1
10
-46.7999999999999
20
-0.687306419565971
30
7E-16
41
1
10
-46.7999999999999
20
-0.610920675348439
30
7E-16
41
1
10
-46.7999999999999
20
-0.534534760307764
30
7E-16
41
1
10
-46.7999999999999
20
-0.458151993845604
30
7E-16
41
1
10
-46.7999999999999
20
-0.381785837912474
30
7E-16
41
1
10
-46.7999999999999
20
-0.305424650134711
30
7E-16
41
1
10
-46.7999999999999
20
-0.229059014473165
30
7E-16
41
1
10
-46.7999999999999
20
-0.152702860966684
30
7E-16
41
1
10
-46.7999999999999
20
-0.076356355661062
30
7E-16
41
1
10
-46.7999999999999
20
-2.80732024E-08
30
7E-16
41
1
10
-46.7999999999999
20
0.0763563105774381
30
7E-16
41
1
10
-46.7999999999999
20
0.152702843052936
30
7E-16
41
1
10
-46.7999999999999
20
0.229059030613598
30
7E-16
41
1
10
-46.7999999999999
20
0.305424686924255
30
7E-16
41
1
10
-46.7999999999999
20
0.38178586307771
30
7E-16
41
1
10
-46.7999999999999
20
0.458151977723816
30
7E-16
41
1
10
-46.7999999999999
20
0.534534693051597
30
7E-16
41
1
10
-46.7999999999999
20
0.610920589347273
30
7E-16
41
1
10
-46.7999999999999
20
0.68730636387329
30
7E-16
41
1
10
-46.7999999999999
20
0.789831419581219
30
7E-16
41
1
10
-46.7999999999999
20
0.916562784856836
30
7E-16
41
1
10
-46.7999999999999
20
1.06942535695816
30
7E-16
41
1
10
-46.7999999999999
20
1.19620002438899
30
7E-16
41
1
10
-46.7999999999999
20
1.29873778818728
30
7E-16
41
1
10
-46.7999999999999
20
1.40129786220385
30
7E-16
41
1
10
-46.7999999999999
20
1.50205137220064
30
7E-16
41
1
10
-46.7999999999999
20
1.60457738401556
30
7E-16
41
1
10
-46.7999999999999
20
1.70711241828641
30
7E-16
41
1
10
-46.7999999999999
20
1.80790519746154
30
7E-16
41
1
10
-46.7999999999999
20
1.91037868910027
30
7E-16
41
1
10
-46.7999999999999
20
2.01284840665636
30
7E-16
41
1
10
-46.7999999999999
20
2.11363864625321
30
7E-16
41
1
10
-46.7999999999999
20
2.21601232318562
30
7E-16
41
1
10
-46.7999999999999
20
2.29238035464516
30
7E-16
41
1
10
-46.7999999999999
20
2.36872116745508
30
7E-16
41
1
10
-46.7999999999999
20
2.44503916247595
30
7E-16
41
1
10
-46.7999999999999
20
2.52133341402541
30
7E-16
41
1
10
-46.7999999999999
20
2.62353075560301
30
7E-16
41
1
10
-46.7999999999999
20
2.75008154091458
30
7E-16
41
1
10
-46.7999999999999
20
2.90237254212099
30
7E-16
41
1
10
-46.7999999999999
20
3.05450118032692
30
7E-16
41
1
10
-46.7999999999999
20
3.20645087454699
30
7E-16
41
1
10
-46.7999999999999
20
3.35820741865732
30
7E-16
41
1
10
-46.7999999999999
20
3.48404272537243
30
7E-16
41
1
10
-46.7999999999999
20
3.58538042142962
30
7E-16
41
1
10
-46.7999999999999
20
3.68664870804329
30
7E-16
41
1
10
-46.7999999999999
20
3.81214209897183
30
7E-16
41
1
10
-46.7999999999999
20
4.01407322556273
30
7E-16
41
1
10
-46.7999999999999
20
4.21306090369291
30
7E-16
41
1
10
-46.7999999999999
20
4.41377359776476
30
7E-16
41
1
10
-46.7999999999999
20
4.61410932418949
30
7E-16
41
1
10
-46.7999999999999
20
4.86210999380617
30
7E-16
41
1
10
-46.7999999999999
20
5.10896440271242
30
7E-16
41
1
10
-46.7999999999999
20
5.30698791061079
30
7E-16
41
1
10
-46.7999999999999
20
5.50455825405029
30
7E-16
41
1
10
-46.7999999999999
20
5.74916632270845
30
7E-16
41
1
10
-46.7999999999999
20
6.04192849679629
30
7E-16
41
1
10
-46.7999999999999
20
6.33314802823858
30
7E-16
41
1
10
-46.7999999999999
20
6.62278719976098
30
7E-16
41
1
10
-46.7999999999999
20
6.91080958282794
30
7E-16
41
1
10
-46.7999999999999
20
7.19718401656112
30
7E-16
41
1
10
-46.7999999999999
20
7.48188354614015
30
7E-16
41
1
10
-46.7999999999999
20
7.76488418006787
30
7E-16
41
1
10
-46.7999999999999
20
8.0461621387675
30
7E-16
41
1
10
-46.7999999999999
20
8.32569604592521
30
7E-16
41
1
10
-46.7999999999999
20
8.60347117534141
30
7E-16
41
1
10
-46.7999999999999
20
8.87947149804475
30
7E-16
41
1
10
-46.7999999999999
20
9.15367874030954
30
7E-16
41
1
10
-46.7999999999999
20
9.42608142898106
30
7E-16
41
1
10
-46.7999999999999
20
9.69666702608521
30
7E-16
41
1
10
-46.7999999999999
20
9.96542491303109
30
7E-16
41
1
10
-46.7999999999999
20
10.232343426472
30
7E-16
41
1
10
-46.7999999999999
20
10.586566157494
30
7E-16
41
1
10
-46.7999999999999
20
10.9347667406994
30
7E-16
41
1
10
-46.7999999999999
20
11.2814444878531
30
7E-16
41
1
10
-46.7999999999999
20
11.5390343183574
30
7E-16
41
1
10
-46.7999999999999
20
11.7947361066789
30
7E-16
41
1
10
-46.7999999999999
20
12.0485415833541
30
7E-16
41
1
10
-46.7999999999999
20
12.3004440311799
30
7E-16
41
1
10
-46.7999999999999
20
12.6344409449825
30
7E-16
41
1
10
-46.7999999999999
20
12.9626507598827
30
7E-16
41
1
10
-46.7999999999999
20
13.2889085465965
30
7E-16
41
1
10
-46.7999999999999
20
13.5312065194643
30
7E-16
41
1
10
-46.7999999999999
20
13.7715679573404
30
7E-16
41
1
10
-46.7999999999999
20
14.0099844817144
30
7E-16
41
1
10
-46.7999999999999
20
14.246450720846
30
7E-16
41
1
10
-46.7999999999999
20
14.4809638211463
30
7E-16
41
1
10
-46.7999999999999
20
14.7135145143937
30
7E-16
41
1
10
-46.7999999999999
20
14.9440989510647
30
7E-16
41
1
10
-46.7999999999999
20
15.1727131739385
30
7E-16
41
1
10
-46.7999999999999
20
15.3993479391742
30
7E-16
41
1
10
-46.7999999999999
20
15.6239999053158
30
7E-16
41
1
10
-46.7999999999999
20
15.9214104773833
30
7E-16
41
1
10
-46.7999999999999
20
16.2132867359671
30
7E-16
41
1
10
-46.7999999999999
20
16.5026611888573
30
7E-16
41
1
10
-46.7999999999999
20
16.7893526613563
30
7E-16
41
1
10
-46.7999999999999
20
17.1415784199831
30
7E-16
41
1
10
-46.7999999999999
20
17.4870326238008
30
7E-16
41
1
10
-46.7999999999999
20
17.7601375367851
30
7E-16
41
1
10
-46.7999999999999
20
18.0305055738421
30
7E-16
41
1
10
-46.7999999999999
20
18.3623163297431
30
7E-16
41
1
10
-46.7999999999999
20
18.6872198879946
30
7E-16
41
1
10
-46.7999999999999
20
18.9437303760813
30
7E-16
41
1
10
-46.7999999999999
20
19.1974433400249
30
7E-16
41
1
10
-46.7999999999999
20
19.5084001148029
30
7E-16
41
1
10
-46.7999999999999
20
19.8735485854937
30
7E-16
41
1
10
-46.7999999999999
20
20.1703249928589
30
7E-16
41
1
10
-46.7999999999999
20
20.4041184359554
30
7E-16
41
1
10
-46.7999999999999
20
20.6350195698474
30
7E-16
41
1
10
-46.7999999999999
20
20.9173756153364
30
7E-16
41
1
10
-46.7999999999999
20
21.2478549114363
30
7E-16
41
1
10
-46.7999999999999
20
21.5694639882747
30
7E-16
41
1
10
-46.7999999999999
20
21.8821131574231
30
7E-16
41
1
10
-46.7999999999999
20
22.1857080938538
30
7E-16
41
1
10
-46.7999999999999
20
22.430759131675
30
7E-16
41
1
10
-46.7999999999999
20
22.6227365313406
30
7E-16
41
1
10
-46.7999999999999
20
22.811603290218
30
7E-16
41
1
10
-46.7999999999999
20
23.0411451576491
30
7E-16
41
1
10
-46.7999999999999
20
23.3074726991927
30
-2E-16
41
1
10
-46.7999999999999
20
23.5211247254417
30
-2E-16
41
1
10
-46.7999999999999
20
23.6876786019557
30
-2E-16
41
1
10
-46.7999999999999
20
23.850955898421
30
-2E-16
41
1
10
-46.7999999999999
20
24.0482725228686
30
-2E-16
41
1
10
-46.7999999999999
20
24.2372525971634
30
-2E-16
41
1
10
-46.7999999999999
20
24.3838015939208
30
-2E-16
41
1
10
-46.7999999999999
20
24.5269227085665
30
-2E-16
41
1
10
-46.7999999999999
20
24.6641535645997
30
-2E-16
41
1
10
-46.7999999999999
20
24.7968362527739
30
-2E-16
41
1
10
-46.7999999999999
20
24.8935210874343
30
-2E-16
41
1
10
-46.7999999999999
20
24.9875302738737
30
-2E-16
41
1
10
-46.7999999999999
20
25.0788408868142
30
-2E-16
41
1
10
-46.7999999999999
20
25.1674263269857
30
-2E-16
41
1
10
-46.7999999999999
20
25.253260222017
30
-2E-16
41
1
10
-46.7999999999999
20
25.3363180229216
30
-2E-16
41
1
10
-46.7999999999999
20
25.4165702112604
30
0
41
1
10
-46.7999999999999
20
25.4939882216235
30
0
41
1
10
-46.7999999999999
20
25.5935790625544
30
0
41
1
10
-46.7999999999999
20
25.6868434692657
30
0
41
1
10
-46.7999999999999
20
25.7747185038326
30
0
41
1
10
-46.7999999999999
20
25.8375026350057
30
0
41
1
10
-46.7999999999999
20
25.8972596671494
30
0
41
1
10
-46.7999999999999
20
25.9539520563292
30
0
41
1
10
-46.7999999999999
20
26.0075410833254
30
0
41
1
10
-46.7999999999999
20
26.0579887211792
30
0
41
1
10
-46.7999999999999
20
26.1052520927383
30
0
41
1
10
-46.7999999999999
20
26.1640888761727
30
-2E-16
41
1
10
-46.7999999999999
20
26.2291930886236
30
-2E-16
41
1
10
-46.7999999999999
20
26.2831057174253
30
-2E-16
41
1
10
-46.7999999999999
20
26.3194531526336
30
-2E-16
41
1
10
-46.7999999999999
20
26.3431264926158
30
-2E-16
41
1
10
-46.7999999999999
20
26.3632177086405
30
-2E-16
41
1
10
-46.7999999999999
20
26.3796666797908
30
-2E-16
41
1
10
-46.7999999999999
20
26.392409620098
30
-2E-16
41
1
10
-46.7999999999999
20
26.4013807127484
30
-2E-16
41
1
10
-46.7999999999999
20
26.4065097228092
30
-2E-16
41
1
10
-46.7999999999999
20
26.4077241928713
30
-2E-16
41
1
10
-46.7999999999999
20
26.4049466654271
30
-2E-16
41
1
10
-46.7999999999999
20
26.3995185095863
30
-2E-16
41
1
10
-46.8
20
26.3950594980528
30
-2E-16
41
1
10
-46.7999999999999
20
26.393738904465
30
-2E-16
0
SPLINE
5
121
100
AcDbEntity
8
SK1
62
256
6
ByLayer
370
18
48
1
60
0
100
AcDbSpline
70
4
71
3
72
301
73
297
40
0
40
0
40
0
40
0
40
0.0027619400342381
40
0.0062389821899564
40
0.0097160243456746
40
0.0131930665013929
40
0.0166701086571111
40
0.0201471508128293
40
0.0236241929685476
40
0.0271012351242658
40
0.0340553194357023
40
0.0410094037471388
40
0.044486445902857
40
0.0479634880585752
40
0.0514405302142935
40
0.0549175723700117
40
0.0583946145257299
40
0.0618716566814482
40
0.0653486988371664
40
0.0688257409928847
40
0.0757798253043211
40
0.0792568674600394
40
0.0827339096157576
40
0.0862109517714758
40
0.0896879939271941
40
0.0931650360829123
40
0.0966420782386306
40
0.100119120394349
40
0.103596162550067
40
0.107073204705785
40
0.110550246861503
40
0.114027289017222
40
0.115765810095081
40
0.11750433117294
40
0.120981373328658
40
0.124458415484376
40
0.131412499795813
40
0.138366584107249
40
0.141843626262968
40
0.145320668418686
40
0.152274752730122
40
0.159228837041559
40
0.166182921352995
40
0.169659963508714
40
0.173137005664432
40
0.180091089975868
40
0.187045174287305
40
0.193999258598741
40
0.200953342910178
40
0.207907427221614
40
0.214861511533051
40
0.218338553688769
40
0.221815595844487
40
0.228769680155924
40
0.23572376446736
40
0.242677848778797
40
0.246154890934515
40
0.249631933090233
40
0.256586017401669
40
0.263540101713106
40
0.267017143868824
40
0.270494186024542
40
0.277448270335979
40
0.284402354647415
40
0.287879396803134
40
0.291356438958852
40
0.298310523270288
40
0.301787565426006
40
0.305264607581725
40
0.307003128659584
40
0.308741649737443
40
0.312218691893161
40
0.31569573404888
40
0.319172776204598
40
0.322649818360316
40
0.326126860516034
40
0.329603902671752
40
0.333080944827471
40
0.336557986983189
40
0.340035029138907
40
0.346989113450344
40
0.350466155606062
40
0.35394319776178
40
0.357420239917498
40
0.360897282073217
40
0.364374324228935
40
0.367851366384653
40
0.37480545069609
40
0.381759535007526
40
0.385236577163244
40
0.388713619318962
40
0.392190661474681
40
0.395667703630399
40
0.399144745786117
40
0.402621787941835
40
0.406098830097554
40
0.409575872253272
40
0.41305291440899
40
0.416529956564708
40
0.420006998720427
40
0.423484040876145
40
0.426961083031863
40
0.430438125187581
40
0.433915167343299
40
0.437392209499018
40
0.439130730576877
40
0.440869251654736
40
0.444346293810454
40
0.447823335966173
40
0.449561857044032
40
0.451300378121891
40
0.454777420277609
40
0.456515941355468
40
0.458254462433327
40
0.459123722972257
40
0.459992983511186
40
0.461731504589045
40
0.463470025666904
40
0.465208546744764
40
0.466947067822623
40
0.468685588900482
40
0.470424109978341
40
0.471293370517271
40
0.4721626310562
40
0.47303189159513
40
0.473901152134059
40
0.474770412672989
40
0.475639673211918
40
0.477378194289778
40
0.478247454828707
40
0.479116715367637
40
0.480855236445496
40
0.481724496984425
40
0.482593757523355
40
0.484332278601214
40
0.485201539140144
40
0.486070799679073
40
0.487809320756932
40
0.489547841834791
40
0.49128636291265
40
0.49215562345158
40
0.49302488399051
40
0.493894144529439
40
0.494763405068369
40
0.495632665607298
40
0.496501926146228
40
0.497371186685157
40
0.498240447224087
40
0.499109707763017
40
0.499978968301946
40
0.500848228840876
40
0.501717489379805
40
0.502586749918735
40
0.503456010457664
40
0.504325270996594
40
0.505194531535523
40
0.506063792074453
40
0.506933052613383
40
0.507802313152312
40
0.508671573691242
40
0.510410094769101
40
0.51214861584696
40
0.513887136924819
40
0.514756397463749
40
0.515625658002678
40
0.517364179080537
40
0.518233439619467
40
0.519102700158396
40
0.520841221236255
40
0.521710481775185
40
0.522579742314115
40
0.524318263391974
40
0.525187523930903
40
0.526056784469833
40
0.526926045008762
40
0.527795305547692
40
0.528664566086621
40
0.529533826625551
40
0.53127234770341
40
0.533010868781269
40
0.534749389859128
40
0.536487910936988
40
0.538226432014847
40
0.539964953092706
40
0.540834213631635
40
0.541703474170565
40
0.543441995248424
40
0.545180516326283
40
0.548657558482001
40
0.55039607955986
40
0.55213460063772
40
0.555611642793438
40
0.559088684949156
40
0.560827206027015
40
0.562565727104874
40
0.566042769260593
40
0.569519811416311
40
0.572996853572029
40
0.576473895727747
40
0.579950937883466
40
0.583427980039184
40
0.586905022194902
40
0.59038206435062
40
0.593859106506338
40
0.597336148662057
40
0.600813190817775
40
0.604290232973493
40
0.607767275129211
40
0.61124431728493
40
0.614721359440648
40
0.618198401596366
40
0.621675443752084
40
0.625152485907803
40
0.632106570219239
40
0.635583612374957
40
0.639060654530676
40
0.642537696686394
40
0.646014738842112
40
0.64949178099783
40
0.652968823153549
40
0.659922907464985
40
0.663399949620703
40
0.666876991776421
40
0.67035403393214
40
0.673831076087858
40
0.677308118243576
40
0.680785160399294
40
0.684262202555013
40
0.687739244710731
40
0.691216286866449
40
0.694693329022167
40
0.698170371177886
40
0.701647413333604
40
0.70860149764504
40
0.712078539800759
40
0.715555581956477
40
0.722509666267913
40
0.72946375057935
40
0.732940792735068
40
0.736417834890786
40
0.743371919202223
40
0.750326003513659
40
0.753803045669377
40
0.757280087825096
40
0.764234172136532
40
0.771188256447969
40
0.778142340759405
40
0.781619382915123
40
0.785096425070842
40
0.792050509382278
40
0.799004593693714
40
0.805958678005151
40
0.812912762316587
40
0.819866846628024
40
0.82682093093946
40
0.830297973095179
40
0.833775015250897
40
0.840729099562333
40
0.84768318387377
40
0.854637268185206
40
0.858114310340924
40
0.861591352496643
40
0.868545436808079
40
0.875499521119516
40
0.878976563275234
40
0.882453605430952
40
0.889407689742389
40
0.892884731898107
40
0.896361774053825
40
0.899838816209543
40
0.903315858365262
40
0.90679290052098
40
0.910269942676698
40
0.913746984832416
40
0.917224026988135
40
0.920701069143853
40
0.924178111299571
40
0.931132195611007
40
0.934609237766726
40
0.938086279922444
40
0.941563322078162
40
0.94504036423388
40
0.948517406389599
40
0.951994448545317
40
0.955471490701035
40
0.958948532856753
40
0.96590261716819
40
0.972856701479626
40
0.976333743635345
40
0.979810785791063
40
0.983287827946781
40
0.986764870102499
40
0.990241912258217
40
0.993718954413936
40
0.997195996569654
40
1
40
1
40
1
40
1
41
1
10
-2.29503997793933
20
-27.3251859067471
30
-1E-16
41
1
10
-2.2950399779393
20
-27.3251757679916
30
-1E-16
41
1
10
-2.29503997793927
20
-27.32417548097
30
-1E-16
41
1
10
-2.2950399779393
20
-27.319236545434
30
-1E-16
41
1
10
-2.2950399779393
20
-27.309968420024
30
-1E-16
41
1
10
-2.2950399779393
20
-27.2968118977756
30
-1E-16
41
1
10
-2.2950399779393
20
-27.2798390211927
30
-1E-16
41
1
10
-2.2950399779393
20
-27.2591194067692
30
-1E-16
41
1
10
-2.2950399779393
20
-27.2347184649703
30
-1E-16
41
1
10
-2.2950399779393
20
-27.1973453109891
30
-1E-16
41
1
10
-2.2950399779393
20
-27.1417627231677
30
-1E-16
41
1
10
-2.2950399779393
20
-27.074692746873
30
-1E-16
41
1
10
-2.2950399779393
20
-27.0143097024856
30
1E-16
41
1
10
-2.2950399779393
20
-26.9657375531884
30
1E-16
41
1
10
-2.2950399779393
20
-26.9139107109326
30
1E-16
41
1
10
-2.2950399779393
20
-26.8588742679961
30
0
41
1
10
-2.2950399779393
20
-26.8006684557748
30
0
41
1
10
-2.2950399779393
20
-26.7393343904956
30
0
41
1
10
-2.2950399779393
20
-26.674910802648
30
0
41
1
10
-2.2950399779393
20
-26.5849135587966
30
0
41
1
10
-2.2950399779393
20
-26.4889678074055
30
1E-16
41
1
10
-2.29503997793927
20
-26.387035697685
30
1E-16
41
1
10
-2.2950399779393
20
-26.3076915686753
30
1E-16
41
1
10
-2.2950399779393
20
-26.2254595087626
30
-1E-16
41
1
10
-2.2950399779393
20
-26.1403699848692
30
-1E-16
41
1
10
-2.2950399779393
20
-26.0524523997801
30
-1E-16
41
1
10
-2.29503997793927
20
-25.9617325512637
30
-1E-16
41
1
10
-2.29503997793927
20
-25.8682385377286
30
-1E-16
41
1
10
-2.29503997793927
20
-25.7719964787433
30
-1E-16
41
1
10
-2.2950399779393
20
-25.6730295553062
30
-1E-16
41
1
10
-2.2950399779393
20
-25.5713637005868
30
-1E-16
41
1
10
-2.2950399779393
20
-25.4844312429181
30
-1E-16
41
1
10
-2.2950399779393
20
-25.4135236324805
30
-1E-16
41
1
10
-2.29503997793927
20
-25.3417349423789
30
-1E-16
41
1
10
-2.2950399779393
20
-25.2503983881991
30
-1E-16
41
1
10
-2.29503997793927
20
-25.1007072283818
30
-1E-16
41
1
10
-2.29503997793927
20
-24.9072094601534
30
-1E-16
41
1
10
-2.2950399779393
20
-24.7052121586235
30
-1E-16
41
1
10
-2.2950399779393
20
-24.5385089750245
30
-1E-16
41
1
10
-2.29503997793927
20
-24.3684762393368
30
-1E-16
41
1
10
-2.29503997793927
20
-24.1498376426062
30
-1E-16
41
1
10
-2.29503997793927
20
-23.8776317120835
30
-1E-16
41
1
10
-2.2950399779393
20
-23.6427893362144
30
-1E-16
41
1
10
-2.2950399779393
20
-23.4500539403358
30
-1E-16
41
1
10
-2.2950399779393
20
-23.2541535983722
30
-1E-16
41
1
10
-2.2950399779393
20
-23.003492407652
30
-1E-16
41
1
10
-2.2950399779393
20
-22.6933032792698
30
-1E-16
41
1
10
-2.29503997793927
20
-22.3738761836524
30
-1E-16
41
1
10
-2.29503997793927
20
-22.0453025532577
30
-1E-16
41
1
10
-2.29503997793927
20
-21.7076686135251
30
-1E-16
41
1
10
-2.2950399779393
20
-21.4188827024373
30
-1E-16
41
1
10
-2.2950399779393
20
-21.183296228919
30
-1E-16
41
1
10
-2.29503997793927
20
-20.9447536956121
30
-1E-16
41
1
10
-2.29503997793927
20
-20.6411931750868
30
-1E-16
41
1
10
-2.29503997793927
20
-20.2680830253803
30
-1E-16
41
1
10
-2.29503997793927
20
-19.9499723423375
30
-1E-16
41
1
10
-2.29503997793927
20
-19.6910450135593
30
-1E-16
41
1
10
-2.2950399779393
20
-19.4292463867236
30
-1E-16
41
1
10
-2.2950399779393
20
-19.096784863067
30
-1E-16
41
1
10
-2.29503997793927
20
-18.7572123739995
30
-1E-16
41
1
10
-2.29503997793924
20
-18.4811831112867
30
-1E-16
41
1
10
-2.29503997793927
20
-18.2023325950151
30
-1E-16
41
1
10
-2.29503997793927
20
-17.8486596758477
30
-1E-16
41
1
10
-2.29503997793927
20
-17.487986707193
30
-1E-16
41
1
10
-2.29503997793927
20
-17.195127364891
30
-1E-16
41
1
10
-2.29503997793924
20
-16.8994864797488
30
-1E-16
41
1
10
-2.29503997793927
20
-16.5999232615433
30
-1E-16
41
1
10
-2.29503997793927
20
-16.2959649333064
30
-1E-16
41
1
10
-2.29503997793927
20
-16.1043598435705
30
-1E-16
41
1
10
-2.29503997793927
20
-15.9499656619051
30
-1E-16
41
1
10
-2.29503997793927
20
-15.7948829493702
30
-1E-16
41
1
10
-2.29503997793927
20
-15.5998373978987
30
-1E-16
41
1
10
-2.29503997793927
20
-15.3636702284228
30
-1E-16
41
1
10
-2.29503997793927
20
-15.1254444180464
30
-1E-16
41
1
10
-2.29503997793927
20
-14.8851632986275
30
-1E-16
41
1
10
-2.29503997793927
20
-14.6428305081908
30
-1E-16
41
1
10
-2.29503997793927
20
-14.3984468555777
30
-1E-16
41
1
10
-2.29503997793927
20
-14.1520156158997
30
-1E-16
41
1
10
-2.29503997793927
20
-13.9035389822172
30
-1E-16
41
1
10
-2.29503997793927
20
-13.5694123671834
30
-1E-16
41
1
10
-2.29503997793927
20
-13.2315065950277
30
-1E-16
41
1
10
-2.29503997793927
20
-12.8892093803249
30
-1E-16
41
1
10
-2.29503997793927
20
-12.6305299496176
30
-1E-16
41
1
10
-2.29503997793927
20
-12.3698135917844
30
-1E-16
41
1
10
-2.29503997793927
20
-12.1070624362612
30
-1E-16
41
1
10
-2.29503997793927
20
-11.8422771919954
30
-1E-16
41
1
10
-2.29503997793927
20
-11.4864047694406
30
-1E-16
41
1
10
-2.29503997793927
20
-11.0367533786719
30
-1E-16
41
1
10
-2.29503997793927
20
-10.5803285804451
30
-1E-16
41
1
10
-2.29503997793927
20
-10.2109002581502
30
-1E-16
41
1
10
-2.29503997793927
20
-9.93190145357084
30
-1E-16
41
1
10
-2.29503997793927
20
-9.65087566691977
30
-1E-16
41
1
10
-2.29503997793927
20
-9.36782441803413
30
-1E-16
41
1
10
-2.29503997793927
20
-9.08274869992735
30
-1E-16
41
1
10
-2.29503997793927
20
-8.79565052315385
30
-1E-16
41
1
10
-2.29503997793927
20
-8.5065316633322
30
-1E-16
41
1
10
-2.29503997793927
20
-8.21539474907743
30
-1E-16
41
1
10
-2.2950399779393
20
-7.92224261249635
30
-1E-16
41
1
10
-2.29503997793927
20
-7.62707900817011
30
-1E-16
41
1
10
-2.29503997793927
20
-7.32990842680402
30
-1E-16
41
1
10
-2.29503997793927
20
-7.03073644813682
30
-1E-16
41
1
10
-2.29503997793927
20
-6.72956956969853
30
-1E-16
41
1
10
-2.29503997793927
20
-6.42641643294533
30
-1E-16
41
1
10
-2.29503997793927
20
-6.12128657453567
30
-1E-16
41
1
10
-2.29503997793927
20
-5.86547227949208
30
-1E-16
41
1
10
-2.29503997793927
20
-5.65966031743471
30
-1E-16
41
1
10
-2.29503997793927
20
-5.45320484016275
30
-1E-16
41
1
10
-2.29503997793927
20
-5.194175192833
30
-1E-16
41
1
10
-2.29503997793927
20
-4.93354787471691
30
-1E-16
41
1
10
-2.29503997793927
20
-4.72389491984228
30
-1E-16
41
1
10
-2.2950399779393
20
-4.51362416489164
30
-1E-16
41
1
10
-2.29503997793927
20
-4.30279738744869
30
-1E-16
41
1
10
-2.29503997793927
20
-4.0906802174616
30
-1E-16
41
1
10
-2.29503997793927
20
-3.95788266698418
30
-1E-16
41
1
10
-2.29503997793924
20
-3.85130376069884
30
-1E-16
41
1
10
-2.29503997793927
20
-3.74458052899692
30
-1E-16
41
1
10
-2.29503997793927
20
-3.61106187073099
30
-1E-16
41
1
10
-2.29503997793927
20
-3.45032621656426
30
-1E-16
41
1
10
-2.29503997793927
20
-3.28917313145487
30
-1E-16
41
1
10
-2.29503997793927
20
-3.12761068170508
30
-1E-16
41
1
10
-2.29503997793927
20
-2.96564923158397
30
-1E-16
41
1
10
-2.29503997793927
20
-2.83043414688214
30
-1E-16
41
1
10
-2.29503997793927
20
-2.72193089625395
30
-1E-16
41
1
10
-2.29503997793927
20
-2.64052221841842
30
-1E-16
41
1
10
-2.29503997793927
20
-2.55902310675029
30
-1E-16
41
1
10
-2.29503997793927
20
-2.47743504267538
30
-1E-16
41
1
10
-2.29503997793927
20
-2.39575871579828
30
-1E-16
41
1
10
-2.29503997793927
20
-2.28665934688649
30
-1E-16
41
1
10
-2.29503997793927
20
-2.17765162048644
30
-1E-16
41
1
10
-2.29503997793927
20
-2.06822032488085
30
-1E-16
41
1
10
-2.29503997793927
20
-1.95868778076368
30
-1E-16
41
1
10
-2.2950399779393
20
-1.84927662995438
30
-1E-16
41
1
10
-2.29503997793927
20
-1.73944751085296
30
-1E-16
41
1
10
-2.29503997793927
20
-1.62953013818887
30
-1E-16
41
1
10
-2.29503997793927
20
-1.51976603752374
30
-1E-16
41
1
10
-2.29503997793927
20
-1.40959257647998
30
-1E-16
41
1
10
-2.29503997793924
20
-1.29934603509315
30
-1E-16
41
1
10
-2.29503997793927
20
-1.16162401558285
30
-1E-16
41
1
10
-2.29503997793927
20
-0.996043867302802
30
-1E-16
41
1
10
-2.29503997793927
20
-0.858021466226461
30
-1E-16
41
1
10
-2.29503997793927
20
-0.74734826211116
30
-1E-16
41
1
10
-2.29503997793924
20
-0.664391463462891
30
-1E-16
41
1
10
-2.29503997793924
20
-0.581404948836564
30
-1E-16
41
1
10
-2.2950399779393
20
-0.498392847694362
30
-1E-16
41
1
10
-2.29503997793927
20
-0.415360879438595
30
-1E-16
41
1
10
-2.29503997793927
20
-0.332310821896414
30
-1E-16
41
1
10
-2.29503997793927
20
-0.249244909992626
30
-1E-16
41
1
10
-2.29503997793927
20
-0.16616912676011
30
-1E-16
41
1
10
-2.29503997793927
20
-0.083087258687442
30
-1E-16
41
1
10
-2.29503997793927
20
-7.3694082E-09
30
-1E-16
41
1
10
-2.29503997793927
20
0.0830872457044336
30
-1E-16
41
1
10
-2.29503997793927
20
0.166169118100839
30
-1E-16
41
1
10
-2.29503997793927
20
0.249244906780348
30
-1E-16
41
1
10
-2.29503997793927
20
0.332310822055149
30
-1E-16
41
1
10
-2.29503997793927
20
0.415360877837117
30
-1E-16
41
1
10
-2.29503997793927
20
0.498392839537757
30
-1E-16
41
1
10
-2.29503997793927
20
0.581404932400318
30
-1E-16
41
1
10
-2.29503997793927
20
0.664391443726458
30
-1E-16
41
1
10
-2.29503997793927
20
0.747348246925952
30
-1E-16
41
1
10
-2.29503997793927
20
0.858021465650296
30
-1E-16
41
1
10
-2.29503997793924
20
0.99604387184678
30
-1E-16
41
1
10
-2.29503997793924
20
1.16162399896865
30
-1E-16
41
1
10
-2.29503997793927
20
1.29934600948991
30
-1E-16
41
1
10
-2.29503997793927
20
1.40959256793394
30
-1E-16
41
1
10
-2.29503997793927
20
1.51976604695517
30
-1E-16
41
1
10
-2.29503997793927
20
1.62953014673872
30
-1E-16
41
1
10
-2.29503997793927
20
1.73944749852942
30
-1E-16
41
1
10
-2.29503997793927
20
1.84927659960155
30
-1E-16
41
1
10
-2.29503997793927
20
1.95868775414539
30
-1E-16
41
1
10
-2.29503997793927
20
2.06822032104492
30
-1E-16
41
1
10
-2.29503997793927
20
2.17765163493269
30
-1E-16
41
1
10
-2.29503997793927
20
2.28665935771656
30
-1E-16
41
1
10
-2.29503997793927
20
2.39575870345573
30
-1E-16
41
1
10
-2.29503997793927
20
2.47743501265126
30
-1E-16
41
1
10
-2.29503997793927
20
2.55902307088405
30
-1E-16
41
1
10
-2.29503997793927
20
2.64052218961081
30
-1E-16
41
1
10
-2.29503997793927
20
2.72193088426971
30
-1E-16
41
1
10
-2.2950399779393
20
2.83043415716216
30
-1E-16
41
1
10
-2.29503997793924
20
2.96564924759372
30
-1E-16
41
1
10
-2.29503997793927
20
3.1276106671414
30
-1E-16
41
1
10
-2.29503997793927
20
3.28917309238062
30
-1E-16
41
1
10
-2.29503997793927
20
3.45032619783549
30
-1E-16
41
1
10
-2.29503997793927
20
3.61106188513384
30
-1E-16
41
1
10
-2.2950399779393
20
3.74458054435991
30
-1E-16
41
1
10
-2.29503997793927
20
3.85130375742838
30
-1E-16
41
1
10
-2.29503997793927
20
3.95788264175957
30
-1E-16
41
1
10
-2.29503997793927
20
4.09068017699948
30
-1E-16
41
1
10
-2.29503997793927
20
4.30279737234505
30
-1E-16
41
1
10
-2.29503997793927
20
4.51362418453468
30
-1E-16
41
1
10
-2.29503997793927
20
4.72389491460817
30
-1E-16
41
1
10
-2.29503997793927
20
4.93354783719795
30
-1E-16
41
1
10
-2.29503997793927
20
5.19417516976088
30
-1E-16
41
1
10
-2.29503997793927
20
5.45320486068491
30
-1E-16
41
1
10
-2.29503997793927
20
5.65966031194296
30
-1E-16
41
1
10
-2.29503997793927
20
5.86547224264385
30
-1E-16
41
1
10
-2.29503997793927
20
6.12128654405475
30
-1E-16
41
1
10
-2.29503997793927
20
6.42641644899933
30
-1E-16
41
1
10
-2.29503997793927
20
6.72956956222453
30
-1E-16
41
1
10
-2.2950399779393
20
7.03073643509245
30
-1E-16
41
1
10
-2.29503997793927
20
7.32990848936902
30
-1E-16
41
1
10
-2.29503997793927
20
7.62707899667751
30
-1E-16
41
1
10
-2.29503997793927
20
7.92224242464158
30
-1E-16
41
1
10
-2.29503997793927
20
8.21539468387994
30
-1E-16
41
1
10
-2.2950399779393
20
8.50653184364373
30
-1E-16
41
1
10
-2.29503997793927
20
8.79565051892371
30
-1E-16
41
1
10
-2.29503997793927
20
9.08274836934052
30
-1E-16
41
1
10
-2.29503997793927
20
9.36782442184722
30
-1E-16
41
1
10
-2.2950399779393
20
9.65087577167401
30
-1E-16
41
1
10
-2.2950399779393
20
9.93190148567103
30
-1E-16
41
1
10
-2.29503997793927
20
10.2109002476074
30
-1E-16
41
1
10
-2.29503997793927
20
10.4878712580384
30
-1E-16
41
1
10
-2.2950399779393
20
10.7628135122141
30
-1E-16
41
1
10
-2.29503997793927
20
11.1268240668469
30
-1E-16
41
1
10
-2.29503997793927
20
11.4864047926357
30
-1E-16
41
1
10
-2.29503997793927
20
11.8422771763273
30
-1E-16
41
1
10
-2.29503997793927
20
12.1070624597528
30
-1E-16
41
1
10
-2.29503997793927
20
12.3698136542137
30
-1E-16
41
1
10
-2.2950399779393
20
12.630529996325
30
-1E-16
41
1
10
-2.29503997793927
20
12.8892094092454
30
-1E-16
41
1
10
-2.2950399779393
20
13.2315065874855
30
-1E-16
41
1
10
-2.2950399779393
20
13.5694124056225
30
-1E-16
41
1
10
-2.29503997793927
20
13.903538977374
30
-1E-16
41
1
10
-2.2950399779393
20
14.1520156345789
30
-1E-16
41
1
10
-2.2950399779393
20
14.3984468746313
30
-1E-16
41
1
10
-2.29503997793927
20
14.6428305016925
30
-1E-16
41
1
10
-2.2950399779393
20
14.8851633083157
30
-1E-16
41
1
10
-2.29503997793927
20
15.1254443246959
30
-1E-16
41
1
10
-2.2950399779393
20
15.3636701740732
30
-1E-16
41
1
10
-2.2950399779393
20
15.5998376412757
30
-1E-16
41
1
10
-2.29503997793927
20
15.8339451945693
30
-1E-16
41
1
10
-2.29503997793927
20
16.0659886092784
30
-1E-16
41
1
10
-2.2950399779393
20
16.2959645253135
30
-1E-16
41
1
10
-2.2950399779393
20
16.5999232967459
30
-1E-16
41
1
10
-2.2950399779393
20
16.8994865286445
30
-1E-16
41
1
10
-2.2950399779393
20
17.1951273582894
30
-1E-16
41
1
10
-2.29503997793927
20
17.4879867114631
30
-1E-16
41
1
10
-2.29503997793927
20
17.8486596771386
30
-1E-16
41
1
10
-2.29503997793927
20
18.2023325900281
30
-1E-16
41
1
10
-2.2950399779393
20
18.4811831142103
30
-1E-16
41
1
10
-2.29503997793927
20
18.7572123771119
30
-1E-16
41
1
10
-2.2950399779393
20
19.0967848636163
30
-1E-16
41
1
10
-2.2950399779393
20
19.4292463860981
30
-1E-16
41
1
10
-2.2950399779393
20
19.6910450149659
30
-1E-16
41
1
10
-2.2950399779393
20
19.9499723474756
30
-1E-16
41
1
10
-2.2950399779393
20
20.2680830241603
30
-1E-16
41
1
10
-2.2950399779393
20
20.6411931765509
30
-1E-16
41
1
10
-2.2950399779393
20
20.9447536987916
30
-1E-16
41
1
10
-2.29503997793927
20
21.183296231241
30
-1E-16
41
1
10
-2.2950399779393
20
21.4188827033322
30
-1E-16
41
1
10
-2.2950399779393
20
21.7076686178739
30
-1E-16
41
1
10
-2.2950399779393
20
22.0453025545601
30
-1E-16
41
1
10
-2.2950399779393
20
22.3738761877812
30
-1E-16
41
1
10
-2.2950399779393
20
22.6933032821098
30
-1E-16
41
1
10
-2.2950399779393
20
23.0034924093454
30
-1E-16
41
1
10
-2.2950399779393
20
23.2541536051907
30
-1E-16
41
1
10
-2.2950399779393
20
23.4500539432774
30
-1E-16
41
1
10
-2.2950399779393
20
23.6427893382923
30
-1E-16
41
1
10
-2.2950399779393
20
23.8776317176071
30
-1E-16
41
1
10
-2.2950399779393
20
24.1498376513416
30
-1E-16
41
1
10
-2.2950399779393
20
24.3684762369579
30
-1E-16
41
1
10
-2.2950399779393
20
24.5385089830443
30
-1E-16
41
1
10
-2.2950399779393
20
24.7052121640854
30
-1E-16
41
1
10
-2.2950399779393
20
24.9072094682151
30
-1E-16
41
1
10
-2.2950399779393
20
25.1007072668635
30
-1E-16
41
1
10
-2.2950399779393
20
25.2503982620474
30
-1E-16
41
1
10
-2.2950399779393
20
25.396607276112
30
-1E-16
41
1
10
-2.2950399779393
20
25.5374379046987
30
-1E-16
41
1
10
-2.2950399779393
20
25.6730299792936
30
-1E-16
41
1
10
-2.29503997793927
20
25.7719963599905
30
-1E-16
41
1
10
-2.2950399779393
20
25.8682384460151
30
-1E-16
41
1
10
-2.2950399779393
20
25.961732550658
30
-1E-16
41
1
10
-2.2950399779393
20
26.0524524072106
30
-1E-16
41
1
10
-2.2950399779393
20
26.1403699560892
30
-1E-16
41
1
10
-2.2950399779393
20
26.2254595012835
30
-1E-16
41
1
10
-2.2950399779393
20
26.307691573879
30
1E-16
41
1
10
-2.2950399779393
20
26.3870356638969
30
1E-16
41
1
10
-2.2950399779393
20
26.4889678259813
30
1E-16
41
1
10
-2.2950399779393
20
26.5849135103433
30
0
41
1
10
-2.2950399779393
20
26.6749108160321
30
0
41
1
10
-2.2950399779393
20
26.7393343627507
30
0
41
1
10
-2.29503997793933
20
26.8006684388868
30
0
41
1
10
-2.2950399779393
20
26.8588742790416
30
0
41
1
10
-2.2950399779393
20
26.9139106605824
30
1E-16
41
1
10
-2.2950399779393
20
26.965737488626
30
1E-16
41
1
10
-2.2950399779393
20
27.0143096332649
30
1E-16
41
1
10
-2.2950399779393
20
27.0746927526657
30
-1E-16
41
1
10
-2.29503997793933
20
27.1417627098538
30
-1E-16
41
1
10
-2.2950399779393
20
27.197345231477
30
-1E-16
41
1
10
-2.2950399779393
20
27.2347185022954
30
-1E-16
41
1
10
-2.2950399779393
20
27.2591194581005
30
-1E-16
41
1
10
-2.2950399779393
20
27.2798390261952
30
-1E-16
41
1
10
-2.29503997793933
20
27.2968118938473
30
-1E-16
41
1
10
-2.2950399779393
20
27.3099684620727
30
-1E-16
41
1
10
-2.2950399779393
20
27.319236569139
30
-1E-16
41
1
10
-2.29503997793933
20
27.324196808806
30
-1E-16
41
1
10
-2.2950399779393
20
27.3251891367208
30
-1E-16
41
1
10
-2.2950399779393
20
27.3251860723472
30
-1E-16
0
SPLINE
5
122
100
AcDbEntity
8
SK1
62
256
6
ByLayer
370
18
48
1
60
0
100
AcDbSpline
70
4
71
3
72
13
73
9
40
0
40
0
40
0
40
0
40
0.239456135584564
40
0.368359721690078
40
0.499998983748162
40
0.631638415023858
40
0.760542467573107
40
1
40
1
40
1
40
1
41
1
10
-2.5
20
-27.5200986604246
30
-1E-16
41
1
10
-2.49909198642041
20
-27.4940411843414
30
-1E-16
41
1
10
-2.49103284106718
20
-27.4566686000525
30
-1E-16
41
1
10
-2.46563592203009
20
-27.4104494262791
30
-1E-16
41
1
10
-2.43886378678783
20
-27.3791678724618
30
-1E-16
41
1
10
-2.40627712749298
20
-27.3540005022953
30
-1E-16
41
1
10
-2.35884064232869
20
-27.33095669986
30
-1E-16
41
1
10
-2.32111030872417
20
-27.3247844448489
30
-1E-16
41
1
10
-2.2950399779393
20
-27.3251860847967
30
-1E-16
0
SPLINE
5
123
100
AcDbEntity
8
SK1
62
256
6
ByLayer
370
18
48
1
60
0
100
AcDbSpline
70
4
71
3
72
13
73
9
40
0
40
0
40
0
40
0
40
0.239457532422145
40
0.368361584969631
40
0.500001016244564
40
0.631640278303134
40
0.760543864410282
40
1
40
1
40
1
40
1
41
1
10
-2.2950399779393
20
27.3251860880175
30
-1E-16
41
1
10
-2.32111030872429
20
27.3247844480698
30
-1E-16
41
1
10
-2.35884064232886
20
27.3309567030813
30
-1E-16
41
1
10
-2.40627712749315
20
27.3540005055177
30
-1E-16
41
1
10
-2.43886378678798
20
27.3791678756854
30
-1E-16
41
1
10
-2.4656359220302
20
27.4104494295044
30
-1E-16
41
1
10
-2.4910328410673
20
27.4566686032801
30
-1E-16
41
1
10
-2.4990919864205
20
27.4940411875707
30
-1E-16
41
1
10
-2.5
20
27.520098663655
30
-1E-16
0
SPLINE
5
124
100
AcDbEntity
8
SK1
62
256
6
ByLayer
370
18
48
1
60
0
100
AcDbSpline
70
4
71
3
72
110
73
106
40
0
40
0
40
0
40
0
40
0.0064702030595179
40
0.0144293453679255
40
0.0223884876763331
40
0.0303476299847408
40
0.0383067722931484
40
0.0462659146015561
40
0.0542250569099637
40
0.0621841992183713
40
0.0781024838351866
40
0.0940207684520019
40
0.10197991076041
40
0.109939053068817
40
0.117898195377225
40
0.125857337685633
40
0.13381647999404
40
0.141775622302448
40
0.149734764610855
40
0.157693906919263
40
0.173612191536078
40
0.181571333844486
40
0.189530476152894
40
0.197489618461301
40
0.205448760769709
40
0.213407903078117
40
0.221367045386524
40
0.229326187694932
40
0.23728533000334
40
0.245244472311747
40
0.253203614620155
40
0.261162756928562
40
0.265142328082766
40
0.26912189923697
40
0.277081041545378
40
0.285040183853785
40
0.300958468470601
40
0.316876753087416
40
0.324835895395824
40
0.332795037704231
40
0.348713322321047
40
0.364631606937862
40
0.380549891554677
40
0.388509033863085
40
0.396468176171492
40
0.412386460788308
40
0.428304745405123
40
0.444223030021938
40
0.460141314638754
40
0.476059599255569
40
0.491977883872384
40
0.499937026180792
40
0.5078961684892
40
0.523814453106015
40
0.53973273772283
40
0.555651022339645
40
0.563610164648053
40
0.571569306956461
40
0.587487591573276
40
0.603405876190091
40
0.611365018498499
40
0.619324160806907
40
0.635242445423722
40
0.651160730040537
40
0.659119872348945
40
0.667079014657352
40
0.682997299274168
40
0.690956441582575
40
0.698915583890983
40
0.702895155045187
40
0.706874726199391
40
0.714833868507798
40
0.722793010816206
40
0.730752153124614
40
0.738711295433021
40
0.746670437741429
40
0.754629580049837
40
0.762588722358244
40
0.770547864666652
40
0.778507006975059
40
0.794425291591875
40
0.802384433900282
40
0.81034357620869
40
0.818302718517097
40
0.826261860825505
40
0.834221003133913
40
0.84218014544232
40
0.858098430059136
40
0.874016714675951
40
0.881975856984359
40
0.889934999292766
40
0.897894141601174
40
0.905853283909582
40
0.913812426217989
40
0.921771568526397
40
0.929730710834805
40
0.937689853143212
40
0.94564899545162
40
0.953608137760028
40
0.961567280068435
40
0.969526422376843
40
0.977485564685251
40
0.985444706993658
40
0.993403849302066
40
1
40
1
40
1
40
1
41
1
10
-0.694976888875289
20
-27.3653848086124
30
0
41
1
10
-0.694976888875289
20
-27.3653951881206
30
0
41
1
10
-0.694976888875289
20
-27.3644058306617
30
0
41
1
10
-0.69497688887526
20
-27.3594269183726
30
0
41
1
10
-0.694976888875289
20
-27.3501457877119
30
0
41
1
10
-0.694976888875289
20
-27.3369711539198
30
0
41
1
10
-0.694976888875289
20
-27.3199753370632
30
0
41
1
10
-0.69497688887526
20
-27.2992282088757
30
0
41
1
10
-0.69497688887526
20
-27.27479540739
30
0
41
1
10
-0.694976888875289
20
-27.2373773347495
30
0
41
1
10
-0.694976888875289
20
-27.1817216262674
30
0
41
1
10
-0.69497688887526
20
-27.1145655761239
30
0
41
1
10
-0.69497688887526
20
-27.0541148220588
30
0
41
1
10
-0.694976888875289
20
-27.0054853645575
30
0
41
1
10
-0.694976888875289
20
-26.953598130865
30
0
41
1
10
-0.69497688887526
20
-26.8984983126749
30
0
41
1
10
-0.694976888875289
20
-26.8402262313527
30
0
41
1
10
-0.694976888875289
20
-26.7788231109009
30
0
41
1
10
-0.694976888875289
20
-26.7143277379811
30
0
41
1
10
-0.694976888875289
20
-26.6242375656596
30
0
41
1
10
-0.694976888875289
20
-26.5281744083644
30
0
41
1
10
-0.69497688887526
20
-26.4261397788477
30
0
41
1
10
-0.69497688887526
20
-26.3467113117502
30
0
41
1
10
-0.69497688887526
20
-26.2643925590692
30
0
41
1
10
-0.694976888875289
20
-26.1792140698964
30
0
41
1
10
-0.69497688887526
20
-26.0912052473129
30
0
41
1
10
-0.694976888875289
20
-26.0003919407076
30
0
41
1
10
-0.694976888875289
20
-25.9068023175501
30
0
41
1
10
-0.69497688887526
20
-25.810462475175
30
0
41
1
10
-0.69497688887526
20
-25.7113956543375
30
0
41
1
10
-0.694976888875289
20
-25.609627837172
30
0
41
1
10
-0.69497688887526
20
-25.5226042889745
30
0
41
1
10
-0.694976888875289
20
-25.4516306650615
30
0
41
1
10
-0.69497688887526
20
-25.3797753879955
30
0
41
1
10
-0.694976888875289
20
-25.2883442684716
30
0
41
1
10
-0.69497688887526
20
-25.1385155212165
30
0
41
1
10
-0.69497688887526
20
-24.9448199373791
30
0
41
1
10
-0.694976888875289
20
-24.7426176812545
30
0
41
1
10
-0.69497688887526
20
-24.5757644878036
30
0
41
1
10
-0.694976888875289
20
-24.4055794218944
30
0
41
1
10
-0.69497688887526
20
-24.1867224773567
30
0
41
1
10
-0.69497688887526
20
-23.9142591485119
30
0
41
1
10
-0.694976888875289
20
-23.6791846777825
30
0
41
1
10
-0.694976888875289
20
-23.4862798848862
30
0
41
1
10
-0.69497688887526
20
-23.2902077684041
30
0
41
1
10
-0.69497688887526
20
-23.0393009244131
30
0
41
1
10
-0.69497688887526
20
-22.728823054511
30
0
41
1
10
-0.69497688887526
20
-22.4090991723375
30
0
41
1
10
-0.694976888875289
20
-22.0802205832225
30
0
41
1
10
-0.69497688887526
20
-21.7422733615615
30
0
41
1
10
-0.69497688887526
20
-21.453205904272
30
0
41
1
10
-0.69497688887526
20
-21.2174142726431
30
0
41
1
10
-0.69497688887526
20
-20.9786637899231
30
0
41
1
10
-0.69497688887526
20
-20.6748062117951
30
0
41
1
10
-0.69497688887526
20
-20.3013474418474
30
0
41
1
10
-0.69497688887526
20
-19.9829235092941
30
0
41
1
10
-0.69497688887526
20
-19.7237678579095
30
0
41
1
10
-0.69497688887526
20
-19.4617376778078
30
0
41
1
10
-0.694976888875289
20
-19.1289452116702
30
0
41
1
10
-0.69497688887526
20
-18.789032857947
30
0
41
1
10
-0.69497688887526
20
-18.51275570609
30
0
41
1
10
-0.69497688887526
20
-18.2336536051105
30
0
41
1
10
-0.69497688887526
20
-17.8796208110748
30
0
41
1
10
-0.694976888875289
20
-17.5185779629222
30
0
41
1
10
-0.69497688887526
20
-17.2254485445637
30
0
41
1
10
-0.69497688887526
20
-16.9295332745893
30
0
41
1
10
-0.69497688887526
20
-16.6296334809576
30
0
41
1
10
-0.69497688887526
20
-16.3253883940748
30
0
41
1
10
-0.69497688887526
20
-16.1335794000815
30
0
41
1
10
-0.69497688887526
20
-15.9790378411121
30
0
41
1
10
-0.69497688887526
20
-15.8238065102557
30
0
41
1
10
-0.69497688887526
20
-15.6285504084945
30
0
41
1
10
-0.69497688887526
20
-15.3921387609621
30
0
41
1
10
-0.69497688887526
20
-15.1536644316209
30
0
41
1
10
-0.69497688887526
20
-14.9131307556186
30
0
41
1
10
-0.69497688887526
20
-14.6705410876498
30
0
41
1
10
-0.69497688887526
20
-14.4258961509421
30
0
41
1
10
-0.69497688887526
20
-14.1791991341328
30
0
41
1
10
-0.694976888875289
20
-13.9304519502906
30
0
41
1
10
-0.694976888875289
20
-13.595980784257
30
0
41
1
10
-0.69497688887526
20
-13.2576504503011
30
0
41
1
10
-0.69497688887526
20
-12.9149897871743
30
0
41
1
10
-0.69497688887526
20
-12.656013614478
30
0
41
1
10
-0.69497688887526
20
-12.3949946525974
30
0
41
1
10
-0.69497688887526
20
-12.1319348240102
30
0
41
1
10
-0.69497688887526
20
-11.8668345044804
30
0
41
1
10
-0.69497688887526
20
-11.51055947116
30
0
41
1
10
-0.69497688887526
20
-11.0603255640274
30
0
41
1
10
-0.69497688887526
20
-10.6032942253079
30
0
41
1
10
-0.69497688887526
20
-10.2334171055167
30
0
41
1
10
-0.69497688887526
20
-9.95404991412451
30
0
41
1
10
-0.69497688887526
20
-9.67264656600767
30
0
41
1
10
-0.69497688887526
20
-9.3892080699232
30
0
41
1
10
-0.69497688887526
20
-9.10373490192168
30
0
41
1
10
-0.69497688887526
20
-8.81622850233529
30
0
41
1
10
-0.69497688887526
20
-8.52669000819793
30
0
41
1
10
-0.69497688887526
20
-8.23512137696338
30
0
41
1
10
-0.69497688887526
20
-7.94152469111089
30
0
41
1
10
-0.69497688887526
20
-7.64590290818535
30
0
41
1
10
-0.694976888875232
20
-7.34825961897883
30
0
41
1
10
-0.69497688887526
20
-7.04859942112893
30
0
41
1
10
-0.69497688887526
20
-6.74692777135016
30
0
41
1
10
-0.69497688887526
20
-6.44325210311729
30
0
41
1
10
-0.69497688887526
20
-6.15502928738746
30
0
41
1
10
-0.69497688887526
20
-5.96764092579403
30
0
41
1
10
-0.69497688887526
20
-5.8824691645265
30
0
0
SPLINE
5
125
100
AcDbEntity
8
SK1
62
256
6
ByLayer
370
18
48
1
60
0
100
AcDbSpline
70
4
71
2
72
6
73
3
40
0
40
0
40
0
40
1
40
1
40
1
41
1
10
-2.2950399779393
20
-27.3251858108711
30
-1E-16
41
1
10
-1.49500843340729
20
-27.3452852614965
30
-1E-16
41
1
10
-0.694976888875289
20
-27.3653847121227
30
0
0
SPLINE
5
126
100
AcDbEntity
8
SK1
62
256
6
ByLayer
370
18
48
1
60
0
100
AcDbSpline
70
4
71
2
72
6
73
3
40
0
40
0
40
0
40
1
40
1
40
1
41
1
10
-0.694976888875289
20
27.3653847152514
30
0
41
1
10
-1.49500843340729
20
27.3452852646244
30
-1E-16
41
1
10
-2.2950399779393
20
27.3251858139979
30
-1E-16
0
SPLINE
5
127
100
AcDbEntity
8
SK1
62
256
6
ByLayer
370
18
48
1
60
0
100
AcDbSpline
70
4
71
3
72
108
73
104
40
0
40
0
40
0
40
0
40
0.0065964372236174
40
0.0145559215895716
40
0.0225154059555258
40
0.03047489032148
40
0.0384343746874342
40
0.0463938590533884
40
0.0543533434193425
40
0.0623128277852967
40
0.0702723121512509
40
0.0782317965172051
40
0.0861912808831593
40
0.0941507652491135
40
0.102110249615068
40
0.110069733981022
40
0.118029218346976
40
0.12598870271293
40
0.133948187078884
40
0.141907671444839
40
0.157826640176747
40
0.165786124542701
40
0.173745608908655
40
0.18170509327461
40
0.189664577640564
40
0.197624062006518
40
0.205583546372472
40
0.22150251510438
40
0.229461999470335
40
0.237421483836289
40
0.245380968202243
40
0.253340452568197
40
0.261299936934151
40
0.269259421300106
40
0.27721890566606
40
0.285178390032014
40
0.293137874397968
40
0.301097358763922
40
0.309056843129877
40
0.317016327495831
40
0.332935296227739
40
0.340894780593693
40
0.348854264959647
40
0.364773233691556
40
0.380692202423464
40
0.388651686789418
40
0.396611171155373
40
0.412530139887281
40
0.428449108619189
40
0.436408592985144
40
0.444368077351098
40
0.460287046083006
40
0.476206014814914
40
0.492124983546823
40
0.500084467912777
40
0.508043952278731
40
0.523962921010639
40
0.539881889742548
40
0.555800858474456
40
0.571719827206365
40
0.587638795938273
40
0.603557764670181
40
0.611517249036136
40
0.61947673340209
40
0.635395702133998
40
0.651314670865907
40
0.667233639597815
40
0.675193123963769
40
0.683152608329723
40
0.699071577061632
40
0.71499054579354
40
0.722950030159494
40
0.730909514525449
40
0.746828483257357
40
0.754787967623311
40
0.762747451989265
40
0.770706936355219
40
0.778666420721174
40
0.786625905087128
40
0.794585389453082
40
0.802544873819036
40
0.81050435818499
40
0.818463842550944
40
0.826423326916899
40
0.842342295648807
40
0.850301780014761
40
0.858261264380715
40
0.86622074874667
40
0.874180233112624
40
0.882139717478578
40
0.890099201844532
40
0.898058686210486
40
0.906018170576441
40
0.921937139308349
40
0.937856108040257
40
0.945815592406211
40
0.953775076772166
40
0.96173456113812
40
0.969694045504074
40
0.977653529870028
40
0.985613014235982
40
0.993572498601937
40
1
40
1
40
1
40
1
41
1
10
-0.69497688887526
20
5.88246902087039
30
0
41
1
10
-0.69497688887526
20
5.96764081676275
30
0
41
1
10
-0.694976888875289
20
6.15502922001536
30
0
41
1
10
-0.69497688887526
20
6.44325211457954
30
0
41
1
10
-0.694976888875289
20
6.74692776639384
30
0
41
1
10
-0.694976888875289
20
7.04859940546743
30
0
41
1
10
-0.69497688887526
20
7.34825967305406
30
0
41
1
10
-0.69497688887526
20
7.6459029106087
30
0
41
1
10
-0.69497688887526
20
7.94152452378475
30
0
41
1
10
-0.69497688887526
20
8.23512129465954
30
0
41
1
10
-0.69497688887526
20
8.52669016160962
30
0
41
1
10
-0.69497688887526
20
8.81622852741523
30
0
41
1
10
-0.69497688887526
20
9.10373459403795
30
0
41
1
10
-0.694976888875289
20
9.38920804768813
30
0
41
1
10
-0.69497688887526
20
9.67264665656018
30
0
41
1
10
-0.69497688887526
20
9.95404994902188
30
0
41
1
10
-0.694976888875289
20
10.2334171002114
30
0
41
1
10
-0.69497688887526
20
10.5107477406376
30
0
41
1
10
-0.694976888875289
20
10.7860413322607
30
0
41
1
10
-0.69497688887526
20
11.1504804686583
30
0
41
1
10
-0.69497688887526
20
11.510559499462
30
0
41
1
10
-0.69497688887526
20
11.8668344908947
30
0
41
1
10
-0.694976888875289
20
12.1319348433318
30
0
41
1
10
-0.69497688887526
20
12.394994711819
30
0
41
1
10
-0.69497688887526
20
12.6560136616419
30
0
41
1
10
-0.69497688887526
20
12.9149898191478
30
0
41
1
10
-0.69497688887526
20
13.2576504430446
30
0
41
1
10
-0.69497688887526
20
13.5959808223858
30
0
41
1
10
-0.694976888875289
20
13.9304519465026
30
0
41
1
10
-0.69497688887526
20
14.1791991512309
30
0
41
1
10
-0.694976888875289
20
14.4258961711575
30
0
41
1
10
-0.69497688887526
20
14.6705410811659
30
0
41
1
10
-0.69497688887526
20
14.9131307685779
30
0
41
1
10
-0.694976888875289
20
15.1536643460738
30
0
41
1
10
-0.694976888875289
20
15.3921386948649
30
0
41
1
10
-0.694976888875289
20
15.6285506275557
30
0
41
1
10
-0.694976888875289
20
15.8628987186173
30
0
41
1
10
-0.69497688887526
20
16.0951789631496
30
0
41
1
10
-0.694976888875289
20
16.3253880002474
30
0
41
1
10
-0.694976888875289
20
16.6296334992457
30
0
41
1
10
-0.694976888875289
20
16.9295333224765
30
0
41
1
10
-0.69497688887526
20
17.2254485394535
30
0
41
1
10
-0.694976888875289
20
17.518577967088
30
0
41
1
10
-0.694976888875289
20
17.8796208126314
30
0
41
1
10
-0.694976888875289
20
18.2336536000934
30
0
41
1
10
-0.694976888875289
20
18.5127557087222
30
0
41
1
10
-0.694976888875289
20
18.7890328610688
30
0
41
1
10
-0.694976888875289
20
19.1289452123206
30
0
41
1
10
-0.694976888875289
20
19.4617376771832
30
0
41
1
10
-0.694976888875289
20
19.7237678591314
30
0
41
1
10
-0.694976888875289
20
19.9829235144401
30
0
41
1
10
-0.694976888875289
20
20.3013474407322
30
0
41
1
10
-0.694976888875289
20
20.6748062131765
30
0
41
1
10
-0.694976888875289
20
20.9786637930718
30
0
41
1
10
-0.694976888875289
20
21.2174142750283
30
0
41
1
10
-0.694976888875289
20
21.4532059051397
30
0
41
1
10
-0.694976888875289
20
21.7422733658897
30
0
41
1
10
-0.694976888875289
20
22.0802205845281
30
0
41
1
10
-0.694976888875289
20
22.4090991764391
30
0
41
1
10
-0.694976888875289
20
22.7288230573926
30
0
41
1
10
-0.694976888875289
20
23.0393009260323
30
0
41
1
10
-0.694976888875289
20
23.2902077752037
30
0
41
1
10
-0.694976888875289
20
23.4862798879298
30
0
41
1
10
-0.694976888875289
20
23.6791846798372
30
0
41
1
10
-0.694976888875289
20
23.9142591539289
30
0
41
1
10
-0.694976888875289
20
24.1867224862229
30
0
41
1
10
-0.694976888875289
20
24.4055794195024
30
0
41
1
10
-0.694976888875289
20
24.5757644956798
30
0
41
1
10
-0.694976888875289
20
24.7426176867451
30
0
41
1
10
-0.694976888875289
20
24.9448199449114
30
0
41
1
10
-0.694976888875289
20
25.1385155622326
30
0
41
1
10
-0.694976888875289
20
25.2883441368503
30
0
41
1
10
-0.694976888875289
20
25.4346883615025
30
0
41
1
10
-0.694976888875289
20
25.5756766141878
30
0
41
1
10
-0.694976888875289
20
25.7113960827791
30
0
41
1
10
-0.694976888875289
20
25.810462366076
30
0
41
1
10
-0.694976888875289
20
25.9068022246069
30
0
41
1
10
-0.694976888875289
20
26.0003919383211
30
0
41
1
10
-0.694976888875289
20
26.0912052550725
30
0
41
1
10
-0.694976888875289
20
26.1792140413986
30
0
41
1
10
-0.694976888875289
20
26.2643925510642
30
0
41
1
10
-0.694976888875289
20
26.3467113173234
30
0
41
1
10
-0.694976888875289
20
26.4261397450501
30
0
41
1
10
-0.694976888875289
20
26.5281744271217
30
0
41
1
10
-0.694976888875289
20
26.6242375172272
30
0
41
1
10
-0.694976888875289
20
26.7143277513073
30
0
41
1
10
-0.694976888875289
20
26.778823083505
30
0
41
1
10
-0.694976888875289
20
26.8402262140422
30
0
41
1
10
-0.694976888875289
20
26.8984983240354
30
0
41
1
10
-0.694976888875289
20
26.9535980812345
30
0
41
1
10
-0.694976888875289
20
27.0054853002076
30
0
41
1
10
-0.694976888875289
20
27.0541147524053
30
0
41
1
10
-0.694976888875289
20
27.1145655815875
30
0
41
1
10
-0.694976888875289
20
27.1817216133088
30
0
41
1
10
-0.694976888875289
20
27.2373772549269
30
0
41
1
10
-0.694976888875289
20
27.2747954442536
30
0
41
1
10
-0.694976888875289
20
27.2992282603461
30
0
41
1
10
-0.694976888875289
20
27.3199753422426
30
0
41
1
10
-0.694976888875289
20
27.3369711498757
30
0
41
1
10
-0.694976888875289
20
27.3501458297252
30
0
41
1
10
-0.694976888875289
20
27.3594269422325
30
0
41
1
10
-0.694976888875289
20
27.3643962186648
30
0
41
1
10
-0.694976888875317
20
27.3653892543324
30
0
41
1
10
-0.694976888875289
20
27.3653849589211
30
0
0
SPLINE
5
128
100
AcDbEntity
8
SK1
62
256
6
ByLayer
370
18
48
1
60
0
100
AcDbSpline
70
4
71
3
72
22
73
18
40
0
40
0
40
0
40
0
40
0.25
40
0.25
40
0.3125
40
0.3125
40
0.374999999999999
40
0.374999999999999
40
0.499999999999999
40
0.499999999999999
40
0.624999999999999
40
0.624999999999999
40
0.6875
40
0.6875
40
0.75
40
0.75
40
1
40
1
40
1
40
1
41
1
10
-1.60710678118653
20
-4.39323937970207
30
-1E-16
41
1
10
-1.73200052969662
20
-3.68760078156768
30
-1E-16
41
1
10
-1.84096915123297
20
-2.97036065166398
30
-1E-16
41
1
10
-1.93962286912498
20
-2.05292564755399
30
-1E-16
41
1
10
-1.95743175171478
20
-1.8683765568494
30
-1E-16
41
1
10
-1.9886285034361
20
-1.49693538310126
30
-1E-16
41
1
10
-2.0020310755844
20
-1.3095715678075
30
-1E-16
41
1
10
-2.0344822794886
20
-0.74739877574919
30
-1E-16
41
1
10
-2.04566524731246
20
-0.373309638071845
30
-1E-16
41
1
10
-2.04566298261815
20
0.373423897839388
30
-1E-16
41
1
10
-2.03448345443991
20
0.746068577695638
30
-1E-16
41
1
10
-2.00238872850287
20
1.30401975761947
30
-1E-16
41
1
10
-1.98916426022976
20
1.48983541056791
30
-1E-16
41
1
10
-1.95809696113622
20
1.86115004723769
30
-1E-16
41
1
10
-1.94022877292869
20
2.04692746231254
30
-1E-16
41
1
10
-1.84131598259154
20
2.96856392861611
30
-1E-16
41
1
10
-1.73205802899378
20
3.68727509970662
30
-1E-16
41
1
10
-1.60710678118656
20
4.3932391538923
30
-1E-16
0
SPLINE
5
129
100
AcDbEntity
8
SK1
62
256
6
ByLayer
370
18
48
1
60
0
100
AcDbSpline
70
4
71
3
72
301
73
297
40
0
40
0
40
0
40
0
40
0.0032422734468148
40
0.0067161121900385
40
0.0101899509332621
40
0.0136637896764857
40
0.0171376284197093
40
0.020611467162933
40
0.0240853059061566
40
0.0275591446493802
40
0.0345068221358275
40
0.0414544996222747
40
0.0449283383654984
40
0.0484021771087219
40
0.0518760158519456
40
0.0553498545951692
40
0.0588236933383928
40
0.0622975320816165
40
0.0657713708248401
40
0.0692452095680637
40
0.076192887054511
40
0.0796667257977346
40
0.0831405645409582
40
0.0866144032841819
40
0.0900882420274055
40
0.0935620807706291
40
0.0970359195138527
40
0.100509758257076
40
0.1039835970003
40
0.107457435743524
40
0.110931274486747
40
0.114405113229971
40
0.116142032601583
40
0.117878951973195
40
0.121352790716418
40
0.124826629459642
40
0.131774306946089
40
0.138721984432536
40
0.14219582317576
40
0.145669661918983
40
0.152617339405431
40
0.159565016891878
40
0.166512694378325
40
0.169986533121549
40
0.173460371864772
40
0.18040804935122
40
0.187355726837667
40
0.194303404324114
40
0.201251081810561
40
0.208198759297009
40
0.215146436783456
40
0.21862027552668
40
0.222094114269903
40
0.22904179175635
40
0.235989469242798
40
0.242937146729245
40
0.246410985472469
40
0.249884824215692
40
0.256832501702139
40
0.263780179188587
40
0.26725401793181
40
0.270727856675034
40
0.277675534161481
40
0.284623211647928
40
0.288097050391152
40
0.291570889134376
40
0.298518566620823
40
0.301992405364046
40
0.30546624410727
40
0.307203163478882
40
0.308940082850494
40
0.312413921593717
40
0.315887760336941
40
0.319361599080164
40
0.322835437823388
40
0.326309276566612
40
0.329783115309836
40
0.333256954053059
40
0.336730792796283
40
0.340204631539506
40
0.347152309025954
40
0.350626147769177
40
0.354099986512401
40
0.357573825255624
40
0.361047663998848
40
0.364521502742072
40
0.367995341485295
40
0.374943018971743
40
0.38189069645819
40
0.385364535201413
40
0.388838373944637
40
0.392312212687861
40
0.395786051431084
40
0.399259890174308
40
0.402733728917532
40
0.406207567660755
40
0.409681406403979
40
0.413155245147202
40
0.416629083890426
40
0.42010292263365
40
0.423576761376873
40
0.427050600120097
40
0.43052443886332
40
0.433998277606544
40
0.437472116349768
40
0.43920903572138
40
0.440945955092991
40
0.444419793836215
40
0.447893632579439
40
0.449630551951051
40
0.451367471322662
40
0.454841310065886
40
0.456578229437498
40
0.45831514880911
40
0.459183608494915
40
0.460052068180721
40
0.461788987552333
40
0.463525906923945
40
0.465262826295557
40
0.466999745667169
40
0.46873666503878
40
0.470473584410392
40
0.471342044096198
40
0.472210503782004
40
0.47307896346781
40
0.473947423153616
40
0.474815882839422
40
0.475684342525228
40
0.477421261896839
40
0.478289721582645
40
0.479158181268451
40
0.480895100640063
40
0.481763560325869
40
0.482632020011675
40
0.484368939383287
40
0.485237399069093
40
0.486105858754898
40
0.48784277812651
40
0.489579697498122
40
0.491316616869734
40
0.49218507655554
40
0.493053536241346
40
0.493921995927152
40
0.494790455612958
40
0.495658915298763
40
0.496527374984569
40
0.497395834670375
40
0.498264294356181
40
0.499132754041987
40
0.500001213727793
40
0.500869673413599
40
0.501738133099405
40
0.502606592785211
40
0.503475052471017
40
0.504343512156822
40
0.505211971842628
40
0.506080431528434
40
0.50694889121424
40
0.507817350900046
40
0.508685810585852
40
0.510422729957464
40
0.512159649329076
40
0.513896568700688
40
0.514765028386494
40
0.515633488072299
40
0.517370407443911
40
0.518238867129717
40
0.519107326815523
40
0.520844246187135
40
0.521712705872941
40
0.522581165558746
40
0.524318084930358
40
0.525186544616164
40
0.52605500430197
40
0.526923463987776
40
0.527791923673582
40
0.528660383359388
40
0.529528843045194
40
0.531265762416805
40
0.533002681788417
40
0.534739601160029
40
0.536476520531641
40
0.538213439903253
40
0.539950359274865
40
0.540818818960671
40
0.541687278646476
40
0.543424198018088
40
0.5451611173897
40
0.548634956132924
40
0.550371875504536
40
0.552108794876147
40
0.555582633619371
40
0.559056472362594
40
0.560793391734206
40
0.562530311105818
40
0.566004149849042
40
0.569477988592265
40
0.572951827335489
40
0.576425666078713
40
0.579899504821936
40
0.58337334356516
40
0.586847182308384
40
0.590321021051607
40
0.593794859794831
40
0.597268698538054
40
0.600742537281278
40
0.604216376024502
40
0.607690214767725
40
0.611164053510949
40
0.614637892254172
40
0.618111730997396
40
0.62158556974062
40
0.625059408483843
40
0.632007085970291
40
0.635480924713514
40
0.638954763456738
40
0.642428602199961
40
0.645902440943185
40
0.649376279686409
40
0.652850118429632
40
0.659797795916079
40
0.663271634659303
40
0.666745473402527
40
0.67021931214575
40
0.673693150888974
40
0.677166989632198
40
0.680640828375421
40
0.684114667118645
40
0.687588505861868
40
0.691062344605092
40
0.694536183348316
40
0.69801002209154
40
0.701483860834763
40
0.70843153832121
40
0.711905377064434
40
0.715379215807658
40
0.722326893294105
40
0.729274570780552
40
0.732748409523776
40
0.736222248266999
40
0.743169925753446
40
0.750117603239894
40
0.753591441983117
40
0.757065280726341
40
0.764012958212788
40
0.770960635699236
40
0.777908313185683
40
0.781382151928906
40
0.78485599067213
40
0.791803668158577
40
0.798751345645024
40
0.805699023131472
40
0.812646700617919
40
0.819594378104366
40
0.826542055590814
40
0.830015894334037
40
0.833489733077261
40
0.840437410563708
40
0.847385088050155
40
0.854332765536603
40
0.857806604279826
40
0.86128044302305
40
0.868228120509497
40
0.875175797995944
40
0.878649636739168
40
0.882123475482391
40
0.889071152968839
40
0.892544991712062
40
0.896018830455286
40
0.89949266919851
40
0.902966507941733
40
0.906440346684957
40
0.90991418542818
40
0.913388024171404
40
0.916861862914628
40
0.920335701657851
40
0.923809540401075
40
0.930757217887522
40
0.934231056630746
40
0.93770489537397
40
0.941178734117193
40
0.944652572860417
40
0.94812641160364
40
0.951600250346864
40
0.955074089090088
40
0.958547927833311
40
0.965495605319758
40
0.972443282806206
40
0.975917121549429
40
0.979390960292653
40
0.982864799035877
40
0.9863386377791
40
0.989812476522324
40
0.993286315265547
40
0.996760154008771
40
1
40
1
40
1
40
1
41
1
10
-48.3
20
-25.5410833039706
30
-3E-16
41
1
10
-48.3
20
-25.5412382343767
30
-3E-16
41
1
10
-48.2999999999999
20
-25.5403996910332
30
-3E-16
41
1
10
-48.2999999999999
20
-25.5355444657104
30
-3E-16
41
1
10
-48.2999999999999
20
-25.5268535273441
30
-3E-16
41
1
10
-48.2999999999999
20
-25.5145008149315
30
-3E-16
41
1
10
-48.2999999999999
20
-25.498546052428
30
-3E-16
41
1
10
-48.2999999999999
20
-25.4790475285131
30
-3E-16
41
1
10
-48.2999999999999
20
-25.4560605539616
30
2E-16
41
1
10
-48.2999999999999
20
-25.4206809385044
30
2E-16
41
1
10
-48.2999999999999
20
-25.3683435244347
30
2E-16
41
1
10
-48.2999999999999
20
-25.3050935983469
30
2E-16
41
1
10
-48.2999999999999
20
-25.2477155824513
30
-1E-16
41
1
10
-48.2999999999999
20
-25.2016868330385
30
-1E-16
41
1
10
-48.2999999999999
20
-25.152540227847
30
-1E-16
41
1
10
-48.2999999999999
20
-25.1003164469937
30
-1E-16
41
1
10
-48.2999999999999
20
-25.0450517289096
30
-1E-16
41
1
10
-48.2999999999999
20
-24.9867824066375
30
0
41
1
10
-48.2999999999999
20
-24.9255447176865
30
0
41
1
10
-48.2999999999999
20
-24.839671739525
30
0
41
1
10
-48.2999999999999
20
-24.7489365887333
30
-1E-16
41
1
10
-48.2999999999999
20
-24.6515544180899
30
-1E-16
41
1
10
-48.2999999999999
20
-24.5759533043403
30
-1E-16
41
1
10
-48.2999999999999
20
-24.497568762949
30
-1E-16
41
1
10
-48.2999999999999
20
-24.4164276140701
30
2E-16
41
1
10
-48.2999999999999
20
-24.3325592473395
30
2E-16
41
1
10
-48.2999999999999
20
-24.2459871695687
30
2E-16
41
1
10
-48.2999999999999
20
-24.1567364141525
30
2E-16
41
1
10
-48.2999999999999
20
-24.0648340874222
30
2E-16
41
1
10
-48.2999999999999
20
-23.9703007183102
30
2E-16
41
1
10
-48.2999999999999
20
-23.8731600668768
30
2E-16
41
1
10
-48.2999999999999
20
-23.7902703050809
30
-3E-16
41
1
10
-48.2999999999999
20
-23.7222924438482
30
-3E-16
41
1
10
-48.2999999999999
20
-23.653458955013
30
-3E-16
41
1
10
-48.2999999999999
20
-23.5663193127548
30
-3E-16
41
1
10
-48.2999999999999
20
-23.4227344317565
30
-3E-16
41
1
10
-48.2999999999999
20
-23.2380159335195
30
-3E-16
41
1
10
-48.2999999999999
20
-23.0451147378601
30
-3E-16
41
1
10
-48.2999999999999
20
-22.8850691532134
30
-3E-16
41
1
10
-48.2999999999999
20
-22.7217969969803
30
-3E-16
41
1
10
-48.2999999999999
20
-22.5128489113235
30
-3E-16
41
1
10
-48.2999999999999
20
-22.2520665958364
30
6E-16
41
1
10
-48.2999999999999
20
-22.0275248400849
30
6E-16
41
1
10
-48.2999999999999
20
-21.8423074664778
30
6E-16
41
1
10
-48.2999999999999
20
-21.6540306628311
30
6E-16
41
1
10
-48.2999999999999
20
-21.4142718291048
30
6E-16
41
1
10
-48.2999999999999
20
-21.1168973606635
30
6E-16
41
1
10
-48.2999999999999
20
-20.8106419723679
30
6E-16
41
1
10
-48.2999999999999
20
-20.4956027387563
30
6E-16
41
1
10
-48.2999999999999
20
-20.1718725887445
30
6E-16
41
1
10
-48.2999999999999
20
-19.8955820016259
30
6E-16
41
1
10
-48.2999999999999
20
-19.6691006662323
30
6E-16
41
1
10
-48.2999999999999
20
-19.4397871520623
30
6E-16
41
1
10
-48.2999999999999
20
-19.149410368202
30
6E-16
41
1
10
-48.2999999999999
20
-18.7917723606454
30
6E-16
41
1
10
-48.2999999999999
20
-18.4875640285875
30
6E-16
41
1
10
-48.2999999999999
20
-18.2387699032321
30
6E-16
41
1
10
-48.2999999999999
20
-17.9872478599777
30
6E-16
41
1
10
-48.2999999999999
20
-17.6694739204115
30
6E-16
41
1
10
-48.2999999999999
20
-17.3449849911694
30
6E-16
41
1
10
-48.2999999999999
20
-17.0799573159189
30
6E-16
41
1
10
-48.2999999999999
20
-16.8122724002143
30
6E-16
41
1
10
-48.2999999999999
20
-16.4745711156787
30
6E-16
41
1
10
-48.2999999999999
20
-16.1303137979014
30
6E-16
41
1
10
-48.2999999999999
20
-15.8494407221551
30
6E-16
41
1
10
-48.2999999999999
20
-15.5659773316764
30
6E-16
41
1
10
-48.2999999999999
20
-15.2813516937416
30
6E-16
41
1
10
-48.2999999999999
20
-14.9901200233614
30
6E-16
41
1
10
-48.2999999999999
20
-14.8075644243929
30
6E-16
41
1
10
-48.2999999999999
20
-14.6597110063681
30
6E-16
41
1
10
-48.2999999999999
20
-14.5112241351638
30
6E-16
41
1
10
-48.2999999999999
20
-14.325523032543
30
6E-16
41
1
10
-48.2999999999999
20
-14.100206062781
30
6E-16
41
1
10
-48.2999999999999
20
-13.8730097919851
30
6E-16
41
1
10
-48.2999999999999
20
-13.6439374060174
30
6E-16
41
1
10
-48.2999999999999
20
-13.4130051173935
30
6E-16
41
1
10
-48.2999999999999
20
-13.1802175345841
30
6E-16
41
1
10
-48.2999999999999
20
-12.9455817705228
30
6E-16
41
1
10
-48.2999999999999
20
-12.7091124446063
30
6E-16
41
1
10
-48.2999999999999
20
-12.3902773743984
30
6E-16
41
1
10
-48.2999999999999
20
-12.0712141126493
30
6E-16
41
1
10
-48.2999999999999
20
-11.7450471308309
30
6E-16
41
1
10
-48.2999999999999
20
-11.499537429511
30
6E-16
41
1
10
-48.2999999999999
20
-11.2522509655356
30
6E-16
41
1
10
-48.2999999999999
20
-11.0031990533662
30
6E-16
41
1
10
-48.2999999999999
20
-10.7523971889997
30
6E-16
41
1
10
-48.2999999999999
20
-10.4143930662711
30
6E-16
41
1
10
-48.2999999999999
20
-9.99059437973426
30
6E-16
41
1
10
-48.2999999999999
20
-9.56108850247725
30
6E-16
41
1
10
-48.2999999999999
20
-9.21157829691111
30
6E-16
41
1
10
-48.2999999999999
20
-8.94892889623651
30
6E-16
41
1
10
-48.2999999999999
20
-8.68465969448141
30
6E-16
41
1
10
-48.2999999999999
20
-8.41879489376456
30
6E-16
41
1
10
-48.2999999999999
20
-8.1513584304715
30
6E-16
41
1
10
-48.2999999999999
20
-7.88237762223332
30
6E-16
41
1
10
-48.2999999999999
20
-7.61188258574543
30
6E-16
41
1
10
-48.2999999999999
20
-7.33990573648225
30
6E-16
41
1
10
-48.2999999999999
20
-7.06648317582801
30
6E-16
41
1
10
-48.2999999999999
20
-6.79165403169534
30
6E-16
41
1
10
-48.2999999999999
20
-6.51546273390829
30
6E-16
41
1
10
-48.2999999999999
20
-6.23795844891296
30
6E-16
41
1
10
-48.2999999999999
20
-5.95919386675251
30
6E-16
41
1
10
-48.2999999999999
20
-5.67923124039956
30
6E-16
41
1
10
-48.2999999999999
20
-5.39813608998188
30
6E-16
41
1
10
-48.2999999999999
20
-5.16409942590658
30
6E-16
41
1
10
-48.2999999999999
20
-4.97430334712462
30
6E-16
41
1
10
-48.2999999999999
20
-4.7842335597642
30
6E-16
41
1
10
-48.2999999999999
20
-4.54886462907325
30
6E-16
41
1
10
-48.2999999999999
20
-4.31277534686873
30
6E-16
41
1
10
-48.2999999999999
20
-4.12122851639978
30
6E-16
41
1
10
-48.2999999999999
20
-3.92953181194159
30
6E-16
41
1
10
-48.2999999999999
20
-3.74171250564351
30
6E-16
41
1
10
-48.2999999999999
20
-3.5493905346946
30
6E-16
41
1
10
-48.2999999999999
20
-3.43078723702686
30
6E-16
41
1
10
-48.2999999999999
20
-3.33452834177101
30
6E-16
41
1
10
-48.2999999999999
20
-3.23827071234683
30
6E-16
41
1
10
-48.2999999999999
20
-3.11968323888186
30
6E-16
41
1
10
-48.2999999999999
20
-2.9763972576242
30
6E-16
41
1
10
-48.2999999999999
20
-2.83312966280695
30
6E-16
41
1
10
-48.2999999999999
20
-2.68989995735709
30
6E-16
41
1
10
-48.2999999999999
20
-2.54673093615281
30
6E-16
41
1
10
-48.2999999999999
20
-2.42835340498934
30
6E-16
41
1
10
-48.2999999999999
20
-2.33210483961739
30
6E-16
41
1
10
-48.2999999999999
20
-2.26063536694386
30
6E-16
41
1
10
-48.2999999999999
20
-2.18920496049071
30
6E-16
41
1
10
-48.2999999999999
20
-2.11781396766759
30
6E-16
41
1
10
-48.2999999999999
20
-2.04645318736365
30
6E-16
41
1
10
-48.2999999999999
20
-1.95042373572571
30
6E-16
41
1
10
-48.2999999999999
20
-1.85738517673588
30
6E-16
41
1
10
-48.2999999999999
20
-1.76148268994555
30
6E-16
41
1
10
-48.2999999999999
20
-1.66566845968214
30
6E-16
41
1
10
-48.2999999999999
20
-1.57300568038056
30
6E-16
41
1
10
-48.2999999999999
20
-1.47735113591224
30
6E-16
41
1
10
-48.2999999999999
20
-1.38179732051373
30
6E-16
41
1
10
-48.2999999999999
20
-1.28954369165814
30
6E-16
41
1
10
-48.2999999999999
20
-1.19416572492491
30
6E-16
41
1
10
-48.2999999999999
20
-1.0989000573677
30
6E-16
41
1
10
-48.2999999999999
20
-0.98245221211539
30
6E-16
41
1
10
-48.2999999999999
20
-0.841586183466262
30
6E-16
41
1
10
-48.2999999999999
20
-0.725505983440371
30
6E-16
41
1
10
-48.2999999999999
20
-0.630667457966069
30
6E-16
41
1
10
-48.2999999999999
20
-0.560480352627565
30
6E-16
41
1
10
-48.2999999999999
20
-0.490320947144568
30
6E-16
41
1
10
-48.2999999999999
20
-0.420191796768449
30
6E-16
41
1
10
-48.2999999999999
20
-0.350113667187827
30
6E-16
41
1
10
-48.2999999999999
20
-0.280062256420109
30
6E-16
41
1
10
-48.2999999999999
20
-0.210017157782488
30
6E-16
41
1
10
-48.2999999999999
20
-0.139999797922002
30
6E-16
41
1
10
-48.2999999999999
20
-0.0700069276307715
30
6E-16
41
1
10
-48.2999999999999
20
-4.76035495E-08
30
6E-16
41
1
10
-48.2999999999999
20
0.0700068522659194
30
6E-16
41
1
10
-48.2999999999999
20
0.139999771278355
30
6E-16
41
1
10
-48.2999999999999
20
0.210017192178867
30
6E-16
41
1
10
-48.2999999999999
20
0.280062327764426
30
6E-16
41
1
10
-48.2999999999999
20
0.350113717602739
30
6E-16
41
1
10
-48.2999999999999
20
0.420191773133013
30
6E-16
41
1
10
-48.2999999999999
20
0.490320831948708
30
6E-16
41
1
10
-48.2999999999999
20
0.560480204117283
30
6E-16
41
1
10
-48.2999999999999
20
0.630667364061651
30
6E-16
41
1
10
-48.2999999999999
20
0.725506055183956
30
6E-16
41
1
10
-48.2999999999999
20
0.841586301072908
30
6E-16
41
1
10
-48.2999999999999
20
0.982452087600734
30
6E-16
41
1
10
-48.2999999999999
20
1.0988998543464
30
6E-16
41
1
10
-48.2999999999999
20
1.19416572065762
30
6E-16
41
1
10
-48.2999999999999
20
1.28954388060515
30
6E-16
41
1
10
-48.2999999999999
20
1.38179747741992
30
6E-16
41
1
10
-48.2999999999999
20
1.47735105462405
30
6E-16
41
1
10
-48.2999999999999
20
1.57300541448589
30
6E-16
41
1
10
-48.2999999999999
20
1.66566826608278
30
6E-16
41
1
10
-48.2999999999999
20
1.7614827566702
30
6E-16
41
1
10
-48.2999999999999
20
1.85738542747043
30
6E-16
41
1
10
-48.2999999999999
20
1.95042391104269
30
6E-16
41
1
10
-48.2999999999999
20
2.04645309751422
30
6E-16
41
1
10
-48.2999999999999
20
2.11781369872008
30
6E-16
41
1
10
-48.2999999999999
20
2.1892046545733
30
6E-16
41
1
10
-48.2999999999999
20
2.26063516689573
30
6E-16
41
1
10
-48.2999999999999
20
2.33210483720984
30
6E-16
41
1
10
-48.2999999999999
20
2.42835363712962
30
6E-16
41
1
10
-48.2999999999999
20
2.54673116818745
30
6E-16
41
1
10
-48.2999999999999
20
2.68989982354518
30
6E-16
41
1
10
-48.2999999999999
20
2.83312933609358
30
6E-16
41
1
10
-48.2999999999999
20
2.9763972238697
30
6E-16
41
1
10
-48.2999999999999
20
3.1196835191557
30
6E-16
41
1
10
-48.2999999999999
20
3.23827092858158
30
6E-16
41
1
10
-48.2999999999999
20
3.3345283326579
30
6E-16
41
1
10
-48.2999999999999
20
3.43078700052169
30
6E-16
41
1
10
-48.2999999999999
20
3.54939021067565
30
6E-16
41
1
10
-48.2999999999999
20
3.74171256557344
30
6E-16
41
1
10
-48.2999999999999
20
3.92953209444406
30
6E-16
41
1
10
-48.2999999999999
20
4.12122845571991
30
6E-16
41
1
10
-48.2999999999999
20
4.31277503954936
30
6E-16
41
1
10
-48.2999999999999
20
4.54886466434414
30
6E-16
41
1
10
-48.2999999999999
20
4.78423382727124
30
6E-16
41
1
10
-48.2999999999999
20
4.97430327353658
30
6E-16
41
1
10
-48.2999999999999
20
5.16409912297942
30
6E-16
41
1
10
-48.2999999999999
20
5.39813607390266
30
6E-16
41
1
10
-48.2999999999999
20
5.67923146024083
30
6E-16
41
1
10
-48.2999999999999
20
5.95919374753973
30
6E-16
41
1
10
-48.2999999999999
20
6.23795855201797
30
6E-16
41
1
10
-48.2999999999999
20
6.51546317325875
30
6E-16
41
1
10
-48.2999999999999
20
6.7916534025982
30
6E-16
41
1
10
-48.2999999999999
20
7.06648207689202
30
6E-16
41
1
10
-48.2999999999999
20
7.33990643048304
30
6E-16
41
1
10
-48.2999999999999
20
7.61188395990183
30
6E-16
41
1
10
-48.2999999999999
20
7.88237631719019
30
6E-16
41
1
10
-48.2999999999999
20
8.15135709229654
30
6E-16
41
1
10
-48.2999999999999
20
8.418796053622
30
6E-16
41
1
10
-48.2999999999999
20
8.68466042952298
30
6E-16
41
1
10
-48.2999999999999
20
8.94892880419636
30
6E-16
41
1
10
-48.2999999999999
20
9.211578053919
30
6E-16
41
1
10
-48.2999999999999
20
9.47258829745539
30
6E-16
41
1
10
-48.2999999999999
20
9.73193781693985
30
6E-16
41
1
10
-48.2999999999999
20
10.0769274508058
30
6E-16
41
1
10
-48.2999999999999
20
10.414392862813
30
6E-16
41
1
10
-48.2999999999999
20
10.7523970809122
30
6E-16
41
1
10
-48.2999999999999
20
11.0031992619305
30
6E-16
41
1
10
-48.2999999999999
20
11.2522511703231
30
6E-16
41
1
10
-48.2999999999999
20
11.4995374559565
30
6E-16
41
1
10
-48.2999999999999
20
11.7450470242588
30
6E-16
41
1
10
-48.2999999999999
20
12.0712140924269
30
6E-16
41
1
10
-48.2999999999999
20
12.3902774266109
30
6E-16
41
1
10
-48.2999999999999
20
12.7091123929265
30
6E-16
41
1
10
-48.2999999999999
20
12.9455818593715
30
6E-16
41
1
10
-48.2999999999999
20
13.180217502072
30
6E-16
41
1
10
-48.2999999999999
20
13.4130051102497
30
6E-16
41
1
10
-48.2999999999999
20
13.6439372705323
30
6E-16
41
1
10
-48.2999999999999
20
13.8730093523109
30
6E-16
41
1
10
-48.2999999999999
20
14.1002065298018
30
6E-16
41
1
10
-48.2999999999999
20
14.3255243550819
30
6E-16
41
1
10
-48.2999999999999
20
14.5489565829083
30
6E-16
41
1
10
-48.2999999999999
20
14.770489234737
30
6E-16
41
1
10
-48.2999999999999
20
14.9901189866894
30
6E-16
41
1
10
-48.2999999999999
20
15.281352479629
30
6E-16
41
1
10
-48.2999999999999
20
15.5659774253293
30
6E-16
41
1
10
-48.2999999999999
20
15.8494406493609
30
6E-16
41
1
10
-48.2999999999999
20
16.1303138068004
30
6E-16
41
1
10
-48.2999999999999
20
16.4745711051771
30
6E-16
41
1
10
-48.2999999999999
20
16.8122723965627
30
6E-16
41
1
10
-48.2999999999999
20
17.0799573317746
30
6E-16
41
1
10
-48.2999999999999
20
17.3449849938592
30
6E-16
41
1
10
-48.2999999999999
20
17.6694739164694
30
6E-16
41
1
10
-48.2999999999999
20
17.9872478593115
30
6E-16
41
1
10
-48.2999999999999
20
18.2387699128343
30
6E-16
41
1
10
-48.2999999999999
20
18.4875640333771
30
6E-16
41
1
10
-48.2999999999999
20
18.791772354773
30
6E-16
41
1
10
-48.2999999999999
20
19.1494103733366
30
6E-16
41
1
10
-48.2999999999999
20
19.4397871566124
30
6E-16
41
1
10
-48.2999999999999
20
19.669100665748
30
6E-16
41
1
10
-48.2999999999999
20
19.895582003726
30
6E-16
41
1
10
-48.2999999999999
20
20.1718725940103
30
6E-16
41
1
10
-48.2999999999999
20
20.4956027399135
30
6E-16
41
1
10
-48.2999999999999
20
20.8106419777062
30
6E-16
41
1
10
-48.2999999999999
20
21.1168973616587
30
6E-16
41
1
10
-48.2999999999999
20
21.4142718340937
30
6E-16
41
1
10
-48.2999999999999
20
21.6540306704864
30
6E-16
41
1
10
-48.2999999999999
20
21.8423074648877
30
6E-16
41
1
10
-48.2999999999999
20
22.0275248431941
30
6E-16
41
1
10
-48.2999999999999
20
22.2520666060928
30
6E-16
41
1
10
-48.2999999999999
20
22.5128489142549
30
-3E-16
41
1
10
-48.2999999999999
20
22.7217969951793
30
-3E-16
41
1
10
-48.2999999999999
20
22.8850691676056
30
-3E-16
41
1
10
-48.2999999999999
20
23.0451147420464
30
-3E-16
41
1
10
-48.2999999999999
20
23.2380159650749
30
-3E-16
41
1
10
-48.2999999999999
20
23.4227343577602
30
-3E-16
41
1
10
-48.2999999999999
20
23.56631942935
30
-3E-16
41
1
10
-48.2999999999999
20
23.706527651766
30
-3E-16
41
1
10
-48.2999999999999
20
23.8403627529258
30
-3E-16
41
1
10
-48.2999999999999
20
23.9703009446161
30
2E-16
41
1
10
-48.2999999999999
20
24.0648335402232
30
2E-16
41
1
10
-48.2999999999999
20
24.1567363770153
30
2E-16
41
1
10
-48.2999999999999
20
24.2459872479919
30
2E-16
41
1
10
-48.2999999999999
20
24.332559240169
30
2E-16
41
1
10
-48.2999999999999
20
24.4164275727652
30
2E-16
41
1
10
-48.2999999999999
20
24.4975687788098
30
-1E-16
41
1
10
-48.2999999999999
20
24.5759532931461
30
-1E-16
41
1
10
-48.2999999999999
20
24.6515543847243
30
-1E-16
41
1
10
-48.2999999999999
20
24.7489365992492
30
-1E-16
41
1
10
-48.2999999999999
20
24.8396716901456
30
0
41
1
10
-48.2999999999999
20
24.9255447336429
30
0
41
1
10
-48.2999999999999
20
24.9867823634066
30
0
41
1
10
-48.2999999999999
20
25.0450517307761
30
-1E-16
41
1
10
-48.2999999999999
20
25.1003164440549
30
-1E-16
41
1
10
-48.2999999999999
20
25.1525401455548
30
-1E-16
41
1
10
-48.2999999999999
20
25.2016867590414
30
-1E-16
41
1
10
-48.2999999999999
20
25.2477155324425
30
-1E-16
41
1
10
-48.2999999999999
20
25.3050936187466
30
2E-16
41
1
10
-48.2999999999999
20
25.3683434953549
30
2E-16
41
1
10
-48.2999999999999
20
25.4206808727754
30
2E-16
41
1
10
-48.2999999999999
20
25.4560606117695
30
2E-16
41
1
10
-48.2999999999999
20
25.479047573671
30
-3E-16
41
1
10
-48.2999999999999
20
25.4985460495789
30
-3E-16
41
1
10
-48.2999999999999
20
25.5145008161446
30
-3E-16
41
1
10
-48.2999999999999
20
25.5268535709615
30
-3E-16
41
1
10
-48.2999999999999
20
25.5355444825351
30
-3E-16
41
1
10
-48.2999999999999
20
25.540398478649
30
-3E-16
41
1
10
-48.3
20
25.5412376131546
30
-3E-16
41
1
10
-48.2999999999999
20
25.5410836657706
30
-3E-16
0
SPLINE
5
12A
100
AcDbEntity
8
SK1
62
256
6
ByLayer
370
18
48
1
60
0
100
AcDbSpline
70
4
71
2
72
6
73
3
40
0
40
0
40
0
40
1
40
1
40
1
41
1
10
-46.7999999999999
20
26.4071037202261
30
-2E-16
41
1
10
-47.5499999994058
20
25.9740938984544
30
-2E-16
41
1
10
-48.2999999999999
20
25.5410840926423
30
-3E-16
0
SPLINE
5
12B
100
AcDbEntity
8
SK1
62
256
6
ByLayer
370
18
48
1
60
0
100
AcDbSpline
70
4
71
2
72
6
73
3
40
0
40
0
40
0
40
1
40
1
40
1
41
1
10
-48.2999999999999
20
-25.5410841061086
30
-3E-16
41
1
10
-47.549999999406
20
-25.9740939119354
30
-2E-16
41
1
10
-46.7999999999999
20
-26.4071037337151
30
-2E-16
0
SPLINE
5
12C
100
AcDbEntity
8
1
62
256
6
ByLayer
370
18
48
1
60
0
100
AcDbSpline
70
4
71
3
72
30
73
26
40
0
40
0
40
0
40
0
40
0.125000000000002
40
0.125000000000002
40
0.250000000000004
40
0.250000000000004
40
0.312500000000005
40
0.312500000000005
40
0.343750000000005
40
0.343750000000005
40
0.375000000000005
40
0.375000000000005
40
0.500000000000003
40
0.500000000000003
40
0.625000000000001
40
0.625000000000001
40
0.687500000000001
40
0.687500000000001
40
0.750000000000001
40
0.750000000000001
40
0.875
40
0.875
40
0.9375
40
0.9375
40
1
40
1
40
1
40
1
41
1
10
51.8817167569889
20
41.7394552091605
30
-4E-16
41
1
10
51.4834753762906
20
42.0049121422216
30
-4E-16
41
1
10
51.1107961836132
20
42.291709551128
30
-4E-16
41
1
10
50.4123717833122
20
42.9092818120822
30
-4E-16
41
1
10
50.0866526474256
20
43.2400495125056
30
-5E-16
41
1
10
49.6335121027904
20
43.7725183527862
30
4E-16
41
1
10
49.4884034566467
20
43.9560856936475
30
4E-16
41
1
10
49.2799783999579
20
44.2412368862627
30
4E-16
41
1
10
49.2119396004996
20
44.338090698505
30
4E-16
41
1
10
49.0800079701232
20
44.5337158623773
30
4E-16
41
1
10
49.016013831831
20
44.6326132740836
30
4E-16
41
1
10
48.7058712171559
20
45.1325934338439
30
3E-16
41
1
10
48.4890202647358
20
45.5500784461289
30
3E-16
41
1
10
48.1200585590315
20
46.4229984036552
30
3E-16
41
1
10
47.9679020611075
20
46.878401492316
30
3E-16
41
1
10
47.7938232892826
20
47.5939477516158
30
3E-16
41
1
10
47.7447357991005
20
47.8391360217961
30
3E-16
41
1
10
47.6675499209158
20
48.3320166556073
30
3E-16
41
1
10
47.6392040202778
20
48.5802800956025
30
3E-16
41
1
10
47.5851616959902
20
49.3305582682147
30
3E-16
41
1
10
47.5902644264141
20
49.8380477008511
30
3E-16
41
1
10
47.6639076973136
20
50.6105340046546
30
3E-16
41
1
10
47.6996489081649
20
50.8702042859704
30
3E-16
41
1
10
47.7928045296679
20
51.3855871096359
30
3E-16
41
1
10
47.8502715757965
20
51.6422390403885
30
3E-16
41
1
10
47.9187438297463
20
51.8977819735451
30
3E-16
0
SPLINE
5
12D
100
AcDbEntity
8
1
62
256
6
ByLayer
370
18
48
1
60
0
100
AcDbSpline
70
4
71
3
72
10
73
6
40
0
40
0
40
0
40
0
40
0.5
40
0.5
40
1
40
1
40
1
40
1
41
1
10
57.3916247856537
20
38.2294603949426
30
0
41
1
10
56.5220145311408
20
38.7518507273724
30
-1E-16
41
1
10
55.6250525895074
20
39.3093988404187
30
-1E-16
41
1
10
53.7860238808296
20
40.4824726804531
30
-2E-16
41
1
10
52.8438708117592
20
41.0981093398194
30
-3E-16
41
1
10
51.8817167569889
20
41.7394552091605
30
-4E-16
0
SPLINE
5
12E
100
AcDbEntity
8
1
62
256
6
ByLayer
370
18
48
1
60
0
100
AcDbSpline
70
4
71
3
72
38
73
34
40
0
40
0
40
0
40
0
40
0.124999999999997
40
0.124999999999997
40
0.249999999999993
40
0.249999999999993
40
0.312499999999994
40
0.312499999999994
40
0.374999999999994
40
0.374999999999994
40
0.437499999999995
40
0.437499999999995
40
0.499999999999995
40
0.499999999999995
40
0.531249999999996
40
0.531249999999996
40
0.562499999999998
40
0.562499999999998
40
0.625
40
0.625
40
0.65625
40
0.65625
40
0.6875
40
0.6875
40
0.75
40
0.75
40
0.8125
40
0.8125
40
0.875
40
0.875
40
0.9375
40
0.9375
40
1
40
1
40
1
40
1
41
1
10
63.4673847396342
20
39.2016580782683
30
4E-16
41
1
10
63.3531674868367
20
39.0083241434826
30
3E-16
41
1
10
63.2186510787848
20
38.8279216142052
30
3E-16
41
1
10
62.9054304506917
20
38.4915580726145
30
3E-16
41
1
10
62.7269605711419
20
38.3355505962656
30
3E-16
41
1
10
62.4162588421259
20
38.1209112624178
30
3E-16
41
1
10
62.3054060511066
20
38.0527455486475
30
3E-16
41
1
10
62.0718815688389
20
37.9264884609047
30
3E-16
41
1
10
61.9486733510399
20
37.8679838479258
30
3E-16
41
1
10
61.686884363213
20
37.7609912791525
30
2E-16
41
1
10
61.5471117906243
20
37.7122074840227
30
2E-16
41
1
10
61.256825937934
20
37.6284904721416
30
2E-16
41
1
10
61.1060026653113
20
37.5932888544881
30
2E-16
41
1
10
60.8699697606268
20
37.5513247625214
30
2E-16
41
1
10
60.7894092031232
20
37.5391202432154
30
2E-16
41
1
10
60.6257779168871
20
37.5187120419199
30
2E-16
41
1
10
60.5436653792081
20
37.5106158335642
30
2E-16
41
1
10
60.2964494999096
20
37.492483739597
30
2E-16
41
1
10
60.130469482808
20
37.4885801945958
30
1E-16
41
1
10
59.8797641501709
20
37.4947929057118
30
1E-16
41
1
10
59.7954530741832
20
37.4989208372676
30
1E-16
41
1
10
59.6288936656046
20
37.5110318778653
30
1E-16
41
1
10
59.5466730025286
20
37.5189832693322
30
1E-16
41
1
10
59.3029278507665
20
37.5481289421185
30
1E-16
41
1
10
59.1443076554108
20
37.5745873380199
30
1E-16
41
1
10
58.8338050021504
20
37.6402673086706
30
1E-16
41
1
10
58.6852106356404
20
37.678786874804
30
1E-16
41
1
10
58.3994484967618
20
37.7653371390228
30
0
41
1
10
58.2621430865909
20
37.8134166677338
30
0
41
1
10
57.9969425082133
20
37.9183688817569
30
0
41
1
10
57.8686871992924
20
37.975440590133
30
0
41
1
10
57.6225674309606
20
38.0970421948862
30
0
41
1
10
57.504775546462
20
38.1614887222917
30
0
41
1
10
57.3916247856534
20
38.2294603949424
30
0
0
SPLINE
5
12F
100
AcDbEntity
8
1
62
256
6
ByLayer
370
18
48
1
60
0
100
AcDbSpline
70
4
71
3
72
8
73
4
40
0
40
0
40
0
40
0
40
1
40
1
40
1
40
1
41
1
10
64.5440334979995
20
41.0134234270489
30
4E-16
41
1
10
64.1604653415757
20
40.3711953103027
30
4E-16
41
1
10
63.8010411664218
20
39.7664336115385
30
4E-16
41
1
10
63.4673847396342
20
39.2016580782683
30
4E-16
0
SPLINE
5
130
100
AcDbEntity
8
1
62
256
6
ByLayer
370
18
48
1
60
0
100
AcDbSpline
70
4
71
3
72
22
73
18
40
0
40
0
40
0
40
0
40
0.125
40
0.125
40
0.25
40
0.25
40
0.375
40
0.375
40
0.5
40
0.5
40
0.625
40
0.625
40
0.75
40
0.75
40
0.875
40
0.875
40
1
40
1
40
1
40
1
41
1
10
65.8999776173509
20
41.3147345374533
30
5E-16
41
1
10
65.8437221276266
20
41.3441300763944
30
5E-16
41
1
10
65.7844199176469
20
41.3692238735975
30
5E-16
41
1
10
65.6591813477423
20
41.4098989179995
30
5E-16
41
1
10
65.5924424652361
20
41.4255061950119
30
5E-16
41
1
10
65.4580967124415
20
41.4443544619063
30
5E-16
41
1
10
65.3899507587179
20
41.4479118919265
30
5E-16
41
1
10
65.2515123288685
20
41.4420608735485
30
5E-16
41
1
10
65.1839519634391
20
41.4327150836583
30
5E-16
41
1
10
65.0534991234981
20
41.4018961120263
30
4E-16
41
1
10
64.9900404233641
20
41.3800718907568
30
4E-16
41
1
10
64.8738233673123
20
41.3269811570365
30
4E-16
41
1
10
64.8196523639088
20
41.2951871079091
30
4E-16
41
1
10
64.7223836653381
20
41.224430952597
30
4E-16
41
1
10
64.6794440060452
20
41.1857769309857
30
4E-16
41
1
10
64.6036491158762
20
41.1028358020383
30
4E-16
41
1
10
64.571169558879
20
41.0588587453428
30
4E-16
41
1
10
64.5440334979995
20
41.0134234270489
30
4E-16
0
SPLINE
5
131
100
AcDbEntity
8
1
62
256
6
ByLayer
370
18
48
1
60
0
100
AcDbSpline
70
4
71
3
72
8
73
4
40
0
40
0
40
0
40
0
40
1
40
1
40
1
40
1
41
1
10
69.1425969432021
20
39.6516122740979
30
7E-16
41
1
10
68.0790954274289
20
40.1858901910559
30
6E-16
41
1
10
66.9972803932308
20
40.7413539369716
30
6E-16
41
1
10
65.8999776173509
20
41.3147345374533
30
5E-16
0
SPLINE
5
132
100
AcDbEntity
8
1
62
256
6
ByLayer
370
18
48
1
60
0
100
AcDbSpline
70
4
71
3
72
14
73
10
40
0
40
0
40
0
40
0
40
0.25
40
0.25
40
0.5
40
0.5
40
0.75
40
0.75
40
1
40
1
40
1
40
1
41
1
10
69.7029309522097
20
38.9460322065831
30
7E-16
41
1
10
69.6919717462854
20
39.0109552990581
30
7E-16
41
1
10
69.6728142487668
20
39.0752235296797
30
7E-16
41
1
10
69.6176701498705
20
39.2022095367594
30
7E-16
41
1
10
69.5817239296171
20
39.2649355422979
30
7E-16
41
1
10
69.4898176896658
20
39.3881250238286
30
7E-16
41
1
10
69.434849113678
20
39.4471589947958
30
7E-16
41
1
10
69.3049413855909
20
39.5568675745645
30
7E-16
41
1
10
69.2290481412962
20
39.6081812442864
30
7E-16
41
1
10
69.1425969432021
20
39.6516122740979
30
7E-16
0
SPLINE
5
133
100
AcDbEntity
8
1
62
256
6
ByLayer
370
18
48
1
60
0
100
AcDbSpline
70
4
71
3
72
18
73
14
40
0
40
0
40
0
40
0
40
0.250000000000004
40
0.250000000000004
40
0.375000000000005
40
0.375000000000005
40
0.437500000000005
40
0.437500000000005
40
0.500000000000005
40
0.500000000000005
40
0.750000000000003
40
0.750000000000003
40
1
40
1
40
1
40
1
41
1
10
42.9408462084674
20
52.3552184222404
30
0
41
1
10
42.4206571462047
20
51.4394245679975
30
0
41
1
10
41.9089135487187
20
50.5319570236108
30
-1E-16
41
1
10
41.1567201316977
20
49.1824868738403
30
-1E-16
41
1
10
40.908581436544
20
48.7346193858222
30
-1E-16
41
1
10
40.5408568496757
20
48.0656567871361
30
-2E-16
41
1
10
40.4190312518697
20
47.843142320672
30
-2E-16
41
1
10
40.1770055023141
20
47.399042882728
30
-2E-16
41
1
10
40.057091881809
20
47.1779801956449
30
-2E-16
41
1
10
39.4658712392875
20
46.0822850743217
30
-2E-16
41
1
10
39.0168466715635
20
45.2317770651302
30
-3E-16
41
1
10
38.1766945750759
20
43.5823987392374
30
-3E-16
41
1
10
37.78544127624
20
42.7834799367328
30
6E-16
41
1
10
37.4320508075692
20
42.0119556198393
30
5E-16
0
SPLINE
5
134
100
AcDbEntity
8
1
62
256
6
ByLayer
370
18
48
1
60
0
100
AcDbSpline
70
4
71
3
72
8
73
4
40
0
40
0
40
0
40
0
40
1
40
1
40
1
40
1
41
1
10
47.805399361013
20
52.6657112799106
30
3E-16
41
1
10
46.1838828106132
20
52.5621194209928
30
2E-16
41
1
10
44.5623650935122
20
52.4586217683323
30
1E-16
41
1
10
42.9408462084677
20
52.3552184222403
30
0
0
SPLINE
5
135
100
AcDbEntity
8
1
62
256
6
ByLayer
370
18
48
1
60
0
100
AcDbSpline
70
4
71
3
72
14
73
10
40
0
40
0
40
0
40
0
40
0.25
40
0.25
40
0.5
40
0.5
40
0.75
40
0.75
40
1
40
1
40
1
40
1
41
1
10
47.9187438297463
20
51.8977819735451
30
3E-16
41
1
10
47.9360497097183
20
51.9623686502467
30
3E-16
41
1
10
47.9464594211074
20
52.0276163274219
30
3E-16
41
1
10
47.9540630174678
20
52.1593883674749
30
3E-16
41
1
10
47.9510978896926
20
52.2266774977964
30
3E-16
41
1
10
47.9317172151995
20
52.3581133589302
30
3E-16
41
1
10
47.9155057122675
20
52.4222509853118
30
3E-16
41
1
10
47.8700667921298
20
52.5473584964981
30
3E-16
41
1
10
47.8406814669132
20
52.6083400192882
30
3E-16
41
1
10
47.805399361013
20
52.6657112799106
30
3E-16
0
SPLINE
5
136
100
AcDbEntity
8
1
62
256
6
ByLayer
370
18
48
1
60
0
100
AcDbSpline
70
4
71
3
72
10
73
6
40
0
40
0
40
0
40
0
40
0.5
40
0.5
40
1
40
1
40
1
40
1
41
1
10
68.3785447763509
20
36.6697135715956
30
7E-16
41
1
10
68.5582480628723
20
36.9847487875496
30
7E-16
41
1
10
68.7596276847946
20
37.3337829174816
30
7E-16
41
1
10
69.2020147577172
20
38.0940066629032
30
7E-16
41
1
10
69.4430409318844
20
38.5052256453189
30
7E-16
41
1
10
69.7029309522098
20
38.9460322065831
30
7E-16
0
SPLINE
5
137
100
AcDbEntity
8
1
62
256
6
ByLayer
370
18
48
1
60
0
100
AcDbSpline
70
4
71
3
72
10
73
6
40
0
40
0
40
0
40
0
40
0.206349593408647
40
0.206349593408647
40
1
40
1
40
1
40
1
41
1
10
42.5142629425509
20
51.8026492033437
30
0
41
1
10
42.5360400829216
20
51.840361997106
30
0
41
1
10
42.5594147009086
20
51.8781370215208
30
0
41
1
10
42.6803291169743
20
52.061497786376
30
0
41
1
10
42.7996182476841
20
52.2079307844839
30
0
41
1
10
42.9408462084673
20
52.3552184222403
30
0
0
SPLINE
5
138
100
AcDbEntity
8
1
62
256
6
ByLayer
370
18
48
1
60
0
100
AcDbSpline
70
4
71
3
72
12
73
8
40
0
40
0
40
0
40
0
40
0.637347702445672
40
0.637347702445672
40
0.956021553668506
40
0.956021553668506
40
1
40
1
40
1
40
1
41
1
10
48.1055188969459
20
52.521476912445
30
-1E-16
41
1
10
48.0508770840229
20
52.5186132563737
30
-1E-16
41
1
10
47.9985128419488
20
52.5170409444326
30
-2E-16
41
1
10
47.9248878703298
20
52.5166100268563
30
-2E-16
41
1
10
47.9017453615448
20
52.5167952679754
30
-2E-16
41
1
10
47.876974740168
20
52.5173740931484
30
-2E-16
41
1
10
47.873993437
20
52.5174506892893
30
-2E-16
41
1
10
47.8710368935435
20
52.5175336583258
30
-2E-16
0
SPLINE
5
139
100
AcDbEntity
8
1
62
256
6
ByLayer
370
18
48
1
60
0
100
AcDbSpline
70
4
71
3
72
8
73
4
40
0
40
0
40
0
40
0
40
1
40
1
40
1
40
1
41
1
10
61.7503853691454
20
49.1121482696927
30
0
41
1
10
61.7976721242144
20
49.1636548946655
30
0
41
1
10
61.844958176703
20
49.2151603760091
30
0
41
1
10
61.8922435201203
20
49.2666647031586
30
-2E-16
0
SPLINE
5
13A
100
AcDbEntity
8
1
62
256
6
ByLayer
370
18
48
1
60
0
100
AcDbSpline
70
4
71
3
72
8
73
4
40
0
40
0
40
0
40
0
40
1
40
1
40
1
40
1
41
1
10
61.4675190256867
20
48.8479478925596
30
0
41
1
10
61.5537552065387
20
48.9421360116442
30
0
41
1
10
61.6477015845498
20
49.0301157105981
30
0
41
1
10
61.7503853691443
20
49.1121482696915
30
0
0
SPLINE
5
13B
100
AcDbEntity
8
1
62
256
6
ByLayer
370
18
48
1
60
0
100
AcDbSpline
70
4
71
3
72
8
73
4
40
0
40
0
40
0
40
0
40
1
40
1
40
1
40
1
41
1
10
70.7535647090885
20
47.3408171860168
30
0
41
1
10
70.6688204690501
20
47.3871138954164
30
0
41
1
10
70.5840356740722
20
47.4333887951996
30
0
41
1
10
70.4991907154065
20
47.4796312704186
30
0
0
SPLINE
5
13C
100
AcDbEntity
8
1
62
256
6
ByLayer
370
18
48
1
60
0
100
AcDbSpline
70
4
71
3
72
8
73
4
40
0
40
0
40
0
40
0
40
1
40
1
40
1
40
1
41
1
10
66.4875406298832
20
46.8513932729988
30
0
41
1
10
66.5611559040492
20
46.9057298001596
30
0
41
1
10
66.6347980576888
20
46.9600578252257
30
0
41
1
10
66.7084765525101
20
47.0143743211209
30
0
0
SPLINE
5
13D
100
AcDbEntity
8
1
62
256
6
ByLayer
370
18
48
1
60
0
100
AcDbSpline
70
4
71
3
72
8
73
4
40
0
40
0
40
0
40
0
40
1
40
1
40
1
40
1
41
1
10
66.5180161027367
20
48.4201242338399
30
0
41
1
10
66.4136871468146
20
48.4416546452039
30
0
41
1
10
66.3094097432166
20
48.463206559114
30
0
41
1
10
66.2051671060109
20
48.4847729408744
30
0
0
SPLINE
5
13E
100
AcDbEntity
8
1
62
256
6
ByLayer
370
18
48
1
60
0
100
AcDbSpline
70
4
71
3
72
8
73
4
40
0
40
0
40
0
40
0
40
1
40
1
40
1
40
1
41
1
10
70.308730265633
20
48.8853811831376
30
0
41
1
10
70.3814487593845
20
48.9286416835498
30
0
41
1
10
70.454101729901
20
48.9719093171267
30
0
41
1
10
70.5267105427976
20
49.0151817317394
30
0
0
SPLINE
5
13F
100
AcDbEntity
8
1
62
256
6
ByLayer
370
18
48
1
60
0
100
AcDbSpline
70
4
71
3
72
10
73
6
40
0
40
0
40
0
40
0
40
0.81139081362615
40
0.81139081362615
40
1
40
1
40
1
40
1
41
1
10
66.1367222585549
20
48.4977012620217
30
1E-16
41
1
10
66.1607948233052
20
48.5330216336707
30
1E-16
41
1
10
66.1855688508403
20
48.5671429441007
30
1E-16
41
1
10
66.2168263261305
20
48.6076760013139
30
1E-16
41
1
10
66.222753321236
20
48.6152539156603
30
1E-16
41
1
10
66.2287096724806
20
48.6227637441574
30
1E-16
0
SPLINE
5
140
100
AcDbEntity
8
1
62
256
6
ByLayer
370
18
48
1
60
0
100
AcDbSpline
70
4
71
3
72
14
73
10
40
0
40
0
40
0
40
0
40
0.0521076267423909
40
0.0521076267423909
40
0.310388680985747
40
0.310388680985747
40
0.568669735229103
40
0.568669735229103
40
1
40
1
40
1
40
1
41
1
10
70.1739741499157
20
46.4974854335851
30
-1E-16
41
1
10
70.1702637668221
20
46.4872435003096
30
-1E-16
41
1
10
70.1664683328709
20
46.4769052889821
30
-1E-16
41
1
10
70.1433773704293
20
46.415036218136
30
-1E-16
41
1
10
70.1223159481431
20
46.3624430466036
30
-1E-16
41
1
10
70.076140689976
20
46.2568786510791
30
-1E-16
41
1
10
70.0508998040346
20
46.2036223944465
30
-1E-16
41
1
10
69.9786273135713
20
46.0636560011546
30
-1E-16
41
1
10
69.9285306853072
20
45.97866989625
30
-1E-16
41
1
10
69.8733510416212
20
45.8966482107128
30
-1E-16
0
SPLINE
5
141
100
AcDbEntity
8
1
62
256
6
ByLayer
370
18
48
1
60
0
100
AcDbSpline
70
4
71
3
72
10
73
6
40
0
40
0
40
0
40
0
40
0.842288194616013
40
0.842288194616013
40
1
40
1
40
1
40
1
41
1
10
66.3181946322197
20
49.1534956046292
30
-4E-16
41
1
10
66.4614399373009
20
49.1847245817567
30
-4E-16
41
1
10
66.6006457529009
20
49.2159204624319
30
-3E-16
41
1
10
66.761595289815
20
49.2529221183725
30
-3E-16
41
1
10
66.7868632897788
20
49.2587567688513
30
-3E-16
41
1
10
66.8120033083881
20
49.2645903707499
30
-3E-16
0
SPLINE
5
142
100
AcDbEntity
8
1
62
256
6
ByLayer
370
18
48
1
60
0
100
AcDbSpline
70
4
71
3
72
8
73
4
40
0
40
0
40
0
40
0
40
1
40
1
40
1
40
1
41
1
10
61.047501716752
20
48.1836692348459
30
2E-16
41
1
10
61.0663114760221
20
48.1879519759109
30
2E-16
41
1
10
61.0851215725171
20
48.192234004287
30
2E-16
41
1
10
61.1039320130622
20
48.1965153055493
30
2E-16
0
SPLINE
5
143
100
AcDbEntity
8
1
62
256
6
ByLayer
370
18
48
1
60
0
100
AcDbSpline
70
4
71
3
72
8
73
4
40
0
40
0
40
0
40
0
40
1
40
1
40
1
40
1
41
1
10
52.0303673971716
20
45.7060718119179
30
-3E-16
41
1
10
51.9215894266814
20
45.853483599617
30
-4E-16
41
1
10
51.8175145107106
20
45.9990156379813
30
-4E-16
41
1
10
51.7162868008217
20
46.1434096853406
30
-4E-16
0
SPLINE
5
144
100
AcDbEntity
8
1
62
256
6
ByLayer
370
18
48
1
60
0
100
AcDbSpline
70
4
71
3
72
10
73
6
40
0
40
0
40
0
40
0
40
0.5
40
0.5
40
1
40
1
40
1
40
1
41
1
10
52.7825208269105
20
44.7553048876532
30
-3E-16
41
1
10
52.7266845526671
20
44.8216567763972
30
-3E-16
41
1
10
52.6703037055073
20
44.8893428779321
30
-3E-16
41
1
10
52.5580079299265
20
45.025915831957
30
-3E-16
41
1
10
52.5020466690632
20
45.0948556499293
30
-3E-16
41
1
10
52.4463067275889
20
45.1645702597521
30
-3E-16
0
SPLINE
5
145
100
AcDbEntity
8
1
62
256
6
ByLayer
370
18
48
1
60
0
100
AcDbSpline
70
4
71
3
72
10
73
6
40
0
40
0
40
0
40
0
40
0.5
40
0.5
40
1
40
1
40
1
40
1
41
1
10
53.2982845579616
20
44.8059296830552
30
-3E-16
41
1
10
53.2102044122236
20
44.7964000191804
30
-3E-16
41
1
10
53.1223225378994
20
44.7873899881555
30
-3E-16
41
1
10
52.950416147226
20
44.7705850994605
30
-3E-16
41
1
10
52.8659166596734
20
44.7627352344652
30
-3E-16
41
1
10
52.7825208269105
20
44.7553048876532
30
-3E-16
0
SPLINE
5
146
100
AcDbEntity
8
1
62
256
6
ByLayer
370
18
48
1
60
0
100
AcDbSpline
70
4
71
3
72
10
73
6
40
0
40
0
40
0
40
0
40
0.5
40
0.5
40
1
40
1
40
1
40
1
41
1
10
54.5101209140726
20
44.9673435462329
30
-2E-16
41
1
10
54.4215745585933
20
44.9536623671099
30
-2E-16
41
1
10
54.3323841472582
20
44.9401867077475
30
-2E-16
41
1
10
54.1523006934869
20
44.913778702671
30
-2E-16
41
1
10
54.0619756678356
20
44.9009349781317
30
-2E-16
41
1
10
53.97222368005
20
44.8886462495071
30
-2E-16
0
SPLINE
5
147
100
AcDbEntity
8
1
62
256
6
ByLayer
370
18
48
1
60
0
100
AcDbSpline
70
4
71
3
72
8
73
4
40
0
40
0
40
0
40
0
40
1
40
1
40
1
40
1
41
1
10
54.700737297288
20
45.4412699643957
30
-2E-16
41
1
10
54.63412059131
20
45.277498018261
30
-2E-16
41
1
10
54.571047967678
20
45.12040046111
30
-2E-16
41
1
10
54.5101209140727
20
44.9673435462329
30
-2E-16
0
SPLINE
5
148
100
AcDbEntity
8
1
62
256
6
ByLayer
370
18
48
1
60
0
100
AcDbSpline
70
4
71
3
72
10
73
6
40
0
40
0
40
0
40
0
40
0.5
40
0.5
40
1
40
1
40
1
40
1
41
1
10
55.1714869751461
20
46.5674870024999
30
-2E-16
41
1
10
55.1359160576401
20
46.4842644074144
30
-2E-16
41
1
10
55.100099724118
20
46.4001680087724
30
-2E-16
41
1
10
55.0290230687913
20
46.2325110044605
30
-2E-16
41
1
10
54.9937329213807
20
46.1488815306629
30
-2E-16
41
1
10
54.9587370889591
20
46.0654880830133
30
-2E-16
0
SPLINE
5
149
100
AcDbEntity
8
1
62
256
6
ByLayer
370
18
48
1
60
0
100
AcDbSpline
70
4
71
3
72
8
73
4
40
0
40
0
40
0
40
0
40
1
40
1
40
1
40
1
41
1
10
54.8352728758245
20
46.9767523745989
30
-2E-16
41
1
10
54.9485612513547
20
46.8350612517046
30
-2E-16
41
1
10
55.0604482934394
20
46.6994375374295
30
-2E-16
41
1
10
55.1714869751461
20
46.5674870025
30
-2E-16
0
SPLINE
5
14A
100
AcDbEntity
8
1
62
256
6
ByLayer
370
18
48
1
60
0
100
AcDbSpline
70
4
71
3
72
10
73
6
40
0
40
0
40
0
40
0
40
0.5
40
0.5
40
1
40
1
40
1
40
1
41
1
10
54.1052529490573
20
47.9555918001873
30
-2E-16
41
1
10
54.1561557343165
20
47.8829826381949
30
-2E-16
41
1
10
54.2080896270978
20
47.8096563479905
30
-2E-16
41
1
10
54.3128978574544
20
47.6635867443171
30
-2E-16
41
1
10
54.3658128052568
20
47.5907832077302
30
-2E-16
41
1
10
54.4193335454073
20
47.5182539267646
30
-2E-16
0
SPLINE
5
14B
100
AcDbEntity
8
1
62
256
6
ByLayer
370
18
48
1
60
0
100
AcDbSpline
70
4
71
3
72
10
73
6
40
0
40
0
40
0
40
0
40
0.5
40
0.5
40
1
40
1
40
1
40
1
41
1
10
54.1052529490573
20
47.9555918001873
30
-2E-16
41
1
10
54.0167065935779
20
47.9419106210642
30
-2E-16
41
1
10
53.9275161822429
20
47.9284349617019
30
-2E-16
41
1
10
53.7474327284714
20
47.9020269566254
30
-2E-16
41
1
10
53.6571077028202
20
47.8891832320861
30
-2E-16
41
1
10
53.5673557150345
20
47.8768945034615
30
-3E-16
0
SPLINE
5
14C
100
AcDbEntity
8
1
62
256
6
ByLayer
370
18
48
1
60
0
100
AcDbSpline
70
4
71
3
72
10
73
6
40
0
40
0
40
0
40
0
40
0.5
40
0.5
40
1
40
1
40
1
40
1
41
1
10
52.8934165929462
20
47.7941779370096
30
-3E-16
41
1
10
52.8053364472082
20
47.7846482731348
30
-3E-16
41
1
10
52.7174545728841
20
47.7756382421099
30
-3E-16
41
1
10
52.5455481822106
20
47.7588333534149
30
-3E-16
41
1
10
52.461048694658
20
47.7509834884196
30
-3E-16
41
1
10
52.3776528618951
20
47.7435531416076
30
-3E-16
0
SPLINE
5
14D
100
AcDbEntity
8
1
62
256
6
ByLayer
370
18
48
1
60
0
100
AcDbSpline
70
4
71
3
72
8
73
4
40
0
40
0
40
0
40
0
40
1
40
1
40
1
40
1
41
1
10
52.1649029757081
20
47.241554222121
30
-3E-16
41
1
10
52.2360300867262
20
47.4110468330605
30
-3E-16
41
1
10
52.3069148364719
20
47.5780527143006
30
-3E-16
41
1
10
52.3776528618951
20
47.7435531416076
30
-3E-16
0
SPLINE
5
14E
100
AcDbEntity
8
1
62
256
6
ByLayer
370
18
48
1
60
0
100
AcDbSpline
70
4
71
3
72
10
73
6
40
0
40
0
40
0
40
0
40
0.5
40
0.5
40
1
40
1
40
1
40
1
41
1
10
51.7162868008217
20
46.1434096853406
30
-4E-16
41
1
10
51.7469242293436
20
46.2203750071777
30
-4E-16
41
1
10
51.778293608487
20
46.2988312171501
30
-4E-16
41
1
10
51.8418827185897
20
46.4569915718136
30
-4E-16
41
1
10
51.8741265529392
20
46.5367573269966
30
-4E-16
41
1
10
51.906903184037
20
46.6173361035034
30
-4E-16
0
INSERT
5
170
100
AcDbEntity
8
2
62
256
6
ByLayer
370
25
48
1
60
0
100
AcDbBlockReference
2
DimnDraft3D22
10
0
20
0
30
0
41
1
42
1
43
1
50
0
210
0
220
0
230
1
0
LINE
5
70
100
AcDbEntity
8
1
62
256
6
ByLayer
370
18
48
1
60
0
100
AcDbLine
10
68.378545
20
36.669714
30
0
11
33.565907
21
36.670402
31
0
39
0
210
0
220
0
230
1
0
LINE
5
72
100
AcDbEntity
8
1
62
256
6
ByLayer
370
18
48
1
60
0
100
AcDbLine
10
32.235898
20
40
30
0
11
32.235898
21
-39.990021
31
0
39
0
210
0
220
0
230
1
0
LINE
5
73
100
AcDbEntity
8
1
62
256
6
ByLayer
370
18
48
1
60
0
100
AcDbLine
10
37.432051
20
43
30
0
11
37.432051
21
42.011956
31
0
39
0
210
0
220
0
230
1
0
LINE
5
74
100
AcDbEntity
8
1
62
256
6
ByLayer
370
18
48
1
60
0
100
AcDbLine
10
0
20
40
30
0
11
-0.3
21
39.7
31
0
39
0
210
0
220
0
230
1
0
LINE
5
75
100
AcDbEntity
8
1
62
256
6
ByLayer
370
18
48
1
60
0
100
AcDbLine
10
0
20
40
30
0
11
0
21
-40
31
0
39
0
210
0
220
0
230
1
0
LINE
5
76
100
AcDbEntity
8
1
62
256
6
ByLayer
370
18
48
1
60
0
100
AcDbLine
10
-0.3
20
-39.7
30
0
11
0
21
-40
31
0
39
0
210
0
220
0
230
1
0
LINE
5
77
100
AcDbEntity
8
1
62
256
6
ByLayer
370
18
48
1
60
0
100
AcDbLine
10
-0.3
20
39.7
30
0
11
-0.3
21
-39.7
31
0
39
0
210
0
220
0
230
1
0
LINE
5
78
100
AcDbEntity
8
1
62
256
6
ByLayer
370
18
48
1
60
0
100
AcDbLine
10
0
20
-40
30
0
11
32.188545
21
-40
31
0
39
0
210
0
220
0
230
1
0
LINE
5
79
100
AcDbEntity
8
1
62
256
6
ByLayer
370
18
48
1
60
0
100
AcDbLine
10
32.235898
20
40
30
0
11
0
21
40
31
0
39
0
210
0
220
0
230
1
0
LINE
5
7A
100
AcDbEntity
8
1
62
256
6
ByLayer
370
18
48
1
60
0
100
AcDbLine
10
13.161325
20
-38.115458
30
0
11
10.238675
21
-38.115458
31
0
39
0
210
0
220
0
230
1
0
LINE
5
7B
100
AcDbEntity
8
1
62
256
6
ByLayer
370
18
48
1
60
0
100
AcDbLine
10
10.238675
20
-12.13309
30
0
11
13.161325
21
-12.13309
31
0
39
0
210
0
220
0
230
1
0
LINE
5
7C
100
AcDbEntity
8
1
62
256
6
ByLayer
370
18
48
1
60
0
100
AcDbLine
10
13.161325
20
12.13309
30
0
11
10.238675
21
12.13309
31
0
39
0
210
0
220
0
230
1
0
LINE
5
7D
100
AcDbEntity
8
1
62
256
6
ByLayer
370
18
48
1
60
0
100
AcDbLine
10
10.238675
20
38.115458
30
0
11
13.161325
21
38.115458
31
0
39
0
210
0
220
0
230
1
0
LINE
5
7E
100
AcDbEntity
8
1
62
256
6
ByLayer
370
18
48
1
60
0
100
AcDbLine
10
13.594338
20
37.944501
30
0
11
13.594338
21
12.6576
31
0
39
0
210
0
220
0
230
1
0
LINE
5
7F
100
AcDbEntity
8
1
62
256
6
ByLayer
370
18
48
1
60
0
100
AcDbLine
10
13.161325
20
38.115458
30
0
11
13.161325
21
12.13309
31
0
39
0
210
0
220
0
230
1
0
LINE
5
80
100
AcDbEntity
8
1
62
256
6
ByLayer
370
18
48
1
60
0
100
AcDbLine
10
10.238675
20
-12.13309
30
0
11
10.238675
21
-38.115458
31
0
39
0
210
0
220
0
230
1
0
LINE
5
81
100
AcDbEntity
8
1
62
256
6
ByLayer
370
18
48
1
60
0
100
AcDbLine
10
9.805662
20
-12.6576
30
0
11
9.805662
21
-37.944501
31
0
39
0
210
0
220
0
230
1
0
LINE
5
82
100
AcDbEntity
8
1
62
256
6
ByLayer
370
18
48
1
60
0
100
AcDbLine
10
13.594338
20
-12.6576
30
0
11
13.594338
21
-37.944501
31
0
39
0
210
0
220
0
230
1
0
LINE
5
83
100
AcDbEntity
8
1
62
256
6
ByLayer
370
18
48
1
60
0
100
AcDbLine
10
13.161325
20
-12.13309
30
0
11
13.161325
21
-38.115458
31
0
39
0
210
0
220
0
230
1
0
LINE
5
84
100
AcDbEntity
8
1
62
256
6
ByLayer
370
18
48
1
60
0
100
AcDbLine
10
10.238675
20
38.115458
30
0
11
10.238675
21
12.13309
31
0
39
0
210
0
220
0
230
1
0
LINE
5
85
100
AcDbEntity
8
1
62
256
6
ByLayer
370
18
48
1
60
0
100
AcDbLine
10
9.805662
20
37.944501
30
0
11
9.805662
21
12.6576
31
0
39
0
210
0
220
0
230
1
0
LINE
5
86
100
AcDbEntity
8
SK1
62
256
6
ByLayer
370
18
48
1
60
0
100
AcDbLine
10
-0.5
20
28.683485
30
0
11
-0.5
21
6.576573
31
0
39
0
210
0
220
0
230
1
0
LINE
5
88
100
AcDbEntity
8
SK1
62
256
6
ByLayer
370
18
48
1
60
0
100
AcDbLine
10
-0.5
20
-6.576573
30
0
11
-0.5
21
-28.683485
31
0
39
0
210
0
220
0
230
1
0
LINE
5
89
100
AcDbEntity
8
SK1
62
256
6
ByLayer
370
18
48
1
60
0
100
AcDbLine
10
-1.607107
20
4.393239
30
0
11
-1.607107
21
-4.393239
31
0
39
0
210
0
220
0
230
1
0
LINE
5
8A
100
AcDbEntity
8
1
62
256
6
ByLayer
370
18
48
1
60
0
100
AcDbLine
10
63.467385
20
39.201658
30
0
11
62.980865
21
38.584592
31
0
39
0
210
0
220
0
230
1
0
LINE
5
8B
100
AcDbEntity
8
1
62
256
6
ByLayer
370
18
48
1
60
0
100
AcDbLine
10
62.830496
20
38.461374
30
0
11
63.883532
21
40.175692
31
0
39
0
210
0
220
0
230
1
0
LINE
5
8C
100
AcDbEntity
8
1
62
256
6
ByLayer
370
18
48
1
60
0
100
AcDbLine
10
64.544033
20
41.013423
30
0
11
63.883532
21
40.175692
31
0
39
0
210
0
220
0
230
1
0
LINE
5
8D
100
AcDbEntity
8
1
62
256
6
ByLayer
370
18
48
1
60
0
100
AcDbLine
10
42.518118
20
51.809326
30
0
11
37.432051
21
43
31
0
39
0
210
0
220
0
230
1
0
LINE
5
8E
100
AcDbEntity
8
1
62
256
6
ByLayer
370
18
48
1
60
0
100
AcDbLine
10
64.602869
20
41.098783
30
0
11
63.948696
21
40.269079
31
0
39
0
210
0
220
0
230
1
0
LINE
5
8F
100
AcDbEntity
8
1
62
256
6
ByLayer
370
18
48
1
60
0
100
AcDbLine
10
64.067213
20
53.357994
30
0
11
64.234749
21
53.08021
31
0
39
0
210
0
220
0
230
1
0
LINE
5
90
100
AcDbEntity
8
1
62
256
6
ByLayer
370
18
48
1
60
0
100
AcDbLine
10
61.892244
20
49.266665
30
0
11
64.234749
21
53.08021
31
0
39
0
210
0
220
0
230
1
0
LINE
5
91
100
AcDbEntity
8
1
62
256
6
ByLayer
370
18
48
1
60
0
100
AcDbLine
10
59.690229
20
45.968374
30
0
11
61.314741
21
48.613042
31
0
39
0
210
0
220
0
230
1
0
LINE
5
92
100
AcDbEntity
8
1
62
256
6
ByLayer
370
18
48
1
60
0
100
AcDbLine
10
57.135418
20
41.522661
30
0
11
59.367858
21
45.157023
31
0
39
0
210
0
220
0
230
1
0
LINE
5
93
100
AcDbEntity
8
1
62
256
6
ByLayer
370
18
48
1
60
0
100
AcDbLine
10
61.916693
20
38.427447
30
0
11
63.809495
21
41.508886
31
0
39
0
210
0
220
0
230
1
0
LINE
5
94
100
AcDbEntity
8
1
62
256
6
ByLayer
370
18
48
1
60
0
100
AcDbLine
10
70.968469
20
41.915355
30
0
11
63.809495
21
41.508886
31
0
39
0
210
0
220
0
230
1
0
LINE
5
95
100
AcDbEntity
8
1
62
256
6
ByLayer
370
18
48
1
60
0
100
AcDbLine
10
70.968469
20
41.915355
30
0
11
71.140912
21
41.629435
31
0
39
0
210
0
220
0
230
1
0
LINE
5
96
100
AcDbEntity
8
1
62
256
6
ByLayer
370
18
48
1
60
0
100
AcDbLine
10
63.504372
20
40.336552
30
0
11
62.263659
21
38.316699
31
0
39
0
210
0
220
0
230
1
0
LINE
5
97
100
AcDbEntity
8
1
62
256
6
ByLayer
370
18
48
1
60
0
100
AcDbLine
10
64.067213
20
53.357994
30
0
11
48.105519
21
52.521477
31
0
39
0
210
0
220
0
230
1
0
LINE
5
98
100
AcDbEntity
8
1
62
256
6
ByLayer
370
18
48
1
60
0
100
AcDbLine
10
69.628661
20
39.167525
30
0
11
71.140912
21
41.629435
31
0
39
0
210
0
220
0
230
1
0
LINE
5
99
100
AcDbEntity
8
1
62
256
6
ByLayer
370
18
48
1
60
0
100
AcDbLine
10
61.916693
20
38.427447
30
0
11
61.798967
21
38.253033
31
0
39
0
210
0
220
0
230
1
0
LINE
5
9A
100
AcDbEntity
8
1
62
256
6
ByLayer
370
18
48
1
60
0
100
AcDbLine
10
63.305553
20
40.803225
30
0
11
61.583155
21
37.999199
31
0
39
0
210
0
220
0
230
1
0
LINE
5
9B
100
AcDbEntity
8
1
62
256
6
ByLayer
370
18
48
1
60
0
100
AcDbLine
10
63.243618
20
40.681259
30
0
11
63.318982
21
40.80395
31
0
39
0
210
0
220
0
230
1
0
LINE
5
9C
100
AcDbEntity
8
1
62
256
6
ByLayer
370
18
48
1
60
0
100
AcDbLine
10
63.161311
20
40.54532
30
0
11
63.809495
21
41.508886
31
0
39
0
210
0
220
0
230
1
0
LINE
5
9D
100
AcDbEntity
8
1
62
256
6
ByLayer
370
18
48
1
60
0
100
AcDbLine
10
57.210531
20
40.792867
30
0
11
56.855192
21
40.214384
31
0
39
0
210
0
220
0
230
1
0
LINE
5
9E
100
AcDbEntity
8
1
62
256
6
ByLayer
370
18
48
1
60
0
100
AcDbLine
10
63.243618
20
40.681259
30
0
11
63.2532
21
40.681803
31
0
39
0
210
0
220
0
230
1
0
LINE
5
9F
100
AcDbEntity
8
1
62
256
6
ByLayer
370
18
48
1
60
0
100
AcDbLine
10
61.212222
20
37.687167
30
0
11
63.120316
21
40.793501
31
0
39
0
210
0
220
0
230
1
0
LINE
5
A0
100
AcDbEntity
8
1
62
256
6
ByLayer
370
18
48
1
60
0
100
AcDbLine
10
57.281211
20
40.721142
30
0
11
56.808648
21
39.95182
31
0
39
0
210
0
220
0
230
1
0
LINE
5
A1
100
AcDbEntity
8
1
62
256
6
ByLayer
370
18
48
1
60
0
100
AcDbLine
10
69.940909
20
46.201959
30
0
11
70.447692
21
46.844726
31
0
39
0
210
0
220
0
230
1
0
LINE
5
A2
100
AcDbEntity
8
1
62
256
6
ByLayer
370
18
48
1
60
0
100
AcDbLine
10
66.107541
20
48.360952
30
0
11
66.205167
21
48.484773
31
0
39
0
210
0
220
0
230
1
0
LINE
5
A3
100
AcDbEntity
8
1
62
256
6
ByLayer
370
18
48
1
60
0
100
AcDbLine
10
66.511039
20
48.980864
30
0
11
66.223481
21
48.616146
31
0
39
0
210
0
220
0
230
1
0
LINE
5
A4
100
AcDbEntity
8
1
62
256
6
ByLayer
370
18
48
1
60
0
100
AcDbLine
10
61.204332
20
48.354485
30
0
11
61.151738
21
48.347726
31
0
39
0
210
0
220
0
230
1
0
LINE
5
A5
100
AcDbEntity
8
1
62
256
6
ByLayer
370
18
48
1
60
0
100
AcDbLine
10
57.74888
20
42.506468
30
0
11
57.707455
21
42.453927
31
0
39
0
210
0
220
0
230
1
0
LINE
5
A6
100
AcDbEntity
8
1
62
256
6
ByLayer
370
18
48
1
60
0
100
AcDbLine
10
57.856112
20
40.517652
30
0
11
58.474973
21
41.302569
31
0
39
0
210
0
220
0
230
1
0
LINE
5
A7
100
AcDbEntity
8
1
62
256
6
ByLayer
370
18
48
1
60
0
100
AcDbLine
10
78.858974
20
54.998916
30
0
11
67.006959
21
54.377778
31
0
39
0
210
0
220
0
230
1
0
LINE
5
A8
100
AcDbEntity
8
1
62
256
6
ByLayer
370
18
48
1
60
0
100
AcDbLine
10
73.415799
20
43.751591
30
0
11
79.585066
21
53.795017
31
0
39
0
210
0
220
0
230
1
0
LINE
5
A9
100
AcDbEntity
8
1
62
256
6
ByLayer
370
18
48
1
60
0
100
AcDbLine
10
58.474973
20
41.302569
30
0
11
70.326988
21
41.923707
31
0
39
0
210
0
220
0
230
1
0
LINE
5
AA
100
AcDbEntity
8
1
62
256
6
ByLayer
370
18
48
1
60
0
100
AcDbLine
10
63.918148
20
52.549894
30
0
11
57.74888
21
42.506468
31
0
39
0
210
0
220
0
230
1
0
LINE
5
AB
100
AcDbEntity
8
1
62
256
6
ByLayer
370
18
48
1
60
0
100
AcDbLine
10
66.465372
20
54.214576
30
0
11
64.319905
21
52.94494
31
0
39
0
210
0
220
0
230
1
0
LINE
5
AC
100
AcDbEntity
8
1
62
256
6
ByLayer
370
18
48
1
60
0
100
AcDbLine
10
57.856112
20
40.517652
30
0
11
63.336003
21
40.804841
31
0
39
0
210
0
220
0
230
1
0
LINE
5
AD
100
AcDbEntity
8
1
62
256
6
ByLayer
370
18
48
1
60
0
100
AcDbLine
10
61.555602
20
48.926297
30
0
11
59.486776
21
45.558296
31
0
39
0
210
0
220
0
230
1
0
LINE
5
AE
100
AcDbEntity
8
1
62
256
6
ByLayer
370
18
48
1
60
0
100
AcDbLine
10
72.718741
20
42.85461
30
0
11
73.337602
21
43.639527
31
0
39
0
210
0
220
0
230
1
0
LINE
5
AF
100
AcDbEntity
8
1
62
256
6
ByLayer
370
18
48
1
60
0
100
AcDbLine
10
63.996345
20
52.661957
30
0
11
63.912547
21
52.555675
31
0
39
0
210
0
220
0
230
1
0
LINE
5
B0
100
AcDbEntity
8
1
62
256
6
ByLayer
370
18
48
1
60
0
100
AcDbLine
10
60.324625
20
32.711924
30
0
11
60.049166
21
32.733574
31
0
39
0
210
0
220
0
230
1
0
LINE
5
B1
100
AcDbEntity
8
1
62
256
6
ByLayer
370
18
48
1
60
0
100
AcDbLine
10
61.061131
20
32.236047
30
0
11
60.67237
21
32.321658
31
0
39
0
210
0
220
0
230
1
0
LINE
5
B2
100
AcDbEntity
8
1
62
256
6
ByLayer
370
18
48
1
60
0
100
AcDbLine
10
61.135255
20
32.159772
30
0
11
61.061131
21
32.236047
31
0
39
0
210
0
220
0
230
1
0
LINE
5
B3
100
AcDbEntity
8
1
62
256
6
ByLayer
370
18
48
1
60
0
100
AcDbLine
10
61.020043
20
32.19085
30
0
11
61.061131
21
32.236047
31
0
39
0
210
0
220
0
230
1
0
LINE
5
B4
100
AcDbEntity
8
1
62
256
6
ByLayer
370
18
48
1
60
0
100
AcDbLine
10
52.893417
20
47.794178
30
0
11
52.524537
21
47.326318
31
0
39
0
210
0
220
0
230
1
0
LINE
5
B5
100
AcDbEntity
8
1
62
256
6
ByLayer
370
18
48
1
60
0
100
AcDbLine
10
53.198476
20
47.409035
30
0
11
53.567356
21
47.876895
31
0
39
0
210
0
220
0
230
1
0
LINE
5
B6
100
AcDbEntity
8
1
62
256
6
ByLayer
370
18
48
1
60
0
100
AcDbLine
10
54.050454
20
47.050394
30
0
11
54.419334
21
47.518254
31
0
39
0
210
0
220
0
230
1
0
LINE
5
B7
100
AcDbEntity
8
1
62
256
6
ByLayer
370
18
48
1
60
0
100
AcDbLine
10
54.835273
20
46.976752
30
0
11
54.466393
21
46.508892
31
0
39
0
210
0
220
0
230
1
0
LINE
5
B8
100
AcDbEntity
8
1
62
256
6
ByLayer
370
18
48
1
60
0
100
AcDbLine
10
54.589857
20
45.597628
30
0
11
54.958737
21
46.065488
31
0
39
0
210
0
220
0
230
1
0
LINE
5
B9
100
AcDbEntity
8
1
62
256
6
ByLayer
370
18
48
1
60
0
100
AcDbLine
10
54.700737
20
45.44127
30
0
11
54.331857
21
44.97341
31
0
39
0
210
0
220
0
230
1
0
LINE
5
BA
100
AcDbEntity
8
1
62
256
6
ByLayer
370
18
48
1
60
0
100
AcDbLine
10
52.183068
20
47.284408
30
0
11
52.524537
21
47.326318
31
0
39
0
210
0
220
0
230
1
0
LINE
5
BB
100
AcDbEntity
8
1
62
256
6
ByLayer
370
18
48
1
60
0
100
AcDbLine
10
55.171487
20
46.567487
30
0
11
54.79154
21
46.085591
31
0
39
0
210
0
220
0
230
1
0
LINE
5
BC
100
AcDbEntity
8
1
62
256
6
ByLayer
370
18
48
1
60
0
100
AcDbLine
10
54.589857
20
45.597628
30
0
11
54.79154
21
46.085591
31
0
39
0
210
0
220
0
230
1
0
LINE
5
BD
100
AcDbEntity
8
1
62
256
6
ByLayer
370
18
48
1
60
0
100
AcDbLine
10
54.79154
20
46.085591
30
0
11
54.466393
21
46.508892
31
0
39
0
210
0
220
0
230
1
0
LINE
5
BE
100
AcDbEntity
8
1
62
256
6
ByLayer
370
18
48
1
60
0
100
AcDbLine
10
54.105253
20
47.955592
30
0
11
53.725306
21
47.473696
31
0
39
0
210
0
220
0
230
1
0
LINE
5
BF
100
AcDbEntity
8
1
62
256
6
ByLayer
370
18
48
1
60
0
100
AcDbLine
10
53.198476
20
47.409035
30
0
11
53.725306
21
47.473696
31
0
39
0
210
0
220
0
230
1
0
LINE
5
C0
100
AcDbEntity
8
1
62
256
6
ByLayer
370
18
48
1
60
0
100
AcDbLine
10
54.050454
20
47.050394
30
0
11
53.725306
21
47.473696
31
0
39
0
210
0
220
0
230
1
0
LINE
5
C1
100
AcDbEntity
8
80
62
256
6
ByLayer
370
18
48
1
60
0
100
AcDbLine
10
0
20
0
30
0
11
-0.5
21
0
31
0
39
0
210
0
220
0
230
1
0
LINE
5
C2
100
AcDbEntity
8
81
62
256
6
ByLayer
370
18
48
1
60
0
100
AcDbLine
10
79.895416
20
54.982963
30
0
11
79.895416
21
55.482963
31
0
39
0
210
0
220
0
230
1
0
LINE
5
C3
100
AcDbEntity
8
4
62
256
6
ByLayer
370
18
48
0.05
60
0
100
AcDbLine
10
0
20
0
30
0
11
63.379623
21
0
31
0
39
0
210
0
220
0
230
1
0
LINE
5
C5
100
AcDbEntity
8
SK4
62
256
6
ByLayer
370
18
48
0.05
60
0
100
AcDbLine
10
63.379623
20
0
30
0
11
-63.913354
21
0
31
0
39
0
210
0
220
0
230
1
0
MTEXT
5
14F
100
AcDbEntity
8
SK6
62
256
6
ByLayer
370
18
48
1
60
0
100
AcDbMText
10
-11.211908
20
-65.487181
30
0
210
0
220
0
230
1
1
\W0.7390;C8-PDJNR-55080-1504HP
40
3.175
41
0
44
1.084337
50
0
71
7
72
5
7
iso_b_vert
0
DIMENSION
5
161
100
AcDbEntity
8
SK2
62
256
6
ByLayer
370
13
48
1
60
0
100
AcDbDimension
2
DimnDraft3D1
10
-40
20
71.260257
30
0
11
-0.81213
21
71.260257
31
0
70
32
71
5
72
1
41
1
210
0
220
0
230
1
3
Standard
100
AcDbAlignedDimension
13
40
23
1.5875
33
0
14
-40
24
1.5875
34
0
50
0
100
AcDbRotatedDimension
1001
ACAD
1000
DSTYLE
1002
{
1070
   279
1070
     0
1070
   172
1070
     1
1070
   173
1070
     1
1070
   340
1005
150
1070
   271
1070
     1
1070
   272
1070
     2
1070
    77
1070
     1
1070
    73
1070
     0
1070
   171
1070
     3
1070
   274
1070
     4
1070
   177
1070
     7
1070
   176
1070
     7
1070
   178
1070
     7
1070
    78
1070
     8
1070
    48
1040
-0.005
1070
    41
1041
3.175
1070
   147
1041
1.75006
1070
    42
1041
1.5875
1070
    44
1041
3.175
1070
   140
1041
3.50012
1070
   343
1005
0
1070
   344
1005
0
1002
}
0
DIMENSION
5
17E
100
AcDbEntity
8
SK2
62
256
6
ByLayer
370
13
48
1
60
0
100
AcDbDimension
2
DimnDraft3D3
10
67.006959
20
54.377778
30
0
11
71.641169
21
-64.288304
31
0
70
34
71
5
72
1
41
1
210
0
220
0
230
1
3
Standard
100
AcDb2LineAngularDimension
13
79.501639
23
53.683211
33
0
14
79.501639
24
54.683211
34
0
15
78.858974
25
54.998916
35
0
16
68.224688
26
-65.809026
36
0
40
0
0
DIMENSION
5
18C
100
AcDbEntity
8
2
62
256
6
ByLayer
370
13
48
1
60
0
100
AcDbDimension
2
DimnDraft3D4
10
99.769429
20
0
30
0
11
99.769429
21
27.491482
31
0
70
32
71
5
72
1
41
1
210
0
220
0
230
1
3
Standard
100
AcDbAlignedDimension
13
81.482916
23
54.982963
33
0
14
64.967123
24
0
34
0
50
90
100
AcDbRotatedDimension
1001
ACAD
1000
DSTYLE
1002
{
1070
    74
1070
     0
1070
   279
1070
     0
1070
   172
1070
     1
1070
   173
1070
     1
1070
   340
1005
150
1070
   271
1070
     1
1070
   272
1070
     2
1070
    77
1070
     1
1070
    73
1070
     0
1070
   171
1070
     3
1070
   274
1070
     4
1070
   177
1070
     7
1070
   176
1070
     7
1070
   178
1070
     7
1070
    78
1070
     8
1070
    48
1040
-0.005
1070
    41
1041
3.175
1070
   147
1041
1.75006
1070
    42
1041
1.5875
1070
    44
1041
3.175
1070
   140
1041
3.50012
1070
   343
1005
18D
1070
   344
1005
18D
1002
}
0
ENDSEC
0
SECTION
2
OBJECTS
0
DICTIONARY
5
1fe
330
0
100
AcDbDictionary
280
0
281
1
3
ACAD_GROUP
350
1ff
3
ACAD_MLINESTYLE
350
200
0
DICTIONARY
5
1ff
330
0
100
AcDbDictionary
280
0
281
1
0
DICTIONARY
5
200
330
0
100
AcDbDictionary
280
0
281
1
3
Standard
350
18
0
MLINESTYLE
5
18
330
200
100
AcDbMlineStyle
2
Standard
70
0
3

62
256
51
90
52
90
71
2
49
-0.5
62
256
6
ByLayer
49
0.5
62
256
6
ByLayer
0
RASTERVARIABLES
5
1ec
330

100
AcDbRasterVariables
90
0
70
1
71
1
72
1
0
ENDSEC
0
EOF
