0
SECTION
2
HEADER
9
$ACADVER
1
AC1015
9
$DWGCODEPAGE
3
ANSI_1252
9
$HANDSEED
5
209
9
$ANGBASE
50
0
9
$ANGDIR
70
0
9
$ATTMODE
70
1
9
$AUNITS
70
0
9
$AUPREC
70
0
9
$CECOLOR
62
256
9
$CELTSCALE
40
1
9
$CELTYPE
6
ByLayer
9
$CELWEIGHT
370
18
9
$CLAYER
8
0
9
$CMLJUST
70
0
9
$CMLSCALE
40
1
9
$CMLSTYLE
2
Standard
9
$DIMSTYLE
2
Standard
9
$TEXTSIZE
40
0.2
9
$TEXTSTYLE
7
Standard
9
$LUNITS
70
2
9
$LUPREC
70
4
9
$EXTNAMES
290
1
9
$INSUNITS
70
4
9
$LTSCALE
40
1
9
$LWDISPLAY
290
1
9
$PDMODE
70
0
9
$PDSIZE
40
0
9
$PLINEGEN
70
0
0
ENDSEC
0
SECTION
2
CLASSES
0
CLASS
1
RASTERVARIABLES
2
AcDbRasterVariables
3
ISM
90
0
280
0
281
0
0
ENDSEC
0
SECTION
2
TABLES
0
TABLE
2
VPORT
5
1ff
100
AcDbSymbolTable
0
VPORT
5
1
100
AcDbSymbolTableRecord
100
AcDbViewportTableRecord
2
*Active
70
0
10
0
20
0
11
1
21
1
12
-1
22
1
13
0
23
0
14
0.5
24
0.5
15
10
25
10
16
0
26
0
36
1
17
0
27
0
37
0
0
ENDTAB
0
TABLE
2
LTYPE
5
200
100
AcDbSymbolTable
0
LTYPE
5
14
100
AcDbSymbolTableRecord
100
AcDbLinetypeTableRecord
70
0
2
ByBlock
3

72
65
73
0
40
0
0
LTYPE
5
15
100
AcDbSymbolTableRecord
100
AcDbLinetypeTableRecord
70
0
2
ByLayer
3

72
65
73
0
40
0
0
LTYPE
5
16
100
AcDbSymbolTableRecord
100
AcDbLinetypeTableRecord
70
0
2
CONTINUOUS
3
Solid line
72
65
73
0
40
0
0
LTYPE
5
6A
100
AcDbSymbolTableRecord
100
AcDbLinetypeTableRecord
70
0
2
CENTER
3
____ _ ____ _ ____ _ ____
72
65
73
4
40
47.5
49
22
74
0
49
-8.5
74
0
49
8.5
74
0
49
-8.5
74
0
0
LTYPE
5
6B
100
AcDbSymbolTableRecord
100
AcDbLinetypeTableRecord
70
0
2
DASHED
3
__ __ __ __ __ __ __ __ __
72
65
73
2
40
25.72
49
12.86
74
0
49
-12.86
74
0
0
ENDTAB
0
TABLE
2
LAYER
5
201
100
AcDbSymbolTable
0
LAYER
5
10
100
AcDbSymbolTableRecord
100
AcDbLayerTableRecord
2
0
70
0
62
7
6
CONTINUOUS
290
1
370
-3
390
0
0
LAYER
5
6D
100
AcDbSymbolTableRecord
100
AcDbLayerTableRecord
2
80
70
0
62
-6
6
CONTINUOUS
290
1
370
-3
390
0
0
LAYER
5
6F
100
AcDbSymbolTableRecord
100
AcDbLayerTableRecord
2
81
70
0
62
-3
6
CONTINUOUS
290
1
370
-3
390
0
0
LAYER
5
71
100
AcDbSymbolTableRecord
100
AcDbLayerTableRecord
2
1
70
0
62
4
6
CONTINUOUS
290
1
370
-3
390
0
0
LAYER
5
CD
100
AcDbSymbolTableRecord
100
AcDbLayerTableRecord
2
4
70
0
62
-2
6
CENTER
290
1
370
-3
390
0
0
LAYER
5
161
100
AcDbSymbolTableRecord
100
AcDbLayerTableRecord
2
2
70
0
62
7
6
CONTINUOUS
290
1
370
-3
390
0
0
LAYER
5
1eb
100
AcDbSymbolTableRecord
100
AcDbLayerTableRecord
2
SK1
70
0
62
4
6
CONTINUOUS
290
1
370
-3
390
0
0
LAYER
5
1ec
100
AcDbSymbolTableRecord
100
AcDbLayerTableRecord
2
SK4
70
0
62
2
6
CENTER
290
1
370
-3
390
0
0
LAYER
5
1ed
100
AcDbSymbolTableRecord
100
AcDbLayerTableRecord
2
SK6
70
0
62
5
6
CONTINUOUS
290
1
370
-3
390
0
0
LAYER
5
1ee
100
AcDbSymbolTableRecord
100
AcDbLayerTableRecord
2
SK2
70
0
62
7
6
CONTINUOUS
290
1
370
-3
390
0
0
ENDTAB
0
TABLE
2
STYLE
5
202
100
AcDbSymbolTable
0
STYLE
5
11
100
AcDbSymbolTableRecord
100
AcDbTextStyleTableRecord
2
Standard
3
txt
70
0
71
0
40
0
41
1
42
0
50
0
0
STYLE
5
15C
100
AcDbSymbolTableRecord
100
AcDbTextStyleTableRecord
2
iso_b_vert
3
simplex.shx
70
0
71
0
40
0
41
1
42
0
50
0
0
STYLE
5
15D
100
AcDbSymbolTableRecord
100
AcDbTextStyleTableRecord
2
DWGDirectTextStyle
3
simplex
70
0
71
0
40
0
41
1
42
0
50
0
0
ENDTAB
0
TABLE
2
DIMSTYLE
5
203
100
AcDbSymbolTable
100
AcDbDimStyleTable
0
DIMSTYLE
105
27
100
AcDbSymbolTableRecord
100
AcDbDimStyleTableRecord
2
Standard
70
0
3
<>
41
0.18
42
0.0625
44
0.18
140
0.18
147
0.09
73
0
74
0
77
1
271
2
275
0
278
52
280
0
340
11
0
ENDTAB
0
TABLE
2
VIEW
5
204
100
AcDbSymbolTable
0
ENDTAB
0
TABLE
2
UCS
5
205
100
AcDbSymbolTable
0
ENDTAB
0
TABLE
2
APPID
5
206
100
AcDbSymbolTable
0
APPID
5
12
100
AcDbSymbolTableRecord
100
AcDbRegAppTableRecord
2
ACAD
70
0
0
ENDTAB
0
TABLE
2
BLOCK_RECORD
5
207
100
AcDbSymbolTable
0
BLOCK_RECORD
5
1F
100
AcDbSymbolTableRecord
100
AcDbBlockTableRecord
2
*Model_Space
340
0
70
0
0
BLOCK_RECORD
5
1B
100
AcDbSymbolTableRecord
100
AcDbBlockTableRecord
2
*Paper_Space
340
0
70
0
0
BLOCK_RECORD
5
23
100
AcDbSymbolTableRecord
100
AcDbBlockTableRecord
2
*Paper_Space0
340
0
70
0
0
BLOCK_RECORD
5
15F
100
AcDbSymbolTableRecord
100
AcDbBlockTableRecord
2
DimnDraft3D1
340
0
70
0
0
BLOCK_RECORD
5
16E
100
AcDbSymbolTableRecord
100
AcDbBlockTableRecord
2
_CLOSED
340
0
70
0
0
BLOCK_RECORD
5
175
100
AcDbSymbolTableRecord
100
AcDbBlockTableRecord
2
DimnDraft3D2
340
0
70
0
0
BLOCK_RECORD
5
184
100
AcDbSymbolTableRecord
100
AcDbBlockTableRecord
2
DimnDraft3D3
340
0
70
0
0
ENDTAB
0
ENDSEC
0
SECTION
2
BLOCKS
0
BLOCK
5
20
100
AcDbEntity
8
0
100
AcDbBlockBegin
2
*Model_Space
70
0
10
0
20
0
30
0
3
*Model_Space
0
ENDBLK
5
21
100
AcDbEntity
8
0
100
AcDbBlockEnd
0
BLOCK
5
1C
100
AcDbEntity
8
0
100
AcDbBlockBegin
2
*Paper_Space
70
0
10
0
20
0
30
0
3
*Paper_Space
0
ENDBLK
5
1D
100
AcDbEntity
8
0
100
AcDbBlockEnd
0
BLOCK
5
24
100
AcDbEntity
8
0
100
AcDbBlockBegin
2
*Paper_Space0
70
0
10
0
20
0
30
0
3
*Paper_Space0
0
ENDBLK
5
25
100
AcDbEntity
8
0
100
AcDbBlockEnd
0
BLOCK
5
16B
100
AcDbEntity
8
0
100
AcDbBlockBegin
2
DimnDraft3D1
70
0
10
0
20
0
30
0
3
DimnDraft3D1
0
MTEXT
5
160
100
AcDbEntity
8
2
62
256
6
ByLayer
370
18
48
1
60
0
100
AcDbMText
10
73.200982
20
-57.759834
30
0
210
0
220
0
230
1
1
\W0.6044;150
40
3.50012
41
0
44
1.084337
50
0
71
7
72
5
7
iso_b_vert
0
LINE
5
162
100
AcDbEntity
8
2
62
256
6
ByLayer
370
13
48
1
60
0
100
AcDbLine
10
150.436312
20
-1.587362
30
0
11
150.436312
21
-61.809864
31
0
39
0
210
0
220
0
230
1
0
LINE
5
163
100
AcDbEntity
8
2
62
256
6
ByLayer
370
13
48
1
60
0
100
AcDbLine
10
0
20
-41.2875
30
0
11
0
21
-61.809864
31
0
39
0
210
0
220
0
230
1
0
LINE
5
164
100
AcDbEntity
8
2
62
256
6
ByLayer
370
13
48
1
60
0
100
AcDbLine
10
150.436312
20
-58.634864
30
0
11
0
21
-58.634864
31
0
39
0
210
0
220
0
230
1
0
LINE
5
165
100
AcDbEntity
8
2
62
256
6
ByLayer
370
13
48
1
60
0
100
AcDbLine
10
150.436312
20
-58.634864
30
0
11
147.261314
21
-59.052861
31
0
39
0
210
0
220
0
230
1
0
LINE
5
166
100
AcDbEntity
8
2
62
256
6
ByLayer
370
13
48
1
60
0
100
AcDbLine
10
150.436312
20
-58.634864
30
0
11
147.261311
21
-58.216867
31
0
39
0
210
0
220
0
230
1
0
LINE
5
167
100
AcDbEntity
8
2
62
256
6
ByLayer
370
13
48
1
60
0
100
AcDbLine
10
147.261314
20
-59.052861
30
0
11
147.261311
21
-58.216867
31
0
39
0
210
0
220
0
230
1
0
LINE
5
168
100
AcDbEntity
8
2
62
256
6
ByLayer
370
13
48
1
60
0
100
AcDbLine
10
0
20
-58.634864
30
0
11
3.174998
21
-58.216867
31
0
39
0
210
0
220
0
230
1
0
LINE
5
169
100
AcDbEntity
8
2
62
256
6
ByLayer
370
13
48
1
60
0
100
AcDbLine
10
0
20
-58.634864
30
0
11
3.175002
21
-59.052861
31
0
39
0
210
0
220
0
230
1
0
LINE
5
16A
100
AcDbEntity
8
2
62
256
6
ByLayer
370
13
48
1
60
0
100
AcDbLine
10
3.174998
20
-58.216867
30
0
11
3.175002
21
-59.052861
31
0
39
0
210
0
220
0
230
1
0
ENDBLK
5
16C
100
AcDbEntity
8
0
100
AcDbBlockEnd
0
BLOCK
5
16F
100
AcDbEntity
8
0
100
AcDbBlockBegin
2
_CLOSED
70
0
10
0
20
0
30
0
3
_CLOSED
0
LINE
5
171
100
AcDbEntity
8
0
62
256
6
ByLayer
370
-2
48
1
60
0
100
AcDbLine
10
-1
20
0.166667
30
0
11
0
21
0
31
0
39
0
210
0
220
0
230
1
0
LINE
5
172
100
AcDbEntity
8
0
62
256
6
ByLayer
370
-2
48
1
60
0
100
AcDbLine
10
0
20
0
30
0
11
-1
21
-0.166667
31
0
39
0
210
0
220
0
230
1
0
LINE
5
173
100
AcDbEntity
8
0
62
256
6
ByLayer
370
-2
48
1
60
0
100
AcDbLine
10
-1
20
0.166667
30
0
11
-1
21
-0.166667
31
0
39
0
210
0
220
0
230
1
0
LINE
5
174
100
AcDbEntity
8
0
62
256
6
ByLayer
370
-2
48
1
60
0
100
AcDbLine
10
0
20
0
30
0
11
-1
21
0
31
0
39
0
210
0
220
0
230
1
0
ENDBLK
5
170
100
AcDbEntity
8
0
100
AcDbBlockEnd
0
BLOCK
5
181
100
AcDbEntity
8
0
100
AcDbBlockBegin
2
DimnDraft3D2
70
0
10
0
20
0
30
0
3
DimnDraft3D2
0
MTEXT
5
176
100
AcDbEntity
8
SK2
62
256
6
ByLayer
370
18
48
1
60
0
100
AcDbMText
10
-70.62325
20
-4.681952
30
0
210
0
220
0
230
1
1
\W1.2949;%%c80
40
3.50012
41
0
44
1.084337
50
90
71
7
72
5
7
iso_b_vert
0
LINE
5
178
100
AcDbEntity
8
SK2
62
256
6
ByLayer
370
13
48
1
60
0
100
AcDbLine
10
-1.2875
20
-40
30
0
11
-72.04819
21
-40
31
0
39
0
210
0
220
0
230
1
0
LINE
5
179
100
AcDbEntity
8
SK2
62
256
6
ByLayer
370
13
48
1
60
0
100
AcDbLine
10
-1.2875
20
40
30
0
11
-72.04819
21
40
31
0
39
0
210
0
220
0
230
1
0
LINE
5
17A
100
AcDbEntity
8
SK2
62
256
6
ByLayer
370
13
48
1
60
0
100
AcDbLine
10
-68.87319
20
-40
30
0
11
-68.87319
21
40
31
0
39
0
210
0
220
0
230
1
0
LINE
5
17B
100
AcDbEntity
8
SK2
62
256
6
ByLayer
370
13
48
1
60
0
100
AcDbLine
10
-68.87319
20
-40
30
0
11
-69.291186
21
-36.825002
31
0
39
0
210
0
220
0
230
1
0
LINE
5
17C
100
AcDbEntity
8
SK2
62
256
6
ByLayer
370
13
48
1
60
0
100
AcDbLine
10
-68.87319
20
-40
30
0
11
-68.455193
21
-36.824998
31
0
39
0
210
0
220
0
230
1
0
LINE
5
17D
100
AcDbEntity
8
SK2
62
256
6
ByLayer
370
13
48
1
60
0
100
AcDbLine
10
-69.291186
20
-36.825002
30
0
11
-68.455193
21
-36.824998
31
0
39
0
210
0
220
0
230
1
0
LINE
5
17E
100
AcDbEntity
8
SK2
62
256
6
ByLayer
370
13
48
1
60
0
100
AcDbLine
10
-68.87319
20
40
30
0
11
-68.455193
21
36.825002
31
0
39
0
210
0
220
0
230
1
0
LINE
5
17F
100
AcDbEntity
8
SK2
62
256
6
ByLayer
370
13
48
1
60
0
100
AcDbLine
10
-68.87319
20
40
30
0
11
-69.291186
21
36.824998
31
0
39
0
210
0
220
0
230
1
0
LINE
5
180
100
AcDbEntity
8
SK2
62
256
6
ByLayer
370
13
48
1
60
0
100
AcDbLine
10
-68.455193
20
36.825002
30
0
11
-69.291186
21
36.824998
31
0
39
0
210
0
220
0
230
1
0
ENDBLK
5
182
100
AcDbEntity
8
0
100
AcDbBlockEnd
0
BLOCK
5
18F
100
AcDbEntity
8
0
100
AcDbBlockBegin
2
DimnDraft3D3
70
0
10
0
20
0
30
0
3
DimnDraft3D3
0
MTEXT
5
185
100
AcDbEntity
8
2
62
256
6
ByLayer
370
18
48
1
60
0
100
AcDbMText
10
135.472417
20
-29.608475
30
0
210
0
220
0
230
1
1
\W0.7959;49%%d41'
40
3.50012
41
0
44
1.084337
50
342.515733362854
71
7
72
5
7
iso_b_vert
0
LINE
5
186
100
AcDbEntity
8
2
62
256
6
ByLayer
370
13
48
1
60
0
100
AcDbLine
10
139.708628
20
-9.100498
30
0
11
122.384136
21
-23.797415
31
0
39
0
210
0
220
0
230
1
0
LINE
5
187
100
AcDbEntity
8
2
62
256
6
ByLayer
370
13
48
1
60
0
100
AcDbLine
10
150.436312
20
-1.587362
30
0
11
150.436312
21
-36.786383
31
0
39
0
210
0
220
0
230
1
0
ARC
5
188
100
AcDbEntity
8
2
62
256
6
ByLayer
370
13
48
1
60
0
100
AcDbCircle
39
0
10
150.436312
20
0.000138
30
0
40
33.6115207838126
210
0
220
0
230
1
100
AcDbArc
50
220.309
51
270
0
LINE
5
189
100
AcDbEntity
8
2
62
256
6
ByLayer
370
13
48
1
60
0
100
AcDbLine
10
124.805285
20
-21.743477
30
0
11
127.22806
21
-23.837635
31
0
39
0
210
0
220
0
230
1
0
LINE
5
18A
100
AcDbEntity
8
2
62
256
6
ByLayer
370
13
48
1
60
0
100
AcDbLine
10
124.805285
20
-21.743477
30
0
11
126.6035
21
-24.393341
31
0
39
0
210
0
220
0
230
1
0
LINE
5
18B
100
AcDbEntity
8
2
62
256
6
ByLayer
370
13
48
1
60
0
100
AcDbLine
10
127.22806
20
-23.837635
30
0
11
126.6035
21
-24.393341
31
0
39
0
210
0
220
0
230
1
0
LINE
5
18C
100
AcDbEntity
8
2
62
256
6
ByLayer
370
13
48
1
60
0
100
AcDbLine
10
150.436312
20
-33.611383
30
0
11
147.252335
21
-33.954347
31
0
39
0
210
0
220
0
230
1
0
LINE
5
18D
100
AcDbEntity
8
2
62
256
6
ByLayer
370
13
48
1
60
0
100
AcDbLine
10
150.436312
20
-33.611383
30
0
11
147.272058
21
-33.118587
31
0
39
0
210
0
220
0
230
1
0
LINE
5
18E
100
AcDbEntity
8
2
62
256
6
ByLayer
370
13
48
1
60
0
100
AcDbLine
10
147.252335
20
-33.954347
30
0
11
147.272058
21
-33.118587
31
0
39
0
210
0
220
0
230
1
0
ENDBLK
5
190
100
AcDbEntity
8
0
100
AcDbBlockEnd
0
ENDSEC
0
SECTION
2
ENTITIES
0
ARC
5
D1
100
AcDbEntity
8
1
62
256
6
ByLayer
370
18
48
1
60
0
100
AcDbCircle
39
0
10
0.6
20
29.6
30
0
40
1
210
0
220
0
230
-1
100
AcDbArc
50
233.130102
51
246.421822
0
ARC
5
D2
100
AcDbEntity
8
SK1
62
256
6
ByLayer
370
18
48
1
60
0
100
AcDbCircle
39
0
10
0.6
20
-29.6
30
0
40
1
210
0
220
0
230
-1
100
AcDbArc
50
113.578178
51
126.869898
0
ELLIPSE
5
D3
100
AcDbEntity
8
1
62
256
6
ByLayer
370
18
48
1
60
0
100
AcDbEllipse
10
129.299191
20
-5.409545
30
0
11
-3.18162063613803E-16
21
-1.73205080756887
31
0
210
0
220
0
230
1
40
0.989133
41
-0.0872586161486158
42
0.959938935047986
0
ELLIPSE
5
D4
100
AcDbEntity
8
1
62
256
6
ByLayer
370
18
48
1
60
0
100
AcDbEllipse
10
129.299191
20
-5.409545
30
0
11
-3.18162063613803E-16
21
-1.73205080756887
31
0
210
0
220
0
230
1
40
0.989133
41
-2.18165371854181
42
-1.1344561673452
0
ELLIPSE
5
D5
100
AcDbEntity
8
1
62
256
6
ByLayer
370
18
48
1
60
0
100
AcDbEllipse
10
129.299191
20
-5.409545
30
0
11
-3.18162063613803E-16
21
-1.73205080756887
31
0
210
0
220
0
230
1
40
0.989133
41
3.05433403744118
42
-2.18165371854181
0
ELLIPSE
5
D6
100
AcDbEntity
8
1
62
256
6
ByLayer
370
18
48
1
60
0
100
AcDbEllipse
10
129.299191
20
-5.409545
30
0
11
-3.18162063613803E-16
21
-1.73205080756887
31
0
210
0
220
0
230
1
40
0.989133
41
2.00713648624457
42
3.05433403744118
0
ELLIPSE
5
D7
100
AcDbEntity
8
1
62
256
6
ByLayer
370
18
48
1
60
0
100
AcDbEllipse
10
129.299191
20
-5.409545
30
0
11
-5.82759548625224E-16
21
-3.1725
31
0
210
0
220
0
230
1
40
0.989133
41
0
42
6.28318530717959
0
ELLIPSE
5
D8
100
AcDbEntity
8
1
62
256
6
ByLayer
370
18
48
1
60
0
100
AcDbEllipse
10
129.299191
20
-5.409545
30
0
11
-3.18162063613803E-16
21
-1.73205080756887
31
0
210
0
220
0
230
1
40
0.989133
41
-1.1344561673452
42
-0.0872586161486158
0
ELLIPSE
5
D9
100
AcDbEntity
8
1
62
256
6
ByLayer
370
18
48
1
60
0
100
AcDbEllipse
10
129.205837
20
-5.409545
30
0
11
-7.34763812293426E-16
21
-4
31
0
210
0
220
0
230
1
40
0.989133
41
3.14159265358979
42
-2.00524694845888
0
ELLIPSE
5
DA
100
AcDbEntity
8
1
62
256
6
ByLayer
370
18
48
1
60
0
100
AcDbEllipse
10
129.205837
20
-5.409545
30
0
11
-7.34763812293426E-16
21
-4
31
0
210
0
220
0
230
1
40
0.989133
41
-1.13634570513092
42
-1.13445616734522
0
ELLIPSE
5
DB
100
AcDbEntity
8
1
62
256
6
ByLayer
370
18
48
1
60
0
100
AcDbEllipse
10
132.850329
20
2.462246
30
0
11
-4.43196599545277E-16
21
-2.41272959898187
31
0
210
0
220
0
230
1
40
0.989133
41
2.44346879924316
42
3.06322808756199
0
ELLIPSE
5
DC
100
AcDbEntity
8
1
62
256
6
ByLayer
370
18
48
1
60
0
100
AcDbEllipse
10
131.747657
20
2.462246
30
0
11
-4.59227382683391E-16
21
-2.5
31
0
210
0
220
0
230
1
40
0.989133
41
2.44346879924315
42
2.87595396973238
0
ELLIPSE
5
DD
100
AcDbEntity
8
1
62
256
6
ByLayer
370
18
48
1
60
0
100
AcDbEllipse
10
130.858153
20
2.436486
30
0
11
-4.5922738268341E-16
21
-2.5000000000001
31
0
210
0
220
0
230
1
40
0.989133
41
1.65778489786613
42
2.90147058856533
0
ELLIPSE
5
DE
100
AcDbEntity
8
1
62
256
6
ByLayer
370
18
48
1
60
0
100
AcDbEllipse
10
132.034337
20
2.436486
30
0
11
-4.5922738268341E-16
21
-2.5000000000001
31
0
210
0
220
0
230
1
40
0.989133
41
2.90049196417829
42
3.14159265358979
0
ELLIPSE
5
DF
100
AcDbEntity
8
1
62
256
6
ByLayer
370
18
48
1
60
0
100
AcDbEllipse
10
130.931665
20
2.436486
30
0
11
1.53075794227803E-16
21
2.5000000000001
31
0
210
0
220
0
230
1
40
0.989133
41
-1.46066122974676
42
-0.224847154474536
0
ELLIPSE
5
E0
100
AcDbEntity
8
1
62
256
6
ByLayer
370
18
48
1
60
0
100
AcDbEllipse
10
129.125495
20
-5.409545
30
0
11
2.44921270764475E-16
21
4
31
0
210
0
220
0
230
1
40
0.989133
41
0
42
0.862658309383669
0
ELLIPSE
5
E1
100
AcDbEntity
8
1
62
256
6
ByLayer
370
18
48
1
60
0
100
AcDbEllipse
10
128.711099
20
-5.409545
30
0
11
9.18454765366783E-17
21
1.5
31
0
210
0
220
0
230
1
40
0.989133
41
-3.07324688725927
42
-2.70525249414009
0
ELLIPSE
5
E2
100
AcDbEntity
8
1
62
256
6
ByLayer
370
18
48
1
60
0
100
AcDbEllipse
10
128.564076
20
-5.409545
30
0
11
-2.75536429610035E-16
21
-1.5
31
0
210
0
220
0
230
1
40
0.989133
41
0.15406427061623
42
2.92751097391104
0
ELLIPSE
5
E3
100
AcDbEntity
8
1
62
256
6
ByLayer
370
18
48
1
60
0
100
AcDbEllipse
10
140.664879
20
-7.767113
30
0
11
-7.3476381229345E-17
21
-0.400000000000013
31
0
210
0
220
0
230
1
40
0.989133
41
0
42
0.698139547248837
0
ELLIPSE
5
E4
100
AcDbEntity
8
1
62
256
6
ByLayer
370
18
48
1
60
0
100
AcDbEllipse
10
129.205837
20
-5.409545
30
0
11
-7.34763812293426E-16
21
-4
31
0
210
0
220
0
230
1
40
0.989133
41
0
42
3.14159265358979
0
ELLIPSE
5
E5
100
AcDbEntity
8
1
62
256
6
ByLayer
370
18
48
1
60
0
100
AcDbEllipse
10
128.711099
20
-5.409545
30
0
11
9.18454765366783E-17
21
1.5
31
0
210
0
220
0
230
1
40
0.989133
41
-2.70525249414009
42
-1.65805494294352
0
ELLIPSE
5
E6
100
AcDbEntity
8
1
62
256
6
ByLayer
370
18
48
1
60
0
100
AcDbEllipse
10
129.205837
20
-5.409545
30
0
11
-7.34763812293426E-16
21
-4
31
0
210
0
220
0
230
1
40
0.989133
41
-1.13445616734522
42
-2.24484073350127E-16
0
ELLIPSE
5
E7
100
AcDbEntity
8
1
62
256
6
ByLayer
370
18
48
1
60
0
100
AcDbEllipse
10
128.711099
20
-5.409545
30
0
11
9.18454765366783E-17
21
1.5
31
0
210
0
220
0
230
1
40
0.989133
41
-1.65805494294352
42
-0.61085739174693
0
ELLIPSE
5
E8
100
AcDbEntity
8
1
62
256
6
ByLayer
370
18
48
1
60
0
100
AcDbEllipse
10
128.711099
20
-5.409545
30
0
11
9.18454765366783E-17
21
1.5
31
0
210
0
220
0
230
1
40
0.989133
41
-0.61085739174693
42
-0.141765813514897
0
ELLIPSE
5
E9
100
AcDbEntity
8
1
62
256
6
ByLayer
370
18
48
1
60
0
100
AcDbEllipse
10
129.125495
20
-5.409545
30
0
11
2.44921270764475E-16
21
4
31
0
210
0
220
0
230
1
40
0.989133
41
2.27893232774159
42
3.14159265358979
0
ELLIPSE
5
EA
100
AcDbEntity
8
1
62
256
6
ByLayer
370
18
48
1
60
0
100
AcDbEllipse
10
129.299191
20
-5.409545
30
0
11
-3.18162063613803E-16
21
-1.73205080756887
31
0
210
0
220
0
230
1
40
0.989133
41
0.959938935047986
42
2.00713648624457
0
ELLIPSE
5
EB
100
AcDbEntity
8
1
62
256
6
ByLayer
370
18
48
1
60
0
100
AcDbEllipse
10
132.273918
20
1.950858
30
0
11
1.49014662499475E-16
21
2.43367449522622
31
0
210
0
220
0
230
1
40
0.989133
41
2.04584270731215
42
2.44346879924317
0
ELLIPSE
5
EC
100
AcDbEntity
8
1
62
256
6
ByLayer
370
18
48
1
60
0
100
AcDbEllipse
10
132.034337
20
2.436486
30
0
11
-4.5922738268341E-16
21
-2.5000000000001
31
0
210
0
220
0
230
1
40
0.989133
41
3.14159265358979
42
-0.876952908668613
0
ELLIPSE
5
ED
100
AcDbEntity
8
1
62
256
6
ByLayer
370
18
48
1
60
0
100
AcDbEllipse
10
132.850329
20
2.462246
30
0
11
-4.43196599545277E-16
21
-2.41272959898187
31
0
210
0
220
0
230
1
40
0.989133
41
3.06322808756199
42
-3.04694113914237
0
ELLIPSE
5
EE
100
AcDbEntity
8
1
62
256
6
ByLayer
370
18
48
1
60
0
100
AcDbEllipse
10
129.125495
20
-5.409545
30
0
11
2.44921270764475E-16
21
4
31
0
210
0
220
0
230
1
40
0.989133
41
2.2767985079324
42
2.27893232774159
0
ELLIPSE
5
EF
100
AcDbEntity
8
1
62
256
6
ByLayer
370
18
48
1
60
0
100
AcDbEllipse
10
129.125495
20
-5.409545
30
0
11
2.44921270764475E-16
21
4
31
0
210
0
220
0
230
1
40
0.989133
41
2.05122847965542
42
2.2767985079324
0
ELLIPSE
5
F0
100
AcDbEntity
8
1
62
256
6
ByLayer
370
18
48
1
60
0
100
AcDbEllipse
10
129.125495
20
-5.409545
30
0
11
2.44921270764475E-16
21
4
31
0
210
0
220
0
230
1
40
0.989133
41
0.862658309383669
42
1.09036417393437
0
ELLIPSE
5
F1
100
AcDbEntity
8
1
62
256
6
ByLayer
370
18
48
1
60
0
100
AcDbEllipse
10
126.414259
20
-8
30
0
11
1.99999987900486
21
0.000695687112753312
31
0
210
0
220
0
230
1
40
0.00234
41
-1.98089551850055
42
-1.72112954597436
0
ELLIPSE
5
F2
100
AcDbEntity
8
1
62
256
6
ByLayer
370
18
48
1
60
0
100
AcDbEllipse
10
114.250618
20
8
30
0
11
-2.20429143688028E-15
21
-12
31
0
210
0
220
0
230
1
40
0.989133
41
1.5707963267949
42
2.14817152788634
0
ELLIPSE
5
F3
100
AcDbEntity
8
1
62
256
6
ByLayer
370
18
48
1
60
0
100
AcDbEllipse
10
114.250618
20
-8
30
0
11
-2.20429143688028E-15
21
-12
31
0
210
0
220
0
230
1
40
0.989133
41
0.99342112570339
42
1.56986125153973
0
ELLIPSE
5
F4
100
AcDbEntity
8
1
62
256
6
ByLayer
370
18
48
1
60
0
100
AcDbEllipse
10
126.414256
20
-8.011221
30
0
11
1.9999991445344
21
-0.00184982746948599
31
0
210
0
220
0
230
1
40
0.000137
41
-1.98089528612595
42
-1.71835415519968
0
ELLIPSE
5
F5
100
AcDbEntity
8
1
62
256
6
ByLayer
370
18
48
1
60
0
100
AcDbEllipse
10
116.853007
20
12.598767
30
0
11
0.468405312542659
21
-1.58211771470437
31
0
210
0
220
0
230
1
40
0.389961
41
0
42
2.6562221500118
0
ELLIPSE
5
F6
100
AcDbEntity
8
1
62
256
6
ByLayer
370
18
48
1
60
0
100
AcDbEllipse
10
116.853007
20
12.598767
30
0
11
0.468405312542659
21
-1.58211771470437
31
0
210
0
220
0
230
1
40
0.389961
41
-0.314120342681168
42
0
0
ELLIPSE
5
F7
100
AcDbEntity
8
1
62
256
6
ByLayer
370
18
48
1
60
0
100
AcDbEllipse
10
116.853007
20
-12.598767
30
0
11
0.468405312542665
21
1.58211771470437
31
0
210
0
220
0
230
1
40
0.389961
41
-2.6562221500054
42
-2.20858989010062E-14
0
ELLIPSE
5
F8
100
AcDbEntity
8
1
62
256
6
ByLayer
370
18
48
1
60
0
100
AcDbEllipse
10
116.853007
20
-12.598767
30
0
11
0.468405312542665
21
1.58211771470437
31
0
210
0
220
0
230
1
40
0.389961
41
0
42
0.314120342648726
0
ELLIPSE
5
F9
100
AcDbEntity
8
1
62
256
6
ByLayer
370
18
48
1
60
0
100
AcDbEllipse
10
116.853007
20
12.598767
30
0
11
0.638734517103639
21
-2.15743324732418
31
0
210
0
220
0
230
1
40
0.389961
41
0.405257651014466
42
2.43421392290992
0
ELLIPSE
5
FA
100
AcDbEntity
8
1
62
256
6
ByLayer
370
18
48
1
60
0
100
AcDbEllipse
10
116.853007
20
-12.598767
30
0
11
0.638734517103646
21
2.15743324732418
31
0
210
0
220
0
230
1
40
0.389961
41
-2.43421392295272
42
-0.405257650943944
0
ELLIPSE
5
FB
100
AcDbEntity
8
1
62
256
6
ByLayer
370
18
48
1
60
0
100
AcDbEllipse
10
116.269858
20
-0.002677
30
0
11
-3.03090072571005E-16
21
-1.64999999999982
31
0
210
0
220
0
230
1
40
0.469472
41
0
42
3.14159265358979
0
ELLIPSE
5
FC
100
AcDbEntity
8
1
62
256
6
ByLayer
370
18
48
1
60
0
100
AcDbEllipse
10
116.269858
20
-0.002677
30
0
11
-3.03090072571005E-16
21
-1.64999999999982
31
0
210
0
220
0
230
1
40
0.469472
41
-0.247137263271352
42
-5.21786137957484E-16
0
ELLIPSE
5
FD
100
AcDbEntity
8
1
62
256
6
ByLayer
370
18
48
1
60
0
100
AcDbEllipse
10
116.269858
20
-0.002677
30
0
11
-3.03090072571005E-16
21
-1.64999999999982
31
0
210
0
220
0
230
1
40
0.469472
41
3.14159265358979
42
-2.89411202621933
0
ELLIPSE
5
FE
100
AcDbEntity
8
1
62
256
6
ByLayer
370
18
48
1
60
0
100
AcDbEllipse
10
116.269858
20
-0.002677
30
0
11
-4.13304644415021E-16
21
-2.24999999999983
31
0
210
0
220
0
230
1
40
0.469472
41
0.393444383719117
42
2.74821678603853
0
ELLIPSE
5
FF
100
AcDbEntity
8
1
62
256
6
ByLayer
370
18
48
1
60
0
100
AcDbEllipse
10
116.181564
20
-0.002671
30
0
11
9.18454765366783E-17
21
1.5
31
0
210
0
220
0
230
1
40
0.469472
41
2.78553733504947
42
-2.58097497804641
0
ELLIPSE
5
100
100
AcDbEntity
8
1
62
256
6
ByLayer
370
18
48
1
60
0
100
AcDbEllipse
10
116.181564
20
-0.002671
30
0
11
9.18454765366783E-17
21
1.5
31
0
210
0
220
0
230
1
40
0.469472
41
-2.58097497804641
42
-0.56061767554336
0
ELLIPSE
5
101
100
AcDbEntity
8
1
62
256
6
ByLayer
370
18
48
1
60
0
100
AcDbEllipse
10
116.181564
20
-0.002671
30
0
11
9.18454765366783E-17
21
1.5
31
0
210
0
220
0
230
1
40
0.469472
41
-0.56061767554336
42
0.35645263967308
0
ELLIPSE
5
102
100
AcDbEntity
8
1
62
256
6
ByLayer
370
18
48
1
60
0
100
AcDbEllipse
10
116.764713
20
12.572626
30
0
11
-0.425823011402495
21
1.43828883154953
31
0
210
0
220
0
230
1
40
0.389961
41
2.79016041797176
42
-2.70430030842816
0
ELLIPSE
5
103
100
AcDbEntity
8
1
62
256
6
ByLayer
370
18
48
1
60
0
100
AcDbEllipse
10
116.764713
20
12.572626
30
0
11
-0.425823011402495
21
1.43828883154953
31
0
210
0
220
0
230
1
40
0.389961
41
-2.70430030842816
42
-0.486299807511033
0
ELLIPSE
5
104
100
AcDbEntity
8
1
62
256
6
ByLayer
370
18
48
1
60
0
100
AcDbEllipse
10
140.080229
20
-0.498407
30
0
11
1.59198825996909E-16
21
2.6
31
0
210
0
220
0
230
1
40
0.989133
41
-0.000281026540254737
42
-2.37435077581866E-16
0
ELLIPSE
5
105
100
AcDbEntity
8
1
62
256
6
ByLayer
370
18
48
1
60
0
100
AcDbEllipse
10
140.267294
20
0.498528
30
0
11
-4.77596477990727E-16
21
-2.6
31
0
210
0
220
0
230
1
40
0.989133
41
-0.565845867081027
42
-2.37435077581866E-16
0
ELLIPSE
5
106
100
AcDbEntity
8
1
62
256
6
ByLayer
370
18
48
1
60
0
100
AcDbEllipse
10
140.497212
20
6E-05
30
0
11
-4.31673739722388E-16
21
-2.35
31
0
210
0
220
0
230
1
40
0.989133
41
1.63704349609619
42
2.37722947639296
0
ELLIPSE
5
107
100
AcDbEntity
8
1
62
256
6
ByLayer
370
18
48
1
60
0
100
AcDbEllipse
10
140.727131
20
-0.498407
30
0
11
-4.77596477990727E-16
21
-2.6
31
0
210
0
220
0
230
1
40
0.989133
41
2.57574678650877
42
3.14159265358979
0
ELLIPSE
5
108
100
AcDbEntity
8
1
62
256
6
ByLayer
370
18
48
1
60
0
100
AcDbEllipse
10
140.267294
20
0.498528
30
0
11
-4.77596477990727E-16
21
-2.6
31
0
210
0
220
0
230
1
40
0.989133
41
0
42
1.43852618598039
0
ELLIPSE
5
109
100
AcDbEntity
8
1
62
256
6
ByLayer
370
18
48
1
60
0
100
AcDbEllipse
10
140.497212
20
6E-05
30
0
11
-4.31673739722388E-16
21
-2.35
31
0
210
0
220
0
230
1
40
0.989133
41
-1.5045491574936
42
-0.764363177196832
0
ELLIPSE
5
10A
100
AcDbEntity
8
1
62
256
6
ByLayer
370
18
48
1
60
0
100
AcDbEllipse
10
140.340806
20
0.498528
30
0
11
1.2858366715135E-16
21
2.1
31
0
210
0
220
0
230
1
40
0.989133
41
2.59964242277498
42
-1.72696210387562
0
ELLIPSE
5
10B
100
AcDbEntity
8
1
62
256
6
ByLayer
370
18
48
1
60
0
100
AcDbEllipse
10
140.570724
20
6E-05
30
0
11
1.1327608772857E-16
21
1.85
31
0
210
0
220
0
230
1
40
0.989133
41
-1.47776994698717
42
-0.791142387703279
0
ELLIPSE
5
10C
100
AcDbEntity
8
1
62
256
6
ByLayer
370
18
48
1
60
0
100
AcDbEllipse
10
140.570724
20
6E-05
30
0
11
1.1327608772857E-16
21
1.85
31
0
210
0
220
0
230
1
40
0.989133
41
1.66382270660264
42
2.35045026588653
0
ELLIPSE
5
10D
100
AcDbEntity
8
1
62
256
6
ByLayer
370
18
48
1
60
0
100
AcDbEllipse
10
140.800642
20
-0.498407
30
0
11
1.2858366715135E-16
21
2.1
31
0
210
0
220
0
230
1
40
0.989133
41
-0.541950230814815
42
1.41463054971417
0
ELLIPSE
5
10E
100
AcDbEntity
8
1
62
256
6
ByLayer
370
18
48
1
60
0
100
AcDbEllipse
10
140.727131
20
-0.498407
30
0
11
-4.77596477990727E-16
21
-2.6
31
0
210
0
220
0
230
1
40
0.989133
41
3.14159265358979
42
-1.70306646760939
0
ELLIPSE
5
10F
100
AcDbEntity
8
1
62
256
6
ByLayer
370
18
48
1
60
0
100
AcDbEllipse
10
116.853007
20
-12.598767
30
0
11
0.425823011402458
21
1.43828883154954
31
0
210
0
220
0
230
1
40
0.389961
41
-2.74041384259674
42
-2.70430030842812
0
ELLIPSE
5
110
100
AcDbEntity
8
1
62
256
6
ByLayer
370
18
48
1
60
0
100
AcDbEllipse
10
116.853007
20
-12.598767
30
0
11
0.425823011402458
21
1.43828883154954
31
0
210
0
220
0
230
1
40
0.389961
41
-0.0231645741944855
42
0.916794463233099
0
ELLIPSE
5
111
100
AcDbEntity
8
1
62
256
6
ByLayer
370
18
48
1
60
0
100
AcDbEllipse
10
116.853007
20
-12.598767
30
0
11
0.425823011402458
21
1.43828883154954
31
0
210
0
220
0
230
1
40
0.389961
41
-2.70430030842812
42
-0.437292345161684
0
ELLIPSE
5
112
100
AcDbEntity
8
1
62
256
6
ByLayer
370
18
48
1
60
0
100
AcDbEllipse
10
116.853007
20
-12.598767
30
0
11
0.425823011402458
21
1.43828883154954
31
0
210
0
220
0
230
1
40
0.389961
41
-0.437292345161684
42
-0.0231645741944855
0
ELLIPSE
5
113
100
AcDbEntity
8
1
62
256
6
ByLayer
370
18
48
1
60
0
100
AcDbEllipse
10
140.664879
20
-7.767113
30
0
11
-7.3476381229345E-17
21
-0.400000000000013
31
0
210
0
220
0
230
1
40
0.989133
41
-0.698123854346635
42
0
0
ELLIPSE
5
114
100
AcDbEntity
8
1
62
256
6
ByLayer
370
18
48
1
60
0
100
AcDbEllipse
10
139.96505
20
-7.767113
30
0
11
-7.3476381229345E-17
21
-0.400000000000013
31
0
210
0
220
0
230
1
40
0.989133
41
-0.698123854346611
42
0
0
ELLIPSE
5
115
100
AcDbEntity
8
1
62
256
6
ByLayer
370
18
48
1
60
0
100
AcDbEllipse
10
139.964929
20
7.767233
30
0
11
-7.3476381229345E-17
21
-0.400000000000013
31
0
210
0
220
0
230
1
40
0.989133
41
3.14159265358979
42
-2.44345310634093
0
ELLIPSE
5
116
100
AcDbEntity
8
1
62
256
6
ByLayer
370
18
48
1
60
0
100
AcDbEllipse
10
140.664758
20
7.767233
30
0
11
-7.3476381229345E-17
21
-0.400000000000013
31
0
210
0
220
0
230
1
40
0.989133
41
2.44346879924318
42
3.14159265358979
0
ELLIPSE
5
117
100
AcDbEntity
8
1
62
256
6
ByLayer
370
18
48
1
60
0
100
AcDbEllipse
10
140.664819
20
6E-05
30
0
11
-4.7392265892926E-16
21
-2.58
31
0
210
0
220
0
230
1
40
0.989133
41
0
42
3.14159265358979
0
ELLIPSE
5
118
100
AcDbEntity
8
1
62
256
6
ByLayer
370
18
48
1
60
0
100
AcDbEllipse
10
140.664819
20
6E-05
30
0
11
-4.7392265892926E-16
21
-2.58
31
0
210
0
220
0
230
1
40
0.989133
41
-1.5707884803438
42
-2.47613345692313E-16
0
ELLIPSE
5
119
100
AcDbEntity
8
1
62
256
6
ByLayer
370
18
48
1
60
0
100
AcDbEllipse
10
131.414932
20
-8E-06
30
0
11
-1.45804694001977E-16
21
-0.79375
31
0
210
0
220
0
230
1
40
0.989133
41
-2.44345310634097
42
-1.77175214862999
0
ELLIPSE
5
11A
100
AcDbEntity
8
1
62
256
6
ByLayer
370
18
48
1
60
0
100
AcDbEllipse
10
140.664819
20
6E-05
30
0
11
-4.7392265892926E-16
21
-2.58
31
0
210
0
220
0
230
1
40
0.989133
41
3.14159265358979
42
-1.5707884803438
0
ELLIPSE
5
11B
100
AcDbEntity
8
1
62
256
6
ByLayer
370
18
48
1
60
0
100
AcDbEllipse
10
149.214876
20
0.000128
30
0
11
-1.45804694001977E-16
21
-0.79375
31
0
210
0
220
0
230
1
40
0.989133
41
0.698139547248825
42
2.4434687992432
0
ELLIPSE
5
11C
100
AcDbEntity
8
1
62
256
6
ByLayer
370
18
48
1
60
0
100
AcDbEllipse
10
140.664758
20
7.767233
30
0
11
-7.3476381229345E-17
21
-0.400000000000013
31
0
210
0
220
0
230
1
40
0.989133
41
3.14159265358979
42
-2.44345310634093
0
ELLIPSE
5
11D
100
AcDbEntity
8
1
62
256
6
ByLayer
370
18
48
1
60
0
100
AcDbEllipse
10
-6.763884
20
0
30
0
11
18.7348357595653
21
39.4834983055021
31
0
210
0
220
0
230
-1
40
0.341999
41
0.161099005228943
42
1.08794676716927
0
ELLIPSE
5
11E
100
AcDbEntity
8
1
62
256
6
ByLayer
370
18
48
1
60
0
100
AcDbEllipse
10
118.321442
20
13.033515
30
0
11
0.65896542637604
21
2.2922863254174
31
0
210
0
220
0
230
-1
40
0.78694
41
-0.465185376504957
42
2.67640727708479
0
ELLIPSE
5
11F
100
AcDbEntity
8
1
62
256
6
ByLayer
370
18
48
1
60
0
100
AcDbEllipse
10
118.321442
20
13.033515
30
0
11
0.658965426375797
21
2.29228632541774
31
0
210
0
220
0
230
-1
40
0.78694
41
-2.40990250420815
42
-0.465185376504982
0
ELLIPSE
5
120
100
AcDbEntity
8
1
62
256
6
ByLayer
370
18
48
1
60
0
100
AcDbEllipse
10
118.321442
20
-13.033515
30
0
11
0.658965426376014
21
-2.2922863254174
31
0
210
0
220
0
230
-1
40
0.78694
41
-2.67640727708482
42
0.465185376504971
0
ELLIPSE
5
121
100
AcDbEntity
8
1
62
256
6
ByLayer
370
18
48
1
60
0
100
AcDbEllipse
10
118.321442
20
-13.033515
30
0
11
0.658965426375577
21
-2.29228632541717
31
0
210
0
220
0
230
-1
40
0.78694
41
2.40990250420827
42
-2.67640727708489
0
ELLIPSE
5
122
100
AcDbEntity
8
1
62
256
6
ByLayer
370
18
48
1
60
0
100
AcDbEllipse
10
117.3874
20
-0.002759
30
0
11
0.00015151402261073
21
-2.2500000018822
31
0
210
0
220
0
230
-1
40
0.826206
41
-3.14147710560159
42
0.000115547988229747
0
ELLIPSE
5
123
100
AcDbEntity
8
1
62
256
6
ByLayer
370
18
48
1
60
0
100
AcDbEllipse
10
117.3874
20
-0.002759
30
0
11
0.000151514023214268
21
-2.25000000188251
31
0
210
0
220
0
230
-1
40
0.826206
41
1.57103630199255
42
-3.14147710560134
0
ELLIPSE
5
124
100
AcDbEntity
8
1
62
256
6
ByLayer
370
18
48
1
60
0
100
AcDbEllipse
10
118.321442
20
-13.033515
30
0
11
0.658965426376092
21
-2.29228632541741
31
0
210
0
220
0
230
-1
40
0.78694
41
0.465185376505049
42
2.40990250420847
0
ELLIPSE
5
125
100
AcDbEntity
8
1
62
256
6
ByLayer
370
18
48
1
60
0
100
AcDbEllipse
10
117.3874
20
-0.002759
30
0
11
0.000151514021457689
21
-2.25000000188275
31
0
210
0
220
0
230
-1
40
0.826206
41
0.0001155479878218
42
1.57103630199152
0
ELLIPSE
5
126
100
AcDbEntity
8
1
62
256
6
ByLayer
370
18
48
1
60
0
100
AcDbEllipse
10
118.321442
20
13.033515
30
0
11
0.658965426376315
21
2.29228632541738
31
0
210
0
220
0
230
-1
40
0.78694
41
2.67640727708472
42
-2.40990250420854
0
ELLIPSE
5
127
100
AcDbEntity
8
1
62
256
6
ByLayer
370
18
48
1
60
0
100
AcDbEllipse
10
116.628097
20
-8
30
0
11
-6.12303176910458E-16
21
9.99999999998807
31
0
210
0
220
0
230
-1
40
0.898876
41
1.5707963267949
42
2.30622474062562
0
ELLIPSE
5
128
100
AcDbEntity
8
1
62
256
6
ByLayer
370
18
48
1
60
0
100
AcDbEllipse
10
116.628097
20
8
30
0
11
-6.12303176911219E-16
21
10.0000000000005
31
0
210
0
220
0
230
-1
40
0.898876
41
0.835367912965148
42
1.5707963267949
0
ELLIPSE
5
129
100
AcDbEntity
8
1
62
256
6
ByLayer
370
18
48
1
60
0
100
AcDbEllipse
10
136.268242
20
0
30
0
11
27.4276158705167
21
2.7719419786541E-14
31
0
210
0
220
0
230
-1
40
0.823736
41
2.36312549096693
42
2.51818070680075
0
ELLIPSE
5
12A
100
AcDbEntity
8
1
62
256
6
ByLayer
370
18
48
1
60
0
100
AcDbEllipse
10
155.083493
20
0
30
0
11
80.2442822945199
21
8.1098005633896E-14
31
0
210
0
220
0
230
-1
40
0.191355
41
2.10828491555007
42
-2.10828491555007
0
ELLIPSE
5
12B
100
AcDbEntity
8
1
62
256
6
ByLayer
370
18
48
1
60
0
100
AcDbEllipse
10
136.268242
20
0
30
0
11
27.4276158718811
21
2.77194197879199E-14
31
0
210
0
220
0
230
-1
40
0.823736
41
-2.51818070680075
42
-2.363125490974
0
ELLIPSE
5
12C
100
AcDbEntity
8
1
62
256
6
ByLayer
370
18
48
1
60
0
100
AcDbEllipse
10
30.763884
20
0
30
0
11
18.7348357595625
21
39.4834983054984
31
0
210
0
220
0
230
-1
40
0.341999
41
-2.98049364836085
42
-2.05364588642046
0
ELLIPSE
5
12D
100
AcDbEntity
8
1
62
256
6
ByLayer
370
18
48
1
60
0
100
AcDbEllipse
10
-6.763884
20
0
30
0
11
18.7348357595672
21
-39.4834983055044
31
0
210
0
220
0
230
-1
40
0.341999
41
-1.08794676716922
42
-0.161099005228937
0
ELLIPSE
5
12E
100
AcDbEntity
8
1
62
256
6
ByLayer
370
18
48
1
60
0
100
AcDbEllipse
10
30.763884
20
0
30
0
11
18.7348357595634
21
-39.4834983054997
31
0
210
0
220
0
230
-1
40
0.341999
41
2.05364588642048
42
2.98049364836085
0
POINT
5
6C
100
AcDbEntity
8
80
62
256
6
ByLayer
370
18
48
1
60
0
100
AcDbPoint
10
0
20
0
30
0
39
0
210
0
220
0
230
1
50
360
0
POINT
5
6E
100
AcDbEntity
8
81
62
256
6
ByLayer
370
18
48
1
60
0
100
AcDbPoint
10
150.436312
20
0.000138
30
0
39
0
210
0
220
0
230
1
50
360
0
SPLINE
5
12F
100
AcDbEntity
8
1
62
256
6
ByLayer
370
18
48
1
60
0
100
AcDbSpline
70
4
71
1
72
4
73
2
40
0
40
0
40
1
40
1
41
1
10
142.105920767962
20
1.69634468886391
30
0
41
1
10
141.872067249614
20
1.30067179958875
30
0
0
SPLINE
5
130
100
AcDbEntity
8
1
62
256
6
ByLayer
370
18
48
1
60
0
100
AcDbSpline
70
4
71
3
72
33
73
29
40
0
40
0
40
0
40
0
40
0.0440173374649953
40
0.0880431366337864
40
0.132066582095993
40
0.176080709312849
40
0.211314710920743
40
0.246560180158192
40
0.281807853364071
40
0.31705021530188
40
0.352281609957752
40
0.388802433042522
40
0.425339579326381
40
0.461881530279774
40
0.498417441787863
40
0.534937228794186
40
0.573260821421905
40
0.611596553190263
40
0.649933276258171
40
0.68825822107981
40
0.726568119516448
40
0.764887294960726
40
0.803208050298288
40
0.841520103640381
40
0.881135900562458
40
0.920758258541058
40
0.960382133770826
40
1
40
1
40
1
40
1
41
1
10
130.702593906456
20
-6.40299708403084
30
0
41
1
10
130.703676810359
20
-6.37830164839263
30
0
41
1
10
130.70592244925
20
-6.32878191526861
30
0
41
1
10
130.709521915381
20
-6.25412955128222
30
0
41
1
10
130.71337606941
20
-6.17910524844928
30
0
41
1
10
130.717225189629
20
-6.10873271665656
30
0
41
1
10
130.721024979907
20
-6.04309460077506
30
0
41
1
10
130.724726012656
20
-5.98226543658021
30
0
41
1
10
130.728625769394
20
-5.92123037559618
30
0
41
1
10
130.732730092762
20
-5.86002015643989
30
0
41
1
10
130.737097525099
20
-5.79790897033387
30
0
41
1
10
130.741745960407
20
-5.73490192779982
30
0
41
1
10
130.746686169148
20
-5.67101861249229
30
0
41
1
10
130.751861708014
20
-5.60704882609351
30
0
41
1
10
130.75727060755
20
-5.54304855456665
30
0
41
1
10
130.763005303349
20
-5.4780056618457
30
0
41
1
10
130.769079062486
20
-5.41195153450426
30
0
41
1
10
130.775495392313
20
-5.34492220551397
30
0
41
1
10
130.782147440073
20
-5.27801730991557
30
0
41
1
10
130.789024568574
20
-5.21129027836668
30
0
41
1
10
130.796117735896
20
-5.14477082513228
30
0
41
1
10
130.803413266792
20
-5.07847657282125
30
0
41
1
10
130.810898825234
20
-5.01242525666268
30
0
41
1
10
130.818648507733
20
-4.94589330376094
30
0
41
1
10
130.826657152005
20
-4.87890096180967
30
0
41
1
10
130.834917690198
20
-4.81146024396096
30
0
41
1
10
130.843329435803
20
-4.74432140500164
30
0
41
1
10
130.849026589745
20
-4.69976322620087
30
0
41
1
10
130.851898238013
20
-4.67753606827238
30
0
0
SPLINE
5
131
100
AcDbEntity
8
1
62
256
6
ByLayer
370
18
48
1
60
0
100
AcDbSpline
70
4
71
3
72
33
73
29
40
0
40
0
40
0
40
0
40
0.0440173374649969
40
0.0880431366337887
40
0.132066582095997
40
0.176080709312845
40
0.211314710920705
40
0.24656018015819
40
0.28180785336405
40
0.317050215301873
40
0.352281609957751
40
0.388802433042491
40
0.425339579326379
40
0.46188153027977
40
0.498417441787853
40
0.534937228794186
40
0.573260821421917
40
0.61159655319027
40
0.649933276258171
40
0.688258221079813
40
0.726568119516447
40
0.764887294960734
40
0.803208050298297
40
0.841520103640379
40
0.881135900562451
40
0.920758258541064
40
0.960382133770813
40
1
40
1
40
1
40
1
41
1
10
130.851898238013
20
-4.67753606827238
30
0
41
1
10
130.830758227516
20
-4.66331741047118
30
0
41
1
10
130.788442077481
20
-4.6348059012995
30
0
41
1
10
130.724863417299
20
-4.59182401456044
30
0
41
1
10
130.6612047449
20
-4.54862798010357
30
0
41
1
10
130.601727071737
20
-4.50811025193617
30
0
41
1
10
130.546460472095
20
-4.47031841371517
30
0
41
1
10
130.495422591599
20
-4.43529538020045
30
0
41
1
10
130.444398152809
20
-4.40015379943537
30
0
41
1
10
130.393420659412
20
-4.36491136950339
30
0
41
1
10
130.341895513366
20
-4.32915019833777
30
0
41
1
10
130.289845207523
20
-4.29287322837522
30
0
41
1
10
130.237298135276
20
-4.25609173511185
30
0
41
1
10
130.184908579597
20
-4.21926045520467
30
0
41
1
10
130.132724951648
20
-4.18241162316314
30
0
41
1
10
130.079928886602
20
-4.14496249096121
30
0
41
1
10
130.026561895667
20
-4.10693112975
30
0
41
1
10
129.972659911524
20
-4.06833828589336
30
0
41
1
10
129.919105620363
20
-4.02981708587584
30
0
41
1
10
129.865936466141
20
-3.99139829296273
30
0
41
1
10
129.813170146194
20
-3.95309901545575
30
0
41
1
10
129.760808843499
20
-3.9149293997581
30
0
41
1
10
129.708856181595
20
-3.87689965711509
30
0
41
1
10
129.656735128632
20
-3.83859318279268
30
0
41
1
10
129.604458742809
20
-3.80002163461425
30
0
41
1
10
129.552030766662
20
-3.76119192927899
30
0
41
1
10
129.500025652529
20
-3.72253603390144
30
0
41
1
10
129.465625818192
20
-3.69688119201511
30
0
41
1
10
129.448495704384
20
-3.68408367116516
30
0
0
SPLINE
5
132
100
AcDbEntity
8
1
62
256
6
ByLayer
370
18
48
1
60
0
100
AcDbSpline
70
4
71
3
72
34
73
30
40
0
40
0
40
0
40
0
40
0.0321339282226948
40
0.0642677498739663
40
0.0964262954384441
40
0.12858471620496
40
0.170120734778769
40
0.211667146018913
40
0.253211376300606
40
0.294744420067567
40
0.327988445849234
40
0.361244145671412
40
0.394502854707715
40
0.427756859990001
40
0.460999464051345
40
0.495629486103475
40
0.530273358643799
40
0.564922307025092
40
0.599567030612329
40
0.634197766732596
40
0.670588439200793
40
0.706991482671264
40
0.743400507350972
40
0.779807036190409
40
0.816200632887548
40
0.862143431016794
40
0.90809698895572
40
0.954053362099193
40
1
40
1
40
1
40
1
41
1
10
129.14988704127
20
-7.13500570268208
30
0
41
1
10
129.165341656521
20
-7.12735733063512
30
0
41
1
10
129.19634600652
20
-7.11203260860591
30
0
41
1
10
129.243146483239
20
-7.08895586384278
30
0
41
1
10
129.290251688434
20
-7.06578866782943
30
0
41
1
10
129.34227566549
20
-7.04027076980669
30
0
41
1
10
129.399330486168
20
-7.01237505565504
30
0
41
1
10
129.461543539473
20
-6.98207280474944
30
0
41
1
10
129.524264859681
20
-6.95164411631123
30
0
41
1
10
129.583277348214
20
-6.92313304222483
30
0
41
1
10
129.638468497454
20
-6.89657212393712
30
0
41
1
10
129.689734295471
20
-6.87198717098852
30
0
41
1
10
129.74128977404
20
-6.84735134777686
30
0
41
1
10
129.793105344097
20
-6.82268073189371
30
0
41
1
10
129.845884015924
20
-6.79764376655402
30
0
41
1
10
129.899626340408
20
-6.77224704459859
30
0
41
1
10
129.954319441918
20
-6.74650034088813
30
0
41
1
10
130.009202057446
20
-6.72076232657356
30
0
41
1
10
130.064228680389
20
-6.69505346652715
30
0
41
1
10
130.120300649645
20
-6.66895360521753
30
0
41
1
10
130.177402704212
20
-6.64247458194828
30
0
41
1
10
130.235515604149
20
-6.6156267251578
30
0
41
1
10
130.293671737368
20
-6.58885492918038
30
0
41
1
10
130.351830012162
20
-6.56217426688624
30
0
41
1
10
130.415046243903
20
-6.5332695468316
30
0
41
1
10
130.4832944397
20
-6.50217637531611
30
0
41
1
10
130.556532470268
20
-6.46893469566605
30
0
41
1
10
130.629650355271
20
-6.43586476340822
30
0
41
1
10
130.678296554476
20
-6.41393307787791
30
0
41
1
10
130.702593906456
20
-6.40299708403084
30
0
0
SPLINE
5
133
100
AcDbEntity
8
1
62
256
6
ByLayer
370
18
48
1
60
0
100
AcDbSpline
70
4
71
3
72
35
73
31
40
0
40
0
40
0
40
0
40
0.0455245127616314
40
0.0910584711522438
40
0.13658972072896
40
0.182110538847039
40
0.218841628478768
40
0.255585991390074
40
0.292332894300992
40
0.329073637867381
40
0.365801690846636
40
0.398970829166378
40
0.43215224878977
40
0.465337364672862
40
0.498518013306452
40
0.531686504751403
40
0.564853863570534
40
0.598032659371764
40
0.631216118903514
40
0.664396511313394
40
0.697565209690589
40
0.732327611776732
40
0.767099344721876
40
0.801875794288366
40
0.83665054192544
40
0.871415473159199
40
0.903548485748968
40
0.935681622750011
40
0.967840757917308
40
1
40
1
40
1
40
1
41
1
10
129.448495704384
20
-3.68408367116516
30
0
41
1
10
129.424421584166
20
-3.69491920786824
30
0
41
1
10
129.376222785553
20
-3.71664885929761
30
0
41
1
10
129.303778645207
20
-3.74941256557836
30
0
41
1
10
129.231216092707
20
-3.78234492490364
30
0
41
1
10
129.163239959465
20
-3.81331030577073
30
0
41
1
10
129.099889991783
20
-3.84227224854262
30
0
41
1
10
129.041192183526
20
-3.86919746264292
30
0
41
1
10
128.98249578675
20
-3.89621574615339
30
0
41
1
10
128.923842960174
20
-3.92331164324221
30
0
41
1
10
128.867158383164
20
-3.94959661519633
30
0
41
1
10
128.812457580785
20
-3.97505620428001
30
0
41
1
10
128.759746695728
20
-3.99967719995889
30
0
41
1
10
128.707165870459
20
-4.02432585774686
30
0
41
1
10
128.65475512577
20
-4.04898424569901
30
0
41
1
10
128.602544948963
20
-4.07363894278886
30
0
41
1
10
128.550555974709
20
-4.09828116003575
30
0
41
1
10
128.498800559217
20
-4.12290296967379
30
0
41
1
10
128.447299560645
20
-4.14749263629561
30
0
41
1
10
128.396083261604
20
-4.17203389027604
30
0
41
1
10
128.344356318592
20
-4.19690762113648
30
0
41
1
10
128.292144888904
20
-4.2221041087784
30
0
41
1
10
128.239465546703
20
-4.2476158935308
30
0
41
1
10
128.187135052541
20
-4.27304499587361
30
0
41
1
10
128.13516558393
20
-4.29838155360322
30
0
41
1
10
128.084862284285
20
-4.32298347723968
30
0
41
1
10
128.036190824318
20
-4.34685693250023
30
0
41
1
10
127.989097675364
20
-4.37001812586206
30
0
41
1
10
127.942284543954
20
-4.39310104311187
30
0
41
1
10
127.911255650575
20
-4.40843788143135
30
0
41
1
10
127.895788839198
20
-4.4160922898164
30
0
0
SPLINE
5
134
100
AcDbEntity
8
1
62
256
6
ByLayer
370
18
48
1
60
0
100
AcDbSpline
70
4
71
3
72
33
73
29
40
0
40
0
40
0
40
0
40
0.0440173374649947
40
0.088043136633789
40
0.132066582096002
40
0.176080709312848
40
0.211314710920749
40
0.2465601801582
40
0.281807853364076
40
0.31705021530188
40
0.352281609957759
40
0.388802433042554
40
0.42533957932639
40
0.461881530279785
40
0.498417441787863
40
0.534937228794186
40
0.573260821421899
40
0.611596553190275
40
0.649933276258163
40
0.688258221079814
40
0.726568119516454
40
0.764887294960731
40
0.803208050298284
40
0.841520103640387
40
0.881135900562458
40
0.92075825854106
40
0.960382133770818
40
1
40
1
40
1
40
1
41
1
10
127.746484507641
20
-6.14155330557486
30
0
41
1
10
127.765516528418
20
-6.15577196337606
30
0
41
1
10
127.803754060323
20
-6.18428347254774
30
0
41
1
10
127.861612298225
20
-6.22726535928681
30
0
41
1
10
127.919995556323
20
-6.27046139374366
30
0
41
1
10
127.974992784086
20
-6.3109791219111
30
0
41
1
10
128.026499617503
20
-6.34877096013203
30
0
41
1
10
128.074412454954
20
-6.38379399364683
30
0
41
1
10
128.122673666135
20
-6.41893557441186
30
0
41
1
10
128.171266752269
20
-6.45417800434386
30
0
41
1
10
128.220777787454
20
-6.48993917550952
30
0
41
1
10
128.271220951265
20
-6.52621614547195
30
0
41
1
10
128.32259278039
20
-6.56299763873543
30
0
41
1
10
128.374262788489
20
-6.59982891864257
30
0
41
1
10
128.426188314433
20
-6.63667775068411
30
0
41
1
10
128.479197433749
20
-6.67412688288602
30
0
41
1
10
128.533280601143
20
-6.71215824409726
30
0
41
1
10
128.588415134514
20
-6.75075108795386
30
0
41
1
10
128.64369494524
20
-6.78927228797141
30
0
41
1
10
128.699070561698
20
-6.82769108088451
30
0
41
1
10
128.754511345073
20
-6.86599035839148
30
0
41
1
10
128.809990811666
20
-6.90415997408915
30
0
41
1
10
128.865483735145
20
-6.94218971673217
30
0
41
1
10
128.921590118695
20
-6.98049619105454
30
0
41
1
10
128.978290083621
20
-7.01906773923299
30
0
41
1
10
129.03556783068
20
-7.05789744456826
30
0
41
1
10
129.092777373778
20
-7.09655333994579
30
0
41
1
10
129.130860267769
20
-7.12220818183213
30
0
41
1
10
129.14988704127
20
-7.13500570268208
30
0
0
SPLINE
5
135
100
AcDbEntity
8
1
62
256
6
ByLayer
370
18
48
1
60
0
100
AcDbSpline
70
4
71
3
72
33
73
29
40
0
40
0
40
0
40
0
40
0.0440173374649945
40
0.0880431366337851
40
0.132066582095992
40
0.176080709312848
40
0.211314710920739
40
0.246560180158192
40
0.28180785336407
40
0.31705021530188
40
0.352281609957751
40
0.388802433042521
40
0.425339579326378
40
0.461881530279772
40
0.498417441787863
40
0.534937228794185
40
0.573260821421907
40
0.611596553190263
40
0.649933276258171
40
0.688258221079813
40
0.72656811951645
40
0.764887294960727
40
0.80320805029829
40
0.841520103640382
40
0.881135900562459
40
0.92075825854106
40
0.960382133770827
40
1
40
1
40
1
40
1
41
1
10
127.895788839198
20
-4.4160922898164
30
0
41
1
10
127.892597945575
20
-4.44078772545461
30
0
41
1
10
127.886273688554
20
-4.49030745857863
30
0
41
1
10
127.876953800144
20
-4.56495982256502
30
0
41
1
10
127.867824231813
20
-4.63998412539797
30
0
41
1
10
127.859494666194
20
-4.71035665719067
30
0
41
1
10
127.851935109691
20
-4.77599477307219
30
0
41
1
10
127.845109033898
20
-4.83682393726702
30
0
41
1
10
127.83844604955
20
-4.89785899825107
30
0
41
1
10
127.83195731892
20
-4.95906921740735
30
0
41
1
10
127.825575775721
20
-5.02118040351337
30
0
41
1
10
127.819320198382
20
-5.08418744604742
30
0
41
1
10
127.813204746517
20
-5.14807076135495
30
0
41
1
10
127.807309660071
20
-5.21204054775373
30
0
41
1
10
127.801642658531
20
-5.27604081928059
30
0
41
1
10
127.796121017002
20
-5.34108371200155
30
0
41
1
10
127.790763434325
20
-5.40713783934298
30
0
41
1
10
127.785579653725
20
-5.47416716833328
30
0
41
1
10
127.780653125529
20
-5.54107206393167
30
0
41
1
10
127.775982459266
20
-5.60779909548055
30
0
41
1
10
127.771563755372
20
-5.67431854871497
30
0
41
1
10
127.767386388373
20
-5.74061280102599
30
0
41
1
10
127.763441091505
20
-5.80666411718457
30
0
41
1
10
127.759676739593
20
-5.8731960700863
30
0
41
1
10
127.756091674424
20
-5.94018841203758
30
0
41
1
10
127.752680907144
20
-6.00762912988628
30
0
41
1
10
127.749473590503
20
-6.07476796884561
30
0
41
1
10
127.747459496216
20
-6.11932614764636
30
0
41
1
10
127.746484507641
20
-6.14155330557486
30
0
0
SPLINE
5
136
100
AcDbEntity
8
1
62
256
6
ByLayer
370
18
48
1
60
0
100
AcDbSpline
70
4
71
3
72
12
73
8
40
0
40
0
40
0
40
0
40
0.248641163827633
40
0.497282443266725
40
0.715657715452657
40
0.934032987490955
40
1
40
1
40
1
40
1
41
1
10
132.624779643717
20
4.86417547268948
30
0
41
1
10
132.542726705513
20
4.8679998384543
30
0
41
1
10
132.378529944042
20
4.8753526847313
30
0
41
1
10
132.141966661939
20
4.88508488297874
30
0
41
1
10
131.915172905282
20
4.89363575590938
30
0
41
1
10
131.748664375572
20
4.89937682958621
30
0
41
1
10
131.654426184462
20
4.90242718490988
30
0
41
1
10
131.632559866093
20
4.90312430050837
30
0
0
SPLINE
5
137
100
AcDbEntity
8
1
62
256
6
ByLayer
370
18
48
1
60
0
100
AcDbSpline
70
4
71
3
72
19
73
15
40
0
40
0
40
0
40
0
40
0.0860324334327054
40
0.176298746238471
40
0.266543837790965
40
0.356790048094613
40
0.447057763425434
40
0.53732509386028
40
0.627570779180327
40
0.702044195431783
40
0.776537015716439
40
0.851035745817842
40
0.92552748810771
40
1
40
1
40
1
40
1
41
1
10
123.293640218364
20
14.70905178601
30
0
41
1
10
123.318537134702
20
14.7046617879231
30
0
41
1
10
123.369759786365
20
14.6956298524115
30
0
41
1
10
123.447850343507
20
14.6818603802487
30
0
41
1
10
123.527796972766
20
14.6677636324938
30
0
41
1
10
123.608332623812
20
14.6535630243054
30
0
41
1
10
123.689426314441
20
14.6392640186822
30
0
41
1
10
123.771035210335
20
14.6248741684704
30
0
41
1
10
123.848335234436
20
14.6112440886118
30
0
41
1
10
123.921208925936
20
14.5983944906167
30
0
41
1
10
123.989566070787
20
14.5863412816551
30
0
41
1
10
124.058187321522
20
14.5742415037007
30
0
41
1
10
124.127041586532
20
14.5621006390425
30
0
41
1
10
124.173079839005
20
14.5539828529869
30
0
41
1
10
124.196132409304
20
14.5499180628684
30
0
0
SPLINE
5
138
100
AcDbEntity
8
1
62
256
6
ByLayer
370
18
48
1
60
0
100
AcDbSpline
70
4
71
3
72
19
73
15
40
0
40
0
40
0
40
0
40
0.0847867450820361
40
0.169592682813631
40
0.254399278842056
40
0.339186921803517
40
0.423968225907657
40
0.50876756816606
40
0.593567252138261
40
0.678349022314579
40
0.763128234092418
40
0.847925035995102
40
0.932721842910253
40
1
40
1
40
1
40
1
41
1
10
124.196132409304
20
-14.5499180628689
30
0
41
1
10
124.169885110578
20
-14.554546169805
30
0
41
1
10
124.117480522943
20
-14.563786512518
30
0
41
1
10
124.039143205427
20
-14.5775994951923
30
0
41
1
10
123.96112387493
20
-14.5913564081757
30
0
41
1
10
123.883458602689
20
-14.6050508911358
30
0
41
1
10
123.806174112915
20
-14.6186782318733
30
0
41
1
10
123.729294803192
20
-14.6322341284358
30
0
41
1
10
123.652854541791
20
-14.6457126089332
30
0
41
1
10
123.576889599684
20
-14.6591072778146
30
0
41
1
10
123.50142456375
20
-14.6724137997498
30
0
41
1
10
123.426485198099
20
-14.6856276318314
30
0
41
1
10
123.357221336623
20
-14.6978407193977
30
0
41
1
10
123.313074530819
20
-14.7056249923729
30
0
41
1
10
123.293605291849
20
-14.7090579444972
30
0
0
SPLINE
5
139
100
AcDbEntity
8
SK1
62
256
6
ByLayer
370
18
48
1
60
0
100
AcDbSpline
70
4
71
3
72
54
73
50
40
0
40
0
40
0
40
0
40
0.0251635378104513
40
0.0496637862693868
40
0.0733460308508952
40
0.0960689463609348
40
0.117706891189046
40
0.138151212765237
40
0.15731060394191
40
0.175110626703886
40
0.193713707644915
40
0.21039993996992
40
0.225308118184771
40
0.240061126162882
40
0.255035002667567
40
0.270213303878836
40
0.285578220031225
40
0.312852188116488
40
0.340527623007624
40
0.367827533967934
40
0.393311201036617
40
0.416936590432345
40
0.438809780216969
40
0.459351843639174
40
0.459509329487057
40
0.459690491076985
40
0.460193606414134
40
0.461937599466051
40
0.46475425789936
40
0.468668962886078
40
0.475610921606486
40
0.484529254739307
40
0.495428085565343
40
0.511124043321055
40
0.529677524120232
40
0.551090027431723
40
0.575362604376625
40
0.602496051107433
40
0.630402312165395
40
0.660801713815075
40
0.693694652316515
40
0.729081490599086
40
0.766962568625305
40
0.807338210424251
40
0.847691771752936
40
0.890263483590574
40
0.935053598016938
40
0.98206236587836
40
1
40
1
40
1
40
1
41
1
10
-0.394976888875434
20
-27.3653846960204
30
0
41
1
10
-0.389719184740489
20
-27.3655174216075
30
0
41
1
10
-0.379389198164092
20
-27.3661841612016
30
0
41
1
10
-0.364227877846675
20
-27.3683540202347
30
0
41
1
10
-0.349778885500407
20
-27.3715481417687
30
0
41
1
10
-0.336171119170671
20
-27.3756108756211
30
0
41
1
10
-0.323511825962105
20
-27.3803691556714
30
0
41
1
10
-0.31187118418413
20
-27.3856425568746
30
0
41
1
10
-0.301287843497646
20
-27.3912510653761
30
0
41
1
10
-0.29137568246625
20
-27.3972618956904
30
0
41
1
10
-0.282246245046126
20
-27.4035353346902
30
0
41
1
10
-0.273955563254974
20
-27.4099334641865
30
0
41
1
10
-0.266602591765462
20
-27.4162111940396
30
0
41
1
10
-0.259809301083281
20
-27.4225788784676
30
0
41
1
10
-0.253279995225573
20
-27.4292958737121
30
0
41
1
10
-0.246989906368801
20
-27.4364090608999
30
0
41
1
10
-0.239441002997904
20
-27.4458150965869
30
0
41
1
10
-0.231035051326502
20
-27.4578523357558
30
0
41
1
10
-0.222448416202841
20
-27.4727242857166
30
0
41
1
10
-0.215329473107673
20
-27.4879391202644
30
0
41
1
10
-0.209784355036422
20
-27.5028979865101
30
0
41
1
10
-0.20571661703761
20
-27.5171331210921
30
0
41
1
10
-0.20287965668283
20
-27.5306565936035
30
0
41
1
10
-0.20164291152307
20
-27.5393694733616
30
0
41
1
10
-0.201165959795726
20
-27.5437560547448
30
0
41
1
10
-0.201149510159395
20
-27.543908092706
30
0
41
1
10
-0.201117660454257
20
-27.5442050244304
30
0
41
1
10
-0.201081881016768
20
-27.5445447484572
30
0
41
1
10
-0.201038690068215
20
-27.544961544714
30
0
41
1
10
-0.20098756866451
20
-27.5454659204194
30
0
41
1
10
-0.200930323868
20
-27.5460457832615
30
0
41
1
10
-0.200868306217709
20
-27.5466939190955
30
0
41
1
10
-0.200799677553766
20
-27.5474353984529
30
0
41
1
10
-0.200726567817154
20
-27.5482578944453
30
0
41
1
10
-0.200650065574387
20
-27.5491593367
30
0
41
1
10
-0.20057414769923
20
-27.5501004085675
30
0
41
1
10
-0.200499554337165
20
-27.55107790932
30
0
41
1
10
-0.200428915104727
20
-27.5520623433007
30
0
41
1
10
-0.200362443993786
20
-27.5530519379361
30
0
41
1
10
-0.200300466899909
20
-27.5540436050587
30
0
41
1
10
-0.200242304517674
20
-27.5550537689712
30
0
41
1
10
-0.200188634664585
20
-27.5560786539852
30
0
41
1
10
-0.200140150000194
20
-27.5571142342154
30
0
41
1
10
-0.200098443470274
20
-27.5581345706447
30
0
41
1
10
-0.200063686008514
20
-27.559137116834
30
0
41
1
10
-0.200036060496513
20
-27.5601190544716
30
0
41
1
10
-0.200015557036026
20
-27.5610943949866
30
0
41
1
10
-0.200005655396517
20
-27.5618446430713
30
0
41
1
10
-0.200002449650989
20
-27.5622706132954
30
0
41
1
10
-0.200001773489234
20
-27.5623868428301
30
0
0
SPLINE
5
13A
100
AcDbEntity
8
SK1
62
256
6
ByLayer
370
18
48
1
60
0
100
AcDbSpline
70
4
71
3
72
61
73
57
40
0
40
0
40
0
40
0
40
0.0234451496374505
40
0.0781856828644209
40
0.129811682604787
40
0.178323429524425
40
0.223721204423448
40
0.266005292112081
40
0.30517598421739
40
0.338347680118885
40
0.368903758775877
40
0.396844484435217
40
0.42217014963367
40
0.444881090692147
40
0.46497771343212
40
0.48004237331451
40
0.493208882012961
40
0.504477846974984
40
0.513850196553522
40
0.521327508866593
40
0.526912897475493
40
0.530614153636344
40
0.531766507137859
40
0.532469125725259
40
0.532581280552576
40
0.532672663467059
40
0.532749373038428
40
0.533072521129112
40
0.533326712902405
40
0.533781332456255
40
0.534595405346925
40
0.536056300352245
40
0.538688044194578
40
0.543461297402627
40
0.552221974662876
40
0.568505896334754
40
0.583550843544431
40
0.599063595832795
40
0.628951982479222
40
0.658926901605167
40
0.688777883899714
40
0.701501035221051
40
0.714564127137858
40
0.729362262244505
40
0.746012206147051
40
0.76449806958591
40
0.784787531218482
40
0.80682767917235
40
0.82748982055487
40
0.849364408486071
40
0.87236466736689
40
0.896385794896352
40
0.921305324597693
40
0.946984468973494
40
0.973270484711009
40
1
40
1
40
1
40
1
41
1
10
-0.200001111840318
20
27.5625872257015
30
0
41
1
10
-0.200001613903825
20
27.5624944713499
30
0
41
1
10
-0.20000391386689
20
27.5621780659009
30
0
41
1
10
-0.20001106476066
20
27.5616147202621
30
0
41
1
10
-0.20002552519982
20
27.5608761112153
30
0
41
1
10
-0.200044830611099
20
27.5601187350323
30
0
41
1
10
-0.200068447505201
20
27.5593491531405
30
0
41
1
10
-0.200095850290688
20
27.5585735784912
30
0
41
1
10
-0.200125773800581
20
27.5578168802463
30
0
41
1
10
-0.200157408627532
20
27.5570859695431
30
0
41
1
10
-0.200189967947811
20
27.5563873272072
30
0
41
1
10
-0.200224129332544
20
27.5557005268945
30
0
41
1
10
-0.20025953983452
20
27.5550289077851
30
0
41
1
10
-0.200295856742793
20
27.5543755381488
30
0
41
1
10
-0.200331258909777
20
27.5537686928368
30
0
41
1
10
-0.200365167296242
20
27.5532114749861
30
0
41
1
10
-0.200396874154574
20
27.5527088334225
30
0
41
1
10
-0.200428312549801
20
27.552226912577
30
0
41
1
10
-0.200459404205984
20
27.5517655140935
30
0
41
1
10
-0.200489447062613
20
27.5513323967497
30
0
41
1
10
-0.200519070310499
20
27.5509181436689
30
0
41
1
10
-0.200543394058924
20
27.5505854366279
30
0
41
1
10
-0.200565535923346
20
27.5502902406783
30
0
41
1
10
-0.20057667713837
20
27.5501431500955
30
0
41
1
10
-0.200585982698556
20
27.5500216845696
30
0
41
1
10
-0.200589524516658
20
27.5499755929751
30
0
41
1
10
-0.20059718149721
20
27.5498762529192
30
0
41
1
10
-0.200607976734447
20
27.549737323867
30
0
41
1
10
-0.200624862762656
20
27.5495225725151
30
0
41
1
10
-0.20065025446823
20
27.5492041524689
30
0
41
1
10
-0.200696829806804
20
27.548634453763
30
0
41
1
10
-0.200784260117672
20
27.5476100885043
30
0
41
1
10
-0.20095410808267
20
27.5457605694138
30
0
41
1
10
-0.20130304610838
20
27.5423917551662
30
0
41
1
10
-0.202078687677117
20
27.5361926855769
30
0
41
1
10
-0.20344912390107
20
27.5279025879298
30
0
41
1
10
-0.205524964814982
20
27.5183077559387
30
0
41
1
10
-0.208794608051917
20
27.5060695458724
30
0
41
1
10
-0.213956088373646
20
27.4911190170367
30
0
41
1
10
-0.221742681129904
20
27.4739840182431
30
0
41
1
10
-0.229314535177368
20
27.4607771610151
30
0
41
1
10
-0.235776240758183
20
27.4510737406544
30
0
41
1
10
-0.240772938221609
20
27.4441916522968
30
0
41
1
10
-0.24657859830156
20
27.436890292891
30
0
41
1
10
-0.253488907751191
20
27.4290303149334
30
0
41
1
10
-0.261629805152054
20
27.4207416534637
30
0
41
1
10
-0.271100708104119
20
27.4122067953085
30
0
41
1
10
-0.281478019470897
20
27.4040369799964
30
0
41
1
10
-0.292652663035618
20
27.3963948382767
30
0
41
1
10
-0.304487417269945
20
27.389413153414
30
0
41
1
10
-0.317416040154231
20
27.3829680614798
30
0
41
1
10
-0.331377055654815
20
27.3772527449034
30
0
41
1
10
-0.346272347307047
20
27.3724544487443
30
0
41
1
10
-0.361962526876843
20
27.3687452542059
30
0
41
1
10
-0.378288597310843
20
27.3662707379678
30
0
41
1
10
-0.389364229524816
20
27.3655265258384
30
0
41
1
10
-0.394976888875349
20
27.3653846937031
30
0
0
SPLINE
5
13B
100
AcDbEntity
8
SK1
62
256
6
ByLayer
370
18
48
1
60
0
100
AcDbSpline
70
4
71
3
72
182
73
178
40
0
40
0
40
0
40
0
40
0.0037058958222763
40
0.0090681912476653
40
0.0144308417363007
40
0.0197938323900589
40
0.0251571496171184
40
0.030520780166137
40
0.0358847113566497
40
0.0408019049024625
40
0.0457193331010264
40
0.0506370563234292
40
0.0555554710051971
40
0.0604744959489331
40
0.0653931743979251
40
0.0712948703165889
40
0.0771962495947908
40
0.0830978028078838
40
0.0890000302718455
40
0.0949034269501141
40
0.100702417499793
40
0.106501119785138
40
0.112299603496561
40
0.11809826727804
40
0.124002559012305
40
0.129907042739352
40
0.135811713334455
40
0.141716564029561
40
0.147621722889857
40
0.153422206380336
40
0.159222395991724
40
0.165021415112414
40
0.17082046113844
40
0.176739220044197
40
0.182658816212611
40
0.188577963800342
40
0.194497068641926
40
0.20041630059291
40
0.20633565474174
40
0.212255123364902
40
0.218161788163641
40
0.224068563304986
40
0.229975443604643
40
0.235882421548221
40
0.241789495952364
40
0.247591172994151
40
0.253392696021943
40
0.259194071423471
40
0.264996723053536
40
0.270917865457239
40
0.276838144405211
40
0.282759313708556
40
0.288680303165376
40
0.294600556444833
40
0.30052045132518
40
0.306440382771319
40
0.312360747729059
40
0.318281938895204
40
0.324203965698494
40
0.330126117431826
40
0.336047643879252
40
0.341968478461536
40
0.347889122448585
40
0.354402103964359
40
0.360915246590638
40
0.36742821817942
40
0.373941145032731
40
0.380454682483528
40
0.386722210373509
40
0.392990020429727
40
0.399257221106597
40
0.405523608376123
40
0.411789745512435
40
0.418056138667498
40
0.423964697175415
40
0.429873361916684
40
0.435782046724268
40
0.441690741716401
40
0.44759944480049
40
0.45350815394668
40
0.459416867220378
40
0.465325568109786
40
0.471234157695418
40
0.477142508612712
40
0.482945163326885
40
0.488748054130847
40
0.494551640379355
40
0.500355849026687
40
0.506265517036125
40
0.512174435701737
40
0.518082684105054
40
0.523990763326785
40
0.529899041667357
40
0.53570187490596
40
0.54150452652102
40
0.547307009527831
40
0.553109763519641
40
0.560018737287914
40
0.566928289876325
40
0.573837214766626
40
0.580744957344887
40
0.587652037428486
40
0.59455907267227
40
0.600466904177063
40
0.606375516672326
40
0.61228471818941
40
0.618193746895048
40
0.624101914204363
40
0.629903790320853
40
0.635705259678272
40
0.641506696985774
40
0.647308475015965
40
0.653229388434019
40
0.659150981403613
40
0.665072412179872
40
0.670992539082527
40
0.676911651769847
40
0.682831093285531
40
0.688751656870247
40
0.694671688466048
40
0.700591750411412
40
0.706512659823123
40
0.712432200291966
40
0.718351340346689
40
0.724270768079794
40
0.730190122796449
40
0.735616096696763
40
0.741041965852741
40
0.746467724466258
40
0.751893370664181
40
0.757318902511324
40
0.762744315100771
40
0.768702093205105
40
0.774660323496225
40
0.78061788182948
40
0.786573916970674
40
0.792529784503803
40
0.798486856643246
40
0.804444280590411
40
0.809904499060195
40
0.815364408365031
40
0.82082414427577
40
0.826283700109676
40
0.831743165736341
40
0.837203008840094
40
0.842662801965902
40
0.848121510845498
40
0.853579273508812
40
0.859036488061186
40
0.864493553934344
40
0.869950861950785
40
0.875096901952679
40
0.880243400751044
40
0.885389286699872
40
0.890534393425068
40
0.895679167475504
40
0.901135451795527
40
0.906591422304519
40
0.912047066561974
40
0.917502370634078
40
0.922957319326296
40
0.928411897277289
40
0.933554432538134
40
0.938696608631894
40
0.943838410650183
40
0.948979822287724
40
0.954120825749861
40
0.959261403156761
40
0.964401534302319
40
0.96954119850416
40
0.974680375090466
40
0.979819039350479
40
0.98385619128892
40
0.98789298890361
40
0.991929243846342
40
0.995964707515089
40
1
40
1
40
1
40
1
41
1
10
-0.394976888875348
20
27.3653852786972
30
0
41
1
10
-0.394976888875355
20
27.3653752776972
30
0
41
1
10
-0.394976888875371
20
27.3649941547474
30
0
41
1
10
-0.394976888875433
20
27.3629751583583
30
0
41
1
10
-0.394976888875452
20
27.3588962792199
30
0
41
1
10
-0.394976888875407
20
27.353011830195
30
0
41
1
10
-0.394976888875414
20
27.3453463106924
30
0
41
1
10
-0.394976888875438
20
27.3359224852429
30
0
41
1
10
-0.394976888875331
20
27.3250723734852
30
0
41
1
10
-0.394976888875287
20
27.3129802640276
30
0
41
1
10
-0.394976888875332
20
27.2998187893884
30
0
41
1
10
-0.394976888875422
20
27.285247255662
30
0
41
1
10
-0.394976888875479
20
27.2692797992963
30
0
41
1
10
-0.39497688887546
20
27.2519321084906
30
0
41
1
10
-0.394976888875428
20
27.2319728242718
30
0
41
1
10
-0.394976888875399
20
27.2090828861029
30
0
41
1
10
-0.394976888875378
20
27.182924018138
30
0
41
1
10
-0.394976888875382
20
27.1548641640582
30
0
41
1
10
-0.394976888875392
20
27.1249214401491
30
0
41
1
10
-0.394976888875388
20
27.0933040726221
30
0
41
1
10
-0.394976888875362
20
27.0600727931947
30
0
41
1
10
-0.394976888875438
20
27.0252858557595
30
0
41
1
10
-0.39497688887547
20
26.9887617106329
30
0
41
1
10
-0.394976888875407
20
26.9502853229757
30
0
41
1
10
-0.394976888875362
20
26.9098368372378
30
0
41
1
10
-0.394976888875445
20
26.8673959296473
30
0
41
1
10
-0.3949768888755
20
26.8232216437347
30
0
41
1
10
-0.394976888875447
20
26.7773301363348
30
0
41
1
10
-0.3949768888755
20
26.7300186606556
30
0
41
1
10
-0.394976888875473
20
26.6813376814988
30
0
41
1
10
-0.394976888875404
20
26.6313415176991
30
0
41
1
10
-0.394976888875371
20
26.5797524609644
30
0
41
1
10
-0.394976888875345
20
26.5262157864222
30
0
41
1
10
-0.394976888875304
20
26.4707010561484
30
0
41
1
10
-0.39497688887528
20
26.4131863614562
30
0
41
1
10
-0.39497688887532
20
26.3540608862485
30
0
41
1
10
-0.394976888875344
20
26.2933388186551
30
0
41
1
10
-0.394976888875367
20
26.231030973749
30
0
41
1
10
-0.394976888875372
20
26.16714909164
30
0
41
1
10
-0.394976888875335
20
26.1017525658178
30
0
41
1
10
-0.394976888875302
20
26.0348557821517
30
0
41
1
10
-0.394976888875348
20
25.9664742042215
30
0
41
1
10
-0.394976888875434
20
25.8965702366037
30
0
41
1
10
-0.394976888875438
20
25.8251542770669
30
0
41
1
10
-0.394976888875402
20
25.752669761326
30
0
41
1
10
-0.394976888875399
20
25.6791591576632
30
0
41
1
10
-0.394976888875425
20
25.6046639224294
30
0
41
1
10
-0.394976888875359
20
25.5287444277821
30
0
41
1
10
-0.394976888875382
20
25.4508814489783
30
0
41
1
10
-0.394976888875357
20
25.3710546636097
30
0
41
1
10
-0.394976888875399
20
25.289239762064
30
0
41
1
10
-0.39497688887535
20
25.2059821241065
30
0
41
1
10
-0.394976888875309
20
25.1212906547091
30
0
41
1
10
-0.394976888875305
20
25.0351789409765
30
0
41
1
10
-0.394976888875334
20
24.947654057764
30
0
41
1
10
-0.394976888875401
20
24.8587185290435
30
0
41
1
10
-0.394976888875465
20
24.7683737313893
30
0
41
1
10
-0.394976888875475
20
24.6766229808817
30
0
41
1
10
-0.39497688887542
20
24.5834754370362
30
0
41
1
10
-0.394976888875436
20
24.4889455368228
30
0
41
1
10
-0.39497688887545
20
24.3930487005001
30
0
41
1
10
-0.394976888875435
20
24.2957932538553
30
0
41
1
10
-0.394976888875406
20
24.1938939525452
30
0
41
1
10
-0.394976888875367
20
24.0871906314607
30
0
41
1
10
-0.394976888875328
20
23.9755227796174
30
0
41
1
10
-0.394976888875296
20
23.8622348719596
30
0
41
1
10
-0.394976888875282
20
23.7473320106145
30
0
41
1
10
-0.394976888875293
20
23.6322876715368
30
0
41
1
10
-0.39497688887534
20
23.5171779869641
30
0
41
1
10
-0.394976888875377
20
23.4020855190866
30
0
41
1
10
-0.394976888875419
20
23.2855354573435
30
0
41
1
10
-0.394976888875471
20
23.1675373273645
30
0
41
1
10
-0.394976888875497
20
23.0480918414515
30
0
41
1
10
-0.394976888875469
20
22.9295015979984
30
0
41
1
10
-0.394976888875418
20
22.8118647510271
30
0
41
1
10
-0.394976888875384
20
22.6952796763862
30
0
41
1
10
-0.394976888875383
20
22.5774232943138
30
0
41
1
10
-0.394976888875397
20
22.4583008410916
30
0
41
1
10
-0.394976888875414
20
22.3379170594697
30
0
41
1
10
-0.394976888875422
20
22.2162764490276
30
0
41
1
10
-0.394976888875418
20
22.0933834771914
30
0
41
1
10
-0.394976888875395
20
21.969243339102
30
0
41
1
10
-0.394976888875367
20
21.8438619547371
30
0
41
1
10
-0.39497688887535
20
21.7179984240385
30
0
41
1
10
-0.394976888875357
20
21.5916798388739
30
0
41
1
10
-0.394976888875366
20
21.4649282143041
30
0
41
1
10
-0.394976888875354
20
21.3369803528801
30
0
41
1
10
-0.394976888875327
20
21.207059547632
30
0
41
1
10
-0.394976888875325
20
21.0751546109365
30
0
41
1
10
-0.39497688887532
20
20.9412537409316
30
0
41
1
10
-0.394976888875312
20
20.8061507703502
30
0
41
1
10
-0.394976888875307
20
20.6698419007734
30
0
41
1
10
-0.39497688887531
20
20.5331437763407
30
0
41
1
10
-0.394976888875325
20
20.3960847498675
30
0
41
1
10
-0.394976888875359
20
20.2586954517841
30
0
41
1
10
-0.394976888875401
20
20.1201512751032
30
0
41
1
10
-0.394976888875423
20
19.9715760247492
30
0
41
1
10
-0.394976888875327
20
19.8126969288189
30
0
41
1
10
-0.394976888875318
20
19.6432358414114
30
0
41
1
10
-0.394976888875435
20
19.4721642224726
30
0
41
1
10
-0.394976888875435
20
19.2994965884075
30
0
41
1
10
-0.3949768888754
20
19.1252321237398
30
0
41
1
10
-0.394976888875353
20
18.9578459352797
30
0
41
1
10
-0.394976888875332
20
18.7975891237221
30
0
41
1
10
-0.394976888875371
20
18.6447013580766
30
0
41
1
10
-0.394976888875435
20
18.49063423892
30
0
41
1
10
-0.394976888875437
20
18.3354040078532
30
0
41
1
10
-0.394976888875437
20
18.179955954117
30
0
41
1
10
-0.394976888875435
20
18.0243181385168
30
0
41
1
10
-0.394976888875426
20
17.868509139472
30
0
41
1
10
-0.394976888875409
20
17.7115833123872
30
0
41
1
10
-0.394976888875389
20
17.5524566473182
30
0
41
1
10
-0.394976888875369
20
17.3910976039088
30
0
41
1
10
-0.394976888875356
20
17.227485799517
30
0
41
1
10
-0.394976888875369
20
17.0627242663522
30
0
41
1
10
-0.394976888875366
20
16.8968308986186
30
0
41
1
10
-0.394976888875346
20
16.7298020468527
30
0
41
1
10
-0.394976888875329
20
16.5616161499954
30
0
41
1
10
-0.394976888875322
20
16.3922710098123
30
0
41
1
10
-0.39497688887541
20
16.2217708210012
30
0
41
1
10
-0.394976888875541
20
16.050118302792
30
0
41
1
10
-0.394976888875359
20
15.8773236002459
30
0
41
1
10
-0.394976888875421
20
15.7033922614189
30
0
41
1
10
-0.394976888875443
20
15.528330784901
30
0
41
1
10
-0.394976888875361
20
15.3521276062783
30
0
41
1
10
-0.394976888875402
20
15.1797063253651
30
0
41
1
10
-0.394976888875409
20
15.0111808488097
30
0
41
1
10
-0.394976888875425
20
14.846656689771
30
0
41
1
10
-0.394976888875457
20
14.6811778303412
30
0
41
1
10
-0.394976888875446
20
14.5147444349033
30
0
41
1
10
-0.394976888875456
20
14.3473575778889
30
0
41
1
10
-0.394976888875477
20
14.1735107306998
30
0
41
1
10
-0.394976888875388
20
13.9930856174872
30
0
41
1
10
-0.394976888875389
20
13.8059710184903
30
0
41
1
10
-0.394976888875446
20
13.6177234258571
30
0
41
1
10
-0.394976888875463
20
13.4283495960231
30
0
41
1
10
-0.394976888875474
20
13.2378290396032
30
0
41
1
10
-0.394976888875501
20
13.0461426487587
30
0
41
1
10
-0.394976888875508
20
12.8586548783986
30
0
41
1
10
-0.39497688887547
20
12.6754908280629
30
0
41
1
10
-0.394976888875447
20
12.496761074233
30
0
41
1
10
-0.394976888875428
20
12.3170722084711
30
0
41
1
10
-0.394976888875416
20
12.1364220137446
30
0
41
1
10
-0.394976888875445
20
11.9548041204969
30
0
41
1
10
-0.394976888875467
20
11.7722168791364
30
0
41
1
10
-0.394976888875457
20
11.5886718821346
30
0
41
1
10
-0.394976888875417
20
11.4041840244645
30
0
41
1
10
-0.394976888875365
20
11.2187584203748
30
0
41
1
10
-0.394976888875317
20
11.0323846259878
30
0
41
1
10
-0.39497688887529
20
10.8450493849747
30
0
41
1
10
-0.394976888875292
20
10.6603257801718
30
0
41
1
10
-0.394976888875332
20
10.4782701537835
30
0
41
1
10
-0.394976888875404
20
10.2989543792896
30
0
41
1
10
-0.394976888875379
20
10.1187892484161
30
0
41
1
10
-0.394976888875328
20
9.93778345705929
30
0
41
1
10
-0.394976888875414
20
9.7522596478122
30
0
41
1
10
-0.394976888875446
20
9.56215024871268
30
0
41
1
10
-0.394976888875418
20
9.36739154836635
30
0
41
1
10
-0.394976888875451
20
9.17167544836346
30
0
41
1
10
-0.394976888875416
20
8.97500244859061
30
0
41
1
10
-0.394976888875356
20
8.77737291545442
30
0
41
1
10
-0.394976888875352
20
8.58256939967263
30
0
41
1
10
-0.394976888875327
20
8.39065573575027
30
0
41
1
10
-0.394976888875305
20
8.20169379980153
30
0
41
1
10
-0.394976888875319
20
8.01188364057006
30
0
41
1
10
-0.394976888875337
20
7.82122605275293
30
0
41
1
10
-0.394976888875359
20
7.62972190161855
30
0
41
1
10
-0.394976888875391
20
7.43737225467064
30
0
41
1
10
-0.394976888875442
20
7.24417829922811
30
0
41
1
10
-0.394976888875464
20
7.05014137068367
30
0
41
1
10
-0.394976888875352
20
6.85526312600935
30
0
41
1
10
-0.394976888875306
20
6.67352300943957
30
0
41
1
10
-0.394976888875352
20
6.50512235926009
30
0
41
1
10
-0.394976888875379
20
6.35024333665886
30
0
41
1
10
-0.394976888875381
20
6.19485778062478
30
0
41
1
10
-0.39497688887535
20
6.03896429659205
30
0
41
1
10
-0.394976888875362
20
5.93469197680277
30
0
41
1
10
-0.394976888875381
20
5.88246916452655
30
0
0
SPLINE
5
13C
100
AcDbEntity
8
SK1
62
256
6
ByLayer
370
18
48
1
60
0
100
AcDbSpline
70
4
71
2
72
6
73
3
40
0
40
0
40
0
40
1
40
1
40
1
41
1
10
-46.5000000000001
20
26.4071354436376
30
0
41
1
10
-47.249999999975
20
25.974125461616
30
0
41
1
10
-48.0000000000003
20
25.5411154795764
30
0
0
SPLINE
5
13D
100
AcDbEntity
8
SK1
62
256
6
ByLayer
370
18
48
1
60
0
100
AcDbSpline
70
4
71
2
72
6
73
3
40
0
40
0
40
0
40
1
40
1
40
1
41
1
10
-48
20
-25.5411154826935
30
0
41
1
10
-47.2499999999747
20
-25.9741254647541
30
0
41
1
10
-46.5
20
-26.4071354467968
30
0
0
SPLINE
5
13E
100
AcDbEntity
8
SK1
62
256
6
ByLayer
370
18
48
1
60
0
100
AcDbSpline
70
4
71
3
72
452
73
448
40
0
40
0
40
0
40
0
40
0.001641963167094
40
0.0039701348101825
40
0.0063007038004267
40
0.0086335719411478
40
0.0109686450024069
40
0.013305833585428
40
0.0156450541623133
40
0.017791060729945
40
0.0199386518828763
40
0.0220882375669504
40
0.0242424942408101
40
0.026400877811951
40
0.028556928712394
40
0.0311393556518868
40
0.0337196213979452
40
0.0363010782912913
40
0.0388870853471291
40
0.0414809851811799
40
0.0440354121767355
40
0.0465878901318654
40
0.0491388872447702
40
0.0516911000235131
40
0.0542910552961435
40
0.0568923075415205
40
0.0594948214232279
40
0.0620985516970713
40
0.0647043644849519
40
0.0672688727159673
40
0.0698313968727273
40
0.0723860096336689
40
0.0749407925813834
40
0.0775569452390472
40
0.0801787627914807
40
0.0827975461260582
40
0.0854160395954094
40
0.08803539138938
40
0.090655568348309
40
0.0932765187923056
40
0.0958925031302049
40
0.0985092324880901
40
0.101126672086486
40
0.103744771488981
40
0.106363522689088
40
0.108936089596319
40
0.111507614719305
40
0.11407814145522
40
0.116657296473541
40
0.119289558105015
40
0.121915982720187
40
0.124548423196781
40
0.127179649413588
40
0.12980589827269
40
0.13242972114956
40
0.135053794126145
40
0.137680795807258
40
0.140313381519952
40
0.142951618815228
40
0.145590700518483
40
0.148225555539339
40
0.150855731913218
40
0.153484616998239
40
0.156378251885087
40
0.159272974910842
40
0.162166541397227
40
0.165059805895057
40
0.167957196486764
40
0.170751215254531
40
0.173547141782563
40
0.176338948527398
40
0.179125255453793
40
0.181909869759204
40
0.18469621592877
40
0.187324991776561
40
0.189954485583147
40
0.192584115503815
40
0.19521381377789
40
0.197843566775468
40
0.200473360935978
40
0.203103182772158
40
0.20573292094382
40
0.20836190667763
40
0.210989278552937
40
0.213568446953723
40
0.216149212056923
40
0.218734679255878
40
0.221324354468749
40
0.223960631746936
40
0.226591842131278
40
0.229218521353924
40
0.231844057353826
40
0.23447093878071
40
0.237051315427335
40
0.239630463914572
40
0.24220847163917
40
0.24478831336144
40
0.247425811906749
40
0.250067029585268
40
0.252706830623789
40
0.25534083536301
40
0.257969802370065
40
0.260596356105022
40
0.263223123257537
40
0.265846987528611
40
0.268476132646055
40
0.271109259266835
40
0.273741217784117
40
0.27636735061408
40
0.278941259406468
40
0.281512419756885
40
0.284083360008477
40
0.286656607336201
40
0.289287321644843
40
0.291922628778522
40
0.29455683974775
40
0.29718223269464
40
0.299800770649191
40
0.302421536085163
40
0.305049883566217
40
0.307674637559989
40
0.310299599273182
40
0.312930288877181
40
0.315551723520315
40
0.31817045152902
40
0.32079112576561
40
0.323411306873613
40
0.32629258843699
40
0.32917283748252
40
0.332052002886943
40
0.33493006371568
40
0.337806976593756
40
0.340179109074506
40
0.342553786404797
40
0.344926973893213
40
0.347291060549747
40
0.349650865547416
40
0.352014077169741
40
0.354384422079798
40
0.356989815614383
40
0.359590236907024
40
0.362188977589245
40
0.364786326494788
40
0.367382391126927
40
0.369546850808549
40
0.371713432549007
40
0.373876516118647
40
0.376033253296379
40
0.378185365656
40
0.380334815245071
40
0.382360762672376
40
0.384387727298042
40
0.386417351818828
40
0.388450574844914
40
0.390483224163799
40
0.392633650392341
40
0.394780581298533
40
0.396925813636701
40
0.399069374329876
40
0.401211201229709
40
0.403351230665681
40
0.405367265506971
40
0.407381580187391
40
0.409394110190477
40
0.411404788667934
40
0.413413546548275
40
0.415420309074044
40
0.417424999017597
40
0.419427536350828
40
0.42142783406547
40
0.423425800855352
40
0.425385726704744
40
0.427343215564177
40
0.429298169196273
40
0.431250480611652
40
0.433355661339029
40
0.435457474379238
40
0.437554741783798
40
0.439644513184475
40
0.441733495164963
40
0.443830992024924
40
0.445474463019795
40
0.447105566186172
40
0.448728544985806
40
0.45034944917207
40
0.451974329019963
40
0.453605678713053
40
0.455000513856605
40
0.45638121713281
40
0.457754094454589
40
0.459132729186847
40
0.460513320322293
40
0.461886411875654
40
0.463266779990997
40
0.464520871515668
40
0.465768305627962
40
0.467016560465293
40
0.468262477256652
40
0.469505512435001
40
0.470745466915808
40
0.472091381542633
40
0.473435710131842
40
0.474783269019017
40
0.476121297859798
40
0.477457493149598
40
0.478786817806917
40
0.480107891946505
40
0.481156248286752
40
0.482186597050112
40
0.483217438410059
40
0.484258989710604
40
0.485282691688247
40
0.486305095602561
40
0.487340330947533
40
0.488533364472152
40
0.489717569862815
40
0.490900749198201
40
0.492080899675974
40
0.493271131473583
40
0.494452095026727
40
0.495841220058552
40
0.497228449124504
40
0.498614535747516
40
0.499999961944799
40
0.501357092132236
40
0.502714834145923
40
0.504073667133821
40
0.50543426049637
40
0.506797816020848
40
0.508170814538094
40
0.509087663498893
40
0.51000709635117
40
0.51092834697121
40
0.511849532538264
40
0.512780516812414
40
0.513719767981189
40
0.514647358291389
40
0.51557383907737
40
0.516517245076357
40
0.517457106967223
40
0.518387677090524
40
0.519332154895892
40
0.520282957232222
40
0.521221675747803
40
0.522261644403364
40
0.523310482474409
40
0.52435787285524
40
0.525407756505309
40
0.526464894040649
40
0.527962419391966
40
0.529462209882039
40
0.530969708692107
40
0.532481564457644
40
0.533997398000628
40
0.535513086555651
40
0.537039261048255
40
0.53857485813759
40
0.539776322117054
40
0.540985608132629
40
0.542191709280486
40
0.543392849329433
40
0.54459823345962
40
0.545815103193326
40
0.547038583711481
40
0.548261363018077
40
0.549811591727733
40
0.551358746769704
40
0.552908088782787
40
0.554464878454436
40
0.556033048671536
40
0.557606733281368
40
0.559176419015877
40
0.560741967931945
40
0.562713403051068
40
0.564691403894092
40
0.566673253680799
40
0.568658092923065
40
0.570645797632612
40
0.572636245810634
40
0.574629321932106
40
0.57662491941415
40
0.578622940797087
40
0.580623293655589
40
0.582590110881369
40
0.584559009750722
40
0.586529907032782
40
0.588502723178969
40
0.590635216606725
40
0.592769791156808
40
0.59490638015986
40
0.597044905551261
40
0.599185285295436
40
0.60132743974932
40
0.603854317923137
40
0.60638348683739
40
0.608914852166679
40
0.611448327673504
40
0.613712078501752
40
0.615978614775671
40
0.618250680656667
40
0.62052205511214
40
0.622786042961381
40
0.625048341482166
40
0.627316548114893
40
0.629594231032649
40
0.632198225379752
40
0.634799919061864
40
0.637402720328994
40
0.640006927738756
40
0.642612657391968
40
0.645222774996775
40
0.647836139058706
40
0.650224693404941
40
0.652609361190839
40
0.654998070059703
40
0.657396068703953
40
0.659795810085944
40
0.662192949744027
40
0.66496075890847
40
0.66772963332339
40
0.670499531327208
40
0.673270433441327
40
0.676042304727178
40
0.678815079343653
40
0.681430221156686
40
0.684046136290642
40
0.686662789034878
40
0.689280130220388
40
0.691898303904565
40
0.694519871845939
40
0.697143753860786
40
0.69976006161345
40
0.702372611728188
40
0.704990546604792
40
0.707571037943832
40
0.710153978788548
40
0.712733356992948
40
0.715307520930097
40
0.717925517955936
40
0.720543170390497
40
0.723163146725626
40
0.725788115958614
40
0.72841930363882
40
0.731005601385167
40
0.733588934645392
40
0.736166912117176
40
0.738741577279341
40
0.741367937268436
40
0.743996048348701
40
0.746628537657865
40
0.749267154809384
40
0.751908510865332
40
0.754547361374946
40
0.757180832104974
40
0.759805851478317
40
0.762431504112967
40
0.765058679673113
40
0.76768576077576
40
0.770311445377055
40
0.772890747584049
40
0.775473800374628
40
0.778062216428572
40
0.780652228259915
40
0.783291730956775
40
0.785925915354382
40
0.788557779194156
40
0.791190559148797
40
0.793825079837429
40
0.796460502258865
40
0.799096077673143
40
0.802170880857792
40
0.805245627650344
40
0.808320296361508
40
0.81139486335912
40
0.814468915828102
40
0.817541180700585
40
0.820435681786412
40
0.823331317909085
40
0.826232499131374
40
0.82913850876728
40
0.832042721050095
40
0.834830358025548
40
0.837614013479172
40
0.840397707549428
40
0.843182649799749
40
0.845966913218019
40
0.848749205819296
40
0.851373223562831
40
0.854001453364976
40
0.85663442940846
40
0.859267399154051
40
0.861895309060648
40
0.864517304883437
40
0.86713594861524
40
0.869753901544548
40
0.872373823893716
40
0.874998367724751
40
0.877580983164592
40
0.88016368752667
40
0.882739072574277
40
0.885306458062339
40
0.887920739008441
40
0.890542862571486
40
0.893166845327771
40
0.895786423489252
40
0.898404648632447
40
0.900975478897132
40
0.903545629217306
40
0.906115061776604
40
0.908683772852694
40
0.911304148820322
40
0.913923714466208
40
0.916542422750893
40
0.91916081005951
40
0.921782091340373
40
0.924400836694762
40
0.927009301796387
40
0.92960957039976
40
0.932216819353015
40
0.934828582870742
40
0.937435166121088
40
0.940039114839241
40
0.942595384820585
40
0.945150442263176
40
0.947704258252443
40
0.950256785091787
40
0.952860048784633
40
0.955463923010285
40
0.958070694807462
40
0.960671859254804
40
0.963264625056664
40
0.965852253782417
40
0.968438127966991
40
0.970701982793708
40
0.972969339788106
40
0.975240540493622
40
0.977508751567168
40
0.979771321989394
40
0.982031399365725
40
0.984289728969229
40
0.986546241221361
40
0.988908180837114
40
0.991267963085625
40
0.993625497380246
40
0.995980689326483
40
0.998333437629552
40
1
40
1
40
1
40
1
41
1
10
-48.0000000000003
20
25.5411191317089
30
0
41
1
10
-48.0000000000003
20
25.5411091307089
30
0
41
1
10
-48.0000000000003
20
25.5407598966163
30
0
41
1
10
-48.0000000000002
20
25.5388613085092
30
0
41
1
10
-48
20
25.5350448890306
30
0
41
1
10
-48.0000000000001
20
25.5295345727305
30
0
41
1
10
-48.0000000000002
20
25.5223505262378
30
0
41
1
10
-48.0000000000002
20
25.5135114461876
30
0
41
1
10
-48.0000000000002
20
25.5033268682931
30
0
41
1
10
-48.0000000000001
20
25.4919681751826
30
0
41
1
10
-48.0000000000001
20
25.4795953561877
30
0
41
1
10
-48.0000000000002
20
25.4658805005733
30
0
41
1
10
-48.0000000000001
20
25.4508250059408
30
0
41
1
10
-48.0000000000001
20
25.4344572387852
30
0
41
1
10
-48.0000000000001
20
25.4156396114162
30
0
41
1
10
-48.0000000000001
20
25.3940815637159
30
0
41
1
10
-48.0000000000002
20
25.3694539200458
30
0
41
1
10
-48.0000000000003
20
25.343023923374
30
0
41
1
10
-48.0000000000003
20
25.3147699405993
30
0
41
1
10
-48.0000000000004
20
25.2848636363352
30
0
41
1
10
-48.0000000000003
20
25.2533911884072
30
0
41
1
10
-48.0000000000002
20
25.220435433993
30
0
41
1
10
-48
20
25.1858392792615
30
0
41
1
10
-48.0000000000001
20
25.149389771302
30
0
41
1
10
-48.0000000000002
20
25.1110541378315
30
0
41
1
10
-48.0000000000003
20
25.0708115900183
30
0
41
1
10
-48.0000000000004
20
25.0289064943359
30
0
41
1
10
-48.0000000000004
20
24.985348817489
30
0
41
1
10
-48.0000000000001
20
24.9403967444595
30
0
41
1
10
-48
20
24.8941106280109
30
0
41
1
10
-48
20
24.8466127097105
30
0
41
1
10
-48
20
24.7976582954978
30
0
41
1
10
-48
20
24.7468331607874
30
0
41
1
10
-48.0000000000002
20
24.6940318275721
30
0
41
1
10
-48.0000000000003
20
24.6392651301341
30
0
41
1
10
-48.0000000000002
20
24.5829469932273
30
0
41
1
10
-48.0000000000003
20
24.5251238515212
30
0
41
1
10
-48.0000000000004
20
24.4657810427742
30
0
41
1
10
-48.0000000000002
20
24.4049213050465
30
0
41
1
10
-48.0000000000001
20
24.3426011999328
30
0
41
1
10
-48.0000000000002
20
24.278834194205
30
0
41
1
10
-48.0000000000003
20
24.2136347188583
30
0
41
1
10
-48.0000000000002
20
24.1469669658892
30
0
41
1
10
-48.0000000000001
20
24.0788408151022
30
0
41
1
10
-48.0000000000002
20
24.0096798973112
30
0
41
1
10
-48.0000000000002
20
23.939537980161
30
0
41
1
10
-48.0000000000002
20
23.8684712685065
30
0
41
1
10
-48.0000000000004
20
23.7959856262098
30
0
41
1
10
-48.0000000000001
20
23.7215683506731
30
0
41
1
10
-48.0000000000001
20
23.6452511953152
30
0
41
1
10
-48.0000000000001
20
23.5670217784697
30
0
41
1
10
-48.0000000000001
20
23.4874212626332
30
0
41
1
10
-48
20
23.4064596974779
30
0
41
1
10
-48.0000000000001
20
23.3242222762431
30
0
41
1
10
-48.0000000000001
20
23.2407030895866
30
0
41
1
10
-48.0000000000002
20
23.1558295352802
30
0
41
1
10
-48.0000000000001
20
23.0695185881031
30
0
41
1
10
-48.0000000000002
20
22.9817157855061
30
0
41
1
10
-48.0000000000003
20
22.8924530779599
30
0
41
1
10
-48.0000000000002
20
22.8018427564305
30
0
41
1
10
-48
20
22.7100136320619
30
0
41
1
10
-48
20
22.6169940811044
30
0
41
1
10
-48
20
22.519576843877
30
0
41
1
10
-48.0000000000001
20
22.4175484354687
30
0
41
1
10
-48.0000000000001
20
22.310757341561
30
0
41
1
10
-48.0000000000002
20
22.2024237429674
30
0
41
1
10
-48.0000000000003
20
22.0925110785727
30
0
41
1
10
-48.0000000000003
20
21.9823357491387
30
0
41
1
10
-48.0000000000002
20
21.8719486069086
30
0
41
1
10
-48.0000000000001
20
21.761525183279
30
0
41
1
10
-48
20
21.6498033005687
30
0
41
1
10
-48.0000000000001
20
21.5368351178595
30
0
41
1
10
-48.0000000000002
20
21.422546135492
30
0
41
1
10
-48.0000000000003
20
21.3090534177482
30
0
41
1
10
-48.0000000000003
20
21.196420945117
30
0
41
1
10
-48.0000000000002
20
21.0847622534576
30
0
41
1
10
-48.0000000000001
20
20.9718735925917
30
0
41
1
10
-48
20
20.8577687645717
30
0
41
1
10
-48
20
20.7424534978473
30
0
41
1
10
-48
20
20.6259326257507
30
0
41
1
10
-48
20
20.5082123295129
30
0
41
1
10
-48.0000000000001
20
20.3893087677507
30
0
41
1
10
-48.0000000000001
20
20.2692521683477
30
0
41
1
10
-48
20
20.1487871827626
30
0
41
1
10
-48
20
20.0279045400609
30
0
41
1
10
-48
20
19.9065304239199
30
0
41
1
10
-48
20
19.7838544425161
30
0
41
1
10
-48
20
19.6591634228364
30
0
41
1
10
-48.0000000000002
20
19.5325889841932
30
0
41
1
10
-48.0000000000003
20
19.4042552420102
30
0
41
1
10
-48.0000000000002
20
19.2749317365037
30
0
41
1
10
-48.0000000000002
20
19.1445171881465
30
0
41
1
10
-48.0000000000001
20
19.013720895784
30
0
41
1
10
-48.0000000000002
20
18.8825733720456
30
0
41
1
10
-48.0000000000002
20
18.7511428726205
30
0
41
1
10
-48.0000000000002
20
18.6186147022127
30
0
41
1
10
-48.0000000000002
20
18.4839720937256
30
0
41
1
10
-48
20
18.3471085546763
30
0
41
1
10
-47.9999999999999
20
18.2080583108858
30
0
41
1
10
-48.0000000000001
20
18.0679281520557
30
0
41
1
10
-48.0000000000002
20
17.9268797121319
30
0
41
1
10
-48.0000000000002
20
17.784931591254
30
0
41
1
10
-48.0000000000001
20
17.6419808736851
30
0
41
1
10
-48.0000000000002
20
17.497994602274
30
0
41
1
10
-48.0000000000002
20
17.352833688842
30
0
41
1
10
-48.0000000000003
20
17.2064334901526
30
0
41
1
10
-48.0000000000003
20
17.0587658090344
30
0
41
1
10
-48.0000000000003
20
16.9100376230813
30
0
41
1
10
-48.0000000000003
20
16.7613212272661
30
0
41
1
10
-48.0000000000003
20
16.612670104057
30
0
41
1
10
-48.0000000000003
20
16.4640040564764
30
0
41
1
10
-48.0000000000004
20
16.314283858033
30
0
41
1
10
-48.0000000000003
20
16.1623322509782
30
0
41
1
10
-48.0000000000002
20
16.0080301286921
30
0
41
1
10
-48.0000000000001
20
15.8514224193235
30
0
41
1
10
-48.0000000000001
20
15.6938148413896
30
0
41
1
10
-48.0000000000003
20
15.5354457849422
30
0
41
1
10
-48.0000000000003
20
15.3762421509519
30
0
41
1
10
-48.0000000000003
20
15.2158707580524
30
0
41
1
10
-48.0000000000001
20
15.0542784766684
30
0
41
1
10
-48.0000000000002
20
14.8915100781336
30
0
41
1
10
-48
20
14.727588316543
30
0
41
1
10
-48.0000000000001
20
14.5626448093049
30
0
41
1
10
-48.0000000000003
20
14.3967413051664
30
0
41
1
10
-48.0000000000003
20
14.2299536585807
30
0
41
1
10
-48.0000000000003
20
14.0621053443332
30
0
41
1
10
-48.0000000000003
20
13.8875244547911
30
0
41
1
10
-48.0000000000001
20
13.7061462011213
30
0
41
1
10
-48.0000000000002
20
13.5178497191008
30
0
41
1
10
-48.0000000000002
20
13.3283103824204
30
0
41
1
10
-48
20
13.1375325067896
30
0
41
1
10
-48.0000000000001
20
12.9567245409027
30
0
41
1
10
-48
20
12.7860603699538
30
0
41
1
10
-48
20
12.6257796231995
30
0
41
1
10
-48.0000000000001
20
12.4647967860138
30
0
41
1
10
-48.0000000000002
20
12.3032674101528
30
0
41
1
10
-48.0000000000003
20
12.1410724051219
30
0
41
1
10
-48.0000000000002
20
11.9778412469623
30
0
41
1
10
-48
20
11.8080467274263
30
0
41
1
10
-48.0000000000001
20
11.6317763456411
30
0
41
1
10
-48.0000000000004
20
11.4491171038002
30
0
41
1
10
-48.0000000000002
20
11.2655754258768
30
0
41
1
10
-48.0000000000002
20
11.0810664398471
30
0
41
1
10
-48.0000000000002
20
10.9058305056737
30
0
41
1
10
-48.0000000000002
20
10.7399799859725
30
0
41
1
10
-48.0000000000002
20
10.5837534911659
30
0
41
1
10
-48.0000000000002
20
10.4269751720649
30
0
41
1
10
-48.0000000000002
20
10.2698060086216
30
0
41
1
10
-48.0000000000001
20
10.1122265487936
30
0
41
1
10
-48.0000000000001
20
9.95711220808033
30
0
41
1
10
-48.0000000000001
20
9.8043753869125
30
0
41
1
10
-48.0000000000001
20
9.65393016193465
30
0
41
1
10
-48.0000000000001
20
9.5026453666031
30
0
41
1
10
-48
20
9.35056153901234
30
0
41
1
10
-48
20
9.1947960388141
30
0
41
1
10
-48
20
9.03547590315083
30
0
41
1
10
-48.0000000000001
20
8.87258170782864
30
0
41
1
10
-48.0000000000002
20
8.70912289891281
30
0
41
1
10
-48.0000000000002
20
8.5450557437355
30
0
41
1
10
-48.0000000000002
20
8.38038372403234
30
0
41
1
10
-48.0000000000001
20
8.2182567341976
30
0
41
1
10
-48.0000000000001
20
8.05872395402581
30
0
41
1
10
-48.0000000000003
20
7.90183310148013
30
0
41
1
10
-48.0000000000003
20
7.74442722847473
30
0
41
1
10
-48.0000000000003
20
7.58651263345252
30
0
41
1
10
-48.0000000000001
20
7.42809604965316
30
0
41
1
10
-48
20
7.26918444206845
30
0
41
1
10
-48
20
7.10978524422756
30
0
41
1
10
-48
20
6.94990638759053
30
0
41
1
10
-48
20
6.78955622549258
30
0
41
1
10
-48
20
6.62969925370778
30
0
41
1
10
-48
20
6.4703559373159
30
0
41
1
10
-48.0000000000003
20
6.31154694944971
30
0
41
1
10
-48.0000000000002
20
6.15232067949028
30
0
41
1
10
-48.0000000000001
20
5.98844622696815
30
0
41
1
10
-48.0000000000002
20
5.81988950012229
30
0
41
1
10
-48.0000000000003
20
5.64664442367748
30
0
41
1
10
-48.0000000000001
20
5.47310482154835
30
0
41
1
10
-48.0000000000001
20
5.29920561835876
30
0
41
1
10
-48.0000000000002
20
5.12457937224492
30
0
41
1
10
-48.0000000000001
20
4.96170999254456
30
0
41
1
10
-48.0000000000002
20
4.81109326168239
30
0
41
1
10
-48.0000000000003
20
4.67334765798521
30
0
41
1
10
-48.0000000000003
20
4.5358032662363
30
0
41
1
10
-48.0000000000002
20
4.39800497336705
30
0
41
1
10
-48.0000000000002
20
4.25953889329957
30
0
41
1
10
-48.0000000000001
20
4.12708673240693
30
0
41
1
10
-48.0000000000002
20
4.00123481790108
30
0
41
1
10
-48.0000000000002
20
3.88246092139192
30
0
41
1
10
-48.0000000000002
20
3.76384105185191
30
0
41
1
10
-48.0000000000002
20
3.64491761543551
30
0
41
1
10
-48.0000000000003
20
3.52569457954912
30
0
41
1
10
-48.0000000000003
20
3.40611965110586
30
0
41
1
10
-48.0000000000002
20
3.28991701539189
30
0
41
1
10
-48.0000000000001
20
3.17709703805345
30
0
41
1
10
-48.0000000000001
20
3.06787210701365
30
0
41
1
10
-48
20
2.95864800472883
30
0
41
1
10
-48.0000000000003
20
2.84931710345383
30
0
41
1
10
-48.0000000000003
20
2.73999700139248
30
0
41
1
10
-48.0000000000003
20
2.62751035619379
30
0
41
1
10
-48.0000000000004
20
2.51180131783107
30
0
41
1
10
-48.0000000000003
20
2.3926597766077
30
0
41
1
10
-48.0000000000003
20
2.27349843672427
30
0
41
1
10
-48.0000000000003
20
2.15432839784444
30
0
41
1
10
-48
20
2.03545590075964
30
0
41
1
10
-48.0000000000001
20
1.91685834963472
30
0
41
1
10
-48.0000000000001
20
1.80660845894553
30
0
41
1
10
-48.0000000000002
20
1.70510791332239
30
0
41
1
10
-48.0000000000001
20
1.61214523979162
30
0
41
1
10
-48.0000000000001
20
1.51925747295779
30
0
41
1
10
-48.0000000000004
20
1.42645226052441
30
0
41
1
10
-48.0000000000004
20
1.33378825125167
30
0
41
1
10
-48.0000000000003
20
1.24120170800534
30
0
41
1
10
-48
20
1.14342165112935
30
0
41
1
10
-48.0000000000001
20
1.04066012816967
30
0
41
1
10
-48.0000000000003
20
0.933321499699111
30
0
41
1
10
-48.0000000000003
20
0.826263804098649
30
0
41
1
10
-48.0000000000003
20
0.718924768555021
30
0
41
1
10
-48
20
0.611566589340216
30
0
41
1
10
-48.0000000000003
20
0.49781228684057
30
0
41
1
10
-48.0000000000001
20
0.378022539180046
30
0
41
1
10
-48.0000000000004
20
0.251958601704395
30
0
41
1
10
-47.9999999999999
20
0.125962991798758
30
0
41
1
10
-48.0000000000005
20
0.0008574553980456
30
0
41
1
10
-48.0000000000004
20
-0.123389125578706
30
0
41
1
10
-48.0000000000001
20
-0.24680924987746
30
0
41
1
10
-48.0000000000004
20
-0.370293197565817
30
0
41
1
10
-48.0000000000002
20
-0.493891910724115
30
0
41
1
10
-48
20
-0.617837868076177
30
0
41
1
10
-48
20
-0.728271023137871
30
0
41
1
10
-48.0000000000002
20
-0.825201138569459
30
0
41
1
10
-48.0000000000003
20
-0.908427263832847
30
0
41
1
10
-48.0000000000003
20
-0.991720679343614
30
0
41
1
10
-48.0000000000001
20
-1.07529241180777
30
0
41
1
10
-48.0000000000002
20
-1.15933056561273
30
0
41
1
10
-48.0000000000003
20
-1.24348262993209
30
0
41
1
10
-48.0000000000003
20
-1.32741681415832
30
0
41
1
10
-48.0000000000003
20
-1.41138395783127
30
0
41
1
10
-48.0000000000001
20
-1.49562723704887
30
0
41
1
10
-48.0000000000001
20
-1.579898477694
30
0
41
1
10
-48.0000000000001
20
-1.66409919877758
30
0
41
1
10
-48.0000000000002
20
-1.74852104581497
30
0
41
1
10
-48.0000000000002
20
-1.83308069519157
30
0
41
1
10
-48.0000000000002
20
-1.92037502014285
30
0
41
1
10
-48.0000000000002
20
-2.01045840374276
30
0
41
1
10
-48
20
-2.10363613366622
30
0
41
1
10
-48
20
-2.19696050345763
30
0
41
1
10
-48.0000000000004
20
-2.290380850558
30
0
41
1
10
-48.0000000000004
20
-2.39695615193684
30
0
41
1
10
-48.0000000000001
20
-2.51659386927675
30
0
41
1
10
-48.0000000000001
20
-2.64919180199151
30
0
41
1
10
-48.0000000000002
20
-2.78188122338095
30
0
41
1
10
-48.0000000000002
20
-2.91470146804788
30
0
41
1
10
-48.0000000000003
20
-3.04741555760941
30
0
41
1
10
-48
20
-3.1801975772146
30
0
41
1
10
-48.0000000000002
20
-3.31319270190828
30
0
41
1
10
-48.0000000000001
20
-3.43672597498004
30
0
41
1
10
-48
20
-3.55079227509651
30
0
41
1
10
-48
20
-3.65510549740104
30
0
41
1
10
-48
20
-3.75918394734867
30
0
41
1
10
-48.0000000000001
20
-3.86291588993189
30
0
41
1
10
-48.0000000000001
20
-3.96671918093243
30
0
41
1
10
-48.0000000000002
20
-4.07092786296057
30
0
41
1
10
-48.0000000000001
20
-4.17539795608351
30
0
41
1
10
-48
20
-4.28911538418189
30
0
41
1
10
-48
20
-4.41172213075942
30
0
41
1
10
-48.0000000000001
20
-4.54320469333782
30
0
41
1
10
-48.0000000000002
20
-4.67448116711485
30
0
41
1
10
-48.0000000000004
20
-4.80595369939429
30
0
41
1
10
-48.0000000000003
20
-4.93771451236012
30
0
41
1
10
-48.0000000000002
20
-5.06943921458005
30
0
41
1
10
-48.0000000000002
20
-5.20069241111694
30
0
41
1
10
-48.0000000000001
20
-5.34259440208426
30
0
41
1
10
-48
20
-5.49530820768121
30
0
41
1
10
-48
20
-5.65891358700613
30
0
41
1
10
-48
20
-5.82224858472184
30
0
41
1
10
-48.0000000000002
20
-5.98520769224209
30
0
41
1
10
-48.0000000000002
20
-6.14775815602316
30
0
41
1
10
-48.0000000000002
20
-6.3098876101978
30
0
41
1
10
-48.0000000000002
20
-6.47158449137476
30
0
41
1
10
-48.0000000000002
20
-6.63283812944499
30
0
41
1
10
-48.0000000000002
20
-6.79363858579925
30
0
41
1
10
-48.0000000000002
20
-6.95302069836264
30
0
41
1
10
-48.0000000000001
20
-7.11098720051819
30
0
41
1
10
-48.0000000000001
20
-7.26754125640198
30
0
41
1
10
-48.0000000000002
20
-7.42362502974819
30
0
41
1
10
-48.0000000000004
20
-7.58338071001376
30
0
41
1
10
-48.0000000000003
20
-7.74674923912247
30
0
41
1
10
-48.0000000000002
20
-7.91366950273667
30
0
41
1
10
-48.0000000000001
20
-8.08001037993652
30
0
41
1
10
-48.0000000000001
20
-8.24576508372337
30
0
41
1
10
-48.0000000000001
20
-8.41092631105525
30
0
41
1
10
-48.0000000000001
20
-8.5852947097971
30
0
41
1
10
-48
20
-8.76871892989472
30
0
41
1
10
-48
20
-8.9610347733384
30
0
41
1
10
-48.0000000000003
20
-9.15249111006245
30
0
41
1
10
-48.0000000000003
20
-9.3362653641743
30
0
41
1
10
-48.0000000000001
20
-9.51249549580412
30
0
41
1
10
-48.0000000000001
20
-9.68138273641115
30
0
41
1
10
-48
20
-9.84963639423518
30
0
41
1
10
-48
20
-10.0170137037342
30
0
41
1
10
-48
20
-10.183333220314
30
0
41
1
10
-48
20
-10.3487488073246
30
0
41
1
10
-48.0000000000001
20
-10.5136711710857
30
0
41
1
10
-48.0000000000001
20
-10.6860150926976
30
0
41
1
10
-48.0000000000002
20
-10.8654378995178
30
0
41
1
10
-48.0000000000002
20
-11.0515777753041
30
0
41
1
10
-48.0000000000001
20
-11.2366482963144
30
0
41
1
10
-48.0000000000002
20
-11.4207393553231
30
0
41
1
10
-48.0000000000003
20
-11.6039267902406
30
0
41
1
10
-48.0000000000002
20
-11.7862480792681
30
0
41
1
10
-48.0000000000003
20
-11.9624685229182
30
0
41
1
10
-48.0000000000003
20
-12.1325010116675
30
0
41
1
10
-48.0000000000003
20
-12.2964513698777
30
0
41
1
10
-48.0000000000003
20
-12.4597048840141
30
0
41
1
10
-48.0000000000003
20
-12.6223974019298
30
0
41
1
10
-48.0000000000003
20
-12.7843780942965
30
0
41
1
10
-48.0000000000003
20
-12.9537257886653
30
0
41
1
10
-48.0000000000003
20
-13.1302564808048
30
0
41
1
10
-48.0000000000003
20
-13.3138683944125
30
0
41
1
10
-48.0000000000002
20
-13.4963342331063
30
0
41
1
10
-48.0000000000001
20
-13.6776501336479
30
0
41
1
10
-48.0000000000002
20
-13.8578123415678
30
0
41
1
10
-48.0000000000002
20
-14.0334051856652
30
0
41
1
10
-48.0000000000001
20
-14.2045020975107
30
0
41
1
10
-48.0000000000002
20
-14.371176257605
30
0
41
1
10
-48.0000000000004
20
-14.5368109423949
30
0
41
1
10
-48.0000000000001
20
-14.7014052970287
30
0
41
1
10
-48.0000000000001
20
-14.8650131121154
30
0
41
1
10
-48.0000000000004
20
-15.0276627444544
30
0
41
1
10
-48.0000000000002
20
-15.1891853843156
30
0
41
1
10
-48.0000000000002
20
-15.3494361151274
30
0
41
1
10
-48.0000000000001
20
-15.50846419847
30
0
41
1
10
-48.0000000000001
20
-15.665669714376
30
0
41
1
10
-48.0000000000001
20
-15.8212079694932
30
0
41
1
10
-48.0000000000001
20
-15.9749142372878
30
0
41
1
10
-48.0000000000002
20
-16.1274339080641
30
0
41
1
10
-48.0000000000002
20
-16.2795741996211
30
0
41
1
10
-48.0000000000001
20
-16.4313735877965
30
0
41
1
10
-48.0000000000002
20
-16.5829574380635
30
0
41
1
10
-48.0000000000003
20
-16.7335658685864
30
0
41
1
10
-48.0000000000003
20
-16.8833194131654
30
0
41
1
10
-48.0000000000001
20
-17.0313265574143
30
0
41
1
10
-48.0000000000001
20
-17.1774545746085
30
0
41
1
10
-48.0000000000002
20
-17.3215088868677
30
0
41
1
10
-48.0000000000001
20
-17.4642674870194
30
0
41
1
10
-48.0000000000001
20
-17.6067288355913
30
0
41
1
10
-48
20
-17.7489983631067
30
0
41
1
10
-48.0000000000001
20
-17.8911865045216
30
0
41
1
10
-48.0000000000001
20
-18.0324580491406
30
0
41
1
10
-48
20
-18.1728293395116
30
0
41
1
10
-48.0000000000001
20
-18.3121732241885
30
0
41
1
10
-48.0000000000002
20
-18.4502846266487
30
0
41
1
10
-48.0000000000002
20
-18.586967284647
30
0
41
1
10
-48.0000000000001
20
-18.7222729030053
30
0
41
1
10
-48.0000000000001
20
-18.8563227351912
30
0
41
1
10
-48.0000000000001
20
-18.9892608629181
30
0
41
1
10
-48.0000000000002
20
-19.1210504932104
30
0
41
1
10
-48.0000000000002
20
-19.2508927245254
30
0
41
1
10
-48.0000000000002
20
-19.3788676605833
30
0
41
1
10
-48.0000000000002
20
-19.5051055856283
30
0
41
1
10
-48.0000000000004
20
-19.6303946671173
30
0
41
1
10
-48.0000000000002
20
-19.7554591618948
30
0
41
1
10
-48.0000000000001
20
-19.8800998911965
30
0
41
1
10
-48.0000000000001
20
-20.0042235084828
30
0
41
1
10
-48.0000000000001
20
-20.1270538652925
30
0
41
1
10
-48.0000000000002
20
-20.2487004613462
30
0
41
1
10
-48.0000000000001
20
-20.3692114939003
30
0
41
1
10
-48.0000000000002
20
-20.4885704130171
30
0
41
1
10
-48.0000000000002
20
-20.6133102491317
30
0
41
1
10
-48.0000000000002
20
-20.7431669799453
30
0
41
1
10
-48.0000000000002
20
-20.8778684335339
30
0
41
1
10
-48.0000000000002
20
-21.0109139649427
30
0
41
1
10
-48.0000000000001
20
-21.1422899033284
30
0
41
1
10
-48.0000000000001
20
-21.27196592289
30
0
41
1
10
-48.0000000000001
20
-21.3974705450981
30
0
41
1
10
-48.0000000000002
20
-21.5189288125696
30
0
41
1
10
-48.0000000000002
20
-21.636536199244
30
0
41
1
10
-48.0000000000003
20
-21.7527876324682
30
0
41
1
10
-48.0000000000003
20
-21.8676404412549
30
0
41
1
10
-48.0000000000002
20
-21.9794936940912
30
0
41
1
10
-48.0000000000002
20
-22.0882961040076
30
0
41
1
10
-48.0000000000002
20
-22.194126211297
30
0
41
1
10
-48.0000000000003
20
-22.2984919947014
30
0
41
1
10
-48.0000000000002
20
-22.4014337603541
30
0
41
1
10
-48.0000000000002
20
-22.502920866426
30
0
41
1
10
-48.0000000000002
20
-22.6010328996459
30
0
41
1
10
-48.0000000000001
20
-22.6959110446672
30
0
41
1
10
-48.0000000000001
20
-22.7877212752175
30
0
41
1
10
-48.0000000000002
20
-22.8783300198182
30
0
41
1
10
-48.0000000000002
20
-22.9676200493974
30
0
41
1
10
-48.0000000000002
20
-23.0554688665104
30
0
41
1
10
-48.0000000000002
20
-23.1418312566648
30
0
41
1
10
-48.0000000000003
20
-23.2267494592042
30
0
41
1
10
-48.0000000000003
20
-23.3103061855504
30
0
41
1
10
-48.0000000000002
20
-23.3925757160523
30
0
41
1
10
-48.0000000000002
20
-23.4731246090876
30
0
41
1
10
-48.0000000000003
20
-23.5519568202203
30
0
41
1
10
-48.0000000000002
20
-23.628968127339
30
0
41
1
10
-48.0000000000002
20
-23.7045058202514
30
0
41
1
10
-48.0000000000003
20
-23.7790059900463
30
0
41
1
10
-48.0000000000004
20
-23.8525706680987
30
0
41
1
10
-48.0000000000004
20
-23.9252652648753
30
0
41
1
10
-48.0000000000003
20
-23.9966060157127
30
0
41
1
10
-48.0000000000001
20
-24.0664864404771
30
0
41
1
10
-48.0000000000002
20
-24.1344719961988
30
0
41
1
10
-48.0000000000004
20
-24.2006179276129
30
0
41
1
10
-48.0000000000003
20
-24.2649507420306
30
0
41
1
10
-48.0000000000003
20
-24.327859192483
30
0
41
1
10
-48.0000000000001
20
-24.3897510545823
30
0
41
1
10
-48.0000000000002
20
-24.4505828709774
30
0
41
1
10
-48.0000000000003
20
-24.5103091739481
30
0
41
1
10
-48.0000000000002
20
-24.5685139695995
30
0
41
1
10
-48.0000000000004
20
-24.625212593655
30
0
41
1
10
-48.0000000000004
20
-24.6803773667467
30
0
41
1
10
-48.0000000000003
20
-24.7339435030557
30
0
41
1
10
-48.0000000000002
20
-24.785819406536
30
0
41
1
10
-48.0000000000002
20
-24.8360460223334
30
0
41
1
10
-48.0000000000001
20
-24.8847176035662
30
0
41
1
10
-48
20
-24.931857236289
30
0
41
1
10
-48.0000000000003
20
-24.977376883135
30
0
41
1
10
-48.0000000000003
20
-25.0209702237899
30
0
41
1
10
-48.0000000000001
20
-25.0626836890714
30
0
41
1
10
-48.0000000000001
20
-25.1025447980189
30
0
41
1
10
-48
20
-25.1407907409481
30
0
41
1
10
-48.0000000000001
20
-25.1776567275804
30
0
41
1
10
-48.0000000000001
20
-25.2130985702807
30
0
41
1
10
-48
20
-25.2470746141773
30
0
41
1
10
-48.0000000000002
20
-25.2793150444937
30
0
41
1
10
-48.0000000000003
20
-25.3097774984514
30
0
41
1
10
-48.0000000000002
20
-25.3384047454584
30
0
41
1
10
-48.0000000000002
20
-25.3651959191916
30
0
41
1
10
-48.0000000000002
20
-25.3891329190681
30
0
41
1
10
-48.0000000000003
20
-25.4104742994948
30
0
41
1
10
-48.0000000000003
20
-25.4294621679151
30
0
41
1
10
-48.0000000000002
20
-25.4470444850461
30
0
41
1
10
-48.0000000000001
20
-25.4631854187445
30
0
41
1
10
-48.0000000000001
20
-25.4778460273097
30
0
41
1
10
-48.0000000000002
20
-25.4910200096376
30
0
41
1
10
-48.0000000000002
20
-25.5027022742696
30
0
41
1
10
-48.0000000000003
20
-25.513040011037
30
0
41
1
10
-48.0000000000003
20
-25.5219317218329
30
0
41
1
10
-48.0000000000001
20
-25.5292712784811
30
0
41
1
10
-48
20
-25.5349024547833
30
0
41
1
10
-48
20
-25.5388044470969
30
0
41
1
10
-47.9999999999997
20
-25.5407501883326
30
0
41
1
10
-48.0000000000004
20
-25.5411090955676
30
0
41
1
10
-47.9999999999994
20
-25.5411190965676
30
0
0
SPLINE
5
13F
100
AcDbEntity
8
SK1
62
256
6
ByLayer
370
18
48
1
60
0
100
AcDbSpline
70
4
71
3
72
432
73
428
40
0
40
0
40
0
40
0
40
0.0016472431964323
40
0.0039830280742588
40
0.0063201116751525
40
0.0086584407267639
40
0.0109979642595971
40
0.0133386338410386
40
0.0156804041549696
40
0.0182575725508917
40
0.0208359790598108
40
0.0234166676236545
40
0.0260012846872333
40
0.0285851383287139
40
0.03116611455143
40
0.0337459207216881
40
0.0363263716446462
40
0.0389092876155825
40
0.0414964794196856
40
0.0440411800001049
40
0.0465848248062208
40
0.0491276675509864
40
0.0516711688672209
40
0.0542616407206008
40
0.0568528151665543
40
0.059444673085472
40
0.0620371899526955
40
0.0646308349297159
40
0.0671809968184321
40
0.0697300838624554
40
0.0722748853046493
40
0.0748197793066692
40
0.0774216103409802
40
0.0800265098643722
40
0.0826297658234671
40
0.0852328647924709
40
0.0878364287415511
40
0.0904404397069293
40
0.0930448696770241
40
0.0956440248076886
40
0.0982435835406044
40
0.100843527027453
40
0.103443827935632
40
0.106044481928287
40
0.108599009472744
40
0.111152972708094
40
0.113706395135543
40
0.116264491432498
40
0.118875048733344
40
0.12148244415135
40
0.1240930984267
40
0.126703094895498
40
0.129310395178084
40
0.131916381418922
40
0.134522503045263
40
0.137130211195284
40
0.139740944225259
40
0.142354738606579
40
0.144968990403558
40
0.147580952618334
40
0.15019038048373
40
0.152799108954732
40
0.155669718053639
40
0.158540916623032
40
0.161411488710727
40
0.164281897199235
40
0.167154540822497
40
0.169921778168367
40
0.172690048929103
40
0.175456088034371
40
0.178219147951103
40
0.180981291037443
40
0.183744372229229
40
0.186350456777026
40
0.188956930245432
40
0.191563477431446
40
0.194170061659839
40
0.196776675531006
40
0.19968586780189
40
0.202595077578423
40
0.205504151368904
40
0.208412514084209
40
0.211319687383539
40
0.214227071259248
40
0.217137190855647
40
0.220050466023
40
0.222660614022764
40
0.225268017351737
40
0.227872966177498
40
0.230477295710729
40
0.233082354075029
40
0.235641112313894
40
0.238199205276673
40
0.240756680324412
40
0.243315148772369
40
0.245928543029587
40
0.248543951917739
40
0.251158593423348
40
0.253770095170195
40
0.256378867971244
40
0.258986333502852
40
0.261593914696804
40
0.264197338572356
40
0.266803623015049
40
0.269412064228657
40
0.27201987268279
40
0.274624525472985
40
0.277179780032624
40
0.279733545734488
40
0.282287192318868
40
0.284842088515535
40
0.287451807619086
40
0.290064014664573
40
0.292675627914539
40
0.295282464604111
40
0.297885587941445
40
0.300489917749195
40
0.303098354815182
40
0.305704845218443
40
0.308311448061384
40
0.310921153707273
40
0.313525846012582
40
0.316129072141386
40
0.318733352484579
40
0.321337365687652
40
0.324201282621023
40
0.327064640214753
40
0.329927410757422
40
0.332789582928054
40
0.335651133220383
40
0.338404095262969
40
0.34115880869143
40
0.343910047141698
40
0.346655730881573
40
0.349402036698261
40
0.352153431475917
40
0.354746849290175
40
0.357337573582147
40
0.35992738746356
40
0.362516447404803
40
0.365104811604888
40
0.367694074934613
40
0.370284204122603
40
0.372870246868667
40
0.375452072171947
40
0.378031514090655
40
0.380564351714031
40
0.383098397090875
40
0.385635263866396
40
0.388172771256913
40
0.390322720959789
40
0.392470777187922
40
0.394617913260738
40
0.396764143819917
40
0.398909435102043
40
0.401053752697681
40
0.403074613275048
40
0.405094541973049
40
0.407113503946194
40
0.409131462853896
40
0.411148381401497
40
0.413164219002409
40
0.415178933840616
40
0.417192482626202
40
0.419204818087808
40
0.421215890943677
40
0.423189771728808
40
0.425162332400785
40
0.427133519690868
40
0.429103275593604
40
0.431228714987927
40
0.433352329898851
40
0.435473482461241
40
0.4375905744164
40
0.439707238419319
40
0.441828514794968
40
0.443824778435728
40
0.445811907830313
40
0.447794587458051
40
0.449778479898237
40
0.4517673227024
40
0.453422141354885
40
0.455066779936327
40
0.456709083445639
40
0.458356512881116
40
0.459998670018032
40
0.461644606659441
40
0.463188832437471
40
0.46472971628242
40
0.466270246720393
40
0.467808584463011
40
0.469344561659014
40
0.470968723562576
40
0.472593969649047
40
0.47421644444564
40
0.475834755671085
40
0.477451607017678
40
0.479060044353026
40
0.480329916281454
40
0.481587459884351
40
0.482851283714798
40
0.484112007287107
40
0.485364613650297
40
0.486626608387344
40
0.487881000525575
40
0.489130610472951
40
0.490379664512322
40
0.49162707781532
40
0.492879952009983
40
0.494127805634271
40
0.495597012765023
40
0.497065192793124
40
0.498532753935105
40
0.499999957304146
40
0.501437194737082
40
0.502874763613602
40
0.504312923494268
40
0.505752037019226
40
0.507192755184661
40
0.508638588616038
40
0.509769690960368
40
0.51090297384482
40
0.512036483123519
40
0.513173213067849
40
0.514317990336693
40
0.515456744432221
40
0.516594909441785
40
0.517743575315171
40
0.518885556578682
40
0.520029402891763
40
0.521182280116245
40
0.522327865578928
40
0.523683668731569
40
0.525043184796362
40
0.526403546868179
40
0.527768680887661
40
0.52953989674362
40
0.531314059758247
40
0.533092656637906
40
0.534874270696521
40
0.536657266764198
40
0.538443950903427
40
0.54023901250312
40
0.541881819880732
40
0.543528956647242
40
0.545170849328251
40
0.546816810698859
40
0.548472664490545
40
0.550130055299105
40
0.551933916293473
40
0.553736134829542
40
0.555540963950647
40
0.557352585641686
40
0.559170595986655
40
0.560987518641885
40
0.562801174350247
40
0.564797874572902
40
0.566798131521824
40
0.568800473372075
40
0.570804434808937
40
0.572809948410954
40
0.574816948264408
40
0.576825371723713
40
0.578835161002254
40
0.580846263432615
40
0.582858628766241
40
0.584836242789551
40
0.586814984420459
40
0.588794808637731
40
0.590775672355471
40
0.592915907524377
40
0.5950572701305
40
0.59719972395437
40
0.599343226777303
40
0.601487734159339
40
0.603633202877712
40
0.606162979816903
40
0.608693997720932
40
0.611226205448987
40
0.613759556317075
40
0.616345754871471
40
0.618934272934947
40
0.621526096710073
40
0.624114585795761
40
0.626699695480886
40
0.629287451361001
40
0.631881809891987
40
0.634477054168031
40
0.637071052322002
40
0.639665650497893
40
0.642261010401475
40
0.644857194934983
40
0.647455756479428
40
0.650056076585829
40
0.652435895729854
40
0.654813609801555
40
0.657193513227838
40
0.659578448647053
40
0.661964328015569
40
0.664348798123238
40
0.667101837335133
40
0.669855453622556
40
0.672609624409364
40
0.675364339158186
40
0.67811957892461
40
0.680875308040874
40
0.683474006761238
40
0.68607312441885
40
0.688672641647964
40
0.691272531811567
40
0.69387287295282
40
0.696475052775085
40
0.69907848609966
40
0.701677816420091
40
0.704275111414502
40
0.706875323406605
40
0.709434143592792
40
0.711994290659689
40
0.71455250784801
40
0.717107900528898
40
0.719708146207521
40
0.722308205145287
40
0.724909522925616
40
0.727513545408705
40
0.730120936311841
40
0.732682901871285
40
0.735243261583311
40
0.73780072010046
40
0.740356384467522
40
0.7433983573535
40
0.746441944173017
40
0.749489367501759
40
0.752540395577921
40
0.755590861404237
40
0.758637548674155
40
0.761241598375446
40
0.763845991104582
40
0.766451208764865
40
0.76905637529029
40
0.77166078532343
40
0.774218961562572
40
0.77677916948119
40
0.779342282611321
40
0.781906260157167
40
0.784956171134543
40
0.788002498157296
40
0.791047955119247
40
0.794094623336919
40
0.797142170703473
40
0.800189913924093
40
0.803237639055133
40
0.806285333645606
40
0.809332985933093
40
0.812380583113114
40
0.815427901588352
40
0.818474251715455
40
0.821345330142166
40
0.824217023367653
40
0.827091720298929
40
0.829969032746609
40
0.832845371584788
40
0.835609152004944
40
0.83837077560951
40
0.841132420137252
40
0.843894740804421
40
0.846656693703983
40
0.849417579100577
40
0.852021086147836
40
0.854626874775632
40
0.857235234433135
40
0.859843590669587
40
0.86244920608807
40
0.86505161787361
40
0.86765221377374
40
0.870252435568419
40
0.872853724099179
40
0.875457515953054
40
0.878017486767654
40
0.880577505739065
40
0.883133559971902
40
0.885685280913889
40
0.888283513372864
40
0.890885994142072
40
0.893489482067484
40
0.896090584027325
40
0.898690953054563
40
0.901244539826892
40
0.9037977582548
40
0.90635058785601
40
0.908903026623579
40
0.911507145393956
40
0.914110825186148
40
0.916714040530356
40
0.91931708198049
40
0.921921691012585
40
0.924524926424757
40
0.927122593236697
40
0.929713234952337
40
0.932307657808838
40
0.934904526301955
40
0.937498588648594
40
0.940091223853301
40
0.942636923031857
40
0.94518196534057
40
0.947726335144438
40
0.950270006597019
40
0.952864855262524
40
0.955460034568049
40
0.958056783415906
40
0.960650495106424
40
0.96323965709454
40
0.965826035945059
40
0.968411464899507
40
0.970674373562599
40
0.97293917889524
40
0.975206066671862
40
0.97747133506882
40
0.979733547856276
40
0.981994410164305
40
0.98425432564362
40
0.986513256617559
40
0.988878658221243
40
0.991242891101618
40
0.993605906194931
40
0.99596765243166
40
0.998328074862541
40
1
40
1
40
1
40
1
41
1
10
-46.5000000000001
20
26.4071390607321
30
0
41
1
10
-46.5000000000001
20
26.4071290597321
30
0
41
1
10
-46.5000000000001
20
26.4067681555119
30
0
41
1
10
-46.5
20
26.4048073821841
30
0
41
1
10
-46.5
20
26.4008663707643
30
0
41
1
10
-46.5000000000001
20
26.395178444404
30
0
41
1
10
-46.5000000000002
20
26.3877658337862
30
0
41
1
10
-46.5000000000003
20
26.3786491577812
30
0
41
1
10
-46.5000000000003
20
26.3674881623694
30
0
41
1
10
-46.5000000000002
20
26.3541028148054
30
0
41
1
10
-46.5
20
26.3383088272765
30
0
41
1
10
-46.5
20
26.320539107653
30
0
41
1
10
-46.5000000000001
20
26.3008217480024
30
0
41
1
10
-46.5000000000001
20
26.2791992842803
30
0
41
1
10
-46.5
20
26.2557017294413
30
0
41
1
10
-46.5000000000001
20
26.2303471776511
30
0
41
1
10
-46.5000000000002
20
26.2031434539995
30
0
41
1
10
-46.5000000000003
20
26.1740877921987
30
0
41
1
10
-46.5000000000003
20
26.1433692076063
30
0
41
1
10
-46.5000000000003
20
26.1110618025562
30
0
41
1
10
-46.5000000000001
20
26.0772367466744
30
0
41
1
10
-46.5
20
26.0417253332133
30
0
41
1
10
-46.5000000000002
20
26.0043136219332
30
0
41
1
10
-46.5000000000003
20
25.9649749720372
30
0
41
1
10
-46.5000000000002
20
25.9236888155514
30
0
41
1
10
-46.5000000000001
20
25.8807064864868
30
0
41
1
10
-46.5000000000001
20
25.8360408899745
30
0
41
1
10
-46.5000000000003
20
25.7899687584912
30
0
41
1
10
-46.5000000000003
20
25.7425457483717
30
0
41
1
10
-46.5000000000002
20
25.6938618627439
30
0
41
1
10
-46.5000000000002
20
25.6436567226526
30
0
41
1
10
-46.5000000000001
20
25.5915443670972
30
0
41
1
10
-46.5000000000001
20
25.5374549222926
30
0
41
1
10
-46.4999999999999
20
25.4813836906373
30
0
41
1
10
-46.5
20
25.4237328499725
30
0
41
1
10
-46.5000000000002
20
25.3645335257673
30
0
41
1
10
-46.5000000000003
20
25.3037831505927
30
0
41
1
10
-46.5000000000004
20
25.2414887359272
30
0
41
1
10
-46.5000000000004
20
25.1777081877373
30
0
41
1
10
-46.5000000000002
20
25.1124554091097
30
0
41
1
10
-46.5000000000001
20
25.0457453212275
30
0
41
1
10
-46.5000000000003
20
24.9775412675607
30
0
41
1
10
-46.5000000000003
20
24.9078533738109
30
0
41
1
10
-46.5000000000001
20
24.8371146725644
30
0
41
1
10
-46.5
20
24.7653735675715
30
0
41
1
10
-46.5000000000002
20
24.692679261828
30
0
41
1
10
-46.5000000000002
20
24.6185634968734
30
0
41
1
10
-46.4999999999999
20
24.5425104712736
30
0
41
1
10
-46.5
20
24.4645272190354
30
0
41
1
10
-46.5000000000003
20
24.384595695834
30
0
41
1
10
-46.5000000000001
20
24.3032590649957
30
0
41
1
10
-46.5
20
24.2205268351949
30
0
41
1
10
-46.5
20
24.1364502028982
30
0
41
1
10
-46.5
20
24.0510294258835
30
0
41
1
10
-46.5
20
23.9642275651267
30
0
41
1
10
-46.5
20
23.8760016634755
30
0
41
1
10
-46.5
20
23.7863246846529
30
0
41
1
10
-46.5000000000002
20
23.6952177607138
30
0
41
1
10
-46.5000000000001
20
23.602746731587
30
0
41
1
10
-46.5000000000001
20
23.5089865772908
30
0
41
1
10
-46.5000000000001
20
23.4139561545359
30
0
41
1
10
-46.5000000000001
20
23.314411185458
30
0
41
1
10
-46.5000000000002
20
23.2101634952389
30
0
41
1
10
-46.5000000000003
20
23.1010572995488
30
0
41
1
10
-46.5000000000003
20
22.9903717836798
30
0
41
1
10
-46.5000000000002
20
22.878090166064
30
0
41
1
10
-46.5000000000002
20
22.7656034136998
30
0
41
1
10
-46.5000000000003
20
22.6529743776959
30
0
41
1
10
-46.5000000000003
20
22.5403344588795
30
0
41
1
10
-46.5000000000002
20
22.4263205364013
30
0
41
1
10
-46.5000000000001
20
22.3109645284412
30
0
41
1
10
-46.5000000000001
20
22.1942276432164
30
0
41
1
10
-46.5000000000001
20
22.0783150203215
30
0
41
1
10
-46.5000000000002
20
21.9633068634957
30
0
41
1
10
-46.5000000000003
20
21.8493095116403
30
0
41
1
10
-46.5000000000002
20
21.7340625675944
30
0
41
1
10
-46.5000000000002
20
21.6175757615434
30
0
41
1
10
-46.5000000000001
20
21.4952996329714
30
0
41
1
10
-46.5000000000001
20
21.3670667983726
30
0
41
1
10
-46.5000000000001
20
21.2327055249919
30
0
41
1
10
-46.5000000000001
20
21.0968383789895
30
0
41
1
10
-46.5000000000001
20
20.959490928314
30
0
41
1
10
-46.5000000000002
20
20.8206635918478
30
0
41
1
10
-46.5000000000003
20
20.6803037650448
30
0
41
1
10
-46.5000000000002
20
20.5383458656567
30
0
41
1
10
-46.5
20
20.3997814038914
30
0
41
1
10
-46.5
20
20.2648780716434
30
0
41
1
10
-46.5
20
20.1339014846999
30
0
41
1
10
-46.5
20
20.0018343445037
30
0
41
1
10
-46.5
20
19.8686216346956
30
0
41
1
10
-46.5000000000001
20
19.7350236156841
30
0
41
1
10
-46.5000000000001
20
19.6010697746957
30
0
41
1
10
-46.5000000000002
20
19.466810504784
30
0
41
1
10
-46.5000000000001
20
19.3314264089816
30
0
41
1
10
-46.5000000000001
20
19.193929963437
30
0
41
1
10
-46.5000000000001
20
19.0542507736599
30
0
41
1
10
-46.5000000000002
20
18.9123969066779
30
0
41
1
10
-46.5000000000003
20
18.7694120640893
30
0
41
1
10
-46.5000000000003
20
18.6253876100648
30
0
41
1
10
-46.5000000000002
20
18.480335056941
30
0
41
1
10
-46.5000000000001
20
18.3341981346477
30
0
41
1
10
-46.5000000000001
20
18.187008253934
30
0
41
1
10
-46.5000000000001
20
18.0386901645161
30
0
41
1
10
-46.5000000000002
20
17.8892101812124
30
0
41
1
10
-46.5000000000002
20
17.7385045477888
30
0
41
1
10
-46.5000000000002
20
17.5866897023664
30
0
41
1
10
-46.5000000000002
20
17.4347776439298
30
0
41
1
10
-46.5000000000003
20
17.2828097867037
30
0
41
1
10
-46.5000000000003
20
17.1307528263138
30
0
41
1
10
-46.5000000000003
20
16.9776119610586
30
0
41
1
10
-46.5000000000004
20
16.8222542003985
30
0
41
1
10
-46.5000000000002
20
16.6646020056008
30
0
41
1
10
-46.5000000000001
20
16.5046693006666
30
0
41
1
10
-46.5000000000001
20
16.3436655886441
30
0
41
1
10
-46.5000000000002
20
16.1817245796185
30
0
41
1
10
-46.5000000000003
20
16.0188061446634
30
0
41
1
10
-46.5000000000003
20
15.8547250406172
30
0
41
1
10
-46.5000000000002
20
15.6894523083794
30
0
41
1
10
-46.5000000000001
20
15.5230134632365
30
0
41
1
10
-46.5
20
15.355421745043
30
0
41
1
10
-46.5
20
15.1867511071734
30
0
41
1
10
-46.5
20
15.0170366162962
30
0
41
1
10
-46.5
20
14.8463212061263
30
0
41
1
10
-46.5
20
14.6745066522451
30
0
41
1
10
-46.5000000000001
20
14.4958061754821
30
0
41
1
10
-46.5
20
14.3101234329741
30
0
41
1
10
-46.5000000000001
20
14.1173283934533
30
0
41
1
10
-46.5000000000004
20
13.9232278802347
30
0
41
1
10
-46.5000000000003
20
13.7278246378816
30
0
41
1
10
-46.5000000000001
20
13.5335954731905
30
0
41
1
10
-46.5
20
13.3405453130305
30
0
41
1
10
-46.5
20
13.1487971595554
30
0
41
1
10
-46.5
20
12.9559848779305
30
0
41
1
10
-46.5000000000002
20
12.7621293891414
30
0
41
1
10
-46.5000000000003
20
12.5670258546509
30
0
41
1
10
-46.5000000000004
20
12.3743138310705
30
0
41
1
10
-46.5000000000003
20
12.1841550317626
30
0
41
1
10
-46.5000000000002
20
11.9967667271055
30
0
41
1
10
-46.5000000000001
20
11.8083844478626
30
0
41
1
10
-46.5000000000001
20
11.6189610442647
30
0
41
1
10
-46.5000000000001
20
11.4284528177173
30
0
41
1
10
-46.5000000000002
20
11.2368180010733
30
0
41
1
10
-46.5000000000001
20
11.044143890499
30
0
41
1
10
-46.5000000000001
20
10.8505599451226
30
0
41
1
10
-46.5
20
10.656144972114
30
0
41
1
10
-46.5
20
10.4619747882323
30
0
41
1
10
-46.5
20
10.2679373950743
30
0
41
1
10
-46.5
20
10.0739207972805
30
0
41
1
10
-46.4999999999999
20
9.87872588213614
30
0
41
1
10
-46.5
20
9.69238324407402
30
0
41
1
10
-46.5000000000002
20
9.51519038435677
30
0
41
1
10
-46.5000000000003
20
9.3473545320211
30
0
41
1
10
-46.5000000000003
20
9.17885449418235
30
0
41
1
10
-46.5000000000003
20
9.00966577702728
30
0
41
1
10
-46.5000000000002
20
8.83979018898266
30
0
41
1
10
-46.5000000000002
20
8.67247740238177
30
0
41
1
10
-46.5000000000003
20
8.50777778070594
30
0
41
1
10
-46.5000000000002
20
8.34574017680227
30
0
41
1
10
-46.5000000000002
20
8.18310433825098
30
0
41
1
10
-46.5000000000002
20
8.01987371567245
30
0
41
1
10
-46.5000000000001
20
7.85605207112509
30
0
41
1
10
-46.5000000000002
20
7.69164322579709
30
0
41
1
10
-46.5000000000004
20
7.52665132121549
30
0
41
1
10
-46.5000000000002
20
7.36108082749285
30
0
41
1
10
-46.5000000000001
20
7.19493641486063
30
0
41
1
10
-46.5000000000001
20
7.02921457608949
30
0
41
1
10
-46.5000000000002
20
6.86393325280067
30
0
41
1
10
-46.5000000000001
20
6.69911051398406
30
0
41
1
10
-46.5000000000001
20
6.53375545959346
30
0
41
1
10
-46.5000000000002
20
6.36346215091687
30
0
41
1
10
-46.5000000000001
20
6.18818331290985
30
0
41
1
10
-46.5000000000002
20
6.00788652176547
30
0
41
1
10
-46.5000000000003
20
5.82707762098883
30
0
41
1
10
-46.5000000000004
20
5.64572098734803
30
0
41
1
10
-46.5000000000004
20
5.46361233638849
30
0
41
1
10
-46.5000000000003
20
5.28423777237391
30
0
41
1
10
-46.5000000000002
20
5.10790209962446
30
0
41
1
10
-46.5000000000002
20
4.93491627973453
30
0
41
1
10
-46.5000000000002
20
4.7616381541515
30
0
41
1
10
-46.5000000000001
20
4.58766136274147
30
0
41
1
10
-46.5000000000002
20
4.42265463017431
30
0
41
1
10
-46.5000000000001
20
4.26707750925552
30
0
41
1
10
-46.5000000000001
20
4.12125774556688
30
0
41
1
10
-46.5000000000003
20
3.97521404710781
30
0
41
1
10
-46.5000000000003
20
3.82881360892808
30
0
41
1
10
-46.5000000000002
20
3.68187711727479
30
0
41
1
10
-46.5
20
3.53759525875332
30
0
41
1
10
-46.5000000000002
20
3.39594820893759
30
0
41
1
10
-46.5000000000004
20
3.25708717028301
30
0
41
1
10
-46.5000000000001
20
3.11804196147037
30
0
41
1
10
-46.4999999999999
20
2.97878756810413
30
0
41
1
10
-46.5000000000001
20
2.8366523626711
30
0
41
1
10
-46.5000000000002
20
2.69152103674214
30
0
41
1
10
-46.5000000000004
20
2.54338671938723
30
0
41
1
10
-46.4999999999999
20
2.39506530826136
30
0
41
1
10
-46.5000000000005
20
2.24664167476577
30
0
41
1
10
-46.5000000000002
20
2.09830546837754
30
0
41
1
10
-46.5000000000003
20
1.9603296208701
30
0
41
1
10
-46.5000000000002
20
1.83314303682688
30
0
41
1
10
-46.5000000000002
20
1.71636655142361
30
0
41
1
10
-46.5000000000004
20
1.59969007299082
30
0
41
1
10
-46.5000000000003
20
1.48299849222057
30
0
41
1
10
-46.4999999999999
20
1.36619908787356
30
0
41
1
10
-46.5000000000002
20
1.24944461049232
30
0
41
1
10
-46.5000000000002
20
1.13264260666989
30
0
41
1
10
-46.5000000000001
20
1.01611053106565
30
0
41
1
10
-46.5000000000001
20
0.899677542267842
30
0
41
1
10
-46.5000000000003
20
0.783035646133686
30
0
41
1
10
-46.5000000000003
20
0.666337320669675
30
0
41
1
10
-46.5000000000001
20
0.542647678822991
30
0
41
1
10
-46.5000000000003
20
0.412167124555231
30
0
41
1
10
-46.4999999999999
20
0.274766003960905
30
0
41
1
10
-46.5000000000003
20
0.137379750046511
30
0
41
1
10
-46.5000000000002
20
0.0009352130654746
30
0
41
1
10
-46.5000000000001
20
-0.134573237548808
30
0
41
1
10
-46.5000000000001
20
-0.269152781853786
30
0
41
1
10
-46.5000000000002
20
-0.40374608373289
30
0
41
1
10
-46.5000000000001
20
-0.538370813481341
30
0
41
1
10
-46.5
20
-0.673146283021698
30
0
41
1
10
-46.5000000000001
20
-0.798224101123254
30
0
41
1
10
-46.5
20
-0.913631518435934
30
0
41
1
10
-46.5000000000002
20
-1.01923477665037
30
0
41
1
10
-46.5000000000003
20
-1.12491569566667
30
0
41
1
10
-46.5000000000001
20
-1.23084579654794
30
0
41
1
10
-46.5000000000001
20
-1.33682374272079
30
0
41
1
10
-46.5000000000002
20
-1.44272493946352
30
0
41
1
10
-46.5000000000004
20
-1.5486135971849
30
0
41
1
10
-46.5000000000002
20
-1.65446572146128
30
0
41
1
10
-46.5000000000001
20
-1.76035058594541
30
0
41
1
10
-46.5000000000001
20
-1.86621189097801
30
0
41
1
10
-46.5
20
-1.97202960742863
30
0
41
1
10
-46.5000000000001
20
-2.08419204529728
30
0
41
1
10
-46.5000000000003
20
-2.20249033653533
30
0
41
1
10
-46.5000000000001
20
-2.32713149179625
30
0
41
1
10
-46.5000000000002
20
-2.45180898539349
30
0
41
1
10
-46.5000000000004
20
-2.58877115797451
30
0
41
1
10
-46.5000000000002
20
-2.7379792195584
30
0
41
1
10
-46.5
20
-2.89929485794002
30
0
41
1
10
-46.5000000000001
20
-3.06046262971447
30
0
41
1
10
-46.5000000000001
20
-3.22142180370113
30
0
41
1
10
-46.5
20
-3.38214251865087
30
0
41
1
10
-46.5000000000003
20
-3.54277177046903
30
0
41
1
10
-46.5000000000002
20
-3.69872096224693
30
0
41
1
10
-46.5000000000002
20
-3.85004316812795
30
0
41
1
10
-46.5
20
-3.99638067206392
30
0
41
1
10
-46.5
20
-4.14237894765215
30
0
41
1
10
-46.5
20
-4.28819236756345
30
0
41
1
10
-46.5000000000001
20
-4.43402436025441
30
0
41
1
10
-46.5000000000001
20
-4.5840429361986
30
0
41
1
10
-46.5000000000001
20
-4.73785796979208
30
0
41
1
10
-46.5
20
-4.89544576768103
30
0
41
1
10
-46.5000000000001
20
-5.05272209947759
30
0
41
1
10
-46.5000000000003
20
-5.20991496075781
30
0
41
1
10
-46.5000000000004
20
-5.36691620763284
30
0
41
1
10
-46.5000000000003
20
-5.52343270036949
30
0
41
1
10
-46.5000000000002
20
-5.68451656540064
30
0
41
1
10
-46.5000000000001
20
-5.85023329535536
30
0
41
1
10
-46.5
20
-6.02066780776232
30
0
41
1
10
-46.5
20
-6.19064224935263
30
0
41
1
10
-46.5000000000002
20
-6.36009733484647
30
0
41
1
10
-46.5000000000002
20
-6.52901450857641
30
0
41
1
10
-46.5000000000002
20
-6.69738653568308
30
0
41
1
10
-46.5000000000002
20
-6.86520674140098
30
0
41
1
10
-46.5000000000002
20
-7.03246900705533
30
0
41
1
10
-46.5000000000002
20
-7.19916761239733
30
0
41
1
10
-46.5000000000002
20
-7.36430760867214
30
0
41
1
10
-46.5000000000001
20
-7.52789688151709
30
0
41
1
10
-46.5000000000001
20
-7.68994361725445
30
0
41
1
10
-46.5000000000001
20
-7.85142799357635
30
0
41
1
10
-46.5000000000001
20
-8.01663432872649
30
0
41
1
10
-46.5000000000001
20
-8.18550115449926
30
0
41
1
10
-46.5
20
-8.35796473323578
30
0
41
1
10
-46.5000000000002
20
-8.52975527796386
30
0
41
1
10
-46.5000000000002
20
-8.70086921515704
30
0
41
1
10
-46.5
20
-8.8713025611421
30
0
41
1
10
-46.5000000000001
20
-9.05116234221427
30
0
41
1
10
-46.5000000000003
20
-9.2402878636343
30
0
41
1
10
-46.5000000000002
20
-9.43850545637352
30
0
41
1
10
-46.5000000000002
20
-9.63575854327353
30
0
41
1
10
-46.5000000000003
20
-9.83337924573039
30
0
41
1
10
-46.5000000000002
20
-10.0313710179357
30
0
41
1
10
-46.5
20
-10.2297610937328
30
0
41
1
10
-46.5000000000002
20
-10.4271075770044
30
0
41
1
10
-46.5000000000003
20
-10.6232715093323
30
0
41
1
10
-46.5000000000002
20
-10.8182279531686
30
0
41
1
10
-46.5000000000001
20
-11.0122240907945
30
0
41
1
10
-46.5000000000001
20
-11.2053734779927
30
0
41
1
10
-46.5000000000001
20
-11.3975785593695
30
0
41
1
10
-46.5000000000001
20
-11.5886842236721
30
0
41
1
10
-46.5000000000001
20
-11.7786895312752
30
0
41
1
10
-46.5
20
-11.9676447651284
30
0
41
1
10
-46.5
20
-12.1555920029472
30
0
41
1
10
-46.4999999999999
20
-12.3425521473231
30
0
41
1
10
-46.5000000000001
20
-12.5232510325954
30
0
41
1
10
-46.5000000000002
20
-12.6976876015332
30
0
41
1
10
-46.5000000000003
20
-12.8659669341964
30
0
41
1
10
-46.5000000000004
20
-13.0334338454135
30
0
41
1
10
-46.5000000000002
20
-13.2001641317013
30
0
41
1
10
-46.5000000000002
20
-13.3660733528384
30
0
41
1
10
-46.5000000000003
20
-13.5395369390468
30
0
41
1
10
-46.5000000000003
20
-13.7203724167642
30
0
41
1
10
-46.5000000000003
20
-13.908437828806
30
0
41
1
10
-46.5000000000002
20
-14.0952977011723
30
0
41
1
10
-46.5000000000001
20
-14.2809494710429
30
0
41
1
10
-46.5000000000002
20
-14.4653909096404
30
0
41
1
10
-46.5000000000002
20
-14.6451280777684
30
0
41
1
10
-46.5000000000003
20
-14.8202384531624
30
0
41
1
10
-46.5000000000003
20
-14.9907989072332
30
0
41
1
10
-46.5000000000001
20
-15.1602740312255
30
0
41
1
10
-46.5000000000001
20
-15.3286627214197
30
0
41
1
10
-46.5000000000002
20
-15.4959943604539
30
0
41
1
10
-46.5000000000001
20
-15.6622843371151
30
0
41
1
10
-46.5000000000001
20
-15.8274381010286
30
0
41
1
10
-46.5000000000001
20
-15.991374063308
30
0
41
1
10
-46.5000000000001
20
-16.1541190507799
30
0
41
1
10
-46.5000000000001
20
-16.3149001512207
30
0
41
1
10
-46.4999999999999
20
-16.4738139450557
30
0
41
1
10
-46.5000000000001
20
-16.6307783855615
30
0
41
1
10
-46.5000000000003
20
-16.7865874164313
30
0
41
1
10
-46.5000000000003
20
-16.9421162536795
30
0
41
1
10
-46.5000000000002
20
-17.0973750493831
30
0
41
1
10
-46.5000000000003
20
-17.2524223513672
30
0
41
1
10
-46.5000000000003
20
-17.4064107773513
30
0
41
1
10
-46.5000000000003
20
-17.5594066727336
30
0
41
1
10
-46.5000000000002
20
-17.7105014886086
30
0
41
1
10
-46.5000000000001
20
-17.8596309620536
30
0
41
1
10
-46.5000000000001
20
-18.0066962731737
30
0
41
1
10
-46.5000000000001
20
-18.1525377902786
30
0
41
1
10
-46.5000000000002
20
-18.3063558644746
30
0
41
1
10
-46.5000000000002
20
-18.4679760586099
30
0
41
1
10
-46.5000000000001
20
-18.6372184063125
30
0
41
1
10
-46.5000000000002
20
-18.8050479511504
30
0
41
1
10
-46.5000000000003
20
-18.9714220022789
30
0
41
1
10
-46.5000000000002
20
-19.1361956090852
30
0
41
1
10
-46.5000000000002
20
-19.2914050116757
30
0
41
1
10
-46.5000000000003
20
-19.4373173167658
30
0
41
1
10
-46.5000000000003
20
-19.5742552496846
30
0
41
1
10
-46.5000000000003
20
-19.7100406406652
30
0
41
1
10
-46.5000000000003
20
-19.8446515599574
30
0
41
1
10
-46.5000000000003
20
-19.9772804964627
30
0
41
1
10
-46.5000000000003
20
-20.1079817691134
30
0
41
1
10
-46.5000000000002
20
-20.2368376705136
30
0
41
1
10
-46.5000000000002
20
-20.3646437657782
30
0
41
1
10
-46.5000000000002
20
-20.4993670539222
30
0
41
1
10
-46.5000000000003
20
-20.6406288131717
30
0
41
1
10
-46.5000000000003
20
-20.7881020989885
30
0
41
1
10
-46.5000000000003
20
-20.9338728231306
30
0
41
1
10
-46.5000000000002
20
-21.0780100591004
30
0
41
1
10
-46.5000000000001
20
-21.2205244904244
30
0
41
1
10
-46.5000000000001
20
-21.3613891790316
30
0
41
1
10
-46.5
20
-21.5005828274452
30
0
41
1
10
-46.5000000000001
20
-21.6380950783633
30
0
41
1
10
-46.5000000000002
20
-21.7739183996219
30
0
41
1
10
-46.5000000000002
20
-21.9080418865767
30
0
41
1
10
-46.5000000000002
20
-22.0404453088393
30
0
41
1
10
-46.5000000000001
20
-22.1686171642662
30
0
41
1
10
-46.5000000000001
20
-22.2926747809693
30
0
41
1
10
-46.5000000000001
20
-22.4127739382394
30
0
41
1
10
-46.5000000000001
20
-22.5314182023396
30
0
41
1
10
-46.5000000000001
20
-22.6485806121054
30
0
41
1
10
-46.5
20
-22.7627027214646
30
0
41
1
10
-46.5
20
-22.8737835155798
30
0
41
1
10
-46.5000000000001
20
-22.981894208626
30
0
41
1
10
-46.5
20
-23.0885262586035
30
0
41
1
10
-46.5000000000001
20
-23.1936989581717
30
0
41
1
10
-46.5
20
-23.2973918902217
30
0
41
1
10
-46.5
20
-23.3976465185928
30
0
41
1
10
-46.5000000000001
20
-23.4945823551326
30
0
41
1
10
-46.5000000000001
20
-23.588332221661
30
0
41
1
10
-46.5000000000002
20
-23.6808057532699
30
0
41
1
10
-46.5000000000002
20
-23.7719344610383
30
0
41
1
10
-46.5000000000002
20
-23.8616468447988
30
0
41
1
10
-46.5000000000002
20
-23.9499144168174
30
0
41
1
10
-46.5000000000001
20
-24.0367574114406
30
0
41
1
10
-46.5000000000001
20
-24.1222186534307
30
0
41
1
10
-46.5
20
-24.2063360576459
30
0
41
1
10
-46.5000000000001
20
-24.2886405011873
30
0
41
1
10
-46.5000000000001
20
-24.3691437135263
30
0
41
1
10
-46.5000000000002
20
-24.4477970457786
30
0
41
1
10
-46.5000000000003
20
-24.5250106583912
30
0
41
1
10
-46.5000000000003
20
-24.6012329140625
30
0
41
1
10
-46.5000000000002
20
-24.6765036049153
30
0
41
1
10
-46.5000000000001
20
-24.7508417652863
30
0
41
1
10
-46.4999999999999
20
-24.8237683536348
30
0
41
1
10
-46.5000000000001
20
-24.8952195972425
30
0
41
1
10
-46.5000000000002
20
-24.9647592754201
30
0
41
1
10
-46.5000000000001
20
-25.0324278246287
30
0
41
1
10
-46.5000000000001
20
-25.0982494668887
30
0
41
1
10
-46.5000000000002
20
-25.1626218223463
30
0
41
1
10
-46.5000000000002
20
-25.225962137734
30
0
41
1
10
-46.5000000000003
20
-25.2882258927161
30
0
41
1
10
-46.5000000000003
20
-25.3493666126512
30
0
41
1
10
-46.5
20
-25.4089566633608
30
0
41
1
10
-46.4999999999999
20
-25.4669989412724
30
0
41
1
10
-46.5
20
-25.5234727685787
30
0
41
1
10
-46.5000000000003
20
-25.5783362944289
30
0
41
1
10
-46.5000000000003
20
-25.6315145971465
30
0
41
1
10
-46.5000000000002
20
-25.6830263775964
30
0
41
1
10
-46.5000000000002
20
-25.732920122153
30
0
41
1
10
-46.5000000000002
20
-25.7812194051457
30
0
41
1
10
-46.5000000000002
20
-25.8278682120809
30
0
41
1
10
-46.5000000000002
20
-25.8725672061608
30
0
41
1
10
-46.5000000000001
20
-25.9153511262489
30
0
41
1
10
-46.5
20
-25.9562440817042
30
0
41
1
10
-46.5000000000002
20
-25.9954887526619
30
0
41
1
10
-46.5000000000002
20
-26.0333262403064
30
0
41
1
10
-46.5000000000001
20
-26.0697060990145
30
0
41
1
10
-46.5000000000001
20
-26.1045783842204
30
0
41
1
10
-46.5000000000002
20
-26.1376729391237
30
0
41
1
10
-46.5000000000002
20
-26.1689574789257
30
0
41
1
10
-46.5000000000001
20
-26.1983909987583
30
0
41
1
10
-46.5000000000001
20
-26.2259637094024
30
0
41
1
10
-46.5000000000001
20
-26.2506075231569
30
0
41
1
10
-46.5000000000001
20
-26.2725768453084
30
0
41
1
10
-46.5000000000001
20
-26.2921135671157
30
0
41
1
10
-46.5000000000001
20
-26.3101970779337
30
0
41
1
10
-46.5000000000001
20
-26.3267999901936
30
0
41
1
10
-46.5
20
-26.3418930139514
30
0
41
1
10
-46.4999999999999
20
-26.3554648995556
30
0
41
1
10
-46.4999999999999
20
-26.3675048076727
30
0
41
1
10
-46.4999999999999
20
-26.3781629897883
30
0
41
1
10
-46.5000000000001
20
-26.3873338160241
30
0
41
1
10
-46.5000000000002
20
-26.3949067388093
30
0
41
1
10
-46.5
20
-26.4007193319353
30
0
41
1
10
-46.5000000000006
20
-26.4047486660489
30
0
41
1
10
-46.4999999999987
20
-26.4067581276502
30
0
41
1
10
-46.5000000000021
20
-26.4071290239252
30
0
41
1
10
-46.4999999999974
20
-26.4071390249252
30
0
0
SPLINE
5
140
100
AcDbEntity
8
SK1
62
256
6
ByLayer
370
18
48
1
60
0
100
AcDbSpline
70
4
71
3
72
180
73
176
40
0
40
0
40
0
40
0
40
0.0046587279998924
40
0.0093178779390045
40
0.0139780115565641
40
0.0186387203353674
40
0.0232998779424747
40
0.027878218694197
40
0.0324569565326454
40
0.0370360746466234
40
0.0416155575823865
40
0.0462888610338624
40
0.0509625155158603
40
0.0556365085634051
40
0.0603108262672375
40
0.0649854554998709
40
0.0696603837346146
40
0.0743355987736454
40
0.0797903636983145
40
0.0852454937633629
40
0.0907009728564585
40
0.0961567845530329
40
0.101612914334492
40
0.1070693507382
40
0.112214262753989
40
0.117359427650528
40
0.122504836336745
40
0.127650483855461
40
0.132796587949793
40
0.138255435018364
40
0.143713882463798
40
0.149171220956642
40
0.154628625982431
40
0.160087364929844
40
0.165547254220471
40
0.170694885097373
40
0.17584238072889
40
0.180990025255797
40
0.18613782720773
40
0.1912857855529
40
0.197031711858961
40
0.202778385470653
40
0.208524343649768
40
0.214269322643755
40
0.220014662221829
40
0.225761490017115
40
0.231508813425341
40
0.237255708554458
40
0.24351935677206
40
0.249783162731228
40
0.256047120230433
40
0.262311226454048
40
0.268575476147952
40
0.274839859563278
40
0.28074639953467
40
0.28665305405626
40
0.29255981774521
40
0.298466683316846
40
0.304373672118509
40
0.310281163158433
40
0.316188996421053
40
0.322095708944271
40
0.328001866392066
40
0.333908820857273
40
0.33971167011187
40
0.345514881695209
40
0.351317566200911
40
0.35711947953767
40
0.363026443291499
40
0.368933355709036
40
0.374840611882319
40
0.380748606991976
40
0.386657521598072
40
0.392461230112504
40
0.398264500098065
40
0.404066977857948
40
0.409868966156929
40
0.416775959060057
40
0.423683392699521
40
0.430591874140655
40
0.43750133966807
40
0.444410651709751
40
0.451318931952896
40
0.457226934747355
40
0.463135031187593
40
0.469043352770066
40
0.474951660530519
40
0.480859761642628
40
0.486662435925054
40
0.492465665054774
40
0.498269687364069
40
0.504073945690729
40
0.510983106531822
40
0.517891288821851
40
0.52479923362674
40
0.531707509111108
40
0.538616024635135
40
0.545524593658945
40
0.552433157705086
40
0.559341713440812
40
0.566250257594937
40
0.573158786657346
40
0.5800672396667
40
0.586975428166811
40
0.593488538222585
40
0.600001815971211
40
0.606515913772662
40
0.61303072577633
40
0.619545271938297
40
0.625811855950058
40
0.632077850774837
40
0.638343851334272
40
0.644610036564067
40
0.650876121153487
40
0.65714191457287
40
0.663049768843273
40
0.668958245863111
40
0.674867425049265
40
0.68077660325936
40
0.686685033315208
40
0.692592588500828
40
0.698499647472463
40
0.704406604716852
40
0.710313852877751
40
0.716221784166381
40
0.722024947697054
40
0.727828124326079
40
0.733630218684423
40
0.739431129831325
40
0.74533754276523
40
0.751245115854682
40
0.75715296415835
40
0.763060160815195
40
0.768967157279912
40
0.774768577125569
40
0.780569896286682
40
0.786371109181588
40
0.792172215303663
40
0.798091598797886
40
0.804010862278853
40
0.809929998840629
40
0.815849087814137
40
0.821768604566216
40
0.82768774655398
40
0.833605368564771
40
0.839509707161318
40
0.845415077970922
40
0.851321117165463
40
0.857226389956304
40
0.86313127289225
40
0.868930537187825
40
0.87472962191189
40
0.880528522917341
40
0.886327233104511
40
0.892244083025255
40
0.898161022875071
40
0.904078391085602
40
0.909994931292706
40
0.915910228185206
40
0.921824763252291
40
0.927739041249857
40
0.932914215218434
40
0.938089905212472
40
0.94326616531296
40
0.948441983580994
40
0.953616966989913
40
0.958791581567419
40
0.963965937279761
40
0.969140023898277
40
0.974560194765797
40
0.979980046087596
40
0.98539956449415
40
0.990818736318471
40
0.996237546210262
40
1
40
1
40
1
40
1
41
1
10
-0.394976888875492
20
-5.88246902087037
30
0
41
1
10
-0.394976888875401
20
-5.94276010872918
30
0
41
1
10
-0.394976888875275
20
-6.06311374507166
30
0
41
1
10
-0.394976888875378
20
-6.2429580136519
30
0
41
1
10
-0.394976888875409
20
-6.42212452012332
30
0
41
1
10
-0.394976888875381
20
-6.60061218533614
30
0
41
1
10
-0.394976888875341
20
-6.77735422140803
30
0
41
1
10
-0.394976888875363
20
-6.95236219685851
30
0
41
1
10
-0.394976888875404
20
-7.1256489629116
30
0
41
1
10
-0.394976888875445
20
-7.29826740721264
30
0
41
1
10
-0.394976888875442
20
-7.47138632399867
30
0
41
1
10
-0.394976888875412
20
-7.64498853487885
30
0
41
1
10
-0.394976888875393
20
-7.81905685607932
30
0
41
1
10
-0.394976888875377
20
-7.99242555631541
30
0
41
1
10
-0.394976888875361
20
-8.16509405737175
30
0
41
1
10
-0.394976888875342
20
-8.33706171503206
30
0
41
1
10
-0.394976888875342
20
-8.50832796663852
30
0
41
1
10
-0.394976888875418
20
-8.68836895343917
30
0
41
1
10
-0.394976888875473
20
-8.87704046954159
30
0
41
1
10
-0.394976888875419
20
-9.07418800153504
30
0
41
1
10
-0.394976888875375
20
-9.27037913192196
30
0
41
1
10
-0.39497688887536
20
-9.46561316887722
30
0
41
1
10
-0.394976888875385
20
-9.65988961350174
30
0
41
1
10
-0.394976888875453
20
-9.84952580939564
30
0
41
1
10
-0.394976888875467
20
-10.0345845099159
30
0
41
1
10
-0.394976888875424
20
-10.2151271849048
30
0
41
1
10
-0.394976888875458
20
-10.3948179808379
30
0
41
1
10
-0.39497688887545
20
-10.5736594680921
30
0
41
1
10
-0.394976888875353
20
-10.7552545956491
30
0
41
1
10
-0.394976888875334
20
-10.93953417435
30
0
41
1
10
-0.394976888875356
20
-11.1264177717578
30
0
41
1
10
-0.39497688887538
20
-11.3123181496864
30
0
41
1
10
-0.394976888875414
20
-11.4972544130723
30
0
41
1
10
-0.394976888875464
20
-11.6812526530623
30
0
41
1
10
-0.394976888875507
20
-11.8608228776703
30
0
41
1
10
-0.394976888875486
20
-12.0360112188463
30
0
41
1
10
-0.394976888875465
20
-12.206868239495
30
0
41
1
10
-0.394976888875461
20
-12.3768680372157
30
0
41
1
10
-0.394976888875434
20
-12.5460140186923
30
0
41
1
10
-0.394976888875379
20
-12.7208202176894
30
0
41
1
10
-0.394976888875317
20
-12.9011725681539
30
0
41
1
10
-0.394976888875394
20
-13.0869358363597
30
0
41
1
10
-0.394976888875437
20
-13.27161895313
30
0
41
1
10
-0.394976888875395
20
-13.455216650343
30
0
41
1
10
-0.394976888875337
20
-13.637751812987
30
0
41
1
10
-0.394976888875302
20
-13.8192406592645
30
0
41
1
10
-0.39497688887533
20
-13.9996744830611
30
0
41
1
10
-0.3949768888754
20
-14.1844120877257
30
0
41
1
10
-0.394976888875361
20
-14.3733346337187
30
0
41
1
10
-0.394976888875427
20
-14.5663278381301
30
0
41
1
10
-0.394976888875385
20
-14.7580496996705
30
0
41
1
10
-0.394976888875275
20
-14.9484991014613
30
0
41
1
10
-0.39497688887544
20
-15.1376755010155
30
0
41
1
10
-0.394976888875372
20
-15.3219983562459
30
0
41
1
10
-0.394976888875303
20
-15.5015496218185
30
0
41
1
10
-0.39497688887533
20
-15.6764102531987
30
0
41
1
10
-0.39497688887542
20
-15.8501348161826
30
0
41
1
10
-0.394976888875403
20
-16.0227219320891
30
0
41
1
10
-0.394976888875356
20
-16.194173974756
30
0
41
1
10
-0.394976888875322
20
-16.3644919871767
30
0
41
1
10
-0.394976888875311
20
-16.5336635791697
30
0
41
1
10
-0.394976888875369
20
-16.7016772461448
30
0
41
1
10
-0.394976888875461
20
-16.868534980227
30
0
41
1
10
-0.394976888875538
20
-17.033272455542
30
0
41
1
10
-0.394976888875568
20
-17.1959212826279
30
0
41
1
10
-0.394976888875516
20
-17.3564908838824
30
0
41
1
10
-0.394976888875454
20
-17.5159395845985
30
0
41
1
10
-0.394976888875427
20
-17.6752178429482
30
0
41
1
10
-0.394976888875415
20
-17.8343044673409
30
0
41
1
10
-0.39497688887541
20
-17.9931840722491
30
0
41
1
10
-0.394976888875409
20
-18.1509124554764
30
0
41
1
10
-0.394976888875409
20
-18.3074960058617
30
0
41
1
10
-0.394976888875409
20
-18.4620073273151
30
0
41
1
10
-0.394976888875399
20
-18.6144579051371
30
0
41
1
10
-0.394976888875389
20
-18.7648548836923
30
0
41
1
10
-0.394976888875392
20
-18.9141076282933
30
0
41
1
10
-0.394976888875396
20
-19.0716199167096
30
0
41
1
10
-0.394976888875386
20
-19.2371348516089
30
0
41
1
10
-0.394976888875377
20
-19.4103747795476
30
0
41
1
10
-0.394976888875443
20
-19.5820200534746
30
0
41
1
10
-0.394976888875549
20
-19.7520618078732
30
0
41
1
10
-0.394976888875525
20
-19.9204783795971
30
0
41
1
10
-0.394976888875503
20
-20.079208314438
30
0
41
1
10
-0.394976888875482
20
-20.2285126848806
30
0
41
1
10
-0.39497688887547
20
-20.3686462805268
30
0
41
1
10
-0.394976888875462
20
-20.507582167715
30
0
41
1
10
-0.394976888875443
20
-20.6453148365704
30
0
41
1
10
-0.394976888875397
20
-20.7810272586117
30
0
41
1
10
-0.394976888875349
20
-20.914745214985
30
0
41
1
10
-0.394976888875337
20
-21.0464979071414
30
0
41
1
10
-0.394976888875388
20
-21.1770890561072
30
0
41
1
10
-0.394976888875436
20
-21.3147232634148
30
0
41
1
10
-0.394976888875447
20
-21.4591077502796
30
0
41
1
10
-0.394976888875422
20
-21.6099347145947
30
0
41
1
10
-0.394976888875397
20
-21.7590699617415
30
0
41
1
10
-0.394976888875396
20
-21.9065165877898
30
0
41
1
10
-0.394976888875404
20
-22.0522701213268
30
0
41
1
10
-0.394976888875409
20
-22.1963215269731
30
0
41
1
10
-0.394976888875406
20
-22.3386621074288
30
0
41
1
10
-0.394976888875393
20
-22.4792844894715
30
0
41
1
10
-0.394976888875376
20
-22.6181814331536
30
0
41
1
10
-0.394976888875369
20
-22.7553450768819
30
0
41
1
10
-0.394976888875383
20
-22.8907663653535
30
0
41
1
10
-0.3949768888754
20
-23.0218895090572
30
0
41
1
10
-0.394976888875408
20
-23.1488233019631
30
0
41
1
10
-0.394976888875414
20
-23.2716795964857
30
0
41
1
10
-0.394976888875441
20
-23.3929715246427
30
0
41
1
10
-0.394976888875454
20
-23.5126895053213
30
0
41
1
10
-0.394976888875407
20
-23.6293220973733
30
0
41
1
10
-0.394976888875419
20
-23.7429239208502
30
0
41
1
10
-0.394976888875442
20
-23.8535580792636
30
0
41
1
10
-0.394976888875427
20
-23.9626977485846
30
0
41
1
10
-0.394976888875368
20
-24.0703389728858
30
0
41
1
10
-0.39497688887531
20
-24.1764726467317
30
0
41
1
10
-0.394976888875289
20
-24.2790980537278
30
0
41
1
10
-0.39497688887531
20
-24.378310720327
30
0
41
1
10
-0.394976888875379
20
-24.4742067907891
30
0
41
1
10
-0.394976888875476
20
-24.5687437077241
30
0
41
1
10
-0.394976888875467
20
-24.6619069078485
30
0
41
1
10
-0.394976888875434
20
-24.7536813231208
30
0
41
1
10
-0.394976888875413
20
-24.8440569777289
30
0
41
1
10
-0.394976888875405
20
-24.9330297519352
30
0
41
1
10
-0.39497688887542
20
-25.0205983370183
30
0
41
1
10
-0.394976888875443
20
-25.1067604082909
30
0
41
1
10
-0.394976888875454
20
-25.191007365537
30
0
41
1
10
-0.394976888875439
20
-25.2733595403064
30
0
41
1
10
-0.394976888875386
20
-25.3538297666566
30
0
41
1
10
-0.39497688887536
20
-25.4328977780607
30
0
41
1
10
-0.394976888875386
20
-25.5110255263047
30
0
41
1
10
-0.394976888875418
20
-25.5881839099135
30
0
41
1
10
-0.394976888875425
20
-25.6643406765842
30
0
41
1
10
-0.394976888875374
20
-25.7390219900558
30
0
41
1
10
-0.394976888875322
20
-25.8122113429205
30
0
41
1
10
-0.394976888875467
20
-25.8834706545953
30
0
41
1
10
-0.394976888875432
20
-25.9528239777025
30
0
41
1
10
-0.39497688887532
20
-26.0202930052731
30
0
41
1
10
-0.394976888875335
20
-26.0862851689872
30
0
41
1
10
-0.39497688887546
20
-26.1512281953245
30
0
41
1
10
-0.394976888875484
20
-26.2150763877862
30
0
41
1
10
-0.394976888875382
20
-26.277782157484
30
0
41
1
10
-0.39497688887529
20
-26.3389049906538
30
0
41
1
10
-0.394976888875342
20
-26.3984340183875
30
0
41
1
10
-0.394976888875359
20
-26.4563563132916
30
0
41
1
10
-0.39497688887533
20
-26.5126553872162
30
0
41
1
10
-0.394976888875383
20
-26.5672748037711
30
0
41
1
10
-0.394976888875429
20
-26.6202086096746
30
0
41
1
10
-0.394976888875376
20
-26.6714546800543
30
0
41
1
10
-0.394976888875285
20
-26.7210371147077
30
0
41
1
10
-0.394976888875338
20
-26.7689353356643
30
0
41
1
10
-0.39497688887541
20
-26.8148577335771
30
0
41
1
10
-0.394976888875392
20
-26.8588261098752
30
0
41
1
10
-0.394976888875315
20
-26.9008608016612
30
0
41
1
10
-0.394976888875383
20
-26.9412105633735
30
0
41
1
10
-0.394976888875395
20
-26.9801230151558
30
0
41
1
10
-0.394976888875409
20
-27.0175407867662
30
0
41
1
10
-0.394976888875474
20
-27.0534047616924
30
0
41
1
10
-0.394976888875372
20
-27.0874444019419
30
0
41
1
10
-0.394976888875328
20
-27.119638571822
30
0
41
1
10
-0.394976888875364
20
-27.1499642374635
30
0
41
1
10
-0.394976888875397
20
-27.1784017189137
30
0
41
1
10
-0.394976888875369
20
-27.2038276214658
30
0
41
1
10
-0.39497688887533
20
-27.2264917576973
30
0
41
1
10
-0.394976888875319
20
-27.2466357851371
30
0
41
1
10
-0.394976888875373
20
-27.2652738674504
30
0
41
1
10
-0.394976888875401
20
-27.2823879558141
30
0
41
1
10
-0.394976888875385
20
-27.2979594488226
30
0
41
1
10
-0.39497688887538
20
-27.3119716132658
30
0
41
1
10
-0.394976888875397
20
-27.3244072533354
30
0
41
1
10
-0.394976888875429
20
-27.335420007635
30
0
41
1
10
-0.394976888875438
20
-27.3448996744429
30
0
41
1
10
-0.394976888875429
20
-27.3527308169097
30
0
41
1
10
-0.394976888875407
20
-27.3587441455377
30
0
41
1
10
-0.394976888875332
20
-27.3629143900597
30
0
41
1
10
-0.394976888875364
20
-27.3649836201617
30
0
41
1
10
-0.394976888875404
20
-27.3653751905479
30
0
41
1
10
-0.394976888875436
20
-27.3653851915479
30
0
0
SPLINE
5
141
100
AcDbEntity
8
SK1
62
256
6
ByLayer
370
18
48
1
60
0
100
AcDbSpline
70
4
71
2
72
6
73
3
40
0
40
0
40
0
40
1
40
1
40
1
41
1
10
-0.394976888875348
20
27.365384986484
30
0
41
1
10
-1.19500843340737
20
27.3452855356461
30
0
41
1
10
-1.9950399779394
20
27.3251860848084
30
0
0
SPLINE
5
142
100
AcDbEntity
8
SK1
62
256
6
ByLayer
370
18
48
1
60
0
100
AcDbSpline
70
4
71
2
72
6
73
3
40
0
40
0
40
0
40
1
40
1
40
1
41
1
10
-1.99503997793935
20
-27.3251860880282
30
0
41
1
10
-1.19500843340739
20
-27.3452855388669
30
0
41
1
10
-0.394976888875435
20
-27.3653849897058
30
0
0
SPLINE
5
143
100
AcDbEntity
8
SK1
62
256
6
ByLayer
370
18
48
1
60
0
100
AcDbSpline
70
4
71
3
72
70
73
66
40
0
40
0
40
0
40
0
40
0.0177615554233778
40
0.0355243214471944
40
0.0532873863401695
40
0.0710499524265167
40
0.0888113401491263
40
0.106574525045559
40
0.124339274836354
40
0.142104398773525
40
0.159868866669723
40
0.177631815117902
40
0.192436172841547
40
0.207242145359104
40
0.222048797948093
40
0.236855297964603
40
0.25166091837328
40
0.266465041332996
40
0.281715680458782
40
0.296968606354416
40
0.312222510532591
40
0.327476216688544
40
0.34272868557663
40
0.357979019986554
40
0.372788160959882
40
0.387599839863851
40
0.402412673786207
40
0.417225370827217
40
0.432036733824615
40
0.446845664158218
40
0.461656130300406
40
0.476469313664512
40
0.491283845730945
40
0.506098364321435
40
0.52091151658436
40
0.53572196198863
40
0.550531801864244
40
0.565344151199295
40
0.580157859160887
40
0.59497168777597
40
0.609784315566209
40
0.624594341110652
40
0.640362944459919
40
0.656134011534396
40
0.671906502636361
40
0.687679217409735
40
0.703450800690821
40
0.719219748233472
40
0.733186504466768
40
0.747154300751744
40
0.761122523114462
40
0.775090469211734
40
0.789057351103518
40
0.806514677882218
40
0.823973132902445
40
0.841431695542061
40
0.858889169083796
40
0.876345488856619
40
0.89380272411317
40
0.911260043039577
40
0.928716476913544
40
0.946536918937669
40
0.964358157654953
40
0.982179464741271
40
1
40
1
40
1
40
1
41
1
10
-1.30710678118667
20
4.3932393797021
30
0
41
1
10
-1.31594850561859
20
4.34330170930425
30
0
41
1
10
-1.33346505234327
20
4.24325640201001
30
0
41
1
10
-1.3592505779611
20
4.09268624657761
30
0
41
1
10
-1.38450842169802
20
3.94161335899286
30
0
41
1
10
-1.40921245162474
20
3.79004548259185
30
0
41
1
10
-1.43333444777143
20
3.63798020459444
30
0
41
1
10
-1.4568471848098
20
3.48541440125673
30
0
41
1
10
-1.47971774715314
20
3.33234555586664
30
0
41
1
10
-1.50191109352399
20
3.17878385524446
30
0
41
1
10
-1.52339171844724
20
3.02474273155413
30
0
41
1
10
-1.54297383485276
20
2.87880731406727
30
0
41
1
10
-1.56076821519196
20
2.74106616677383
30
0
41
1
10
-1.57688721558362
20
2.61159758294932
30
0
41
1
10
-1.59241920124857
20
2.48180497152968
30
0
41
1
10
-1.60734035562736
20
2.35170163721584
30
0
41
1
10
-1.62162674520314
20
2.22130088052686
30
0
41
1
10
-1.63539240972583
20
2.08929633683217
30
0
41
1
10
-1.64858956626391
20
1.955676841344
30
0
41
1
10
-1.66116870335904
20
1.82043580984317
30
0
41
1
10
-1.67297484135622
20
1.68490304139363
30
0
41
1
10
-1.68398169755913
20
1.54910239924487
30
0
41
1
10
-1.69416280351756
20
1.4130577296012
30
0
41
1
10
-1.70340332138146
20
1.27809849238504
30
0
41
1
10
-1.71170425941499
20
1.14423756814142
30
0
41
1
10
-1.71907668700736
20
1.01149035695404
30
0
41
1
10
-1.72558688987159
20
0.878560396765442
30
0
41
1
10
-1.73121784256861
20
0.745479163687698
30
0
41
1
10
-1.7359525759356
20
0.612278178513828
30
0
41
1
10
-1.73977526976972
20
0.478974087192027
30
0
41
1
10
-1.74266682324407
20
0.345577146090775
30
0
41
1
10
-1.7446241662365
20
0.212100245179489
30
0
41
1
10
-1.74564650279132
20
0.0785723733470252
30
0
41
1
10
-1.74573205399016
20
-0.0549698421077034
30
0
41
1
10
-1.74487933069414
20
-0.188489763192626
30
0
41
1
10
-1.74308636139051
20
-0.321961060374952
30
0
41
1
10
-1.74035165988573
20
-0.455370608284969
30
0
41
1
10
-1.73669072305509
20
-0.588707090539262
30
0
41
1
10
-1.73211772408957
20
-0.72194999674921
30
0
41
1
10
-1.72664731305459
20
-0.855066255592667
30
0
41
1
10
-1.72029430595725
20
-0.988022854221897
30
0
41
1
10
-1.71291615568582
20
-1.12366323217231
30
0
41
1
10
-1.70446276189607
20
-1.26196453197167
30
0
41
1
10
-1.69489680297036
20
-1.40290333533615
30
0
41
1
10
-1.68441984164347
20
-1.54360076403239
30
0
41
1
10
-1.67306011981345
20
-1.68402828284496
30
0
41
1
10
-1.66084589819319
20
-1.82415738480939
30
0
41
1
10
-1.64830011571188
20
-1.9586460211174
30
0
41
1
10
-1.63555480172383
20
-2.08752783465066
30
0
41
1
10
-1.62272948150139
20
-2.21084351589764
30
0
41
1
10
-1.60931748185066
20
-2.33389909153567
30
0
41
1
10
-1.59533913038902
20
-2.45668175367262
30
0
41
1
10
-1.5796036210125
20
-2.58938853337437
30
0
41
1
10
-1.56196530814606
20
-2.73193107006481
30
0
41
1
10
-1.5422789941256
20
-2.88420647166716
30
0
41
1
10
-1.52183948602098
20
-3.03602581697698
30
0
41
1
10
-1.50068264117823
20
-3.18737621070845
30
0
41
1
10
-1.47884272747902
20
-3.33825518353658
30
0
41
1
10
-1.45635020826138
20
-3.48866142528678
30
0
41
1
10
-1.43323556568595
20
-3.63859211508789
30
0
41
1
10
-1.40936451441353
20
-3.78908077291254
30
0
41
1
10
-1.38475375975669
20
-3.94011671535878
30
0
41
1
10
-1.3594183077844
20
-4.09168901512968
30
0
41
1
10
-1.33355142125607
20
-4.24275863361641
30
0
41
1
10
-1.3159777845705
20
-4.34313560820829
30
0
41
1
10
-1.30710678118676
20
-4.39323915389224
30
0
0
SPLINE
5
144
100
AcDbEntity
8
SK1
62
256
6
ByLayer
370
18
48
1
60
0
100
AcDbSpline
70
4
71
3
72
31
73
27
40
0
40
0
40
0
40
0
40
0.0513918189023388
40
0.101073883494877
40
0.148689329213381
40
0.193917421756306
40
0.236478299183738
40
0.276134982351254
40
0.312692912382937
40
0.345997465282383
40
0.375929991908043
40
0.402402946968984
40
0.425498580053342
40
0.449949884544976
40
0.478067693513471
40
0.509838472203098
40
0.545225036144802
40
0.584159254205435
40
0.62653454951616
40
0.67219879390505
40
0.720948337279259
40
0.772524017283804
40
0.82661000464469
40
0.882836209993622
40
0.940784684180945
40
1
40
1
40
1
40
1
41
1
10
-1.9950399779394
20
27.3251860846687
30
0
41
1
10
-2.00042944396428
20
27.3250513409667
30
0
41
1
10
-2.01100094942792
20
27.3252120484909
30
0
41
1
10
-2.02651595210318
20
27.3266835245421
30
0
41
1
10
-2.04122884181087
20
27.3292242002465
30
0
41
1
10
-2.0549952820918
20
27.3326497399932
30
0
41
1
10
-2.06769880214345
20
27.3367586348955
30
0
41
1
10
-2.07926606009522
20
27.341343740916
30
0
41
1
10
-2.08965949071031
20
27.346201788968
30
0
41
1
10
-2.09887283503359
20
27.3511410619195
30
0
41
1
10
-2.10692430912242
20
27.3559868016305
30
0
41
1
10
-2.11386231672272
20
27.3605928835036
30
0
41
1
10
-2.12015014672979
20
27.3651295856159
30
0
41
1
10
-2.1264008375474
20
27.3700045053517
30
0
41
1
10
-2.13313843322277
20
27.3757218390544
30
0
41
1
10
-2.14043785637066
20
27.3825316878545
30
0
41
1
10
-2.14815519608968
20
27.390533152427
30
0
41
1
10
-2.1561163551006
20
27.3998152672791
30
0
41
1
10
-2.16411684362327
20
27.4104478417105
30
0
41
1
10
-2.17192414704542
20
27.4224713000539
30
0
41
1
10
-2.17928333748753
20
27.4358864719265
30
0
41
1
10
-2.18592627440795
20
27.4506449060382
30
0
41
1
10
-2.1915845341811
20
27.4666436295725
30
0
41
1
10
-2.19600441598607
20
27.4837159319131
30
0
41
1
10
-2.19896620846697
20
27.5016587218011
30
0
41
1
10
-2.19984265433054
20
27.5138829054307
30
0
41
1
10
-2.20000000000002
20
27.5200986603026
30
0
0
SPLINE
5
145
100
AcDbEntity
8
SK1
62
256
6
ByLayer
370
18
48
1
60
0
100
AcDbSpline
70
4
71
3
72
31
73
27
40
0
40
0
40
0
40
0
40
0.0513693204098163
40
0.101033833683336
40
0.148636104522397
40
0.193854919261089
40
0.23641001466953
40
0.276064074444534
40
0.312622251574386
40
0.345929665818037
40
0.375867422928395
40
0.402347716073696
40
0.425452534028398
40
0.449914339439662
40
0.47804289611051
40
0.509824107818786
40
0.54522038950412
40
0.584163296902978
40
0.626545980766969
40
0.672216048422427
40
0.720969567979835
40
0.77254705750941
40
0.826632313130483
40
0.882854801120086
40
0.940796045684144
40
1
40
1
40
1
40
1
41
1
10
-2.20000000000007
20
-27.5200986635302
30
0
41
1
10
-2.19986389696165
20
-27.514709018185
30
0
41
1
10
-2.19917251662389
20
-27.5041585061098
30
0
41
1
10
-2.19692370593688
20
-27.4887371204925
30
0
41
1
10
-2.19364733797731
20
-27.4741704984613
30
0
41
1
10
-2.18953473383462
20
-27.4605935533754
30
0
41
1
10
-2.1847930084537
20
-27.4481124897007
30
0
41
1
10
-2.17963272867869
20
-27.4367901568495
30
0
41
1
10
-2.17425880030863
20
-27.4266538695557
30
0
41
1
10
-2.16886301010856
20
-27.4177002451266
30
0
41
1
10
-2.16361900798226
20
-27.4099023434616
30
0
41
1
10
-2.15867023706553
20
-27.4032044020365
30
0
41
1
10
-2.15382373117439
20
-27.3971527094198
30
0
41
1
10
-2.1486412228594
20
-27.3911549406534
30
0
41
1
10
-2.14259274451509
20
-27.3847129817586
30
0
41
1
10
-2.13542492747351
20
-27.3777647788499
30
0
41
1
10
-2.12704600329185
20
-27.3704590157652
30
0
41
1
10
-2.11737580543846
20
-27.3629740555005
30
0
41
1
10
-2.10635488191411
20
-27.3555176332451
30
0
41
1
10
-2.09395453868387
20
-27.3483239998054
30
0
41
1
10
-2.08018675047805
20
-27.341647799246
30
0
41
1
10
-2.06511337377362
20
-27.335754396229
30
0
41
1
10
-2.04885073234152
20
-27.3309066957852
30
0
41
1
10
-2.0315780620088
20
-27.3273497080608
30
0
41
1
10
-2.0135092466407
20
-27.3252926247353
30
0
41
1
10
-2.00125602087405
20
-27.3250311415457
30
0
41
1
10
-1.99503997793935
20
-27.325186087887
30
0
0
SPLINE
5
146
100
AcDbEntity
8
SK1
62
256
6
ByLayer
370
18
48
1
60
0
100
AcDbSpline
70
4
71
3
72
431
73
427
40
0
40
0
40
0
40
0
40
0.0016596212037331
40
0.0040029740817601
40
0.0063465286832219
40
0.0086902765936749
40
0.0110342100400976
40
0.0133783214954657
40
0.0157226037989404
40
0.017871674797393
40
0.0200208791149108
40
0.0221702510986486
40
0.0243200159722661
40
0.026470127690779
40
0.0286200426955173
40
0.0311995329715702
40
0.0337788428704396
40
0.0363582519354302
40
0.0389380440173083
40
0.0415185003356185
40
0.0440534521750071
40
0.0465882401853922
40
0.0491229039116098
40
0.0516576699386647
40
0.054238635020152
40
0.0568197091929085
40
0.0594008895301527
40
0.0619821721961253
40
0.0645636299788791
40
0.0670994300305552
40
0.0696350631229826
40
0.0721700310462651
40
0.0747050140172062
40
0.0772925071482523
40
0.0798804762012812
40
0.0824681902873086
40
0.0850558800619014
40
0.0876436420536387
40
0.0902314734721551
40
0.0928193699391833
40
0.0954016833716755
40
0.0979840594935141
40
0.100566495363981
40
0.103148986720124
40
0.105731532889291
40
0.10826801103682
40
0.110804401644374
40
0.113340708346602
40
0.115877740352584
40
0.118466587958674
40
0.121054944859832
40
0.123643807690855
40
0.126232568345889
40
0.128820910613143
40
0.131409049134896
40
0.133997208497571
40
0.136585614187767
40
0.1391744893904
40
0.141763839542985
40
0.144353260691116
40
0.14694232649309
40
0.149530999072585
40
0.152119563276925
40
0.154967139432059
40
0.157814807126553
40
0.160662377613299
40
0.163509922685564
40
0.166357814729639
40
0.169098270613219
40
0.17183888685906
40
0.174579156785418
40
0.177318964426016
40
0.180058629879654
40
0.182798440853745
40
0.185381830278489
40
0.187965280072171
40
0.190548741279251
40
0.193132208263977
40
0.195715679847833
40
0.198299154880596
40
0.200882632254333
40
0.203466102591158
40
0.206049509673298
40
0.208632781110139
40
0.211169814713864
40
0.213706982503194
40
0.216244545533662
40
0.218782462287157
40
0.221366482268949
40
0.223950076369405
40
0.226533289554425
40
0.229116406602412
40
0.231699636797277
40
0.234236771886313
40
0.236773803750315
40
0.239310739773732
40
0.241847829842911
40
0.244868706099957
40
0.247889911310428
40
0.250910759774165
40
0.25393093630211
40
0.256950736369581
40
0.259970510908707
40
0.262553487237511
40
0.265136907432942
40
0.267720662364867
40
0.270304319089784
40
0.272887486226316
40
0.275424077428315
40
0.277960437494181
40
0.28049677927458
40
0.283033314767105
40
0.285622032253017
40
0.28821113590998
40
0.290800147397563
40
0.293388417811274
40
0.295976111867111
40
0.298563992892327
40
0.30115251152663
40
0.30374072788771
40
0.306328961549574
40
0.30891767680804
40
0.311505614074454
40
0.314093323788075
40
0.31668119702154
40
0.319269028769199
40
0.32164115013113
40
0.324013211979323
40
0.326385211021372
40
0.328757146180177
40
0.331129016363668
40
0.333500818790524
40
0.336239058194837
40
0.338977569234147
40
0.341715541388398
40
0.344452651432654
40
0.347189857093932
40
0.349927852813858
40
0.352509275240395
40
0.355090279494869
40
0.357671142399801
40
0.360251888257943
40
0.362832526036953
40
0.365413303124797
40
0.367994214578216
40
0.370574492462661
40
0.373154115021544
40
0.375733367436264
40
0.378266478660756
40
0.380799776062242
40
0.383333510957666
40
0.385867345806381
40
0.388016788542313
40
0.390165937282506
40
0.392314943129104
40
0.394463808460594
40
0.396612527856526
40
0.39876109612528
40
0.400786745937058
40
0.4028122509854
40
0.404837606051914
40
0.406862805258615
40
0.408887843040683
40
0.410912712931877
40
0.412937408475445
40
0.41496192306534
40
0.416986249108359
40
0.419010379285012
40
0.420998165529915
40
0.422985746887021
40
0.424973114989738
40
0.426960260744117
40
0.429105897704394
40
0.431251251103222
40
0.433396222360332
40
0.435540563327333
40
0.43768483727535
40
0.439829826859661
40
0.441851657095424
40
0.443872069540425
40
0.445891791358563
40
0.447911700733805
40
0.449932378099197
40
0.451615881947081
40
0.453297806300474
40
0.454979367374755
40
0.45666172433112
40
0.458343262304748
40
0.460025386871839
40
0.46161020220225
40
0.463194498750116
40
0.46477874028872
40
0.466362641324447
40
0.467946175886026
40
0.469624920092968
40
0.471303832259606
40
0.472982314077005
40
0.47466014941647
40
0.47633775798591
40
0.47801406041979
40
0.479595448805651
40
0.481174829854944
40
0.48275564252596
40
0.484334120667064
40
0.485914133672386
40
0.487492746591582
40
0.489070652585609
40
0.490648136271985
40
0.492226404526601
40
0.493804056319284
40
0.495353204475681
40
0.496902193107922
40
0.498451085636715
40
0.499999922597842
40
0.501517126628641
40
0.503034382134941
40
0.504551729414593
40
0.506069224801034
40
0.507586969313806
40
0.509105507764952
40
0.51053638916364
40
0.511967723351233
40
0.513399137341235
40
0.514832177882159
40
0.516264660502283
40
0.517697092869272
40
0.519131057912851
40
0.520563653992571
40
0.521998294734033
40
0.523432037357607
40
0.524840865536789
40
0.526250269944044
40
0.527659805852281
40
0.529070082394702
40
0.530672469242302
40
0.532275046750322
40
0.533878272490215
40
0.535481864666385
40
0.537085791484402
40
0.538689706301725
40
0.540294502770613
40
0.541900091363589
40
0.543581730371047
40
0.545264041868708
40
0.546945539277984
40
0.548627668934671
40
0.55031133340311
40
0.551995236448954
40
0.553831568716145
40
0.55566764686768
40
0.557504129840177
40
0.55934166747461
40
0.561180196375224
40
0.563018556458101
40
0.564856409912507
40
0.56687830851509
40
0.568900759295283
40
0.570923533542743
40
0.572946559533385
40
0.574969826328946
40
0.576993324017857
40
0.579017042755786
40
0.581040973480234
40
0.58306510824981
40
0.585089438930376
40
0.58707780494496
40
0.58906634594183
40
0.591055055052891
40
0.59304392560101
40
0.595191859917953
40
0.597339969397144
40
0.599488248223986
40
0.601636689972725
40
0.603785287743424
40
0.605934034679768
40
0.608466669390437
40
0.610999496842574
40
0.6135325090161
40
0.61606569872205
40
0.618650764062466
40
0.621236189541076
40
0.62382212810478
40
0.626407548555797
40
0.628992445079214
40
0.631577753496318
40
0.634164085906095
40
0.636750555592391
40
0.639336832140224
40
0.641923201897377
40
0.644509689920133
40
0.647096305990808
40
0.649683291105249
40
0.652270549086527
40
0.654641611609551
40
0.657012347913576
40
0.659383424582434
40
0.661755281757099
40
0.664127285273506
40
0.666499070228897
40
0.66923732168728
40
0.671975662768074
40
0.674714089952347
40
0.677452601630736
40
0.680191194829338
40
0.68292986400912
40
0.685512106574957
40
0.688094414218368
40
0.690676783894337
40
0.693259211464529
40
0.695841709055484
40
0.698424492051415
40
0.701007469546704
40
0.703589810163505
40
0.706171835219154
40
0.708754313157687
40
0.711291457527029
40
0.713828807811984
40
0.716365858565954
40
0.718902471038737
40
0.721484954242711
40
0.724067408322844
40
0.726650057762437
40
0.7292331270932
40
0.731816719030841
40
0.734354351673998
40
0.73689173509959
40
0.739428668294473
40
0.741965323253892
40
0.744985073829317
40
0.74800507487692
40
0.751025671376457
40
0.754046827181624
40
0.757067895752107
40
0.76008837793888
40
0.762671451599396
40
0.765254578483491
40
0.767837833336422
40
0.770421080313084
40
0.773004209860201
40
0.775541254661298
40
0.778078614779503
40
0.780616425691828
40
0.783154370739567
40
0.786175353334667
40
0.789195779791128
40
0.792216071267035
40
0.795236550683204
40
0.798257166520833
40
0.80127781276028
40
0.804298456176521
40
0.8073190948655
40
0.810339726976993
40
0.813360350518191
40
0.816380930829762
40
0.819401360830235
40
0.822249010028798
40
0.825096754557324
40
0.82794496515568
40
0.830793581645168
40
0.83364204705077
40
0.836381966550536
40
0.839121551242742
40
0.841861139190858
40
0.84460083208357
40
0.847340467813204
40
0.850079938018221
40
0.852662927321853
40
0.855246270582517
40
0.857830012877479
40
0.860413754623976
40
0.862997071144693
40
0.865579890475549
40
0.868162427854974
40
0.870744907357695
40
0.873327552247522
40
0.875910585433776
40
0.878447908398488
40
0.880985238814856
40
0.883521954108722
40
0.886057996959142
40
0.888640167285836
40
0.891222996930752
40
0.893805982954474
40
0.89638859865704
40
0.898971100595801
40
0.90150743266482
40
0.904043707528768
40
0.906579922013824
40
0.909116075825895
40
0.911703923980568
40
0.914291703951533
40
0.916879411806757
40
0.91946709263242
40
0.92205501661102
40
0.924642727557926
40
0.927229574590474
40
0.92981056627795
40
0.932392144628101
40
0.934974102745735
40
0.937555625327367
40
0.940136926372016
40
0.94267203367039
40
0.945207038946205
40
0.947741939824385
40
0.950276732276341
40
0.952863140900382
40
0.955449600685531
40
0.958036303947476
40
0.960622536444711
40
0.963208062491412
40
0.965793155858068
40
0.968378102783874
40
0.970640033907685
40
0.972902258577055
40
0.975164807027298
40
0.977427104324144
40
0.979688927230916
40
0.98195054053527
40
0.984212006770726
40
0.986473320115331
40
0.988842144252505
40
0.991210786848467
40
0.99357924030096
40
0.995947496801372
40
0.998315547677432
40
1
40
1
40
1
40
1
41
1
10
-1.99503997793943
20
27.3251903267149
30
0
41
1
10
-1.99503997793938
20
27.3251803257149
30
0
41
1
10
-1.99503997793936
20
27.3248086592676
30
0
41
1
10
-1.99503997793937
20
27.3227796800137
30
0
41
1
10
-1.99503997793943
20
27.3187065924984
30
0
41
1
10
-1.99503997793945
20
27.31283038553
30
0
41
1
10
-1.99503997793949
20
27.3051754761667
30
0
41
1
10
-1.99503997793951
20
27.2957645357845
30
0
41
1
10
-1.99503997793942
20
27.2849290895141
30
0
41
1
10
-1.9950399779394
20
27.2728531413301
30
0
41
1
10
-1.99503997793944
20
27.2597090451912
30
0
41
1
10
-1.99503997793943
20
27.2451563889667
30
0
41
1
10
-1.99503997793939
20
27.2292090282138
30
0
41
1
10
-1.99503997793935
20
27.2118829306026
30
0
41
1
10
-1.99503997793932
20
27.1919488036067
30
0
41
1
10
-1.99503997793931
20
27.1690882143326
30
0
41
1
10
-1.9950399779393
20
27.1429630878483
30
0
41
1
10
-1.99503997793931
20
27.1149391487256
30
0
41
1
10
-1.99503997793934
20
27.0850336375141
30
0
41
1
10
-1.99503997793937
20
27.0534539741639
30
0
41
1
10
-1.99503997793942
20
27.0202614515062
30
0
41
1
10
-1.99503997793934
20
26.9855148653578
30
0
41
1
10
-1.99503997793935
20
26.9490332046681
30
0
41
1
10
-1.99503997793946
20
26.9106014805585
30
0
41
1
10
-1.99503997793933
20
26.8701995528203
30
0
41
1
10
-1.99503997793932
20
26.8278070874406
30
0
41
1
10
-1.99503997793942
20
26.7836828045341
30
0
41
1
10
-1.99503997793949
20
26.7378427245184
30
0
41
1
10
-1.99503997793943
20
26.6905832397909
30
0
41
1
10
-1.99503997793943
20
26.6419550328381
30
0
41
1
10
-1.99503997793945
20
26.5920139197146
30
0
41
1
10
-1.99503997793943
20
26.5404829185787
30
0
41
1
10
-1.99503997793939
20
26.487005994944
30
0
41
1
10
-1.99503997793939
20
26.4315510557379
30
0
41
1
10
-1.99503997793938
20
26.3740969147883
30
0
41
1
10
-1.99503997793931
20
26.3150333010181
30
0
41
1
10
-1.99503997793939
20
26.2543751130389
30
0
41
1
10
-1.99503997793946
20
26.192132604531
30
0
41
1
10
-1.99503997793945
20
26.1283173172342
30
0
41
1
10
-1.99503997793943
20
26.0629885822366
30
0
41
1
10
-1.99503997793945
20
25.9961607651546
30
0
41
1
10
-1.99503997793943
20
25.9278493068142
30
0
41
1
10
-1.99503997793937
20
25.8580166511788
30
0
41
1
10
-1.99503997793935
20
25.786673184604
30
0
41
1
10
-1.99503997793938
20
25.7142619063882
30
0
41
1
10
-1.99503997793941
20
25.6408255338152
30
0
41
1
10
-1.99503997793943
20
25.566405848192
30
0
41
1
10
-1.99503997793943
20
25.4905620206722
30
0
41
1
10
-1.99503997793928
20
25.4127749700098
30
0
41
1
10
-1.99503997793932
20
25.3330255214969
30
0
41
1
10
-1.99503997793929
20
25.2512896283436
30
0
41
1
10
-1.99503997793932
20
25.1681125772836
30
0
41
1
10
-1.99503997793933
20
25.0835032987174
30
0
41
1
10
-1.99503997793933
20
24.9974769573137
30
0
41
1
10
-1.99503997793933
20
24.9100403420871
30
0
41
1
10
-1.99503997793934
20
24.821194321488
30
0
41
1
10
-1.99503997793937
20
24.7309384123064
30
0
41
1
10
-1.99503997793943
20
24.6392746572246
30
0
41
1
10
-1.9950399779395
20
24.5462127180503
30
0
41
1
10
-1.9950399779395
20
24.4517691882263
30
0
41
1
10
-1.99503997793948
20
24.3559619864769
30
0
41
1
10
-1.99503997793947
20
24.2587998803163
30
0
41
1
10
-1.99503997793946
20
24.1569993440792
30
0
41
1
10
-1.99503997793944
20
24.0503990375557
30
0
41
1
10
-1.99503997793943
20
23.9388386480845
30
0
41
1
10
-1.99503997793938
20
23.8256599116599
30
0
41
1
10
-1.99503997793933
20
23.7108670124278
30
0
41
1
10
-1.99503997793935
20
23.5959299650323
30
0
41
1
10
-1.99503997793952
20
23.4809243444735
30
0
41
1
10
-1.99503997793952
20
23.3659347619064
30
0
41
1
10
-1.99503997793944
20
23.2494910921171
30
0
41
1
10
-1.99503997793943
20
23.1316038000304
30
0
41
1
10
-1.99503997793942
20
23.0122719408712
30
0
41
1
10
-1.99503997793941
20
22.8937940245323
30
0
41
1
10
-1.99503997793939
20
22.77626745202
30
0
41
1
10
-1.99503997793937
20
22.6597909332619
30
0
41
1
10
-1.99503997793936
20
22.5420440179852
30
0
41
1
10
-1.99503997793936
20
22.4230321312241
30
0
41
1
10
-1.99503997793936
20
22.302760037449
30
0
41
1
10
-1.99503997793938
20
22.1812322435939
30
0
41
1
10
-1.99503997793939
20
22.0584532548497
30
0
41
1
10
-1.9950399779394
20
21.9344285079441
30
0
41
1
10
-1.9950399779394
20
21.8091644585058
30
0
41
1
10
-1.99503997793939
20
21.6834198880713
30
0
41
1
10
-1.99503997793937
20
21.5572210872307
30
0
41
1
10
-1.99503997793936
20
21.4305879594456
30
0
41
1
10
-1.99503997793937
20
21.3027562671086
30
0
41
1
10
-1.9950399779394
20
21.1729507033548
30
0
41
1
10
-1.99503997793943
20
21.0411632275359
30
0
41
1
10
-1.99503997793942
20
20.907385032632
30
0
41
1
10
-1.99503997793938
20
20.7724094160473
30
0
41
1
10
-1.99503997793934
20
20.6362304314936
30
0
41
1
10
-1.99503997793933
20
20.499662357543
30
0
41
1
10
-1.99503997793934
20
20.362733594709
30
0
41
1
10
-1.99503997793935
20
20.225475602326
30
0
41
1
10
-1.99503997793936
20
20.0870639923996
30
0
41
1
10
-1.99503997793937
20
19.9386282605307
30
0
41
1
10
-1.99503997793939
20
19.779894113164
30
0
41
1
10
-1.99503997793942
20
19.6105858773596
30
0
41
1
10
-1.99503997793943
20
19.4396716876761
30
0
41
1
10
-1.99503997793939
20
19.2671691402732
30
0
41
1
10
-1.99503997793936
20
19.0930759610526
30
0
41
1
10
-1.99503997793939
20
18.9258548917421
30
0
41
1
10
-1.99503997793943
20
18.7657530482985
30
0
41
1
10
-1.99503997793944
20
18.6130082399491
30
0
41
1
10
-1.99503997793942
20
18.4590821363592
30
0
41
1
10
-1.99503997793938
20
18.3039951819257
30
0
41
1
10
-1.99503997793937
20
18.1486954644408
30
0
41
1
10
-1.99503997793939
20
17.9932116048332
30
0
41
1
10
-1.99503997793939
20
17.8375600051126
30
0
41
1
10
-1.99503997793937
20
17.6807929584982
30
0
41
1
10
-1.99503997793935
20
17.5218244003141
30
0
41
1
10
-1.99503997793937
20
17.3606208604835
30
0
41
1
10
-1.99503997793942
20
17.1971633955523
30
0
41
1
10
-1.99503997793939
20
17.0325595043923
30
0
41
1
10
-1.99503997793935
20
16.8668319394755
30
0
41
1
10
-1.99503997793936
20
16.6999755210509
30
0
41
1
10
-1.9950399779394
20
16.5319618217647
30
0
41
1
10
-1.99503997793953
20
16.3627875204274
30
0
41
1
10
-1.99503997793946
20
16.1924577064194
30
0
41
1
10
-1.99503997793948
20
16.0209755401822
30
0
41
1
10
-1.99503997793941
20
15.8483538435987
30
0
41
1
10
-1.99503997793935
20
15.6745994030255
30
0
41
1
10
-1.99503997793938
20
15.4997202453651
30
0
41
1
10
-1.99503997793939
20
15.3237011715809
30
0
41
1
10
-1.99503997793944
20
15.151459717951
30
0
41
1
10
-1.99503997793943
20
14.9831108526597
30
0
41
1
10
-1.99503997793937
20
14.8187601020563
30
0
41
1
10
-1.99503997793933
20
14.6534566545018
30
0
41
1
10
-1.99503997793941
20
14.4872007168641
30
0
41
1
10
-1.99503997793942
20
14.3199933949455
30
0
41
1
10
-1.99503997793936
20
14.1431739446588
30
0
41
1
10
-1.99503997793945
20
13.9565546552831
30
0
41
1
10
-1.99503997793947
20
13.7599558642918
30
0
41
1
10
-1.99503997793948
20
13.5621134657954
30
0
41
1
10
-1.99503997793952
20
13.3630313447356
30
0
41
1
10
-1.99503997793953
20
13.1626766963392
30
0
41
1
10
-1.99503997793948
20
12.9648742253218
30
0
41
1
10
-1.9950399779394
20
12.769720703948
30
0
41
1
10
-1.99503997793936
20
12.5773192708713
30
0
41
1
10
-1.99503997793939
20
12.3838055404335
30
0
41
1
10
-1.99503997793932
20
12.1891725045937
30
0
41
1
10
-1.9950399779393
20
11.9934129078336
30
0
41
1
10
-1.99503997793933
20
11.7965199326151
30
0
41
1
10
-1.99503997793937
20
11.598507503676
30
0
41
1
10
-1.99503997793938
20
11.3993964022324
30
0
41
1
10
-1.99503997793937
20
11.1991988484044
30
0
41
1
10
-1.99503997793935
20
10.9990989881902
30
0
41
1
10
-1.99503997793935
20
10.7990987289085
30
0
41
1
10
-1.99503997793934
20
10.5991991053976
30
0
41
1
10
-1.99503997793934
20
10.3981904148699
30
0
41
1
10
-1.99503997793935
20
10.2062983504837
30
0
41
1
10
-1.99503997793936
20
10.0237261831692
30
0
41
1
10
-1.99503997793935
20
9.85065181743991
30
0
41
1
10
-1.99503997793933
20
9.67680766199748
30
0
41
1
10
-1.99503997793939
20
9.50218968115233
30
0
41
1
10
-1.99503997793944
20
9.32679789249713
30
0
41
1
10
-1.99503997793942
20
9.15398774555198
30
0
41
1
10
-1.9950399779394
20
8.98381085737529
30
0
41
1
10
-1.99503997793939
20
8.81631728419604
30
0
41
1
10
-1.99503997793936
20
8.64813726263678
30
0
41
1
10
-1.99503997793936
20
8.47927122441948
30
0
41
1
10
-1.99503997793948
20
8.30971978190767
30
0
41
1
10
-1.99503997793951
20
8.13948342360309
30
0
41
1
10
-1.99503997793942
20
7.96856280125232
30
0
41
1
10
-1.99503997793943
20
7.79695871565457
30
0
41
1
10
-1.99503997793948
20
7.62467193266119
30
0
41
1
10
-1.99503997793943
20
7.45273286442823
30
0
41
1
10
-1.99503997793936
20
7.28115677750255
30
0
41
1
10
-1.99503997793932
20
7.10995898027661
30
0
41
1
10
-1.99503997793933
20
6.93810692274821
30
0
41
1
10
-1.99503997793939
20
6.76100911163881
30
0
41
1
10
-1.99503997793944
20
6.57860429642985
30
0
41
1
10
-1.99503997793947
20
6.39083212243601
30
0
41
1
10
-1.99503997793946
20
6.20231717892324
30
0
41
1
10
-1.99503997793945
20
6.01305507661808
30
0
41
1
10
-1.99503997793946
20
5.82301446221866
30
0
41
1
10
-1.99503997793949
20
5.63583196962689
30
0
41
1
10
-1.99503997793953
20
5.45160169525813
30
0
41
1
10
-1.9950399779395
20
5.27041671366482
30
0
41
1
10
-1.99503997793945
20
5.08860745457312
30
0
41
1
10
-1.99503997793939
20
4.90611146194358
30
0
41
1
10
-1.99503997793934
20
4.73310240342273
30
0
41
1
10
-1.99503997793941
20
4.56976336677403
30
0
41
1
10
-1.99503997793943
20
4.41624579108275
30
0
41
1
10
-1.99503997793944
20
4.26230246743221
30
0
41
1
10
-1.99503997793951
20
4.10791532936621
30
0
41
1
10
-1.99503997793933
20
3.95305867826307
30
0
41
1
10
-1.99503997793954
20
3.80075583934019
30
0
41
1
10
-1.99503997793932
20
3.65103255918582
30
0
41
1
10
-1.99503997793931
20
3.50394049509277
30
0
41
1
10
-1.99503997793951
20
3.35649304082588
30
0
41
1
10
-1.99503997793953
20
3.20869060446588
30
0
41
1
10
-1.99503997793947
20
3.0575689010696
30
0
41
1
10
-1.99503997793946
20
2.90309289091313
30
0
41
1
10
-1.99503997793934
20
2.74524609067956
30
0
41
1
10
-1.99503997793937
20
2.58703646300516
30
0
41
1
10
-1.9950399779394
20
2.42848660505392
30
0
41
1
10
-1.99503997793942
20
2.26963772488027
30
0
41
1
10
-1.99503997793938
20
2.11348492730496
30
0
41
1
10
-1.99503997793938
20
1.96012360075223
30
0
41
1
10
-1.99503997793944
20
1.80950120318816
30
0
41
1
10
-1.99503997793944
20
1.65869853461132
30
0
41
1
10
-1.99503997793932
20
1.5076190172516
30
0
41
1
10
-1.99503997793941
20
1.3563704301313
30
0
41
1
10
-1.9950399779394
20
1.20492037699891
30
0
41
1
10
-1.99503997793945
20
1.05335144555658
30
0
41
1
10
-1.99503997793939
20
0.901615688807444
30
0
41
1
10
-1.99503997793932
20
0.749733059675702
30
0
41
1
10
-1.99503997793949
20
0.598629617449804
30
0
41
1
10
-1.99503997793935
20
0.448363147964922
30
0
41
1
10
-1.99503997793937
20
0.298943673388904
30
0
41
1
10
-1.99503997793936
20
0.149482431295281
30
0
41
1
10
-1.99503997793937
20
0.0010176420044528
30
0
41
1
10
-1.99503997793925
20
-0.146429293338316
30
0
41
1
10
-1.99503997793941
20
-0.292838717687649
30
0
41
1
10
-1.99503997793951
20
-0.439208827789841
30
0
41
1
10
-1.99503997793941
20
-0.585522013299863
30
0
41
1
10
-1.99503997793943
20
-0.731777657171106
30
0
41
1
10
-1.99503997793929
20
-0.875135347918481
30
0
41
1
10
-1.99503997793932
20
-1.01558909371098
30
0
41
1
10
-1.99503997793932
20
-1.15310762042689
30
0
41
1
10
-1.99503997793933
20
-1.29053717771555
30
0
41
1
10
-1.99503997793947
20
-1.42782925519553
30
0
41
1
10
-1.99503997793947
20
-1.56496589799368
30
0
41
1
10
-1.99503997793948
20
-1.70192894181133
30
0
41
1
10
-1.99503997793942
20
-1.83868103464392
30
0
41
1
10
-1.99503997793941
20
-1.97527589806289
30
0
41
1
10
-1.99503997793934
20
-2.11162531589502
30
0
41
1
10
-1.99503997793952
20
-2.24697476885774
30
0
41
1
10
-1.9950399779395
20
-2.38127217691021
30
0
41
1
10
-1.99503997793943
20
-2.51454852912272
30
0
41
1
10
-1.99503997793931
20
-2.6476054701716
30
0
41
1
10
-1.99503997793937
20
-2.78644967069291
30
0
41
1
10
-1.99503997793952
20
-2.93103128624344
30
0
41
1
10
-1.99503997793951
20
-3.08128897814563
30
0
41
1
10
-1.99503997793941
20
-3.23120913108455
30
0
41
1
10
-1.99503997793938
20
-3.38078853188855
30
0
41
1
10
-1.99503997793944
20
-3.53000041548635
30
0
41
1
10
-1.99503997793941
20
-3.67885521473222
30
0
41
1
10
-1.99503997793931
20
-3.82736090463338
30
0
41
1
10
-1.99503997793944
20
-3.97785374791109
30
0
41
1
10
-1.99503997793941
20
-4.13029890881829
30
0
41
1
10
-1.99503997793947
20
-4.28462016052399
30
0
41
1
10
-1.99503997793948
20
-4.43849995669543
30
0
41
1
10
-1.99503997793949
20
-4.59195981799988
30
0
41
1
10
-1.99503997793951
20
-4.7450298390073
30
0
41
1
10
-1.99503997793944
20
-4.90229420354869
30
0
41
1
10
-1.99503997793937
20
-5.06364517580871
30
0
41
1
10
-1.99503997793934
20
-5.22903168319196
30
0
41
1
10
-1.99503997793936
20
-5.39389164479837
30
0
41
1
10
-1.99503997793942
20
-5.55825942144436
30
0
41
1
10
-1.99503997793947
20
-5.72211631903212
30
0
41
1
10
-1.99503997793948
20
-5.88541416053412
30
0
41
1
10
-1.99503997793946
20
-6.05355225088678
30
0
41
1
10
-1.99503997793945
20
-6.22648238586883
30
0
41
1
10
-1.99503997793943
20
-6.40415629150957
30
0
41
1
10
-1.99503997793937
20
-6.58116908604841
30
0
41
1
10
-1.99503997793933
20
-6.75751042664908
30
0
41
1
10
-1.99503997793933
20
-6.93317682435834
30
0
41
1
10
-1.99503997793936
20
-7.10816647934817
30
0
41
1
10
-1.9950399779394
20
-7.28247790032431
30
0
41
1
10
-1.99503997793949
20
-7.45610979319939
30
0
41
1
10
-1.99503997793955
20
-7.62906090960132
30
0
41
1
10
-1.99503997793947
20
-7.80030472448972
30
0
41
1
10
-1.9950399779394
20
-7.96985458530873
30
0
41
1
10
-1.99503997793943
20
-8.13772400229187
30
0
41
1
10
-1.9950399779395
20
-8.3049334509855
30
0
41
1
10
-1.99503997793956
20
-8.47591791753108
30
0
41
1
10
-1.99503997793951
20
-8.65061337880549
30
0
41
1
10
-1.99503997793943
20
-8.82895331623495
30
0
41
1
10
-1.99503997793939
20
-9.00652094568456
30
0
41
1
10
-1.99503997793934
20
-9.18331610021419
30
0
41
1
10
-1.99503997793931
20
-9.35933831477255
30
0
41
1
10
-1.99503997793935
20
-9.54501940201013
30
0
41
1
10
-1.99503997793945
20
-9.74018875828542
30
0
41
1
10
-1.99503997793952
20
-9.94466268585841
30
0
41
1
10
-1.99503997793943
20
-10.1480607662086
30
0
41
1
10
-1.99503997793941
20
-10.3517591376793
30
0
41
1
10
-1.99503997793942
20
-10.555736694089
30
0
41
1
10
-1.99503997793938
20
-10.7599758013792
30
0
41
1
10
-1.99503997793939
20
-10.963089493062
30
0
41
1
10
-1.99503997793942
20
-11.1650560620966
30
0
41
1
10
-1.99503997793945
20
-11.3658716605748
30
0
41
1
10
-1.99503997793945
20
-11.5655758728346
30
0
41
1
10
-1.9950399779394
20
-11.7641873045879
30
0
41
1
10
-1.99503997793937
20
-11.9616903213288
30
0
41
1
10
-1.99503997793936
20
-12.1580601485939
30
0
41
1
10
-1.9950399779393
20
-12.3532967179917
30
0
41
1
10
-1.99503997793942
20
-12.5474083697476
30
0
41
1
10
-1.99503997793947
20
-12.7404013787872
30
0
41
1
10
-1.99503997793941
20
-12.9322790834984
30
0
41
1
10
-1.99503997793934
20
-13.1177254723197
30
0
41
1
10
-1.99503997793936
20
-13.2968307214994
30
0
41
1
10
-1.99503997793941
20
-13.469699114914
30
0
41
1
10
-1.99503997793943
20
-13.6416325597908
30
0
41
1
10
-1.99503997793939
20
-13.8126432110961
30
0
41
1
10
-1.99503997793933
20
-13.9827169866871
30
0
41
1
10
-1.99503997793934
20
-14.1605437489605
30
0
41
1
10
-1.99503997793954
20
-14.3459426444966
30
0
41
1
10
-1.99503997793947
20
-14.5387291221686
30
0
41
1
10
-1.99503997793938
20
-14.7302470226767
30
0
41
1
10
-1.99503997793941
20
-14.9204951618401
30
0
41
1
10
-1.99503997793931
20
-15.1094729282122
30
0
41
1
10
-1.99503997793939
20
-15.2936034122499
30
0
41
1
10
-1.99503997793941
20
-15.4729683809378
30
0
41
1
10
-1.99503997793938
20
-15.6476486183799
30
0
41
1
10
-1.9950399779394
20
-15.8211949159195
30
0
41
1
10
-1.99503997793936
20
-15.9936059063996
30
0
41
1
10
-1.99503997793937
20
-16.164885096716
30
0
41
1
10
-1.99503997793939
20
-16.3350341316066
30
0
41
1
10
-1.99503997793937
20
-16.5040371743954
30
0
41
1
10
-1.99503997793938
20
-16.6718797801833
30
0
41
1
10
-1.9950399779394
20
-16.8385649831348
30
0
41
1
10
-1.99503997793938
20
-17.0031364872056
30
0
41
1
10
-1.99503997793934
20
-17.1656286282297
30
0
41
1
10
-1.99503997793944
20
-17.3260469917648
30
0
41
1
10
-1.99503997793953
20
-17.4853430070867
30
0
41
1
10
-1.99503997793952
20
-17.6444639758866
30
0
41
1
10
-1.99503997793946
20
-17.8033900215225
30
0
41
1
10
-1.9950399779394
20
-17.9621088599909
30
0
41
1
10
-1.99503997793935
20
-18.1196803507427
30
0
41
1
10
-1.99503997793932
20
-18.2761133977557
30
0
41
1
10
-1.99503997793931
20
-18.4304813955659
30
0
41
1
10
-1.99503997793939
20
-18.5827926519107
30
0
41
1
10
-1.99503997793947
20
-18.7330498658889
30
0
41
1
10
-1.99503997793947
20
-18.8821595082838
30
0
41
1
10
-1.99503997793945
20
-19.0395168231113
30
0
41
1
10
-1.99503997793942
20
-19.2048683722822
30
0
41
1
10
-1.99503997793941
20
-19.3779406003908
30
0
41
1
10
-1.99503997793947
20
-19.5494258031323
30
0
41
1
10
-1.99503997793953
20
-19.719313696053
30
0
41
1
10
-1.99503997793941
20
-19.8875774441896
30
0
41
1
10
-1.99503997793937
20
-20.0461596914418
30
0
41
1
10
-1.99503997793936
20
-20.1953217635477
30
0
41
1
10
-1.99503997793938
20
-20.3353213000381
30
0
41
1
10
-1.99503997793941
20
-20.4741250228032
30
0
41
1
10
-1.99503997793944
20
-20.611726733186
30
0
41
1
10
-1.99503997793947
20
-20.7473098019228
30
0
41
1
10
-1.99503997793949
20
-20.88090120739
30
0
41
1
10
-1.99503997793947
20
-21.0125323781769
30
0
41
1
10
-1.99503997793942
20
-21.1430066931299
30
0
41
1
10
-1.99503997793941
20
-21.2805187863828
30
0
41
1
10
-1.99503997793943
20
-21.4247722737729
30
0
41
1
10
-1.99503997793946
20
-21.5754585500515
30
0
41
1
10
-1.99503997793947
20
-21.7244526543025
30
0
41
1
10
-1.99503997793948
20
-21.8717604502766
30
0
41
1
10
-1.99503997793947
20
-22.0173781023443
30
0
41
1
10
-1.99503997793942
20
-22.1612958241011
30
0
41
1
10
-1.99503997793937
20
-22.3035043896611
30
0
41
1
10
-1.99503997793936
20
-22.4439963006196
30
0
41
1
10
-1.99503997793939
20
-22.5827643047704
30
0
41
1
10
-1.99503997793942
20
-22.7198004128625
30
0
41
1
10
-1.99503997793944
20
-22.8550951007988
30
0
41
1
10
-1.99503997793943
20
-22.9860944369397
30
0
41
1
10
-1.99503997793939
20
-23.1129075732327
30
0
41
1
10
-1.99503997793934
20
-23.235648204936
30
0
41
1
10
-1.99503997793931
20
-23.3568290626433
30
0
41
1
10
-1.99503997793933
20
-23.4764398361996
30
0
41
1
10
-1.99503997793938
20
-23.592967112688
30
0
41
1
10
-1.99503997793941
20
-23.7064631780775
30
0
41
1
10
-1.99503997793943
20
-23.8169914762127
30
0
41
1
10
-1.99503997793944
20
-23.9260259500395
30
0
41
1
10
-1.99503997793943
20
-24.0335636188606
30
0
41
1
10
-1.9950399779394
20
-24.1395949027516
30
0
41
1
10
-1.99503997793939
20
-24.2421208547392
30
0
41
1
10
-1.99503997793938
20
-24.3412380075627
30
0
41
1
10
-1.99503997793937
20
-24.4370440440176
30
0
41
1
10
-1.99503997793937
20
-24.5314944011818
30
0
41
1
10
-1.99503997793934
20
-24.6245722536784
30
0
41
1
10
-1.99503997793935
20
-24.7162601660432
30
0
41
1
10
-1.99503997793938
20
-24.806547385806
30
0
41
1
10
-1.99503997793941
20
-24.8954308150046
30
0
41
1
10
-1.99503997793939
20
-24.9829109963115
30
0
41
1
10
-1.99503997793935
20
-25.0689872931266
30
0
41
1
10
-1.99503997793934
20
-25.1531527612415
30
0
41
1
10
-1.99503997793937
20
-25.2354273713402
30
0
41
1
10
-1.99503997793934
20
-25.3158213784259
30
0
41
1
10
-1.99503997793932
20
-25.3948115972218
30
0
41
1
10
-1.99503997793935
20
-25.4728594092342
30
0
41
1
10
-1.99503997793941
20
-25.5499386036222
30
0
41
1
10
-1.99503997793948
20
-25.6260190790013
30
0
41
1
10
-1.99503997793946
20
-25.7006267811674
30
0
41
1
10
-1.99503997793937
20
-25.7737432197223
30
0
41
1
10
-1.99503997793951
20
-25.8449303921769
30
0
41
1
10
-1.99503997793953
20
-25.914213038431
30
0
41
1
10
-1.99503997793947
20
-25.9816129576142
30
0
41
1
10
-1.99503997793943
20
-26.0475371698076
30
0
41
1
10
-1.99503997793941
20
-26.1124129618623
30
0
41
1
10
-1.99503997793936
20
-26.1761946866195
30
0
41
1
10
-1.99503997793932
20
-26.2388348019358
30
0
41
1
10
-1.99503997793934
20
-26.2998933343427
30
0
41
1
10
-1.9950399779394
20
-26.3593599924184
30
0
41
1
10
-1.9950399779394
20
-26.4172215235729
30
0
41
1
10
-1.99503997793935
20
-26.4734603759788
30
0
41
1
10
-1.99503997793937
20
-26.5280193370766
30
0
41
1
10
-1.99503997793941
20
-26.5808934886559
30
0
41
1
10
-1.99503997793943
20
-26.6320828284098
30
0
41
1
10
-1.99503997793943
20
-26.6816114343893
30
0
41
1
10
-1.99503997793943
20
-26.7294572419842
30
0
41
1
10
-1.99503997793937
20
-26.7753283176737
30
0
41
1
10
-1.99503997793941
20
-26.8192470056233
30
0
41
1
10
-1.99503997793951
20
-26.8612338011719
30
0
41
1
10
-1.99503997793941
20
-26.9015372039423
30
0
41
1
10
-1.99503997793943
20
-26.9404045606041
30
0
41
1
10
-1.99503997793945
20
-26.9777787914091
30
0
41
1
10
-1.99503997793936
20
-27.0136011645995
30
0
41
1
10
-1.99503997793936
20
-27.047601158229
30
0
41
1
10
-1.99503997793937
20
-27.0797571689387
30
0
41
1
10
-1.99503997793938
20
-27.1100454086251
30
0
41
1
10
-1.99503997793939
20
-27.1384466126065
30
0
41
1
10
-1.99503997793942
20
-27.1638397062508
30
0
41
1
10
-1.99503997793945
20
-27.1864746948356
30
0
41
1
10
-1.99503997793946
20
-27.2065932455856
30
0
41
1
10
-1.99503997793944
20
-27.2252080634
30
0
41
1
10
-1.99503997793939
20
-27.2423007077945
30
0
41
1
10
-1.99503997793934
20
-27.2578521287998
30
0
41
1
10
-1.99503997793937
20
-27.271845823398
30
0
41
1
10
-1.99503997793939
20
-27.2842648623831
30
0
41
1
10
-1.99503997793936
20
-27.2952627422168
30
0
41
1
10
-1.99503997793941
20
-27.3047294532127
30
0
41
1
10
-1.99503997793942
20
-27.3125497626827
30
0
41
1
10
-1.99503997793934
20
-27.3185546725942
30
0
41
1
10
-1.99503997793932
20
-27.3227189976391
30
0
41
1
10
-1.99503997793939
20
-27.3247983440098
30
0
41
1
10
-1.99503997793927
20
-27.3251803054039
30
0
41
1
10
-1.99503997793958
20
-27.3251903064039
30
0
0
SPLINE
5
147
100
AcDbEntity
8
SK1
62
256
6
ByLayer
370
18
48
1
60
0
100
AcDbSpline
70
4
71
2
72
6
73
3
40
0
40
0
40
0
40
1
40
1
40
1
41
1
10
-2.20000000000002
20
27.520098660451
30
0
41
1
10
-24.3499999999979
20
26.9636170577965
30
0
41
1
10
-46.5000000000001
20
26.407135455256
30
0
0
SPLINE
5
148
100
AcDbEntity
8
SK1
62
256
6
ByLayer
370
18
48
1
60
0
100
AcDbSpline
70
4
71
2
72
6
73
3
40
0
40
0
40
0
40
1
40
1
40
1
41
1
10
-46.5
20
-26.4071354584314
30
0
41
1
10
-24.3499999999978
20
-26.9636170609987
30
0
41
1
10
-2.20000000000007
20
-27.5200986636802
30
0
0
SPLINE
5
149
100
AcDbEntity
8
SK1
62
256
6
ByLayer
370
18
48
1
60
0
100
AcDbSpline
70
4
71
3
72
434
73
430
40
0
40
0
40
0
40
0
40
0.0016628077657983
40
0.0040077065638388
40
0.0063525825681868
40
0.00869743654523
40
0.0110422695627409
40
0.013387082465626
40
0.0157318759020872
40
0.0178812543352673
40
0.020030617685889
40
0.0221799618936465
40
0.0243292615271356
40
0.0264785214700047
40
0.028627803114952
40
0.0312069859892339
40
0.0337861910379292
40
0.03636538359043
40
0.0389445330415378
40
0.0415236075626519
40
0.0440565609563134
40
0.0465895330707086
40
0.0491225196180135
40
0.0516554946171802
40
0.0542345107168951
40
0.0568135144390986
40
0.0593925061711094
40
0.0619714863114563
40
0.0645504465245341
40
0.06708330399246
40
0.0696161803132978
40
0.0721491324398355
40
0.0746820837500257
40
0.0772666391300233
40
0.0798511398249068
40
0.0824356697496714
40
0.0850202025176415
40
0.087604727118039
40
0.090189243865961
40
0.0927737532200455
40
0.0953526164701018
40
0.0979314726366591
40
0.100510322034724
40
0.103089165122886
40
0.10566800197843
40
0.108200782828778
40
0.110733573716975
40
0.113266374211684
40
0.115799091878032
40
0.118383492987337
40
0.120967950087599
40
0.123552349690583
40
0.126136760835568
40
0.128721219777755
40
0.131305702212905
40
0.133890182045743
40
0.136474633915239
40
0.13905903230359
40
0.14164337629675
40
0.144227712198885
40
0.146812088624766
40
0.149396510041303
40
0.151980944043473
40
0.154823802550621
40
0.157666650688188
40
0.160509509941717
40
0.163352372062296
40
0.166195194714355
40
0.168930165897582
40
0.171665118759992
40
0.174400111164703
40
0.177135156404859
40
0.179870218000234
40
0.182605262901877
40
0.185184004154598
40
0.187762738533319
40
0.190341471573965
40
0.192920203993468
40
0.195498935886551
40
0.19807766737203
40
0.200656398607843
40
0.203235130642425
40
0.205813869895888
40
0.208392624661189
40
0.210925342720207
40
0.213458045412772
40
0.215990702941962
40
0.21852332006728
40
0.221101989284558
40
0.223680707194921
40
0.226259468580103
40
0.228838240899726
40
0.231417000357394
40
0.233949706728098
40
0.236482424905797
40
0.239015154093129
40
0.241547865539985
40
0.244562935637603
40
0.247577968171285
40
0.250593041498771
40
0.253608191584143
40
0.256623384485413
40
0.259638580469178
40
0.262217368625555
40
0.264796106035216
40
0.267374805275187
40
0.269953515712185
40
0.272532282212435
40
0.275065050461166
40
0.277597844985005
40
0.280130641860133
40
0.282663416341882
40
0.285247832249432
40
0.287832204169658
40
0.290416586585684
40
0.293001053849626
40
0.295585586787728
40
0.298170098039343
40
0.30075453678523
40
0.303339009806417
40
0.305923480656808
40
0.308507896635324
40
0.311092401448231
40
0.31367693221092
40
0.316261444199699
40
0.31884596088615
40
0.32121510849611
40
0.323584262849142
40
0.325953424310951
40
0.328322593051146
40
0.33069176916576
40
0.333060952945081
40
0.335796175664925
40
0.338531367166961
40
0.341266620698711
40
0.344001972530174
40
0.346737312230938
40
0.349472562156663
40
0.352051526269562
40
0.354630537894319
40
0.357209565569192
40
0.359788606546884
40
0.362367659719131
40
0.3649466966917
40
0.367525718319097
40
0.37010481305888
40
0.37268398151281
40
0.375263191861831
40
0.377796355860481
40
0.380329496955478
40
0.382862587643219
40
0.385395667629846
40
0.38754500387343
40
0.389694373478195
40
0.391843759267422
40
0.393993161109754
40
0.396142579385546
40
0.398292014883035
40
0.40031864230428
40
0.402345286056955
40
0.404371946986286
40
0.406398625448913
40
0.408425322373991
40
0.410452038278512
40
0.412478773942517
40
0.414505530267855
40
0.41653230778204
40
0.418559107753778
40
0.420549737423932
40
0.422540390453579
40
0.424531067666012
40
0.426521769977745
40
0.428364427881272
40
0.430207108946722
40
0.432049817278512
40
0.433892570523144
40
0.435735373552435
40
0.437578152431336
40
0.439420870438265
40
0.441447930676323
40
0.443475152409867
40
0.445502452879818
40
0.447529731073288
40
0.449556921272508
40
0.451246293819827
40
0.452935847107419
40
0.45462544067223
40
0.4563149439118
40
0.458004539605289
40
0.459694068415978
40
0.461287188970488
40
0.462880368541744
40
0.464473554175226
40
0.466066778384294
40
0.467660044235507
40
0.469349957366314
40
0.471039850938236
40
0.472729793268876
40
0.474419808946485
40
0.476109850228017
40
0.477800040105391
40
0.479393548677238
40
0.480987286087465
40
0.482580859627206
40
0.484174699479266
40
0.485768363582972
40
0.487096538133467
40
0.488424797289925
40
0.489753066071054
40
0.491081363863636
40
0.492409564711162
40
0.493737854445255
40
0.495303361720304
40
0.496868887033909
40
0.498434423239238
40
0.49999996572766
40
0.50153353415147
40
0.503067096751191
40
0.504600648949331
40
0.506134184389149
40
0.507667691529373
40
0.509201108184673
40
0.51064700334101
40
0.512092847002299
40
0.513538681760232
40
0.514984330990361
40
0.516430044080937
40
0.517875763352643
40
0.519321307676726
40
0.520767008689252
40
0.522212476395057
40
0.523658046828068
40
0.525077725555291
40
0.526497338541877
40
0.527916936795261
40
0.529336450615177
40
0.530949555805364
40
0.532562639526796
40
0.534175649539089
40
0.535788617930532
40
0.537401548428975
40
0.539014480525555
40
0.540627312171663
40
0.542240053418574
40
0.54392963774264
40
0.545619146118757
40
0.547308747070607
40
0.548998276951598
40
0.550687631136326
40
0.552376958153678
40
0.554219933801469
40
0.55606293947834
40
0.557905898534123
40
0.559748737904532
40
0.561591463886158
40
0.563434209110747
40
0.565277012646649
40
0.567304065890875
40
0.569331056387564
40
0.571358009848094
40
0.573384935102507
40
0.575411832772657
40
0.577438704408641
40
0.579465550972679
40
0.581492373374382
40
0.583519172826197
40
0.585545949813323
40
0.587536513849395
40
0.589527057898959
40
0.591517582902518
40
0.593508089634529
40
0.595657596961374
40
0.597807084553375
40
0.599956552818737
40
0.602106002657258
40
0.604255434852118
40
0.606404849989932
40
0.608431426966555
40
0.610457989760884
40
0.612484538908379
40
0.614511074893342
40
0.616537597997121
40
0.619122428120511
40
0.621707217368002
40
0.624291948148434
40
0.626876737270181
40
0.629461586878818
40
0.632046391098605
40
0.634631077556444
40
0.637215748105654
40
0.639800441024997
40
0.642385123427
40
0.644969792400615
40
0.647554446856384
40
0.65013905939588
40
0.65272364073283
40
0.655092908070405
40
0.65746221325744
40
0.659831480386409
40
0.6622006578917
40
0.664569818496572
40
0.66693900423468
40
0.669674225681802
40
0.672409436986876
40
0.67514463853131
40
0.677879830532991
40
0.680615013286613
40
0.683350187419433
40
0.685929058710017
40
0.688507922655584
40
0.691086779551393
40
0.693665629863797
40
0.696244472228527
40
0.698823282097426
40
0.701402069725137
40
0.703980929868053
40
0.706559826424972
40
0.709138671547454
40
0.711671376419394
40
0.714204057784926
40
0.716736773294125
40
0.719269538898474
40
0.721848383469548
40
0.724427231175425
40
0.727006056583295
40
0.729584834262016
40
0.73216355211003
40
0.734696201441251
40
0.737228879209191
40
0.739761608372333
40
0.742294369554246
40
0.745309568170497
40
0.748324738206495
40
0.751339840364343
40
0.754354878533295
40
0.757369926686415
40
0.760385041780978
40
0.762963819104969
40
0.765542590339836
40
0.768121346899935
40
0.770700104437273
40
0.773278875338667
40
0.77581159205749
40
0.778344272814606
40
0.780876902033171
40
0.783409515924529
40
0.786424574064152
40
0.789439695752251
40
0.792454832904788
40
0.795469948561013
40
0.798485048628591
40
0.801500145235747
40
0.804515242144186
40
0.807530339608436
40
0.810545437806949
40
0.813560536959686
40
0.816575641076252
40
0.819590762305051
40
0.822433612750194
40
0.825276452208359
40
0.828119238371802
40
0.830961978194017
40
0.833804735274328
40
0.836539767805654
40
0.839274838430173
40
0.842009908694741
40
0.844744967000467
40
0.84748003171291
40
0.850215115503886
40
0.852793902268257
40
0.85537264847314
40
0.857951349181465
40
0.860530049929243
40
0.863108799371294
40
0.865687605536908
40
0.868266443693251
40
0.870845288693756
40
0.873424114607038
40
0.876002895945403
40
0.878535580471831
40
0.881068264119005
40
0.88360101819197
40
0.886133849067785
40
0.888712728761704
40
0.891291533233791
40
0.893870319960537
40
0.896449148897432
40
0.899027990792534
40
0.901560788210123
40
0.904093592101889
40
0.906626402836443
40
0.909159220470253
40
0.911743735315751
40
0.914328257866091
40
0.91691278859726
40
0.919497322356855
40
0.922081828205486
40
0.924666358553932
40
0.927250987871273
40
0.92983000125748
40
0.932408947509415
40
0.93498785071824
40
0.937566803571402
40
0.940145781632385
40
0.942678717924186
40
0.945211665751093
40
0.947744625451872
40
0.950277597463277
40
0.952862275420461
40
0.955446947339279
40
0.958031591336056
40
0.960616289818224
40
0.963201068427935
40
0.965785895413305
40
0.968370740396752
40
0.970632468575675
40
0.972894162197253
40
0.975155819663375
40
0.977417506003758
40
0.979679246238623
40
0.981941010368344
40
0.98420279111179
40
0.986464589166541
40
0.988834110761495
40
0.991203652856591
40
0.993573216335273
40
0.995942802242915
40
0.998312411378511
40
1
40
1
40
1
40
1
41
1
10
-2.20000000000002
20
27.5201030976027
30
0
41
1
10
-2.20000000000002
20
27.5200930966027
30
0
41
1
10
-2.20000000000002
20
27.5197192960279
30
0
41
1
10
-2.20000000000001
20
27.5176756247837
30
0
41
1
10
-2.20000000000004
20
27.5135744961633
30
0
41
1
10
-2.20000000000007
20
27.5076583149803
30
0
41
1
10
-2.20000000000012
20
27.4999519631195
30
0
41
1
10
-2.20000000000012
20
27.4904785460749
30
0
41
1
10
-2.20000000000003
20
27.4795719914056
30
0
41
1
10
-2.20000000000003
20
27.4674176819373
30
0
41
1
10
-2.2000000000001
20
27.4541893226136
30
0
41
1
10
-2.20000000000012
20
27.4395451349377
30
0
41
1
10
-2.20000000000011
20
27.4235003365174
30
0
41
1
10
-2.2000000000001
20
27.4060695399078
30
0
41
1
10
-2.20000000000009
20
27.3860134329406
30
0
41
1
10
-2.20000000000006
20
27.3630105396147
30
0
41
1
10
-2.20000000000004
20
27.3367218106743
30
0
41
1
10
-2.20000000000003
20
27.3085237305373
30
0
41
1
10
-2.20000000000002
20
27.2784377858719
30
0
41
1
10
-2.20000000000005
20
27.2466753061901
30
0
41
1
10
-2.20000000000011
20
27.2132948634933
30
0
41
1
10
-2.20000000000005
20
27.1783526258823
30
0
41
1
10
-2.20000000000004
20
27.1416649707408
30
0
41
1
10
-2.20000000000011
20
27.1030166863067
30
0
41
1
10
-2.20000000000008
20
27.0623890126092
30
0
41
1
10
-2.20000000000002
20
27.0197616652877
30
0
41
1
10
-2.19999999999999
20
26.9753949326046
30
0
41
1
10
-2.20000000000001
20
26.9293054964284
30
0
41
1
10
-2.20000000000007
20
26.8817939229411
30
0
41
1
10
-2.20000000000006
20
26.832909839219
30
0
41
1
10
-2.20000000000002
20
26.7827018015429
30
0
41
1
10
-2.2
20
26.7308893061407
30
0
41
1
10
-2.2
20
26.6771226678589
30
0
41
1
10
-2.20000000000006
20
26.6213778195848
30
0
41
1
10
-2.20000000000009
20
26.5636300714893
30
0
41
1
10
-2.2
20
26.504266509915
30
0
41
1
10
-2.20000000000007
20
26.4432985885955
30
0
41
1
10
-2.20000000000009
20
26.3807392832319
30
0
41
1
10
-2.20000000000003
20
26.3166010974024
30
0
41
1
10
-2.20000000000004
20
26.2509436647617
30
0
41
1
10
-2.20000000000008
20
26.1837814491269
30
0
41
1
10
-2.20000000000016
20
26.1151300016506
30
0
41
1
10
-2.20000000000017
20
26.0449515753205
30
0
41
1
10
-2.20000000000002
20
25.9732566118302
30
0
41
1
10
-2.20000000000009
20
25.9004902265339
30
0
41
1
10
-2.20000000000017
20
25.8266939293753
30
0
41
1
10
-2.20000000000014
20
25.7519079260592
30
0
41
1
10
-2.20000000000009
20
25.6756972110043
30
0
41
1
10
-2.20000000000009
20
25.5975420072797
30
0
41
1
10
-2.20000000000011
20
25.5174175752455
30
0
41
1
10
-2.20000000000002
20
25.435298593772
30
0
41
1
10
-2.20000000000004
20
25.3517308007147
30
0
41
1
10
-2.20000000000005
20
25.2667230030981
30
0
41
1
10
-2.20000000000005
20
25.180282716578
30
0
41
1
10
-2.20000000000003
20
25.0924181160163
30
0
41
1
10
-2.20000000000001
20
25.0031380970247
30
0
41
1
10
-2.20000000000001
20
24.9124511939127
30
0
41
1
10
-2.20000000000005
20
24.8203656237758
30
0
41
1
10
-2.20000000000013
20
24.7268886129247
30
0
41
1
10
-2.20000000000014
20
24.6320262986239
30
0
41
1
10
-2.20000000000011
20
24.5357844853453
30
0
41
1
10
-2.20000000000008
20
24.4381697988392
30
0
41
1
10
-2.20000000000005
20
24.3358903799848
30
0
41
1
10
-2.20000000000005
20
24.228790586354
30
0
41
1
10
-2.20000000000006
20
24.1167091436453
30
0
41
1
10
-2.20000000000007
20
24.0030010682317
30
0
41
1
10
-2.20000000000008
20
23.8876749952413
30
0
41
1
10
-2.20000000000011
20
23.7722177222141
30
0
41
1
10
-2.20000000000014
20
23.6567075261001
30
0
41
1
10
-2.2000000000001
20
23.5412190830979
30
0
41
1
10
-2.20000000000008
20
23.4242595501938
30
0
41
1
10
-2.20000000000014
20
23.3058348380119
30
0
41
1
10
-2.20000000000019
20
23.1859520363465
30
0
41
1
10
-2.20000000000018
20
23.0669294790806
30
0
41
1
10
-2.20000000000015
20
22.9488682183617
30
0
41
1
10
-2.20000000000012
20
22.8318653442591
30
0
41
1
10
-2.20000000000012
20
22.7135876568917
30
0
41
1
10
-2.20000000000013
20
22.5940396660877
30
0
41
1
10
-2.20000000000012
20
22.4732260310023
30
0
41
1
10
-2.2000000000001
20
22.3511512229097
30
0
41
1
10
-2.20000000000009
20
22.2278195638904
30
0
41
1
10
-2.20000000000012
20
22.1032353192897
30
0
41
1
10
-2.20000000000015
20
21.9774023475177
30
0
41
1
10
-2.20000000000018
20
21.851080973975
30
0
41
1
10
-2.20000000000018
20
21.7243013744086
30
0
41
1
10
-2.20000000000016
20
21.5970936907586
30
0
41
1
10
-2.20000000000012
20
21.4686987289182
30
0
41
1
10
-2.20000000000007
20
21.33833439329
30
0
41
1
10
-2.20000000000006
20
21.2059773844199
30
0
41
1
10
-2.20000000000005
20
21.0716043742579
30
0
41
1
10
-2.20000000000002
20
20.9360112558685
30
0
41
1
10
-2.2
20
20.7992024972738
30
0
41
1
10
-2.19999999999999
20
20.6620038470349
30
0
41
1
10
-2.2
20
20.5244434743674
30
0
41
1
10
-2.20000000000001
20
20.3865488195094
30
0
41
1
10
-2.20000000000001
20
20.2474944326324
30
0
41
1
10
-2.20000000000001
20
20.0983822168922
30
0
41
1
10
-2.2
20
19.9389452568723
30
0
41
1
10
-2.20000000000006
20
19.7688958888889
30
0
41
1
10
-2.20000000000014
20
19.5972183712981
30
0
41
1
10
-2.20000000000012
20
19.4239153675713
30
0
41
1
10
-2.2000000000001
20
19.2489916759343
30
0
41
1
10
-2.20000000000011
20
19.0809699927317
30
0
41
1
10
-2.20000000000012
20
18.9201167547479
30
0
41
1
10
-2.20000000000009
20
18.766678788805
30
0
41
1
10
-2.20000000000005
20
18.6120689424876
30
0
41
1
10
-2.20000000000012
20
18.4562872820365
30
0
41
1
10
-2.20000000000016
20
18.3002683259675
30
0
41
1
10
-2.20000000000016
20
18.1440379793516
30
0
41
1
10
-2.20000000000015
20
17.9876231969014
30
0
41
1
10
-2.20000000000013
20
17.8300862707813
30
0
41
1
10
-2.20000000000012
20
17.6703510990853
30
0
41
1
10
-2.20000000000012
20
17.5083935684385
30
0
41
1
10
-2.20000000000011
20
17.3441877571808
30
0
41
1
10
-2.20000000000006
20
17.178819506522
30
0
41
1
10
-2.20000000000003
20
17.0122880128294
30
0
41
1
10
-2.20000000000004
20
16.8445955162323
30
0
41
1
10
-2.20000000000005
20
16.675746881827
30
0
41
1
10
-2.20000000000003
20
16.5057442335622
30
0
41
1
10
-2.20000000000011
20
16.3345883225465
30
0
41
1
10
-2.2000000000001
20
16.1622801700244
30
0
41
1
10
-2.19999999999999
20
15.9888196187194
30
0
41
1
10
-2.2000000000002
20
15.8142074508917
30
0
41
1
10
-2.20000000000018
20
15.6384442830624
30
0
41
1
10
-2.20000000000001
20
15.4615325394035
30
0
41
1
10
-2.20000000000003
20
15.2884191565292
30
0
41
1
10
-2.20000000000009
20
15.1192139554077
30
0
41
1
10
-2.20000000000008
20
14.9540223989452
30
0
41
1
10
-2.2
20
14.7878684299474
30
0
41
1
10
-2.20000000000009
20
14.6207520563684
30
0
41
1
10
-2.20000000000012
20
14.4526742054708
30
0
41
1
10
-2.20000000000007
20
14.2749302310821
30
0
41
1
10
-2.20000000000006
20
14.0873404375051
30
0
41
1
10
-2.20000000000004
20
13.8897117978646
30
0
41
1
10
-2.20000000000004
20
13.69080144858
30
0
41
1
10
-2.20000000000009
20
13.4906096548936
30
0
41
1
10
-2.20000000000011
20
13.2891401346523
30
0
41
1
10
-2.20000000000006
20
13.0902569045413
30
0
41
1
10
-2.20000000000001
20
12.8940429467118
30
0
41
1
10
-2.20000000000005
20
12.700577169702
30
0
41
1
10
-2.20000000000018
20
12.5059739738457
30
0
41
1
10
-2.20000000000018
20
12.3102348739367
30
0
41
1
10
-2.20000000000018
20
12.1133603515916
30
0
41
1
10
-2.20000000000019
20
11.9153510096831
30
0
41
1
10
-2.20000000000014
20
11.7162051947437
30
0
41
1
10
-2.20000000000009
20
11.5159206151015
30
0
41
1
10
-2.20000000000005
20
11.3144953541248
30
0
41
1
10
-2.20000000000005
20
11.1131365563475
30
0
41
1
10
-2.20000000000012
20
10.9118703128732
30
0
41
1
10
-2.20000000000019
20
10.7107216559244
30
0
41
1
10
-2.20000000000022
20
10.5084786351341
30
0
41
1
10
-2.20000000000018
20
10.315408364321
30
0
41
1
10
-2.20000000000007
20
10.1316941090293
30
0
41
1
10
-2.20000000000003
20
9.95750754744788
30
0
41
1
10
-2.20000000000009
20
9.78252877512863
30
0
41
1
10
-2.20000000000018
20
9.60675809994135
30
0
41
1
10
-2.20000000000021
20
9.43019515924273
30
0
41
1
10
-2.2000000000001
20
9.25621786025947
30
0
41
1
10
-2.20000000000007
20
9.08487808619506
30
0
41
1
10
-2.20000000000014
20
8.91622614877035
30
0
41
1
10
-2.20000000000018
20
8.74686903418821
30
0
41
1
10
-2.20000000000017
20
8.57680653322404
30
0
41
1
10
-2.20000000000007
20
8.40603858952626
30
0
41
1
10
-2.20000000000004
20
8.2345649840264
30
0
41
1
10
-2.20000000000009
20
8.06238562756104
30
0
41
1
10
-2.20000000000007
20
7.88950054185739
30
0
41
1
10
-2.20000000000003
20
7.71590966395034
30
0
41
1
10
-2.20000000000005
20
7.54265060699453
30
0
41
1
10
-2.20000000000007
20
7.36973807132838
30
0
41
1
10
-2.20000000000005
20
7.19718677279569
30
0
41
1
10
-2.20000000000005
20
7.02395534263265
30
0
41
1
10
-2.20000000000008
20
6.85435602255301
30
0
41
1
10
-2.20000000000009
20
6.68844719569621
30
0
41
1
10
-2.2000000000001
20
6.5262847162378
30
0
41
1
10
-2.20000000000013
20
6.36354073529975
30
0
41
1
10
-2.20000000000016
20
6.20021519188323
30
0
41
1
10
-2.20000000000014
20
6.03631078865588
30
0
41
1
10
-2.20000000000013
20
5.87183153181781
30
0
41
1
10
-2.20000000000015
20
5.70127655713602
30
0
41
1
10
-2.20000000000014
20
5.52457300719908
30
0
41
1
10
-2.20000000000007
20
5.34164727009087
30
0
41
1
10
-2.20000000000006
20
5.15802674965523
30
0
41
1
10
-2.20000000000009
20
4.97372203481731
30
0
41
1
10
-2.20000000000009
20
4.79901399191266
30
0
41
1
10
-2.20000000000015
20
4.63402701061075
30
0
41
1
10
-2.20000000000016
20
4.47887510349018
30
0
41
1
10
-2.20000000000013
20
4.32325459943536
30
0
41
1
10
-2.20000000000004
20
4.16717179457737
30
0
41
1
10
-2.20000000000007
20
4.01063360377944
30
0
41
1
10
-2.20000000000016
20
3.85662781928282
30
0
41
1
10
-2.20000000000016
20
3.70518986373418
30
0
41
1
10
-2.20000000000005
20
3.55635025972332
30
0
41
1
10
-2.20000000000015
20
3.40711891315835
30
0
41
1
10
-2.20000000000023
20
3.2575016302797
30
0
41
1
10
-2.20000000000009
20
3.1044719911027
30
0
41
1
10
-2.20000000000016
20
2.94801199854443
30
0
41
1
10
-2.20000000000005
20
2.78810312791474
30
0
41
1
10
-2.20000000000018
20
2.62779411920727
30
0
41
1
10
-2.20000000000002
20
2.46709434998612
30
0
41
1
10
-2.20000000000014
20
2.30601350491011
30
0
41
1
10
-2.2000000000001
20
2.14764564317206
30
0
41
1
10
-2.20000000000007
20
1.99202248779077
30
0
41
1
10
-2.20000000000016
20
1.83918961299065
30
0
41
1
10
-2.20000000000018
20
1.68606902687655
30
0
41
1
10
-2.20000000000011
20
1.53269015841037
30
0
41
1
10
-2.20000000000014
20
1.38759601712417
30
0
41
1
10
-2.20000000000017
20
1.2508536118193
30
0
41
1
10
-2.2000000000001
20
1.12250663733962
30
0
41
1
10
-2.20000000000006
20
0.994025006213087
30
0
41
1
10
-2.20000000000014
20
0.865427566449406
30
0
41
1
10
-2.20000000000021
20
0.736725777215236
30
0
41
1
10
-2.20000000000011
20
0.600267760902935
30
0
41
1
10
-2.2000000000001
20
0.456047945746217
30
0
41
1
10
-2.20000000000018
20
0.304076875006217
30
0
41
1
10
-2.20000000000014
20
0.152051965894254
30
0
41
1
10
-2.20000000000027
20
0.0010351431488472
30
0
41
1
10
-2.20000000000009
20
-0.148946468775387
30
0
41
1
10
-2.20000000000026
20
-0.297867510882939
30
0
41
1
10
-2.20000000000013
20
-0.446737970994709
30
0
41
1
10
-2.20000000000009
20
-0.595532749094621
30
0
41
1
10
-2.20000000000026
20
-0.744225761702389
30
0
41
1
10
-2.20000000000009
20
-0.88996797243185
30
0
41
1
10
-2.20000000000016
20
-1.03274606461046
30
0
41
1
10
-2.20000000000025
20
-1.17255407723805
30
0
41
1
10
-2.20000000000006
20
-1.31219349525312
30
0
41
1
10
-2.20000000000036
20
-1.45165191114591
30
0
41
1
10
-2.19999999999994
20
-1.59091524067447
30
0
41
1
10
-2.20000000000016
20
-1.72996964997026
30
0
41
1
10
-2.20000000000008
20
-1.86880531481301
30
0
41
1
10
-2.20000000000004
20
-2.00740233938165
30
0
41
1
10
-2.20000000000005
20
-2.14575845737952
30
0
41
1
10
-2.20000000000016
20
-2.28303389692381
30
0
41
1
10
-2.20000000000005
20
-2.41922959671962
30
0
41
1
10
-2.20000000000025
20
-2.5543392937981
30
0
41
1
10
-2.20000000000012
20
-2.68917528715579
30
0
41
1
10
-2.20000000000009
20
-2.82984954809961
30
0
41
1
10
-2.20000000000009
20
-2.97630924270489
30
0
41
1
10
-2.20000000000028
20
-3.12849628679573
30
0
41
1
10
-2.20000000000016
20
-3.28029892645272
30
0
41
1
10
-2.20000000000012
20
-3.43170929130266
30
0
41
1
10
-2.2000000000001
20
-3.58272358629315
30
0
41
1
10
-2.2000000000001
20
-3.73333436004103
30
0
41
1
10
-2.20000000000008
20
-3.88353461073736
30
0
41
1
10
-2.2000000000002
20
-4.03569882658305
30
0
41
1
10
-2.20000000000003
20
-4.18980038842294
30
0
41
1
10
-2.20000000000003
20
-4.34581667666505
30
0
41
1
10
-2.20000000000009
20
-4.50136981013725
30
0
41
1
10
-2.20000000000014
20
-4.65645309632351
30
0
41
1
10
-2.20000000000011
20
-4.8110598348128
30
0
41
1
10
-2.20000000000001
20
-4.96986256191304
30
0
41
1
10
-2.20000000000002
20
-5.13281349983285
30
0
41
1
10
-2.20000000000008
20
-5.29985576182847
30
0
41
1
10
-2.20000000000013
20
-5.46632581349377
30
0
41
1
10
-2.20000000000013
20
-5.63221690641626
30
0
41
1
10
-2.20000000000012
20
-5.79752933701211
30
0
41
1
10
-2.20000000000015
20
-5.96226693565908
30
0
41
1
10
-2.20000000000018
20
-6.13190271831325
30
0
41
1
10
-2.20000000000013
20
-6.30636434086591
30
0
41
1
10
-2.20000000000004
20
-6.48557525215399
30
0
41
1
10
-2.20000000000001
20
-6.66408236893352
30
0
41
1
10
-2.20000000000002
20
-6.84188573971773
30
0
41
1
10
-2.20000000000006
20
-7.01898507433407
30
0
41
1
10
-2.20000000000011
20
-7.1953797268881
30
0
41
1
10
-2.20000000000013
20
-7.37106930659077
30
0
41
1
10
-2.20000000000011
20
-7.54605354367153
30
0
41
1
10
-2.20000000000007
20
-7.72033213918744
30
0
41
1
10
-2.20000000000008
20
-7.89287186409512
30
0
41
1
10
-2.20000000000009
20
-8.06368722544142
30
0
41
1
10
-2.20000000000009
20
-8.23279286378822
30
0
41
1
10
-2.20000000000008
20
-8.40121781036598
30
0
41
1
10
-2.20000000000007
20
-8.57342903985496
30
0
41
1
10
-2.20000000000006
20
-8.74936198655746
30
0
41
1
10
-2.20000000000009
20
-8.92894954201624
30
0
41
1
10
-2.20000000000018
20
-9.10774371091596
30
0
41
1
10
-2.20000000000017
20
-9.28574505708492
30
0
41
1
10
-2.2000000000001
20
-9.46295383448425
30
0
41
1
10
-2.20000000000014
20
-9.63600987258705
30
0
41
1
10
-2.20000000000018
20
-9.80496526864686
30
0
41
1
10
-2.20000000000016
20
-9.96987102270684
30
0
41
1
10
-2.20000000000013
20
-10.1340729633296
30
0
41
1
10
-2.2000000000001
20
-10.2975713498688
30
0
41
1
10
-2.20000000000009
20
-10.4753167149315
30
0
41
1
10
-2.20000000000007
20
-10.6670654991816
30
0
41
1
10
-2.20000000000002
20
-10.8725464013726
30
0
41
1
10
-2.20000000000013
20
-11.0768845423146
30
0
41
1
10
-2.20000000000016
20
-11.280083075401
30
0
41
1
10
-2.2000000000001
20
-11.4821426396592
30
0
41
1
10
-2.20000000000006
20
-11.683058739863
30
0
41
1
10
-2.20000000000014
20
-11.8828298269962
30
0
41
1
10
-2.20000000000014
20
-12.0814576553546
30
0
41
1
10
-2.20000000000009
20
-12.2789451242897
30
0
41
1
10
-2.20000000000009
20
-12.4752923499452
30
0
41
1
10
-2.20000000000011
20
-12.6704987678332
30
0
41
1
10
-2.20000000000015
20
-12.8645630512718
30
0
41
1
10
-2.20000000000016
20
-13.057484810072
30
0
41
1
10
-2.2000000000001
20
-13.2439391473467
30
0
41
1
10
-2.20000000000009
20
-13.4240356106126
30
0
41
1
10
-2.2000000000001
20
-13.5978783138202
30
0
41
1
10
-2.20000000000012
20
-13.7707600538687
30
0
41
1
10
-2.20000000000012
20
-13.942679476115
30
0
41
1
10
-2.20000000000013
20
-14.113637433771
30
0
41
1
10
-2.20000000000018
20
-14.2923905479491
30
0
41
1
10
-2.20000000000029
20
-14.4787583088932
30
0
41
1
10
-2.20000000000019
20
-14.6725471224261
30
0
41
1
10
-2.20000000000009
20
-14.8650539752115
30
0
41
1
10
-2.20000000000014
20
-15.0562779757809
30
0
41
1
10
-2.20000000000024
20
-15.246218856062
30
0
41
1
10
-2.2000000000001
20
-15.4312820909659
30
0
41
1
10
-2.20000000000009
20
-15.611550358132
30
0
41
1
10
-2.20000000000017
20
-15.7871052723779
30
0
41
1
10
-2.20000000000015
20
-15.9615159262927
30
0
41
1
10
-2.20000000000017
20
-16.1347808968369
30
0
41
1
10
-2.20000000000012
20
-16.3068981970242
30
0
41
1
10
-2.20000000000004
20
-16.4778665539631
30
0
41
1
10
-2.20000000000008
20
-16.6476868418873
30
0
41
1
10
-2.20000000000015
20
-16.8163588727828
30
0
41
1
10
-2.20000000000022
20
-16.983880628101
30
0
41
1
10
-2.20000000000023
20
-17.149256877561
30
0
41
1
10
-2.20000000000016
20
-17.3125087430127
30
0
41
1
10
-2.20000000000008
20
-17.4736604134601
30
0
41
1
10
-2.20000000000003
20
-17.6336967550465
30
0
41
1
10
-2.20000000000001
20
-17.7935803743389
30
0
41
1
10
-2.20000000000003
20
-17.9532850188444
30
0
41
1
10
-2.20000000000009
20
-18.1127833661904
30
0
41
1
10
-2.20000000000016
20
-18.2711155820903
30
0
41
1
10
-2.20000000000019
20
-18.4282783754039
30
0
41
1
10
-2.20000000000014
20
-18.5833413071724
30
0
41
1
10
-2.20000000000011
20
-18.736328092115
30
0
41
1
10
-2.2000000000001
20
-18.8872629831315
30
0
41
1
10
-2.20000000000009
20
-19.0370664857861
30
0
41
1
10
-2.2000000000001
20
-19.1951752216868
30
0
41
1
10
-2.20000000000012
20
-19.3613189798907
30
0
41
1
10
-2.20000000000015
20
-19.5352043347951
30
0
41
1
10
-2.20000000000015
20
-19.7074656753522
30
0
41
1
10
-2.20000000000011
20
-19.878099597075
30
0
41
1
10
-2.20000000000006
20
-20.0471043415039
30
0
41
1
10
-2.20000000000006
20
-20.2064026821868
30
0
41
1
10
-2.20000000000009
20
-20.3562547168185
30
0
41
1
10
-2.20000000000014
20
-20.4969042664681
30
0
41
1
10
-2.20000000000019
20
-20.6363488154084
30
0
41
1
10
-2.20000000000021
20
-20.7745855046553
30
0
41
1
10
-2.20000000000016
20
-20.9107957692872
30
0
41
1
10
-2.20000000000008
20
-21.0450007826186
30
0
41
1
10
-2.20000000000001
20
-21.1772211745468
30
0
41
1
10
-2.19999999999998
20
-21.3082619830777
30
0
41
1
10
-2.20000000000007
20
-21.4463661712223
30
0
41
1
10
-2.20000000000018
20
-21.5912548362607
30
0
41
1
10
-2.2000000000002
20
-21.7426232672303
30
0
41
1
10
-2.2000000000002
20
-21.8923017315922
30
0
41
1
10
-2.20000000000019
20
-22.0402826735096
30
0
41
1
10
-2.20000000000018
20
-22.1865591746049
30
0
41
1
10
-2.20000000000016
20
-22.3311250899717
30
0
41
1
10
-2.20000000000015
20
-22.4739737566853
30
0
41
1
10
-2.20000000000012
20
-22.6150982833125
30
0
41
1
10
-2.20000000000008
20
-22.7544914770856
30
0
41
1
10
-2.20000000000004
20
-22.8921459677286
30
0
41
1
10
-2.20000000000002
20
-23.0280545041843
30
0
41
1
10
-2.20000000000002
20
-23.1596541465447
30
0
41
1
10
-2.20000000000003
20
-23.2870523110552
30
0
41
1
10
-2.20000000000006
20
-23.4103537574948
30
0
41
1
10
-2.20000000000008
20
-23.5320731629532
30
0
41
1
10
-2.20000000000008
20
-23.6522037521385
30
0
41
1
10
-2.20000000000004
20
-23.7692416725743
30
0
41
1
10
-2.2000000000001
20
-23.8832505276476
30
0
41
1
10
-2.2000000000002
20
-23.9942921109596
30
0
41
1
10
-2.20000000000022
20
-24.103836646592
30
0
41
1
10
-2.20000000000016
20
-24.2118764252903
30
0
41
1
10
-2.20000000000008
20
-24.3184041677554
30
0
41
1
10
-2.20000000000004
20
-24.4214123476562
30
0
41
1
10
-2.20000000000003
20
-24.5209926184765
30
0
41
1
10
-2.20000000000002
20
-24.6172352031857
30
0
41
1
10
-2.20000000000001
20
-24.712105263088
30
0
41
1
10
-2.19999999999999
20
-24.8055969409407
30
0
41
1
10
-2.19999999999998
20
-24.8977042802736
30
0
41
1
10
-2.19999999999998
20
-24.9884202944621
30
0
41
1
10
-2.19999999999999
20
-25.0777369311674
30
0
41
1
10
-2.20000000000002
20
-25.1656457562177
30
0
41
1
10
-2.20000000000004
20
-25.2521379479581
30
0
41
1
10
-2.20000000000006
20
-25.3366985327539
30
0
41
1
10
-2.20000000000006
20
-25.4193492310244
30
0
41
1
10
-2.20000000000003
20
-25.5001128027026
30
0
41
1
10
-2.2
20
-25.5794802147763
30
0
41
1
10
-2.20000000000002
20
-25.6579156140381
30
0
41
1
10
-2.20000000000006
20
-25.7353787734006
30
0
41
1
10
-2.20000000000015
20
-25.8118291627694
30
0
41
1
10
-2.20000000000019
20
-25.886793784348
30
0
41
1
10
-2.20000000000014
20
-25.9602637628255
30
0
41
1
10
-2.20000000000004
20
-26.031800717003
30
0
41
1
10
-2.20000000000007
20
-26.1014260543984
30
0
41
1
10
-2.20000000000014
20
-26.1691610596963
30
0
41
1
10
-2.20000000000009
20
-26.2354147487007
30
0
41
1
10
-2.20000000000005
20
-26.3006165398906
30
0
41
1
10
-2.20000000000004
20
-26.3647205468733
30
0
41
1
10
-2.20000000000008
20
-26.4276790008514
30
0
41
1
10
-2.20000000000016
20
-26.4890493086288
30
0
41
1
10
-2.20000000000014
20
-26.548818378703
30
0
41
1
10
-2.2000000000001
20
-26.6069745353169
30
0
41
1
10
-2.20000000000008
20
-26.6635053838654
30
0
41
1
10
-2.20000000000008
20
-26.7183574757624
30
0
41
1
10
-2.20000000000009
20
-26.7715208733918
30
0
41
1
10
-2.20000000000011
20
-26.8229852832271
30
0
41
1
10
-2.20000000000012
20
-26.8727748885245
30
0
41
1
10
-2.20000000000012
20
-26.9208748330035
30
0
41
1
10
-2.20000000000009
20
-26.9669947549673
30
0
41
1
10
-2.20000000000005
20
-27.0111543670098
30
0
41
1
10
-2.20000000000003
20
-27.053373397237
30
0
41
1
10
-2.20000000000001
20
-27.0939015807949
30
0
41
1
10
-2.20000000000002
20
-27.1329875903481
30
0
41
1
10
-2.20000000000004
20
-27.1705729376288
30
0
41
1
10
-2.20000000000006
20
-27.2065970253275
30
0
41
1
10
-2.20000000000005
20
-27.2407892536508
30
0
41
1
10
-2.20000000000004
20
-27.2731302867816
30
0
41
1
10
-2.20000000000005
20
-27.3035999939479
30
0
41
1
10
-2.20000000000006
20
-27.3321770966626
30
0
41
1
10
-2.20000000000006
20
-27.3577292709978
30
0
41
1
10
-2.20000000000006
20
-27.3805055878579
30
0
41
1
10
-2.20000000000006
20
-27.400747667541
30
0
41
1
10
-2.20000000000006
20
-27.4194752880498
30
0
41
1
10
-2.2000000000001
20
-27.4366719078656
30
0
41
1
10
-2.20000000000015
20
-27.4523206521186
30
0
41
1
10
-2.20000000000007
20
-27.4664039015074
30
0
41
1
10
-2.20000000000005
20
-27.4789034342926
30
0
41
1
10
-2.20000000000015
20
-27.4899734358036
30
0
41
1
10
-2.20000000000013
20
-27.4995029664937
30
0
41
1
10
-2.2000000000001
20
-27.5073757989552
30
0
41
1
10
-2.20000000000011
20
-27.5134215399326
30
0
41
1
10
-2.20000000000004
20
-27.5176145249686
30
0
41
1
10
-2.20000000000005
20
-27.5197088961281
30
0
41
1
10
-2.20000000000003
20
-27.5200930727641
30
0
41
1
10
-2.20000000000019
20
-27.5201030737641
30
0
0
SPLINE
5
14A
100
AcDbEntity
8
SK1
62
256
6
ByLayer
370
18
48
1
60
0
100
AcDbSpline
70
4
71
3
72
57
73
53
40
0
40
0
40
0
40
0
40
0.0102972738532789
40
0.0206114408316292
40
0.0309177093183379
40
0.0412041933092429
40
0.0495353296771184
40
0.0579028919082779
40
0.0662738920365407
40
0.0746241970268271
40
0.0829407986082441
40
0.090539091500167
40
0.0981732042097918
40
0.105821305433475
40
0.113458737008821
40
0.121059826681002
40
0.129051531871173
40
0.137067571326703
40
0.145099451005386
40
0.153129687917746
40
0.161133338559517
40
0.172092548983001
40
0.183073834505254
40
0.194078983068432
40
0.205098320642811
40
0.21611239339889
40
0.22709351679662
40
0.242612220331849
40
0.25814457375878
40
0.273691845432457
40
0.289248147857032
40
0.30480135355583
40
0.320333973932563
40
0.344238699359254
40
0.368152811934804
40
0.392070978042413
40
0.415981233012549
40
0.444863217333999
40
0.473752574246436
40
0.502647439318888
40
0.531542464580739
40
0.560429204290293
40
0.596501299282671
40
0.632577762652264
40
0.668655577428034
40
0.704729515457619
40
0.75281320140917
40
0.800900030033626
40
0.848984755480842
40
0.89932224946543
40
0.949661946624097
40
1
40
1
40
1
40
1
41
1
10
-0.394976888875381
20
-5.88246902087483
30
0
41
1
10
-0.400240106075267
20
-5.88698799089981
30
0
41
1
10
-0.41102064163453
20
-5.89575973057299
30
0
41
1
10
-0.427907675982293
20
-5.90816187579639
30
0
41
1
10
-0.445568012700139
20
-5.91960652344876
30
0
41
1
10
-0.462837965386781
20
-5.92929433216547
30
0
41
1
10
-0.479596659463466
20
-5.93728479643586
30
0
41
1
10
-0.495684454051094
20
-5.94372948201677
30
0
41
1
10
-0.512254070105786
20
-5.94911447422228
30
0
41
1
10
-0.529204259347087
20
-5.95330975762126
30
0
41
1
10
-0.545959467458729
20
-5.95611690004449
30
0
41
1
10
-0.562430377261642
20
-5.95752175028347
30
0
41
1
10
-0.578514348942202
20
-5.95768621803199
30
0
41
1
10
-0.594602948476306
20
-5.95668727792544
30
0
41
1
10
-0.61054944383998
20
-5.95455076063871
30
0
41
1
10
-0.626514830813355
20
-5.95122684818946
30
0
41
1
10
-0.642410191402927
20
-5.94667818601635
30
0
41
1
10
-0.658198427586597
20
-5.94098985454149
30
0
41
1
10
-0.673571342426827
20
-5.9343378679809
30
0
41
1
10
-0.688473319325958
20
-5.92684234000443
30
0
41
1
10
-0.704645645836299
20
-5.91757578603712
30
0
41
1
10
-0.721889788843484
20
-5.90631498200523
30
0
41
1
10
-0.740008346756337
20
-5.89288679412842
30
0
41
1
10
-0.757330845981783
20
-5.87853635463906
30
0
41
1
10
-0.773891865144608
20
-5.86341312126877
30
0
41
1
10
-0.789723893470532
20
-5.84766256926939
30
0
41
1
10
-0.806975392829045
20
-5.82915883557925
30
0
41
1
10
-0.82542469116577
20
-5.8077470021778
30
0
41
1
10
-0.844810888098284
20
-5.78325713360028
30
0
41
1
10
-0.863226273251039
20
-5.75810416000362
30
0
41
1
10
-0.880754450874872
20
-5.73239612322586
30
0
41
1
10
-0.897476429207691
20
-5.70623917332475
30
0
41
1
10
-0.916372058752435
20
-5.67495693634982
30
0
41
1
10
-0.937078626706844
20
-5.63836597358572
30
0
41
1
10
-0.959166266856659
20
-5.59627559023075
30
0
41
1
10
-0.980047456466617
20
-5.55363206538506
30
0
41
1
10
-1.00123725354192
20
-5.50754363161512
30
0
41
1
10
-1.02264763574426
20
-5.45798704084958
30
0
41
1
10
-1.04412728230048
20
-5.40491530176047
30
0
41
1
10
-1.06448242838846
20
-5.35140654344495
30
0
41
1
10
-1.08381803381169
20
-5.29752500495265
30
0
41
1
10
-1.10377692621306
20
-5.23883091031822
30
0
41
1
10
-1.12420596290862
20
-5.17527165967289
30
0
41
1
10
-1.14490905330986
20
-5.10678545603631
30
0
41
1
10
-1.16453611169933
20
-5.03793746086852
30
0
41
1
10
-1.18525596545274
20
-4.96109217589113
30
0
41
1
10
-1.2067866098851
20
-4.87615537400167
30
0
41
1
10
-1.22882352153514
20
-4.78303429642478
30
0
41
1
10
-1.24986898585074
20
-4.68802583726308
30
0
41
1
10
-1.26998635650784
20
-4.59114777518413
30
0
41
1
10
-1.28918701635906
20
-4.49240487086791
30
0
41
1
10
-1.3012597014549
20
-4.42633544255445
30
0
41
1
10
-1.30710678118676
20
-4.39323915389228
30
0
0
SPLINE
5
14B
100
AcDbEntity
8
SK1
62
256
6
ByLayer
370
18
48
1
60
0
100
AcDbSpline
70
4
71
3
72
39
73
35
40
0
40
0
40
0
40
0
40
0.0816816563222728
40
0.163368598916516
40
0.245047093128811
40
0.306559017496616
40
0.36808337513145
40
0.429601183416205
40
0.49110417487371
40
0.535036623297943
40
0.578984590171646
40
0.622921832426281
40
0.66683965055306
40
0.696126582385959
40
0.72541883474311
40
0.754697503037045
40
0.77715083697067
40
0.799640629208136
40
0.822094639701892
40
0.844499086779978
40
0.860805740001685
40
0.877099253665281
40
0.888098712637888
40
0.899119260364913
40
0.910084391472411
40
0.920392260840505
40
0.930690350826
40
0.94102834236788
40
0.951371929456034
40
0.959789665750731
40
0.968240490758991
40
0.976674379908345
40
0.988333396488797
40
1
40
1
40
1
40
1
41
1
10
-0.200000000000172
20
-6.57657332251962
30
0
41
1
10
-0.199987343079499
20
-6.55493285359582
30
0
41
1
10
-0.200300303474718
20
-6.51161261898605
30
0
41
1
10
-0.201729009274672
20
-6.44651403746534
30
0
41
1
10
-0.204073368338507
20
-6.38668052245513
30
0
41
1
10
-0.207087166368698
20
-6.33215321054591
30
0
41
1
10
-0.210600898904475
20
-6.28296231960611
30
0
41
1
10
-0.215047444999455
20
-6.23376011095547
30
0
41
1
10
-0.220040705838638
20
-6.18926145582225
30
0
41
1
10
-0.225325535066499
20
-6.14948191322251
30
0
41
1
10
-0.230730606439877
20
-6.11443194808547
30
0
41
1
10
-0.237044040114701
20
-6.07947878103397
30
0
41
1
10
-0.243602720724518
20
-6.04854301611121
30
0
41
1
10
-0.250139312958569
20
-6.02161768795034
30
0
41
1
10
-0.256435835130065
20
-5.99868366225217
30
0
41
1
10
-0.263031217659483
20
-5.97773268344533
30
0
41
1
10
-0.269768564865335
20
-5.95875091189284
30
0
41
1
10
-0.276605782500636
20
-5.94176149623119
30
0
41
1
10
-0.284391310096192
20
-5.92517325195685
30
0
41
1
10
-0.292502222761635
20
-5.9106174873324
30
0
41
1
10
-0.300761152531348
20
-5.89811419793315
30
0
41
1
10
-0.308171962569269
20
-5.88882239022517
30
0
41
1
10
-0.315430190267774
20
-5.88134480308497
30
0
41
1
10
-0.322270507620763
20
-5.87556172572206
30
0
41
1
10
-0.329582109997199
20
-5.87076024093635
30
0
41
1
10
-0.337301863344355
20
-5.86718834832097
30
0
41
1
10
-0.345282255169156
20
-5.86494402293899
30
0
41
1
10
-0.35348479265299
20
-5.8642215579591
30
0
41
1
10
-0.361134280881198
20
-5.8648857901715
30
0
41
1
10
-0.36805788846423
20
-5.86659436886333
30
0
41
1
10
-0.374245338387199
20
-5.86892347742563
30
0
41
1
10
-0.380906886663792
20
-5.87224948836361
30
0
41
1
10
-0.38788342751276
20
-5.87673206073503
30
0
41
1
10
-0.392670025498382
20
-5.88046971368767
30
0
41
1
10
-0.394976888875548
20
-5.88246902087071
30
0
0
SPLINE
5
14C
100
AcDbEntity
8
SK1
62
256
6
ByLayer
370
18
48
1
60
0
100
AcDbSpline
70
4
71
3
72
39
73
35
40
0
40
0
40
0
40
0
40
0.0140252577148617
40
0.0280330510331403
40
0.0400329523348537
40
0.0520127750157468
40
0.0619480164559259
40
0.0718805312207829
40
0.0817913652316567
40
0.0917112475679201
40
0.101721206305348
40
0.111771276747826
40
0.121804781018311
40
0.135962156743359
40
0.150162789518623
40
0.164391923204356
40
0.178588268044583
40
0.201989095071163
40
0.225422281608536
40
0.248876924658076
40
0.272307046102869
40
0.304258386159102
40
0.336221534807359
40
0.368179811493479
40
0.420447561229469
40
0.47273896065541
40
0.525060501862915
40
0.577402311505874
40
0.629740499337987
40
0.682039460100907
40
0.761518754831679
40
0.841013272329137
40
0.920513253488047
40
1
40
1
40
1
40
1
41
1
10
-0.394976888875381
20
5.88246916452655
30
0
41
1
10
-0.392205952949696
20
5.88005168472877
30
0
41
1
10
-0.386411601102226
20
5.87562250102059
30
0
41
1
10
-0.377428186231019
20
5.87024939266965
30
0
41
1
10
-0.368222259665055
20
5.86651100685939
30
0
41
1
10
-0.359514924439879
20
5.86456697775725
30
0
41
1
10
-0.351101394237155
20
5.86430057954846
30
0
41
1
10
-0.343247718553743
20
5.86538829426734
30
0
41
1
10
-0.335653757087998
20
5.8678503598492
30
0
41
1
10
-0.328454291458136
20
5.87144287619609
30
0
41
1
10
-0.32173742565299
20
5.87600366541957
30
0
41
1
10
-0.315514745698307
20
5.88129788728983
30
0
41
1
10
-0.308997672689524
20
5.88794714358534
30
0
41
1
10
-0.302347495477826
20
5.89601887451149
30
0
41
1
10
-0.29572396425141
20
5.90554378193141
30
0
41
1
10
-0.289747397918966
20
5.9154958263328
30
0
41
1
10
-0.283124373434282
20
5.92794909522137
30
0
41
1
10
-0.276102450709868
20
5.94299654710347
30
0
41
1
10
-0.268992385706014
20
5.96072248205827
30
0
41
1
10
-0.26269222447659
20
5.97873409868304
30
0
41
1
10
-0.256340685155735
20
5.99913490981545
30
0
41
1
10
-0.250034732795111
20
6.02192474169291
30
0
41
1
10
-0.243949586876963
20
6.04711699139751
30
0
41
1
10
-0.237415910182044
20
6.07779377053679
30
0
41
1
10
-0.230731443317677
20
6.11398102281072
30
0
41
1
10
-0.224270581067219
20
6.15569178470848
30
0
41
1
10
-0.218892460439214
20
6.19749809334735
30
0
41
1
10
-0.214443722954701
20
6.23935220017962
30
0
41
1
10
-0.210781487024716
20
6.28120756586925
30
0
41
1
10
-0.207211557171141
20
6.33028399600292
30
0
41
1
10
-0.204019126780361
20
6.38656218495148
30
0
41
1
10
-0.201616251010163
20
6.45000742719481
30
0
41
1
10
-0.200277894405063
20
6.51335716968106
30
0
41
1
10
-0.199986458180616
20
6.55551449488322
30
0
41
1
10
-0.2000000000002
20
6.57657338511743
30
0
0
SPLINE
5
14D
100
AcDbEntity
8
SK1
62
256
6
ByLayer
370
18
48
1
60
0
100
AcDbSpline
70
4
71
3
72
55
73
51
40
0
40
0
40
0
40
0
40
0.0583136050811663
40
0.1166297700811
40
0.174942300160181
40
0.218779374407089
40
0.262620841106965
40
0.306460858889806
40
0.350295957130902
40
0.3891773697526
40
0.428061176264634
40
0.466940999062872
40
0.496115227086288
40
0.525294889964023
40
0.554472181452266
40
0.583643175112468
40
0.607518177756451
40
0.631409466220833
40
0.655299072209137
40
0.679176477489532
40
0.703039828772506
40
0.720732961083201
40
0.738430329535512
40
0.756119301268044
40
0.769644571987019
40
0.783183880681841
40
0.796715514862883
40
0.810230308384918
40
0.820423494575775
40
0.830634015630327
40
0.840836511999615
40
0.851018735240211
40
0.859265898492135
40
0.867549508343455
40
0.875836979266997
40
0.884104136930055
40
0.89233744271363
40
0.899802996667603
40
0.907302320235846
40
0.914815201902396
40
0.92231837328737
40
0.929787169168123
40
0.937869417290391
40
0.945976143574262
40
0.954098999384468
40
0.962220368570415
40
0.970314936766555
40
0.980205771717695
40
0.990105447876554
40
1
40
1
40
1
40
1
41
1
10
-1.30710678118667
20
4.39323937970208
30
0
41
1
10
-1.30033801802731
20
4.43158051513531
30
0
41
1
10
-1.28628442593719
20
4.50809549253839
30
0
41
1
10
-1.26372739859748
20
4.62237955476188
30
0
41
1
10
-1.24148857014919
20
4.72670476687895
30
0
41
1
10
-1.21993391516721
20
4.82118645174064
30
0
41
1
10
-1.19938363855219
20
4.90593478420669
30
0
41
1
10
-1.17758376824423
20
4.99027612153292
30
0
41
1
10
-1.15529335581697
20
5.07100517877652
30
0
41
1
10
-1.13258471141972
20
5.1481391241492
30
0
41
1
10
-1.10948529766575
20
5.22168388149155
30
0
41
1
10
-1.08696029926028
20
5.28864090429045
30
0
41
1
10
-1.06530983788791
20
5.34909985508296
30
0
41
1
10
-1.04480295279222
20
5.40315168906412
30
0
41
1
10
-1.02315668368961
20
5.45676825319357
30
0
41
1
10
-1.00162872131645
20
5.50666306666373
30
0
41
1
10
-0.980404760925952
20
5.55289883467888
30
0
41
1
10
-0.95959510070869
20
5.59550982490225
30
0
41
1
10
-0.937569436048194
20
5.6375712222874
30
0
41
1
10
-0.914177320836999
20
5.67895380332295
30
0
41
1
10
-0.89141746883338
20
5.71603879884766
30
0
41
1
10
-0.86958947982963
20
5.74894003945949
30
0
41
1
10
-0.848942140557591
20
5.77776389228901
30
0
41
1
10
-0.828781742911853
20
5.80359830563097
30
0
41
1
10
-0.809333077199967
20
5.82653406195518
30
0
41
1
10
-0.790798358899121
20
5.84666882875193
30
0
41
1
10
-0.771268825872471
20
5.86597926954797
30
0
41
1
10
-0.752351192064859
20
5.88279640052628
30
0
41
1
10
-0.73426570844927
20
5.89724361885455
30
0
41
1
10
-0.717226509587298
20
5.90947535825842
30
0
41
1
10
-0.699437905736696
20
5.92075191954028
30
0
41
1
10
-0.68207042468353
20
5.9302707211745
30
0
41
1
10
-0.665246990454083
20
5.93809447282115
30
0
41
1
10
-0.649126232090473
20
5.94437915729878
30
0
41
1
10
-0.632556736095169
20
5.94960338972015
30
0
41
1
10
-0.615645832189882
20
5.95364232165303
30
0
41
1
10
-0.599010529951605
20
5.95629893109874
30
0
41
1
10
-0.582743969625833
20
5.95757848688309
30
0
41
1
10
-0.566940186191132
20
5.95765756483435
30
0
41
1
10
-0.551164809919311
20
5.95661363377127
30
0
41
1
10
-0.535555471921751
20
5.95447561786002
30
0
41
1
10
-0.519793193486004
20
5.9511653161439
30
0
41
1
10
-0.503971383756485
20
5.94661087351125
30
0
41
1
10
-0.48813917385292
20
5.94086093687417
30
0
41
1
10
-0.472748720766657
20
5.9341377533428
30
0
41
1
10
-0.457852833444421
20
5.92656338223712
30
0
41
1
10
-0.442412871838833
20
5.91761447591322
30
0
41
1
10
-0.426552131619873
20
5.90719552241088
30
0
41
1
10
-0.410378598231566
20
5.89524413321177
30
0
41
1
10
-0.400034630379528
20
5.8868102057485
30
0
41
1
10
-0.394976888875353
20
5.88246916452651
30
0
0
SPLINE
5
14E
100
AcDbEntity
8
1
62
256
6
ByLayer
370
18
48
1
60
0
100
AcDbSpline
70
4
71
3
72
250
73
246
40
0
40
0
40
0
40
0
40
0.0023209385145646
40
0.0046419819854954
40
0.0069630255592915
40
0.0092839642141331
40
0.0116082641953555
40
0.0139326691772456
40
0.0162570744674954
40
0.0185813748692273
40
0.020902307354745
40
0.0232233435348057
40
0.0255443802187647
40
0.027865313391447
40
0.0301895545031215
40
0.0325138984757416
40
0.0348382431432113
40
0.0371624852024499
40
0.0394834036785186
40
0.0418044229061456
40
0.0441254429978986
40
0.0464463626523717
40
0.0487704842519467
40
0.0510947049803626
40
0.0534189267351956
40
0.05574304973449
40
0.0582003940807994
40
0.0606578527269693
40
0.0631153128338896
40
0.0655726591722238
40
0.0680336232253005
40
0.070494698734036
40
0.072955775868215
40
0.0754167421379059
40
0.0779904720105911
40
0.0805643250958107
40
0.083138180280041
40
0.0857119130151503
40
0.0882895292220283
40
0.0908672644804192
40
0.0934450019714462
40
0.0960226212229681
40
0.0985963053298292
40
0.101170103015995
40
0.10374390300445
40
0.106317590250935
40
0.108894845291607
40
0.1114722092872
40
0.114049575647006
40
0.116626833911741
40
0.119200469392474
40
0.12177420821432
40
0.124347949404898
40
0.126921588115849
40
0.129498463951843
40
0.132075438333056
40
0.134652415085378
40
0.137229294154826
40
0.139949883163568
40
0.142670581945853
40
0.145391283631503
40
0.148111876599539
40
0.150835896161903
40
0.153560019610435
40
0.156284145906597
40
0.159008169352242
40
0.162021649759592
40
0.16503532441604
40
0.168049069939448
40
0.171062756144292
40
0.174076246238022
40
0.177089647421424
40
0.180103226590656
40
0.183116870855844
40
0.186130460916646
40
0.189143871235456
40
0.19215719804747
40
0.195170687601083
40
0.198184236781381
40
0.201197736497092
40
0.204211071832618
40
0.207284937371267
40
0.210358960487376
40
0.213433041512351
40
0.216507074799011
40
0.219580948868241
40
0.222683132299143
40
0.225785463154519
40
0.228887848268813
40
0.231990188794779
40
0.235092380336887
40
0.238194498408875
40
0.24129675055307
40
0.244399052048508
40
0.247501313001703
40
0.250603438462206
40
0.253705497114148
40
0.256807677706884
40
0.259909903172259
40
0.263012091753675
40
0.266114157106063
40
0.269261722064355
40
0.272409402857058
40
0.275557126306535
40
0.278704814747758
40
0.281852386121175
40
0.285634456255742
40
0.289416761864925
40
0.293199195261102
40
0.296981640419151
40
0.300763973171978
40
0.304546061403455
40
0.30832797447076
40
0.312110093434929
40
0.315892323951554
40
0.319674564543577
40
0.323456706759309
40
0.327238635328515
40
0.331020413958191
40
0.334802373177711
40
0.33858443004802
40
0.342366495536283
40
0.346148474643873
40
0.349930266532907
40
0.353789076945659
40
0.357648055963245
40
0.361507126090783
40
0.365366204195994
40
0.369225201624004
40
0.373084024310919
40
0.376973155889421
40
0.380862439521841
40
0.384751805169221
40
0.388641177836265
40
0.392530477668231
40
0.396419620046859
40
0.400308658077276
40
0.404197830561142
40
0.408087075380951
40
0.411976326192447
40
0.415865512503525
40
0.419754559752406
40
0.424421322748166
40
0.42908824205153
40
0.43375522016072
40
0.438422152136175
40
0.443088925760498
40
0.447815635567076
40
0.452542490093971
40
0.457269398904776
40
0.461996264858366
40
0.466722984248921
40
0.471519692558025
40
0.476316493223902
40
0.481113297633496
40
0.485910011047766
40
0.490709565290784
40
0.49550920426877
40
0.500308846568336
40
0.505108405340862
40
0.509905044105998
40
0.514701760566212
40
0.519498479965224
40
0.524295122737878
40
0.529094161544701
40
0.533893272043286
40
0.53869238515882
40
0.543491427534262
40
0.548974198273016
40
0.554457198357318
40
0.559940345658267
40
0.565423551716686
40
0.570906721870832
40
0.576389755383062
40
0.581872545565429
40
0.587466509622276
40
0.59306068426891
40
0.598654993567984
40
0.6042493561185
40
0.609843685162357
40
0.615437888690092
40
0.621031869545781
40
0.626665273514124
40
0.632298865310818
40
0.637932576635829
40
0.64356633469478
40
0.649200062282766
40
0.654833677867583
40
0.660467095672348
40
0.666100370804322
40
0.671733811794053
40
0.677367357798767
40
0.683000944359796
40
0.68863450346676
40
0.694267963621323
40
0.699901249900525
40
0.705534420997551
40
0.711167740179342
40
0.716801152667538
40
0.722434600756803
40
0.728068023864354
40
0.733701358579183
40
0.739334538710974
40
0.745035388074962
40
0.750736375838976
40
0.756437450443713
40
0.762138557834321
40
0.767839641501178
40
0.773540642520431
40
0.779241499594288
40
0.784738810048708
40
0.790236190262264
40
0.795733595340462
40
0.801230978604128
40
0.806728291616737
40
0.812225581856072
40
0.817722937751316
40
0.823220316933635
40
0.828717675482102
40
0.834214967946745
40
0.839712240597924
40
0.845209575334839
40
0.850706931986744
40
0.856204269032539
40
0.86170154362022
40
0.868600747106209
40
0.875500028848298
40
0.88239931235789
40
0.889298518254138
40
0.896211584414154
40
0.903124725637256
40
0.910037868406832
40
0.916950936675699
40
0.923863987743737
40
0.930777110692481
40
0.937690234979451
40
0.944603287872364
40
0.951516325903967
40
0.958429433067253
40
0.965342541383138
40
0.972255580986482
40
0.979191651431154
40
0.986127789313195
40
0.993063928193731
40
1
40
1
40
1
40
1
41
1
10
29.9999958616144
20
40.0000027230417
30
0
41
1
10
30.0000043481656
20
39.999997431639
30
0
41
1
10
30.0003826994511
20
39.9997758425434
30
0
41
1
10
30.0021043176507
20
39.9987675059154
30
0
41
1
10
30.0049727809218
20
39.9970876008847
30
0
41
1
10
30.0089896469061
20
39.9947352940429
30
0
41
1
10
30.014156683586
20
39.9917096415608
30
0
41
1
10
30.0204742165116
20
39.9880107170278
30
0
41
1
10
30.0279381705235
20
39.983641171048
30
0
41
1
10
30.0365429130086
20
39.9786045647938
30
0
41
1
10
30.0462854753926
20
39.9729029003043
30
0
41
1
10
30.0571614608964
20
39.966539184412
30
0
41
1
10
30.069173020029
20
39.9595125923336
30
0
41
1
10
30.0823239433515
20
39.9518213419326
30
0
41
1
10
30.0966142287559
20
39.9434658750174
30
0
41
1
10
30.1120424662659
20
39.934447621663
30
0
41
1
10
30.1285983554063
20
39.9247732053925
30
0
41
1
10
30.1462700596309
20
39.9144501433891
30
0
41
1
10
30.1650529893603
20
39.903481716524
30
0
41
1
10
30.1849412361049
20
39.8918721255215
30
0
41
1
10
30.2059393742286
20
39.8796194533827
30
0
41
1
10
30.2280532890978
20
39.8667210248765
30
0
41
1
10
30.2512812834679
20
39.8531786007104
30
0
41
1
10
30.2756203723545
20
39.8389948358477
30
0
41
1
10
30.3010546645845
20
39.824179898629
30
0
41
1
10
30.3280858262091
20
39.8084426333675
30
0
41
1
10
30.35678359704
20
39.7917439102623
30
0
41
1
10
30.3872171081988
20
39.774045285284
30
0
41
1
10
30.4188511440519
20
39.75565942279
30
0
41
1
10
30.4516948813326
20
39.7365822312884
30
0
41
1
10
30.4857446381459
20
39.7168171170626
30
0
41
1
10
30.5209953271381
20
39.6963684444459
30
0
41
1
10
30.5574223446565
20
39.6752518827716
30
0
41
1
10
30.5955921143225
20
39.6531407099928
30
0
41
1
10
30.6355612577375
20
39.6300044153968
30
0
41
1
10
30.6773850094896
20
39.6058136432142
30
0
41
1
10
30.7204611394072
20
39.5809187392034
30
0
41
1
10
30.764802249402
20
39.5553141836661
30
0
41
1
10
30.8104024483809
20
39.529005185976
30
0
41
1
10
30.8572544621101
20
39.5019978695009
30
0
41
1
10
30.9053248017091
20
39.4743134406867
30
0
41
1
10
30.9545779887052
20
39.4459742169202
30
0
41
1
10
31.0050031906487
20
39.4169882965993
30
0
41
1
10
31.0565884535551
20
39.3873644924297
30
0
41
1
10
31.1093484199731
20
39.3570963745809
30
0
41
1
10
31.1632971363246
20
39.3261779016905
30
0
41
1
10
31.2184273738534
20
39.2946152900713
30
0
41
1
10
31.2747308392287
20
39.2624154241301
30
0
41
1
10
31.3321706202956
20
39.2296015194203
30
0
41
1
10
31.3907079902784
20
39.1961977823324
30
0
41
1
10
31.4503316511138
20
39.1622127157375
30
0
41
1
10
31.5110294893645
20
39.1276553013331
30
0
41
1
10
31.5728178218741
20
39.0925183775371
30
0
41
1
10
31.6357115319928
20
39.0567956563668
30
0
41
1
10
31.699702564712
20
39.0204939551339
30
0
41
1
10
31.7647820902152
20
38.9836205368182
30
0
41
1
10
31.830911506757
20
38.9461994908094
30
0
41
1
10
31.899327773572
20
38.9075339675717
30
0
41
1
10
31.970089332144
20
38.8675964879392
30
0
41
1
10
32.043253371839
20
38.8263607211275
30
0
41
1
10
32.1175377480876
20
38.7845529092889
30
0
41
1
10
32.19296042745
20
38.7421655994078
30
0
41
1
10
32.2695115490393
20
38.6992070846457
30
0
41
1
10
32.347180592397
20
38.6556859797767
30
0
41
1
10
32.4259216488343
20
38.6116306725173
30
0
41
1
10
32.5085475106163
20
38.5654724789955
30
0
41
1
10
32.5951817599099
20
38.5171540070356
30
0
41
1
10
32.685948192943
20
38.466618953987
30
0
41
1
10
32.7779634994256
20
38.4154789341955
30
0
41
1
10
32.8712068353364
20
38.3637490909522
30
0
41
1
10
32.9656599964018
20
38.3114431001039
30
0
41
1
10
33.0613092417426
20
38.2585721940918
30
0
41
1
10
33.1581402491107
20
38.2051477247685
30
0
41
1
10
33.2561368509715
20
38.1511820728879
30
0
41
1
10
33.355278901692
20
38.0966898215875
30
0
41
1
10
33.4555488098406
20
38.0416841499962
30
0
41
1
10
33.556933336227
20
37.9861758743623
30
0
41
1
10
33.6594188936253
20
37.9301757624586
30
0
41
1
10
33.7629900884491
20
37.8736955839447
30
0
41
1
10
33.8676276561948
20
37.8167492304449
30
0
41
1
10
33.9740233294086
20
37.7589644394969
30
0
41
1
10
34.0821891283458
20
37.7003409634722
30
0
41
1
10
34.1921360499621
20
37.6408790622886
30
0
41
1
10
34.3031330219038
20
37.580978369186
30
0
41
1
10
34.4151606549789
20
37.5206528034942
30
0
41
1
10
34.5285499861271
20
37.4597279965673
30
0
41
1
10
34.6432992647077
20
37.3982098796723
30
0
41
1
10
34.7594062691529
20
37.3361044255893
30
0
41
1
10
34.876505063255
20
37.2736111554957
30
0
41
1
10
34.9945768975987
20
37.2107434617039
30
0
41
1
10
35.1136054110176
20
37.1475134676032
30
0
41
1
10
35.2335784370668
20
37.0839310865769
30
0
41
1
10
35.354483890597
20
37.0200058618665
30
0
41
1
10
35.4763079536204
20
36.9557482783579
30
0
41
1
10
35.5990330932739
20
36.8911707894558
30
0
41
1
10
35.72264402961
20
36.8262846665611
30
0
41
1
10
35.8471294403382
20
36.7610991194027
30
0
41
1
10
35.9724781639355
20
36.6956229441791
30
0
41
1
10
36.0986773804155
20
36.6298658300632
30
0
41
1
10
36.225710767528
20
36.5638392995253
30
0
41
1
10
36.3541900416283
20
36.4972292689091
30
0
41
1
10
36.4841187478164
20
36.4300398891163
30
0
41
1
10
36.6155000980466
20
36.3622752979181
30
0
41
1
10
36.7476917519984
20
36.2942705733794
30
0
41
1
10
36.8806779148093
20
36.2260368009451
30
0
41
1
10
37.0234339308216
20
36.1529839763513
30
0
41
1
10
37.1761438452514
20
36.0750667128425
30
0
41
1
10
37.3389976732883
20
35.9922418310228
30
0
41
1
10
37.5029299062967
20
35.9091393923325
30
0
41
1
10
37.6679156050253
20
35.8257767271667
30
0
41
1
10
37.8339298512076
20
35.7421711417008
30
0
41
1
10
38.0009508214745
20
35.6583383989545
30
0
41
1
10
38.1689645213052
20
35.5742903416866
30
0
41
1
10
38.3379576579192
20
35.4900376649871
30
0
41
1
10
38.5079150119543
20
35.4055921098428
30
0
41
1
10
38.6788144116588
20
35.3209688886254
30
0
41
1
10
38.8506336870399
20
35.2361832126639
30
0
41
1
10
39.0233535083404
20
35.1512489036575
30
0
41
1
10
39.1969615766579
20
35.0661763319601
30
0
41
1
10
39.3714462937357
20
34.9809747837071
30
0
41
1
10
39.546794222236
20
34.8956545256949
30
0
41
1
10
39.7229856779038
20
34.8102288786809
30
0
41
1
10
39.900000980522
20
34.7247111622497
30
0
41
1
10
40.0790321996818
20
34.638531403344
30
0
41
1
10
40.2600878523907
20
34.5516968413982
30
0
41
1
10
40.4431762664389
20
34.4642143858092
30
0
41
1
10
40.6270700927934
20
34.3766761402862
30
0
41
1
10
40.8117507982943
20
34.2890944545474
30
0
41
1
10
40.9971998543678
20
34.2014816754897
30
0
41
1
10
41.1838906448615
20
34.1136186458777
30
0
41
1
10
41.3718200975862
20
34.0255135651521
30
0
41
1
10
41.560985465552
20
33.9371738903078
30
0
41
1
10
41.7508840197343
20
33.848838440705
30
0
41
1
10
41.9414989715024
20
33.7605182107888
30
0
41
1
10
42.1328135339237
20
33.6722241939641
30
0
41
1
10
42.3248132689263
20
33.5839663112241
30
0
41
1
10
42.517489245253
20
33.4957519528343
30
0
41
1
10
42.7108331543828
20
33.4075876008306
30
0
41
1
10
42.9048350380437
20
33.3194805651011
30
0
41
1
10
43.0994800279485
20
33.2314403962568
30
0
41
1
10
43.2947532772166
20
33.1434766352945
30
0
41
1
10
43.5037011395445
20
33.0497393726067
30
0
41
1
10
43.7264670869302
20
32.9502569254649
30
0
41
1
10
43.9631983491016
20
32.8450643565476
30
0
41
1
10
44.2007740627167
20
32.7400253243667
30
0
41
1
10
44.4391714237338
20
32.6351541666646
30
0
41
1
10
44.6793964245632
20
32.5300149575142
30
0
41
1
10
44.9214476436769
20
32.4246207808467
30
0
41
1
10
45.165323842183
20
32.3189839558956
30
0
41
1
10
45.4099804930836
20
32.2135630681907
30
0
41
1
10
45.6553965715047
20
32.1083710325141
30
0
41
1
10
45.9027704601564
20
32.0029008941788
30
0
41
1
10
46.1521019802299
20
31.8971663660455
30
0
41
1
10
46.4033909545048
20
31.7911806291743
30
0
41
1
10
46.6554020860597
20
31.6854710566678
30
0
41
1
10
46.9081688676562
20
31.5800273011765
30
0
41
1
10
47.1616787917903
20
31.4748586449605
30
0
41
1
10
47.415919914414
20
31.3699735152766
30
0
41
1
10
47.6708269961411
20
31.2654020972596
30
0
41
1
10
47.926333288
20
31.1611748645294
30
0
41
1
10
48.1824265590206
20
31.0572996574301
30
0
41
1
10
48.4390951373487
20
30.9537835155633
30
0
41
1
10
48.6963771592213
20
30.8506137419626
30
0
41
1
10
48.9543020020877
20
30.7477815086216
30
0
41
1
10
49.2128593610869
20
30.6452941829874
30
0
41
1
10
49.4720393794838
20
30.543158434484
30
0
41
1
10
49.7317864128184
20
30.4413988071827
30
0
41
1
10
50.0044498425422
20
30.3352082372209
30
0
41
1
10
50.2901174277408
20
30.2246596564721
30
0
41
1
10
50.588876970105
20
30.1098324038695
30
0
41
1
10
50.8883247424442
20
29.9955293979986
30
0
41
1
10
51.18844095773
20
29.8817612983041
30
0
41
1
10
51.4892058523471
20
29.7685387249181
30
0
41
1
10
51.7905996577064
20
29.6558723023383
30
0
41
1
10
52.0946503751876
20
29.5430125697626
30
0
41
1
10
52.4013653874045
20
29.4299790470889
30
0
41
1
10
52.7107522414079
20
29.3167903183003
30
0
41
1
10
53.0207529331946
20
29.2042072795435
30
0
41
1
10
53.331349668459
20
29.0922389256714
30
0
41
1
10
53.6425246583691
20
28.9808942575366
30
0
41
1
10
53.9542601122834
20
28.8701822686147
30
0
41
1
10
54.2672778758337
20
28.7598512732103
30
0
41
1
10
54.5815762202776
20
28.6499115113085
30
0
41
1
10
54.8971539884889
20
28.5403720321788
30
0
41
1
10
55.2132654953192
20
28.4314955832209
30
0
41
1
10
55.5298952266362
20
28.3232894778467
30
0
41
1
10
55.8470276711668
20
28.2157610364413
30
0
41
1
10
56.1646473158558
20
28.1089175725841
30
0
41
1
10
56.4827413820532
20
28.0027655091363
30
0
41
1
10
56.8013046817592
20
27.8973087094194
30
0
41
1
10
57.1203327201148
20
27.792549913577
30
0
41
1
10
57.4398190211384
20
27.6884926854713
30
0
41
1
10
57.7597502114393
20
27.5851428506562
30
0
41
1
10
58.0801129189783
20
27.4825062411979
30
0
41
1
10
58.4008937705684
20
27.3805886834184
30
0
41
1
10
58.7220819996281
20
27.2793951999808
30
0
41
1
10
59.0436734046672
20
27.1789287296193
30
0
41
1
10
59.3656643286872
20
27.0791912943495
30
0
41
1
10
59.6880491181861
20
26.9801856809508
30
0
41
1
10
60.0108161209835
20
26.8819165328512
30
0
41
1
10
60.3339536855838
20
26.7843884987257
30
0
41
1
10
60.6574501609304
20
26.6876062227095
30
0
41
1
10
60.9825949186954
20
26.5911885589724
30
0
41
1
10
61.3093895483949
20
26.4951482726472
30
0
41
1
10
61.6378357531774
20
26.3994975484483
30
0
41
1
10
61.9666283570227
20
26.3046206761896
30
0
41
1
10
62.2957567266717
20
26.2105214849987
30
0
41
1
10
62.6252102323321
20
26.1172038098052
30
0
41
1
10
62.9549782382756
20
26.0246714730757
30
0
41
1
10
63.2811257629056
20
25.9340191147959
30
0
41
1
10
63.6036361728506
20
25.8452160900489
30
0
41
1
10
63.9224942120019
20
25.7582314072341
30
0
41
1
10
64.2416253669491
20
25.6719846709082
30
0
41
1
10
64.5610210103025
20
25.5864786927423
30
0
41
1
10
64.8806744059652
20
25.5017157986971
30
0
41
1
10
65.2005815447626
20
25.4176976055865
30
0
41
1
10
65.5207385956235
20
25.3344253757773
30
0
41
1
10
65.8411400584009
20
25.2519008539815
30
0
41
1
10
66.1617779256835
20
25.1701264397924
30
0
41
1
10
66.4826460045351
20
25.0891040779788
30
0
41
1
10
66.8037406434887
20
25.0088350888345
30
0
41
1
10
67.1250583397562
20
24.9293204772478
30
0
41
1
10
67.4465939661771
20
24.8505616946173
30
0
41
1
10
67.7683400648914
20
24.7725607720308
30
0
41
1
10
68.1176593459626
20
24.6887531780569
30
0
41
1
10
68.4946135235209
20
24.5993825658397
30
0
41
1
10
68.8992649623819
20
24.5047184958116
30
0
41
1
10
69.3042153385006
20
24.4112568415921
30
0
41
1
10
69.7097252571196
20
24.3189385154826
30
0
41
1
10
70.1157877936022
20
24.2277683604419
30
0
41
1
10
70.5223961362119
20
24.137750738122
30
0
41
1
10
70.9292684167996
20
24.0489488443342
30
0
41
1
10
71.3363941284645
20
23.9613649729761
30
0
41
1
10
71.7437661113739
20
23.8750007374269
30
0
41
1
10
72.1513773538018
20
23.7898572958065
30
0
41
1
10
72.5592184321327
20
23.7059363772104
30
0
41
1
10
72.9672794166363
20
23.6232398417845
30
0
41
1
10
73.3755535526246
20
23.5417689453518
30
0
41
1
10
73.7840341926268
20
23.4615245294655
30
0
41
1
10
74.1927123287565
20
23.3825079630278
30
0
41
1
10
74.6020327923902
20
23.3046342970863
30
0
41
1
10
75.0119899407662
20
23.2279092538785
30
0
41
1
10
75.4225778356647
20
23.152338226182
30
0
41
1
10
75.8333339980701
20
23.0780072411
30
0
41
1
10
76.1072761385066
20
23.0292808483665
30
0
41
1
10
76.2442734140067
20
23.0051245788672
30
0
0
SPLINE
5
14F
100
AcDbEntity
8
1
62
256
6
ByLayer
370
18
48
1
60
0
100
AcDbSpline
70
4
71
3
72
252
73
248
40
0
40
0
40
0
40
0
40
0.0058438692501562
40
0.0116877990043533
40
0.0175317481781361
40
0.0233756765082244
40
0.0292195445639552
40
0.0350634245388113
40
0.0409073672889092
40
0.0467513300814469
40
0.0525952711520099
40
0.0584391497182094
40
0.0642830422955562
40
0.0701270003141232
40
0.0759709791136493
40
0.081814935166884
40
0.0876588260958706
40
0.0935236909490034
40
0.0993886251007991
40
0.105253581131987
40
0.111118512961686
40
0.116983375867232
40
0.122863312032569
40
0.128743321735414
40
0.134623354518543
40
0.140503361495483
40
0.146383295374548
40
0.152263251913922
40
0.158143286296008
40
0.164023344963605
40
0.169903376182054
40
0.175783330068021
40
0.181663310249942
40
0.187543373270387
40
0.193423461975221
40
0.199303521324607
40
0.205183498427533
40
0.211089479063328
40
0.21699554953273
40
0.222901647666857
40
0.228807713795837
40
0.234713690791223
40
0.240738172730322
40
0.246762757394449
40
0.252787373423573
40
0.258811952609966
40
0.26483642995476
40
0.270860952972341
40
0.276885587405714
40
0.282910255612222
40
0.288934883636349
40
0.294959401278334
40
0.300983972418322
40
0.307008665159389
40
0.313033394485638
40
0.319058079706125
40
0.325082644538404
40
0.330134144755708
40
0.335185750835368
40
0.340237406759971
40
0.345289059012193
40
0.350340656617042
40
0.355392151184355
40
0.360470048761361
40
0.365548065425284
40
0.370626137904238
40
0.375704205945265
40
0.380782212367704
40
0.385860103116897
40
0.390938068388997
40
0.396016166497588
40
0.401094326592109
40
0.406172481409291
40
0.411250567339254
40
0.416328524492059
40
0.421406570422522
40
0.426484765589543
40
0.431563030081636
40
0.436641288269317
40
0.441719468887486
40
0.446797505118432
40
0.451923169917381
40
0.457049008528415
40
0.462174927447219
40
0.467300838503814
40
0.472426658970988
40
0.477552311673626
40
0.482323372986894
40
0.487094510297954
40
0.491865644700174
40
0.496636702046778
40
0.501407795103704
40
0.506178970836676
40
0.510950143291445
40
0.515721231878018
40
0.52049236074117
40
0.525263579813315
40
0.530034795183669
40
0.53480591899883
40
0.539603852863301
40
0.544401887143348
40
0.54919991713888
40
0.553997845160707
40
0.557854219302418
40
0.561710680498865
40
0.565567167710813
40
0.569423623189446
40
0.573279992535464
40
0.577136409038283
40
0.580992921521501
40
0.584849462584392
40
0.588705968566294
40
0.592562379616261
40
0.596418844320318
40
0.600275415163401
40
0.604132017498869
40
0.60798858093793
40
0.611845039431991
40
0.615733591949107
40
0.619622265201441
40
0.623510974114981
40
0.627399638635022
40
0.631288183828053
40
0.635105348535321
40
0.638922640234298
40
0.642739969406421
40
0.646557251851188
40
0.650374408796604
40
0.654191642174829
40
0.658009017021149
40
0.661826433484089
40
0.665643797775136
40
0.669461022300226
40
0.67327833401025
40
0.677095803701475
40
0.680913319736399
40
0.684730777389027
40
0.68854807900175
40
0.692412815237571
40
0.696277735087559
40
0.700142708575799
40
0.704007614001608
40
0.707872338139161
40
0.711130099609846
40
0.714388027434513
40
0.717646032594631
40
0.720904030790982
40
0.724161942545012
40
0.7274196933014
40
0.730677559132322
40
0.733935612297659
40
0.737193752488975
40
0.740451884759313
40
0.743709919644954
40
0.746967773288722
40
0.750225757610677
40
0.753483953061708
40
0.75674224656408
40
0.760000531100476
40
0.763258705860135
40
0.766516676386962
40
0.769842198269494
40
0.773167973578255
40
0.776493866431615
40
0.779819748334141
40
0.783145498370801
40
0.786471003404002
40
0.78956097199476
40
0.792651050153272
40
0.795741124535807
40
0.798831087977322
40
0.801924687157384
40
0.80501840478982
40
0.808112118383151
40
0.811205712055129
40
0.814295763662383
40
0.817385942311076
40
0.820476116704687
40
0.823566162509314
40
0.826660420694415
40
0.829754815971464
40
0.83284920675294
40
0.835943458807442
40
0.839033602794348
40
0.842123893269807
40
0.845214179086219
40
0.848304316719577
40
0.85139930445404
40
0.854494449731225
40
0.857589590172661
40
0.860684571312583
40
0.863298122087488
40
0.865911826419628
40
0.868525578235847
40
0.871139275502833
40
0.873752820351778
40
0.876371608545888
40
0.87899056159013
40
0.881609565839468
40
0.884228511732293
40
0.886847293928064
40
0.889319557680766
40
0.891791968540847
40
0.894264425505208
40
0.896736830765948
40
0.899209089822149
40
0.901681392391325
40
0.904153850061468
40
0.906626356603275
40
0.909098808866702
40
0.911571106900927
40
0.914043446576463
40
0.916515948967393
40
0.918988502936615
40
0.921461000238142
40
0.923933335644865
40
0.926457912910438
40
0.928982671003772
40
0.931507486743459
40
0.934032239798459
40
0.93655681283803
40
0.939122342473515
40
0.941688069081686
40
0.944253858913472
40
0.946819580848095
40
0.949385106563529
40
0.951950666582168
40
0.954516429686402
40
0.957082258507089
40
0.959648017799607
40
0.96221357462107
40
0.964779158555242
40
0.96734495032164
40
0.969910809914178
40
0.972476598868339
40
0.97504218044367
40
0.977676430330958
40
0.980310908688027
40
0.982945462247231
40
0.985579938725557
40
0.98821418703699
40
0.990177906425654
40
0.992141657519178
40
0.994105376844085
40
0.996070240624375
40
0.998035136241077
40
1
40
1
40
1
40
1
41
1
10
76.2442734140066
20
-23.0051245788674
30
0
41
1
10
76.1288489245576
20
-23.0254770039851
30
0
41
1
10
75.8980365699962
20
-23.0664757174007
30
0
41
1
10
75.5519284199626
20
-23.1288551783692
30
0
41
1
10
75.2059367564039
20
-23.192115318664
30
0
41
1
10
74.8600680704894
20
-23.2562552364829
30
0
41
1
10
74.5143272668806
20
-23.3212743658668
30
0
41
1
10
74.1687173480261
20
-23.3871725238301
30
0
41
1
10
73.8232414066753
20
-23.4539492781095
30
0
41
1
10
73.477904830319
20
-23.5216037805305
30
0
41
1
10
73.1327148735911
20
-23.5901348290522
30
0
41
1
10
72.7876765010492
20
-23.6595416800571
30
0
41
1
10
72.4427929085873
20
-23.7298239842432
30
0
41
1
10
72.0980673641259
20
-23.8009811251158
30
0
41
1
10
71.753505566981
20
-23.8730120128579
30
0
41
1
10
71.409115128785
20
-23.9459151703906
30
0
41
1
10
71.0644897775603
20
-24.0197778243575
30
0
41
1
10
70.7196336503954
20
-24.0946030905553
30
0
41
1
10
70.374551057818
20
-24.1703937776988
30
0
41
1
10
70.0296593943964
20
-24.2470592705932
30
0
41
1
10
69.6849667920359
20
-24.3245977571124
30
0
41
1
10
69.3401840636331
20
-24.4030750955904
30
0
41
1
10
68.9953155142132
20
-24.4824931404625
30
0
41
1
10
68.650365636847
20
-24.5628533994746
30
0
41
1
10
68.3056356384589
20
-24.6440863162558
30
0
41
1
10
67.9611342421384
20
-24.7261896927713
30
0
41
1
10
67.6168674098747
20
-24.809161992486
30
0
41
1
10
67.2728391794167
20
-24.8930021933739
30
0
41
1
10
66.9290537556707
20
-24.977708893236
30
0
41
1
10
66.5855183318485
20
-25.0632799835473
30
0
41
1
10
66.2422422575678
20
-25.1497128344861
30
0
41
1
10
65.8992319332054
20
-25.2370055621425
30
0
41
1
10
65.5564917777644
20
-25.3251568424951
30
0
41
1
10
65.2140264171065
20
-25.4141649208699
30
0
41
1
10
64.8718436895095
20
-25.5040272379607
30
0
41
1
10
64.5299536831011
20
-25.5947406609296
30
0
41
1
10
64.1878603672968
20
-25.6864377145791
30
0
41
1
10
63.8455701636531
20
-25.7791210982569
30
0
41
1
10
63.5030898727987
20
-25.8727929837689
30
0
41
1
10
63.1609307035225
20
-25.9673141766002
30
0
41
1
10
62.8191037593562
20
-26.0626809048996
30
0
41
1
10
62.4753333894649
20
-26.159533650562
30
0
41
1
10
62.1296330914817
20
-26.2578901112325
30
0
41
1
10
61.7820173772272
20
-26.357767329915
30
0
41
1
10
61.4347773814838
20
-26.4585123484516
30
0
41
1
10
61.0879260071555
20
-26.560120406527
30
0
41
1
10
60.7414721421828
20
-26.66258792214
30
0
41
1
10
60.3954223234812
20
-26.765912093063
30
0
41
1
10
60.0497834961672
20
-26.8700893998562
30
0
41
1
10
59.7045670693767
20
-26.9751150116721
30
0
41
1
10
59.3597872683636
20
-27.0809832661093
30
0
41
1
10
59.0154539301354
20
-27.1876898504645
30
0
41
1
10
58.6715744379106
20
-27.2952313069883
30
0
41
1
10
58.3281566690852
20
-27.4036033443456
30
0
41
1
10
57.9852134085571
20
-27.5128001569869
30
0
41
1
10
57.6427604633132
20
-27.6228150049821
30
0
41
1
10
57.3192199629236
20
-27.7276755842881
30
0
41
1
10
57.0145092028383
20
-27.8272321374561
30
0
41
1
10
56.728546603388
20
-27.9213474232188
30
0
41
1
10
56.4429547525792
20
-28.0160244612005
30
0
41
1
10
56.1577440322426
20
-28.1112585310787
30
0
41
1
10
55.8729248414417
20
-28.207044907115
30
0
41
1
10
55.5880092527631
20
-28.3035476413128
30
0
41
1
10
55.3030043139012
20
-28.4007673744642
30
0
41
1
10
55.0179176575358
20
-28.4987039980925
30
0
41
1
10
54.7332525078129
20
-28.5971841772261
30
0
41
1
10
54.449020741757
20
-28.6962021917509
30
0
41
1
10
54.1652342359889
20
-28.795752321957
30
0
41
1
10
53.8819003816497
20
-28.8958304229449
30
0
41
1
10
53.5990246429353
20
-28.9964331220345
30
0
41
1
10
53.3166130032887
20
-29.0975562351859
30
0
41
1
10
53.0346764413617
20
-29.1991938030266
30
0
41
1
10
52.7532284015432
20
-29.3013389986243
30
0
41
1
10
52.4722823284
20
-29.4039849954811
30
0
41
1
10
52.191846626343
20
-29.5071268095181
30
0
41
1
10
51.9119276808908
20
-29.6107603041429
30
0
41
1
10
51.6325325021906
20
-29.7148803853419
30
0
41
1
10
51.3536737413546
20
-29.8194798688804
30
0
41
1
10
51.0753667087419
20
-29.9245505968942
30
0
41
1
10
50.7976267136531
20
-30.0300844130831
30
0
41
1
10
50.5195987857771
20
-30.1364059520493
30
0
41
1
10
50.2412967392507
20
-30.2435151365638
30
0
41
1
10
49.9627355922768
20
-30.3514105218326
30
0
41
1
10
49.6847931133462
20
-30.4597511664348
30
0
41
1
10
49.4074873456753
20
-30.568527029599
30
0
41
1
10
49.1308363419568
20
-30.6777280457849
30
0
41
1
10
48.8612178820197
20
-30.7848181834526
30
0
41
1
10
48.5985896977575
20
-30.8897574733908
30
0
41
1
10
48.3429084942984
20
-30.9925078905585
30
0
41
1
10
48.0878387960972
20
-31.0955981019948
30
0
41
1
10
47.8333936789005
20
-31.19902002213
30
0
41
1
10
47.5795842944421
20
-31.3027664152727
30
0
41
1
10
47.326422316707
20
-31.4068292683848
30
0
41
1
10
47.0739231618962
20
-31.511199060589
30
0
41
1
10
46.822101190289
20
-31.6158667260716
30
0
41
1
10
46.5709687142789
20
-31.7208241060887
30
0
41
1
10
46.3205386333328
20
-31.8260621814978
30
0
41
1
10
46.0708279168227
20
-31.9315702542533
30
0
41
1
10
45.8213868053156
20
-32.0375359154934
30
0
41
1
10
45.5722337964155
20
-32.1439516259308
30
0
41
1
10
45.3233883643957
20
-32.2508086916376
30
0
41
1
10
45.0753337044797
20
-32.3578966321432
30
0
41
1
10
44.8442614870252
20
-32.4581841580202
30
0
41
1
10
44.6300095309981
20
-32.5516153953932
30
0
41
1
10
44.432422161113
20
-32.6381440321184
30
0
41
1
10
44.2353848865543
20
-32.7247949081053
30
0
41
1
10
44.0389102236477
20
-32.8115601848895
30
0
41
1
10
43.8430075879154
20
-32.8984333942849
30
0
41
1
10
43.6476848125443
20
-32.9854088129751
30
0
41
1
10
43.4529501640312
20
-33.0724800901156
30
0
41
1
10
43.2588154482774
20
-33.1596393076243
30
0
41
1
10
43.0652944985846
20
-33.2468776495277
30
0
41
1
10
42.8723977340906
20
-33.3341878400901
30
0
41
1
10
42.6801338989581
20
-33.4215634084134
30
0
41
1
10
42.4885122134971
20
-33.5089971912569
30
0
41
1
10
42.2975457791281
20
-33.5964802710371
30
0
41
1
10
42.1072498824697
20
-33.6840027426034
30
0
41
1
10
41.9171110886441
20
-33.7717988301804
30
0
41
1
10
41.7271458400783
20
-33.8598614776708
30
0
41
1
10
41.5373714986686
20
-33.9481826090852
30
0
41
1
10
41.3483260181823
20
-34.0365094650041
30
0
41
1
10
41.160026745074
20
-34.1248306311764
30
0
41
1
10
40.9736354837568
20
-34.2125958038788
30
0
41
1
10
40.7891471263777
20
-34.2997969515005
30
0
41
1
10
40.6065563633437
20
-34.3864258197771
30
0
41
1
10
40.4247349693678
20
-34.4730121411018
30
0
41
1
10
40.2437011000541
20
-34.5595437976708
30
0
41
1
10
40.0634685748993
20
-34.6460107468135
30
0
41
1
10
39.8840492479834
20
-34.7324039435062
30
0
41
1
10
39.705455551449
20
-34.8187134765455
30
0
41
1
10
39.5277048811835
20
-34.9049270576088
30
0
41
1
10
39.3508173184242
20
-34.9910311109986
30
0
41
1
10
39.1748081968604
20
-35.0770143745875
30
0
41
1
10
38.9996907650736
20
-35.1628666626413
30
0
41
1
10
38.8254788749258
20
-35.2485768616599
30
0
41
1
10
38.6521918207895
20
-35.3341312049254
30
0
41
1
10
38.4798518002075
20
-35.4195145085264
30
0
41
1
10
38.3077674795419
20
-35.5050663136429
30
0
41
1
10
38.1359677731023
20
-35.5907723891142
30
0
41
1
10
37.9644830987425
20
-35.676616918805
30
0
41
1
10
37.7940398399405
20
-35.7622326223282
30
0
41
1
10
37.6246634722449
20
-35.8476018900652
30
0
41
1
10
37.465185054683
20
-35.9282539126128
30
0
41
1
10
37.3154290714105
20
-36.0042231277752
30
0
41
1
10
37.1752243664588
20
-36.0755466970323
30
0
41
1
10
37.0358275375501
20
-36.1466568135908
30
0
41
1
10
36.8972553903212
20
-36.217541738355
30
0
41
1
10
36.7595247513157
20
-36.2881897210227
30
0
41
1
10
36.6226475860573
20
-36.3585915092986
30
0
41
1
10
36.4866341593108
20
-36.428738767835
30
0
41
1
10
36.3514950684542
20
-36.4986225188144
30
0
41
1
10
36.2172463362228
20
-36.5682310000781
30
0
41
1
10
36.0839064750102
20
-36.6375511678939
30
0
41
1
10
35.9514939987508
20
-36.7065699774261
30
0
41
1
10
35.8200221539278
20
-36.7752771352338
30
0
41
1
10
35.6895024012925
20
-36.8436633213381
30
0
41
1
10
35.5599464496752
20
-36.9117186056343
30
0
41
1
10
35.4313718870438
20
-36.9794299960304
30
0
41
1
10
35.3037989854022
20
-37.0467830955356
30
0
41
1
10
35.1772480171661
20
-37.1137635071437
30
0
41
1
10
35.0508680326177
20
-37.1808190906337
30
0
41
1
10
34.9246970832194
20
-37.2479299989124
30
0
41
1
10
34.7987747787461
20
-37.3150748521581
30
0
41
1
10
34.6739795945375
20
-37.3817820823829
30
0
41
1
10
34.5503349966557
20
-37.4480349101504
30
0
41
1
10
34.4278644339746
20
-37.51381655484
30
0
41
1
10
34.3094502972893
20
-37.5775710108139
30
0
41
1
10
34.1950116015329
20
-37.6393253017389
30
0
41
1
10
34.0844659158741
20
-37.69910811593
30
0
41
1
10
33.9749949224151
20
-37.7584367328555
30
0
41
1
10
33.8665736312
20
-37.8173211987177
30
0
41
1
10
33.7592187924392
20
-37.8757490798751
30
0
41
1
10
33.6529470374887
20
-37.9337077610396
30
0
41
1
10
33.5478185237101
20
-37.9911607893402
30
0
41
1
10
33.4438913108381
20
-38.0480727290687
30
0
41
1
10
33.3411798427225
20
-38.1044318888544
30
0
41
1
10
33.2396981828956
20
-38.1602265873308
30
0
41
1
10
33.1394258140135
20
-38.2154642931048
30
0
41
1
10
33.0403367518027
20
-38.270155628717
30
0
41
1
10
32.9424495883332
20
-38.3242867862615
30
0
41
1
10
32.8457825187805
20
-38.3778439767253
30
0
41
1
10
32.7503993550686
20
-38.4307880423627
30
0
41
1
10
32.6563614285141
20
-38.4830810775051
30
0
41
1
10
32.5636839661941
20
-38.534710676721
30
0
41
1
10
32.4723814317588
20
-38.5856647235793
30
0
41
1
10
32.3824325129784
20
-38.6359512029013
30
0
41
1
10
32.2938109406709
20
-38.6855810052135
30
0
41
1
10
32.206536908085
20
-38.7345391574935
30
0
41
1
10
32.120629781593
20
-38.7828110218818
30
0
41
1
10
32.0361552826601
20
-38.8303558278898
30
0
41
1
10
31.9574384130851
20
-38.8747315664518
30
0
41
1
10
31.8842424808711
20
-38.9160551947116
30
0
41
1
10
31.8163391013306
20
-38.9544413552848
30
0
41
1
10
31.7495056580823
20
-38.9922716539144
30
0
41
1
10
31.6837561171699
20
-39.0295358807097
30
0
41
1
10
31.6190591699592
20
-39.0662495215121
30
0
41
1
10
31.5554274975647
20
-39.1024031993997
30
0
41
1
10
31.4928728804784
20
-39.1379880343062
30
0
41
1
10
31.431449364646
20
-39.1729710467657
30
0
41
1
10
31.3711708147059
20
-39.2073420833218
30
0
41
1
10
31.3131516588737
20
-39.2404627296141
30
0
41
1
10
31.2573272419548
20
-39.2723652685768
30
0
41
1
10
31.2036316462212
20
-39.3030831508849
30
0
41
1
10
31.1509929071943
20
-39.3332271535987
30
0
41
1
10
31.0994223284522
20
-39.362788984308
30
0
41
1
10
31.0489292904098
20
-39.3917614576165
30
0
41
1
10
30.9995220892119
20
-39.4201380049596
30
0
41
1
10
30.9512078540952
20
-39.4479127964591
30
0
41
1
10
30.9039958545158
20
-39.4750787885055
30
0
41
1
10
30.8578968506179
20
-39.5016280777377
30
0
41
1
10
30.8129198089571
20
-39.5275537983013
30
0
41
1
10
30.7690726901753
20
-39.5528496575445
30
0
41
1
10
30.7263620829971
20
-39.5775102596889
30
0
41
1
10
30.6847965713218
20
-39.6015290730646
30
0
41
1
10
30.6443861492996
20
-39.6248987485455
30
0
41
1
10
30.6048629613017
20
-39.6477727465546
30
0
41
1
10
30.5662634528603
20
-39.6701288060156
30
0
41
1
10
30.5286232500714
20
-39.6919451970497
30
0
41
1
10
30.4922184137193
20
-39.7130605335107
30
0
41
1
10
30.4570585201393
20
-39.7334677670612
30
0
41
1
10
30.4229684465027
20
-39.7532671264632
30
0
41
1
10
30.3899793629617
20
-39.7724392426974
30
0
41
1
10
30.3581210078187
20
-39.79096571399
30
0
41
1
10
30.3275770452796
20
-39.8087384611533
30
0
41
1
10
30.2983561244922
20
-39.8257511131497
30
0
41
1
10
30.2704655825225
20
-39.8419980671909
30
0
41
1
10
30.2439120899834
20
-39.8574740994548
30
0
41
1
10
30.2187000272116
20
-39.8721755689307
30
0
41
1
10
30.1948353041307
20
-39.8860979561178
30
0
41
1
10
30.1723249123689
20
-39.8992361075035
30
0
41
1
10
30.1511748379498
20
-39.9115854598941
30
0
41
1
10
30.131390608609
20
-39.9231417097067
30
0
41
1
10
30.1129752731112
20
-39.9339022831235
30
0
41
1
10
30.0959331124356
20
-39.9438638967845
30
0
41
1
10
30.08026925401
20
-39.9530227696428
30
0
41
1
10
30.0658607560288
20
-39.9614500298744
30
0
41
1
10
30.0527554847946
20
-39.9691169488778
30
0
41
1
10
30.0409993435442
20
-39.9759962206399
30
0
41
1
10
30.0307098672281
20
-39.9820185795302
30
0
41
1
10
30.021890334182
20
-39.9871816054249
30
0
41
1
10
30.0151671846631
20
-39.9911179973244
30
0
41
1
10
30.0101366683774
20
-39.9940636119098
30
0
41
1
10
30.0064400584262
20
-39.9962283428564
30
0
41
1
10
30.0035634186467
20
-39.9979130111494
30
0
41
1
10
30.0015079264973
20
-39.9991168281225
30
0
41
1
10
30.0002742065069
20
-39.999839396652
30
0
41
1
10
30.000004324463
20
-39.9999974517498
30
0
41
1
10
29.9999958328363
20
-40.0000027349981
30
0
0
SPLINE
5
150
100
AcDbEntity
8
1
62
256
6
ByLayer
370
18
48
1
60
0
100
AcDbSpline
70
4
71
3
72
32
73
28
40
0
40
0
40
0
40
0
40
0.0279358327666883
40
0.0559804005674985
40
0.0840386371933361
40
0.111993180111357
40
0.139537733538577
40
0.167166613059516
40
0.194849526024066
40
0.22252601877767
40
0.250110633520118
40
0.28639294637358
40
0.322754620012732
40
0.359193443336449
40
0.395673872650644
40
0.43213169164935
40
0.468478269620292
40
0.520499116177718
40
0.572571606617641
40
0.624662854496259
40
0.676709303083594
40
0.729953916682438
40
0.783224017200521
40
0.836501052261517
40
0.889755126357008
40
0.944877202000216
40
1
40
1
40
1
40
1
41
1
10
10.5386751345947
20
-12.1330899674707
30
0
41
1
10
10.5316928385777
20
-12.1331033898067
30
0
41
1
10
10.5177660239751
20
-12.1337178436171
30
0
41
1
10
10.4969840681946
20
-12.1364587193395
30
0
41
1
10
10.476533842253
20
-12.1408701167656
30
0
41
1
10
10.4566577059931
20
-12.1468605478676
30
0
41
1
10
10.4374602835935
20
-12.1543254592321
30
0
41
1
10
10.4189435516989
20
-12.1630628605353
30
0
41
1
10
10.4010554288832
20
-12.1729744989798
30
0
41
1
10
10.3838512477055
20
-12.1839068415225
30
0
41
1
10
10.3656243720801
20
-12.1969889376529
30
0
41
1
10
10.3466094637266
20
-12.2124373722973
30
0
41
1
10
10.3270356376862
20
-12.2304172917912
30
0
41
1
10
10.3085138034893
20
-12.2494391307676
30
0
41
1
10
10.2910055915047
20
-12.2693353815807
30
0
41
1
10
10.2744754174289
20
-12.2899426194668
30
0
41
1
10
10.2566124973915
20
-12.3141818536226
30
0
41
1
10
10.237797983308
20
-12.3422714986356
30
0
41
1
10
10.2184517574191
20
-12.3744041037682
30
0
41
1
10
10.2005576594333
20
-12.4072844878075
30
0
41
1
10
10.1838657652474
20
-12.4410267333047
30
0
41
1
10
10.1682854369997
20
-12.475538721311
30
0
41
1
10
10.1537786880368
20
-12.51077222854
30
0
41
1
10
10.1403893978108
20
-12.5463933454145
30
0
41
1
10
10.1278958063971
20
-12.5827554432533
30
0
41
1
10
10.1162746909551
20
-12.6198230095601
30
0
41
1
10
10.1090889401362
20
-12.6449787321592
30
0
41
1
10
10.1056624327023
20
-12.6576002058703
30
0
0
SPLINE
5
151
100
AcDbEntity
8
1
62
256
6
ByLayer
370
18
48
1
60
0
100
AcDbSpline
70
4
71
3
72
33
73
29
40
0
40
0
40
0
40
0
40
0.0571907005370669
40
0.11440296575887
40
0.171609306278488
40
0.228791924477215
40
0.275313157751168
40
0.32187350752176
40
0.368435779619175
40
0.414974589841939
40
0.461477743167614
40
0.498026980896967
40
0.534622877983725
40
0.571220033738529
40
0.607788139840665
40
0.644314040657373
40
0.675065310527169
40
0.705932493117013
40
0.736826050654178
40
0.767679644662455
40
0.798454446381748
40
0.829143927291175
40
0.857825540924768
40
0.886596851154666
40
0.915346107721533
40
0.943997549822211
40
0.971999491399347
40
1
40
1
40
1
40
1
41
1
10
13.8943375672974
20
-12.6576002058703
30
0
41
1
10
13.8907841242608
20
-12.6445044475136
30
0
41
1
10
13.8833159387736
20
-12.6184025954247
30
0
41
1
10
13.8710666654191
20
-12.5795092140367
30
0
41
1
10
13.8576708965622
20
-12.5409482831065
30
0
41
1
10
13.8439715223564
20
-12.5051507511524
30
0
41
1
10
13.8301639430999
20
-12.4720797163515
30
0
41
1
10
13.8164198986312
20
-12.4416950237184
30
0
41
1
10
13.8016865539932
20
-12.4117185859072
30
0
41
1
10
13.7859009557964
20
-12.3822367638215
30
0
41
1
10
13.7702009505515
20
-12.3553909102554
30
0
41
1
10
13.7547939636048
20
-12.3311044807656
30
0
41
1
10
13.7398636281584
20
-12.3092998020362
30
0
41
1
10
13.7240707588632
20
-12.2880415239837
30
0
41
1
10
13.7073700751953
20
-12.2674368488671
30
0
41
1
10
13.6906439405957
20
-12.2486288557116
30
0
41
1
10
13.6739945935633
20
-12.2315632427612
30
0
41
1
10
13.6575297538272
20
-12.2161867217461
30
0
41
1
10
13.6402424682212
20
-12.2016106480337
30
0
41
1
10
13.6221399220076
20
-12.1879915570934
30
0
41
1
10
13.6032282584301
20
-12.1754887731075
30
0
41
1
10
13.5839366042781
20
-12.1644897475109
30
0
41
1
10
13.5643000236855
20
-12.1550732247474
30
0
41
1
10
13.5444220490202
20
-12.1472628227277
30
0
41
1
10
13.5239608372308
20
-12.1409773729727
30
0
41
1
10
13.5031965979453
20
-12.1364236601327
30
0
41
1
10
13.4822556471826
20
-12.1337021422721
30
0
41
1
10
13.4683234602929
20
-12.1330961985736
30
0
41
1
10
13.4613248654051
20
-12.1330899674705
30
0
0
SPLINE
5
152
100
AcDbEntity
8
1
62
256
6
ByLayer
370
18
48
1
60
0
100
AcDbSpline
70
4
71
3
72
32
73
28
40
0
40
0
40
0
40
0
40
0.0279358327666863
40
0.0559804005674963
40
0.0840386371933347
40
0.111993180111351
40
0.139537733538556
40
0.167166613059455
40
0.194849526023984
40
0.222526018777556
40
0.250110633519979
40
0.286392946373468
40
0.322754620012635
40
0.359193443336369
40
0.395673872650584
40
0.432131691649303
40
0.468478269620268
40
0.520499116177687
40
0.572571606617607
40
0.624662854496225
40
0.676709303083558
40
0.72995391668239
40
0.783224017200463
40
0.83650105226145
40
0.889755126356936
40
0.94487720200018
40
1
40
1
40
1
40
1
41
1
10
13.4613248654051
20
-38.1154578595254
30
0
41
1
10
13.4683071614221
20
-38.1154536416902
30
0
41
1
10
13.4822339760247
20
-38.1152580661367
30
0
41
1
10
13.5030159318052
20
-38.114385571606
30
0
41
1
10
13.5234661577468
20
-38.1129805723609
30
0
41
1
10
13.5433422940066
20
-38.1110718101415
30
0
41
1
10
13.5625397164062
20
-38.1086918579133
30
0
41
1
10
13.5810564483009
20
-38.1059040903816
30
0
41
1
10
13.5989445711165
20
-38.1027390546301
30
0
41
1
10
13.6161487522942
20
-38.0992448357252
30
0
41
1
10
13.6343756279195
20
-38.0950592577389
30
0
41
1
10
13.6533905362731
20
-38.0901098080416
30
0
41
1
10
13.6729643623135
20
-38.084340039738
30
0
41
1
10
13.6914861965105
20
-38.0782260362957
30
0
41
1
10
13.7089944084951
20
-38.0718202025023
30
0
41
1
10
13.7255245825709
20
-38.0651737004152
30
0
41
1
10
13.7433875026083
20
-38.0573408062414
30
0
41
1
10
13.7622020166919
20
-38.0482415427357
30
0
41
1
10
13.7815482425807
20
-38.0378032737805
30
0
41
1
10
13.7994423405664
20
-38.0270913909747
30
0
41
1
10
13.8161342347523
20
-38.0160662216742
30
0
41
1
10
13.831714563
20
-38.0047546474494
30
0
41
1
10
13.8462213119629
20
-37.9931707479265
30
0
41
1
10
13.8596106021889
20
-37.9814228058394
30
0
41
1
10
13.8721041936027
20
-37.969392492314
30
0
41
1
10
13.8837253090446
20
-37.9570888321412
30
0
41
1
10
13.8909110598636
20
-37.9487112029294
30
0
41
1
10
13.8943375672974
20
-37.9445010117191
30
0
0
SPLINE
5
153
100
AcDbEntity
8
1
62
256
6
ByLayer
370
18
48
1
60
0
100
AcDbSpline
70
4
71
3
72
33
73
29
40
0
40
0
40
0
40
0
40
0.0571907005370561
40
0.114402965758844
40
0.171609306278445
40
0.228791924477159
40
0.2753131577511
40
0.321873507521677
40
0.368435779619084
40
0.414974589841837
40
0.461477743167498
40
0.498026980896861
40
0.534622877983633
40
0.571220033738452
40
0.607788139840595
40
0.644314040657318
40
0.675065310527158
40
0.705932493117043
40
0.736826050654252
40
0.767679644662569
40
0.798454446381909
40
0.829143927291383
40
0.857825540924924
40
0.886596851154768
40
0.915346107721581
40
0.943997549822201
40
0.971999491399339
40
1
40
1
40
1
40
1
41
1
10
10.1056624327026
20
-37.9445010117191
30
0
41
1
10
10.1092158757392
20
-37.9488693667472
30
0
41
1
10
10.1166840612263
20
-37.9575615036332
30
0
41
1
10
10.1289333345808
20
-37.9704685706119
30
0
41
1
10
10.1423291034376
20
-37.9832219603752
30
0
41
1
10
10.1560284776434
20
-37.9950213810083
30
0
41
1
10
10.1698360568999
20
-38.0058884717533
30
0
41
1
10
10.1835801013686
20
-38.0158457139134
30
0
41
1
10
10.1983134460065
20
-38.0256430929386
30
0
41
1
10
10.2140990442033
20
-38.0352535525477
30
0
41
1
10
10.2297990494482
20
-38.0439819543924
30
0
41
1
10
10.2452060363949
20
-38.0518597383837
30
0
41
1
10
10.2601363718413
20
-38.058918533667
30
0
41
1
10
10.2759292411366
20
-38.0657873743983
30
0
41
1
10
10.2926299248044
20
-38.0724327061622
30
0
41
1
10
10.309356059404
20
-38.0784875698854
30
0
41
1
10
10.3260054064365
20
-38.0839721903844
30
0
41
1
10
10.3424702461726
20
-38.0889068555107
30
0
41
1
10
10.3597575317786
20
-38.0935785103091
30
0
41
1
10
10.3778600779922
20
-38.097938129569
30
0
41
1
10
10.3967717415698
20
-38.101935844048
30
0
41
1
10
10.4160633957218
20
-38.105448813318
30
0
41
1
10
10.4356999763144
20
-38.1084534225441
30
0
41
1
10
10.4555779509797
20
-38.1109436866621
30
0
41
1
10
10.476039162769
20
-38.1129463830293
30
0
41
1
10
10.4968034020544
20
-38.1143965521826
30
0
41
1
10
10.5177443528171
20
-38.1152630057628
30
0
41
1
10
10.5316765397069
20
-38.1154559066726
30
0
41
1
10
10.5386751345946
20
-38.1154578595255
30
0
0
SPLINE
5
154
100
AcDbEntity
8
1
62
256
6
ByLayer
370
18
48
1
60
0
100
AcDbSpline
70
4
71
3
72
32
73
28
40
0
40
0
40
0
40
0
40
0.0279358327667428
40
0.0559804005676131
40
0.0840386371935053
40
0.111993180111584
40
0.139537733538757
40
0.167166613059643
40
0.194849526024143
40
0.222526018777701
40
0.250110633520103
40
0.286392946373564
40
0.322754620012715
40
0.359193443336432
40
0.395673872650626
40
0.432131691649332
40
0.468478269620274
40
0.520499116177688
40
0.572571606617593
40
0.624662854496195
40
0.67670930308351
40
0.72995391668236
40
0.783224017200449
40
0.836501052261452
40
0.88975512635696
40
0.944877202000192
40
1
40
1
40
1
40
1
41
1
10
10.5386751345948
20
38.1154578595255
30
0
41
1
10
10.5316928385778
20
38.1154536416903
30
0
41
1
10
10.5177660239751
20
38.1152580661368
30
0
41
1
10
10.4969840681946
20
38.1143855716061
30
0
41
1
10
10.4765338422529
20
38.1129805723609
30
0
41
1
10
10.4566577059931
20
38.1110718101415
30
0
41
1
10
10.4374602835935
20
38.1086918579133
30
0
41
1
10
10.4189435516989
20
38.1059040903817
30
0
41
1
10
10.4010554288832
20
38.1027390546301
30
0
41
1
10
10.3838512477055
20
38.0992448357252
30
0
41
1
10
10.3656243720802
20
38.0950592577389
30
0
41
1
10
10.3466094637267
20
38.0901098080416
30
0
41
1
10
10.3270356376863
20
38.084340039738
30
0
41
1
10
10.3085138034894
20
38.0782260362958
30
0
41
1
10
10.2910055915048
20
38.0718202025024
30
0
41
1
10
10.274475417429
20
38.0651737004153
30
0
41
1
10
10.2566124973916
20
38.0573408062415
30
0
41
1
10
10.237797983308
20
38.0482415427358
30
0
41
1
10
10.2184517574192
20
38.0378032737806
30
0
41
1
10
10.2005576594334
20
38.0270913909747
30
0
41
1
10
10.1838657652474
20
38.0160662216743
30
0
41
1
10
10.1682854369997
20
38.0047546474495
30
0
41
1
10
10.153778688037
20
37.9931707479266
30
0
41
1
10
10.140389397811
20
37.9814228058394
30
0
41
1
10
10.1278958063973
20
37.9693924923141
30
0
41
1
10
10.1162746909553
20
37.9570888321413
30
0
41
1
10
10.1090889401363
20
37.9487112029294
30
0
41
1
10
10.1056624327024
20
37.9445010117191
30
0
0
SPLINE
5
155
100
AcDbEntity
8
1
62
256
6
ByLayer
370
18
48
1
60
0
100
AcDbSpline
70
4
71
3
72
33
73
29
40
0
40
0
40
0
40
0
40
0.0571907005370679
40
0.114402965758874
40
0.171609306278488
40
0.228791924477221
40
0.275313157751184
40
0.321873507521783
40
0.368435779619214
40
0.414974589841992
40
0.46147774316768
40
0.498026980897008
40
0.53462287798374
40
0.571220033738524
40
0.60778813984063
40
0.644314040657305
40
0.675065310527158
40
0.705932493117052
40
0.736826050654279
40
0.767679644662611
40
0.798454446381969
40
0.829143927291453
40
0.857825540924954
40
0.886596851154754
40
0.915346107721519
40
0.943997549822096
40
0.971999491399287
40
1
40
1
40
1
40
1
41
1
10
13.8943375672974
20
37.9445010117191
30
0
41
1
10
13.8907841242608
20
37.9488693667473
30
0
41
1
10
13.8833159387737
20
37.9575615036333
30
0
41
1
10
13.8710666654192
20
37.970468570612
30
0
41
1
10
13.8576708965623
20
37.9832219603753
30
0
41
1
10
13.8439715223566
20
37.9950213810084
30
0
41
1
10
13.8301639431
20
38.0058884717534
30
0
41
1
10
13.8164198986313
20
38.0158457139135
30
0
41
1
10
13.8016865539932
20
38.0256430929387
30
0
41
1
10
13.7859009557964
20
38.0352535525477
30
0
41
1
10
13.7702009505515
20
38.0439819543925
30
0
41
1
10
13.7547939636048
20
38.0518597383838
30
0
41
1
10
13.7398636281585
20
38.0589185336671
30
0
41
1
10
13.7240707588632
20
38.0657873743983
30
0
41
1
10
13.7073700751955
20
38.0724327061623
30
0
41
1
10
13.6906439405958
20
38.0784875698855
30
0
41
1
10
13.6739945935634
20
38.0839721903845
30
0
41
1
10
13.6575297538273
20
38.0889068555108
30
0
41
1
10
13.6402424682212
20
38.0935785103091
30
0
41
1
10
13.6221399220076
20
38.0979381295691
30
0
41
1
10
13.60322825843
20
38.1019358440481
30
0
41
1
10
13.583936604278
20
38.105448813318
30
0
41
1
10
13.5643000236854
20
38.1084534225442
30
0
41
1
10
13.5444220490202
20
38.1109436866622
30
0
41
1
10
13.5239608372309
20
38.1129463830294
30
0
41
1
10
13.5031965979455
20
38.1143965521827
30
0
41
1
10
13.4822556471828
20
38.1152630057628
30
0
41
1
10
13.468323460293
20
38.1154559066727
30
0
41
1
10
13.4613248654052
20
38.1154578595256
30
0
0
SPLINE
5
156
100
AcDbEntity
8
1
62
256
6
ByLayer
370
18
48
1
60
0
100
AcDbSpline
70
4
71
3
72
32
73
28
40
0
40
0
40
0
40
0
40
0.0279358327667548
40
0.0559804005676332
40
0.084038637193537
40
0.111993180111623
40
0.13953773353883
40
0.167166613059731
40
0.194849526024263
40
0.222526018777839
40
0.250110633520268
40
0.286392946373713
40
0.322754620012842
40
0.359193443336531
40
0.395673872650709
40
0.432131691649395
40
0.468478269620318
40
0.520499116177722
40
0.572571606617625
40
0.624662854496228
40
0.67670930308354
40
0.729953916682377
40
0.783224017200456
40
0.836501052261453
40
0.889755126356946
40
0.944877202000185
40
1
40
1
40
1
40
1
41
1
10
13.461324865405
20
12.1330899674707
30
0
41
1
10
13.468307161422
20
12.1331033898067
30
0
41
1
10
13.4822339760247
20
12.1337178436172
30
0
41
1
10
13.5030159318052
20
12.1364587193395
30
0
41
1
10
13.5234661577469
20
12.1408701167656
30
0
41
1
10
13.5433422940068
20
12.1468605478676
30
0
41
1
10
13.5625397164064
20
12.1543254592322
30
0
41
1
10
13.581056448301
20
12.1630628605354
30
0
41
1
10
13.5989445711167
20
12.1729744989798
30
0
41
1
10
13.6161487522944
20
12.1839068415225
30
0
41
1
10
13.6343756279197
20
12.1969889376529
30
0
41
1
10
13.6533905362732
20
12.2124373722973
30
0
41
1
10
13.6729643623136
20
12.2304172917913
30
0
41
1
10
13.6914861965105
20
12.2494391307677
30
0
41
1
10
13.7089944084951
20
12.2693353815807
30
0
41
1
10
13.7255245825709
20
12.2899426194668
30
0
41
1
10
13.7433875026083
20
12.3141818536227
30
0
41
1
10
13.7622020166918
20
12.3422714986356
30
0
41
1
10
13.7815482425807
20
12.3744041037682
30
0
41
1
10
13.7994423405665
20
12.4072844878075
30
0
41
1
10
13.8161342347524
20
12.4410267333046
30
0
41
1
10
13.8317145630001
20
12.475538721311
30
0
41
1
10
13.8462213119629
20
12.51077222854
30
0
41
1
10
13.8596106021889
20
12.5463933454145
30
0
41
1
10
13.8721041936026
20
12.5827554432534
30
0
41
1
10
13.8837253090446
20
12.6198230095602
30
0
41
1
10
13.8909110598636
20
12.6449787321593
30
0
41
1
10
13.8943375672975
20
12.6576002058704
30
0
0
SPLINE
5
157
100
AcDbEntity
8
1
62
256
6
ByLayer
370
18
48
1
60
0
100
AcDbSpline
70
4
71
3
72
33
73
29
40
0
40
0
40
0
40
0
40
0.0571907005370717
40
0.114402965758885
40
0.171609306278508
40
0.228791924477241
40
0.275313157751213
40
0.32187350752182
40
0.368435779619252
40
0.414974589842031
40
0.461477743167727
40
0.498026980897048
40
0.53462287798376
40
0.571220033738526
40
0.607788139840616
40
0.644314040657271
40
0.675065310527129
40
0.705932493117031
40
0.736826050654257
40
0.767679644662595
40
0.798454446381956
40
0.829143927291449
40
0.857825540924989
40
0.886596851154837
40
0.915346107721647
40
0.943997549822271
40
0.971999491399377
40
1
40
1
40
1
40
1
41
1
10
10.1056624327025
20
12.6576002058704
30
0
41
1
10
10.1092158757391
20
12.6445044475137
30
0
41
1
10
10.1166840612263
20
12.6184025954248
30
0
41
1
10
10.1289333345807
20
12.5795092140368
30
0
41
1
10
10.1423291034375
20
12.5409482831066
30
0
41
1
10
10.1560284776433
20
12.5051507511524
30
0
41
1
10
10.1698360568998
20
12.4720797163516
30
0
41
1
10
10.1835801013686
20
12.4416950237184
30
0
41
1
10
10.1983134460066
20
12.4117185859073
30
0
41
1
10
10.2140990442035
20
12.3822367638216
30
0
41
1
10
10.2297990494484
20
12.3553909102555
30
0
41
1
10
10.2452060363951
20
12.3311044807658
30
0
41
1
10
10.2601363718413
20
12.3092998020363
30
0
41
1
10
10.2759292411365
20
12.2880415239838
30
0
41
1
10
10.2926299248043
20
12.2674368488672
30
0
41
1
10
10.3093560594039
20
12.2486288557117
30
0
41
1
10
10.3260054064363
20
12.2315632427613
30
0
41
1
10
10.3424702461724
20
12.2161867217462
30
0
41
1
10
10.3597575317785
20
12.2016106480338
30
0
41
1
10
10.3778600779921
20
12.1879915570935
30
0
41
1
10
10.3967717415697
20
12.1754887731076
30
0
41
1
10
10.4160633957218
20
12.164489747511
30
0
41
1
10
10.4356999763143
20
12.1550732247475
30
0
41
1
10
10.4555779509796
20
12.1472628227278
30
0
41
1
10
10.476039162769
20
12.1409773729728
30
0
41
1
10
10.4968034020544
20
12.1364236601328
30
0
41
1
10
10.5177443528171
20
12.1337021422722
30
0
41
1
10
10.5316765397068
20
12.1330961985737
30
0
41
1
10
10.5386751345945
20
12.1330899674706
30
0
0
SPLINE
5
158
100
AcDbEntity
8
1
62
256
6
ByLayer
370
18
48
1
60
0
100
AcDbSpline
70
4
71
1
72
4
73
2
40
0
40
0
40
1
40
1
41
1
10
142.392708018353
20
0.171910776671786
30
0
41
1
10
142.816576415803
20
0.155627088240026
30
0
0
SPLINE
5
159
100
AcDbEntity
8
1
62
256
6
ByLayer
370
18
48
1
60
0
100
AcDbSpline
70
4
71
1
72
4
73
2
40
0
40
0
40
1
40
1
41
1
10
139.269380751577
20
-1.30055162393404
30
0
41
1
10
138.888504229749
20
-1.6962245132092
30
0
0
SPLINE
5
15A
100
AcDbEntity
8
1
62
256
6
ByLayer
370
18
48
1
60
0
100
AcDbSpline
70
4
71
1
72
4
73
2
40
0
40
0
40
1
40
1
41
1
10
138.177848581908
20
-0.155506912585315
30
0
41
1
10
138.748739982838
20
-0.171790601017076
30
0
0
LINE
5
70
100
AcDbEntity
8
1
62
256
6
ByLayer
370
18
48
1
60
0
100
AcDbLine
10
139.96505
20
-8.167113
30
0
11
140.664879
21
-8.167113
31
0
39
0
210
0
220
0
230
1
0
LINE
5
72
100
AcDbEntity
8
1
62
256
6
ByLayer
370
18
48
1
60
0
100
AcDbLine
10
117.357502
20
-11.719449
30
0
11
117.277062
21
-12.752207
31
0
39
0
210
0
220
0
230
1
0
LINE
5
73
100
AcDbEntity
8
1
62
256
6
ByLayer
370
18
48
1
60
0
100
AcDbLine
10
116.772568
20
-13.631525
30
0
11
116.513477
21
-13.537775
31
0
39
0
210
0
220
0
230
1
0
LINE
5
74
100
AcDbEntity
8
1
62
256
6
ByLayer
370
18
48
1
60
0
100
AcDbLine
10
117.277062
20
-12.752207
30
0
11
116.772568
21
-13.631525
31
0
39
0
210
0
220
0
230
1
0
LINE
5
75
100
AcDbEntity
8
1
62
256
6
ByLayer
370
18
48
1
60
0
100
AcDbLine
10
130.910259
20
0.608036
30
0
11
131.610089
21
0.608036
31
0
39
0
210
0
220
0
230
1
0
LINE
5
76
100
AcDbEntity
8
1
62
256
6
ByLayer
370
18
48
1
60
0
100
AcDbLine
10
140.919077
20
8.073653
30
0
11
149.719539
21
0.60818
31
0
39
0
210
0
220
0
230
1
0
LINE
5
77
100
AcDbEntity
8
1
62
256
6
ByLayer
370
18
48
1
60
0
100
AcDbLine
10
131.545408
20
-0.60806
30
0
11
131.610098
21
-0.60806
31
0
39
0
210
0
220
0
230
1
0
LINE
5
78
100
AcDbEntity
8
1
62
256
6
ByLayer
370
18
48
1
60
0
100
AcDbLine
10
139.710606
20
8.073649
30
0
11
140.410435
21
8.073649
31
0
39
0
210
0
220
0
230
1
0
LINE
5
79
100
AcDbEntity
8
1
62
256
6
ByLayer
370
18
48
1
60
0
100
AcDbLine
10
116.428953
20
-12.445327
30
0
11
116.933447
21
-11.566009
31
0
39
0
210
0
220
0
230
1
0
LINE
5
7A
100
AcDbEntity
8
1
62
256
6
ByLayer
370
18
48
1
60
0
100
AcDbLine
10
116.680313
20
-13.988337
30
0
11
116.704778
21
-13.972037
31
0
39
0
210
0
220
0
230
1
0
LINE
5
7B
100
AcDbEntity
8
1
62
256
6
ByLayer
370
18
48
1
60
0
100
AcDbLine
10
139.710731
20
-8.073533
30
0
11
139.667097
21
-8.036518
31
0
39
0
210
0
220
0
230
1
0
LINE
5
7C
100
AcDbEntity
8
1
62
256
6
ByLayer
370
18
48
1
60
0
100
AcDbLine
10
139.666966
20
8.036629
30
0
11
139.710606
21
8.073649
31
0
39
0
210
0
220
0
230
1
0
LINE
5
7D
100
AcDbEntity
8
1
62
256
6
ByLayer
370
18
48
1
60
0
100
AcDbLine
10
130.910259
20
0.608036
30
0
11
134.585759
21
3.726079
31
0
39
0
210
0
220
0
230
1
0
LINE
5
7E
100
AcDbEntity
8
1
62
256
6
ByLayer
370
18
48
1
60
0
100
AcDbLine
10
140.664758
20
8.167233
30
0
11
139.964929
21
8.167233
31
0
39
0
210
0
220
0
230
1
0
LINE
5
7F
100
AcDbEntity
8
1
62
256
6
ByLayer
370
18
48
1
60
0
100
AcDbLine
10
139.710731
20
-8.073533
30
0
11
140.41056
21
-8.073533
31
0
39
0
210
0
220
0
230
1
0
LINE
5
80
100
AcDbEntity
8
1
62
256
6
ByLayer
370
18
48
1
60
0
100
AcDbLine
10
116.919767
20
-11.589852
30
0
11
117.357502
21
-11.719449
31
0
39
0
210
0
220
0
230
1
0
LINE
5
81
100
AcDbEntity
8
1
62
256
6
ByLayer
370
18
48
1
60
0
100
AcDbLine
10
116.401635
20
-12.796055
30
0
11
116.428953
21
-12.445327
31
0
39
0
210
0
220
0
230
1
0
LINE
5
82
100
AcDbEntity
8
1
62
256
6
ByLayer
370
18
48
1
60
0
100
AcDbLine
10
116.424706
20
-12.499856
30
0
11
117.277062
21
-12.752207
31
0
39
0
210
0
220
0
230
1
0
LINE
5
83
100
AcDbEntity
8
1
62
256
6
ByLayer
370
18
48
1
60
0
100
AcDbLine
10
116.933447
20
-11.566009
30
0
11
117.357502
21
-11.719449
31
0
39
0
210
0
220
0
230
1
0
LINE
5
84
100
AcDbEntity
8
1
62
256
6
ByLayer
370
18
48
1
60
0
100
AcDbLine
10
130.114502
20
-6.402997
30
0
11
130.189154
21
-5.540267
31
0
39
0
210
0
220
0
230
1
0
LINE
5
85
100
AcDbEntity
8
1
62
256
6
ByLayer
370
18
48
1
60
0
100
AcDbLine
10
130.189154
20
-5.540267
30
0
11
130.263806
21
-4.677536
31
0
39
0
210
0
220
0
230
1
0
LINE
5
86
100
AcDbEntity
8
1
62
256
6
ByLayer
370
18
48
1
60
0
100
AcDbLine
10
149.719549
20
-0.607916
30
0
11
140.919202
21
-8.073529
31
0
39
0
210
0
220
0
230
1
0
LINE
5
87
100
AcDbEntity
8
1
62
256
6
ByLayer
370
18
48
1
60
0
100
AcDbLine
10
129.205837
20
-1.409545
30
0
11
129.125495
21
-1.409545
31
0
39
0
210
0
220
0
230
1
0
LINE
5
88
100
AcDbEntity
8
1
62
256
6
ByLayer
370
18
48
1
60
0
100
AcDbLine
10
129.125495
20
-9.409545
30
0
11
129.205837
21
-9.409545
31
0
39
0
210
0
220
0
230
1
0
LINE
5
89
100
AcDbEntity
8
1
62
256
6
ByLayer
370
18
48
1
60
0
100
AcDbLine
10
130.263806
20
-4.677536
30
0
11
129.562105
21
-4.18081
31
0
39
0
210
0
220
0
230
1
0
LINE
5
8A
100
AcDbEntity
8
1
62
256
6
ByLayer
370
18
48
1
60
0
100
AcDbLine
10
130.263806
20
-4.677536
30
0
11
130.851898
21
-4.677536
31
0
39
0
210
0
220
0
230
1
0
LINE
5
8B
100
AcDbEntity
8
1
62
256
6
ByLayer
370
18
48
1
60
0
100
AcDbLine
10
129.562105
20
-4.18081
30
0
11
129.090182
21
-3.846741
31
0
39
0
210
0
220
0
230
1
0
LINE
5
8C
100
AcDbEntity
8
1
62
256
6
ByLayer
370
18
48
1
60
0
100
AcDbLine
10
128.908516
20
-6.971547
30
0
11
129.338148
21
-6.769001
31
0
39
0
210
0
220
0
230
1
0
LINE
5
8D
100
AcDbEntity
8
1
62
256
6
ByLayer
370
18
48
1
60
0
100
AcDbLine
10
130.114502
20
-6.402997
30
0
11
130.702594
21
-6.402997
31
0
39
0
210
0
220
0
230
1
0
LINE
5
8E
100
AcDbEntity
8
1
62
256
6
ByLayer
370
18
48
1
60
0
100
AcDbLine
10
129.338148
20
-6.769001
30
0
11
130.114502
21
-6.402997
31
0
39
0
210
0
220
0
230
1
0
LINE
5
8F
100
AcDbEntity
8
1
62
256
6
ByLayer
370
18
48
1
60
0
100
AcDbLine
10
133.337148
20
4.377369
30
0
11
134.345335
21
3.52212
31
0
39
0
210
0
220
0
230
1
0
LINE
5
90
100
AcDbEntity
8
1
62
256
6
ByLayer
370
18
48
1
60
0
100
AcDbLine
10
134.461538
20
3.620699
30
0
11
134.302922
21
3.755254
31
0
39
0
210
0
220
0
230
1
0
LINE
5
91
100
AcDbEntity
8
1
62
256
6
ByLayer
370
18
48
1
60
0
100
AcDbLine
10
134.302922
20
3.755254
30
0
11
135.140767
21
3.66883
31
0
39
0
210
0
220
0
230
1
0
LINE
5
92
100
AcDbEntity
8
1
62
256
6
ByLayer
370
18
48
1
60
0
100
AcDbLine
10
134.384334
20
4.310516
30
0
11
133.337148
21
4.377369
31
0
39
0
210
0
220
0
230
1
0
LINE
5
93
100
AcDbEntity
8
1
62
256
6
ByLayer
370
18
48
1
60
0
100
AcDbLine
10
134.034025
20
-12.815232
30
0
11
124.196132
21
-14.549918
31
0
39
0
210
0
220
0
230
1
0
LINE
5
94
100
AcDbEntity
8
1
62
256
6
ByLayer
370
18
48
1
60
0
100
AcDbLine
10
124.196132
20
14.549918
30
0
11
134.033798
21
12.815272
31
0
39
0
210
0
220
0
230
1
0
LINE
5
95
100
AcDbEntity
8
1
62
256
6
ByLayer
370
18
48
1
60
0
100
AcDbLine
10
139.984662
20
-7.767118
30
0
11
134.034025
21
-12.815232
31
0
39
0
210
0
220
0
230
1
0
LINE
5
96
100
AcDbEntity
8
1
62
256
6
ByLayer
370
18
48
1
60
0
100
AcDbLine
10
137.291713
20
-5.482677
30
0
11
139.984662
21
-7.767118
31
0
39
0
210
0
220
0
230
1
0
LINE
5
97
100
AcDbEntity
8
1
62
256
6
ByLayer
370
18
48
1
60
0
100
AcDbLine
10
134.384334
20
4.310516
30
0
11
135.140767
21
3.66883
31
0
39
0
210
0
220
0
230
1
0
LINE
5
98
100
AcDbEntity
8
1
62
256
6
ByLayer
370
18
48
1
60
0
100
AcDbLine
10
134.033798
20
12.815272
30
0
11
139.999667
21
7.754397
31
0
39
0
210
0
220
0
230
1
0
LINE
5
99
100
AcDbEntity
8
1
62
256
6
ByLayer
370
18
48
1
60
0
100
AcDbLine
10
126.120215
20
8
30
0
11
126.120215
21
-2.807862
31
0
39
0
210
0
220
0
230
1
0
LINE
5
9A
100
AcDbEntity
8
1
62
256
6
ByLayer
370
18
48
1
60
0
100
AcDbLine
10
123.293656
20
-14.709049
30
0
11
116.740034
21
-15.864629
31
0
39
0
210
0
220
0
230
1
0
LINE
5
9B
100
AcDbEntity
8
1
62
256
6
ByLayer
370
18
48
1
60
0
100
AcDbLine
10
116.740034
20
15.864629
30
0
11
123.293656
21
14.709049
31
0
39
0
210
0
220
0
230
1
0
LINE
5
9C
100
AcDbEntity
8
1
62
256
6
ByLayer
370
18
48
1
60
0
100
AcDbLine
10
125.616861
20
-8
30
0
11
125.616861
21
8
31
0
39
0
210
0
220
0
230
1
0
LINE
5
9D
100
AcDbEntity
8
1
62
256
6
ByLayer
370
18
48
1
60
0
100
AcDbLine
10
114
20
-13.190053
30
0
11
114
21
13.190053
31
0
39
0
210
0
220
0
230
1
0
LINE
5
9E
100
AcDbEntity
8
1
62
256
6
ByLayer
370
18
48
1
60
0
100
AcDbLine
10
10.538675
20
-38.115458
30
0
11
10.538675
21
-12.13309
31
0
39
0
210
0
220
0
230
1
0
LINE
5
9F
100
AcDbEntity
8
1
62
256
6
ByLayer
370
18
48
1
60
0
100
AcDbLine
10
10.105662
20
-37.944501
30
0
11
10.105662
21
-12.6576
31
0
39
0
210
0
220
0
230
1
0
LINE
5
A0
100
AcDbEntity
8
1
62
256
6
ByLayer
370
18
48
1
60
0
100
AcDbLine
10
13.894338
20
12.6576
30
0
11
13.894338
21
37.944501
31
0
39
0
210
0
220
0
230
1
0
LINE
5
A1
100
AcDbEntity
8
1
62
256
6
ByLayer
370
18
48
1
60
0
100
AcDbLine
10
13.461325
20
12.13309
30
0
11
13.461325
21
38.115458
31
0
39
0
210
0
220
0
230
1
0
LINE
5
A2
100
AcDbEntity
8
1
62
256
6
ByLayer
370
18
48
1
60
0
100
AcDbLine
10
13.894338
20
-37.944501
30
0
11
13.894338
21
-12.6576
31
0
39
0
210
0
220
0
230
1
0
LINE
5
A3
100
AcDbEntity
8
1
62
256
6
ByLayer
370
18
48
1
60
0
100
AcDbLine
10
13.461325
20
-38.115458
30
0
11
13.461325
21
-12.13309
31
0
39
0
210
0
220
0
230
1
0
LINE
5
A4
100
AcDbEntity
8
1
62
256
6
ByLayer
370
18
48
1
60
0
100
AcDbLine
10
10.538675
20
12.13309
30
0
11
10.538675
21
38.115458
31
0
39
0
210
0
220
0
230
1
0
LINE
5
A5
100
AcDbEntity
8
1
62
256
6
ByLayer
370
18
48
1
60
0
100
AcDbLine
10
10.105662
20
12.6576
30
0
11
10.105662
21
37.944501
31
0
39
0
210
0
220
0
230
1
0
LINE
5
A6
100
AcDbEntity
8
1
62
256
6
ByLayer
370
18
48
1
60
0
100
AcDbLine
10
0
20
-39.7
30
0
11
0.3
21
-40
31
0
39
0
210
0
220
0
230
1
0
LINE
5
A7
100
AcDbEntity
8
1
62
256
6
ByLayer
370
18
48
1
60
0
100
AcDbLine
10
0.3
20
40
30
0
11
0
21
39.7
31
0
39
0
210
0
220
0
230
1
0
LINE
5
A8
100
AcDbEntity
8
1
62
256
6
ByLayer
370
18
48
1
60
0
100
AcDbLine
10
13.461325
20
-12.13309
30
0
11
10.538675
21
-12.13309
31
0
39
0
210
0
220
0
230
1
0
LINE
5
A9
100
AcDbEntity
8
1
62
256
6
ByLayer
370
18
48
1
60
0
100
AcDbLine
10
10.538675
20
-38.115458
30
0
11
13.461325
21
-38.115458
31
0
39
0
210
0
220
0
230
1
0
LINE
5
AA
100
AcDbEntity
8
1
62
256
6
ByLayer
370
18
48
1
60
0
100
AcDbLine
10
13.461325
20
38.115458
30
0
11
10.538675
21
38.115458
31
0
39
0
210
0
220
0
230
1
0
LINE
5
AB
100
AcDbEntity
8
1
62
256
6
ByLayer
370
18
48
1
60
0
100
AcDbLine
10
10.538675
20
12.13309
30
0
11
13.461325
21
12.13309
31
0
39
0
210
0
220
0
230
1
0
LINE
5
AC
100
AcDbEntity
8
1
62
256
6
ByLayer
370
18
48
1
60
0
100
AcDbLine
10
30
20
40
30
0
11
0.3
21
40
31
0
39
0
210
0
220
0
230
1
0
LINE
5
AD
100
AcDbEntity
8
1
62
256
6
ByLayer
370
18
48
1
60
0
100
AcDbLine
10
0.3
20
-40
30
0
11
30
21
-40
31
0
39
0
210
0
220
0
230
1
0
LINE
5
AE
100
AcDbEntity
8
1
62
256
6
ByLayer
370
18
48
1
60
0
100
AcDbLine
10
115.712092
20
-0.579833
30
0
11
116.651035
21
-0.579901
31
0
39
0
210
0
220
0
230
1
0
LINE
5
AF
100
AcDbEntity
8
1
62
256
6
ByLayer
370
18
48
1
60
0
100
AcDbLine
10
115.712343
20
0.574868
30
0
11
116.651035
21
0.5748
31
0
39
0
210
0
220
0
230
1
0
LINE
5
B0
100
AcDbEntity
8
1
62
256
6
ByLayer
370
18
48
1
60
0
100
AcDbLine
10
116.651035
20
-0.579901
30
0
11
116.181564
21
-1.157372
31
0
39
0
210
0
220
0
230
1
0
LINE
5
B1
100
AcDbEntity
8
1
62
256
6
ByLayer
370
18
48
1
60
0
100
AcDbLine
10
116.181564
20
-1.157372
30
0
11
115.712092
21
-0.580142
31
0
39
0
210
0
220
0
230
1
0
LINE
5
B2
100
AcDbEntity
8
1
62
256
6
ByLayer
370
18
48
1
60
0
100
AcDbLine
10
115.712092
20
-0.580142
30
0
11
115.712092
21
0.574559
31
0
39
0
210
0
220
0
230
1
0
LINE
5
B3
100
AcDbEntity
8
1
62
256
6
ByLayer
370
18
48
1
60
0
100
AcDbLine
10
115.712092
20
0.574559
30
0
11
116.181564
21
1.152029
31
0
39
0
210
0
220
0
230
1
0
LINE
5
B4
100
AcDbEntity
8
1
62
256
6
ByLayer
370
18
48
1
60
0
100
AcDbLine
10
116.181564
20
1.152029
30
0
11
116.651035
21
0.5748
31
0
39
0
210
0
220
0
230
1
0
LINE
5
B5
100
AcDbEntity
8
1
62
256
6
ByLayer
370
18
48
1
60
0
100
AcDbLine
10
116.651035
20
0.5748
30
0
11
116.651035
21
-0.579901
31
0
39
0
210
0
220
0
230
1
0
LINE
5
B6
100
AcDbEntity
8
1
62
256
6
ByLayer
370
18
48
1
60
0
100
AcDbLine
10
116.431768
20
12.322994
30
0
11
117.234184
21
12.56056
31
0
39
0
210
0
220
0
230
1
0
LINE
5
B7
100
AcDbEntity
8
1
62
256
6
ByLayer
370
18
48
1
60
0
100
AcDbLine
10
116.490251
20
13.450507
30
0
11
116.764713
21
13.531765
31
0
39
0
210
0
220
0
230
1
0
LINE
5
B8
100
AcDbEntity
8
1
62
256
6
ByLayer
370
18
48
1
60
0
100
AcDbLine
10
117.234184
20
11.601421
30
0
11
116.764713
21
11.613487
31
0
39
0
210
0
220
0
230
1
0
LINE
5
B9
100
AcDbEntity
8
1
62
256
6
ByLayer
370
18
48
1
60
0
100
AcDbLine
10
116.764713
20
11.613487
30
0
11
116.436687
21
12.292081
31
0
39
0
210
0
220
0
230
1
0
LINE
5
BA
100
AcDbEntity
8
1
62
256
6
ByLayer
370
18
48
1
60
0
100
AcDbLine
10
116.513602
20
13.538219
30
0
11
116.764713
21
13.531765
31
0
39
0
210
0
220
0
230
1
0
LINE
5
BB
100
AcDbEntity
8
1
62
256
6
ByLayer
370
18
48
1
60
0
100
AcDbLine
10
116.764713
20
13.531765
30
0
11
117.234184
21
12.56056
31
0
39
0
210
0
220
0
230
1
0
LINE
5
BC
100
AcDbEntity
8
1
62
256
6
ByLayer
370
18
48
1
60
0
100
AcDbLine
10
117.234184
20
12.56056
30
0
11
117.234184
21
11.601421
31
0
39
0
210
0
220
0
230
1
0
LINE
5
BD
100
AcDbEntity
8
1
62
256
6
ByLayer
370
18
48
1
60
0
100
AcDbLine
10
125.616861
20
-2.807862
30
0
11
126.120215
21
-2.807862
31
0
39
0
210
0
220
0
230
1
0
LINE
5
BE
100
AcDbEntity
8
1
62
256
6
ByLayer
370
18
48
1
60
0
100
AcDbLine
10
125.616861
20
8
30
0
11
126.120215
21
8
31
0
39
0
210
0
220
0
230
1
0
LINE
5
BF
100
AcDbEntity
8
SK1
62
256
6
ByLayer
370
18
48
1
60
0
100
AcDbLine
10
-0.2
20
6.576573
30
0
11
-0.2
21
28.683485
31
0
39
0
210
0
220
0
230
1
0
LINE
5
C1
100
AcDbEntity
8
SK1
62
256
6
ByLayer
370
18
48
1
60
0
100
AcDbLine
10
-1.307107
20
-4.393239
30
0
11
-1.307107
21
4.393239
31
0
39
0
210
0
220
0
230
1
0
LINE
5
C2
100
AcDbEntity
8
SK1
62
256
6
ByLayer
370
18
48
1
60
0
100
AcDbLine
10
-0.2
20
-28.683485
30
0
11
-0.2
21
-6.576573
31
0
39
0
210
0
220
0
230
1
0
LINE
5
C3
100
AcDbEntity
8
1
62
256
6
ByLayer
370
18
48
1
60
0
100
AcDbLine
10
0
20
-39.7
30
0
11
0
21
39.7
31
0
39
0
210
0
220
0
230
1
0
LINE
5
C4
100
AcDbEntity
8
1
62
256
6
ByLayer
370
18
48
1
60
0
100
AcDbLine
10
0.3
20
-40
30
0
11
0.3
21
40
31
0
39
0
210
0
220
0
230
1
0
LINE
5
C5
100
AcDbEntity
8
1
62
256
6
ByLayer
370
18
48
1
60
0
100
AcDbLine
10
30
20
-40
30
0
11
30
21
40
31
0
39
0
210
0
220
0
230
1
0
LINE
5
C6
100
AcDbEntity
8
1
62
256
6
ByLayer
370
18
48
1
60
0
100
AcDbLine
10
76.244273
20
23.005125
30
0
11
116.740034
21
15.864629
31
0
39
0
210
0
220
0
230
1
0
LINE
5
C7
100
AcDbEntity
8
1
62
256
6
ByLayer
370
18
48
1
60
0
100
AcDbLine
10
116.740034
20
-15.864629
30
0
11
76.244273
21
-23.005125
31
0
39
0
210
0
220
0
230
1
0
LINE
5
C8
100
AcDbEntity
8
1
62
256
6
ByLayer
370
18
48
1
60
0
100
AcDbLine
10
130.726596
20
0.086543
30
0
11
131.583027
21
-0.639972
31
0
39
0
210
0
220
0
230
1
0
LINE
5
C9
100
AcDbEntity
8
1
62
256
6
ByLayer
370
18
48
1
60
0
100
AcDbLine
10
130.860981
20
-0.027456
30
0
11
140.410435
21
8.073649
31
0
39
0
210
0
220
0
230
1
0
LINE
5
CA
100
AcDbEntity
8
1
62
256
6
ByLayer
370
18
48
1
60
0
100
AcDbLine
10
140.41056
20
-8.073533
30
0
11
130.893325
21
-1.7E-05
31
0
39
0
210
0
220
0
230
1
0
LINE
5
CB
100
AcDbEntity
8
81
62
256
6
ByLayer
370
13
48
1
60
0
100
AcDbLine
10
150.436312
20
0.000138
30
0
11
170.955548
21
0.000138
31
0
39
0
210
0
220
0
230
1
0
LINE
5
CC
100
AcDbEntity
8
4
62
256
6
ByLayer
370
13
48
0.05
60
0
100
AcDbLine
10
0
20
0
30
0
11
150.436312
21
0.000138
31
0
39
0
210
0
220
0
230
1
0
LINE
5
CE
100
AcDbEntity
8
SK4
62
256
6
ByLayer
370
13
48
0.05
60
0
100
AcDbLine
10
171.834633
20
0
30
0
11
-46.5
21
0
31
0
39
0
210
0
220
0
230
1
0
LINE
5
D0
100
AcDbEntity
8
80
62
256
6
ByLayer
370
13
48
1
60
0
100
AcDbLine
10
0
20
0
30
0
11
-14.346523
21
0
31
0
39
0
210
0
220
0
230
1
0
MTEXT
5
15B
100
AcDbEntity
8
SK6
62
256
6
ByLayer
370
18
48
1
60
0
100
AcDbMText
10
42.645837
20
-76.958124
30
0
210
0
220
0
230
1
1
\W0.7132;C8-PCMNN-00150-12HP
40
3.175
41
0
44
1.084337
50
0
71
7
72
5
7
iso_b_vert
0
DIMENSION
5
16D
100
AcDbEntity
8
2
62
256
6
ByLayer
370
13
48
1
60
0
100
AcDbDimension
2
DimnDraft3D1
10
58.634864
20
0
30
0
11
58.634864
21
75.218156
31
0
70
32
71
5
72
1
41
1
210
0
220
0
230
1
3
Standard
100
AcDbAlignedDimension
13
1.587362
23
150.436312
33
0
14
41.2875
24
0
34
0
50
90
100
AcDbRotatedDimension
1001
ACAD
1000
DSTYLE
1002
{
1070
    74
1070
     0
1070
   279
1070
     0
1070
   172
1070
     1
1070
   173
1070
     1
1070
   340
1005
15C
1070
   271
1070
     0
1070
   272
1070
     2
1070
    77
1070
     1
1070
    73
1070
     0
1070
   171
1070
     3
1070
   274
1070
     4
1070
   177
1070
     7
1070
   176
1070
     7
1070
   178
1070
     7
1070
    78
1070
     8
1070
    48
1040
-0.005
1070
    41
1041
3.175
1070
   147
1041
1.75006
1070
    42
1041
1.5875
1070
    44
1041
3.175
1070
   140
1041
3.50012
1070
   343
1005
16E
1070
   344
1005
16E
1002
}
0
DIMENSION
5
183
100
AcDbEntity
8
SK2
62
256
6
ByLayer
370
13
48
1
60
0
100
AcDbDimension
2
DimnDraft3D2
10
40
20
68.87319
30
0
11
0.512963
21
68.87319
31
0
70
32
71
5
72
1
41
1
210
0
220
0
230
1
3
Standard
100
AcDbAlignedDimension
13
-40
23
1.2875
33
0
14
40
24
1.2875
34
0
50
0
100
AcDbRotatedDimension
1001
ACAD
1000
DSTYLE
1002
{
1070
   279
1070
     0
1070
   172
1070
     1
1070
   173
1070
     1
1070
   340
1005
15C
1070
   271
1070
     0
1070
   272
1070
     2
1070
    77
1070
     1
1070
    73
1070
     0
1070
   171
1070
     3
1070
   274
1070
     4
1070
   177
1070
     7
1070
   176
1070
     7
1070
   178
1070
     7
1070
    78
1070
     8
1070
    48
1040
-0.005
1070
    41
1041
3.175
1070
   147
1041
1.75006
1070
    42
1041
1.5875
1070
    44
1041
3.175
1070
   140
1041
3.50012
1070
   343
1005
0
1070
   344
1005
0
1002
}
0
DIMENSION
5
191
100
AcDbEntity
8
2
62
256
6
ByLayer
370
13
48
1
60
0
100
AcDbDimension
2
DimnDraft3D3
10
150.436312
20
-0.999862
30
0
11
141.389526
21
-28.720101
31
0
70
34
71
5
72
1
41
1
210
0
220
0
230
1
3
Standard
100
AcDb2LineAngularDimension
13
149.719549
23
-0.607916
33
0
14
140.919202
24
-8.073529
34
0
15
150.436312
25
0.000138
35
0
16
136.313664
26
-30.500438
36
0
40
0
0
ENDSEC
0
SECTION
2
OBJECTS
0
DICTIONARY
5
1fc
330
0
100
AcDbDictionary
280
0
281
1
3
ACAD_GROUP
350
1fd
3
ACAD_MLINESTYLE
350
1fe
0
DICTIONARY
5
1fd
330
0
100
AcDbDictionary
280
0
281
1
0
DICTIONARY
5
1fe
330
0
100
AcDbDictionary
280
0
281
1
3
Standard
350
18
0
MLINESTYLE
5
18
330
1fe
100
AcDbMlineStyle
2
Standard
70
0
3

62
256
51
90
52
90
71
2
49
-0.5
62
256
6
ByLayer
49
0.5
62
256
6
ByLayer
0
RASTERVARIABLES
5
1ea
330

100
AcDbRasterVariables
90
0
70
1
71
1
72
1
0
ENDSEC
0
EOF
