0
SECTION
2
HEADER
9
$ACADVER
1
AC1015
9
$DWGCODEPAGE
3
ANSI_1252
9
$HANDSEED
5
27b
9
$ANGBASE
50
0
9
$ANGDIR
70
0
9
$ATTMODE
70
1
9
$AUNITS
70
0
9
$AUPREC
70
0
9
$CECOLOR
62
256
9
$CELTSCALE
40
1
9
$CELTYPE
6
ByLayer
9
$CELWEIGHT
370
18
9
$CLAYER
8
0
9
$CMLJUST
70
0
9
$CMLSCALE
40
1
9
$CMLSTYLE
2
Standard
9
$DIMSTYLE
2
Standard
9
$TEXTSIZE
40
0.2
9
$TEXTSTYLE
7
Standard
9
$LUNITS
70
2
9
$LUPREC
70
4
9
$EXTNAMES
290
1
9
$INSUNITS
70
4
9
$LTSCALE
40
1
9
$LWDISPLAY
290
1
9
$PDMODE
70
0
9
$PDSIZE
40
0
9
$PLINEGEN
70
0
0
ENDSEC
0
SECTION
2
CLASSES
0
CLASS
1
RASTERVARIABLES
2
AcDbRasterVariables
3
ISM
90
0
280
0
281
0
0
ENDSEC
0
SECTION
2
TABLES
0
TABLE
2
VPORT
5
271
100
AcDbSymbolTable
0
VPORT
5
1
100
AcDbSymbolTableRecord
100
AcDbViewportTableRecord
2
*Active
70
0
10
0
20
0
11
1
21
1
12
-1
22
1
13
0
23
0
14
0.5
24
0.5
15
10
25
10
16
0
26
0
36
1
17
0
27
0
37
0
0
ENDTAB
0
TABLE
2
LTYPE
5
272
100
AcDbSymbolTable
0
LTYPE
5
14
100
AcDbSymbolTableRecord
100
AcDbLinetypeTableRecord
70
0
2
ByBlock
3

72
65
73
0
40
0
0
LTYPE
5
15
100
AcDbSymbolTableRecord
100
AcDbLinetypeTableRecord
70
0
2
ByLayer
3

72
65
73
0
40
0
0
LTYPE
5
16
100
AcDbSymbolTableRecord
100
AcDbLinetypeTableRecord
70
0
2
CONTINUOUS
3
Solid line
72
65
73
0
40
0
0
LTYPE
5
6A
100
AcDbSymbolTableRecord
100
AcDbLinetypeTableRecord
70
0
2
CENTER
3
____ _ ____ _ ____ _ ____
72
65
73
4
40
47.5
49
22
74
0
49
-8.5
74
0
49
8.5
74
0
49
-8.5
74
0
0
LTYPE
5
6B
100
AcDbSymbolTableRecord
100
AcDbLinetypeTableRecord
70
0
2
DASHED
3
__ __ __ __ __ __ __ __ __
72
65
73
2
40
25.72
49
12.86
74
0
49
-12.86
74
0
0
ENDTAB
0
TABLE
2
LAYER
5
273
100
AcDbSymbolTable
0
LAYER
5
10
100
AcDbSymbolTableRecord
100
AcDbLayerTableRecord
2
0
70
0
62
7
6
CONTINUOUS
290
1
370
-3
390
0
0
LAYER
5
6D
100
AcDbSymbolTableRecord
100
AcDbLayerTableRecord
2
80
70
0
62
-6
6
CONTINUOUS
290
1
370
-3
390
0
0
LAYER
5
6F
100
AcDbSymbolTableRecord
100
AcDbLayerTableRecord
2
81
70
0
62
-3
6
CONTINUOUS
290
1
370
-3
390
0
0
LAYER
5
71
100
AcDbSymbolTableRecord
100
AcDbLayerTableRecord
2
1
70
0
62
4
6
CONTINUOUS
290
1
370
-3
390
0
0
LAYER
5
EC
100
AcDbSymbolTableRecord
100
AcDbLayerTableRecord
2
4
70
0
62
-2
6
CENTER
290
1
370
-3
390
0
0
LAYER
5
1D4
100
AcDbSymbolTableRecord
100
AcDbLayerTableRecord
2
2
70
0
62
7
6
CONTINUOUS
290
1
370
-3
390
0
0
LAYER
5
25d
100
AcDbSymbolTableRecord
100
AcDbLayerTableRecord
2
SK1
70
0
62
4
6
CONTINUOUS
290
1
370
-3
390
0
0
LAYER
5
25e
100
AcDbSymbolTableRecord
100
AcDbLayerTableRecord
2
SK4
70
0
62
2
6
CENTER
290
1
370
-3
390
0
0
LAYER
5
25f
100
AcDbSymbolTableRecord
100
AcDbLayerTableRecord
2
SK6
70
0
62
5
6
CONTINUOUS
290
1
370
-3
390
0
0
LAYER
5
260
100
AcDbSymbolTableRecord
100
AcDbLayerTableRecord
2
SK2
70
0
62
7
6
CONTINUOUS
290
1
370
-3
390
0
0
ENDTAB
0
TABLE
2
STYLE
5
274
100
AcDbSymbolTable
0
STYLE
5
11
100
AcDbSymbolTableRecord
100
AcDbTextStyleTableRecord
2
Standard
3
txt
70
0
71
0
40
0
41
1
42
0
50
0
0
STYLE
5
1BE
100
AcDbSymbolTableRecord
100
AcDbTextStyleTableRecord
2
iso_b_vert
3
simplex.shx
70
0
71
0
40
0
41
1
42
0
50
0
0
STYLE
5
1BF
100
AcDbSymbolTableRecord
100
AcDbTextStyleTableRecord
2
DWGDirectTextStyle
3
simplex
70
0
71
0
40
0
41
1
42
0
50
0
0
STYLE
5
1C3
100
AcDbSymbolTableRecord
100
AcDbTextStyleTableRecord
2
blockfont
3
simplex.shx
70
0
71
0
40
0
41
1
42
0
50
0
0
ENDTAB
0
TABLE
2
DIMSTYLE
5
275
100
AcDbSymbolTable
100
AcDbDimStyleTable
0
DIMSTYLE
105
27
100
AcDbSymbolTableRecord
100
AcDbDimStyleTableRecord
2
Standard
70
0
3
<>
41
0.18
42
0.0625
44
0.18
140
0.18
147
0.09
73
0
74
0
77
1
271
2
275
0
278
52
280
0
340
11
0
ENDTAB
0
TABLE
2
VIEW
5
276
100
AcDbSymbolTable
0
ENDTAB
0
TABLE
2
UCS
5
277
100
AcDbSymbolTable
0
ENDTAB
0
TABLE
2
APPID
5
278
100
AcDbSymbolTable
0
APPID
5
12
100
AcDbSymbolTableRecord
100
AcDbRegAppTableRecord
2
ACAD
70
0
0
ENDTAB
0
TABLE
2
BLOCK_RECORD
5
279
100
AcDbSymbolTable
0
BLOCK_RECORD
5
1F
100
AcDbSymbolTableRecord
100
AcDbBlockTableRecord
2
*Model_Space
340
0
70
0
0
BLOCK_RECORD
5
1B
100
AcDbSymbolTableRecord
100
AcDbBlockTableRecord
2
*Paper_Space
340
0
70
0
0
BLOCK_RECORD
5
23
100
AcDbSymbolTableRecord
100
AcDbBlockTableRecord
2
*Paper_Space0
340
0
70
0
0
BLOCK_RECORD
5
1C1
100
AcDbSymbolTableRecord
100
AcDbBlockTableRecord
2
DimnDraft3D1
340
0
70
0
0
BLOCK_RECORD
5
1D2
100
AcDbSymbolTableRecord
100
AcDbBlockTableRecord
2
DimnDraft3D2
340
0
70
0
0
BLOCK_RECORD
5
1E1
100
AcDbSymbolTableRecord
100
AcDbBlockTableRecord
2
_CLOSED
340
0
70
0
0
BLOCK_RECORD
5
1E8
100
AcDbSymbolTableRecord
100
AcDbBlockTableRecord
2
DimnDraft3D3
340
0
70
0
0
BLOCK_RECORD
5
1F6
100
AcDbSymbolTableRecord
100
AcDbBlockTableRecord
2
DimnDraft3D4
340
0
70
0
0
ENDTAB
0
ENDSEC
0
SECTION
2
BLOCKS
0
BLOCK
5
20
100
AcDbEntity
8
0
100
AcDbBlockBegin
2
*Model_Space
70
0
10
0
20
0
30
0
3
*Model_Space
0
ENDBLK
5
21
100
AcDbEntity
8
0
100
AcDbBlockEnd
0
BLOCK
5
1C
100
AcDbEntity
8
0
100
AcDbBlockBegin
2
*Paper_Space
70
0
10
0
20
0
30
0
3
*Paper_Space
0
ENDBLK
5
1D
100
AcDbEntity
8
0
100
AcDbBlockEnd
0
BLOCK
5
24
100
AcDbEntity
8
0
100
AcDbBlockBegin
2
*Paper_Space0
70
0
10
0
20
0
30
0
3
*Paper_Space0
0
ENDBLK
5
25
100
AcDbEntity
8
0
100
AcDbBlockEnd
0
BLOCK
5
1CF
100
AcDbEntity
8
0
100
AcDbBlockBegin
2
DimnDraft3D1
70
0
10
0
20
0
30
0
3
DimnDraft3D1
0
MTEXT
5
1C2
100
AcDbEntity
8
SK2
62
256
6
ByLayer
370
18
48
1
60
0
100
AcDbMText
10
-78.448639
20
2.13125
30
0
210
0
220
0
230
1
1
\W1.1795;80
40
3
41
0
44
0.903614
50
90
71
7
72
5
7
blockfont
0
MTEXT
5
1C5
100
AcDbEntity
8
SK2
62
256
6
ByLayer
370
18
48
1
60
0
100
AcDbMText
10
-78.448639
20
-5.345313
30
0
210
0
220
0
230
1
1
%%c
40
3
41
0
44
0.903614
50
90
71
7
72
5
7
blockfont
0
LINE
5
1C6
100
AcDbEntity
8
SK2
62
256
6
ByLayer
370
18
48
1
60
0
100
AcDbLine
10
-1.7
20
-40
30
0
11
-79.167389
21
-40
31
0
39
0
210
0
220
0
230
1
0
LINE
5
1C7
100
AcDbEntity
8
SK2
62
256
6
ByLayer
370
18
48
1
60
0
100
AcDbLine
10
-1.7
20
40
30
0
11
-79.167389
21
40
31
0
39
0
210
0
220
0
230
1
0
LINE
5
1C8
100
AcDbEntity
8
SK2
62
256
6
ByLayer
370
18
48
1
60
0
100
AcDbLine
10
-77.167389
20
-40
30
0
11
-77.167389
21
40
31
0
39
0
210
0
220
0
230
1
0
LINE
5
1C9
100
AcDbEntity
8
SK2
62
256
6
ByLayer
370
18
48
1
60
0
100
AcDbLine
10
-77.167389
20
-40
30
0
11
-77.585385
21
-36.825002
31
0
39
0
210
0
220
0
230
1
0
LINE
5
1CA
100
AcDbEntity
8
SK2
62
256
6
ByLayer
370
18
48
1
60
0
100
AcDbLine
10
-77.167389
20
-40
30
0
11
-76.749392
21
-36.824998
31
0
39
0
210
0
220
0
230
1
0
LINE
5
1CB
100
AcDbEntity
8
SK2
62
256
6
ByLayer
370
18
48
1
60
0
100
AcDbLine
10
-77.585385
20
-36.825002
30
0
11
-76.749392
21
-36.824998
31
0
39
0
210
0
220
0
230
1
0
LINE
5
1CC
100
AcDbEntity
8
SK2
62
256
6
ByLayer
370
18
48
1
60
0
100
AcDbLine
10
-77.167389
20
40
30
0
11
-76.749392
21
36.825002
31
0
39
0
210
0
220
0
230
1
0
LINE
5
1CD
100
AcDbEntity
8
SK2
62
256
6
ByLayer
370
18
48
1
60
0
100
AcDbLine
10
-77.167389
20
40
30
0
11
-77.585385
21
36.824998
31
0
39
0
210
0
220
0
230
1
0
LINE
5
1CE
100
AcDbEntity
8
SK2
62
256
6
ByLayer
370
18
48
1
60
0
100
AcDbLine
10
-76.749392
20
36.825002
30
0
11
-77.585385
21
36.824998
31
0
39
0
210
0
220
0
230
1
0
ENDBLK
5
1D0
100
AcDbEntity
8
0
100
AcDbBlockEnd
0
BLOCK
5
1DE
100
AcDbEntity
8
0
100
AcDbBlockBegin
2
DimnDraft3D2
70
0
10
0
20
0
30
0
3
DimnDraft3D2
0
MTEXT
5
1D3
100
AcDbEntity
8
2
62
256
6
ByLayer
370
18
48
1
60
0
100
AcDbMText
10
75.967163
20
-56.310888
30
0
210
0
220
0
230
1
1
\W1.1628;160
40
3
41
0
44
0.903614
50
0
71
7
72
5
7
blockfont
0
LINE
5
1D5
100
AcDbEntity
8
2
62
256
6
ByLayer
370
18
48
1
60
0
100
AcDbLine
10
0
20
-41.7
30
0
11
0
21
-58.842138
31
0
39
0
210
0
220
0
230
1
0
LINE
5
1D6
100
AcDbEntity
8
2
62
256
6
ByLayer
370
18
48
1
60
0
100
AcDbLine
10
159.940576
20
-2.561591
30
0
11
159.940576
21
-58.842138
31
0
39
0
210
0
220
0
230
1
0
LINE
5
1D7
100
AcDbEntity
8
2
62
256
6
ByLayer
370
18
48
1
60
0
100
AcDbLine
10
0
20
-56.842138
30
0
11
159.940576
21
-56.842138
31
0
39
0
210
0
220
0
230
1
0
LINE
5
1D8
100
AcDbEntity
8
2
62
256
6
ByLayer
370
18
48
1
60
0
100
AcDbLine
10
0
20
-56.842138
30
0
11
3.174998
21
-56.424141
31
0
39
0
210
0
220
0
230
1
0
LINE
5
1D9
100
AcDbEntity
8
2
62
256
6
ByLayer
370
18
48
1
60
0
100
AcDbLine
10
0
20
-56.842138
30
0
11
3.175002
21
-57.260135
31
0
39
0
210
0
220
0
230
1
0
LINE
5
1DA
100
AcDbEntity
8
2
62
256
6
ByLayer
370
18
48
1
60
0
100
AcDbLine
10
3.174998
20
-56.424141
30
0
11
3.175002
21
-57.260135
31
0
39
0
210
0
220
0
230
1
0
LINE
5
1DB
100
AcDbEntity
8
2
62
256
6
ByLayer
370
18
48
1
60
0
100
AcDbLine
10
159.940576
20
-56.842138
30
0
11
156.765577
21
-57.260135
31
0
39
0
210
0
220
0
230
1
0
LINE
5
1DC
100
AcDbEntity
8
2
62
256
6
ByLayer
370
18
48
1
60
0
100
AcDbLine
10
159.940576
20
-56.842138
30
0
11
156.765574
21
-56.424141
31
0
39
0
210
0
220
0
230
1
0
LINE
5
1DD
100
AcDbEntity
8
2
62
256
6
ByLayer
370
18
48
1
60
0
100
AcDbLine
10
156.765577
20
-57.260135
30
0
11
156.765574
21
-56.424141
31
0
39
0
210
0
220
0
230
1
0
ENDBLK
5
1DF
100
AcDbEntity
8
0
100
AcDbBlockEnd
0
BLOCK
5
1E2
100
AcDbEntity
8
0
100
AcDbBlockBegin
2
_CLOSED
70
0
10
0
20
0
30
0
3
_CLOSED
0
LINE
5
1E4
100
AcDbEntity
8
0
62
256
6
ByLayer
370
-2
48
1
60
0
100
AcDbLine
10
-1
20
0.166667
30
0
11
0
21
0
31
0
39
0
210
0
220
0
230
1
0
LINE
5
1E5
100
AcDbEntity
8
0
62
256
6
ByLayer
370
-2
48
1
60
0
100
AcDbLine
10
0
20
0
30
0
11
-1
21
-0.166667
31
0
39
0
210
0
220
0
230
1
0
LINE
5
1E6
100
AcDbEntity
8
0
62
256
6
ByLayer
370
-2
48
1
60
0
100
AcDbLine
10
-1
20
0.166667
30
0
11
-1
21
-0.166667
31
0
39
0
210
0
220
0
230
1
0
LINE
5
1E7
100
AcDbEntity
8
0
62
256
6
ByLayer
370
-2
48
1
60
0
100
AcDbLine
10
0
20
0
30
0
11
-1
21
0
31
0
39
0
210
0
220
0
230
1
0
ENDBLK
5
1E3
100
AcDbEntity
8
0
100
AcDbBlockEnd
0
BLOCK
5
1F3
100
AcDbEntity
8
0
100
AcDbBlockBegin
2
DimnDraft3D3
70
0
10
0
20
0
30
0
3
DimnDraft3D3
0
MTEXT
5
1E9
100
AcDbEntity
8
2
62
256
6
ByLayer
370
18
48
1
60
0
100
AcDbMText
10
193.645399
20
-21.853465
30
0
210
0
220
0
230
1
1
\W1.4102;0.6
40
3
41
0
44
0.903614
50
90
71
7
72
5
7
blockfont
0
LINE
5
1EA
100
AcDbEntity
8
2
62
256
6
ByLayer
370
18
48
1
60
0
100
AcDbLine
10
161.940576
20
-0.561591
30
0
11
196.176649
21
-0.561591
31
0
39
0
210
0
220
0
230
1
0
LINE
5
1EB
100
AcDbEntity
8
2
62
256
6
ByLayer
370
18
48
1
60
0
100
AcDbLine
10
177.357476
20
0
30
0
11
196.176649
21
0
31
0
39
0
210
0
220
0
230
1
0
LINE
5
1EC
100
AcDbEntity
8
2
62
256
6
ByLayer
370
18
48
1
60
0
100
AcDbLine
10
194.176649
20
7.5
30
0
11
194.176649
21
-22.603465
31
0
39
0
210
0
220
0
230
1
0
LINE
5
1ED
100
AcDbEntity
8
2
62
256
6
ByLayer
370
18
48
1
60
0
100
AcDbLine
10
194.176649
20
-0.561591
30
0
11
194.594645
21
-3.736589
31
0
39
0
210
0
220
0
230
1
0
LINE
5
1EE
100
AcDbEntity
8
2
62
256
6
ByLayer
370
18
48
1
60
0
100
AcDbLine
10
194.176649
20
-0.561591
30
0
11
193.758652
21
-3.736592
31
0
39
0
210
0
220
0
230
1
0
LINE
5
1EF
100
AcDbEntity
8
2
62
256
6
ByLayer
370
18
48
1
60
0
100
AcDbLine
10
194.594645
20
-3.736589
30
0
11
193.758652
21
-3.736592
31
0
39
0
210
0
220
0
230
1
0
LINE
5
1F0
100
AcDbEntity
8
2
62
256
6
ByLayer
370
18
48
1
60
0
100
AcDbLine
10
194.176649
20
0
30
0
11
193.758652
21
3.174998
31
0
39
0
210
0
220
0
230
1
0
LINE
5
1F1
100
AcDbEntity
8
2
62
256
6
ByLayer
370
18
48
1
60
0
100
AcDbLine
10
194.176649
20
0
30
0
11
194.594645
21
3.175002
31
0
39
0
210
0
220
0
230
1
0
LINE
5
1F2
100
AcDbEntity
8
2
62
256
6
ByLayer
370
18
48
1
60
0
100
AcDbLine
10
193.758652
20
3.174998
30
0
11
194.594645
21
3.175002
31
0
39
0
210
0
220
0
230
1
0
ENDBLK
5
1F4
100
AcDbEntity
8
0
100
AcDbBlockEnd
0
BLOCK
5
201
100
AcDbEntity
8
0
100
AcDbBlockBegin
2
DimnDraft3D4
70
0
10
0
20
0
30
0
3
DimnDraft3D4
0
MTEXT
5
1F7
100
AcDbEntity
8
2
62
256
6
ByLayer
370
18
48
1
60
0
100
AcDbMText
10
136.700498
20
-33.915933
30
0
210
0
220
0
230
1
1
\W1.5165;50%%d0'
40
3
41
0
44
0.903614
50
334.999999999968
71
7
72
5
7
blockfont
0
LINE
5
1F8
100
AcDbEntity
8
2
62
256
6
ByLayer
370
18
48
1
60
0
100
AcDbLine
10
147.877719
20
-11.406087
30
0
11
127.822346
21
-28.234543
31
0
39
0
210
0
220
0
230
1
0
LINE
5
1F9
100
AcDbEntity
8
2
62
256
6
ByLayer
370
18
48
1
60
0
100
AcDbLine
10
159.940576
20
-2.561591
30
0
11
159.940576
21
-43.21152
31
0
39
0
210
0
220
0
230
1
0
ARC
5
1FA
100
AcDbEntity
8
2
62
256
6
ByLayer
370
18
48
1
60
0
100
AcDbCircle
39
0
10
159.940576
20
-1.284148
30
0
40
39.9273717268325
210
0
220
0
230
1
100
AcDbArc
50
220
51
270
0
LINE
5
1FB
100
AcDbEntity
8
2
62
256
6
ByLayer
370
18
48
1
60
0
100
AcDbLine
10
129.354434
20
-26.948968
30
0
11
131.758007
21
-29.065138
31
0
39
0
210
0
220
0
230
1
0
LINE
5
1FC
100
AcDbEntity
8
2
62
256
6
ByLayer
370
18
48
1
60
0
100
AcDbLine
10
129.354434
20
-26.948968
30
0
11
131.128404
21
-29.615124
31
0
39
0
210
0
220
0
230
1
0
LINE
5
1FD
100
AcDbEntity
8
2
62
256
6
ByLayer
370
18
48
1
60
0
100
AcDbLine
10
131.758007
20
-29.065138
30
0
11
131.128404
21
-29.615124
31
0
39
0
210
0
220
0
230
1
0
LINE
5
1FE
100
AcDbEntity
8
2
62
256
6
ByLayer
370
18
48
1
60
0
100
AcDbLine
10
159.940576
20
-41.21152
30
0
11
156.757899
21
-41.566353
31
0
39
0
210
0
220
0
230
1
0
LINE
5
1FF
100
AcDbEntity
8
2
62
256
6
ByLayer
370
18
48
1
60
0
100
AcDbLine
10
159.940576
20
-41.21152
30
0
11
156.774506
21
-40.730525
31
0
39
0
210
0
220
0
230
1
0
LINE
5
200
100
AcDbEntity
8
2
62
256
6
ByLayer
370
18
48
1
60
0
100
AcDbLine
10
156.757899
20
-41.566353
30
0
11
156.774506
21
-40.730525
31
0
39
0
210
0
220
0
230
1
0
ENDBLK
5
202
100
AcDbEntity
8
0
100
AcDbBlockEnd
0
ENDSEC
0
SECTION
2
ENTITIES
0
ARC
5
EF
100
AcDbEntity
8
1
62
256
6
ByLayer
370
18
48
1
60
0
100
AcDbCircle
39
0
10
83.012177
20
5.278898
30
0
40
5
210
0
220
0
230
1
100
AcDbArc
50
323.501645
51
325
0
ARC
5
F0
100
AcDbEntity
8
1
62
256
6
ByLayer
370
18
48
1
60
0
100
AcDbCircle
39
0
10
-83.012177
20
5.278898
30
0
40
4.99999999956859
210
0
220
0
230
-1
100
AcDbArc
50
142.732969
51
155
0
ARC
5
F1
100
AcDbEntity
8
SK1
62
256
6
ByLayer
370
18
48
1
60
0
100
AcDbCircle
39
0
10
0.6
20
29.6
30
0
40
1
210
0
220
0
230
-1
100
AcDbArc
50
233.130102
51
246.421822
0
ARC
5
F2
100
AcDbEntity
8
SK1
62
256
6
ByLayer
370
18
48
1
60
0
100
AcDbCircle
39
0
10
0.6
20
-29.6
30
0
40
1
210
0
220
0
230
-1
100
AcDbArc
50
113.578178
51
126.869898
0
ELLIPSE
5
F3
100
AcDbEntity
8
1
62
256
6
ByLayer
370
18
48
1
60
0
100
AcDbEllipse
10
132.887308
20
-14.207888
30
0
11
0.861534341721469
21
-2.13254743863637
31
0
210
0
220
0
230
-1
40
0.970296
41
0
42
6.28318530717959
0
ELLIPSE
5
F4
100
AcDbEntity
8
1
62
256
6
ByLayer
370
18
48
1
60
0
100
AcDbEllipse
10
132.692879
20
-14.286436
30
0
11
1.49832059429881
21
-3.70877815414996
31
0
210
0
220
0
230
-1
40
0.970296
41
0
42
3.01069295969031
0
ELLIPSE
5
F5
100
AcDbEntity
8
1
62
256
6
ByLayer
370
18
48
1
60
0
100
AcDbEllipse
10
133.66505
20
-15.595055
30
0
11
0.159196563143313
21
-0.394057678880116
31
0
210
0
220
0
230
-1
40
0.970296
41
-3.09685662894439
42
-2.37862017849962
0
ELLIPSE
5
F6
100
AcDbEntity
8
1
62
256
6
ByLayer
370
18
48
1
60
0
100
AcDbEllipse
10
133.947593
20
-14.853381
30
0
11
0.142340456428528
21
-0.352333924662645
31
0
210
0
220
0
230
-1
40
0.970296
41
0
42
0.762972475000239
0
ELLIPSE
5
F7
100
AcDbEntity
8
1
62
256
6
ByLayer
370
18
48
1
60
0
100
AcDbEllipse
10
134.437873
20
-14.238175
30
0
11
0.159196563143847
21
-0.394057678880334
31
0
210
0
220
0
230
-1
40
0.970296
41
1.06962323949896
42
1.78785968994181
0
ELLIPSE
5
F8
100
AcDbEntity
8
1
62
256
6
ByLayer
370
18
48
1
60
0
100
AcDbEllipse
10
134.437873
20
-14.238175
30
0
11
0.159196563170205
21
-0.394057678871763
31
0
210
0
220
0
230
-1
40
0.970296
41
2.13913112710738
42
2.85736757754966
0
ELLIPSE
5
F9
100
AcDbEntity
8
1
62
256
6
ByLayer
370
18
48
1
60
0
100
AcDbEllipse
10
133.945353
20
-13.603772
30
0
11
0.142340456458215
21
-0.352333924644313
31
0
210
0
220
0
230
-1
40
0.970296
41
-3.11916696528741
42
-0.284225076102313
0
ELLIPSE
5
FA
100
AcDbEntity
8
1
62
256
6
ByLayer
370
18
48
1
60
0
100
AcDbEllipse
10
133.660131
20
-12.851008
30
0
11
0.159196563117218
21
-0.39405767889455
31
0
210
0
220
0
230
-1
40
0.970296
41
0.0224256882318932
42
0.740662138673215
0
ELLIPSE
5
FB
100
AcDbEntity
8
1
62
256
6
ByLayer
370
18
48
1
60
0
100
AcDbEllipse
10
133.660131
20
-12.851008
30
0
11
0.159196563148364
21
-0.394057678876902
31
0
210
0
220
0
230
-1
40
0.970296
41
1.09193357585646
42
1.81017002630184
0
ELLIPSE
5
FC
100
AcDbEntity
8
1
62
256
6
ByLayer
370
18
48
1
60
0
100
AcDbEllipse
10
132.885068
20
-12.95828
30
0
11
0.142340456453048
21
-0.352333924646793
31
0
210
0
220
0
230
-1
40
0.970296
41
3.14159265358979
42
-1.33142262731479
0
ELLIPSE
5
FD
100
AcDbEntity
8
1
62
256
6
ByLayer
370
18
48
1
60
0
100
AcDbEllipse
10
132.109566
20
-12.820721
30
0
11
0.159196563388838
21
-0.394057678805605
31
0
210
0
220
0
230
-1
40
0.970296
41
-1.02477186228327
42
-0.306535411863276
0
ELLIPSE
5
FE
100
AcDbEntity
8
1
62
256
6
ByLayer
370
18
48
1
60
0
100
AcDbEllipse
10
132.109566
20
-12.820721
30
0
11
0.159196563148045
21
-0.394057678876912
31
0
210
0
220
0
230
-1
40
0.970296
41
0.0447360246581372
42
0.762972475103884
0
ELLIPSE
5
FF
100
AcDbEntity
8
1
62
256
6
ByLayer
370
18
48
1
60
0
100
AcDbEllipse
10
131.827023
20
-13.562396
30
0
11
0.142340456490726
21
-0.352333924624143
31
0
210
0
220
0
230
-1
40
0.970296
41
3.14159265358979
42
-2.3786201783924
0
ELLIPSE
5
100
100
AcDbEntity
8
1
62
256
6
ByLayer
370
18
48
1
60
0
100
AcDbEllipse
10
131.336742
20
-14.177602
30
0
11
0.159196563147528
21
-0.394057678878078
31
0
210
0
220
0
230
-1
40
0.970296
41
-2.07196941408131
42
-1.35373296363727
0
ELLIPSE
5
101
100
AcDbEntity
8
1
62
256
6
ByLayer
370
18
48
1
60
0
100
AcDbEllipse
10
131.336742
20
-14.177602
30
0
11
0.159196563166567
21
-0.394057678873142
31
0
210
0
220
0
230
-1
40
0.970296
41
-1.00246152649118
42
-0.284225076048425
0
ELLIPSE
5
102
100
AcDbEntity
8
1
62
256
6
ByLayer
370
18
48
1
60
0
100
AcDbEllipse
10
131.829263
20
-14.812004
30
0
11
0.142340456458485
21
-0.352333924644198
31
0
210
0
220
0
230
-1
40
0.970296
41
0.0224256883030594
42
2.85736757748832
0
ELLIPSE
5
103
100
AcDbEntity
8
1
62
256
6
ByLayer
370
18
48
1
60
0
100
AcDbEllipse
10
132.114484
20
-15.564769
30
0
11
0.159196563122637
21
-0.394057678891159
31
0
210
0
220
0
230
-1
40
0.970296
41
-3.1191669653434
42
-2.40093051490112
0
ELLIPSE
5
104
100
AcDbEntity
8
1
62
256
6
ByLayer
370
18
48
1
60
0
100
AcDbEllipse
10
132.114484
20
-15.564769
30
0
11
0.159196563153682
21
-0.394057678872676
31
0
210
0
220
0
230
-1
40
0.970296
41
-2.04965907771979
42
-1.33142262727101
0
ELLIPSE
5
105
100
AcDbEntity
8
1
62
256
6
ByLayer
370
18
48
1
60
0
100
AcDbEllipse
10
132.889548
20
-15.457496
30
0
11
0.14234045646025
21
-0.352333924643332
31
0
210
0
220
0
230
-1
40
0.970296
41
0
42
1.81017002629704
0
ELLIPSE
5
106
100
AcDbEntity
8
1
62
256
6
ByLayer
370
18
48
1
60
0
100
AcDbEllipse
10
133.66505
20
-15.595055
30
0
11
0.159196563190827
21
-0.394057678865012
31
0
210
0
220
0
230
-1
40
0.970296
41
2.1168207908125
42
2.83505724125304
0
ELLIPSE
5
107
100
AcDbEntity
8
1
62
256
6
ByLayer
370
18
48
1
60
0
100
AcDbEllipse
10
131.827023
20
-13.562396
30
0
11
0.142340456456021
21
-0.352333924645044
31
0
210
0
220
0
230
-1
40
0.970296
41
1.06962323949252
42
3.14159265358979
0
ELLIPSE
5
108
100
AcDbEntity
8
1
62
256
6
ByLayer
370
18
48
1
60
0
100
AcDbEllipse
10
132.889548
20
-15.457496
30
0
11
0.142340456457539
21
-0.352333924644252
31
0
210
0
220
0
230
-1
40
0.970296
41
-1.02477186289623
42
0
0
ELLIPSE
5
109
100
AcDbEntity
8
1
62
256
6
ByLayer
370
18
48
1
60
0
100
AcDbEllipse
10
132.147089
20
-14.506931
30
0
11
1.49832059429811
21
-3.70877815415026
31
0
210
0
220
0
230
-1
40
0.970296
41
0
42
3.01069295969007
0
ELLIPSE
5
10A
100
AcDbEntity
8
1
62
256
6
ByLayer
370
18
48
1
60
0
100
AcDbEllipse
10
132.692879
20
-14.286436
30
0
11
1.4983205769529
21
-3.70877814594661
31
0
210
0
220
0
230
-1
40
0.970296
41
3.01069295630325
42
3.14159265043402
0
ELLIPSE
5
10B
100
AcDbEntity
8
1
62
256
6
ByLayer
370
18
48
1
60
0
100
AcDbEllipse
10
132.692879
20
-14.286436
30
0
11
1.49832059429857
21
-3.70877815415007
31
0
210
0
220
0
230
-1
40
0.970296
41
3.14159265358979
42
-1.37305278961285E-15
0
ELLIPSE
5
10C
100
AcDbEntity
8
1
62
256
6
ByLayer
370
18
48
1
60
0
100
AcDbEllipse
10
132.147089
20
-14.506931
30
0
11
1.49832061492692
21
-3.70877816123506
31
0
210
0
220
0
230
-1
40
0.970296
41
3.01069296392032
42
-3.14159264959423
0
ELLIPSE
5
10D
100
AcDbEntity
8
1
62
256
6
ByLayer
370
18
48
1
60
0
100
AcDbEllipse
10
131.604871
20
-13.024614
30
0
11
0.159196563126889
21
-0.394057678889773
31
0
210
0
220
0
230
-1
40
0.970296
41
0
42
0.702851013057929
0
ELLIPSE
5
10E
100
AcDbEntity
8
1
62
256
6
ByLayer
370
18
48
1
60
0
100
AcDbEllipse
10
133.160355
20
-15.798948
30
0
11
0.159196563123081
21
-0.394057678883817
31
0
210
0
220
0
230
-1
40
0.970296
41
2.11682079064277
42
3.14159265358979
0
ELLIPSE
5
10F
100
AcDbEntity
8
1
62
256
6
ByLayer
370
18
48
1
60
0
100
AcDbEllipse
10
132.885068
20
-12.95828
30
0
11
0.142340456442746
21
-0.352333924649235
31
0
210
0
220
0
230
-1
40
0.970296
41
2.1168207906525
42
3.14159265358979
0
ELLIPSE
5
110
100
AcDbEntity
8
1
62
256
6
ByLayer
370
18
48
1
60
0
100
AcDbEllipse
10
132.380374
20
-13.162173
30
0
11
0.142340456426251
21
-0.352333924662177
31
0
210
0
220
0
230
-1
40
0.970296
41
-2.31128033166156
42
-1.3314226274005
0
ELLIPSE
5
111
100
AcDbEntity
8
1
62
256
6
ByLayer
370
18
48
1
60
0
100
AcDbEllipse
10
133.947593
20
-14.853381
30
0
11
0.14234045645781
21
-0.352333924644454
31
0
210
0
220
0
230
-1
40
0.970296
41
-2.07196941409198
42
0
0
ELLIPSE
5
112
100
AcDbEntity
8
1
62
256
6
ByLayer
370
18
48
1
60
0
100
AcDbEllipse
10
133.442898
20
-15.057274
30
0
11
0.142340456468038
21
-0.352333924642879
31
0
210
0
220
0
230
-1
40
0.970296
41
-2.07196941406119
42
-0.826023881849523
0
ELLIPSE
5
113
100
AcDbEntity
8
1
62
256
6
ByLayer
370
18
48
1
60
0
100
AcDbEllipse
10
133.155437
20
-13.054901
30
0
11
0.159196563143785
21
-0.394057678878637
31
0
210
0
220
0
230
-1
40
0.970296
41
0.0224256883017575
42
1.81017002629006
0
ELLIPSE
5
114
100
AcDbEntity
8
1
62
256
6
ByLayer
370
18
48
1
60
0
100
AcDbEllipse
10
133.933179
20
-14.442068
30
0
11
0.159196563135771
21
-0.394057678881329
31
0
210
0
220
0
230
-1
40
0.970296
41
1.06962323947726
42
2.85736757746759
0
ELLIPSE
5
115
100
AcDbEntity
8
1
62
256
6
ByLayer
370
18
48
1
60
0
100
AcDbEllipse
10
133.440658
20
-13.807665
30
0
11
0.1423404564585
21
-0.352333924644199
31
0
210
0
220
0
230
-1
40
0.970296
41
-3.11916696528665
42
-0.284225076101469
0
ELLIPSE
5
116
100
AcDbEntity
8
1
62
256
6
ByLayer
370
18
48
1
60
0
100
AcDbEllipse
10
132.382613
20
-14.411781
30
0
11
0.430767170860997
21
-1.06627371931808
31
0
210
0
220
0
230
-1
40
0.970296
41
3.14159265358979
42
-0.130899693899429
0
ELLIPSE
5
117
100
AcDbEntity
8
1
62
256
6
ByLayer
370
18
48
1
60
0
100
AcDbEllipse
10
132.382613
20
-14.411781
30
0
11
0.43076717074272
21
-1.06627371953558
31
0
210
0
220
0
230
-1
40
0.970296
41
0
42
0.260502949401221
0
ELLIPSE
5
118
100
AcDbEntity
8
1
62
256
6
ByLayer
370
18
48
1
60
0
100
AcDbEllipse
10
132.382613
20
-14.411781
30
0
11
0.430767171181088
21
-1.06627371927012
31
0
210
0
220
0
230
-1
40
0.970296
41
2.60996028118657
42
-3.14159265332431
0
ELLIPSE
5
119
100
AcDbEntity
8
1
62
256
6
ByLayer
370
18
48
1
60
0
100
AcDbEllipse
10
132.191951
20
-14.488808
30
0
11
0.430767170860675
21
-1.06627371931821
31
0
210
0
220
0
230
-1
40
0.970296
41
-3.04931880803909
42
-0.0922738455507591
0
ELLIPSE
5
11A
100
AcDbEntity
8
1
62
256
6
ByLayer
370
18
48
1
60
0
100
AcDbEllipse
10
159.226476
20
-0.850082
30
0
11
0.297322992931534
21
-0.735960664964004
31
0
210
0
220
0
230
-1
40
0.970296
41
-2.83616003449022
42
-0.305432619098465
0
ELLIPSE
5
11B
100
AcDbEntity
8
1
62
256
6
ByLayer
370
18
48
1
60
0
100
AcDbEllipse
10
147.352753
20
-5.646984
30
0
11
0.713575183034588
21
-1.76630559591401
31
0
210
0
220
0
230
-1
40
0.970296
41
-3.04692664895911
42
-0.377173782024999
0
ELLIPSE
5
11C
100
AcDbEntity
8
1
62
256
6
ByLayer
370
18
48
1
60
0
100
AcDbEllipse
10
127.901786
20
-13.820522
30
0
11
4.79741370374549
21
2.68976240788196
31
0
210
0
220
0
230
-1
40
0.031577
41
1.87687454199928
42
2.30185033838545
0
ELLIPSE
5
11D
100
AcDbEntity
8
1
62
256
6
ByLayer
370
18
48
1
60
0
100
AcDbEllipse
10
130.443566
20
-18.353997
30
0
11
4.79741370487101
21
2.68976240854677
31
0
210
0
220
0
230
-1
40
0.031577
41
1.87687454212894
42
2.30185033843456
0
ELLIPSE
5
11E
100
AcDbEntity
8
1
62
256
6
ByLayer
370
18
48
1
60
0
100
AcDbEllipse
10
124.824957
20
-13.786759
30
0
11
0.00247882729109316
21
-1.99999846385333
31
0
210
0
220
0
230
-1
40
0.711464
41
1.17047448638312
42
2.5831499806426
0
ELLIPSE
5
11F
100
AcDbEntity
8
1
62
256
6
ByLayer
370
18
48
1
60
0
100
AcDbEllipse
10
128.93729
20
-21.121446
30
0
11
1.64106105959483
21
-1.1432054052891
31
0
210
0
220
0
230
-1
40
0.73169
41
0.477523226855633
42
1.89019872111511
0
ELLIPSE
5
120
100
AcDbEntity
8
1
62
256
6
ByLayer
370
18
48
1
60
0
100
AcDbEllipse
10
130.012513
20
-22.167775
30
0
11
1.14819166745554
21
-2.77157997608318
31
0
210
0
220
0
230
-1
40
0.965962
41
3.01921911972859
42
3.10712823512799
0
ELLIPSE
5
121
100
AcDbEntity
8
1
62
256
6
ByLayer
370
18
48
1
60
0
100
AcDbEllipse
10
132.725073
20
-14.169597
30
0
11
1.58833191637692
21
-3.83401900405023
31
0
210
0
220
0
230
-1
40
0.965962
41
-3.07020194282288
42
-0.122373512447185
0
ELLIPSE
5
122
100
AcDbEntity
8
1
62
256
6
ByLayer
370
18
48
1
60
0
100
AcDbEllipse
10
130.937959
20
-15.191385
30
0
11
0.99509951418474
21
-2.40203600228415
31
0
210
0
220
0
230
-1
40
0.965962
41
1.24294479944757
42
1.65918746063735
0
ELLIPSE
5
123
100
AcDbEntity
8
1
62
256
6
ByLayer
370
18
48
1
60
0
100
AcDbEllipse
10
143.494929
20
8.490673
30
0
11
3.82071751546646
21
-9.4573842930801
31
0
210
0
220
0
230
-1
40
0.970296
41
0.334778249135882
42
1.16058690954622
0
ELLIPSE
5
124
100
AcDbEntity
8
1
62
256
6
ByLayer
370
18
48
1
60
0
100
AcDbEllipse
10
154.397775
20
-18.497034
30
0
11
3.82071751992466
21
-9.45738429190197
31
0
210
0
220
0
230
-1
40
0.970296
41
2.52175452001367
42
2.80221666693223
0
ELLIPSE
5
125
100
AcDbEntity
8
1
62
256
6
ByLayer
370
18
48
1
60
0
100
AcDbEllipse
10
126.828548
20
-11.906316
30
0
11
4.96343987274927
21
2.39213678921626
31
0
210
0
220
0
230
-1
40
0.263824
41
2.42096479693885
42
2.47395710568718
0
ELLIPSE
5
126
100
AcDbEntity
8
1
62
256
6
ByLayer
370
18
48
1
60
0
100
AcDbEllipse
10
131.516804
20
-20.268203
30
0
11
4.63548525507814
21
2.97775904295285
31
0
210
0
220
0
230
-1
40
0.200916
41
-2.47823567347658
42
-2.42524337764704
0
ELLIPSE
5
127
100
AcDbEntity
8
1
62
256
6
ByLayer
370
18
48
1
60
0
100
AcDbEllipse
10
126.072486
20
-10.211089
30
0
11
3.23389935882516
21
1.38242966629138
31
0
210
0
220
0
230
-1
40
0.394181
41
2.39498825602821
42
3.11820636242894
0
ELLIPSE
5
128
100
AcDbEntity
8
1
62
256
6
ByLayer
370
18
48
1
60
0
100
AcDbEllipse
10
123.711099
20
-14.20328
30
0
11
1.0057708833398
21
-2.82691611697106
31
0
210
0
220
0
230
-1
40
0.977253
41
1.39775620215448
42
2.45411771298812
0
ELLIPSE
5
129
100
AcDbEntity
8
1
62
256
6
ByLayer
370
18
48
1
60
0
100
AcDbEllipse
10
127.559116
20
-12.445815
30
0
11
4.79750404229068
21
-0.525712030961744
31
0
210
0
220
0
230
-1
40
0.41028
41
-2.98681422193066
42
-2.62719848858841
0
ELLIPSE
5
12A
100
AcDbEntity
8
1
62
256
6
ByLayer
370
18
48
1
60
0
100
AcDbEllipse
10
132.589861
20
-21.835367
30
0
11
2.87682901938664
21
2.021616001553
31
0
210
0
220
0
230
-1
40
0.3318
41
-3.12673212607585
42
-2.40351401967617
0
ELLIPSE
5
12B
100
AcDbEntity
8
1
62
256
6
ByLayer
370
18
48
1
60
0
100
AcDbEllipse
10
131.665068
20
-19.769121
30
0
11
2.35516083779474
21
3.9758311042421
31
0
210
0
220
0
230
-1
40
0.376513
41
2.6453017046313
42
2.91652660680245
0
ELLIPSE
5
12C
100
AcDbEntity
8
1
62
256
6
ByLayer
370
18
48
1
60
0
100
AcDbEllipse
10
127.817052
20
-21.526585
30
0
11
1.00577088336238
21
-2.8269161169675
31
0
210
0
220
0
230
-1
40
0.977253
41
0.341394691330037
42
1.39775620216232
0
ELLIPSE
5
12D
100
AcDbEntity
8
1
62
256
6
ByLayer
370
18
48
1
60
0
100
AcDbEllipse
10
131.665068
20
-19.769121
30
0
11
2.35516079838148
21
3.97583098368473
31
0
210
0
220
0
230
-1
40
0.376513
41
2.55691086369404
42
2.64530169624114
0
ELLIPSE
5
12E
100
AcDbEntity
8
1
62
256
6
ByLayer
370
18
48
1
60
0
100
AcDbEllipse
10
147.91009
20
-5.427454
30
0
11
1.32410003247216
21
-1.15693681544223
31
0
210
0
220
0
230
-1
40
0.644046
41
-2.24165912651503
42
-1.38644779303907
0
ELLIPSE
5
12F
100
AcDbEntity
8
1
62
256
6
ByLayer
370
18
48
1
60
0
100
AcDbEllipse
10
147.91009
20
-5.427454
30
0
11
0.0956796670660842
21
-1.70165007794252
31
0
210
0
220
0
230
-1
40
0.628159
41
-1.91213355025828
42
-1.056922216779
0
ELLIPSE
5
130
100
AcDbEntity
8
1
62
256
6
ByLayer
370
18
48
1
60
0
100
AcDbEllipse
10
79.963811
20
2.927946
30
0
11
67.555597853296
21
-12.4879867880289
31
0
210
0
220
0
230
-1
40
0.431354
41
0.620975341242342
42
0.700165208324067
0
ELLIPSE
5
131
100
AcDbEntity
8
1
62
256
6
ByLayer
370
18
48
1
60
0
100
AcDbEllipse
10
67.240256
20
1.97483
30
0
11
151.031815444781
21
-3.34266677253983
31
0
210
0
220
0
230
-1
40
0.181361
41
1.11894666660821
42
1.1253021967281
0
ELLIPSE
5
132
100
AcDbEntity
8
1
62
256
6
ByLayer
370
18
48
1
60
0
100
AcDbEllipse
10
156.646662
20
-3.852174
30
0
11
27.4993379658042
21
22.155192592035
31
0
210
0
220
0
230
-1
40
0.045066
41
2.6672160658548
42
3.05851170815664
0
ELLIPSE
5
133
100
AcDbEntity
8
1
62
256
6
ByLayer
370
18
48
1
60
0
100
AcDbEllipse
10
87.994043
20
0.015187
30
0
11
0.108155089526682
21
-31.8452980579483
31
0
210
0
220
0
230
-1
40
0.036316
41
0.814578635343028
42
2.01033476642167
0
ELLIPSE
5
134
100
AcDbEntity
8
1
62
256
6
ByLayer
370
18
48
1
60
0
100
AcDbEllipse
10
67.240554
20
1.97471
30
0
11
151.031403921698
21
-3.34260676585379
31
0
210
0
220
0
230
-1
40
0.181361
41
1.19897472571689
42
1.4029293779931
0
ELLIPSE
5
135
100
AcDbEntity
8
1
62
256
6
ByLayer
370
18
48
1
60
0
100
AcDbEllipse
10
112.854737
20
2.136131
30
0
11
21.1862866484502
21
-26.3410534528409
31
0
210
0
220
0
230
-1
40
0.477725
41
0.523462017452456
42
0.674305733955096
0
ELLIPSE
5
136
100
AcDbEntity
8
1
62
256
6
ByLayer
370
18
48
1
60
0
100
AcDbEllipse
10
-6.763884
20
0
30
0
11
18.7348357595632
21
-39.4834983054991
31
0
210
0
220
0
230
-1
40
0.341999
41
-1.08794676716932
42
-0.161099005228945
0
ELLIPSE
5
137
100
AcDbEntity
8
1
62
256
6
ByLayer
370
18
48
1
60
0
100
AcDbEllipse
10
30.763884
20
0
30
0
11
18.7348357595628
21
39.4834983054992
31
0
210
0
220
0
230
-1
40
0.341999
41
-2.98049364836084
42
-2.05364588642047
0
ELLIPSE
5
138
100
AcDbEntity
8
1
62
256
6
ByLayer
370
18
48
1
60
0
100
AcDbEllipse
10
-6.763884
20
0
30
0
11
18.7348357595638
21
39.4834983054999
31
0
210
0
220
0
230
-1
40
0.341999
41
0.161099005228942
42
1.08794676716931
0
ELLIPSE
5
139
100
AcDbEntity
8
1
62
256
6
ByLayer
370
18
48
1
60
0
100
AcDbEllipse
10
30.763884
20
0
30
0
11
18.7348357595623
21
-39.4834983054985
31
0
210
0
220
0
230
-1
40
0.341999
41
2.05364588642046
42
2.98049364836084
0
ELLIPSE
5
13A
100
AcDbEntity
8
1
62
256
6
ByLayer
370
18
48
1
60
0
100
AcDbEllipse
10
87.238866
20
4.909111
30
0
11
0.0229140536001064
21
-6.52679830546449
31
0
210
0
220
0
230
-1
40
0.036167
41
0.146938448126809
42
1.57408846067221
0
ELLIPSE
5
13B
100
AcDbEntity
8
1
62
256
6
ByLayer
370
18
48
1
60
0
100
AcDbEllipse
10
89.206508
20
92.122041
30
0
11
4.1661723144814
21
-91.3906010143524
31
0
210
0
220
0
230
-1
40
0.124597
41
0.535885940238109
42
0.542013177644574
0
ELLIPSE
5
13C
100
AcDbEntity
8
1
62
256
6
ByLayer
370
18
48
1
60
0
100
AcDbEllipse
10
68.16682
20
6.577699
30
0
11
29.2660669348291
21
-3.33133759050583
31
0
210
0
220
0
230
-1
40
0.219204
41
-0.118423533755103
42
0.601847697165336
0
ELLIPSE
5
13D
100
AcDbEntity
8
1
62
256
6
ByLayer
370
18
48
1
60
0
100
AcDbEllipse
10
118.510449
20
-11.756937
30
0
11
4.74510674049245
21
2.76497791436452
31
0
210
0
220
0
230
-1
40
0.727933
41
-0.589426636548019
42
0.0120876861666166
0
ELLIPSE
5
13E
100
AcDbEntity
8
1
62
256
6
ByLayer
370
18
48
1
60
0
100
AcDbEllipse
10
142.113282
20
-5.55479
30
0
11
1.18888083297066
21
2.4426874726457
31
0
210
0
220
0
230
-1
40
0.380158
41
-0.625037309232575
42
-0.365544046244488
0
ELLIPSE
5
13F
100
AcDbEntity
8
1
62
256
6
ByLayer
370
18
48
1
60
0
100
AcDbEllipse
10
144.167404
20
-2.905146
30
0
11
0.26074831738509
21
-0.645427732200313
31
0
210
0
220
0
230
-1
40
0.970296
41
2.83616003448154
42
-2.83616003450807
0
ELLIPSE
5
140
100
AcDbEntity
8
1
62
256
6
ByLayer
370
18
48
1
60
0
100
AcDbEllipse
10
146.965807
20
-9.832003
30
0
11
0.260748317423811
21
-0.645427732234724
31
0
210
0
220
0
230
-1
40
0.970296
41
-0.30543261906606
42
0.305432619103558
0
ELLIPSE
5
141
100
AcDbEntity
8
1
62
256
6
ByLayer
370
18
48
1
60
0
100
AcDbEllipse
10
133.368595
20
-15.148942
30
0
11
0.314579207644279
21
-0.0162764282906767
31
0
210
0
220
0
230
-1
40
0.218563
41
0
42
6.28318530717959
0
POINT
5
6C
100
AcDbEntity
8
80
62
256
6
ByLayer
370
18
48
1
60
0
100
AcDbPoint
10
0
20
0
30
0
39
0
210
0
220
0
230
1
50
360
0
POINT
5
6E
100
AcDbEntity
8
81
62
256
6
ByLayer
370
18
48
1
60
0
100
AcDbPoint
10
159.940576
20
-0.561591
30
0
39
0
210
0
220
0
230
1
50
360
0
SPLINE
5
142
100
AcDbEntity
8
1
62
256
6
ByLayer
370
18
48
1
60
0
100
AcDbSpline
70
4
71
3
72
11
73
7
40
0
40
0
40
0
40
0
40
0.165080412346284
40
0.540696647123346
40
0.916508467179717
40
1
40
1
40
1
40
1
41
1
10
132.380476559445
20
-15.2461058154706
30
0
41
1
10
132.373897279102
20
-15.2412444329205
30
0
41
1
10
132.352069801048
20
-15.2256176320928
30
0
41
1
10
132.311996714704
20
-15.1995957504576
30
0
41
1
10
132.276326866215
20
-15.1801149711733
30
0
41
1
10
132.258250015143
20
-15.1712676715174
30
0
41
1
10
132.254996300842
20
-15.1697145185253
30
0
0
SPLINE
5
143
100
AcDbEntity
8
1
62
256
6
ByLayer
370
18
48
1
60
0
100
AcDbSpline
70
4
71
3
72
11
73
7
40
0
40
0
40
0
40
0
40
0.0834915328203442
40
0.459303352876658
40
0.834919587653837
40
1
40
1
40
1
40
1
41
1
10
131.744672707008
20
-14.2595101839922
30
0
41
1
10
131.744977200903
20
-14.2558031584831
30
0
41
1
10
131.74650990045
20
-14.2351425956526
30
0
41
1
10
131.748057007095
20
-14.1937626428295
30
0
41
1
10
131.746792678815
20
-14.1460558267849
30
0
41
1
10
131.745044546182
20
-14.1196335761944
30
0
41
1
10
131.744407640164
20
-14.1116242935755
30
0
0
SPLINE
5
144
100
AcDbEntity
8
1
62
256
6
ByLayer
370
18
48
1
60
0
100
AcDbSpline
70
4
71
3
72
10
73
6
40
0
40
0
40
0
40
0
40
0.30374631461188
40
0.758805136790971
40
1
40
1
40
1
40
1
41
1
10
132.266737649598
20
-13.2155965487575
30
0
41
1
10
132.277696089373
20
-13.211208577043
30
0
41
1
10
132.305124466222
20
-13.198577000283
30
0
41
1
10
132.343779769146
20
-13.174840607404
30
0
41
1
10
132.368315956353
20
-13.1564986650161
30
0
41
1
10
132.376719191729
20
-13.1497980988579
30
0
0
SPLINE
5
145
100
AcDbEntity
8
1
62
256
6
ByLayer
370
18
48
1
60
0
100
AcDbSpline
70
4
71
3
72
10
73
6
40
0
40
0
40
0
40
0
40
0.303746314608811
40
0.758805136787828
40
1
40
1
40
1
40
1
41
1
10
133.50490160892
20
-15.2013825624717
30
0
41
1
10
133.492082566261
20
-15.2065222048179
30
0
41
1
10
133.461636965827
20
-15.2203727189334
30
0
41
1
10
133.424650172331
20
-15.2434350456017
30
0
41
1
10
133.404412123269
20
-15.2600405700557
30
0
41
1
10
133.397896513084
20
-15.2659785487575
30
0
0
SPLINE
5
146
100
AcDbEntity
8
1
62
256
6
ByLayer
370
18
48
1
60
0
100
AcDbSpline
70
4
71
3
72
11
73
7
40
0
40
0
40
0
40
0
40
0.165080412346171
40
0.540696647123162
40
0.916508467179588
40
1
40
1
40
1
40
1
41
1
10
133.394139145368
20
-13.1696708321449
30
0
41
1
10
133.399250951375
20
-13.1751250641261
30
0
41
1
10
133.41707000127
20
-13.1923712420675
30
0
41
1
10
133.454305338101
20
-13.2195395547802
30
0
41
1
10
133.493863463317
20
-13.2374494972945
30
0
41
1
10
133.515633695865
20
-13.2448046965071
30
0
41
1
10
133.519619403971
20
-13.2460621290901
30
0
0
SPLINE
5
147
100
AcDbEntity
8
1
62
256
6
ByLayer
370
18
48
1
60
0
100
AcDbSpline
70
4
71
3
72
11
73
7
40
0
40
0
40
0
40
0
40
0.083491532820267
40
0.459303352876675
40
0.834919587653928
40
1
40
1
40
1
40
1
41
1
10
134.029942997805
20
-14.1562664636233
30
0
41
1
10
134.028906510104
20
-14.1602692095415
30
0
41
1
10
134.023680429082
20
-14.1824218728152
30
0
41
1
10
134.01824504571
20
-14.2253726624083
30
0
41
1
10
134.022347123502
20
-14.2719330473754
30
0
41
1
10
134.028103684295
20
-14.2967359208522
30
0
41
1
10
134.030208064648
20
-14.3041523540399
30
0
0
SPLINE
5
148
100
AcDbEntity
8
1
62
256
6
ByLayer
370
18
48
1
60
0
100
AcDbSpline
70
4
71
1
72
4
73
2
40
0
40
0
40
1
40
1
41
1
10
123.354220715327
20
-14.6574141193085
30
0
41
1
10
123.321554891186
20
-14.5955677031451
30
0
0
SPLINE
5
149
100
AcDbEntity
8
1
62
256
6
ByLayer
370
18
48
1
60
0
100
AcDbSpline
70
4
71
3
72
13
73
9
40
0
40
0
40
0
40
0
40
0.260934035689891
40
0.395422171823602
40
0.529893061087819
40
0.740446632056276
40
0.956680336898353
40
1
40
1
40
1
40
1
41
1
10
127.173346612438
20
-14.3425997178865
30
0
41
1
10
126.810004164321
20
-14.3459607720468
30
0
41
1
10
126.272460704699
20
-14.3570246307672
30
0
41
1
10
125.57477215693
20
-14.3835773522099
30
0
41
1
10
124.966782905219
20
-14.4157889981762
30
0
41
1
10
124.298266069201
20
-14.4665797058168
30
0
41
1
10
123.801096053732
20
-14.5241934885644
30
0
41
1
10
123.555739222852
20
-14.5614479338237
30
0
41
1
10
123.515498613522
20
-14.5678125397803
30
0
0
SPLINE
5
14A
100
AcDbEntity
8
1
62
256
6
ByLayer
370
18
48
1
60
0
100
AcDbSpline
70
4
71
2
72
6
73
3
40
0
40
0
40
0
40
1
40
1
40
1
41
1
10
127.173346612438
20
-14.3425997178865
30
0
41
1
10
126.870769456846
20
-14.594395994363
30
0
41
1
10
126.537209414397
20
-14.7754533905555
30
0
0
SPLINE
5
14B
100
AcDbEntity
8
1
62
256
6
ByLayer
370
18
48
1
60
0
100
AcDbSpline
70
4
71
1
72
4
73
2
40
0
40
0
40
1
40
1
41
1
10
129.785781760431
20
-19.0020938586633
30
0
41
1
10
129.359903782902
20
-19.1678938938228
30
0
0
SPLINE
5
14C
100
AcDbEntity
8
1
62
256
6
ByLayer
370
18
48
1
60
0
100
AcDbSpline
70
4
71
3
72
12
73
8
40
0
40
0
40
0
40
0
40
0.181539929260372
40
0.367090410392555
40
0.582386776032316
40
0.802685919538396
40
1
40
1
40
1
40
1
41
1
10
127.627831846783
20
-21.9024989606904
30
0
41
1
10
127.745265821312
20
-21.7813901467997
30
0
41
1
10
127.989348837922
20
-21.5130210946067
30
0
41
1
10
128.401759690012
20
-21.0045152570407
30
0
41
1
10
128.857287037554
20
-20.3915726398223
30
0
41
1
10
129.329845985198
20
-19.7066819193625
30
0
41
1
10
129.639426691842
20
-19.2323967442259
30
0
41
1
10
129.785781760419
20
-19.0020938586553
30
0
0
SPLINE
5
14D
100
AcDbEntity
8
1
62
256
6
ByLayer
370
18
48
1
60
0
100
AcDbSpline
70
4
71
1
72
4
73
2
40
0
40
0
40
1
40
1
41
1
10
127.460172892323
20
-21.9807193986416
30
0
41
1
10
127.495967657051
20
-22.0409781045752
30
0
0
SPLINE
5
14E
100
AcDbEntity
8
1
62
256
6
ByLayer
370
18
48
1
60
0
100
AcDbSpline
70
4
71
3
72
13
73
9
40
0
40
0
40
0
40
0
40
0.185711692742461
40
0.377318733004876
40
0.562839209186604
40
0.752690820038804
40
0.875845705421517
40
1
40
1
40
1
40
1
41
1
10
124.068893783599
20
-12.0915326109101
30
0
41
1
10
124.247016348448
20
-12.1180024956535
30
0
41
1
10
124.635749227792
20
-12.1960450297777
30
0
41
1
10
125.308241549612
20
-12.3918217532964
30
0
41
1
10
126.045151105887
20
-12.6515163578464
30
0
41
1
10
126.72967019634
20
-12.9254224430434
30
0
41
1
10
127.344532367518
20
-13.1918192067496
30
0
41
1
10
127.695357475993
20
-13.3519577427674
30
0
41
1
10
127.8725283817
20
-13.4349191083788
30
0
0
SPLINE
5
14F
100
AcDbEntity
8
1
62
256
6
ByLayer
370
18
48
1
60
0
100
AcDbSpline
70
4
71
3
72
10
73
6
40
0
40
0
40
0
40
0
40
0.405981479400764
40
0.814655576880023
40
1
40
1
40
1
40
1
41
1
10
127.8725283817
20
-13.4349191083788
30
0
41
1
10
127.811710433897
20
-13.5757219528821
30
0
41
1
10
127.663348858616
20
-13.84299143708
30
0
41
1
10
127.398470259288
20
-14.1427858935333
30
0
41
1
10
127.22852270676
20
-14.2965217247183
30
0
41
1
10
127.173346612438
20
-14.3425997178865
30
0
0
SPLINE
5
150
100
AcDbEntity
8
1
62
256
6
ByLayer
370
18
48
1
60
0
100
AcDbSpline
70
4
71
3
72
12
73
8
40
0
40
0
40
0
40
0
40
0.2332025262853
40
0.4664050525706
40
0.699607578855907
40
0.932810105141204
40
1
40
1
40
1
40
1
41
1
10
130.504133450886
20
-8.4171793839653
30
0
41
1
10
130.601351856822
20
-8.47405022394492
30
0
41
1
10
130.807406386267
20
-8.61803613260226
30
0
41
1
10
131.154988224437
20
-8.92788505768996
30
0
41
1
10
131.530129432771
20
-9.32219191685721
30
0
41
1
10
131.831758224647
20
-9.68147473695125
30
0
41
1
10
132.00404730643
20
-9.90120230713109
30
0
41
1
10
132.042776748713
20
-9.95130563192593
30
0
0
SPLINE
5
151
100
AcDbEntity
8
1
62
256
6
ByLayer
370
18
48
1
60
0
100
AcDbSpline
70
4
71
2
72
6
73
3
40
0
40
0
40
0
40
1
40
1
40
1
41
1
10
132.042776737078
20
-9.95130561687386
30
0
41
1
10
131.80464535169
20
-10.0278874268877
30
0
41
1
10
131.580288968243
20
-10.1302918419793
30
0
0
SPLINE
5
152
100
AcDbEntity
8
1
62
256
6
ByLayer
370
18
48
1
60
0
100
AcDbSpline
70
4
71
3
72
12
73
8
40
0
40
0
40
0
40
0
40
0.234419222505014
40
0.474927609339136
40
0.687013496544108
40
0.842273239762794
40
1
40
1
40
1
40
1
41
1
10
127.943007731727
20
-13.2411956090777
30
0
41
1
10
128.002384300371
20
-13.0496907269329
30
0
41
1
10
128.153783008493
20
-12.6784622871406
30
0
41
1
10
128.463281657709
20
-12.1859846090693
30
0
41
1
10
128.815082961085
20
-11.7992786516051
30
0
41
1
10
129.170727126864
20
-11.5052656000368
30
0
41
1
10
129.405022616683
20
-11.3534211612488
30
0
41
1
10
129.529092853555
20
-11.2825865188316
30
0
0
SPLINE
5
153
100
AcDbEntity
8
1
62
256
6
ByLayer
370
18
48
1
60
0
100
AcDbSpline
70
4
71
1
72
4
73
2
40
0
40
0
40
1
40
1
41
1
10
127.943007731727
20
-13.2411956090777
30
0
41
1
10
127.8725283817
20
-13.4349191083787
30
0
0
SPLINE
5
154
100
AcDbEntity
8
1
62
256
6
ByLayer
370
18
48
1
60
0
100
AcDbSpline
70
4
71
3
72
14
73
10
40
0
40
0
40
0
40
0
40
0.185895819695105
40
0.375324978536758
40
0.488280746726566
40
0.601223047040197
40
0.71853743992955
40
0.835832154388686
40
1
40
1
40
1
40
1
41
1
10
130.921326460049
20
-18.8727026237038
30
0
41
1
10
130.887457671339
20
-19.1625354709325
30
0
41
1
10
130.810463787919
20
-19.7329665496462
30
0
41
1
10
130.687619070029
20
-20.4446973544862
30
0
41
1
10
130.567703360651
20
-21.0122109697333
30
0
41
1
10
130.459162607612
20
-21.454488304538
30
0
41
1
10
130.339660363095
20
-21.8685219619841
30
0
41
1
10
130.191755975426
20
-22.2986689358228
30
0
41
1
10
130.079020799582
20
-22.5545923004611
30
0
41
1
10
130.01034868859
20
-22.6886088059085
30
0
0
SPLINE
5
155
100
AcDbEntity
8
1
62
256
6
ByLayer
370
18
48
1
60
0
100
AcDbSpline
70
4
71
3
72
10
73
6
40
0
40
0
40
0
40
0
40
0.470015366934157
40
0.889783175867895
40
1
40
1
40
1
40
1
41
1
10
129.78578176042
20
-19.0020938586607
30
0
41
1
10
129.964152918114
20
-18.9423761681924
30
0
41
1
10
130.298634860305
20
-18.86527935092
30
0
41
1
10
130.692017793291
20
-18.8476548163955
30
0
41
1
10
130.882128642026
20
-18.86746325581
30
0
41
1
10
130.921326460049
20
-18.8727026237066
30
0
0
SPLINE
5
156
100
AcDbEntity
8
1
62
256
6
ByLayer
370
18
48
1
60
0
100
AcDbSpline
70
4
71
1
72
4
73
2
40
0
40
0
40
1
40
1
41
1
10
133.586164647492
20
-18.5187095924583
30
0
41
1
10
133.274260643262
20
-18.6787791043213
30
0
0
SPLINE
5
157
100
AcDbEntity
8
1
62
256
6
ByLayer
370
18
48
1
60
0
100
AcDbSpline
70
4
71
2
72
6
73
3
40
0
40
0
40
0
40
1
40
1
40
1
41
1
10
136.013349103161
20
-17.0331498072231
30
0
41
1
10
135.686073981971
20
-17.3189985466928
30
0
41
1
10
135.317885561447
20
-17.5299423270051
30
0
0
SPLINE
5
158
100
AcDbEntity
8
1
62
256
6
ByLayer
370
18
48
1
60
0
100
AcDbSpline
70
4
71
3
72
12
73
8
40
0
40
0
40
0
40
0
40
0.0671898895667189
40
0.300392417175039
40
0.533594944783358
40
0.766797472391679
40
1
40
1
40
1
40
1
41
1
10
136.013349102149
20
-17.0331498045176
30
0
41
1
10
136.034731633697
20
-17.0902611549565
30
0
41
1
10
136.126964737504
20
-17.3423307779613
30
0
41
1
10
136.26521900201
20
-17.7676157663601
30
0
41
1
10
136.389133700103
20
-18.263416389375
30
0
41
1
10
136.453212643409
20
-18.6877985133385
30
0
41
1
10
136.454904525603
20
-18.9143455109462
30
0
41
1
10
136.445588355878
20
-19.0142555789637
30
0
0
SPLINE
5
159
100
AcDbEntity
8
1
62
256
6
ByLayer
370
18
48
1
60
0
100
AcDbSpline
70
4
71
1
72
4
73
2
40
0
40
0
40
1
40
1
41
1
10
130.921326460049
20
-18.8727026237066
30
0
41
1
10
131.120574451453
20
-18.9086486457643
30
0
0
SPLINE
5
15A
100
AcDbEntity
8
1
62
256
6
ByLayer
370
18
48
1
60
0
100
AcDbSpline
70
4
71
2
72
6
73
3
40
0
40
0
40
0
40
1
40
1
40
1
41
1
10
129.359903782902
20
-19.1678938938228
30
0
41
1
10
129.215748877794
20
-19.233758507931
30
0
41
1
10
129.07898933349
20
-19.3089280872855
30
0
0
SPLINE
5
15B
100
AcDbEntity
8
1
62
256
6
ByLayer
370
18
48
1
60
0
100
AcDbSpline
70
4
71
3
72
12
73
8
40
0
40
0
40
0
40
0
40
0.102752450012341
40
0.347839878032578
40
0.599696755508018
40
0.798472273716949
40
1
40
1
40
1
40
1
41
1
10
133.274260643262
20
-18.6787791043214
30
0
41
1
10
133.202106161856
20
-18.7117354853625
30
0
41
1
10
132.956735168716
20
-18.814544061461
30
0
41
1
10
132.523707386464
20
-18.941558978588
30
0
41
1
10
132.018827220438
20
-19.0021648866106
30
0
41
1
10
131.548592029097
20
-18.9874294531135
30
0
41
1
10
131.263417064709
20
-18.9413795487817
30
0
41
1
10
131.120574451453
20
-18.9086486457643
30
0
0
SPLINE
5
15C
100
AcDbEntity
8
1
62
256
6
ByLayer
370
18
48
1
60
0
100
AcDbSpline
70
4
71
3
72
24
73
20
40
0
40
0
40
0
40
0
40
0.0414607053740134
40
0.0926273028719706
40
0.152065265737336
40
0.218263642865443
40
0.289703932738874
40
0.364856134462769
40
0.437288193704261
40
0.509148879938488
40
0.578336566955858
40
0.642726230129201
40
0.70018154586333
40
0.753615909574591
40
0.801466636102038
40
0.848997548715128
40
0.898822340135156
40
0.94964851599307
40
1
40
1
40
1
40
1
41
1
10
130.504133450886
20
-8.4171793839653
30
0
41
1
10
130.713642384151
20
-8.324489642793
30
0
41
1
10
131.186872798042
20
-8.12874220282985
30
0
41
1
10
131.989651318015
20
-7.85940780600551
30
0
41
1
10
132.931914070901
20
-7.5776519692633
30
0
41
1
10
133.990258866114
20
-7.29612256275819
30
0
41
1
10
135.136402608616
20
-7.0215297514947
30
0
41
1
10
136.315656509896
20
-6.7692846552143
30
0
41
1
10
137.493797928511
20
-6.54072568822354
30
0
41
1
10
138.635803978384
20
-6.33543205861014
30
0
41
1
10
139.729663869747
20
-6.15066821052897
30
0
41
1
10
140.740703210354
20
-5.98795372341943
30
0
41
1
10
141.660678930531
20
-5.84441950047959
30
0
41
1
10
142.482854994573
20
-5.71828074650655
30
0
41
1
10
143.22892873785
20
-5.58227831967202
30
0
41
1
10
143.915368218338
20
-5.40250273132423
30
0
41
1
10
144.577967119311
20
-5.18104079803705
30
0
41
1
10
145.236893045344
20
-4.9533167945241
30
0
41
1
10
145.68263738708
20
-4.82322064788794
30
0
41
1
10
145.904254155311
20
-4.76207072046997
30
0
0
SPLINE
5
15D
100
AcDbEntity
8
1
62
256
6
ByLayer
370
18
48
1
60
0
100
AcDbSpline
70
4
71
3
72
16
73
12
40
0
40
0
40
0
40
0
40
0.0907562907968377
40
0.161635925043847
40
0.233080549584868
40
0.293573959411996
40
0.384100355812379
40
0.541982280484314
40
0.713133060561645
40
0.884766353185865
40
1
40
1
40
1
40
1
41
1
10
145.904254236446
20
-4.76207069864001
30
0
41
1
10
145.89456681117
20
-4.78337594815875
30
0
41
1
10
145.893164448422
20
-4.82594533624604
30
0
41
1
10
145.925894366616
20
-4.90057158534072
30
0
41
1
10
145.995971850967
20
-4.97222793080377
30
0
41
1
10
146.103390231977
20
-5.0450991047011
30
0
41
1
10
146.274886385587
20
-5.12890281253877
30
0
41
1
10
146.511749866262
20
-5.20755380014217
30
0
41
1
10
146.780583989517
20
-5.27057648136594
30
0
41
1
10
147.01404540987
20
-5.30763171714332
30
0
41
1
10
147.1549415586
20
-5.32427872999562
30
0
41
1
10
147.210606553424
20
-5.32965117944166
30
0
0
SPLINE
5
15E
100
AcDbEntity
8
1
62
256
6
ByLayer
370
18
48
1
60
0
100
AcDbSpline
70
4
71
3
72
20
73
16
40
0
40
0
40
0
40
0
40
0.0799873803622338
40
0.164989843151386
40
0.253060894432167
40
0.341430225197392
40
0.427175660091847
40
0.507324317802899
40
0.578869613702084
40
0.65208759273409
40
0.718572023905791
40
0.787248629634511
40
0.858618349031286
40
0.929802231328859
40
1
40
1
40
1
40
1
41
1
10
136.207137067313
20
-10.7717754188294
30
0
41
1
10
136.529139383151
20
-10.6055033513947
30
0
41
1
10
137.189372599034
20
-10.2669942635561
30
0
41
1
10
138.190778613729
20
-9.76159348743276
30
0
41
1
10
139.209097870467
20
-9.2553908642821
30
0
41
1
10
140.217033590944
20
-8.76039339742258
30
0
41
1
10
141.182463280647
20
-8.29130099532341
30
0
41
1
10
142.073200654264
20
-7.86282901633373
30
0
41
1
10
142.906233424927
20
-7.46590616474741
30
0
41
1
10
143.675250032933
20
-7.10484376855014
30
0
41
1
10
144.409768749957
20
-6.75249965293604
30
0
41
1
10
145.116079269536
20
-6.38917637620871
30
0
41
1
10
145.823996003849
20
-6.01641828650531
30
0
41
1
10
146.525862633818
20
-5.65874968442743
30
0
41
1
10
146.984662413018
20
-5.43650178917134
30
0
41
1
10
147.210606553421
20
-5.32965117944322
30
0
0
SPLINE
5
15F
100
AcDbEntity
8
1
62
256
6
ByLayer
370
18
48
1
60
0
100
AcDbSpline
70
4
71
3
72
14
73
10
40
0
40
0
40
0
40
0
40
0.137983454017137
40
0.276025889258684
40
0.435340483197111
40
0.594623213277721
40
0.736450282784857
40
0.878136850186925
40
1
40
1
40
1
40
1
41
1
10
132.042776737078
20
-9.95130561687381
30
0
41
1
10
132.237194449052
20
-9.88955791907765
30
0
41
1
10
132.631167389932
20
-9.79297835317666
30
0
41
1
10
133.274821206671
20
-9.72511151310783
30
0
41
1
10
133.953652254352
20
-9.75121363498494
30
0
41
1
10
134.626755054863
20
-9.88248895434637
30
0
41
1
10
135.245041940605
20
-10.1093727097635
30
0
41
1
10
135.772817397461
20
-10.4046773904303
30
0
41
1
10
136.074893760649
20
-10.6481066369571
30
0
41
1
10
136.207134793451
20
-10.7717765934136
30
0
0
SPLINE
5
160
100
AcDbEntity
8
1
62
256
6
ByLayer
370
18
48
1
60
0
100
AcDbSpline
70
4
71
3
72
16
73
12
40
0
40
0
40
0
40
0
40
0.199911929575306
40
0.399329007151394
40
0.599135964333702
40
0.677952924301054
40
0.757475106136069
40
0.81792650127785
40
0.878273023216131
40
0.967348715875235
40
1
40
1
40
1
40
1
41
1
10
147.642732488058
20
-6.10038352166305
30
0
41
1
10
147.601982513107
20
-6.19092534394988
30
0
41
1
10
147.524955289247
20
-6.38123885974137
30
0
41
1
10
147.419506450417
20
-6.69095487730836
30
0
41
1
10
147.350586784366
20
-6.96731144105277
30
0
41
1
10
147.32391184245
20
-7.18496447904467
30
0
41
1
10
147.323259246619
20
-7.31523961612652
30
0
41
1
10
147.341102695428
20
-7.41273196880096
30
0
41
1
10
147.374469704235
20
-7.4822442086468
30
0
41
1
10
147.412981047848
20
-7.50836976234917
30
0
41
1
10
147.440036327611
20
-7.51410358390513
30
0
41
1
10
147.447506185044
20
-7.51458817950139
30
0
0
SPLINE
5
161
100
AcDbEntity
8
1
62
256
6
ByLayer
370
18
48
1
60
0
100
AcDbSpline
70
4
71
3
72
24
73
20
40
0
40
0
40
0
40
0
40
0.0414607051194787
40
0.0926273023036209
40
0.152065264804702
40
0.218263641527344
40
0.289703930963459
40
0.364856132227576
40
0.437288191026136
40
0.509148876821058
40
0.57833656341555
40
0.642726226195389
40
0.70018154157839
40
0.75361590597901
40
0.801466633109
40
0.848997546506872
40
0.898822338766507
40
0.949648515364186
40
1
40
1
40
1
40
1
41
1
10
136.445588355878
20
-19.0142555789637
30
0
41
1
10
136.632664994351
20
-18.881555984838
30
0
41
1
10
137.043834500039
20
-18.5751177825335
30
0
41
1
10
137.68905812888
20
-18.0247712072509
30
0
41
1
10
138.417118922467
20
-17.360968461128
30
0
41
1
10
139.204820676538
20
-16.5967248079617
30
0
41
1
10
140.031288846329
20
-15.751964174873
30
0
41
1
10
140.854591997733
20
-14.8648514782465
30
0
41
1
10
141.655969228011
20
-13.9643024220869
30
0
41
1
10
142.417983983029
20
-13.0812628919345
30
0
41
1
10
143.136886508643
20
-12.2277315721908
30
0
41
1
10
143.793651813959
20
-11.4331400438468
30
0
41
1
10
144.386525008746
20
-10.7061914043869
30
0
41
1
10
144.913437602729
20
-10.0534258136171
30
0
41
1
10
145.408013991402
20
-9.46885702679422
30
0
41
1
10
145.90719350485
20
-8.95508777164664
30
0
41
1
10
146.427965900636
20
-8.4806665081725
30
0
41
1
10
146.95122228753
20
-8.01096463443915
30
0
41
1
10
147.284752318953
20
-7.68072496861643
30
0
41
1
10
147.44750618501
20
-7.51458817953701
30
0
0
SPLINE
5
162
100
AcDbEntity
8
1
62
256
6
ByLayer
370
18
48
1
60
0
100
AcDbSpline
70
4
71
3
72
14
73
10
40
0
40
0
40
0
40
0
40
0.124512731168675
40
0.249123326191381
40
0.378681277410088
40
0.508307375658889
40
0.6633490378435
40
0.829134289595257
40
1
40
1
40
1
40
1
41
1
10
137.481267267092
20
-13.0442972338308
30
0
41
1
10
137.518875127459
20
-13.2264468281921
30
0
41
1
10
137.566017001638
20
-13.5917729360085
30
0
41
1
10
137.550119922928
20
-14.1562096038624
30
0
41
1
10
137.449937441502
20
-14.7177486571279
30
0
41
1
10
137.260338505402
20
-15.3033385522623
30
0
41
1
10
136.965992756803
20
-15.9050367332199
30
0
41
1
10
136.547744884734
20
-16.5079853101412
30
0
41
1
10
136.20378574783
20
-16.8649222210696
30
0
41
1
10
136.013349103161
20
-17.033149807223
30
0
0
SPLINE
5
163
100
AcDbEntity
8
1
62
256
6
ByLayer
370
18
48
1
60
0
100
AcDbSpline
70
4
71
3
72
20
73
16
40
0
40
0
40
0
40
0
40
0.0799873801329952
40
0.164989848535382
40
0.25306091127234
40
0.341430257686336
40
0.42717570998094
40
0.507324384318796
40
0.578869693495251
40
0.652087658662836
40
0.718572077239984
40
0.787248669938348
40
0.85861837580527
40
0.929802244623573
40
1
40
1
40
1
40
1
41
1
10
137.481267267326
20
-13.0442972336826
30
0
41
1
10
137.787371138758
20
-12.8496688184445
30
0
41
1
10
138.412458945236
20
-12.4484746083664
30
0
41
1
10
139.352186292675
20
-11.8330641617985
30
0
41
1
10
140.299419946406
20
-11.2000736983272
30
0
41
1
10
141.23050184712
20
-10.5680002260249
30
0
41
1
10
142.116884304557
20
-9.95791968090981
30
0
41
1
10
142.930018721684
20
-9.39103561487455
30
0
41
1
10
143.686316500065
20
-8.85724906405806
30
0
41
1
10
144.378788290604
20
-8.35966243819953
30
0
41
1
10
145.044971810773
20
-7.88543685039347
30
0
41
1
10
145.705382440765
20
-7.44024732748884
30
0
41
1
10
146.373759066231
20
-6.99696618640909
30
0
41
1
10
147.025263956026
20
-6.5494732581203
30
0
41
1
10
147.440588584705
20
-6.24968383786314
30
0
41
1
10
147.642732481688
20
-6.10038352636198
30
0
0
SPLINE
5
164
100
AcDbEntity
8
1
62
256
6
ByLayer
370
18
48
1
60
0
100
AcDbSpline
70
4
71
1
72
4
73
2
40
0
40
0
40
1
40
1
41
1
10
131.580288968243
20
-10.1302918419793
30
0
41
1
10
131.260813767511
20
-10.2938192533785
30
0
0
SPLINE
5
165
100
AcDbEntity
8
1
62
256
6
ByLayer
370
18
48
1
60
0
100
AcDbSpline
70
4
71
3
72
11
73
7
40
0
40
0
40
0
40
0
40
0.265269115606366
40
0.526758846364872
40
0.760690423661857
40
1
40
1
40
1
40
1
41
1
10
136.207134793451
20
-10.7717765934136
30
0
41
1
10
136.377614246444
20
-10.9330032300235
30
0
41
1
10
136.686616685164
20
-11.2757732996024
30
0
41
1
10
137.052849823534
20
-11.8423906853816
30
0
41
1
10
137.321105967998
20
-12.4361793458669
30
0
41
1
10
137.436908028806
20
-12.8364316308769
30
0
41
1
10
137.481267267092
20
-13.0442972338308
30
0
0
SPLINE
5
166
100
AcDbEntity
8
1
62
256
6
ByLayer
370
18
48
1
60
0
100
AcDbSpline
70
4
71
3
72
15
73
11
40
0
40
0
40
0
40
0
40
0.0745275399797311
40
0.149166569620972
40
0.296714101987961
40
0.404641565313032
40
0.512745133321876
40
0.692425899560636
40
0.872499590221542
40
1
40
1
40
1
40
1
41
1
10
123.321554891186
20
-14.5955677031451
30
0
41
1
10
123.27354826201
20
-14.4992820311988
30
0
41
1
10
123.182768857079
20
-14.3063916621337
30
0
41
1
10
123.020305355315
20
-13.9182885344482
30
0
41
1
10
122.88453899935
20
-13.4976617427873
30
0
41
1
10
122.787750236085
20
-13.0824301266765
30
0
41
1
10
122.722585735702
20
-12.6790505246182
30
0
41
1
10
122.693145611663
20
-12.2787927060488
30
0
41
1
10
122.729634556438
20
-11.9249716413833
30
0
41
1
10
122.810253051855
20
-11.7093410911053
30
0
41
1
10
122.852213215617
20
-11.6229492721892
30
0
0
SPLINE
5
167
100
AcDbEntity
8
1
62
256
6
ByLayer
370
18
48
1
60
0
100
AcDbSpline
70
4
71
3
72
10
73
6
40
0
40
0
40
0
40
0
40
0.327488273455951
40
0.662483542170345
40
1
40
1
40
1
40
1
41
1
10
122.73360217339
20
-11.3645170351383
30
0
41
1
10
122.553507979457
20
-11.4561093017424
30
0
41
1
10
122.195866167584
20
-11.6729955645006
30
0
41
1
10
121.652153905888
20
-12.0879074739057
30
0
41
1
10
121.333147314076
20
-12.4449301106539
30
0
41
1
10
121.180667816303
20
-12.6422273527657
30
0
0
SPLINE
5
168
100
AcDbEntity
8
1
62
256
6
ByLayer
370
18
48
1
60
0
100
AcDbSpline
70
4
71
3
72
16
73
12
40
0
40
0
40
0
40
0
40
0.193175194179128
40
0.386603933897665
40
0.499007693810767
40
0.611232808940344
40
0.703623602273983
40
0.795912588408055
40
0.868506640166547
40
0.941036848444227
40
1
40
1
40
1
40
1
41
1
10
129.703381912828
20
-23.8425752510275
30
0
41
1
10
129.569434696197
20
-23.8421859604176
30
0
41
1
10
129.304121046039
20
-23.8002910621175
30
0
41
1
10
128.99746436237
20
-23.6360874209198
30
0
41
1
10
128.707289669564
20
-23.4333212653035
30
0
41
1
10
128.467285585467
20
-23.2316303326563
30
0
41
1
10
128.225524127384
20
-22.9968606739993
30
0
41
1
10
128.009020380752
20
-22.756523024925
30
0
41
1
10
127.810352140847
20
-22.5055302446036
30
0
41
1
10
127.64347623451
20
-22.2706828240073
30
0
41
1
10
127.541065182766
20
-22.1131945484771
30
0
41
1
10
127.495967657051
20
-22.0409781045752
30
0
0
SPLINE
5
169
100
AcDbEntity
8
1
62
256
6
ByLayer
370
18
48
1
60
0
100
AcDbSpline
70
4
71
3
72
10
73
6
40
0
40
0
40
0
40
0
40
0.159024975727985
40
0.577936116037513
40
1
40
1
40
1
40
1
41
1
10
129.434921928456
20
-24.0857406368975
30
0
41
1
10
129.360861924425
20
-24.1201563005186
30
0
41
1
10
129.085587084949
20
-24.2388523211931
30
0
41
1
10
128.566557945648
20
-24.4202818811122
30
0
41
1
10
128.090082469222
20
-24.4964827738896
30
0
41
1
10
127.839850502229
20
-24.5194304027929
30
0
0
SPLINE
5
16A
100
AcDbEntity
8
1
62
256
6
ByLayer
370
18
48
1
60
0
100
AcDbSpline
70
4
71
2
72
6
73
3
40
0
40
0
40
0
40
1
40
1
40
1
41
1
10
147.210606553424
20
-5.32965117944166
30
0
41
1
10
147.589246357187
20
-5.36714439480329
30
0
41
1
10
147.959991049451
20
-5.39540905004639
30
0
0
SPLINE
5
16B
100
AcDbEntity
8
1
62
256
6
ByLayer
370
18
48
1
60
0
100
AcDbSpline
70
4
71
2
72
6
73
3
40
0
40
0
40
0
40
1
40
1
40
1
41
1
10
147.959991049441
20
-5.39540905006278
30
0
41
1
10
147.799647387511
20
-5.74244958648076
30
0
41
1
10
147.642732488058
20
-6.10038352166335
30
0
0
SPLINE
5
16C
100
AcDbEntity
8
1
62
256
6
ByLayer
370
18
48
1
60
0
100
AcDbSpline
70
4
71
1
72
4
73
2
40
0
40
0
40
1
40
1
41
1
10
130.504133450886
20
-8.4171793839653
30
0
41
1
10
129.250207214377
20
-7.68541237698598
30
0
0
SPLINE
5
16D
100
AcDbEntity
8
1
62
256
6
ByLayer
370
18
48
1
60
0
100
AcDbSpline
70
4
71
1
72
4
73
2
40
0
40
0
40
1
40
1
41
1
10
136.445588355878
20
-19.0142555789637
30
0
41
1
10
136.323823590538
20
-20.3017921881645
30
0
0
SPLINE
5
16E
100
AcDbEntity
8
1
62
256
6
ByLayer
370
18
48
1
60
0
100
AcDbSpline
70
4
71
3
72
10
73
6
40
0
40
0
40
0
40
0
40
0.26290983845881
40
0.627970664061107
40
1
40
1
40
1
40
1
41
1
10
146.793951833568
20
-3.82052765441721
30
0
41
1
10
146.666147944204
20
-3.8746335466306
30
0
41
1
10
146.392475515636
20
-4.02197110226991
30
0
41
1
10
146.094261238581
20
-4.34090040570012
30
0
41
1
10
145.952478039347
20
-4.61256608029941
30
0
41
1
10
145.904254236438
20
-4.76207069864121
30
0
0
SPLINE
5
16F
100
AcDbEntity
8
1
62
256
6
ByLayer
370
18
48
1
60
0
100
AcDbSpline
70
4
71
3
72
15
73
11
40
0
40
0
40
0
40
0
40
0.205564303110352
40
0.308890912875717
40
0.412208327155411
40
0.512050223121239
40
0.611904209124805
40
0.812591576843888
40
0.906244049854427
40
1
40
1
40
1
40
1
41
1
10
129.250207214377
20
-7.68541237698598
30
0
41
1
10
129.967469914424
20
-7.2969572779754
30
0
41
1
10
131.064276924361
20
-6.75544684503481
30
0
41
1
10
132.564786474522
20
-6.11086418418302
30
0
41
1
10
133.70131918469
20
-5.68346826330958
30
0
41
1
10
134.845133598305
20
-5.31846108350322
30
0
41
1
10
136.375058200329
20
-4.89851859117001
30
0
41
1
10
137.900868172158
20
-4.55799073615342
30
0
41
1
10
139.415933093372
20
-4.28671558021355
30
0
41
1
10
140.152180952
20
-4.18360152786294
30
0
41
1
10
140.521611315774
20
-4.13830973547662
30
0
0
SPLINE
5
170
100
AcDbEntity
8
1
62
256
6
ByLayer
370
18
48
1
60
0
100
AcDbSpline
70
4
71
3
72
12
73
8
40
0
40
0
40
0
40
0
40
0.220065533921343
40
0.440119071660066
40
0.666479586337059
40
0.892877362010785
40
1
40
1
40
1
40
1
41
1
10
144.103134111949
20
-3.5735286080474
30
0
41
1
10
143.865759537197
20
-3.61979534419804
30
0
41
1
10
143.379055225909
20
-3.7113680501645
30
0
41
1
10
142.604888903303
20
-3.85518610541177
30
0
41
1
10
141.788088303886
20
-3.98091296128631
30
0
41
1
10
141.084864505747
20
-4.07089218963715
30
0
41
1
10
140.659182019256
20
-4.122228380005
30
0
41
1
10
140.521611315775
20
-4.13830973547822
30
0
0
SPLINE
5
171
100
AcDbEntity
8
1
62
256
6
ByLayer
370
18
48
1
60
0
100
AcDbSpline
70
4
71
1
72
4
73
2
40
0
40
0
40
1
40
1
41
1
10
145.721172906532
20
-3.63176234200143
30
0
41
1
10
144.103158438932
20
-3.57361334498899
30
0
0
SPLINE
5
172
100
AcDbEntity
8
1
62
256
6
ByLayer
370
18
48
1
60
0
100
AcDbSpline
70
4
71
1
72
4
73
2
40
0
40
0
40
1
40
1
41
1
10
145.715296696703
20
-3.62956611960779
30
0
41
1
10
146.793951833568
20
-3.82052765441717
30
0
0
SPLINE
5
173
100
AcDbEntity
8
1
62
256
6
ByLayer
370
18
48
1
60
0
100
AcDbSpline
70
4
71
3
72
11
73
7
40
0
40
0
40
0
40
0
40
0.24565551144849
40
0.491254786601599
40
0.74561591126197
40
1
40
1
40
1
40
1
41
1
10
145.141624428717
20
-12.3784852080993
30
0
41
1
10
145.334949532542
20
-12.1232572652255
30
0
41
1
10
145.720345741394
20
-11.6233283671397
30
0
41
1
10
146.299578600553
20
-10.889090477748
30
0
41
1
10
146.886015840421
20
-10.1938651371948
30
0
41
1
10
147.260092337721
20
-9.74793705467281
30
0
41
1
10
147.443591434042
20
-9.53151050548535
30
0
0
SPLINE
5
174
100
AcDbEntity
8
1
62
256
6
ByLayer
370
18
48
1
60
0
100
AcDbSpline
70
4
71
3
72
15
73
11
40
0
40
0
40
0
40
0
40
0.0954197875795336
40
0.190971097650942
40
0.39043650647234
40
0.490620920685017
40
0.590792978185377
40
0.692783392550305
40
0.794782493976709
40
1
40
1
40
1
40
1
41
1
10
145.141624428717
20
-12.3784852080993
30
0
41
1
10
144.908797459353
20
-12.6799601852896
30
0
41
1
10
144.432969371798
20
-13.2746617680924
30
0
41
1
10
143.415179335669
20
-14.4516975137309
30
0
41
1
10
142.336464267323
20
-15.5981912965234
30
0
41
1
10
141.19247079241
20
-16.7027587910537
30
0
41
1
10
140.294296394264
20
-17.5012483952354
30
0
41
1
10
139.35231203165
20
-18.2574067971901
30
0
41
1
10
138.0413055772
20
-19.215902455149
30
0
41
1
10
137.021973439529
20
-19.8820822145145
30
0
41
1
10
136.323823590538
20
-20.3017921881645
30
0
0
SPLINE
5
175
100
AcDbEntity
8
1
62
256
6
ByLayer
370
18
48
1
60
0
100
AcDbSpline
70
4
71
3
72
10
73
6
40
0
40
0
40
0
40
0
40
0.412278309160628
40
0.7765205215682
40
1
40
1
40
1
40
1
41
1
10
147.447506185044
20
-7.51458817950141
30
0
41
1
10
147.604853301311
20
-7.53484676349725
30
0
41
1
10
147.904986041336
20
-7.51131433522108
30
0
41
1
10
148.304836290655
20
-7.35567221038312
30
0
41
1
10
148.539930700268
20
-7.17460133374119
30
0
41
1
10
148.629661335266
20
-7.09466736828308
30
0
0
SPLINE
5
176
100
AcDbEntity
8
1
62
256
6
ByLayer
370
18
48
1
60
0
100
AcDbSpline
70
4
71
1
72
4
73
2
40
0
40
0
40
1
40
1
41
1
10
148.226264385121
20
-8.10808465521226
30
0
41
1
10
148.629661335266
20
-7.09466736828318
30
0
0
SPLINE
5
177
100
AcDbEntity
8
1
62
256
6
ByLayer
370
18
48
1
60
0
100
AcDbSpline
70
4
71
1
72
4
73
2
40
0
40
0
40
1
40
1
41
1
10
147.443525167658
20
-9.53143839917482
30
0
41
1
10
148.227440594548
20
-8.10178773692578
30
0
0
SPLINE
5
178
100
AcDbEntity
8
1
62
256
6
ByLayer
370
18
48
1
60
0
100
AcDbSpline
70
4
71
3
72
17
73
13
40
0
40
0
40
0
40
0
40
0.118768552846099
40
0.237380580896458
40
0.314542713900182
40
0.39156357635176
40
0.468463070694726
40
0.545176817914799
40
0.622911522001557
40
0.70084237450202
40
0.850223137406001
40
1
40
1
40
1
40
1
41
1
10
124.913060186886
20
-25.7369819820606
30
0
41
1
10
125.003046656154
20
-25.7559965087552
30
0
41
1
10
125.195492807742
20
-25.7879222925621
30
0
41
1
10
125.476999572332
20
-25.8172524499993
30
0
41
1
10
125.754791393391
20
-25.8267039532878
30
0
41
1
10
126.019658517891
20
-25.8183892262882
30
0
41
1
10
126.299871437935
20
-25.7969679882429
30
0
41
1
10
126.58993051511
20
-25.7643475982652
30
0
41
1
10
126.88173030897
20
-25.7172157142848
30
0
41
1
10
127.250081630666
20
-25.642525457454
30
0
41
1
10
127.678163225236
20
-25.5363178094961
30
0
41
1
10
127.999575129614
20
-25.4459644230224
30
0
41
1
10
128.155074877198
20
-25.3984993128479
30
0
0
SPLINE
5
179
100
AcDbEntity
8
1
62
256
6
ByLayer
370
18
48
1
60
0
100
AcDbSpline
70
4
71
1
72
4
73
2
40
0
40
0
40
1
40
1
41
1
10
129.325031755818
20
-26.0337896393714
30
0
41
1
10
129.29987222533
20
-26.0378830558587
30
0
0
SPLINE
5
17A
100
AcDbEntity
8
1
62
256
6
ByLayer
370
18
48
1
60
0
100
AcDbSpline
70
4
71
3
72
35
73
31
40
0
40
0
40
0
40
0
40
0.005343857233801
40
0.0510411833040039
40
0.0967808930482461
40
0.142517332662754
40
0.188210195270795
40
0.235469509692046
40
0.282788928163415
40
0.330098529178047
40
0.377344438621628
40
0.416048604823862
40
0.454869117824998
40
0.493731297411856
40
0.532571620151444
40
0.571341621474783
40
0.61001201924065
40
0.641221144614421
40
0.672529426053459
40
0.7038764432085
40
0.735209063932375
40
0.766484071690957
40
0.797670948028363
40
0.828945764315999
40
0.860325781160005
40
0.89172930225607
40
0.923085925521311
40
0.954341056532723
40
0.977170806206057
40
1
40
1
40
1
40
1
41
1
10
86.9014441688794
20
13.5625017617325
30
0
41
1
10
86.770863040919
20
13.5884673617003
30
0
41
1
10
85.5241326869222
20
13.8391273246403
30
0
41
1
10
83.168106814733
20
14.3634037869009
30
0
41
1
10
79.8548164551469
20
15.2257928713727
30
0
41
1
10
76.5723875970955
20
16.2029661454243
30
0
41
1
10
73.2902704588895
20
17.3025232398353
30
0
41
1
10
70.015026934744
20
18.5257053303615
30
0
41
1
10
66.7534135721881
20
19.8668140399221
30
0
41
1
10
63.5500611592283
20
21.3010144745289
30
0
41
1
10
60.6026412434395
20
22.7254202098349
30
0
41
1
10
57.9043580691781
20
24.1170400006885
30
0
41
1
10
55.4428591397866
20
25.4531412853607
30
0
41
1
10
53.0375798041101
20
26.8167970666886
30
0
41
1
10
50.6973144824872
20
28.1940489356156
30
0
41
1
10
48.4307988467118
20
29.5706588632641
30
0
41
1
10
46.3852105766756
20
30.8466277191308
30
0
41
1
10
44.5481906254711
20
32.0137791612661
30
0
41
1
10
42.901889715915
20
33.0689069655584
30
0
41
1
10
41.313589203206
20
34.0890446997514
30
0
41
1
10
39.7889670902838
20
35.0628758383159
30
0
41
1
10
38.3336773223565
20
35.979092638892
30
0
41
1
10
36.9507444834309
20
36.8283946106821
30
0
41
1
10
35.6430543156544
20
37.5996416498837
30
0
41
1
10
34.4108899224211
20
38.2846970791562
30
0
41
1
10
33.2595722504353
20
38.8737473683469
30
0
41
1
10
32.1956424737832
20
39.3559337870669
30
0
41
1
10
31.3118230437636
20
39.6875769627219
30
0
41
1
10
30.5848541463137
20
39.8961731108671
30
0
41
1
10
30.1890648758062
20
39.9731062425595
30
0
41
1
10
30
20
40
30
0
0
SPLINE
5
17B
100
AcDbEntity
8
1
62
256
6
ByLayer
370
18
48
1
60
0
100
AcDbSpline
70
4
71
3
72
17
73
13
40
0
40
0
40
0
40
0
40
0.100461069372993
40
0.200922349025802
40
0.30127042701405
40
0.401654320300424
40
0.504300542949389
40
0.607006099702426
40
0.72245958237885
40
0.837994442953009
40
0.918990496963251
40
1
40
1
40
1
40
1
41
1
10
91.8771336941076
20
-25.5899324012369
30
0
41
1
10
91.5904478295678
20
-25.5923062996416
30
0
41
1
10
91.0350139525909
20
-25.5671964529511
30
0
41
1
10
90.2446283898956
20
-25.4410248522594
30
0
41
1
10
89.5308631267041
20
-25.2233841707375
30
0
41
1
10
88.8994095425789
20
-24.9204075836133
30
0
41
1
10
88.3675708735113
20
-24.5333842866779
30
0
41
1
10
87.9199979410813
20
-24.0547457579745
30
0
41
1
10
87.578028995585
20
-23.4859745200679
30
0
41
1
10
87.3695184123114
20
-22.9002914906899
30
0
41
1
10
87.2622897628211
20
-22.3461182302164
30
0
41
1
10
87.2329574497822
20
-22.010375455456
30
0
41
1
10
87.2269728054587
20
-21.8391167193071
30
0
0
SPLINE
5
17C
100
AcDbEntity
8
1
62
256
6
ByLayer
370
18
48
1
60
0
100
AcDbSpline
70
4
71
3
72
13
73
9
40
0
40
0
40
0
40
0
40
0.25622233148971
40
0.5958169603472
40
0.756721547742956
40
0.892572489753448
40
0.999730652645857
40
1
40
1
40
1
40
1
41
1
10
13.8943375672974
20
-12.6576002058703
30
0
41
1
10
13.8795666910705
20
-12.5981337335348
30
0
41
1
10
13.8329277424199
20
-12.4656679136685
30
0
41
1
10
13.7467570243875
20
-12.3032744555853
30
0
41
1
10
13.6370470144326
20
-12.1928955703791
30
0
41
1
10
13.5489284783071
20
-12.1436124753822
30
0
41
1
10
13.4880893034259
20
-12.1331007202158
30
0
41
1
10
13.4613918068658
20
-12.1330899681061
30
0
41
1
10
13.4613248654052
20
-12.1330899674707
30
0
0
SPLINE
5
17D
100
AcDbEntity
8
1
62
256
6
ByLayer
370
18
48
1
60
0
100
AcDbSpline
70
4
71
3
72
12
73
8
40
0
40
0
40
0
40
0
40
0.107090927408361
40
0.242566900788489
40
0.455432315407909
40
0.863255751650487
40
1
40
1
40
1
40
1
41
1
10
10.5386751345948
20
-12.1330899674707
30
0
41
1
10
10.5111569501376
20
-12.1338666389724
30
0
41
1
10
10.4519692068693
20
-12.1430431247033
30
0
41
1
10
10.3518152424399
20
-12.1991373298677
30
0
41
1
10
10.227595095868
20
-12.3362292766508
30
0
41
1
10
10.1522095131338
20
-12.5035430644979
30
0
41
1
10
10.1138798044165
20
-12.6262033054279
30
0
41
1
10
10.1056624327026
20
-12.6576002058703
30
0
0
SPLINE
5
17E
100
AcDbEntity
8
1
62
256
6
ByLayer
370
18
48
1
60
0
100
AcDbSpline
70
4
71
3
72
13
73
9
40
0
40
0
40
0
40
0
40
0.256222331489398
40
0.595816960347141
40
0.756721547742859
40
0.892572489753384
40
0.999730652645788
40
1
40
1
40
1
40
1
41
1
10
10.1056624327026
20
-37.9445010117191
30
0
41
1
10
10.1204333089295
20
-37.9643151482468
30
0
41
1
10
10.1670722575799
20
-38.0081948789905
30
0
41
1
10
10.2532429756129
20
-38.0609637527959
30
0
41
1
10
10.3629529855666
20
-38.0963895308789
30
0
41
1
10
10.4510715216949
20
-38.1121103030051
30
0
41
1
10
10.5119106965705
20
-38.1154544345226
30
0
41
1
10
10.5386081931341
20
-38.1154578593284
30
0
41
1
10
10.5386751345948
20
-38.1154578595255
30
0
0
SPLINE
5
17F
100
AcDbEntity
8
1
62
256
6
ByLayer
370
18
48
1
60
0
100
AcDbSpline
70
4
71
3
72
12
73
8
40
0
40
0
40
0
40
0
40
0.107090927408397
40
0.242566900788548
40
0.455432315408007
40
0.863255751650729
40
1
40
1
40
1
40
1
41
1
10
13.4613248654052
20
-38.1154578595254
30
0
41
1
10
13.4888430498624
20
-38.1152151562847
30
0
41
1
10
13.5480307931307
20
-38.1122888019998
30
0
41
1
10
13.6481847575601
20
-38.0944005955985
30
0
41
1
10
13.7724049041321
20
-38.0503633413166
30
0
41
1
10
13.8477904868662
20
-37.9957326993062
30
0
41
1
10
13.8861201955835
20
-37.9549695995299
30
0
41
1
10
13.8943375672974
20
-37.9445010117191
30
0
0
SPLINE
5
180
100
AcDbEntity
8
1
62
256
6
ByLayer
370
18
48
1
60
0
100
AcDbSpline
70
4
71
3
72
13
73
9
40
0
40
0
40
0
40
0
40
0.256222331489343
40
0.595816960347081
40
0.756721547742824
40
0.892572489753365
40
0.999730652645771
40
1
40
1
40
1
40
1
41
1
10
13.8943375672974
20
37.9445010117191
30
0
41
1
10
13.8795666910705
20
37.9643151482468
30
0
41
1
10
13.8329277424201
20
38.0081948789905
30
0
41
1
10
13.7467570243871
20
38.060963752796
30
0
41
1
10
13.6370470144333
20
38.0963895308788
30
0
41
1
10
13.5489284783051
20
38.1121103030052
30
0
41
1
10
13.4880893034294
20
38.1154544345224
30
0
41
1
10
13.4613918068658
20
38.1154578593284
30
0
41
1
10
13.4613248654052
20
38.1154578595254
30
0
0
SPLINE
5
181
100
AcDbEntity
8
1
62
256
6
ByLayer
370
18
48
1
60
0
100
AcDbSpline
70
4
71
3
72
12
73
8
40
0
40
0
40
0
40
0
40
0.107090927408485
40
0.242566900788656
40
0.4554323154082
40
0.863255751651131
40
1
40
1
40
1
40
1
41
1
10
10.5386751345948
20
38.1154578595255
30
0
41
1
10
10.5111569501375
20
38.1152151562848
30
0
41
1
10
10.4519692068692
20
38.1122888019998
30
0
41
1
10
10.3518152424398
20
38.0944005955984
30
0
41
1
10
10.2275950958678
20
38.0503633413165
30
0
41
1
10
10.1522095131337
20
37.9957326993062
30
0
41
1
10
10.1138798044165
20
37.9549695995298
30
0
41
1
10
10.1056624327026
20
37.9445010117191
30
0
0
SPLINE
5
182
100
AcDbEntity
8
1
62
256
6
ByLayer
370
18
48
1
60
0
100
AcDbSpline
70
4
71
3
72
13
73
9
40
0
40
0
40
0
40
0
40
0.256222331489357
40
0.59581696034712
40
0.756721547742844
40
0.892572489753384
40
0.999730652645795
40
1
40
1
40
1
40
1
41
1
10
10.1056624327026
20
12.6576002058704
30
0
41
1
10
10.1204333089295
20
12.598133733535
30
0
41
1
10
10.1670722575799
20
12.4656679136691
30
0
41
1
10
10.253242975613
20
12.3032744555839
30
0
41
1
10
10.3629529855664
20
12.1928955703815
30
0
41
1
10
10.4510715216954
20
12.1436124753755
30
0
41
1
10
10.5119106965696
20
12.1331007202272
30
0
41
1
10
10.5386081931341
20
12.133089968106
30
0
41
1
10
10.5386751345948
20
12.1330899674706
30
0
0
SPLINE
5
183
100
AcDbEntity
8
1
62
256
6
ByLayer
370
18
48
1
60
0
100
AcDbSpline
70
4
71
3
72
12
73
8
40
0
40
0
40
0
40
0
40
0.107090927408461
40
0.242566900788645
40
0.45543231540817
40
0.863255751651031
40
1
40
1
40
1
40
1
41
1
10
13.4613248654052
20
12.1330899674707
30
0
41
1
10
13.4888430498624
20
12.1338666389724
30
0
41
1
10
13.5480307931308
20
12.1430431247033
30
0
41
1
10
13.6481847575602
20
12.1991373298678
30
0
41
1
10
13.7724049041321
20
12.336229276651
30
0
41
1
10
13.8477904868662
20
12.5035430644981
30
0
41
1
10
13.8861201955835
20
12.626203305428
30
0
41
1
10
13.8943375672974
20
12.6576002058703
30
0
0
SPLINE
5
184
100
AcDbEntity
8
SK1
62
256
6
ByLayer
370
18
48
1
60
0
100
AcDbSpline
70
4
71
3
72
14
73
10
40
0
40
0
40
0
40
0
40
0.0714525147756997
40
0.223815465534892
40
0.376164399407351
40
0.52850391405262
40
0.680836884630184
40
0.833165199991649
40
1
40
1
40
1
40
1
41
1
10
-2.19993682738198
20
-27.5201003716814
30
0
41
1
10
-2.19994133718661
20
-27.5198230160209
30
0
41
1
10
-2.19995450958095
20
-27.5039155673506
30
0
41
1
10
-2.19997094784586
20
-27.394040480592
30
0
41
1
10
-2.19998426128205
20
-27.139215519519
30
0
41
1
10
-2.19999257580515
20
-26.7723349790472
30
0
41
1
10
-2.19999733583458
20
-26.301612043374
30
0
41
1
10
-2.19999960052824
20
-25.7147105940174
30
0
41
1
10
-2.20000009750726
20
-25.2507575607393
30
0
41
1
10
-2.20000000000003
20
-24.9895674792757
30
0
0
SPLINE
5
185
100
AcDbEntity
8
SK1
62
256
6
ByLayer
370
18
48
1
60
0
100
AcDbSpline
70
4
71
2
72
6
73
3
40
0
40
0
40
0
40
1
40
1
40
1
41
1
10
-2.19488043388042
20
27.5202274059881
30
0
41
1
10
-2.59744021694021
20
27.5101137030446
30
0
41
1
10
-2.99999999999999
20
27.500000000101
30
0
0
SPLINE
5
186
100
AcDbEntity
8
SK1
62
256
6
ByLayer
370
18
48
1
60
0
100
AcDbSpline
70
4
71
2
72
6
73
3
40
0
40
0
40
0
40
1
40
1
40
1
41
1
10
-2.99999999999999
20
-27.5000000000453
30
0
41
1
10
-2.59744021694021
20
-27.5101137029888
30
0
41
1
10
-2.19488043388042
20
-27.5202274059323
30
0
0
SPLINE
5
187
100
AcDbEntity
8
SK1
62
256
6
ByLayer
370
18
48
1
60
0
100
AcDbSpline
70
4
71
3
72
26
73
22
40
0
40
0
40
0
40
0
40
0.078585357911695
40
0.157252748199192
40
0.235778549668423
40
0.282601795393521
40
0.329417804437845
40
0.376166830374409
40
0.41612517504067
40
0.456070654610106
40
0.490125005391353
40
0.524177475478469
40
0.558209950837152
40
0.592249582489842
40
0.62623377715491
40
0.660222844809511
40
0.728118845469172
40
0.79617795053834
40
0.864253922812416
40
0.932123606416206
40
1
40
1
40
1
40
1
41
1
10
-2.20000000000005
20
-12.8645636937652
30
0
41
1
10
-2.20000016047837
20
-12.2861130080291
30
0
41
1
10
-2.19999957148689
20
-11.0977532180057
30
0
41
1
10
-2.19999661711145
20
-9.22395969422506
30
0
41
1
10
-2.19999055884135
20
-7.52155020219844
30
0
41
1
10
-2.19998218984638
20
-6.03251753753805
30
0
41
1
10
-2.19997307135417
20
-4.7855439852853
30
0
41
1
10
-2.19996213940416
20
-3.56956365986463
30
0
41
1
10
-2.19995033896412
20
-2.39167800272954
30
0
41
1
10
-2.19994084140314
20
-1.31446841407063
30
0
41
1
10
-2.19993615925136
20
-0.283386930534165
30
0
41
1
10
-2.19993723123847
20
0.693370247419649
30
0
41
1
10
-2.19994378990531
20
1.66493625888345
30
0
41
1
10
-2.19995281124713
20
2.62541519967102
30
0
41
1
10
-2.19996200780712
20
3.57169781375531
30
0
41
1
10
-2.19997337686956
20
4.81120498633967
30
0
41
1
10
-2.19998440559029
20
6.32109463672957
30
0
41
1
10
-2.19999281455917
20
8.06477148312187
30
0
41
1
10
-2.19999754066544
20
9.7386371816634
30
0
41
1
10
-2.19999965248002
20
11.3424661012463
30
0
41
1
10
-2.20000008843769
20
12.3648051837732
30
0
41
1
10
-2.20000000000005
20
12.8645646511277
30
0
0
SPLINE
5
188
100
AcDbEntity
8
SK1
62
256
6
ByLayer
370
18
48
1
60
0
100
AcDbSpline
70
4
71
3
72
13
73
9
40
0
40
0
40
0
40
0
40
0.191250134515216
40
0.38248915991512
40
0.550308078240399
40
0.71813722207525
40
0.885981785606799
40
1
40
1
40
1
40
1
41
1
10
-2.20000000000005
20
24.9895663958186
30
0
41
1
10
-2.20000017346274
20
25.2893016284474
30
0
41
1
10
-2.19999946853487
20
25.8390473320528
30
0
41
1
10
-2.19999613967969
20
26.4914614657769
30
0
41
1
10
-2.19998895238301
20
26.9794773352791
30
0
41
1
10
-2.19997689701903
20
27.3148111242734
30
0
41
1
10
-2.19995977854942
20
27.4876543810886
30
0
41
1
10
-2.1999439519625
20
27.5192574734227
30
0
41
1
10
-2.19993682295048
20
27.5201003707423
30
0
0
SPLINE
5
189
100
AcDbEntity
8
SK1
62
256
6
ByLayer
370
18
48
1
60
0
100
AcDbSpline
70
4
71
3
72
11
73
7
40
0
40
0
40
0
40
0
40
0.5
40
0.75
40
0.875
40
1
40
1
40
1
40
1
41
1
10
-46.5004731678958
20
26.4071167016768
30
0
41
1
10
-46.5001135363555
20
17.6047444751198
30
0
41
1
10
-46.5022455259354
20
4.40118997437584
30
0
41
1
10
-46.4979494926642
20
-11.0029710805201
30
0
41
1
10
-46.5055205183591
20
-19.8053259495903
30
0
41
1
10
-46.4903784669692
20
-24.2065467967976
30
0
41
1
10
-46.5004731678958
20
-26.4071167016235
30
0
0
SPLINE
5
18A
100
AcDbEntity
8
SK1
62
256
6
ByLayer
370
18
48
1
60
0
100
AcDbSpline
70
4
71
2
72
6
73
3
40
0
40
0
40
0
40
1
40
1
40
1
41
1
10
-2.99999999999999
20
27.500000000101
30
0
41
1
10
-24.7502365839479
20
26.9535583508891
30
0
41
1
10
-46.5004731678958
20
26.4071167016772
30
0
0
SPLINE
5
18B
100
AcDbEntity
8
SK1
62
256
6
ByLayer
370
18
48
1
60
0
100
AcDbSpline
70
4
71
2
72
6
73
3
40
0
40
0
40
0
40
1
40
1
40
1
41
1
10
-46.5004731678958
20
-26.4071167016237
30
0
41
1
10
-24.7502365839479
20
-26.9535583508345
30
0
41
1
10
-2.99999999999999
20
-27.5000000000453
30
0
0
SPLINE
5
18C
100
AcDbEntity
8
SK1
62
256
6
ByLayer
370
18
48
1
60
0
100
AcDbSpline
70
4
71
3
72
16
73
12
40
0
40
0
40
0
40
0
40
0.484362133143257
40
0.672654027086086
40
0.809095459552787
40
0.877752097826538
40
0.901320737247219
40
0.925121024104405
40
0.945995399848091
40
0.971882270189911
40
1
40
1
40
1
40
1
41
1
10
-0.200000000000062
20
-6.36525122554054
30
0
41
1
10
-0.195581000847968
20
-6.23407776241331
30
0
41
1
10
-0.206768985511104
20
-6.05285286800122
30
0
41
1
10
-0.240576655278773
20
-5.83412744354328
30
0
41
1
10
-0.27100992433731
20
-5.73008961132425
30
0
41
1
10
-0.303428989102242
20
-5.67425820640278
30
0
41
1
10
-0.328239388270729
20
-5.65376170934854
30
0
41
1
10
-0.346004555757695
20
-5.64702125526225
30
0
41
1
10
-0.365212764831062
20
-5.64796013775804
30
0
41
1
10
-0.383525191647769
20
-5.65644060486812
30
0
41
1
10
-0.394703386845373
20
-5.6650910598201
30
0
41
1
10
-0.400000000000064
20
-5.67060688490518
30
0
0
SPLINE
5
18D
100
AcDbEntity
8
SK1
62
256
6
ByLayer
370
18
48
1
60
0
100
AcDbSpline
70
4
71
3
72
16
73
12
40
0
40
0
40
0
40
0
40
0.0449620914812446
40
0.0903368815019471
40
0.123287996773752
40
0.156195942313686
40
0.206380327128436
40
0.302189466870403
40
0.465199895219201
40
0.628992158827477
40
1
40
1
40
1
40
1
41
1
10
-0.400000000000065
20
-5.67060688490516
30
0
41
1
10
-0.420927174634214
20
-5.69239446368426
30
0
41
1
10
-0.467485467566118
20
-5.72851688005113
30
0
41
1
10
-0.544757012788335
20
-5.76392327686633
30
0
41
1
10
-0.622034972988147
20
-5.76840721477468
30
0
41
1
10
-0.699252754045685
20
-5.74775039259254
30
0
41
1
10
-0.800267140719392
20
-5.68134988910833
30
0
41
1
10
-0.9266776380402
20
-5.52279599491429
30
0
41
1
10
-1.04851005422596
20
-5.2793651865582
30
0
41
1
10
-1.18854873195449
20
-4.85450503712918
30
0
41
1
10
-1.26941082007031
20
-4.51991257098291
30
0
41
1
10
-1.30710678118657
20
-4.28124408565413
30
0
0
SPLINE
5
18E
100
AcDbEntity
8
SK1
62
256
6
ByLayer
370
18
48
1
60
0
100
AcDbSpline
70
4
71
3
72
16
73
12
40
0
40
0
40
0
40
0
40
0.364486002887511
40
0.549641254423321
40
0.733073025060584
40
0.818771433739433
40
0.85612739559283
40
0.893803332019095
40
0.927294167106696
40
0.975464345181096
40
1
40
1
40
1
40
1
41
1
10
-1.30710678118656
20
4.28124480526772
30
0
41
1
10
-1.26967907670761
20
4.51557956194902
30
0
41
1
10
-1.18625222473133
20
4.8593787020408
30
0
41
1
10
-1.04190278813853
20
5.30635975182065
30
0
41
1
10
-0.903746441177547
20
5.56584659012637
30
0
41
1
10
-0.762458660836066
20
5.71300037958908
30
0
41
1
10
-0.664141061806576
20
5.76063598224448
30
0
41
1
10
-0.588864584107143
20
5.76994865430232
30
0
41
1
10
-0.508584664033415
20
5.75123275541642
30
0
41
1
10
-0.447428530612091
20
5.71312320952279
30
0
41
1
10
-0.411452460617223
20
5.6820342120461
30
0
41
1
10
-0.400000000000065
20
5.67060691171685
30
0
0
SPLINE
5
18F
100
AcDbEntity
8
SK1
62
256
6
ByLayer
370
18
48
1
60
0
100
AcDbSpline
70
4
71
3
72
16
73
12
40
0
40
0
40
0
40
0
40
0.0316164998116621
40
0.0560460207737784
40
0.07561712219868
40
0.0951959244130453
40
0.122531021194868
40
0.17185551556509
40
0.328145741063267
40
0.663365227866263
40
1
40
1
40
1
40
1
41
1
10
-0.400000000000064
20
5.67060691171687
30
0
41
1
10
-0.394038052578532
20
5.66431914550418
30
0
41
1
10
-0.382312554508247
20
5.65553431284056
30
0
41
1
10
-0.363502762487279
20
5.64766784076189
30
0
41
1
10
-0.3461985578997
20
5.64729821251071
30
0
41
1
10
-0.328895214687372
20
5.65334439405918
30
0
41
1
10
-0.307925994492101
20
5.67013463423561
30
0
41
1
10
-0.2719569322426
20
5.72440018902593
30
0
41
1
10
-0.230624220443679
20
5.86926111680911
30
0
41
1
10
-0.203282826745865
20
6.09335430168449
30
0
41
1
10
-0.197092167151606
20
6.2744324589864
30
0
41
1
10
-0.200000000000631
20
6.36525211459043
30
0
0
SPLINE
5
190
100
AcDbEntity
8
SK1
62
256
6
ByLayer
370
18
48
1
60
0
100
AcDbSpline
70
4
71
3
72
13
73
9
40
0
40
0
40
0
40
0
40
0.239468190909074
40
0.368375774874014
40
0.500016471127556
40
0.631654429480301
40
0.760554462869764
40
1
40
1
40
1
40
1
41
1
10
-2.00000000000001
20
27.3251512814302
30
0
41
1
10
-2.02607195688125
20
27.32540435647
30
0
41
1
10
-2.06363514552149
20
27.3325216078568
30
0
41
1
10
-2.11047804957901
20
27.3567471636424
30
0
41
1
10
-2.14242236365004
20
27.3827224769008
30
0
41
1
10
-2.16840047364594
20
27.4146634923699
30
0
41
1
10
-2.19262861825256
20
27.4615013561305
30
0
41
1
10
-2.19974657432197
20
27.4990612074137
30
0
41
1
10
-2.20000000000001
20
27.5251310238059
30
0
0
SPLINE
5
191
100
AcDbEntity
8
SK1
62
256
6
ByLayer
370
18
48
1
60
0
100
AcDbSpline
70
4
71
3
72
13
73
9
40
0
40
0
40
0
40
0
40
0.239445542786662
40
0.368345579137684
40
0.499983539651288
40
0.63162423662618
40
0.760531819312432
40
1
40
1
40
1
40
1
41
1
10
-2.20000000000001
20
-27.5251310239642
30
0
41
1
10
-2.19974657432781
20
-27.4990612076283
30
0
41
1
10
-2.19262861824383
20
-27.4615013564006
30
0
41
1
10
-2.16840047371738
20
-27.4146634928512
30
0
41
1
10
-2.14242236380986
20
-27.3827224774726
30
0
41
1
10
-2.11047804983015
20
-27.3567471642878
30
0
41
1
10
-2.06363514647054
20
-27.3325216086764
30
0
41
1
10
-2.02607195733615
20
-27.3254043572623
30
0
41
1
10
-2.00000000000001
20
-27.3251512819252
30
0
0
SPLINE
5
192
100
AcDbEntity
8
SK1
62
256
6
ByLayer
370
18
48
1
60
0
100
AcDbSpline
70
4
71
2
72
6
73
3
40
0
40
0
40
0
40
1
40
1
40
1
41
1
10
-0.400000000000024
20
27.3251512814302
30
0
41
1
10
-1.20000000000002
20
27.3251512814302
30
0
41
1
10
-2.00000000000001
20
27.3251512814302
30
0
0
SPLINE
5
193
100
AcDbEntity
8
SK1
62
256
6
ByLayer
370
18
48
1
60
0
100
AcDbSpline
70
4
71
2
72
6
73
3
40
0
40
0
40
0
40
1
40
1
40
1
41
1
10
-2.00000000000001
20
-27.3251512819252
30
0
41
1
10
-1.20000000000002
20
-27.3251512819252
30
0
41
1
10
-0.400000000000024
20
-27.3251512819252
30
0
0
SPLINE
5
194
100
AcDbEntity
8
SK1
62
256
6
ByLayer
370
18
48
1
60
0
100
AcDbSpline
70
4
71
3
72
16
73
12
40
0
40
0
40
0
40
0
40
0.182423297360195
40
0.274928084243208
40
0.36741350433971
40
0.458891356688692
40
0.550362023076156
40
0.644313501080536
40
0.738284574641877
40
0.868701917084027
40
1
40
1
40
1
40
1
41
1
10
-1.30710678118656
20
4.28124480528417
30
0
41
1
10
-1.39984244998152
20
3.78091146535458
30
0
41
1
10
-1.51936159600289
20
3.01487293807062
30
0
41
1
10
-1.64273762764442
20
1.96602733989108
30
0
41
1
10
-1.70828320960623
20
1.16601782963376
30
0
41
1
10
-1.74138079031
20
0.361358105764611
30
0
41
1
10
-1.73997377029128
20
-0.450147153087832
30
0
41
1
10
-1.70174640633635
20
-1.26570958560786
30
0
41
1
10
-1.62207987819126
20
-2.18542295204642
30
0
41
1
10
-1.49134672856273
20
-3.19577055212348
30
0
41
1
10
-1.37311832797841
20
-3.92142190481234
30
0
41
1
10
-1.30710678118655
20
-4.28124408565419
30
0
0
SPLINE
5
195
100
AcDbEntity
8
SK1
62
256
6
ByLayer
370
18
48
1
60
0
100
AcDbSpline
70
4
71
2
72
6
73
3
40
0
40
0
40
0
40
1
40
1
40
1
41
1
10
-46.5004761060393
20
26.4071055444156
30
0
41
1
10
-47.2502378648974
20
25.9487456565024
30
0
41
1
10
-48
20
25.4903857929227
30
0
0
SPLINE
5
196
100
AcDbEntity
8
SK1
62
256
6
ByLayer
370
18
48
1
60
0
100
AcDbSpline
70
4
71
2
72
6
73
3
40
0
40
0
40
0
40
1
40
1
40
1
41
1
10
-48
20
-25.4903857906259
30
0
41
1
10
-47.2502378668645
20
-25.9487456535014
30
0
41
1
10
-46.5004761101759
20
-26.4071055408038
30
0
0
SPLINE
5
197
100
AcDbEntity
8
SK1
62
256
6
ByLayer
370
18
48
1
60
0
100
AcDbSpline
70
4
71
2
72
6
73
3
40
0
40
0
40
0
40
1
40
1
40
1
41
1
10
-0.200000000000023
20
27.5127419688873
30
0
41
1
10
-0.21462864245871
20
27.3447861394391
30
0
41
1
10
-0.400000000000024
20
27.3251512814162
30
0
0
SPLINE
5
198
100
AcDbEntity
8
SK1
62
256
6
ByLayer
370
18
48
1
60
0
100
AcDbSpline
70
4
71
2
72
6
73
3
40
0
40
0
40
0
40
1
40
1
40
1
41
1
10
-0.400000000000024
20
-27.3251512818931
30
0
41
1
10
-0.214629265596514
20
-27.3447858171551
30
0
41
1
10
-0.200000000000023
20
-27.5127479889025
30
0
0
SPLINE
5
199
100
AcDbEntity
8
1
62
256
6
ByLayer
370
18
48
1
60
0
100
AcDbSpline
70
4
71
2
72
6
73
3
40
0
40
0
40
0
40
1
40
1
40
1
41
1
10
87.3351133512813
20
-1.62413810050339
30
0
41
1
10
87.244389386953
20
-1.61657118988181
30
0
41
1
10
87.2269728054586
20
-1.54747557644619
30
0
0
SPLINE
5
19A
100
AcDbEntity
8
1
62
256
6
ByLayer
370
18
48
1
60
0
100
AcDbSpline
70
4
71
3
72
16
73
12
40
0
40
0
40
0
40
0
40
0.114495129140665
40
0.229217114539027
40
0.338161821640404
40
0.447456426498816
40
0.556381499128854
40
0.689078087205889
40
0.821641312363797
40
0.93385741885151
40
1
40
1
40
1
40
1
41
1
10
91.8771336941076
20
0.199612628601807
30
0
41
1
10
91.6109075146138
20
0.141744093998789
30
0
41
1
10
91.0975278881148
20
0.0071368197764454
30
0
41
1
10
90.3985123465189
20
-0.266782645705075
30
0
41
1
10
89.7649458080065
20
-0.551433414876714
30
0
41
1
10
89.1952035496022
20
-0.8313072549474
30
0
41
1
10
88.643338925343
20
-1.11111560553049
30
0
41
1
10
88.1319990132973
20
-1.36291665931674
30
0
41
1
10
87.7159792241971
20
-1.54504402131361
30
0
41
1
10
87.4665719618604
20
-1.61936080770882
30
0
41
1
10
87.3665165112229
20
-1.62627121255658
30
0
41
1
10
87.3351133512813
20
-1.62413810050339
30
0
0
SPLINE
5
19B
100
AcDbEntity
8
1
62
256
6
ByLayer
370
18
48
1
60
0
100
AcDbSpline
70
4
71
3
72
15
73
11
40
0
40
0
40
0
40
0
40
0.12943895585766
40
0.258882180903682
40
0.388535672884536
40
0.518197102736132
40
0.647553565547724
40
0.776952290249342
40
0.888451621073013
40
1
40
1
40
1
40
1
41
1
10
121.336025445665
20
-7.5384316374406
30
0
41
1
10
121.129640542333
20
-7.47521763207428
30
0
41
1
10
120.714054670526
20
-7.38490735923514
30
0
41
1
10
120.073499076782
20
-7.35585125448306
30
0
41
1
10
119.440962227008
20
-7.43923063754195
30
0
41
1
10
118.83252095388
20
-7.62846544916346
30
0
41
1
10
118.266882949438
20
-7.92038060642297
30
0
41
1
10
117.778295162444
20
-8.28123490629025
30
0
41
1
10
117.368707082951
20
-8.69124598170109
30
0
41
1
10
117.143050339488
20
-8.97943632025519
30
0
41
1
10
117.038503131041
20
-9.1315998298944
30
0
0
SPLINE
5
19C
100
AcDbEntity
8
1
62
256
6
ByLayer
370
18
48
1
60
0
100
AcDbSpline
70
4
71
3
72
10
73
6
40
0
40
0
40
0
40
0
40
0.318377427046592
40
0.659176574768404
40
1
40
1
40
1
40
1
41
1
10
117.038503131724
20
-9.1315998314369
30
0
41
1
10
117.024587732757
20
-9.15173482298432
30
0
41
1
10
116.995941147344
20
-9.19354065527332
30
0
41
1
10
116.952996593476
20
-9.2573344958545
30
0
41
1
10
116.924091094758
20
-9.30107541774929
30
0
41
1
10
116.909729082719
20
-9.32301147746553
30
0
0
SPLINE
5
19D
100
AcDbEntity
8
1
62
256
6
ByLayer
370
18
48
1
60
0
100
AcDbSpline
70
4
71
3
72
10
73
6
40
0
40
0
40
0
40
0
40
0.3144169473577
40
0.657195218082384
40
1
40
1
40
1
40
1
41
1
10
116.909729082762
20
-9.32301147751631
30
0
41
1
10
116.896312527602
20
-9.34350253609213
30
0
41
1
10
116.868440664982
20
-9.38644975341451
30
0
41
1
10
116.826570274007
20
-9.45217090219466
30
0
41
1
10
116.798262054845
20
-9.49749297224603
30
0
41
1
10
116.784205820706
20
-9.52022118089435
30
0
0
SPLINE
5
19E
100
AcDbEntity
8
1
62
256
6
ByLayer
370
18
48
1
60
0
100
AcDbSpline
70
4
71
3
72
15
73
11
40
0
40
0
40
0
40
0
40
0.142186641497765
40
0.284573499650096
40
0.430928717627667
40
0.577492902980899
40
0.685549018531045
40
0.793713305860795
40
0.90135103849815
40
1
40
1
40
1
40
1
41
1
10
116.784205820895
20
-9.52022118110529
30
0
41
1
10
116.618602339684
20
-9.79468666806885
30
0
41
1
10
116.334649975729
20
-10.3633792641929
30
0
41
1
10
116.047433995327
20
-11.2949205804072
30
0
41
1
10
115.907170893718
20
-12.2722437865233
30
0
41
1
10
115.920165256144
20
-13.1842367873456
30
0
41
1
10
116.004440904096
20
-14.0043908946655
30
0
41
1
10
116.137384046983
20
-14.7296039374897
30
0
41
1
10
116.348663008654
20
-15.4169027524257
30
0
41
1
10
116.549076357461
20
-15.8409413837002
30
0
41
1
10
116.65824690635
20
-16.0388595902738
30
0
0
SPLINE
5
19F
100
AcDbEntity
8
1
62
256
6
ByLayer
370
18
48
1
60
0
100
AcDbSpline
70
4
71
3
72
19
73
15
40
0
40
0
40
0
40
0
40
0.102024141424482
40
0.204530936419936
40
0.308375895677454
40
0.418214315417083
40
0.538907415836907
40
0.656886082390413
40
0.728403032682681
40
0.781821927292479
40
0.833399629510958
40
0.88843508867212
40
0.943942409772383
40
1
40
1
40
1
40
1
41
1
10
116.784205820971
20
-9.52022118071869
30
0
41
1
10
116.725382798545
20
-9.6809426128702
30
0
41
1
10
116.622304457596
20
-10.0093570785093
30
0
41
1
10
116.513692888911
20
-10.5259159143013
30
0
41
1
10
116.4447676886
20
-11.069563389555
30
0
41
1
10
116.440406838647
20
-11.6607207938264
30
0
41
1
10
116.512185165081
20
-12.2830563085103
30
0
41
1
10
116.616805946199
20
-12.8347552375859
30
0
41
1
10
116.713660767411
20
-13.265941645607
30
0
41
1
10
116.814743237449
20
-13.5740418820697
30
0
41
1
10
116.922037301342
20
-13.8486579907359
30
0
41
1
10
117.036709009989
20
-14.1249366562606
30
0
41
1
10
117.169600621174
20
-14.4032017295929
30
0
41
1
10
117.266522752723
20
-14.5856474732392
30
0
41
1
10
117.317413113533
20
-14.6763432444287
30
0
0
SPLINE
5
1A0
100
AcDbEntity
8
1
62
256
6
ByLayer
370
18
48
1
60
0
100
AcDbSpline
70
4
71
3
72
11
73
7
40
0
40
0
40
0
40
0
40
0.304732162181527
40
0.609464324363058
40
0.805613032639078
40
1
40
1
40
1
40
1
41
1
10
117.317413113533
20
-14.6763432444287
30
0
41
1
10
117.201374030044
20
-14.7496227383121
30
0
41
1
10
116.998828240245
20
-14.9366459213167
30
0
41
1
10
116.806706312785
20
-15.2986790819008
30
0
41
1
10
116.699769244914
20
-15.6758701165572
30
0
41
1
10
116.66731072962
20
-15.913480106338
30
0
41
1
10
116.657843457949
20
-16.0383428869262
30
0
0
SPLINE
5
1A1
100
AcDbEntity
8
1
62
256
6
ByLayer
370
18
48
1
60
0
100
AcDbSpline
70
4
71
3
72
10
73
6
40
0
40
0
40
0
40
0
40
0.326449241906549
40
0.652898483813095
40
1
40
1
40
1
40
1
41
1
10
122.749644323125
20
-9.31787333015401
30
0
41
1
10
122.619837967724
20
-9.08687312830177
30
0
41
1
10
122.344328398996
20
-8.64899774999302
30
0
41
1
10
121.862582419686
20
-8.03822415689167
30
0
41
1
10
121.519650006136
20
-7.69765932927779
30
0
41
1
10
121.336025445665
20
-7.53843163744061
30
0
0
SPLINE
5
1A2
100
AcDbEntity
8
1
62
256
6
ByLayer
370
18
48
1
60
0
100
AcDbSpline
70
4
71
3
72
20
73
16
40
0
40
0
40
0
40
0
40
0.0954611577633997
40
0.190423686204096
40
0.286891044164501
40
0.385280336869945
40
0.485040453304319
40
0.585933952660488
40
0.641874070977275
40
0.702538367679675
40
0.76688903369734
40
0.820618933546103
40
0.860513065827667
40
0.928089036650724
40
1
40
1
40
1
40
1
41
1
10
122.749644323125
20
-9.31787333015401
30
0
41
1
10
122.521626947454
20
-9.44018764768886
30
0
41
1
10
122.094118493816
20
-9.71950948190336
30
0
41
1
10
121.527263152351
20
-10.2528376019462
30
0
41
1
10
121.04808009888
20
-10.8865744713091
30
0
41
1
10
120.673485557601
20
-11.6206216677443
30
0
41
1
10
120.414085553255
20
-12.4350775990739
30
0
41
1
10
120.293378889226
20
-13.1762415596582
30
0
41
1
10
120.273855506153
20
-13.8238931009478
30
0
41
1
10
120.318762943125
20
-14.3703223249112
30
0
41
1
10
120.410313966778
20
-14.9093561400382
30
0
41
1
10
120.50545128367
20
-15.3848531051661
30
0
41
1
10
120.639082209759
20
-15.8658469308744
30
0
41
1
10
120.850984248803
20
-16.3863144376794
30
0
41
1
10
121.043937344023
20
-16.7775490839383
30
0
41
1
10
121.153989807169
20
-16.9755385909418
30
0
0
SPLINE
5
1A3
100
AcDbEntity
8
1
62
256
6
ByLayer
370
18
48
1
60
0
100
AcDbSpline
70
4
71
3
72
15
73
11
40
0
40
0
40
0
40
0
40
0.125
40
0.25
40
0.375000000000001
40
0.500000000000001
40
0.625000000000001
40
0.750000000000001
40
0.87499999999999
40
1
40
1
40
1
40
1
41
1
10
121.153989807169
20
-16.9755385909418
30
0
41
1
10
121.024350970998
20
-16.7443170052027
30
0
41
1
10
120.748774084163
20
-16.3057542306236
30
0
41
1
10
120.277782744128
20
-15.7100236328461
30
0
41
1
10
119.775350493205
20
-15.2049894789779
30
0
41
1
10
119.257940304977
20
-14.8129844623707
30
0
41
1
10
118.745990189074
20
-14.5432315158174
30
0
41
1
10
118.260298320191
20
-14.4130177373064
30
0
41
1
10
117.816247176708
20
-14.4204833246031
30
0
41
1
10
117.56470996711
20
-14.5201735494937
30
0
41
1
10
117.448670883621
20
-14.5934530433771
30
0
0
SPLINE
5
1A4
100
AcDbEntity
8
1
62
256
6
ByLayer
370
18
48
1
60
0
100
AcDbSpline
70
4
71
3
72
19
73
15
40
0
40
0
40
0
40
0
40
0.101510086038973
40
0.203105222019925
40
0.305636929745915
40
0.411343199077068
40
0.527155974012913
40
0.64942796676097
40
0.726837854274879
40
0.784351650038799
40
0.834597715833462
40
0.889082766004319
40
0.944256053802668
40
1
40
1
40
1
40
1
41
1
10
117.0385031317
20
-9.13159983063887
30
0
41
1
10
116.96609255637
20
-9.29638256743636
30
0
41
1
10
116.837951444064
20
-9.63404812750409
30
0
41
1
10
116.695207233788
20
-10.1687017850386
30
0
41
1
10
116.602507570716
20
-10.7299167284483
30
0
41
1
10
116.561395514826
20
-11.3333859549373
30
0
41
1
10
116.610197424876
20
-11.9874997385821
30
0
41
1
10
116.71532559283
20
-12.5864813274829
30
0
41
1
10
116.817434824452
20
-13.0734704354578
30
0
41
1
10
116.91838748993
20
-13.4207371078084
30
0
41
1
10
117.034643493541
20
-13.7175881066536
30
0
41
1
10
117.152766339612
20
-14.0088253789057
30
0
41
1
10
117.292297105051
20
-14.3038340111867
30
0
41
1
10
117.394717098052
20
-14.4973082076228
30
0
41
1
10
117.448670883621
20
-14.593453043377
30
0
0
SPLINE
5
1A5
100
AcDbEntity
8
1
62
256
6
ByLayer
370
18
48
1
60
0
100
AcDbSpline
70
4
71
1
72
4
73
2
40
0
40
0
40
1
40
1
41
1
10
117.383041998577
20
-14.6348981439028
30
0
41
1
10
117.317413113533
20
-14.6763432444287
30
0
0
SPLINE
5
1A6
100
AcDbEntity
8
1
62
256
6
ByLayer
370
18
48
1
60
0
100
AcDbSpline
70
4
71
1
72
4
73
2
40
0
40
0
40
1
40
1
41
1
10
117.448670883621
20
-14.593453043377
30
0
41
1
10
117.383041998577
20
-14.6348981439029
30
0
0
SPLINE
5
1A7
100
AcDbEntity
8
1
62
256
6
ByLayer
370
18
48
1
60
0
100
AcDbSpline
70
4
71
3
72
14
73
10
40
0
40
0
40
0
40
0
40
0.122199122234229
40
0.24342207093343
40
0.365621193167661
40
0.563489800353038
40
0.761358407538415
40
0.959227014723792
40
1
40
1
40
1
40
1
41
1
10
124.086812790737
20
-22.2064709333225
30
0
41
1
10
124.169443466856
20
-22.3536722060101
30
0
41
1
10
124.323345942186
20
-22.6500185288211
30
0
41
1
10
124.52421273218
20
-23.1079383156794
30
0
41
1
10
124.723857767068
20
-23.6634809001074
30
0
41
1
10
124.891740616048
20
-24.3099750554423
30
0
41
1
10
124.974496536608
20
-25.0072694610967
30
0
41
1
10
124.957119146358
20
-25.4705807755119
30
0
41
1
10
124.920621961431
20
-25.6988934662292
30
0
41
1
10
124.913614130413
20
-25.7372873326114
30
0
0
SPLINE
5
1A8
100
AcDbEntity
8
1
62
256
6
ByLayer
370
18
48
1
60
0
100
AcDbSpline
70
4
71
3
72
19
73
15
40
0
40
0
40
0
40
0
40
0.101768129517491
40
0.203770796420226
40
0.3069125944888
40
0.414436363613217
40
0.532620459429527
40
0.653312643306745
40
0.727801537407946
40
0.783108356537673
40
0.834006494928227
40
0.888773680860208
40
0.944106501736861
40
1
40
1
40
1
40
1
41
1
10
116.909729082782
20
-9.32301147742609
30
0
41
1
10
116.844139937271
20
-9.48595196915787
30
0
41
1
10
116.728633745201
20
-9.81927847925076
30
0
41
1
10
116.603112531327
20
-10.3452537597213
30
0
41
1
10
116.52268324895
20
-10.897616257291
30
0
41
1
10
116.49912323614
20
-11.4949020725109
30
0
41
1
10
116.560206383587
20
-12.1341613213326
30
0
41
1
10
116.665849244993
20
-12.7104289266263
30
0
41
1
10
116.765231511208
20
-13.17009901604
30
0
41
1
10
116.866481958325
20
-13.4973470755126
30
0
41
1
10
116.978194457228
20
-13.7827924023661
30
0
41
1
10
117.094616922623
20
-14.0666959820583
30
0
41
1
10
117.230905278506
20
-14.3534369705381
30
0
41
1
10
117.330605034478
20
-14.5414511659107
30
0
41
1
10
117.383041998577
20
-14.6348981439028
30
0
0
SPLINE
5
1A9
100
AcDbEntity
8
1
62
256
6
ByLayer
370
18
48
1
60
0
100
AcDbSpline
70
4
71
3
72
18
73
14
40
0
40
0
40
0
40
0
40
0.102207347786126
40
0.205026744014634
40
0.309377120406342
40
0.420602258586973
40
0.542705085666725
40
0.658683377747581
40
0.740321078163326
40
0.801305106752264
40
0.866123762694466
40
0.93269123771502
40
1
40
1
40
1
40
1
41
1
10
128.155074877198
20
-25.3984993128479
30
0
41
1
10
127.987882821041
20
-25.3582614437221
30
0
41
1
10
127.655235287755
20
-25.2626026334746
30
0
41
1
10
127.16057802037
20
-25.0698996117617
30
0
41
1
10
126.662178536959
20
-24.8310331592707
30
0
41
1
10
126.158573463321
20
-24.5101826203875
30
0
41
1
10
125.672096615082
20
-24.117261421049
30
0
41
1
10
125.248719491409
20
-23.7286411776601
30
0
41
1
10
124.916277811617
20
-23.3998894936839
30
0
41
1
10
124.682678074254
20
-23.1033907775679
30
0
41
1
10
124.472730171329
20
-22.8236704472154
30
0
41
1
10
124.271405232538
20
-22.5227484530001
30
0
41
1
10
124.146740890456
20
-22.3134776986397
30
0
41
1
10
124.086812790737
20
-22.2064709333225
30
0
0
SPLINE
5
1AA
100
AcDbEntity
8
1
62
256
6
ByLayer
370
18
48
1
60
0
100
AcDbSpline
70
4
71
1
72
4
73
2
40
0
40
0
40
1
40
1
41
1
10
142.84451664016
20
-3.12985438494191
30
0
41
1
10
142.939057889642
20
-3.09688875225405
30
0
0
SPLINE
5
1AB
100
AcDbEntity
8
1
62
256
6
ByLayer
370
18
48
1
60
0
100
AcDbSpline
70
4
71
2
72
6
73
3
40
0
40
0
40
0
40
1
40
1
40
1
41
0.500500306583632
10
133.523111704843
20
-15.1944839552861
30
0
41
0.499499693416369
10
133.462802897946
20
-15.234331332287
30
0
41
0.500500306583632
10
133.397896513084
20
-15.2659785487575
30
0
0
SPLINE
5
1AC
100
AcDbEntity
8
1
62
256
6
ByLayer
370
18
48
1
60
0
100
AcDbSpline
70
4
71
2
72
6
73
3
40
0
40
0
40
0
40
1
40
1
40
1
41
0.500500306583632
10
134.029942997805
20
-14.1562664636233
30
0
41
0.499499693416369
10
134.034658571886
20
-14.2302989269744
30
0
41
0.500500306583632
10
134.030208064648
20
-14.3041523540399
30
0
0
SPLINE
5
1AD
100
AcDbEntity
8
1
62
256
6
ByLayer
370
18
48
1
60
0
100
AcDbSpline
70
4
71
2
72
6
73
3
40
0
40
0
40
0
40
1
40
1
40
1
41
0.500500306583632
10
133.394139145368
20
-13.1696708321449
30
0
41
0.499499693416368
10
133.459163526346
20
-13.2038559184951
30
0
41
0.500500306583632
10
133.519619403971
20
-13.2460621290901
30
0
0
SPLINE
5
1AE
100
AcDbEntity
8
1
62
256
6
ByLayer
370
18
48
1
60
0
100
AcDbSpline
70
4
71
2
72
6
73
3
40
0
40
0
40
0
40
1
40
1
40
1
41
0.500500306583632
10
132.25150399997
20
-13.2212926923293
30
0
41
0.499499693416368
10
132.311812806867
20
-13.1814453153284
30
0
41
0.500500306583632
10
132.376719191729
20
-13.1497980988579
30
0
0
SPLINE
5
1AF
100
AcDbEntity
8
1
62
256
6
ByLayer
370
18
48
1
60
0
100
AcDbSpline
70
4
71
2
72
6
73
3
40
0
40
0
40
0
40
1
40
1
40
1
41
0.500500306583632
10
131.744672707008
20
-14.2595101839922
30
0
41
0.499499693416368
10
131.739957132927
20
-14.185477720641
30
0
41
0.500500306583632
10
131.744407640164
20
-14.1116242935755
30
0
0
SPLINE
5
1B0
100
AcDbEntity
8
1
62
256
6
ByLayer
370
18
48
1
60
0
100
AcDbSpline
70
4
71
2
72
6
73
3
40
0
40
0
40
0
40
1
40
1
40
1
41
0.500500306583632
10
132.380476559445
20
-15.2461058154706
30
0
41
0.499499693416368
10
132.315452178466
20
-15.2119207291203
30
0
41
0.500500306583632
10
132.254996300842
20
-15.1697145185253
30
0
0
SPLINE
5
1B1
100
AcDbEntity
8
1
62
256
6
ByLayer
370
18
48
1
60
0
100
AcDbSpline
70
4
71
2
72
6
73
3
40
0
40
0
40
0
40
1
40
1
40
1
41
0.501183567926403
10
132.733229688346
20
-15.7971434051453
30
0
41
0.498816432073597
10
132.745477665488
20
-15.7626884094805
30
0
41
0.501183567926403
10
132.750928681275
20
-15.7263241577141
30
0
0
SPLINE
5
1B2
100
AcDbEntity
8
1
62
256
6
ByLayer
370
18
48
1
60
0
100
AcDbSpline
70
4
71
2
72
6
73
3
40
0
40
0
40
0
40
1
40
1
40
1
41
0.500535842830666
10
132.944737771797
20
-15.4143767535243
30
0
41
0.499464157169334
10
132.881191858693
20
-15.4506598048081
30
0
41
0.500535842830666
10
132.813380537474
20
-15.4780551072195
30
0
0
SPLINE
5
1B3
100
AcDbEntity
8
1
62
256
6
ByLayer
370
18
48
1
60
0
100
AcDbSpline
70
4
71
2
72
6
73
3
40
0
40
0
40
0
40
1
40
1
40
1
41
0.502926653294928
10
145.725165770495
20
-0.999953502966077
30
0
41
0.497073346705072
10
145.606581321821
20
-1.00823893794238
30
0
41
0.502926653294928
10
145.496670898329
20
-1.05264198503824
30
0
0
SPLINE
5
1B4
100
AcDbEntity
8
1
62
256
6
ByLayer
370
18
48
1
60
0
100
AcDbSpline
70
4
71
2
72
6
73
3
40
0
40
0
40
0
40
1
40
1
40
1
41
0.502926653294928
10
148.980340188647
20
-10.2940137187679
30
0
41
0.497073346705072
10
149.098924637322
20
-10.2857282837915
30
0
41
0.502926653294928
10
149.208835060814
20
-10.2413252366957
30
0
0
SPLINE
5
1B5
100
AcDbEntity
8
1
62
256
6
ByLayer
370
18
48
1
60
0
100
AcDbSpline
70
4
71
2
72
6
73
3
40
0
40
0
40
0
40
1
40
1
40
1
41
0.502926653294928
10
149.208835060814
20
-10.2413252366957
30
0
41
0.497073346705072
10
149.318745484307
20
-10.1969221895998
30
0
41
0.502926653294928
10
149.40980790353
20
-10.1205117472157
30
0
0
SPLINE
5
1B6
100
AcDbEntity
8
1
62
256
6
ByLayer
370
18
48
1
60
0
100
AcDbSpline
70
4
71
2
72
6
73
3
40
0
40
0
40
0
40
1
40
1
40
1
41
0.502926653294928
10
147.912070193718
20
-10.7255873710995
30
0
41
0.497073346705072
10
148.030654642392
20
-10.7173019361231
30
0
41
0.502926653294928
10
148.140565065885
20
-10.6728988890273
30
0
0
SPLINE
5
1B7
100
AcDbEntity
8
1
62
256
6
ByLayer
370
18
48
1
60
0
100
AcDbSpline
70
4
71
2
72
6
73
3
40
0
40
0
40
0
40
1
40
1
40
1
41
0.502926653294929
10
144.428400903399
20
-1.48421563736983
30
0
41
0.497073346705071
10
144.318490479907
20
-1.52861868446568
30
0
41
0.502926653294929
10
144.227428060684
20
-1.60502912684981
30
0
0
SPLINE
5
1B8
100
AcDbEntity
8
1
62
256
6
ByLayer
370
18
48
1
60
0
100
AcDbSpline
70
4
71
2
72
6
73
3
40
0
40
0
40
0
40
1
40
1
40
1
41
0.502926653294929
10
145.496670898329
20
-1.05264198503824
30
0
41
0.497073346705071
10
145.386760474836
20
-1.09704503213412
30
0
41
0.502926653294929
10
145.295698055613
20
-1.17345547451823
30
0
0
SPLINE
5
1B9
100
AcDbEntity
8
1
62
256
6
ByLayer
370
18
48
1
60
0
100
AcDbSpline
70
4
71
2
72
6
73
3
40
0
40
0
40
0
40
1
40
1
40
1
41
0.500010206115875
10
122.73360217339
20
-11.3645170351376
30
0
41
0.499989793884125
10
122.778208013354
20
-11.3408885307178
30
0
41
0.500010206115875
10
122.822219521722
20
-11.3176260370852
30
0
0
SPLINE
5
1BA
100
AcDbEntity
8
1
62
256
6
ByLayer
370
18
48
1
60
0
100
AcDbSpline
70
4
71
2
72
6
73
3
40
0
40
0
40
0
40
1
40
1
40
1
41
0.50018909632962
10
142.420323171639
20
-3.39658463097527
30
0
41
0.49981090367038
10
142.475476296038
20
-3.35072441068547
30
0
41
0.50018909632962
10
142.534040126223
20
-3.30945783553418
30
0
0
SPLINE
5
1BB
100
AcDbEntity
8
1
62
256
6
ByLayer
370
18
48
1
60
0
100
AcDbSpline
70
4
71
2
72
6
73
3
40
0
40
0
40
0
40
1
40
1
40
1
41
0.50004299359671
10
142.939057889642
20
-3.096888752254
30
0
41
0.49995700640329
10
142.915642187439
20
-3.10356877921517
30
0
41
0.50004299359671
10
142.891674638308
20
-3.1119347053665
30
0
0
SPLINE
5
1BC
100
AcDbEntity
8
1
62
256
6
ByLayer
370
18
48
1
60
0
100
AcDbSpline
70
4
71
3
72
16
73
12
40
0
40
0
40
0
40
0
40
0.200508989159039
40
0.200508989159039
40
0.495369129023621
40
0.495369129023621
40
0.76168406672773
40
0.76168406672773
40
0.998739448695776
40
0.998739448695776
40
1
40
1
40
1
40
1
41
1
10
145.206082766029
20
-5.00177193709648
30
0
41
1
10
145.187395590822
20
-4.9909886550453
30
0
41
1
10
145.167090008786
20
-4.98276781826715
30
0
41
1
10
145.114913980706
20
-4.9701838532291
30
0
41
1
10
145.081136117154
20
-4.9693458009026
30
0
41
1
10
145.018164426698
20
-4.98233433873395
30
0
41
1
10
144.987886144011
20
-4.99501940567212
30
0
41
1
10
144.936232790072
20
-5.02997316681287
30
0
41
1
10
144.913520841209
20
-5.05156539540497
30
0
41
1
10
144.894603514052
20
-5.076503980134
30
0
41
1
10
144.894501913932
20
-5.07663815389752
30
0
41
1
10
144.89440041567
20
-5.0767724283942
30
0
0
LINE
5
70
100
AcDbEntity
8
1
62
256
6
ByLayer
370
18
48
1
60
0
100
AcDbLine
10
91.939455
20
1.988313
30
0
11
92.101957
21
2.124669
31
0
39
0
210
0
220
0
230
1
0
LINE
5
72
100
AcDbEntity
8
1
62
256
6
ByLayer
370
18
48
1
60
0
100
AcDbLine
10
92.511589
20
6.806784
30
0
11
92.375233
21
6.969287
31
0
39
0
210
0
220
0
230
1
0
LINE
5
73
100
AcDbEntity
8
1
62
256
6
ByLayer
370
18
48
1
60
0
100
AcDbLine
10
92.375233
20
6.969287
30
0
11
87.543716
21
7.39199
31
0
39
0
210
0
220
0
230
1
0
LINE
5
74
100
AcDbEntity
8
1
62
256
6
ByLayer
370
18
48
1
60
0
100
AcDbLine
10
87.107937
20
2.411016
30
0
11
91.939455
21
1.988313
31
0
39
0
210
0
220
0
230
1
0
LINE
5
75
100
AcDbEntity
8
1
62
256
6
ByLayer
370
18
48
1
60
0
100
AcDbLine
10
131.487886
20
-13.40318
30
0
11
131.960397
21
-13.212289
31
0
39
0
210
0
220
0
230
1
0
LINE
5
76
100
AcDbEntity
8
1
62
256
6
ByLayer
370
18
48
1
60
0
100
AcDbLine
10
132.750929
20
-15.726324
30
0
11
133.255623
21
-15.522431
31
0
39
0
210
0
220
0
230
1
0
LINE
5
77
100
AcDbEntity
8
1
62
256
6
ByLayer
370
18
48
1
60
0
100
AcDbLine
10
133.64541
20
-18.21571
30
0
11
134.1912
21
-17.995214
31
0
39
0
210
0
220
0
230
1
0
LINE
5
78
100
AcDbEntity
8
1
62
256
6
ByLayer
370
18
48
1
60
0
100
AcDbLine
10
131.194558
20
-10.577658
30
0
11
130.648769
21
-10.798153
31
0
39
0
210
0
220
0
230
1
0
LINE
5
79
100
AcDbEntity
8
1
62
256
6
ByLayer
370
18
48
1
60
0
100
AcDbLine
10
131.764068
20
-13.418672
30
0
11
132.267689
21
-13.215213
31
0
39
0
210
0
220
0
230
1
0
LINE
5
7A
100
AcDbEntity
8
1
62
256
6
ByLayer
370
18
48
1
60
0
100
AcDbLine
10
133.50478
20
-15.201431
30
0
11
133.001159
21
-15.404891
31
0
39
0
210
0
220
0
230
1
0
LINE
5
7B
100
AcDbEntity
8
1
62
256
6
ByLayer
370
18
48
1
60
0
100
AcDbLine
10
132.746242
20
-13.111535
30
0
11
133.250936
21
-12.907642
31
0
39
0
210
0
220
0
230
1
0
LINE
5
7C
100
AcDbEntity
8
1
62
256
6
ByLayer
370
18
48
1
60
0
100
AcDbLine
10
133.674335
20
-14.766866
30
0
11
134.179029
21
-14.562973
31
0
39
0
210
0
220
0
230
1
0
LINE
5
7D
100
AcDbEntity
8
1
62
256
6
ByLayer
370
18
48
1
60
0
100
AcDbLine
10
133.30602
20
-13.452323
30
0
11
133.810714
21
-13.24843
31
0
39
0
210
0
220
0
230
1
0
LINE
5
7E
100
AcDbEntity
8
1
62
256
6
ByLayer
370
18
48
1
60
0
100
AcDbLine
10
133.673152
20
-14.107135
30
0
11
134.177847
21
-13.903242
31
0
39
0
210
0
220
0
230
1
0
LINE
5
7F
100
AcDbEntity
8
1
62
256
6
ByLayer
370
18
48
1
60
0
100
AcDbLine
10
145.725166
20
-0.999954
30
0
11
159.157648
21
-0.061433
31
0
39
0
210
0
220
0
230
1
0
LINE
5
80
100
AcDbEntity
8
1
62
256
6
ByLayer
370
18
48
1
60
0
100
AcDbLine
10
159.724772
20
-1.465229
30
0
11
149.409808
21
-10.120512
31
0
39
0
210
0
220
0
230
1
0
LINE
5
81
100
AcDbEntity
8
1
62
256
6
ByLayer
370
18
48
1
60
0
100
AcDbLine
10
148.98034
20
-10.294014
30
0
11
146.667418
21
-10.455616
31
0
39
0
210
0
220
0
230
1
0
LINE
5
82
100
AcDbEntity
8
1
62
256
6
ByLayer
370
18
48
1
60
0
100
AcDbLine
10
141.991845
20
-3.945717
30
0
11
145.295698
21
-1.173455
31
0
39
0
210
0
220
0
230
1
0
LINE
5
83
100
AcDbEntity
8
1
62
256
6
ByLayer
370
18
48
1
60
0
100
AcDbLine
10
144.118203
20
-1.69668
30
0
11
144.227428
21
-1.605029
31
0
39
0
210
0
220
0
230
1
0
LINE
5
84
100
AcDbEntity
8
1
62
256
6
ByLayer
370
18
48
1
60
0
100
AcDbLine
10
144.227428
20
-1.605029
30
0
11
145.295698
21
-1.173455
31
0
39
0
210
0
220
0
230
1
0
LINE
5
85
100
AcDbEntity
8
1
62
256
6
ByLayer
370
18
48
1
60
0
100
AcDbLine
10
147.91207
20
-10.725587
30
0
11
148.98034
21
-10.294014
31
0
39
0
210
0
220
0
230
1
0
LINE
5
86
100
AcDbEntity
8
1
62
256
6
ByLayer
370
18
48
1
60
0
100
AcDbLine
10
147.91207
20
-10.725587
30
0
11
147.733591
21
-10.738058
31
0
39
0
210
0
220
0
230
1
0
LINE
5
87
100
AcDbEntity
8
1
62
256
6
ByLayer
370
18
48
1
60
0
100
AcDbLine
10
148.140565
20
-10.672899
30
0
11
149.208835
21
-10.241325
31
0
39
0
210
0
220
0
230
1
0
LINE
5
88
100
AcDbEntity
8
1
62
256
6
ByLayer
370
18
48
1
60
0
100
AcDbLine
10
145.496671
20
-1.052642
30
0
11
144.428401
21
-1.484216
31
0
39
0
210
0
220
0
230
1
0
LINE
5
89
100
AcDbEntity
8
1
62
256
6
ByLayer
370
18
48
1
60
0
100
AcDbLine
10
123.354221
20
-14.657414
30
0
11
127.460173
21
-21.980719
31
0
39
0
210
0
220
0
230
1
0
LINE
5
8A
100
AcDbEntity
8
1
62
256
6
ByLayer
370
18
48
1
60
0
100
AcDbLine
10
124.762002
20
-15.729134
30
0
11
127.303781
21
-20.262609
31
0
39
0
210
0
220
0
230
1
0
LINE
5
8B
100
AcDbEntity
8
1
62
256
6
ByLayer
370
18
48
1
60
0
100
AcDbLine
10
129.529093
20
-11.282587
30
0
11
131.260814
21
-10.293819
31
0
39
0
210
0
220
0
230
1
0
LINE
5
8C
100
AcDbEntity
8
1
62
256
6
ByLayer
370
18
48
1
60
0
100
AcDbLine
10
124.068894
20
-12.091533
30
0
11
130.504133
21
-8.417179
31
0
39
0
210
0
220
0
230
1
0
LINE
5
8D
100
AcDbEntity
8
1
62
256
6
ByLayer
370
18
48
1
60
0
100
AcDbLine
10
135.317886
20
-17.529942
30
0
11
133.586165
21
-18.51871
31
0
39
0
210
0
220
0
230
1
0
LINE
5
8E
100
AcDbEntity
8
1
62
256
6
ByLayer
370
18
48
1
60
0
100
AcDbLine
10
130.010349
20
-22.688609
30
0
11
136.445588
21
-19.014256
31
0
39
0
210
0
220
0
230
1
0
LINE
5
8F
100
AcDbEntity
8
1
62
256
6
ByLayer
370
18
48
1
60
0
100
AcDbLine
10
129.360048
20
-19.167828
30
0
11
128.772752
21
-19.436058
31
0
39
0
210
0
220
0
230
1
0
LINE
5
90
100
AcDbEntity
8
1
62
256
6
ByLayer
370
18
48
1
60
0
100
AcDbLine
10
129.078989
20
-19.308928
30
0
11
128.546101
21
-19.552308
31
0
39
0
210
0
220
0
230
1
0
LINE
5
91
100
AcDbEntity
8
1
62
256
6
ByLayer
370
18
48
1
60
0
100
AcDbLine
10
133.586165
20
-18.51871
30
0
11
133.033616
21
-18.771069
31
0
39
0
210
0
220
0
230
1
0
LINE
5
92
100
AcDbEntity
8
1
62
256
6
ByLayer
370
18
48
1
60
0
100
AcDbLine
10
128.546101
20
-19.552308
30
0
11
127.303781
21
-20.262609
31
0
39
0
210
0
220
0
230
1
0
LINE
5
93
100
AcDbEntity
8
1
62
256
6
ByLayer
370
18
48
1
60
0
100
AcDbLine
10
133.033616
20
-18.771069
30
0
11
134.753608
21
-17.787659
31
0
39
0
210
0
220
0
230
1
0
LINE
5
94
100
AcDbEntity
8
1
62
256
6
ByLayer
370
18
48
1
60
0
100
AcDbLine
10
135.317886
20
-17.529942
30
0
11
134.753608
21
-17.787659
31
0
39
0
210
0
220
0
230
1
0
LINE
5
95
100
AcDbEntity
8
1
62
256
6
ByLayer
370
18
48
1
60
0
100
AcDbLine
10
123.354221
20
-14.657414
30
0
11
121.162914
21
-15.658227
31
0
39
0
210
0
220
0
230
1
0
LINE
5
96
100
AcDbEntity
8
1
62
256
6
ByLayer
370
18
48
1
60
0
100
AcDbLine
10
123.488573
20
-11.019707
30
0
11
122.733602
21
-11.364517
31
0
39
0
210
0
220
0
230
1
0
LINE
5
97
100
AcDbEntity
8
1
62
256
6
ByLayer
370
18
48
1
60
0
100
AcDbLine
10
129.42998
20
-24.08801
30
0
11
130.306846
21
-23.687528
31
0
39
0
210
0
220
0
230
1
0
LINE
5
98
100
AcDbEntity
8
1
62
256
6
ByLayer
370
18
48
1
60
0
100
AcDbLine
10
127.460173
20
-21.980719
30
0
11
125.268867
21
-22.981532
31
0
39
0
210
0
220
0
230
1
0
LINE
5
99
100
AcDbEntity
8
1
62
256
6
ByLayer
370
18
48
1
60
0
100
AcDbLine
10
125.268867
20
-22.981532
30
0
11
121.162914
21
-15.658227
31
0
39
0
210
0
220
0
230
1
0
LINE
5
9A
100
AcDbEntity
8
1
62
256
6
ByLayer
370
18
48
1
60
0
100
AcDbLine
10
126.036758
20
-9.56476
30
0
11
123.488573
21
-11.019707
31
0
39
0
210
0
220
0
230
1
0
LINE
5
9B
100
AcDbEntity
8
1
62
256
6
ByLayer
370
18
48
1
60
0
100
AcDbLine
10
125.988401
20
-9.547819
30
0
11
126.036758
21
-9.56476
31
0
39
0
210
0
220
0
230
1
0
LINE
5
9C
100
AcDbEntity
8
1
62
256
6
ByLayer
370
18
48
1
60
0
100
AcDbLine
10
129.250207
20
-7.685412
30
0
11
125.988401
21
-9.547819
31
0
39
0
210
0
220
0
230
1
0
LINE
5
9D
100
AcDbEntity
8
1
62
256
6
ByLayer
370
18
48
1
60
0
100
AcDbLine
10
136.323824
20
-20.301792
30
0
11
133.062017
21
-22.164198
31
0
39
0
210
0
220
0
230
1
0
LINE
5
9E
100
AcDbEntity
8
1
62
256
6
ByLayer
370
18
48
1
60
0
100
AcDbLine
10
133.075533
20
-22.118998
30
0
11
133.062017
21
-22.164198
31
0
39
0
210
0
220
0
230
1
0
LINE
5
9F
100
AcDbEntity
8
1
62
256
6
ByLayer
370
18
48
1
60
0
100
AcDbLine
10
130.527348
20
-23.573945
30
0
11
133.075533
21
-22.118998
31
0
39
0
210
0
220
0
230
1
0
LINE
5
A0
100
AcDbEntity
8
1
62
256
6
ByLayer
370
18
48
1
60
0
100
AcDbLine
10
124.684986
20
-10.333052
30
0
11
122.82222
21
-11.317626
31
0
39
0
210
0
220
0
230
1
0
LINE
5
A1
100
AcDbEntity
8
1
62
256
6
ByLayer
370
18
48
1
60
0
100
AcDbLine
10
124.684986
20
-10.333052
30
0
11
126.005821
21
-9.57889
31
0
39
0
210
0
220
0
230
1
0
LINE
5
A2
100
AcDbEntity
8
1
62
256
6
ByLayer
370
18
48
1
60
0
100
AcDbLine
10
126.036758
20
-9.56476
30
0
11
126.005821
21
-9.57889
31
0
39
0
210
0
220
0
230
1
0
LINE
5
A3
100
AcDbEntity
8
1
62
256
6
ByLayer
370
18
48
1
60
0
100
AcDbLine
10
126.005821
20
-9.57889
30
0
11
125.988401
21
-9.547819
31
0
39
0
210
0
220
0
230
1
0
LINE
5
A4
100
AcDbEntity
8
1
62
256
6
ByLayer
370
18
48
1
60
0
100
AcDbLine
10
133.046097
20
-22.135805
30
0
11
133.062017
21
-22.164198
31
0
39
0
210
0
220
0
230
1
0
LINE
5
A5
100
AcDbEntity
8
1
62
256
6
ByLayer
370
18
48
1
60
0
100
AcDbLine
10
147.670589
20
-4.04026
30
0
11
146.793952
21
-3.820528
31
0
39
0
210
0
220
0
230
1
0
LINE
5
A6
100
AcDbEntity
8
1
62
256
6
ByLayer
370
18
48
1
60
0
100
AcDbLine
10
147.959991
20
-5.395409
30
0
11
148.8853
21
-4.801197
31
0
39
0
210
0
220
0
230
1
0
LINE
5
A7
100
AcDbEntity
8
1
62
256
6
ByLayer
370
18
48
1
60
0
100
AcDbLine
10
148.887975
20
-6.211569
30
0
11
148.629661
21
-7.094667
31
0
39
0
210
0
220
0
230
1
0
LINE
5
A8
100
AcDbEntity
8
1
62
256
6
ByLayer
370
18
48
1
60
0
100
AcDbLine
10
0.3
20
40
30
0
11
0
21
39.7
31
0
39
0
210
0
220
0
230
1
0
LINE
5
A9
100
AcDbEntity
8
1
62
256
6
ByLayer
370
18
48
1
60
0
100
AcDbLine
10
0
20
-39.7
30
0
11
0.3
21
-40
31
0
39
0
210
0
220
0
230
1
0
LINE
5
AA
100
AcDbEntity
8
1
62
256
6
ByLayer
370
18
48
1
60
0
100
AcDbLine
10
30
20
-40
30
0
11
129.303048
21
-26.037437
31
0
39
0
210
0
220
0
230
1
0
LINE
5
AB
100
AcDbEntity
8
1
62
256
6
ByLayer
370
18
48
1
60
0
100
AcDbLine
10
30
20
40
30
0
11
0.3
21
40
31
0
39
0
210
0
220
0
230
1
0
LINE
5
AC
100
AcDbEntity
8
1
62
256
6
ByLayer
370
18
48
1
60
0
100
AcDbLine
10
0.3
20
-40
30
0
11
30
21
-40
31
0
39
0
210
0
220
0
230
1
0
LINE
5
AD
100
AcDbEntity
8
1
62
256
6
ByLayer
370
18
48
1
60
0
100
AcDbLine
10
10.538675
20
-12.13309
30
0
11
13.461325
21
-12.13309
31
0
39
0
210
0
220
0
230
1
0
LINE
5
AE
100
AcDbEntity
8
1
62
256
6
ByLayer
370
18
48
1
60
0
100
AcDbLine
10
13.461325
20
-38.115458
30
0
11
10.538675
21
-38.115458
31
0
39
0
210
0
220
0
230
1
0
LINE
5
AF
100
AcDbEntity
8
1
62
256
6
ByLayer
370
18
48
1
60
0
100
AcDbLine
10
10.538675
20
38.115458
30
0
11
13.461325
21
38.115458
31
0
39
0
210
0
220
0
230
1
0
LINE
5
B0
100
AcDbEntity
8
1
62
256
6
ByLayer
370
18
48
1
60
0
100
AcDbLine
10
13.461325
20
12.13309
30
0
11
10.538675
21
12.13309
31
0
39
0
210
0
220
0
230
1
0
LINE
5
B1
100
AcDbEntity
8
1
62
256
6
ByLayer
370
18
48
1
60
0
100
AcDbLine
10
10.105662
20
-37.944501
30
0
11
10.105662
21
-12.6576
31
0
39
0
210
0
220
0
230
1
0
LINE
5
B2
100
AcDbEntity
8
1
62
256
6
ByLayer
370
18
48
1
60
0
100
AcDbLine
10
10.538675
20
-38.115458
30
0
11
10.538675
21
-12.13309
31
0
39
0
210
0
220
0
230
1
0
LINE
5
B3
100
AcDbEntity
8
1
62
256
6
ByLayer
370
18
48
1
60
0
100
AcDbLine
10
13.461325
20
12.13309
30
0
11
13.461325
21
38.115458
31
0
39
0
210
0
220
0
230
1
0
LINE
5
B4
100
AcDbEntity
8
1
62
256
6
ByLayer
370
18
48
1
60
0
100
AcDbLine
10
13.894338
20
12.6576
30
0
11
13.894338
21
37.944501
31
0
39
0
210
0
220
0
230
1
0
LINE
5
B5
100
AcDbEntity
8
1
62
256
6
ByLayer
370
18
48
1
60
0
100
AcDbLine
10
10.105662
20
12.6576
30
0
11
10.105662
21
37.944501
31
0
39
0
210
0
220
0
230
1
0
LINE
5
B6
100
AcDbEntity
8
1
62
256
6
ByLayer
370
18
48
1
60
0
100
AcDbLine
10
10.538675
20
12.13309
30
0
11
10.538675
21
38.115458
31
0
39
0
210
0
220
0
230
1
0
LINE
5
B7
100
AcDbEntity
8
1
62
256
6
ByLayer
370
18
48
1
60
0
100
AcDbLine
10
13.461325
20
-38.115458
30
0
11
13.461325
21
-12.13309
31
0
39
0
210
0
220
0
230
1
0
LINE
5
B8
100
AcDbEntity
8
1
62
256
6
ByLayer
370
18
48
1
60
0
100
AcDbLine
10
13.894338
20
-37.944501
30
0
11
13.894338
21
-12.6576
31
0
39
0
210
0
220
0
230
1
0
LINE
5
B9
100
AcDbEntity
8
1
62
256
6
ByLayer
370
18
48
1
60
0
100
AcDbLine
10
86.974426
20
13.277835
30
0
11
87.00274
21
4.929769
31
0
39
0
210
0
220
0
230
1
0
LINE
5
BA
100
AcDbEntity
8
1
62
256
6
ByLayer
370
18
48
1
60
0
100
AcDbLine
10
87.226973
20
-21.839117
30
0
11
87.226973
21
-1.547476
31
0
39
0
210
0
220
0
230
1
0
LINE
5
BB
100
AcDbEntity
8
1
62
256
6
ByLayer
370
18
48
1
60
0
100
AcDbLine
10
97.314187
20
4.027635
30
0
11
92.306773
21
4.465727
31
0
39
0
210
0
220
0
230
1
0
LINE
5
BC
100
AcDbEntity
8
1
62
256
6
ByLayer
370
18
48
1
60
0
100
AcDbLine
10
91.877134
20
-25.589932
30
0
11
91.877134
21
0.199613
31
0
39
0
210
0
220
0
230
1
0
LINE
5
BD
100
AcDbEntity
8
1
62
256
6
ByLayer
370
18
48
1
60
0
100
AcDbLine
10
144.088518
20
-1.659713
30
0
11
144.260505
21
-1.873889
31
0
39
0
210
0
220
0
230
1
0
LINE
5
BE
100
AcDbEntity
8
1
62
256
6
ByLayer
370
18
48
1
60
0
100
AcDbLine
10
144.260505
20
-1.873889
30
0
11
142.53404
21
-3.309458
31
0
39
0
210
0
220
0
230
1
0
LINE
5
BF
100
AcDbEntity
8
1
62
256
6
ByLayer
370
18
48
1
60
0
100
AcDbLine
10
141.70958
20
-3.987573
30
0
11
142.420323
21
-3.396585
31
0
39
0
210
0
220
0
230
1
0
LINE
5
C0
100
AcDbEntity
8
1
62
256
6
ByLayer
370
18
48
1
60
0
100
AcDbLine
10
147.713818
20
-10.511493
30
0
11
146.553343
21
-10.592575
31
0
39
0
210
0
220
0
230
1
0
LINE
5
C1
100
AcDbEntity
8
1
62
256
6
ByLayer
370
18
48
1
60
0
100
AcDbLine
10
147.713818
20
-10.511493
30
0
11
147.74015
21
-10.813205
31
0
39
0
210
0
220
0
230
1
0
LINE
5
C2
100
AcDbEntity
8
1
62
256
6
ByLayer
370
18
48
1
60
0
100
AcDbLine
10
132.639935
20
-24.127018
30
0
11
145.95718
21
-12.952523
31
0
39
0
210
0
220
0
230
1
0
LINE
5
C3
100
AcDbEntity
8
1
62
256
6
ByLayer
370
18
48
1
60
0
100
AcDbLine
10
131.212387
20
-23.182805
30
0
11
131.773384
21
-24.18339
31
0
39
0
210
0
220
0
230
1
0
LINE
5
C4
100
AcDbEntity
8
1
62
256
6
ByLayer
370
18
48
1
60
0
100
AcDbLine
10
123.279538
20
-9.033913
30
0
11
124.162701
21
-10.609108
31
0
39
0
210
0
220
0
230
1
0
LINE
5
C5
100
AcDbEntity
8
1
62
256
6
ByLayer
370
18
48
1
60
0
100
AcDbLine
10
116.657857
20
-16.038164
30
0
11
121.547457
21
-24.759171
31
0
39
0
210
0
220
0
230
1
0
LINE
5
C6
100
AcDbEntity
8
1
62
256
6
ByLayer
370
18
48
1
60
0
100
AcDbLine
10
97.314187
20
4.027635
30
0
11
94.866486
21
10.086404
31
0
39
0
210
0
220
0
230
1
0
LINE
5
C7
100
AcDbEntity
8
1
62
256
6
ByLayer
370
18
48
1
60
0
100
AcDbLine
10
136.603481
20
1.31939
30
0
11
94.866486
21
10.086404
31
0
39
0
210
0
220
0
230
1
0
LINE
5
C8
100
AcDbEntity
8
1
62
256
6
ByLayer
370
18
48
1
60
0
100
AcDbLine
10
86.980398
20
11.51712
30
0
11
94.866486
21
10.086404
31
0
39
0
210
0
220
0
230
1
0
LINE
5
C9
100
AcDbEntity
8
1
62
256
6
ByLayer
370
18
48
1
60
0
100
AcDbLine
10
121.15399
20
-16.975539
30
0
11
124.086813
21
-22.206471
31
0
39
0
210
0
220
0
230
1
0
LINE
5
CA
100
AcDbEntity
8
1
62
256
6
ByLayer
370
18
48
1
60
0
100
AcDbLine
10
123.279538
20
-9.033913
30
0
11
122.749644
21
-9.317873
31
0
39
0
210
0
220
0
230
1
0
LINE
5
CB
100
AcDbEntity
8
1
62
256
6
ByLayer
370
18
48
1
60
0
100
AcDbLine
10
146.637591
20
-10.491426
30
0
11
147.60169
21
-10.424065
31
0
39
0
210
0
220
0
230
1
0
LINE
5
CC
100
AcDbEntity
8
1
62
256
6
ByLayer
370
18
48
1
60
0
100
AcDbLine
10
147.713818
20
-10.511493
30
0
11
147.60169
21
-10.424065
31
0
39
0
210
0
220
0
230
1
0
LINE
5
CD
100
AcDbEntity
8
1
62
256
6
ByLayer
370
18
48
1
60
0
100
AcDbLine
10
142.939058
20
-3.096889
30
0
11
144.240151
21
-2.01502
31
0
39
0
210
0
220
0
230
1
0
LINE
5
CE
100
AcDbEntity
8
1
62
256
6
ByLayer
370
18
48
1
60
0
100
AcDbLine
10
144.260505
20
-1.873889
30
0
11
144.240151
21
-2.01502
31
0
39
0
210
0
220
0
230
1
0
LINE
5
CF
100
AcDbEntity
8
1
62
256
6
ByLayer
370
18
48
1
60
0
100
AcDbLine
10
146.409411
20
-8.454762
30
0
11
146.458022
21
-8.435124
31
0
39
0
210
0
220
0
230
1
0
LINE
5
D0
100
AcDbEntity
8
1
62
256
6
ByLayer
370
18
48
1
60
0
100
AcDbLine
10
144.762657
20
-5.021655
30
0
11
144.743215
21
-5.029509
31
0
39
0
210
0
220
0
230
1
0
LINE
5
D1
100
AcDbEntity
8
1
62
256
6
ByLayer
370
18
48
1
60
0
100
AcDbLine
10
145.006848
20
-4.988712
30
0
11
144.691937
21
-5.115933
31
0
39
0
210
0
220
0
230
1
0
LINE
5
D2
100
AcDbEntity
8
1
62
256
6
ByLayer
370
18
48
1
60
0
100
AcDbLine
10
132.251504
20
-13.221293
30
0
11
132.266738
21
-13.215597
31
0
39
0
210
0
220
0
230
1
0
LINE
5
D3
100
AcDbEntity
8
1
62
256
6
ByLayer
370
18
48
1
60
0
100
AcDbLine
10
133.523112
20
-15.194484
30
0
11
133.504902
21
-15.201383
31
0
39
0
210
0
220
0
230
1
0
LINE
5
D4
100
AcDbEntity
8
SK1
62
256
6
ByLayer
370
18
48
1
60
0
100
AcDbLine
10
-3
20
-27.5
30
0
11
-3
21
27.5
31
0
39
0
210
0
220
0
230
1
0
LINE
5
D6
100
AcDbEntity
8
SK1
62
256
6
ByLayer
370
18
48
1
60
0
100
AcDbLine
10
-2.2
20
12.864565
30
0
11
-2.2
21
24.989566
31
0
39
0
210
0
220
0
230
1
0
LINE
5
D7
100
AcDbEntity
8
SK1
62
256
6
ByLayer
370
18
48
1
60
0
100
AcDbLine
10
-2.2
20
-24.989567
30
0
11
-2.2
21
-12.864564
31
0
39
0
210
0
220
0
230
1
0
LINE
5
D8
100
AcDbEntity
8
SK1
62
256
6
ByLayer
370
18
48
1
60
0
100
AcDbLine
10
-2
20
27.325145
30
0
11
-2
21
-27.325145
31
0
39
0
210
0
220
0
230
1
0
LINE
5
D9
100
AcDbEntity
8
SK1
62
256
6
ByLayer
370
18
48
1
60
0
100
AcDbLine
10
-0.4
20
-5.670607
30
0
11
-0.4
21
-27.325111
31
0
39
0
210
0
220
0
230
1
0
LINE
5
DA
100
AcDbEntity
8
SK1
62
256
6
ByLayer
370
18
48
1
60
0
100
AcDbLine
10
-48
20
25.490392
30
0
11
-48
21
-25.490392
31
0
39
0
210
0
220
0
230
1
0
LINE
5
DB
100
AcDbEntity
8
SK1
62
256
6
ByLayer
370
18
48
1
60
0
100
AcDbLine
10
-0.4
20
27.32511
30
0
11
-0.4
21
5.670607
31
0
39
0
210
0
220
0
230
1
0
LINE
5
DC
100
AcDbEntity
8
1
62
256
6
ByLayer
370
18
48
1
60
0
100
AcDbLine
10
87.543716
20
7.39199
30
0
11
87.107937
21
2.411016
31
0
39
0
210
0
220
0
230
1
0
LINE
5
DD
100
AcDbEntity
8
1
62
256
6
ByLayer
370
18
48
1
60
0
100
AcDbLine
10
91.939455
20
1.988313
30
0
11
92.375233
21
6.969287
31
0
39
0
210
0
220
0
230
1
0
LINE
5
DE
100
AcDbEntity
8
1
62
256
6
ByLayer
370
18
48
1
60
0
100
AcDbLine
10
92.511589
20
6.806784
30
0
11
92.101957
21
2.124669
31
0
39
0
210
0
220
0
230
1
0
LINE
5
DF
100
AcDbEntity
8
1
62
256
6
ByLayer
370
18
48
1
60
0
100
AcDbLine
10
0.3
20
40
30
0
11
0.3
21
-40
31
0
39
0
210
0
220
0
230
1
0
LINE
5
E0
100
AcDbEntity
8
1
62
256
6
ByLayer
370
18
48
1
60
0
100
AcDbLine
10
0
20
-39.7
30
0
11
0
21
39.7
31
0
39
0
210
0
220
0
230
1
0
LINE
5
E1
100
AcDbEntity
8
1
62
256
6
ByLayer
370
18
48
1
60
0
100
AcDbLine
10
30
20
-40
30
0
11
30
21
40
31
0
39
0
210
0
220
0
230
1
0
LINE
5
E2
100
AcDbEntity
8
SK1
62
256
6
ByLayer
370
18
48
1
60
0
100
AcDbLine
10
-0.2
20
28.683485
30
0
11
-0.2
21
6.365252
31
0
39
0
210
0
220
0
230
1
0
LINE
5
E3
100
AcDbEntity
8
SK1
62
256
6
ByLayer
370
18
48
1
60
0
100
AcDbLine
10
-1.307107
20
4.281245
30
0
11
-1.307107
21
-4.281244
31
0
39
0
210
0
220
0
230
1
0
LINE
5
E4
100
AcDbEntity
8
SK1
62
256
6
ByLayer
370
18
48
1
60
0
100
AcDbLine
10
-0.2
20
-6.365251
30
0
11
-0.2
21
-28.683485
31
0
39
0
210
0
220
0
230
1
0
LINE
5
E5
100
AcDbEntity
8
1
62
256
6
ByLayer
370
18
48
1
60
0
100
AcDbLine
10
148.305761
20
-10.319276
30
0
11
148.148745
21
-10.38271
31
0
39
0
210
0
220
0
230
1
0
LINE
5
E6
100
AcDbEntity
8
1
62
256
6
ByLayer
370
18
48
1
60
0
100
AcDbLine
10
144.792872
20
-1.623857
30
0
11
144.635856
21
-1.68729
31
0
39
0
210
0
220
0
230
1
0
LINE
5
E7
100
AcDbEntity
8
1
62
256
6
ByLayer
370
18
48
1
60
0
100
AcDbLine
10
144.635856
20
-1.68729
30
0
11
144.107043
21
-2.213511
31
0
39
0
210
0
220
0
230
1
0
LINE
5
E8
100
AcDbEntity
8
1
62
256
6
ByLayer
370
18
48
1
60
0
100
AcDbLine
10
148.148745
20
-10.38271
30
0
11
147.402805
21
-10.371479
31
0
39
0
210
0
220
0
230
1
0
LINE
5
E9
100
AcDbEntity
8
SK4
62
256
6
ByLayer
370
18
48
0.05
60
0
100
AcDbLine
10
175.357476
20
0
30
0
11
-64.642524
21
0
31
0
39
0
210
0
220
0
230
1
0
LINE
5
EB
100
AcDbEntity
8
4
62
256
6
ByLayer
370
18
48
0.05
60
0
100
AcDbLine
10
0
20
0
30
0
11
169.148675
21
0
31
0
39
0
210
0
220
0
230
1
0
LINE
5
ED
100
AcDbEntity
8
80
62
256
6
ByLayer
370
18
48
1
60
0
100
AcDbLine
10
0
20
0
30
0
11
-10.652866
21
0
31
0
39
0
210
0
220
0
230
1
0
LINE
5
EE
100
AcDbEntity
8
81
62
256
6
ByLayer
370
18
48
1
60
0
100
AcDbLine
10
170.593442
20
-0.561591
30
0
11
159.940576
21
-0.561591
31
0
39
0
210
0
220
0
230
1
0
MTEXT
5
1BD
100
AcDbEntity
8
SK6
62
256
6
ByLayer
370
18
48
1
60
0
100
AcDbMText
10
45.125351
20
-76.651802
30
0
210
0
220
0
230
1
1
\W0.7232;C8-DVMNL-00160-16
40
3
41
0
44
1.084337
50
0
71
7
72
5
7
iso_b_vert
0
DIMENSION
5
1D1
100
AcDbEntity
8
SK2
62
256
6
ByLayer
370
18
48
1
60
0
100
AcDbDimension
2
DimnDraft3D1
10
-79.167389
20
40
30
0
11
-79.417389
21
1.38125
31
0
70
33
71
5
72
1
41
1
210
0
220
0
230
1
3
Standard
100
AcDbAlignedDimension
13
-1.7
23
-40
33
0
14
-1.7
24
40
34
0
1001
ACAD
1000
DSTYLE
1002
{
1070
   279
1070
     0
1070
    74
1070
     0
1070
   173
1070
     1
1070
   340
1005
1C3
1070
    77
1070
     1
1070
    73
1070
     0
1070
   171
1070
     3
1070
   274
1070
     4
1070
   177
1070
     7
1070
   176
1070
     7
1070
   178
1070
     7
1070
    78
1070
     8
1070
    41
1041
3.175
1070
   147
1041
1.5
1070
    42
1041
2.0
1070
    44
1041
2.0
1070
   140
1041
3.0
1070
   343
1005
0
1070
   344
1005
0
1002
}
0
DIMENSION
5
1E0
100
AcDbEntity
8
2
62
256
6
ByLayer
370
18
48
1
60
0
100
AcDbDimension
2
DimnDraft3D2
10
56.842138
20
159.940576
30
0
11
56.842138
21
75.217163
31
0
70
32
71
5
72
1
41
1
210
0
220
0
230
1
3
Standard
100
AcDbAlignedDimension
13
41.7
23
0
33
0
14
2.561591
24
159.940576
34
0
50
90
100
AcDbRotatedDimension
1001
ACAD
1000
DSTYLE
1002
{
1070
    74
1070
     0
1070
   279
1070
     0
1070
   172
1070
     1
1070
   173
1070
     1
1070
   340
1005
1C3
1070
   271
1070
     0
1070
    77
1070
     1
1070
    73
1070
     0
1070
   171
1070
     3
1070
   274
1070
     4
1070
   177
1070
     7
1070
   176
1070
     7
1070
   178
1070
     7
1070
    78
1070
     8
1070
    41
1041
3.175
1070
   147
1041
1.5
1070
    42
1041
2.0
1070
    44
1041
2.0
1070
   140
1041
3.0
1070
   343
1005
1E1
1070
   344
1005
1E1
1002
}
0
DIMENSION
5
1F5
100
AcDbEntity
8
2
62
256
6
ByLayer
370
18
48
1
60
0
100
AcDbDimension
2
DimnDraft3D3
10
0
20
-194.176649
30
0
11
-22.603465
21
-194.176649
31
0
70
32
71
5
72
1
41
1
210
0
220
0
230
1
3
Standard
100
AcDbAlignedDimension
13
-0.561591
23
-161.940576
33
0
14
0
24
-177.357476
34
0
50
0
100
AcDbRotatedDimension
1001
ACAD
1000
DSTYLE
1002
{
1070
   279
1070
     0
1070
   172
1070
     1
1070
   173
1070
     1
1070
   340
1005
1C3
1070
   271
1070
     1
1070
    77
1070
     1
1070
    73
1070
     0
1070
   171
1070
     3
1070
   274
1070
     4
1070
   177
1070
     7
1070
   176
1070
     7
1070
   178
1070
     7
1070
    78
1070
     8
1070
    41
1041
3.175
1070
   147
1041
1.5
1070
    42
1041
2.0
1070
    44
1041
2.0
1070
   140
1041
3.0
1070
   343
1005
1E1
1070
   344
1005
1E1
1002
}
0
DIMENSION
5
203
100
AcDbEntity
8
2
62
256
6
ByLayer
370
18
48
1
60
0
100
AcDbDimension
2
DimnDraft3D4
10
159.940576
20
-1.561591
30
0
11
144.334394
21
-34.751713
31
0
70
34
71
5
72
1
41
1
210
0
220
0
230
1
3
Standard
100
AcDb2LineAngularDimension
13
159.724772
23
-1.465229
33
0
14
149.409808
24
-10.120512
34
0
15
159.940576
25
-0.561591
35
0
16
143.066539
26
-37.470636
36
0
40
0
0
ENDSEC
0
SECTION
2
OBJECTS
0
DICTIONARY
5
26e
330
0
100
AcDbDictionary
280
0
281
1
3
ACAD_GROUP
350
26f
3
ACAD_MLINESTYLE
350
270
0
DICTIONARY
5
26f
330
0
100
AcDbDictionary
280
0
281
1
0
DICTIONARY
5
270
330
0
100
AcDbDictionary
280
0
281
1
3
Standard
350
18
0
MLINESTYLE
5
18
330
270
100
AcDbMlineStyle
2
Standard
70
0
3

62
256
51
90
52
90
71
2
49
-0.5
62
256
6
ByLayer
49
0.5
62
256
6
ByLayer
0
RASTERVARIABLES
5
25c
330

100
AcDbRasterVariables
90
0
70
1
71
1
72
1
0
ENDSEC
0
EOF
