0
SECTION
2
HEADER
9
$ACADVER
1
AC1015
9
$DWGCODEPAGE
3
ANSI_1252
9
$HANDSEED
5
25c
9
$ANGBASE
50
0
9
$ANGDIR
70
0
9
$ATTMODE
70
1
9
$AUNITS
70
0
9
$AUPREC
70
0
9
$CECOLOR
62
256
9
$CELTSCALE
40
1
9
$CELTYPE
6
ByLayer
9
$CELWEIGHT
370
18
9
$CLAYER
8
0
9
$CMLJUST
70
0
9
$CMLSCALE
40
1
9
$CMLSTYLE
2
Standard
9
$DIMSTYLE
2
Standard
9
$TEXTSIZE
40
0.2
9
$TEXTSTYLE
7
Standard
9
$LUNITS
70
2
9
$LUPREC
70
4
9
$EXTNAMES
290
1
9
$INSUNITS
70
4
9
$LTSCALE
40
1
9
$LWDISPLAY
290
1
9
$PDMODE
70
0
9
$PDSIZE
40
0
9
$PLINEGEN
70
0
0
ENDSEC
0
SECTION
2
CLASSES
0
CLASS
1
RASTERVARIABLES
2
AcDbRasterVariables
3
ISM
90
0
280
0
281
0
0
ENDSEC
0
SECTION
2
TABLES
0
TABLE
2
VPORT
5
252
100
AcDbSymbolTable
0
VPORT
5
1
100
AcDbSymbolTableRecord
100
AcDbViewportTableRecord
2
*Active
70
0
10
0
20
0
11
1
21
1
12
-1
22
1
13
0
23
0
14
0.5
24
0.5
15
10
25
10
16
0
26
0
36
1
17
0
27
0
37
0
0
ENDTAB
0
TABLE
2
LTYPE
5
253
100
AcDbSymbolTable
0
LTYPE
5
14
100
AcDbSymbolTableRecord
100
AcDbLinetypeTableRecord
70
0
2
ByBlock
3

72
65
73
0
40
0
0
LTYPE
5
15
100
AcDbSymbolTableRecord
100
AcDbLinetypeTableRecord
70
0
2
ByLayer
3

72
65
73
0
40
0
0
LTYPE
5
16
100
AcDbSymbolTableRecord
100
AcDbLinetypeTableRecord
70
0
2
CONTINUOUS
3
Solid line
72
65
73
0
40
0
0
LTYPE
5
6A
100
AcDbSymbolTableRecord
100
AcDbLinetypeTableRecord
70
0
2
CENTER
3
____ _ ____ _ ____ _ ____
72
65
73
4
40
47.5
49
22
74
0
49
-8.5
74
0
49
8.5
74
0
49
-8.5
74
0
0
LTYPE
5
6B
100
AcDbSymbolTableRecord
100
AcDbLinetypeTableRecord
70
0
2
DASHED
3
__ __ __ __ __ __ __ __ __
72
65
73
2
40
25.72
49
12.86
74
0
49
-12.86
74
0
0
ENDTAB
0
TABLE
2
LAYER
5
254
100
AcDbSymbolTable
0
LAYER
5
10
100
AcDbSymbolTableRecord
100
AcDbLayerTableRecord
2
0
70
0
62
7
6
CONTINUOUS
290
1
370
-3
390
0
0
LAYER
5
6D
100
AcDbSymbolTableRecord
100
AcDbLayerTableRecord
2
81
70
0
62
-3
6
CONTINUOUS
290
1
370
-3
390
0
0
LAYER
5
6F
100
AcDbSymbolTableRecord
100
AcDbLayerTableRecord
2
80
70
0
62
-6
6
CONTINUOUS
290
1
370
-3
390
0
0
LAYER
5
71
100
AcDbSymbolTableRecord
100
AcDbLayerTableRecord
2
1
70
0
62
4
6
CONTINUOUS
290
1
370
-3
390
0
0
LAYER
5
F0
100
AcDbSymbolTableRecord
100
AcDbLayerTableRecord
2
4
70
0
62
-2
6
CENTER
290
1
370
-3
390
0
0
LAYER
5
1BC
100
AcDbSymbolTableRecord
100
AcDbLayerTableRecord
2
2
70
0
62
7
6
CONTINUOUS
290
1
370
-3
390
0
0
LAYER
5
23e
100
AcDbSymbolTableRecord
100
AcDbLayerTableRecord
2
SK1
70
0
62
4
6
CONTINUOUS
290
1
370
-3
390
0
0
LAYER
5
23f
100
AcDbSymbolTableRecord
100
AcDbLayerTableRecord
2
SK4
70
0
62
2
6
CENTER
290
1
370
-3
390
0
0
LAYER
5
240
100
AcDbSymbolTableRecord
100
AcDbLayerTableRecord
2
SK6
70
0
62
5
6
CONTINUOUS
290
1
370
-3
390
0
0
LAYER
5
241
100
AcDbSymbolTableRecord
100
AcDbLayerTableRecord
2
SK2
70
0
62
7
6
CONTINUOUS
290
1
370
-3
390
0
0
ENDTAB
0
TABLE
2
STYLE
5
255
100
AcDbSymbolTable
0
STYLE
5
11
100
AcDbSymbolTableRecord
100
AcDbTextStyleTableRecord
2
Standard
3
txt
70
0
71
0
40
0
41
1
42
0
50
0
0
STYLE
5
1A1
100
AcDbSymbolTableRecord
100
AcDbTextStyleTableRecord
2
iso_b_vert
3
simplex.shx
70
0
71
0
40
0
41
1
42
0
50
0
0
STYLE
5
1A2
100
AcDbSymbolTableRecord
100
AcDbTextStyleTableRecord
2
DWGDirectTextStyle
3
simplex
70
0
71
0
40
0
41
1
42
0
50
0
0
ENDTAB
0
TABLE
2
DIMSTYLE
5
256
100
AcDbSymbolTable
100
AcDbDimStyleTable
0
DIMSTYLE
105
27
100
AcDbSymbolTableRecord
100
AcDbDimStyleTableRecord
2
Standard
70
0
3
<>
41
0.18
42
0.0625
44
0.18
140
0.18
147
0.09
73
0
74
0
77
1
271
2
275
0
278
52
280
0
340
11
0
ENDTAB
0
TABLE
2
VIEW
5
257
100
AcDbSymbolTable
0
ENDTAB
0
TABLE
2
UCS
5
258
100
AcDbSymbolTable
0
ENDTAB
0
TABLE
2
APPID
5
259
100
AcDbSymbolTable
0
APPID
5
12
100
AcDbSymbolTableRecord
100
AcDbRegAppTableRecord
2
ACAD
70
0
0
ENDTAB
0
TABLE
2
BLOCK_RECORD
5
25a
100
AcDbSymbolTable
0
BLOCK_RECORD
5
1F
100
AcDbSymbolTableRecord
100
AcDbBlockTableRecord
2
*Model_Space
340
0
70
0
0
BLOCK_RECORD
5
1B
100
AcDbSymbolTableRecord
100
AcDbBlockTableRecord
2
*Paper_Space
340
0
70
0
0
BLOCK_RECORD
5
23
100
AcDbSymbolTableRecord
100
AcDbBlockTableRecord
2
*Paper_Space0
340
0
70
0
0
BLOCK_RECORD
5
1A4
100
AcDbSymbolTableRecord
100
AcDbBlockTableRecord
2
DimnDraft3D1
340
0
70
0
0
BLOCK_RECORD
5
1B3
100
AcDbSymbolTableRecord
100
AcDbBlockTableRecord
2
_CLOSED
340
0
70
0
0
BLOCK_RECORD
5
1BA
100
AcDbSymbolTableRecord
100
AcDbBlockTableRecord
2
DimnDraft3D2
340
0
70
0
0
BLOCK_RECORD
5
1C9
100
AcDbSymbolTableRecord
100
AcDbBlockTableRecord
2
DimnDraft3D3
340
0
70
0
0
BLOCK_RECORD
5
1D7
100
AcDbSymbolTableRecord
100
AcDbBlockTableRecord
2
DimnDraft3D4
340
0
70
0
0
ENDTAB
0
ENDSEC
0
SECTION
2
BLOCKS
0
BLOCK
5
20
100
AcDbEntity
8
0
100
AcDbBlockBegin
2
*Model_Space
70
0
10
0
20
0
30
0
3
*Model_Space
0
ENDBLK
5
21
100
AcDbEntity
8
0
100
AcDbBlockEnd
0
BLOCK
5
1C
100
AcDbEntity
8
0
100
AcDbBlockBegin
2
*Paper_Space
70
0
10
0
20
0
30
0
3
*Paper_Space
0
ENDBLK
5
1D
100
AcDbEntity
8
0
100
AcDbBlockEnd
0
BLOCK
5
24
100
AcDbEntity
8
0
100
AcDbBlockBegin
2
*Paper_Space0
70
0
10
0
20
0
30
0
3
*Paper_Space0
0
ENDBLK
5
25
100
AcDbEntity
8
0
100
AcDbBlockEnd
0
BLOCK
5
1B0
100
AcDbEntity
8
0
100
AcDbBlockBegin
2
DimnDraft3D1
70
0
10
0
20
0
30
0
3
DimnDraft3D1
0
MTEXT
5
1A5
100
AcDbEntity
8
SK2
62
256
6
ByLayer
370
18
48
1
60
0
100
AcDbMText
10
-72.86661
20
-5.194737
30
0
210
0
220
0
230
1
1
\W1.2949;%%c80
40
3.5
41
0
44
1.084337
50
90
71
7
72
5
7
iso_b_vert
0
LINE
5
1A7
100
AcDbEntity
8
SK2
62
256
6
ByLayer
370
13
48
1
60
0
100
AcDbLine
10
-3.52
20
-40
30
0
11
-74.63661
21
-40
31
0
39
0
210
0
220
0
230
1
0
LINE
5
1A8
100
AcDbEntity
8
SK2
62
256
6
ByLayer
370
13
48
1
60
0
100
AcDbLine
10
-3.52
20
40
30
0
11
-74.63661
21
40
31
0
39
0
210
0
220
0
230
1
0
LINE
5
1A9
100
AcDbEntity
8
SK2
62
256
6
ByLayer
370
13
48
1
60
0
100
AcDbLine
10
-71.11661
20
-40
30
0
11
-71.11661
21
40
31
0
39
0
210
0
220
0
230
1
0
LINE
5
1AA
100
AcDbEntity
8
SK2
62
256
6
ByLayer
370
13
48
1
60
0
100
AcDbLine
10
-71.11661
20
-40
30
0
11
-71.852284
21
-34.412003
31
0
39
0
210
0
220
0
230
1
0
LINE
5
1AB
100
AcDbEntity
8
SK2
62
256
6
ByLayer
370
13
48
1
60
0
100
AcDbLine
10
-71.11661
20
-40
30
0
11
-70.380936
21
-34.411997
31
0
39
0
210
0
220
0
230
1
0
LINE
5
1AC
100
AcDbEntity
8
SK2
62
256
6
ByLayer
370
13
48
1
60
0
100
AcDbLine
10
-71.852284
20
-34.412003
30
0
11
-70.380936
21
-34.411997
31
0
39
0
210
0
220
0
230
1
0
LINE
5
1AD
100
AcDbEntity
8
SK2
62
256
6
ByLayer
370
13
48
1
60
0
100
AcDbLine
10
-71.11661
20
40
30
0
11
-70.380936
21
34.412003
31
0
39
0
210
0
220
0
230
1
0
LINE
5
1AE
100
AcDbEntity
8
SK2
62
256
6
ByLayer
370
13
48
1
60
0
100
AcDbLine
10
-71.11661
20
40
30
0
11
-71.852284
21
34.411997
31
0
39
0
210
0
220
0
230
1
0
LINE
5
1AF
100
AcDbEntity
8
SK2
62
256
6
ByLayer
370
13
48
1
60
0
100
AcDbLine
10
-70.380936
20
34.412003
30
0
11
-71.852284
21
34.411997
31
0
39
0
210
0
220
0
230
1
0
ENDBLK
5
1B1
100
AcDbEntity
8
0
100
AcDbBlockEnd
0
BLOCK
5
1B4
100
AcDbEntity
8
0
100
AcDbBlockBegin
2
_CLOSED
70
0
10
0
20
0
30
0
3
_CLOSED
0
LINE
5
1B6
100
AcDbEntity
8
0
62
256
6
ByLayer
370
-2
48
1
60
0
100
AcDbLine
10
-1
20
0.166667
30
0
11
0
21
0
31
0
39
0
210
0
220
0
230
1
0
LINE
5
1B7
100
AcDbEntity
8
0
62
256
6
ByLayer
370
-2
48
1
60
0
100
AcDbLine
10
0
20
0
30
0
11
-1
21
-0.166667
31
0
39
0
210
0
220
0
230
1
0
LINE
5
1B8
100
AcDbEntity
8
0
62
256
6
ByLayer
370
-2
48
1
60
0
100
AcDbLine
10
-1
20
0.166667
30
0
11
-1
21
-0.166667
31
0
39
0
210
0
220
0
230
1
0
LINE
5
1B9
100
AcDbEntity
8
0
62
256
6
ByLayer
370
-2
48
1
60
0
100
AcDbLine
10
0
20
0
30
0
11
-1
21
0
31
0
39
0
210
0
220
0
230
1
0
ENDBLK
5
1B5
100
AcDbEntity
8
0
100
AcDbBlockEnd
0
BLOCK
5
1C6
100
AcDbEntity
8
0
100
AcDbBlockBegin
2
DimnDraft3D2
70
0
10
0
20
0
30
0
3
DimnDraft3D2
0
MTEXT
5
1BB
100
AcDbEntity
8
2
62
256
6
ByLayer
370
18
48
1
60
0
100
AcDbMText
10
107.805955
20
-28.669737
30
0
210
0
220
0
230
1
1
\W0.6563;55
40
3.5
41
0
44
1.084337
50
90
71
7
72
5
7
iso_b_vert
0
LINE
5
1BD
100
AcDbEntity
8
2
62
256
6
ByLayer
370
13
48
1
60
0
100
AcDbLine
10
83.52
20
-55
30
0
11
112.200955
21
-55
31
0
39
0
210
0
220
0
230
1
0
LINE
5
1BE
100
AcDbEntity
8
2
62
256
6
ByLayer
370
13
48
1
60
0
100
AcDbLine
10
85.94591
20
0
30
0
11
112.200955
21
0
31
0
39
0
210
0
220
0
230
1
0
LINE
5
1BF
100
AcDbEntity
8
2
62
256
6
ByLayer
370
13
48
1
60
0
100
AcDbLine
10
108.680955
20
-55
30
0
11
108.680955
21
0
31
0
39
0
210
0
220
0
230
1
0
LINE
5
1C0
100
AcDbEntity
8
2
62
256
6
ByLayer
370
13
48
1
60
0
100
AcDbLine
10
108.680955
20
-55
30
0
11
107.945281
21
-49.412003
31
0
39
0
210
0
220
0
230
1
0
LINE
5
1C1
100
AcDbEntity
8
2
62
256
6
ByLayer
370
13
48
1
60
0
100
AcDbLine
10
108.680955
20
-55
30
0
11
109.416629
21
-49.411997
31
0
39
0
210
0
220
0
230
1
0
LINE
5
1C2
100
AcDbEntity
8
2
62
256
6
ByLayer
370
13
48
1
60
0
100
AcDbLine
10
107.945281
20
-49.412003
30
0
11
109.416629
21
-49.411997
31
0
39
0
210
0
220
0
230
1
0
LINE
5
1C3
100
AcDbEntity
8
2
62
256
6
ByLayer
370
13
48
1
60
0
100
AcDbLine
10
108.680955
20
0
30
0
11
109.416629
21
-5.587997
31
0
39
0
210
0
220
0
230
1
0
LINE
5
1C4
100
AcDbEntity
8
2
62
256
6
ByLayer
370
13
48
1
60
0
100
AcDbLine
10
108.680955
20
0
30
0
11
107.945281
21
-5.588003
31
0
39
0
210
0
220
0
230
1
0
LINE
5
1C5
100
AcDbEntity
8
2
62
256
6
ByLayer
370
13
48
1
60
0
100
AcDbLine
10
109.416629
20
-5.587997
30
0
11
107.945281
21
-5.588003
31
0
39
0
210
0
220
0
230
1
0
ENDBLK
5
1C7
100
AcDbEntity
8
0
100
AcDbBlockEnd
0
BLOCK
5
1D4
100
AcDbEntity
8
0
100
AcDbBlockBegin
2
DimnDraft3D3
70
0
10
0
20
0
30
0
3
DimnDraft3D3
0
MTEXT
5
1CA
100
AcDbEntity
8
2
62
256
6
ByLayer
370
18
48
1
60
0
100
AcDbMText
10
38.830263
20
-69.589086
30
0
210
0
220
0
230
1
1
\W0.6563;80
40
3.5
41
0
44
1.084337
50
0
71
7
72
5
7
iso_b_vert
0
LINE
5
1CB
100
AcDbEntity
8
2
62
256
6
ByLayer
370
13
48
1
60
0
100
AcDbLine
10
80
20
-58.52
30
0
11
80
21
-73.984086
31
0
39
0
210
0
220
0
230
1
0
LINE
5
1CC
100
AcDbEntity
8
2
62
256
6
ByLayer
370
13
48
1
60
0
100
AcDbLine
10
0
20
-43.52
30
0
11
0
21
-73.984086
31
0
39
0
210
0
220
0
230
1
0
LINE
5
1CD
100
AcDbEntity
8
2
62
256
6
ByLayer
370
13
48
1
60
0
100
AcDbLine
10
80
20
-70.464086
30
0
11
0
21
-70.464086
31
0
39
0
210
0
220
0
230
1
0
LINE
5
1CE
100
AcDbEntity
8
2
62
256
6
ByLayer
370
13
48
1
60
0
100
AcDbLine
10
80
20
-70.464086
30
0
11
74.412003
21
-71.19976
31
0
39
0
210
0
220
0
230
1
0
LINE
5
1CF
100
AcDbEntity
8
2
62
256
6
ByLayer
370
13
48
1
60
0
100
AcDbLine
10
80
20
-70.464086
30
0
11
74.411997
21
-69.728412
31
0
39
0
210
0
220
0
230
1
0
LINE
5
1D0
100
AcDbEntity
8
2
62
256
6
ByLayer
370
13
48
1
60
0
100
AcDbLine
10
74.412003
20
-71.19976
30
0
11
74.411997
21
-69.728412
31
0
39
0
210
0
220
0
230
1
0
LINE
5
1D1
100
AcDbEntity
8
2
62
256
6
ByLayer
370
13
48
1
60
0
100
AcDbLine
10
0
20
-70.464086
30
0
11
5.587997
21
-69.728412
31
0
39
0
210
0
220
0
230
1
0
LINE
5
1D2
100
AcDbEntity
8
2
62
256
6
ByLayer
370
13
48
1
60
0
100
AcDbLine
10
0
20
-70.464086
30
0
11
5.588003
21
-71.19976
31
0
39
0
210
0
220
0
230
1
0
LINE
5
1D3
100
AcDbEntity
8
2
62
256
6
ByLayer
370
13
48
1
60
0
100
AcDbLine
10
5.587997
20
-69.728412
30
0
11
5.588003
21
-71.19976
31
0
39
0
210
0
220
0
230
1
0
ENDBLK
5
1D5
100
AcDbEntity
8
0
100
AcDbBlockEnd
0
BLOCK
5
1E2
100
AcDbEntity
8
0
100
AcDbBlockBegin
2
DimnDraft3D4
70
0
10
0
20
0
30
0
3
DimnDraft3D4
0
MTEXT
5
1D8
100
AcDbEntity
8
2
62
256
6
ByLayer
370
18
48
1
60
0
100
AcDbMText
10
90.439867
20
-37.865473
30
0
210
0
220
0
230
1
1
\W0.8292;93%%d0'
40
3.5
41
0
44
1.084337
50
316.5
71
7
72
5
7
iso_b_vert
0
LINE
5
1D9
100
AcDbEntity
8
2
62
256
6
ByLayer
370
13
48
1
60
0
100
AcDbLine
10
79.194461
20
-38.8102
30
0
11
78.879467
21
-32.799743
31
0
39
0
210
0
220
0
230
1
0
LINE
5
1DA
100
AcDbEntity
8
2
62
256
6
ByLayer
370
13
48
1
60
0
100
AcDbLine
10
83.52
20
-55
30
0
11
102.273656
21
-55
31
0
39
0
210
0
220
0
230
1
0
ARC
5
1DB
100
AcDbEntity
8
2
62
256
6
ByLayer
370
13
48
1
60
0
100
AcDbCircle
39
0
10
80.042933
20
-55
30
0
40
18.7107235057386
210
0
220
0
230
1
100
AcDbArc
50
0
51
93
0
LINE
5
1DC
100
AcDbEntity
8
2
62
256
6
ByLayer
370
13
48
1
60
0
100
AcDbLine
10
79.063689
20
-36.314919
30
0
11
84.666368
21
-35.700979
31
0
39
0
210
0
220
0
230
1
0
LINE
5
1DD
100
AcDbEntity
8
2
62
256
6
ByLayer
370
13
48
1
60
0
100
AcDbLine
10
79.063689
20
-36.314919
30
0
11
84.634366
21
-37.171979
31
0
39
0
210
0
220
0
230
1
0
LINE
5
1DE
100
AcDbEntity
8
2
62
256
6
ByLayer
370
13
48
1
60
0
100
AcDbLine
10
84.666368
20
-35.700979
30
0
11
84.634366
21
-37.171979
31
0
39
0
210
0
220
0
230
1
0
LINE
5
1DF
100
AcDbEntity
8
2
62
256
6
ByLayer
370
13
48
1
60
0
100
AcDbLine
10
98.753656
20
-55
30
0
11
97.606224
21
-49.481818
31
0
39
0
210
0
220
0
230
1
0
LINE
5
1E0
100
AcDbEntity
8
2
62
256
6
ByLayer
370
13
48
1
60
0
100
AcDbLine
10
98.753656
20
-55
30
0
11
99.073533
21
-49.372863
31
0
39
0
210
0
220
0
230
1
0
LINE
5
1E1
100
AcDbEntity
8
2
62
256
6
ByLayer
370
13
48
1
60
0
100
AcDbLine
10
97.606224
20
-49.481818
30
0
11
99.073533
21
-49.372863
31
0
39
0
210
0
220
0
230
1
0
ENDBLK
5
1E3
100
AcDbEntity
8
0
100
AcDbBlockEnd
0
ENDSEC
0
SECTION
2
ENTITIES
0
ARC
5
F5
100
AcDbEntity
8
1
62
256
6
ByLayer
370
18
48
1
60
0
100
AcDbCircle
39
0
10
13.928617
20
-1.539091
30
0
40
5
210
0
220
0
230
1
100
AcDbArc
50
10
51
24.423497
0
ARC
5
F6
100
AcDbEntity
8
1
62
256
6
ByLayer
370
18
48
1
60
0
100
AcDbCircle
39
0
10
60.28274
20
-58.643287
30
0
40
13.9999999999749
210
0
220
0
230
1
100
AcDbArc
50
62.313545
51
82.262363
0
ELLIPSE
5
F7
100
AcDbEntity
8
1
62
256
6
ByLayer
370
18
48
1
60
0
100
AcDbEllipse
10
67.462249
20
-46.265274
30
0
11
-0.852791562978945
21
-0.830863671980518
31
0
210
0
220
0
230
1
40
0.987534
41
0
42
0.246129573649885
0
ELLIPSE
5
F8
100
AcDbEntity
8
1
62
256
6
ByLayer
370
18
48
1
60
0
100
AcDbEllipse
10
77.4254
20
-40.274757
30
0
11
-0.85279156798631
21
-0.830863664421578
31
0
210
0
220
0
230
1
40
0.987534
41
-3.14159264779847
42
-2.89546307237572
0
ELLIPSE
5
F9
100
AcDbEntity
8
1
62
256
6
ByLayer
370
18
48
1
60
0
100
AcDbEllipse
10
67.462249
20
-46.265274
30
0
11
-0.852791564108969
21
-0.830863670408898
31
0
210
0
220
0
230
1
40
0.987534
41
-0.713801513330205
42
0
0
ELLIPSE
5
FA
100
AcDbEntity
8
1
62
256
6
ByLayer
370
18
48
1
60
0
100
AcDbEllipse
10
66.977557
20
-45.76779
30
0
11
-0.852791564109228
21
-0.830863670406819
31
0
210
0
220
0
230
1
40
0.987534
41
-0.71380151332922
42
0
0
ELLIPSE
5
FB
100
AcDbEntity
8
1
62
256
6
ByLayer
370
18
48
1
60
0
100
AcDbEllipse
10
76.940709
20
-39.777274
30
0
11
-0.852791563715687
21
-0.830863671134688
31
0
210
0
220
0
230
1
40
0.987534
41
3.14159265292174
42
-2.89546307900455
0
ELLIPSE
5
FC
100
AcDbEntity
8
1
62
256
6
ByLayer
370
18
48
1
60
0
100
AcDbEllipse
10
77.4254
20
-40.274757
30
0
11
-0.852791563661811
21
-0.830863670809358
31
0
210
0
220
0
230
1
40
0.987534
41
2.42779113975007
42
3.14159265308416
0
ELLIPSE
5
FD
100
AcDbEntity
8
1
62
256
6
ByLayer
370
18
48
1
60
0
100
AcDbEllipse
10
71.158677
20
-31.846062
30
0
11
-0.272177045136877
21
-0.265178536274246
31
0
210
0
220
0
230
1
40
0.987534
41
0
42
2.43154539075051
0
ELLIPSE
5
FE
100
AcDbEntity
8
1
62
256
6
ByLayer
370
18
48
1
60
0
100
AcDbEllipse
10
71.957548
20
-31.791236
30
0
11
-0.304408537323411
21
-0.296581257675899
31
0
210
0
220
0
230
1
40
0.987534
41
-2.49779160083019
42
-0.710047262841811
0
ELLIPSE
5
FF
100
AcDbEntity
8
1
62
256
6
ByLayer
370
18
48
1
60
0
100
AcDbEllipse
10
72.446337
20
-30.281664
30
0
11
-0.304408537334426
21
-0.296581257665374
31
0
210
0
220
0
230
1
40
0.987534
41
-1.4505940495971
42
0
0
ELLIPSE
5
100
100
AcDbEntity
8
1
62
256
6
ByLayer
370
18
48
1
60
0
100
AcDbEllipse
10
71.826443
20
-29.783737
30
0
11
-0.272177045145054
21
-0.265178536265196
31
0
210
0
220
0
230
1
40
0.987534
41
3.14159265358979
42
-1.75724481400327
0
ELLIPSE
5
101
100
AcDbEntity
8
1
62
256
6
ByLayer
370
18
48
1
60
0
100
AcDbEllipse
10
70.640111
20
-29.413229
30
0
11
-0.272177045135924
21
-0.265178536275232
31
0
210
0
220
0
230
1
40
0.987534
41
3.14159265358979
42
-0.710047262842949
0
ELLIPSE
5
102
100
AcDbEntity
8
1
62
256
6
ByLayer
370
18
48
1
60
0
100
AcDbEllipse
10
69.84124
20
-29.468056
30
0
11
-0.304408537323527
21
-0.296581257675717
31
0
210
0
220
0
230
1
40
0.987534
41
0.64380105275998
42
2.43154539074862
0
ELLIPSE
5
103
100
AcDbEntity
8
1
62
256
6
ByLayer
370
18
48
1
60
0
100
AcDbEllipse
10
69.352451
20
-30.977628
30
0
11
-0.304408537324521
21
-0.296581257674932
31
0
210
0
220
0
230
1
40
0.987534
41
1.69099860395984
42
3.14159265358979
0
ELLIPSE
5
104
100
AcDbEntity
8
1
62
256
6
ByLayer
370
18
48
1
60
0
100
AcDbEllipse
10
69.972345
20
-31.475555
30
0
11
-0.272177045142302
21
-0.265178536268217
31
0
210
0
220
0
230
1
40
0.987534
41
0
42
1.3843478395756
0
ELLIPSE
5
105
100
AcDbEntity
8
1
62
256
6
ByLayer
370
18
48
1
60
0
100
AcDbEllipse
10
70.899394
20
-30.629646
30
0
11
-1.64738737845382
21
-1.60502798271901
31
0
210
0
220
0
230
1
40
0.987534
41
0
42
6.28318530717959
0
ELLIPSE
5
106
100
AcDbEntity
8
1
62
256
6
ByLayer
370
18
48
1
60
0
100
AcDbEllipse
10
70.818763
20
-30.546887
30
0
11
-2.86502152774605
21
-2.79135301342406
31
0
210
0
220
0
230
1
40
0.987534
41
3.14159265358979
42
-0.556721880640742
0
ELLIPSE
5
107
100
AcDbEntity
8
1
62
256
6
ByLayer
370
18
48
1
60
0
100
AcDbEllipse
10
69.713062
20
-30.259138
30
0
11
-0.272177045137019
21
-0.26517853627415
31
0
210
0
220
0
230
1
40
0.987534
41
-2.49779160082712
42
0
0
ELLIPSE
5
108
100
AcDbEntity
8
1
62
256
6
ByLayer
370
18
48
1
60
0
100
AcDbEllipse
10
71.388183
20
-29.120074
30
0
11
-0.304408537323
21
-0.296581257676334
31
0
210
0
220
0
230
1
40
0.987534
41
0
42
1.38434783954994
0
ELLIPSE
5
109
100
AcDbEntity
8
1
62
256
6
ByLayer
370
18
48
1
60
0
100
AcDbEllipse
10
69.972345
20
-31.475555
30
0
11
-0.272177045138933
21
-0.265178536272357
31
0
210
0
220
0
230
1
40
0.987534
41
-1.45059404962356
42
0
0
ELLIPSE
5
10A
100
AcDbEntity
8
1
62
256
6
ByLayer
370
18
48
1
60
0
100
AcDbEllipse
10
69.796593
20
-31.295164
30
0
11
-0.272177045105221
21
-0.265178536308869
31
0
210
0
220
0
230
1
40
0.987534
41
0.363631834186731
42
1.38434783942899
0
ELLIPSE
5
10B
100
AcDbEntity
8
1
62
256
6
ByLayer
370
18
48
1
60
0
100
AcDbEllipse
10
71.826443
20
-29.783737
30
0
11
-0.272177045121565
21
-0.265178536289071
31
0
210
0
220
0
230
1
40
0.987534
41
1.69099860390173
42
3.14159265358979
0
ELLIPSE
5
10C
100
AcDbEntity
8
1
62
256
6
ByLayer
370
18
48
1
60
0
100
AcDbEllipse
10
71.650691
20
-29.603347
30
0
11
-0.27217704512917
21
-0.265178536281747
31
0
210
0
220
0
230
1
40
0.987534
41
1.69099860392998
42
2.77112644423303
0
ELLIPSE
5
10D
100
AcDbEntity
8
1
62
256
6
ByLayer
370
18
48
1
60
0
100
AcDbEllipse
10
70.410605
20
-32.139218
30
0
11
-0.304408537324545
21
-0.296581257674592
31
0
210
0
220
0
230
1
40
0.987534
41
3.14159265358979
42
-1.75724481403426
0
ELLIPSE
5
10E
100
AcDbEntity
8
1
62
256
6
ByLayer
370
18
48
1
60
0
100
AcDbEllipse
10
70.234853
20
-31.958827
30
0
11
-0.30440853733106
21
-0.296581257667413
31
0
210
0
220
0
230
1
40
0.987534
41
3.14159265358979
42
-1.75724481401107
0
ELLIPSE
5
10F
100
AcDbEntity
8
1
62
256
6
ByLayer
370
18
48
1
60
0
100
AcDbEllipse
10
72.270585
20
-30.101273
30
0
11
-0.304408537335846
21
-0.296581257664001
31
0
210
0
220
0
230
1
40
0.987534
41
-1.45059404959241
42
0
0
ELLIPSE
5
110
100
AcDbEntity
8
1
62
256
6
ByLayer
370
18
48
1
60
0
100
AcDbEllipse
10
70.635766
20
-30.35906
30
0
11
-2.86502152779034
21
-2.79135301337137
31
0
210
0
220
0
230
1
40
0.987534
41
3.14159265358979
42
-2.38225371080901
0
ELLIPSE
5
111
100
AcDbEntity
8
1
62
256
6
ByLayer
370
18
48
1
60
0
100
AcDbEllipse
10
70.635766
20
-30.35906
30
0
11
-2.86502152691382
21
-2.79135301433991
31
0
210
0
220
0
230
1
40
0.987534
41
-2.38225371113369
42
-1.91860512396301
0
ELLIPSE
5
112
100
AcDbEntity
8
1
62
256
6
ByLayer
370
18
48
1
60
0
100
AcDbEllipse
10
70.635766
20
-30.35906
30
0
11
-2.86502152774019
21
-2.7913530134298
31
0
210
0
220
0
230
1
40
0.987534
41
-1.91860512365399
42
-0.556721880642778
0
ELLIPSE
5
113
100
AcDbEntity
8
1
62
256
6
ByLayer
370
18
48
1
60
0
100
AcDbEllipse
10
70.818763
20
-30.546887
30
0
11
-2.86502152780519
21
-2.7913530133651
31
0
210
0
220
0
230
1
40
0.987534
41
-0.556721880620053
42
0
0
ELLIPSE
5
114
100
AcDbEntity
8
1
62
256
6
ByLayer
370
18
48
1
60
0
100
AcDbEllipse
10
70.818763
20
-30.546887
30
0
11
-2.86502152774594
21
-2.79135301342419
31
0
210
0
220
0
230
1
40
0.987534
41
0
42
3.14159265358979
0
ELLIPSE
5
115
100
AcDbEntity
8
1
62
256
6
ByLayer
370
18
48
1
60
0
100
AcDbEllipse
10
70.635766
20
-30.35906
30
0
11
-2.86502152778201
21
-2.79135301339636
31
0
210
0
220
0
230
1
40
0.987534
41
-0.556721880629201
42
0
0
ELLIPSE
5
116
100
AcDbEntity
8
1
62
256
6
ByLayer
370
18
48
1
60
0
100
AcDbEllipse
10
70.982924
20
-31.665672
30
0
11
-0.272177045135267
21
-0.265178536275939
31
0
210
0
220
0
230
1
40
0.987534
41
0.32217427305671
42
2.43154539074414
0
ELLIPSE
5
117
100
AcDbEntity
8
1
62
256
6
ByLayer
370
18
48
1
60
0
100
AcDbEllipse
10
72.085726
20
-31.000154
30
0
11
-0.27217704513454
21
-0.265178536276612
31
0
210
0
220
0
230
1
40
0.987534
41
0.643801052753075
42
3.14159265358979
0
ELLIPSE
5
118
100
AcDbEntity
8
1
62
256
6
ByLayer
370
18
48
1
60
0
100
AcDbEllipse
10
71.909974
20
-30.819763
30
0
11
-0.272177045136456
21
-0.265178536274765
31
0
210
0
220
0
230
1
40
0.987534
41
0.643801052760525
42
2.78947867063742
0
ELLIPSE
5
119
100
AcDbEntity
8
1
62
256
6
ByLayer
370
18
48
1
60
0
100
AcDbEllipse
10
71.781796
20
-31.610845
30
0
11
-0.304408537323714
21
-0.296581257675672
31
0
210
0
220
0
230
1
40
0.987534
41
-2.49779160082917
42
-0.710047262841059
0
ELLIPSE
5
11A
100
AcDbEntity
8
1
62
256
6
ByLayer
370
18
48
1
60
0
100
AcDbEllipse
10
70.723642
20
-30.449255
30
0
11
-0.823693689423808
21
-0.802513991193199
31
0
210
0
220
0
230
1
40
0.987534
41
2.58487077317542
42
-3.14159265336951
0
ELLIPSE
5
11B
100
AcDbEntity
8
1
62
256
6
ByLayer
370
18
48
1
60
0
100
AcDbEllipse
10
70.723642
20
-30.449255
30
0
11
-0.823693689226972
21
-0.802513991359436
31
0
210
0
220
0
230
1
40
0.987534
41
0
42
2.58487077294903
0
ELLIPSE
5
11C
100
AcDbEntity
8
1
62
256
6
ByLayer
370
18
48
1
60
0
100
AcDbEllipse
10
70.723642
20
-30.449255
30
0
11
-0.823693689338932
21
-0.802513991236356
31
0
210
0
220
0
230
1
40
0.987534
41
-2.58849171670207
42
-1.91777691842641
0
ELLIPSE
5
11D
100
AcDbEntity
8
1
62
256
6
ByLayer
370
18
48
1
60
0
100
AcDbEllipse
10
70.723642
20
-30.449255
30
0
11
-0.823693689197293
21
-0.80251399138793
31
0
210
0
220
0
230
1
40
0.987534
41
-1.3136334430884
42
-0.634986595891925
0
ELLIPSE
5
11E
100
AcDbEntity
8
1
62
256
6
ByLayer
370
18
48
1
60
0
100
AcDbEllipse
10
70.723642
20
-30.449255
30
0
11
-0.823693699730504
21
-0.802513984200583
31
0
210
0
220
0
230
1
40
0.987534
41
-0.234468268564682
42
1.06965588962042E-08
0
ELLIPSE
5
11F
100
AcDbEntity
8
1
62
256
6
ByLayer
370
18
48
1
60
0
100
AcDbEllipse
10
70.668719
20
-30.392883
30
0
11
-0.823693689226929
21
-0.802513991359487
31
0
210
0
220
0
230
1
40
0.987534
41
0
42
3.14159265358979
0
ELLIPSE
5
120
100
AcDbEntity
8
1
62
256
6
ByLayer
370
18
48
1
60
0
100
AcDbEllipse
10
64.860033
20
-34.319852
30
0
11
-1.69677243371778
21
-1.65314319578432
31
0
210
0
220
0
230
1
40
0.987534
41
-1.68414380176942
42
-1.32466675135536
0
ELLIPSE
5
121
100
AcDbEntity
8
1
62
256
6
ByLayer
370
18
48
1
60
0
100
AcDbEllipse
10
64.702005
20
-34.574596
30
0
11
-1.69677243340983
21
-1.65314319601393
31
0
210
0
220
0
230
1
40
0.987534
41
-1.3246667515111
42
0.0730664966323613
0
ELLIPSE
5
122
100
AcDbEntity
8
1
62
256
6
ByLayer
370
18
48
1
60
0
100
AcDbEllipse
10
64.702005
20
-34.574596
30
0
11
-1.69677243757992
21
-1.65314318982926
31
0
210
0
220
0
230
1
40
0.987534
41
0.0730664997124329
42
0.246129578412616
0
ELLIPSE
5
123
100
AcDbEntity
8
1
62
256
6
ByLayer
370
18
48
1
60
0
100
AcDbEllipse
10
72.210149
20
-42.947163
30
0
11
-1.95179583507078
21
-1.90160933307877
31
0
210
0
220
0
230
1
40
0.987534
41
0.391845615385968
42
0.5332187595285
0
ELLIPSE
5
124
100
AcDbEntity
8
1
62
256
6
ByLayer
370
18
48
1
60
0
100
AcDbEllipse
10
65.17927
20
-25.46691
30
0
11
-1.32477499455514
21
-1.49832280026791
31
0
210
0
220
0
230
1
40
0.754402
41
-2.12034306913128
42
-0.707667574871912
0
ELLIPSE
5
125
100
AcDbEntity
8
1
62
256
6
ByLayer
370
18
48
1
60
0
100
AcDbEllipse
10
72.272809
20
-26.839262
30
0
11
-1.20705201063143
21
5.36591329189918
31
0
210
0
220
0
230
1
40
0.083175
41
-1.15858124743168
42
-0.716813508213991
0
ELLIPSE
5
126
100
AcDbEntity
8
1
62
256
6
ByLayer
370
18
48
1
60
0
100
AcDbEllipse
10
67.217161
20
-27.976521
30
0
11
-1.20705201049603
21
5.36591329106662
31
0
210
0
220
0
230
1
40
0.083175
41
-1.15858124751523
42
-0.716813508247888
0
ELLIPSE
5
127
100
AcDbEntity
8
1
62
256
6
ByLayer
370
18
48
1
60
0
100
AcDbEllipse
10
73.358778
20
-23.626946
30
0
11
-1.95001644839161
21
0.444337541742619
31
0
210
0
220
0
230
1
40
0.807679
41
-2.66386309697101
42
-1.25118760271134
0
ELLIPSE
5
128
100
AcDbEntity
8
1
62
256
6
ByLayer
370
18
48
1
60
0
100
AcDbEllipse
10
74.884977
20
-23.547344
30
0
11
-2.25775944621398
21
-1.97548026599565
31
0
210
0
220
0
230
1
40
0.985051
41
-0.503892938290247
42
-0.187884649070279
0
ELLIPSE
5
129
100
AcDbEntity
8
1
62
256
6
ByLayer
370
18
48
1
60
0
100
AcDbEllipse
10
70.35021
20
-29.071512
30
0
11
-3.12323389900296
21
-2.73274770281272
31
0
210
0
220
0
230
1
40
0.985051
41
2.63769971476712
42
2.89487464342929
0
ELLIPSE
5
12A
100
AcDbEntity
8
1
62
256
6
ByLayer
370
18
48
1
60
0
100
AcDbEllipse
10
70.769745
20
-31.054151
30
0
11
-3.1232339039366
21
-2.73274769806888
31
0
210
0
220
0
230
1
40
0.985051
41
-0.0482532748008036
42
2.6376997164217
0
ELLIPSE
5
12B
100
AcDbEntity
8
1
62
256
6
ByLayer
370
18
48
1
60
0
100
AcDbEllipse
10
78.19651
20
-42.40206
30
0
11
-0.853060159327686
21
-0.831125360258411
31
0
210
0
220
0
230
1
40
0.987534
41
2.42779113962921
42
2.90775668393732
0
ELLIPSE
5
12C
100
AcDbEntity
8
1
62
256
6
ByLayer
370
18
48
1
60
0
100
AcDbEllipse
10
79.21078
20
-54.210851
30
0
11
-0.568706773256463
21
-0.554083573165862
31
0
210
0
220
0
230
1
40
0.987534
41
0.246129575274577
42
2.42779114026745
0
ELLIPSE
5
12D
100
AcDbEntity
8
1
62
256
6
ByLayer
370
18
48
1
60
0
100
AcDbEllipse
10
69.359729
20
-47.715326
30
0
11
-0.853060158126967
21
-0.831125362447443
31
0
210
0
220
0
230
1
40
0.987534
41
0
42
0.246129572590026
0
ELLIPSE
5
12E
100
AcDbEntity
8
1
62
256
6
ByLayer
370
18
48
1
60
0
100
AcDbEllipse
10
68.086171
20
-45.569821
30
0
11
-0.853060161085455
21
-0.831125358638143
31
0
210
0
220
0
230
1
40
0.987534
41
-0.713801511941916
42
-0.233835967662892
0
ELLIPSE
5
12F
100
AcDbEntity
8
1
62
256
6
ByLayer
370
18
48
1
60
0
100
AcDbEllipse
10
76.922952
20
-40.256554
30
0
11
-0.853060160222661
21
-0.83112535931161
31
0
210
0
220
0
230
1
40
0.987534
41
-3.14159265313656
42
-2.89546307785343
0
ELLIPSE
5
130
100
AcDbEntity
8
1
62
256
6
ByLayer
370
18
48
1
60
0
100
AcDbEllipse
10
73.141341
20
-43.98594
30
0
11
-1.84793888653581
21
-1.80042269282139
31
0
210
0
220
0
230
1
40
0.987534
41
-0.330412878013474
42
5.33933809589135E-10
0
ELLIPSE
5
131
100
AcDbEntity
8
1
62
256
6
ByLayer
370
18
48
1
60
0
100
AcDbEllipse
10
72.443824
20
-43.270015
30
0
11
-1.84793888565849
21
-1.80042269333997
31
0
210
0
220
0
230
1
40
0.987534
41
0.196890158104734
42
0.478584110923646
0
ELLIPSE
5
132
100
AcDbEntity
8
1
62
256
6
ByLayer
370
18
48
1
60
0
100
AcDbEllipse
10
73.141341
20
-43.98594
30
0
11
-1.84793888539507
21
-1.80042269365972
31
0
210
0
220
0
230
1
40
0.987534
41
0
42
2.33835153957988
0
ELLIPSE
5
133
100
AcDbEntity
8
1
62
256
6
ByLayer
370
18
48
1
60
0
100
AcDbEllipse
10
76.922952
20
-40.256554
30
0
11
-0.853060155973581
21
-0.831125362354295
31
0
210
0
220
0
230
1
40
0.987534
41
2.90775668065853
42
3.14159264977772
0
ELLIPSE
5
134
100
AcDbEntity
8
1
62
256
6
ByLayer
370
18
48
1
60
0
100
AcDbEllipse
10
69.359729
20
-47.715326
30
0
11
-0.853060155569389
21
-0.831125362458989
31
0
210
0
220
0
230
1
40
0.987534
41
-0.233835973248662
42
-4.10826348958832E-09
0
ELLIPSE
5
135
100
AcDbEntity
8
1
62
256
6
ByLayer
370
18
48
1
60
0
100
AcDbEllipse
10
68.662213
20
-46.999402
30
0
11
-0.85306015837683
21
-0.831125360577411
31
0
210
0
220
0
230
1
40
0.987534
41
-0.233835970437942
42
-1.36665628633432E-09
0
ELLIPSE
5
136
100
AcDbEntity
8
1
62
256
6
ByLayer
370
18
48
1
60
0
100
AcDbEllipse
10
30.763884
20
0
30
0
11
-18.7348357595626
21
-39.4834983054986
31
0
210
0
220
0
230
1
40
0.341999
41
-1.10173856858672
42
-0.147307203811556
0
ELLIPSE
5
137
100
AcDbEntity
8
1
62
256
6
ByLayer
370
18
48
1
60
0
100
AcDbEllipse
10
-6.763884
20
0
30
0
11
-18.7348357595632
21
39.4834983054994
31
0
210
0
220
0
230
1
40
0.341999
41
-2.99428544977823
42
-2.03985408500309
0
ELLIPSE
5
138
100
AcDbEntity
8
1
62
256
6
ByLayer
370
18
48
1
60
0
100
AcDbEllipse
10
-6.763884
20
0
30
0
11
-18.7348357595619
21
-39.4834983054977
31
0
210
0
220
0
230
1
40
0.341999
41
2.03985408500305
42
2.99428544977822
0
ELLIPSE
5
139
100
AcDbEntity
8
1
62
256
6
ByLayer
370
18
48
1
60
0
100
AcDbEllipse
10
30.763884
20
0
30
0
11
-18.7348357595624
21
39.4834983054985
31
0
210
0
220
0
230
1
40
0.341999
41
0.147307203811565
42
1.10173856858673
0
ELLIPSE
5
13A
100
AcDbEntity
8
1
62
256
6
ByLayer
370
18
48
1
60
0
100
AcDbEllipse
10
21.499547
20
0
30
0
11
2.44921270764475E-15
21
39.9999999999999
31
0
210
0
220
0
230
1
40
0.087489
41
0.29556921144614
42
2.84602344214366
0
ELLIPSE
5
13B
100
AcDbEntity
8
1
62
256
6
ByLayer
370
18
48
1
60
0
100
AcDbEllipse
10
28.784419
20
-2E-05
30
0
11
-0.507542387492003
21
39.999941454145
31
0
210
0
220
0
230
1
40
0.109783
41
-2.95447695602831
42
-2.94162767435871
0
ELLIPSE
5
13C
100
AcDbEntity
8
1
62
256
6
ByLayer
370
18
48
1
60
0
100
AcDbEllipse
10
138.174258
20
0.130822
30
0
11
-362.600212442072
21
-4.63900768839759
31
0
210
0
220
0
230
1
40
0.109933
41
1.26673737273212
42
1.26910790676231
0
ELLIPSE
5
13D
100
AcDbEntity
8
1
62
256
6
ByLayer
370
18
48
1
60
0
100
AcDbEllipse
10
19.049864
20
-3.403072
30
0
11
-0.0171243566343958
21
6.92025142337919
31
0
210
0
220
0
230
1
40
0.082138
41
1.54067911374422
42
3.11147544053894
0
ELLIPSE
5
13E
100
AcDbEntity
8
1
62
256
6
ByLayer
370
18
48
1
60
0
100
AcDbEllipse
10
19.049864
20
-3.403072
30
0
11
-0.0171243566344673
21
6.92025142337765
31
0
210
0
220
0
230
1
40
0.082138
41
3.11147544053895
42
-1.99570465954543
0
ELLIPSE
5
13F
100
AcDbEntity
8
1
62
256
6
ByLayer
370
18
48
1
60
0
100
AcDbEllipse
10
59.419692
20
-22.570291
30
0
11
-1.10563046683643
21
5.49637707606328
31
0
210
0
220
0
230
1
40
0.710897
41
2.46808781437533
42
-3.12541268684079
0
ELLIPSE
5
140
100
AcDbEntity
8
1
62
256
6
ByLayer
370
18
48
1
60
0
100
AcDbEllipse
10
60.282657
20
-58.643443
30
0
11
-6.57625687919824
21
-12.3595225064995
31
0
210
0
220
0
230
1
40
0.999994
41
3.13823847783471
42
-3.13583131048337
0
ELLIPSE
5
141
100
AcDbEntity
8
1
62
256
6
ByLayer
370
18
48
1
60
0
100
AcDbEllipse
10
74.407498
20
-26.359069
30
0
11
-1.03051190084923
21
5.40555423705689
31
0
210
0
220
0
230
1
40
0.153994
41
0.548524071752102
42
0.601516371423073
0
ELLIPSE
5
142
100
AcDbEntity
8
1
62
256
6
ByLayer
370
18
48
1
60
0
100
AcDbEllipse
10
65.082473
20
-28.456714
30
0
11
-1.39900139203671
21
5.32236383009834
31
0
210
0
220
0
230
1
40
0.320139
41
-0.607907427818019
42
-0.554915118529534
0
ELLIPSE
5
143
100
AcDbEntity
8
1
62
256
6
ByLayer
370
18
48
1
60
0
100
AcDbEllipse
10
63.341011
20
-28.945579
30
0
11
-0.985138713419519
21
3.3643526098123
31
0
210
0
220
0
230
1
40
0.454664
41
-0.625392807788753
42
0.0978252986104038
0
ELLIPSE
5
144
100
AcDbEntity
8
1
62
256
6
ByLayer
370
18
48
1
60
0
100
AcDbEllipse
10
66.166459
20
-27.781105
30
0
11
-3.82847615126663
21
2.40333798685402
31
0
210
0
220
0
230
1
40
0.535969
41
0.120157045491232
42
0.479772778844415
0
ELLIPSE
5
145
100
AcDbEntity
8
1
62
256
6
ByLayer
370
18
48
1
60
0
100
AcDbEllipse
10
64.592849
20
-25.083941
30
0
11
-1.40123612184206
21
-2.66344707803661
31
0
210
0
220
0
230
1
40
0.988643
41
-2.44165272996147
42
-1.38996366689759
0
ELLIPSE
5
146
100
AcDbEntity
8
1
62
256
6
ByLayer
370
18
48
1
60
0
100
AcDbEllipse
10
76.304194
20
-26.029536
30
0
11
-0.579964293027867
21
3.45654390323385
31
0
210
0
220
0
230
1
40
0.288972
41
-0.110851984962193
42
0.612366121436005
0
ELLIPSE
5
147
100
AcDbEntity
8
1
62
256
6
ByLayer
370
18
48
1
60
0
100
AcDbEllipse
10
72.759666
20
-23.246831
30
0
11
-1.40123612187809
21
-2.66344707801495
31
0
210
0
220
0
230
1
40
0.988643
41
2.78984351416746
42
-2.44165272994762
0
ELLIPSE
5
148
100
AcDbEntity
8
1
62
256
6
ByLayer
370
18
48
1
60
0
100
AcDbEllipse
10
74.333275
20
-25.943995
30
0
11
-0.90759468916482
21
-3.82773442519319
31
0
210
0
220
0
230
1
40
0.449589
41
2.3828623559482
42
2.70049685000939
0
ELLIPSE
5
149
100
AcDbEntity
8
1
62
256
6
ByLayer
370
18
48
1
60
0
100
AcDbEllipse
10
73.489973
20
-44.427066
30
0
11
-2.36066737615758
21
-0.24491913845033
31
0
210
0
220
0
230
1
40
0.796311
41
0.720748494819491
42
1.57595982829488
0
ELLIPSE
5
14A
100
AcDbEntity
8
1
62
256
6
ByLayer
370
18
48
1
60
0
100
AcDbEllipse
10
73.489973
20
-44.427066
30
0
11
-1.43101267968518
21
-1.67589864628284
31
0
210
0
220
0
230
1
40
0.772193
41
0.943199427540755
42
1.79841076101837
0
POINT
5
6C
100
AcDbEntity
8
81
62
256
6
ByLayer
370
18
48
1
60
0
100
AcDbPoint
10
80
20
-55
30
0
39
0
210
0
220
0
230
1
50
360
0
POINT
5
6E
100
AcDbEntity
8
80
62
256
6
ByLayer
370
18
48
1
60
0
100
AcDbPoint
10
0
20
0
30
0
39
0
210
0
220
0
230
1
50
360
0
SPLINE
5
14B
100
AcDbEntity
8
1
62
256
6
ByLayer
370
18
48
1
60
0
100
AcDbSpline
70
4
71
3
72
17
73
13
40
0
40
0
40
0
40
0
40
0.0899719348247469
40
0.199634126083751
40
0.30929984659848
40
0.419256460714728
40
0.529221987597211
40
0.640456875649049
40
0.751707375100364
40
0.86565297837678
40
0.979618403499762
40
1
40
1
40
1
40
1
41
1
10
24.4649619288993
20
39.1918358845308
30
0
41
1
10
24.2829506325388
20
39.1918545925985
30
0
41
1
10
23.8838405583745
20
39.1863053814419
30
0
41
1
10
23.2746133319548
20
39.1584487934414
30
0
41
1
10
22.6604050250807
20
39.1063968537091
30
0
41
1
10
22.0972472956625
20
39.0308672053969
30
0
41
1
10
21.5967265901948
20
38.9320561071816
30
0
41
1
10
21.176121763232
20
38.8090515743854
30
0
41
1
10
20.8406672579247
20
38.6623726967059
30
0
41
1
10
20.6055449409329
20
38.4926985917623
30
0
41
1
10
20.5098487094638
20
38.3551169900374
30
0
41
1
10
20.4835912912479
20
38.2773449665982
30
0
41
1
10
20.4801831365321
20
38.2654597950658
30
0
0
SPLINE
5
14C
100
AcDbEntity
8
1
62
256
6
ByLayer
370
18
48
1
60
0
100
AcDbSpline
70
4
71
3
72
16
73
12
40
0
40
0
40
0
40
0
40
0.10869883463538
40
0.230223044422313
40
0.351721935858128
40
0.46831581180849
40
0.584894424399768
40
0.69754383876041
40
0.810186806582705
40
0.905093845908256
40
1
40
1
40
1
40
1
41
1
10
20.4801831365323
20
-38.2654597950667
30
0
41
1
10
20.4984537409822
20
-38.329267346352
30
0
41
1
10
20.5714466053503
20
-38.4584961833569
30
0
41
1
10
20.7965729821105
20
-38.6382500545724
30
0
41
1
10
21.1411289742266
20
-38.7983877361253
30
0
41
1
10
21.5877731550312
20
-38.9301754632545
30
0
41
1
10
22.1096150401528
20
-39.0337124925265
30
0
41
1
10
22.6981988451821
20
-39.1103990732611
30
0
41
1
10
23.2978970990817
20
-39.1596586332211
30
0
41
1
10
23.8935889034538
20
-39.1862202178381
30
0
41
1
10
24.2729585809709
20
-39.1918295754598
30
0
41
1
10
24.4649619289023
20
-39.1918358845308
30
0
0
SPLINE
5
14D
100
AcDbEntity
8
1
62
256
6
ByLayer
370
18
48
1
60
0
100
AcDbSpline
70
4
71
3
72
19
73
15
40
0
40
0
40
0
40
0
40
0.10168037622614
40
0.203501214492351
40
0.306378583706847
40
0.413092332612461
40
0.530277269578974
40
0.651747916286439
40
0.727449293781106
40
0.783632059232453
40
0.834256114998236
40
0.888907073138268
40
0.944171114471952
40
1
40
1
40
1
40
1
41
1
10
56.4618815251914
20
-22.8047068141951
30
0
41
1
10
56.5343540826915
20
-22.6552741167076
30
0
41
1
10
56.6959743496452
20
-22.3624805429813
30
0
41
1
10
56.9913157775071
20
-21.9391386599847
30
0
41
1
10
57.3383354529554
20
-21.53114128106
30
0
41
1
10
57.7547012076986
20
-21.1323041698011
30
0
41
1
10
58.2644801433502
20
-20.7635769983973
30
0
41
1
10
58.7646167692695
20
-20.4659171877676
30
0
41
1
10
59.1774729332492
20
-20.2370903260947
30
0
41
1
10
59.4917986974796
20
-20.0941999243289
30
0
41
1
10
59.7815715907711
20
-19.9882528492853
30
0
41
1
10
60.0715067755811
20
-19.886673218221
30
0
41
1
10
60.377893168414
20
-19.7969411392841
30
0
41
1
10
60.5860697059646
20
-19.7452475564878
30
0
41
1
10
60.691562782767
20
-19.7215551753251
30
0
0
SPLINE
5
14E
100
AcDbEntity
8
1
62
256
6
ByLayer
370
18
48
1
60
0
100
AcDbSpline
70
4
71
3
72
15
73
11
40
0
40
0
40
0
40
0
40
0.121432781348814
40
0.242857256103277
40
0.366312450963497
40
0.489949956517659
40
0.613040985309869
40
0.754325318927727
40
0.895551796214479
40
1
40
1
40
1
40
1
41
1
10
61.4581916508375
20
-17.9255840101672
30
0
41
1
10
61.1678912155832
20
-17.9915357556313
30
0
41
1
10
60.605759860056
20
-18.1668192965855
30
0
41
1
10
59.8116679616349
20
-18.5823304649856
30
0
41
1
10
59.0730246067447
20
-19.0920155809142
30
0
41
1
10
58.3719757769758
20
-19.6604271806649
30
0
41
1
10
57.7128232733314
20
-20.3411159478087
30
0
41
1
10
57.1359603649092
20
-21.1463661958148
30
0
41
1
10
56.7076946137743
20
-21.9906659208851
30
0
41
1
10
56.5249145566149
20
-22.5574431607613
30
0
41
1
10
56.4618815250049
20
-22.8047068139386
30
0
0
SPLINE
5
14F
100
AcDbEntity
8
1
62
256
6
ByLayer
370
18
48
1
60
0
100
AcDbSpline
70
4
71
3
72
11
73
7
40
0
40
0
40
0
40
0
40
0.275610306987195
40
0.55122061397439
40
0.776274487772649
40
1
40
1
40
1
40
1
41
1
10
60.6915627827642
20
-19.7215551753257
30
0
41
1
10
60.6734177873207
20
-19.5609279992432
30
0
41
1
10
60.6866469844131
20
-19.2356682943419
30
0
41
1
10
60.8490579271667
20
-18.7580512921352
30
0
41
1
10
61.1115282035179
20
-18.3168280727375
30
0
41
1
10
61.3327867955182
20
-18.0544021928551
30
0
41
1
10
61.4579089638996
20
-17.9255918419057
30
0
0
SPLINE
5
150
100
AcDbEntity
8
1
62
256
6
ByLayer
370
18
48
1
60
0
100
AcDbSpline
70
4
71
3
72
15
73
11
40
0
40
0
40
0
40
0
40
0.125000000000002
40
0.250000000000003
40
0.375000000000002
40
0.500000000000002
40
0.625000000000001
40
0.750000000000002
40
0.874999999999989
40
1
40
1
40
1
40
1
41
1
10
64.8747107517868
20
-21.4510166776881
30
0
41
1
10
64.6168566666826
20
-21.5090204647344
30
0
41
1
10
64.1089103032681
20
-21.5921608019393
30
0
41
1
10
63.357498747028
20
-21.6175938740019
30
0
41
1
10
62.6549274741687
20
-21.545776681563
30
0
41
1
10
62.028606765319
20
-21.3746753148352
30
0
41
1
10
61.4985252305902
20
-21.1157972878291
30
0
41
1
10
61.0910197455913
20
-20.7748600654502
30
0
41
1
10
60.8144557944574
20
-20.3671998852275
30
0
41
1
10
60.7302325149472
20
-20.0638760042175
30
0
41
1
10
60.7120875195039
20
-19.9032488281349
30
0
0
SPLINE
5
151
100
AcDbEntity
8
1
62
256
6
ByLayer
370
18
48
1
60
0
100
AcDbSpline
70
4
71
3
72
20
73
16
40
0
40
0
40
0
40
0
40
0.0954611577633985
40
0.190423686204095
40
0.2868910441645
40
0.385280336869945
40
0.485040453304318
40
0.585933952660486
40
0.641874070977273
40
0.702538367679673
40
0.766889033697339
40
0.820618933546103
40
0.860513065827665
40
0.928089036650723
40
1
40
1
40
1
40
1
41
1
10
60.3838318149614
20
-27.3537762633776
30
0
41
1
10
60.3163216261873
20
-27.1225560588175
30
0
41
1
10
60.2262295665035
20
-26.6575483780274
30
0
41
1
10
60.2256869342785
20
-25.9383147803654
30
0
41
1
10
60.3586898184609
20
-25.2151071972359
30
0
41
1
10
60.6367965107638
20
-24.4994251802407
30
0
41
1
10
61.0527762988109
20
-23.810976636057
30
0
41
1
10
61.5106272321212
20
-23.2624724432177
30
0
41
1
10
61.9698055254189
20
-22.8412886856821
30
0
41
1
10
62.399417384454
20
-22.5274327504378
30
0
41
1
10
62.8557007435018
20
-22.2497725854599
30
0
41
1
10
63.2680859488965
20
-22.0145617993378
30
0
41
1
10
63.7109471233821
20
-21.801914954255
30
0
41
1
10
64.236425175128
20
-21.61732332378
30
0
41
1
10
64.6545724754875
20
-21.5013290722499
30
0
41
1
10
64.8747107517913
20
-21.451016677687
30
0
0
SPLINE
5
152
100
AcDbEntity
8
1
62
256
6
ByLayer
370
18
48
1
60
0
100
AcDbSpline
70
4
71
3
72
11
73
7
40
0
40
0
40
0
40
0
40
0.284610256884899
40
0.569220513769796
40
0.784610256884897
40
1
40
1
40
1
40
1
41
1
10
60.3838318149614
20
-27.3537762633776
30
0
41
1
10
60.1260392516811
20
-27.4114604916133
30
0
41
1
10
59.6182232678604
20
-27.4941059526178
30
0
41
1
10
58.9273595045372
20
-27.518642599463
30
0
41
1
10
58.3343190696578
20
-27.4674371959186
30
0
41
1
10
58.0051183717458
20
-27.3998356728169
30
0
41
1
10
57.8467629828549
20
-27.3567259947604
30
0
0
SPLINE
5
153
100
AcDbEntity
8
1
62
256
6
ByLayer
370
18
48
1
60
0
100
AcDbSpline
70
4
71
3
72
14
73
10
40
0
40
0
40
0
40
0
40
0.16035888152785
40
0.320619868274577
40
0.485251609246997
40
0.64981645742718
40
0.797514182329757
40
0.945225906727476
40
1
40
1
40
1
40
1
41
1
10
56.3616184296822
20
-23.2581987033788
30
0
41
1
10
56.3133008536602
20
-23.5029926597011
30
0
41
1
10
56.2576315509802
20
-23.9921143761428
30
0
41
1
10
56.2919067906565
20
-24.74158799913
30
0
41
1
10
56.4640230341243
20
-25.4758097336428
30
0
41
1
10
56.7604336605817
20
-26.1476129625779
30
0
41
1
10
57.1622892006008
20
-26.7282715698326
30
0
41
1
10
57.5387254522004
20
-27.1127522442878
30
0
41
1
10
57.7797219104118
20
-27.3062934126014
30
0
41
1
10
57.8467629828578
20
-27.3567259947621
30
0
0
SPLINE
5
154
100
AcDbEntity
8
1
62
256
6
ByLayer
370
18
48
1
60
0
100
AcDbSpline
70
4
71
3
72
19
73
15
40
0
40
0
40
0
40
0
40
0.10088700140522
40
0.202080416002899
40
0.303906078440375
40
0.407768028891369
40
0.520454629041144
40
0.643364751012667
40
0.724872140611939
40
0.785683642708362
40
0.83537220520664
40
0.889450173459104
40
0.944432922025571
40
1
40
1
40
1
40
1
41
1
10
56.3616184293001
20
-23.2581987038288
30
0
41
1
10
56.4266106945049
20
-23.0979987837495
30
0
41
1
10
56.5758547254252
20
-22.7833795237394
30
0
41
1
10
56.8586757403077
20
-22.3266170390523
30
0
41
1
10
57.2005870081537
20
-21.8895788034579
30
0
41
1
10
57.6044024616362
20
-21.4610204266612
30
0
41
1
10
58.1142070597164
20
-21.0572154089681
30
0
41
1
10
58.6427228001826
20
-20.7302657885754
30
0
41
1
10
59.0975440714894
20
-20.4720861064339
30
0
41
1
10
59.4418082052314
20
-20.3026829921089
30
0
41
1
10
59.7550416448935
20
-20.1872402746392
30
0
41
1
10
60.0583774764071
20
-20.0789238115192
30
0
41
1
10
60.3808942740086
20
-19.9831198506178
30
0
41
1
10
60.6006428631629
20
-19.9282727765295
30
0
41
1
10
60.7120875195071
20
-19.9032488281363
30
0
0
SPLINE
5
155
100
AcDbEntity
8
1
62
256
6
ByLayer
370
18
48
1
60
0
100
AcDbSpline
70
4
71
1
72
4
73
2
40
0
40
0
40
1
40
1
41
1
10
31.2441995956877
20
-40.5690547015518
30
0
41
1
10
30.9207923799998
20
-39.3090797021365
30
0
0
SPLINE
5
156
100
AcDbEntity
8
1
62
256
6
ByLayer
370
18
48
1
60
0
100
AcDbSpline
70
4
71
3
72
10
73
6
40
0
40
0
40
0
40
0
40
0.319932238903551
40
0.659954236309925
40
1
40
1
40
1
40
1
41
1
10
56.4618815253492
20
-22.8047068140353
30
0
41
1
10
56.4559137407315
20
-22.8288941049384
30
0
41
1
10
56.4437997536896
20
-22.8788315738456
30
0
41
1
10
56.4260573769586
20
-22.9546406601716
30
0
41
1
10
56.4144216829304
20
-23.0062881092398
30
0
41
1
10
56.4087111843948
20
-23.0321363282409
30
0
0
SPLINE
5
157
100
AcDbEntity
8
1
62
256
6
ByLayer
370
18
48
1
60
0
100
AcDbSpline
70
4
71
3
72
10
73
6
40
0
40
0
40
0
40
0
40
0.323508598477517
40
0.66174297724655
40
1
40
1
40
1
40
1
41
1
10
56.4087111853061
20
-23.0321363283223
30
0
41
1
10
56.4033384896309
20
-23.0564555721253
30
0
41
1
10
56.3925433515691
20
-23.1062397755243
30
0
41
1
10
56.3768324421617
20
-23.1815945565242
30
0
41
1
10
56.3666204771509
20
-23.2326499693734
30
0
41
1
10
56.3616184288393
20
-23.2581987033351
30
0
0
SPLINE
5
158
100
AcDbEntity
8
1
62
256
6
ByLayer
370
18
48
1
60
0
100
AcDbSpline
70
4
71
1
72
4
73
2
40
0
40
0
40
1
40
1
41
1
10
31.0011771377293
20
39.4979746316187
30
0
41
1
10
30.92079238
20
39.1918358845306
30
0
0
SPLINE
5
159
100
AcDbEntity
8
1
62
256
6
ByLayer
370
18
48
1
60
0
100
AcDbSpline
70
4
71
3
72
14
73
10
40
0
40
0
40
0
40
0
40
0.141111243817793
40
0.318282152585297
40
0.495453061352801
40
0.672623970120306
40
0.782040667618692
40
0.890583302501611
40
1
40
1
40
1
40
1
41
1
10
74.0989765982614
20
-17.9017491266685
30
0
41
1
10
74.0263363168006
20
-18.0423394276487
30
0
41
1
10
73.829459097678
20
-18.3524420230163
30
0
41
1
10
73.3976480721107
20
-18.8183164108691
30
0
41
1
10
72.8159618359352
20
-19.27210222985
30
0
41
1
10
72.2186680300983
20
-19.6104748207385
30
0
41
1
10
71.670215846784
20
-19.8510711436119
30
0
41
1
10
71.1950644552814
20
-20.0165285485314
30
0
41
1
10
70.872370239803
20
-20.1019588063675
30
0
41
1
10
70.7081508654097
20
-20.1387953957885
30
0
0
SPLINE
5
15A
100
AcDbEntity
8
1
62
256
6
ByLayer
370
18
48
1
60
0
100
AcDbSpline
70
4
71
1
72
4
73
2
40
0
40
0
40
1
40
1
41
1
10
60.7120875195041
20
-19.903248828137
30
0
41
1
10
60.7018251511341
20
-19.8124020017312
30
0
0
SPLINE
5
15B
100
AcDbEntity
8
1
62
256
6
ByLayer
370
18
48
1
60
0
100
AcDbSpline
70
4
71
1
72
4
73
2
40
0
40
0
40
1
40
1
41
1
10
60.7018251511342
20
-19.8124020017314
30
0
41
1
10
60.6915627827642
20
-19.7215551753255
30
0
0
SPLINE
5
15C
100
AcDbEntity
8
1
62
256
6
ByLayer
370
18
48
1
60
0
100
AcDbSpline
70
4
71
3
72
19
73
15
40
0
40
0
40
0
40
0
40
0.101356956350742
40
0.202814075972079
40
0.305120752955958
40
0.410205271919283
40
0.525075767146282
40
0.647716170767661
40
0.726330217401113
40
0.784812410728516
40
0.834831443734988
40
0.889198229477127
40
0.944311756542999
40
1
40
1
40
1
40
1
41
1
10
56.4087111848972
20
-23.0321363287694
30
0
41
1
10
56.4776603413778
20
-22.8771088102085
30
0
41
1
10
56.633463168475
20
-22.5732066800916
30
0
41
1
10
56.9229359444561
20
-22.1329313719939
30
0
41
1
10
57.2677368509587
20
-21.7107660562146
30
0
41
1
10
57.6770970078552
20
-21.2965809799147
30
0
41
1
10
58.1881954018704
20
-20.9102431508087
30
0
41
1
10
58.7036221393697
20
-20.5979347480146
30
0
41
1
10
59.1379890093528
20
-20.3540531041106
30
0
41
1
10
59.4669272247733
20
-20.1980641091123
30
0
41
1
10
59.7683272177869
20
-20.0877980299935
30
0
41
1
10
60.0647773998839
20
-19.9827995732621
30
0
41
1
10
60.37933878766
20
-19.8900489358389
30
0
41
1
10
60.5933371499301
20
-19.8367645318222
30
0
41
1
10
60.7018251511371
20
-19.8124020017307
30
0
0
SPLINE
5
15D
100
AcDbEntity
8
1
62
256
6
ByLayer
370
18
48
1
60
0
100
AcDbSpline
70
4
71
3
72
18
73
14
40
0
40
0
40
0
40
0
40
0.120823006705446
40
0.242209359410575
40
0.364948698107383
40
0.494971787662632
40
0.640968937603579
40
0.723962944038959
40
0.785971646032146
40
0.835609557788111
40
0.889547112025005
40
0.944478933001423
40
1
40
1
40
1
40
1
41
1
10
76.4241968422655
20
-21.2918750718859
30
0
41
1
10
76.2505241303448
20
-21.1522647059555
30
0
41
1
10
75.8831873779308
20
-20.8922883338008
30
0
41
1
10
75.2662212405113
20
-20.5600007008552
30
0
41
1
10
74.5852627870397
20
-20.2827993974632
30
0
41
1
10
73.8056127371806
20
-20.0759440591318
30
0
41
1
10
73.0673579944254
20
-19.9967134640452
30
0
41
1
10
72.4665194678405
20
-19.9572899406714
30
0
41
1
10
72.0608171680916
20
-19.9514697665224
30
0
41
1
10
71.7159014325649
20
-19.9824564000917
30
0
41
1
10
71.3864146086784
20
-20.0156556642176
30
0
41
1
10
71.0467764772154
20
-20.0681228612834
30
0
41
1
10
70.8210678355294
20
-20.1133476958791
30
0
41
1
10
70.7081508654089
20
-20.1387953957887
30
0
0
SPLINE
5
15E
100
AcDbEntity
8
1
62
256
6
ByLayer
370
18
48
1
60
0
100
AcDbSpline
70
4
71
1
72
4
73
2
40
0
40
0
40
1
40
1
41
1
10
76.424196846509
20
-21.2918750786424
30
0
41
1
10
76.4133524203293
20
-21.0849511747483
30
0
0
SPLINE
5
15F
100
AcDbEntity
8
1
62
256
6
ByLayer
370
18
48
1
60
0
100
AcDbSpline
70
4
71
3
72
13
73
9
40
0
40
0
40
0
40
0
40
0.185540104433749
40
0.376970109381427
40
0.562319173928965
40
0.751995371395344
40
0.875492911618996
40
1
40
1
40
1
40
1
41
1
10
63.4378083492868
20
-25.9557743018846
30
0
41
1
10
63.5836514424755
20
-26.0415910687016
30
0
41
1
10
63.9150340955104
20
-26.2236007752809
30
0
41
1
10
64.5276688635402
20
-26.5221914022563
30
0
41
1
10
65.227942173925
20
-26.8385967111508
30
0
41
1
10
65.899861696881
20
-27.1255293223996
30
0
41
1
10
66.5170776560757
20
-27.3794983674621
30
0
41
1
10
66.874960627926
20
-27.5231593030626
30
0
41
1
10
67.0570278113872
20
-27.5953179647512
30
0
0
SPLINE
5
160
100
AcDbEntity
8
1
62
256
6
ByLayer
370
18
48
1
60
0
100
AcDbSpline
70
4
71
3
72
13
73
9
40
0
40
0
40
0
40
0
40
0.260822121799802
40
0.395252665390484
40
0.529665972265148
40
0.740111661383765
40
0.95623349774607
40
1
40
1
40
1
40
1
41
1
10
67.2561341219352
20
-26.4636111232005
30
0
41
1
10
67.0124288183241
20
-26.1994003695609
30
0
41
1
10
66.65516102535
20
-25.8097578395671
30
0
41
1
10
66.1979596470473
20
-25.3067851971805
30
0
41
1
10
65.8045468197424
20
-24.8698687354699
30
0
41
1
10
65.380551019705
20
-24.3913115102445
30
0
41
1
10
65.0762452425022
20
-24.0363152154355
30
0
41
1
10
64.931148345928
20
-23.8610632991188
30
0
41
1
10
64.907292062276
20
-23.8320741015633
30
0
0
SPLINE
5
161
100
AcDbEntity
8
1
62
256
6
ByLayer
370
18
48
1
60
0
100
AcDbSpline
70
4
71
3
72
11
73
7
40
0
40
0
40
0
40
0
40
0.228974136894832
40
0.466571673620237
40
0.928121431217293
40
1
40
1
40
1
40
1
41
1
10
67.0570278113823
20
-27.5953179647588
30
0
41
1
10
67.0931727409772
20
-27.5155383729669
30
0
41
1
10
67.1568419592357
20
-27.3487108789456
30
0
41
1
10
67.2434635476831
20
-26.9941058296172
30
0
41
1
10
67.264007818427
20
-26.6913625033255
30
0
41
1
10
67.2574487455118
20
-26.49061331167
30
0
41
1
10
67.2561341219351
20
-26.4636111231999
30
0
0
SPLINE
5
162
100
AcDbEntity
8
1
62
256
6
ByLayer
370
18
48
1
60
0
100
AcDbSpline
70
4
71
1
72
4
73
2
40
0
40
0
40
1
40
1
41
1
10
66.9567286653469
20
-27.7920023423451
30
0
41
1
10
67.0570278113824
20
-27.5953179647587
30
0
0
SPLINE
5
163
100
AcDbEntity
8
1
62
256
6
ByLayer
370
18
48
1
60
0
100
AcDbSpline
70
4
71
3
72
12
73
8
40
0
40
0
40
0
40
0
40
0.213658229661812
40
0.431854247933447
40
0.678785203842091
40
0.935224217946578
40
1
40
1
40
1
40
1
41
1
10
66.9567286653469
20
-27.7920023423451
30
0
41
1
10
66.8624011140515
20
-27.9575883723928
30
0
41
1
10
66.6991026981429
20
-28.3021383611265
30
0
41
1
10
66.5260221509029
20
-28.8778681012689
30
0
41
1
10
66.4491016043469
20
-29.51931622437
30
0
41
1
10
66.4855534897719
20
-30.0382385196657
30
0
41
1
10
66.5403071915354
20
-30.327582043945
30
0
41
1
10
66.5527527731046
20
-30.3859295812955
30
0
0
SPLINE
5
164
100
AcDbEntity
8
1
62
256
6
ByLayer
370
18
48
1
60
0
100
AcDbSpline
70
4
71
2
72
6
73
3
40
0
40
0
40
0
40
1
40
1
40
1
41
1
10
67.2442120773585
20
-33.1916274343273
30
0
41
1
10
67.0673038838529
20
-32.7965343968839
30
0
41
1
10
66.9771250644062
20
-32.3768599733981
30
0
0
SPLINE
5
165
100
AcDbEntity
8
1
62
256
6
ByLayer
370
18
48
1
60
0
100
AcDbSpline
70
4
71
3
72
14
73
10
40
0
40
0
40
0
40
0
40
0.165893799697863
40
0.331787599395727
40
0.497681399093588
40
0.663575198791455
40
0.829468998489316
40
0.995362798187179
40
1
40
1
40
1
40
1
41
1
10
65.0148161573443
20
-33.3542610504303
30
0
41
1
10
65.0951276691576
20
-33.3593203170223
30
0
41
1
10
65.2713077718001
20
-33.3647060795065
30
0
41
1
10
65.5838711007508
20
-33.3585693725609
30
0
41
1
10
65.9398617908722
20
-33.3382684306607
30
0
41
1
10
66.3355246702776
20
-33.3040403566512
30
0
41
1
10
66.7661285191436
20
-33.2562892235269
30
0
41
1
10
67.0776694922828
20
-33.2152156619423
30
0
41
1
10
67.2397997969834
20
-33.1922534905766
30
0
41
1
10
67.2442120835769
20
-33.1916274482481
30
0
0
SPLINE
5
166
100
AcDbEntity
8
1
62
256
6
ByLayer
370
18
48
1
60
0
100
AcDbSpline
70
4
71
3
72
12
73
8
40
0
40
0
40
0
40
0
40
0.181429666134872
40
0.366867448225743
40
0.582033047866578
40
0.802198386802964
40
1
40
1
40
1
40
1
41
1
10
73.0868002623631
20
-21.9921092563678
30
0
41
1
10
73.0815719291595
20
-22.1371702608518
30
0
41
1
10
73.057420893624
20
-22.4541744939475
30
0
41
1
10
72.9727660508151
20
-23.0406746031516
30
0
41
1
10
72.8381446810427
20
-23.7371225764077
30
0
41
1
10
72.6588248380551
20
-24.5076235448799
30
0
41
1
10
72.5204563622704
20
-25.0380809279965
30
0
41
1
10
72.4499837958481
20
-25.2952644967958
30
0
0
SPLINE
5
167
100
AcDbEntity
8
1
62
256
6
ByLayer
370
18
48
1
60
0
100
AcDbSpline
70
4
71
2
72
6
73
3
40
0
40
0
40
0
40
1
40
1
40
1
41
1
10
72.4499837958486
20
-25.2952644967939
30
0
41
1
10
72.2887241714039
20
-24.9480933649079
30
0
41
1
10
72.1981419194766
20
-24.5974766397639
30
0
0
SPLINE
5
168
100
AcDbEntity
8
1
62
256
6
ByLayer
370
18
48
1
60
0
100
AcDbSpline
70
4
71
1
72
4
73
2
40
0
40
0
40
1
40
1
41
1
10
64.8586881886385
20
-23.6802953020399
30
0
41
1
10
64.7911325319664
20
-23.6970242304325
30
0
0
SPLINE
5
169
100
AcDbEntity
8
1
62
256
6
ByLayer
370
18
48
1
60
0
100
AcDbSpline
70
4
71
1
72
4
73
2
40
0
40
0
40
1
40
1
41
1
10
73.0255043477139
20
-21.8431855073798
30
0
41
1
10
73.0941180908156
20
-21.8292833877379
30
0
0
SPLINE
5
16A
100
AcDbEntity
8
1
62
256
6
ByLayer
370
18
48
1
60
0
100
AcDbSpline
70
4
71
2
72
6
73
3
40
0
40
0
40
0
40
1
40
1
40
1
41
1
10
67.2561341219352
20
-26.4636111232005
30
0
41
1
10
67.2364174754795
20
-26.0846001670593
30
0
41
1
10
67.1424938210014
20
-25.7347350840773
30
0
0
SPLINE
5
16B
100
AcDbEntity
8
1
62
256
6
ByLayer
370
18
48
1
60
0
100
AcDbSpline
70
4
71
1
72
4
73
2
40
0
40
0
40
1
40
1
41
1
10
67.2442120835754
20
-33.1916274482483
30
0
41
1
10
67.4587723048137
20
-33.6099637191541
30
0
0
SPLINE
5
16C
100
AcDbEntity
8
1
62
256
6
ByLayer
370
18
48
1
60
0
100
AcDbSpline
70
4
71
3
72
17
73
13
40
0
40
0
40
0
40
0
40
0.130238464790171
40
0.263334732062099
40
0.393954291856956
40
0.51637334869023
40
0.624775658810997
40
0.716205668354821
40
0.78380788536518
40
0.846432157703244
40
0.915848409145677
40
1
40
1
40
1
40
1
41
1
10
70.7435127745475
20
-35.7308719339349
30
0
41
1
10
70.8367485581645
20
-36.0549431652471
30
0
41
1
10
71.0245933530035
20
-36.7048556904461
30
0
41
1
10
71.3038890376576
20
-37.6609224127616
30
0
41
1
10
71.5750408977157
20
-38.5822717130733
30
0
41
1
10
71.826478878814
20
-39.4309137036643
30
0
41
1
10
72.0487758685622
20
-40.1743813975427
30
0
41
1
10
72.2296757985261
20
-40.7782550082367
30
0
41
1
10
72.3592197982071
20
-41.2772823247916
30
0
41
1
10
72.4456998257616
20
-41.7302185419093
30
0
41
1
10
72.5286017802771
20
-42.2133621704753
30
0
41
1
10
72.592574938328
20
-42.5501061379053
30
0
41
1
10
72.6278524531061
20
-42.7327338492525
30
0
0
SPLINE
5
16D
100
AcDbEntity
8
1
62
256
6
ByLayer
370
18
48
1
60
0
100
AcDbSpline
70
4
71
3
72
15
73
11
40
0
40
0
40
0
40
0
40
0.11069397096866
40
0.197429022413271
40
0.284502571994586
40
0.366456905974864
40
0.497678234412343
40
0.615432755153235
40
0.733526927695918
40
1
40
1
40
1
40
1
41
1
10
71.0113774419936
20
-41.9757531888208
30
0
41
1
10
71.0458723696404
20
-41.9416238473874
30
0
41
1
10
71.1243563385605
20
-41.8970302411974
30
0
41
1
10
71.2832060121602
20
-41.8675751727321
30
0
41
1
10
71.4566161694565
20
-41.8868736154781
30
0
41
1
10
71.6662317868062
20
-41.9540913234348
30
0
41
1
10
71.8824227952863
20
-42.0689211406569
30
0
41
1
10
72.0925282389948
20
-42.2172560030927
30
0
41
1
10
72.3489467025756
20
-42.4353254166535
30
0
41
1
10
72.5214481845532
20
-42.6084166744327
30
0
41
1
10
72.6278524531095
20
-42.7327338492677
30
0
0
SPLINE
5
16E
100
AcDbEntity
8
1
62
256
6
ByLayer
370
18
48
1
60
0
100
AcDbSpline
70
4
71
3
72
21
73
17
40
0
40
0
40
0
40
0
40
0.0387846401374999
40
0.0869206919816689
40
0.14320812578532
40
0.206285280139466
40
0.315676119316171
40
0.432650019756162
40
0.540774574242047
40
0.645946529723387
40
0.743522580543491
40
0.828841547104844
40
0.899151826997097
40
0.936215701474567
40
0.969831648827287
40
1
40
1
40
1
40
1
41
1
10
65.0148161573443
20
-33.3542610504303
30
0
41
1
10
65.0654040322739
20
-33.4836277834279
30
0
41
1
10
65.188702555653
20
-33.7685779147193
30
0
41
1
10
65.440291434563
20
-34.2151023847572
30
0
41
1
10
65.7561220138578
20
-34.7231830476584
30
0
41
1
10
66.2126677070683
20
-35.4011843362141
30
0
41
1
10
66.8171499810546
20
-36.2405043652742
30
0
41
1
10
67.5395619232888
20
-37.1926417895275
30
0
41
1
10
68.2669748573932
20
-38.1187441563227
30
0
41
1
10
68.9583709122175
20
-38.9802789948439
30
0
41
1
10
69.5999732552338
20
-39.7716963550553
30
0
41
1
10
70.1610643434752
20
-40.4610219044291
30
0
41
1
10
70.5753050586212
20
-40.9853728417884
30
0
41
1
10
70.825564719244
20
-41.3896178798475
30
0
41
1
10
70.9426076685837
20
-41.6937594510345
30
0
41
1
10
70.9934546119921
20
-41.8848796419212
30
0
41
1
10
71.011377441976
20
-41.9757531887436
30
0
0
SPLINE
5
16F
100
AcDbEntity
8
1
62
256
6
ByLayer
370
18
48
1
60
0
100
AcDbSpline
70
4
71
3
72
14
73
10
40
0
40
0
40
0
40
0
40
0.185711059847537
40
0.374949563145765
40
0.487831160120498
40
0.600699303269452
40
0.717935915300254
40
0.835152857895956
40
1
40
1
40
1
40
1
41
1
10
73.1142903544592
20
-26.2327482521317
30
0
41
1
10
73.3040386892672
20
-26.0206923985129
30
0
41
1
10
73.6694934087583
20
-25.6003723723691
30
0
41
1
10
74.1047372352785
20
-25.0684536729774
30
0
41
1
10
74.4349072400215
20
-24.6376438515441
30
0
41
1
10
74.6806575375925
20
-24.2971696619596
30
0
41
1
10
74.8969959139802
20
-23.9727150843994
30
0
41
1
10
75.1039983286082
20
-23.6271595420845
30
0
41
1
10
75.2082381440895
20
-23.413005910918
30
0
41
1
10
75.2554739807476
20
-23.2974128475917
30
0
0
SPLINE
5
170
100
AcDbEntity
8
1
62
256
6
ByLayer
370
18
48
1
60
0
100
AcDbSpline
70
4
71
1
72
4
73
2
40
0
40
0
40
1
40
1
41
1
10
72.4499837958486
20
-25.2952644967939
30
0
41
1
10
72.5948740023702
20
-25.5720844818849
30
0
0
SPLINE
5
171
100
AcDbEntity
8
1
62
256
6
ByLayer
370
18
48
1
60
0
100
AcDbSpline
70
4
71
3
72
10
73
6
40
0
40
0
40
0
40
0
40
0.275167867022728
40
0.851175695803519
40
1
40
1
40
1
40
1
41
1
10
72.5948740023701
20
-25.5720844818848
30
0
41
1
10
72.6341946752553
20
-25.640282621335
30
0
41
1
10
72.7624538648945
20
-25.8439935216268
30
0
41
1
10
72.944842798443
20
-26.0700079794892
30
0
41
1
10
73.0849680595991
20
-26.205701494417
30
0
41
1
10
73.1142903544595
20
-26.2327482521319
30
0
0
SPLINE
5
172
100
AcDbEntity
8
1
62
256
6
ByLayer
370
18
48
1
60
0
100
AcDbSpline
70
4
71
1
72
4
73
2
40
0
40
0
40
1
40
1
41
1
10
73.1142903544592
20
-26.2327482521317
30
0
41
1
10
73.2769686765662
20
-26.3702763474101
30
0
0
SPLINE
5
173
100
AcDbEntity
8
1
62
256
6
ByLayer
370
18
48
1
60
0
100
AcDbSpline
70
4
71
3
72
14
73
10
40
0
40
0
40
0
40
0
40
0.0046371930015448
40
0.170530994167958
40
0.336424795334363
40
0.502318596500775
40
0.668212397667183
40
0.834106198833592
40
1
40
1
40
1
40
1
41
1
10
75.1446890256055
20
-31.4144301528623
30
0
41
1
10
75.1485155436473
20
-31.4132028924214
30
0
41
1
10
75.2890550097038
20
-31.3680800739528
30
0
41
1
10
75.5542344851305
20
-31.2794214659879
30
0
41
1
10
75.9063426514435
20
-31.1511030168578
30
0
41
1
10
76.21445850286
20
-31.0270174011154
30
0
41
1
10
76.4749060180248
20
-30.9086517387138
30
0
41
1
10
76.6849011696625
20
-30.7972399072483
30
0
41
1
10
76.789130963375
20
-30.7287764707864
30
0
41
1
10
76.832481788805
20
-30.6958995961381
30
0
0
SPLINE
5
174
100
AcDbEntity
8
1
62
256
6
ByLayer
370
18
48
1
60
0
100
AcDbSpline
70
4
71
2
72
6
73
3
40
0
40
0
40
0
40
1
40
1
40
1
41
1
10
75.1446890035184
20
-31.4144301513936
30
0
41
1
10
75.1356660339437
20
-30.9809884836962
30
0
41
1
10
75.046717221588
20
-30.5616205334364
30
0
0
SPLINE
5
175
100
AcDbEntity
8
1
62
256
6
ByLayer
370
18
48
1
60
0
100
AcDbSpline
70
4
71
3
72
10
73
6
40
0
40
0
40
0
40
0
40
0.128617677573955
40
0.595983901754802
40
1
40
1
40
1
40
1
41
1
10
74.6223449302859
20
-28.5706901413324
30
0
41
1
10
74.6107746513782
20
-28.5163263761
30
0
41
1
10
74.5525549320894
20
-28.2666813537295
30
0
41
1
10
74.4170447256583
20
-27.8604731855682
30
0
41
1
10
74.256611721344
20
-27.5369452885835
30
0
41
1
10
74.1726845680635
20
-27.3924117071826
30
0
0
SPLINE
5
176
100
AcDbEntity
8
1
62
256
6
ByLayer
370
18
48
1
60
0
100
AcDbSpline
70
4
71
3
72
11
73
7
40
0
40
0
40
0
40
0
40
0.0563580382172116
40
0.45946482305483
40
0.8627427793804
40
1
40
1
40
1
40
1
41
1
10
74.1726845680638
20
-27.3924117071832
30
0
41
1
10
74.1594853939764
20
-27.3697967664626
30
0
41
1
10
74.0501681384333
20
-27.1869657841265
30
0
41
1
10
73.8171945323774
20
-26.8662911136609
30
0
41
1
10
73.5154977882153
20
-26.5628507636234
30
0
41
1
10
73.3261544964625
20
-26.4083072134604
30
0
41
1
10
73.2769686765656
20
-26.3702763474096
30
0
0
SPLINE
5
177
100
AcDbEntity
8
1
62
256
6
ByLayer
370
18
48
1
60
0
100
AcDbSpline
70
4
71
3
72
15
73
11
40
0
40
0
40
0
40
0
40
0.113779781629086
40
0.227638929968222
40
0.353559136983214
40
0.479544210916591
40
0.632299923218907
40
0.785036244231014
40
0.892516027901573
40
1
40
1
40
1
40
1
41
1
10
73.0893400536509
20
-35.2031826926017
30
0
41
1
10
73.2408972630159
20
-35.1187358127444
30
0
41
1
10
73.528709403239
20
-34.931269964279
30
0
41
1
10
73.9306947931322
20
-34.5782529013061
30
0
41
1
10
74.2881823687022
20
-34.1597845388
30
0
41
1
10
74.6161541007454
20
-33.6479323638083
30
0
41
1
10
74.884265005646
20
-33.0552944477506
30
0
41
1
10
75.054084690445
20
-32.4537019752523
30
0
41
1
10
75.1356055526719
20
-31.9022211959671
30
0
41
1
10
75.1475042679638
20
-31.5776904162566
30
0
41
1
10
75.1446890037007
20
-31.4144301598854
30
0
0
SPLINE
5
178
100
AcDbEntity
8
1
62
256
6
ByLayer
370
18
48
1
60
0
100
AcDbSpline
70
4
71
3
72
21
73
17
40
0
40
0
40
0
40
0
40
0.0387846401381868
40
0.0869206919828057
40
0.143208125786667
40
0.206285280140787
40
0.315676119316974
40
0.432650019755846
40
0.540774574240213
40
0.645946529719746
40
0.743522580537967
40
0.82884154709758
40
0.899151826988411
40
0.936215701465205
40
0.969831648817423
40
1
40
1
40
1
40
1
41
1
10
76.8324817888047
20
-30.6958995961384
30
0
41
1
10
76.8418683355244
20
-30.8345344897223
30
0
41
1
10
76.8524529128246
20
-31.144839409265
30
0
41
1
10
76.8197355262656
20
-31.6553180341284
30
0
41
1
10
76.7565834449267
20
-32.2486501272533
30
0
41
1
10
76.6408995522932
20
-33.0553733750822
30
0
41
1
10
76.4605618488496
20
-34.0712371685111
30
0
41
1
10
76.2175026053859
20
-35.2405555035591
30
0
41
1
10
75.9504740244214
20
-36.3903556017502
30
0
41
1
10
75.682065117155
20
-37.4677967448096
30
0
41
1
10
75.4232517870129
20
-38.4617609017306
30
0
41
1
10
75.1893782141197
20
-39.3299122428014
30
0
41
1
10
75.0157210525806
20
-39.9865096917037
30
0
41
1
10
74.9367183314602
20
-40.4648216776026
30
0
41
1
10
74.9361792256311
20
-40.7954131089644
30
0
41
1
10
74.9540286196957
20
-40.9939560359783
30
0
41
1
10
74.9676022794956
20
-41.0858079204104
30
0
0
SPLINE
5
179
100
AcDbEntity
8
1
62
256
6
ByLayer
370
18
48
1
60
0
100
AcDbSpline
70
4
71
3
72
15
73
11
40
0
40
0
40
0
40
0
40
0.166515919983872
40
0.332774473620628
40
0.501628500714136
40
0.63096677658833
40
0.722350043801145
40
0.814286437225677
40
0.896171486345309
40
1
40
1
40
1
40
1
41
1
10
73.8375861493779
20
-42.4606065503219
30
0
41
1
10
73.8754443652985
20
-42.360000164248
30
0
41
1
10
73.9592236279029
20
-42.157614375322
30
0
41
1
10
74.1061380211832
20
-41.8475828920795
30
0
41
1
10
74.2721437303984
20
-41.5585711740847
30
0
41
1
10
74.4462865379147
20
-41.3269600716147
30
0
41
1
10
74.6060506713496
20
-41.1721113630321
30
0
41
1
10
74.7440598255557
20
-41.0861013508746
30
0
41
1
10
74.8695519389617
20
-41.0570919498595
30
0
41
1
10
74.9357437794955
20
-41.0685417421749
30
0
41
1
10
74.9676022794953
20
-41.0858079204053
30
0
0
SPLINE
5
17A
100
AcDbEntity
8
1
62
256
6
ByLayer
370
18
48
1
60
0
100
AcDbSpline
70
4
71
3
72
17
73
13
40
0
40
0
40
0
40
0
40
0.13023846474231
40
0.263334731270984
40
0.393954289831344
40
0.516373345248179
40
0.624775654101447
40
0.716205662892976
40
0.783807881204232
40
0.846432154747481
40
0.915848407525955
40
1
40
1
40
1
40
1
41
1
10
73.0893400536509
20
-35.2031826926017
30
0
41
1
10
73.1290208913038
20
-35.5393009999058
30
0
41
1
10
73.2050325761547
20
-36.2143701541905
30
0
41
1
10
73.3051525690416
20
-37.2107420813819
30
0
41
1
10
73.3923616229764
20
-38.1734689379393
30
0
41
1
10
73.464990392704
20
-39.0623336930889
30
0
41
1
10
73.5212891732494
20
-39.8431423446998
30
0
41
1
10
73.561396912999
20
-40.4786868770748
30
0
41
1
10
73.6101318973735
20
-40.9958920222728
30
0
41
1
10
73.6815111119844
20
-41.4522251386009
30
0
41
1
10
73.7628856200047
20
-41.9357123633595
30
0
41
1
10
73.8120880034484
20
-42.2757789885046
30
0
41
1
10
73.8375861493769
20
-42.4606065503147
30
0
0
SPLINE
5
17B
100
AcDbEntity
8
1
62
256
6
ByLayer
370
18
48
1
60
0
100
AcDbSpline
70
4
71
3
72
14
73
10
40
0
40
0
40
0
40
0
40
0.0637895891064882
40
0.24317645412614
40
0.422954346925773
40
0.602690283276776
40
0.751989544635277
40
0.901140683340924
40
1
40
1
40
1
40
1
41
1
10
67.4587723048136
20
-33.6099637191539
30
0
41
1
10
67.5026523857764
20
-33.6845946907769
30
0
41
1
10
67.6775706497065
20
-33.9633731042665
30
0
41
1
10
68.0350575682963
20
-34.415385661848
30
0
41
1
10
68.579252957452
20
-34.9068132343716
30
0
41
1
10
69.1616388794627
20
-35.2820760936111
30
0
41
1
10
69.7573434048599
20
-35.5423781735411
30
0
41
1
10
70.2801598848493
20
-35.6818815053456
30
0
41
1
10
70.6105522250376
20
-35.7219442017879
30
0
41
1
10
70.7435128157738
20
-35.7308720774667
30
0
0
SPLINE
5
17C
100
AcDbEntity
8
1
62
256
6
ByLayer
370
18
48
1
60
0
100
AcDbSpline
70
4
71
3
72
11
73
7
40
0
40
0
40
0
40
0
40
0.28726750347161
40
0.570601528946048
40
0.783593067567281
40
1
40
1
40
1
40
1
41
1
10
70.7435128157713
20
-35.7308720774659
30
0
41
1
10
70.9767741011167
20
-35.745760012133
30
0
41
1
10
71.4364976463892
20
-35.7376713879627
30
0
41
1
10
72.066011237495
20
-35.6225809767221
30
0
41
1
10
72.6180389079541
20
-35.4386201237721
30
0
41
1
10
72.9338964782846
20
-35.2887928774391
30
0
41
1
10
73.089340053652
20
-35.2031826926011
30
0
0
SPLINE
5
17D
100
AcDbEntity
8
1
62
256
6
ByLayer
370
18
48
1
60
0
100
AcDbSpline
70
4
71
2
72
6
73
3
40
0
40
0
40
0
40
1
40
1
40
1
41
1
10
73.4057565842134
20
-43.6636017735279
30
0
41
1
10
73.6011399614228
20
-43.0694170759817
30
0
41
1
10
73.8375861493782
20
-42.4606065503213
30
0
0
SPLINE
5
17E
100
AcDbEntity
8
1
62
256
6
ByLayer
370
18
48
1
60
0
100
AcDbSpline
70
4
71
2
72
6
73
3
40
0
40
0
40
0
40
1
40
1
40
1
41
1
10
72.6278524531089
20
-42.732733849267
30
0
41
1
10
73.0431390140274
20
-43.1953116583893
30
0
41
1
10
73.4057565842233
20
-43.6636017735408
30
0
0
SPLINE
5
17F
100
AcDbEntity
8
1
62
256
6
ByLayer
370
18
48
1
60
0
100
AcDbSpline
70
4
71
3
72
15
73
11
40
0
40
0
40
0
40
0
40
0.0745275399797373
40
0.149166569620984
40
0.296714101987988
40
0.404641565313065
40
0.512745133321916
40
0.692425899560697
40
0.872499590221622
40
1
40
1
40
1
40
1
41
1
10
64.7911325319664
20
-23.6970242304325
30
0
41
1
10
64.6879352170602
20
-23.7249159715326
30
0
41
1
10
64.4843596455286
20
-23.786850612235
30
0
41
1
10
64.0863493037894
20
-23.9352109456498
30
0
41
1
10
63.6794053618115
20
-24.1377979371881
30
0
41
1
10
63.2996636092759
20
-24.3789270200033
30
0
41
1
10
62.9475457501662
20
-24.6461808234572
30
0
41
1
10
62.6179883530904
20
-24.9545018239161
30
0
41
1
10
62.3655019198943
20
-25.2875972678609
30
0
41
1
10
62.2507876019975
20
-25.5343859865799
30
0
41
1
10
62.2111826560427
20
-25.6410582117928
30
0
0
SPLINE
5
180
100
AcDbEntity
8
1
62
256
6
ByLayer
370
18
48
1
60
0
100
AcDbSpline
70
4
71
3
72
10
73
6
40
0
40
0
40
0
40
0
40
0.324059532807389
40
0.655488310967217
40
1
40
1
40
1
40
1
41
1
10
61.8802066836267
20
-26.0898397606561
30
0
41
1
10
61.8225170968855
20
-25.9144749622127
30
0
41
1
10
61.7340614137735
20
-25.5407161265407
30
0
41
1
10
61.6627954095326
20
-24.9003325929894
30
0
41
1
10
61.707683539835
20
-24.4422655886356
30
0
41
1
10
61.7505763992691
20
-24.2002245477293
30
0
0
SPLINE
5
181
100
AcDbEntity
8
1
62
256
6
ByLayer
370
18
48
1
60
0
100
AcDbSpline
70
4
71
1
72
4
73
2
40
0
40
0
40
1
40
1
41
1
10
65.0148161573443
20
-33.3542610504303
30
0
41
1
10
63.5997314545257
20
-33.2648239557713
30
0
0
SPLINE
5
182
100
AcDbEntity
8
1
62
256
6
ByLayer
370
18
48
1
60
0
100
AcDbSpline
70
4
71
3
72
16
73
12
40
0
40
0
40
0
40
0
40
0.193175194179158
40
0.386603933897723
40
0.499007693810808
40
0.61123280894037
40
0.703623602274011
40
0.795912588408082
40
0.868506640166577
40
0.941036848444267
40
1
40
1
40
1
40
1
41
1
10
75.8382861421514
20
-22.5756671463447
30
0
41
1
10
75.7541583666033
20
-22.4489572884825
30
0
41
1
10
75.5571169455499
20
-22.2256413196732
30
0
41
1
10
75.2457697691353
20
-22.0365553287897
30
0
41
1
10
74.9132431914847
20
-21.9021945975963
30
0
41
1
10
74.6113011296761
20
-21.8217868486753
30
0
41
1
10
74.281928165474
20
-21.7702274106414
30
0
41
1
10
73.96333067736
20
-21.7504013390512
30
0
41
1
10
73.6472347535678
20
-21.7581071661169
30
0
41
1
10
73.3629658479568
20
-21.7851342363231
30
0
41
1
10
73.177884116022
20
-21.814002613027
30
0
41
1
10
73.0941180908134
20
-21.8292833877383
30
0
0
SPLINE
5
183
100
AcDbEntity
8
1
62
256
6
ByLayer
370
18
48
1
60
0
100
AcDbSpline
70
4
71
1
72
4
73
2
40
0
40
0
40
1
40
1
41
1
10
75.3948188396139
20
-21.8103195758291
30
0
41
1
10
74.9823493692087
20
-21.2237623315722
30
0
0
SPLINE
5
184
100
AcDbEntity
8
1
62
256
6
ByLayer
370
18
48
1
60
0
100
AcDbSpline
70
4
71
1
72
4
73
2
40
0
40
0
40
1
40
1
41
1
10
69.4393242501905
20
-44.0734515629175
30
0
41
1
10
68.0305352518748
20
-42.6607661635652
30
0
0
SPLINE
5
185
100
AcDbEntity
8
1
62
256
6
ByLayer
370
18
48
1
60
0
100
AcDbSpline
70
4
71
1
72
4
73
2
40
0
40
0
40
1
40
1
41
1
10
67.9297916644415
20
-42.3637858098415
30
0
41
1
10
68.0303634557983
20
-42.6608508668763
30
0
0
SPLINE
5
186
100
AcDbEntity
8
1
62
256
6
ByLayer
370
18
48
1
60
0
100
AcDbSpline
70
4
71
3
72
11
73
7
40
0
40
0
40
0
40
0
40
0.277489935641332
40
0.563277494182933
40
0.78010703183711
40
1
40
1
40
1
40
1
41
1
10
67.9297916644415
20
-42.3637858098415
30
0
41
1
10
67.8784852452602
20
-42.1901875137234
30
0
41
1
10
67.7490498540437
20
-41.8317666431516
30
0
41
1
10
67.4992732033165
20
-41.3075444029053
30
0
41
1
10
67.2082447929353
20
-40.8257126913487
30
0
41
1
10
67.0153059832236
20
-40.5357119461387
30
0
41
1
10
66.9126385249789
20
-40.3900679149478
30
0
0
SPLINE
5
187
100
AcDbEntity
8
1
62
256
6
ByLayer
370
18
48
1
60
0
100
AcDbSpline
70
4
71
3
72
13
73
9
40
0
40
0
40
0
40
0
40
0.126987822136549
40
0.254186992929741
40
0.381360015404295
40
0.576737882971827
40
0.772142294318531
40
1
40
1
40
1
40
1
41
1
10
63.5997314545264
20
-33.2648239557713
30
0
41
1
10
63.6752590456842
20
-33.5918414658002
30
0
41
1
10
63.8470518352575
20
-34.2397497655186
30
0
41
1
10
64.1786324012795
20
-35.1895104084566
30
0
41
1
10
64.6145761154901
20
-36.2913051602752
30
0
41
1
10
65.1814753242507
20
-37.5331014956536
30
0
41
1
10
65.967873511188
20
-38.9607693295172
30
0
41
1
10
66.5690618297654
20
-39.8974991381474
30
0
41
1
10
66.9126385249818
20
-40.3900679149521
30
0
0
SPLINE
5
188
100
AcDbEntity
8
1
62
256
6
ByLayer
370
18
48
1
60
0
100
AcDbSpline
70
4
71
3
72
14
73
10
40
0
40
0
40
0
40
0
40
0.121523556149596
40
0.222387548357045
40
0.32338669598819
40
0.488282595064853
40
0.653577964344724
40
0.826693836492839
40
1
40
1
40
1
40
1
41
1
10
70.4279185133402
20
-44.8117619394477
30
0
41
1
10
70.3226678501539
20
-44.6688928796245
30
0
41
1
10
70.1678751934988
20
-44.411256564282
30
0
41
1
10
70.0454068820845
20
-44.0418361347373
30
0
41
1
10
70.0055829949665
20
-43.6444930808661
30
0
41
1
10
70.0836934213018
20
-43.2136057214637
30
0
41
1
10
70.2982896025876
20
-42.7618339438262
30
0
41
1
10
70.6160017637722
20
-42.3510550233077
30
0
41
1
10
70.8712371491732
20
-42.0964207769035
30
0
41
1
10
71.0113774419945
20
-41.9757531888185
30
0
0
SPLINE
5
189
100
AcDbEntity
8
1
62
256
6
ByLayer
370
18
48
1
60
0
100
AcDbSpline
70
4
71
1
72
4
73
2
40
0
40
0
40
1
40
1
41
1
10
69.4394037873691
20
-44.073499242852
30
0
41
1
10
70.4279185133545
20
-44.8117619394668
30
0
0
SPLINE
5
18A
100
AcDbEntity
8
1
62
256
6
ByLayer
370
18
48
1
60
0
100
AcDbSpline
70
4
71
1
72
4
73
2
40
0
40
0
40
1
40
1
41
1
10
76.8324817888046
20
-30.6958995961384
30
0
41
1
10
77.595852678262
20
-30.1164230506274
30
0
0
SPLINE
5
18B
100
AcDbEntity
8
1
62
256
6
ByLayer
370
18
48
1
60
0
100
AcDbSpline
70
4
71
1
72
4
73
2
40
0
40
0
40
1
40
1
41
1
10
76.5565136536964
20
-42.4725188870133
30
0
41
1
10
75.9899542481619
20
-43.5605925578588
30
0
0
SPLINE
5
18C
100
AcDbEntity
8
1
62
256
6
ByLayer
370
18
48
1
60
0
100
AcDbSpline
70
4
71
3
72
15
73
11
40
0
40
0
40
0
40
0
40
0.183386250218152
40
0.366943563477103
40
0.549390059741183
40
0.671720177562542
40
0.793783034007533
40
0.892517276558754
40
0.991241635182387
40
1
40
1
40
1
40
1
41
1
10
74.9676022794949
20
-41.0858079204051
30
0
41
1
10
75.1101646780646
20
-41.1482523953157
30
0
41
1
10
75.3760113723176
20
-41.2990911846472
30
0
41
1
10
75.7285559628788
20
-41.5891726254272
30
0
41
1
10
75.9679095138642
20
-41.9393958704487
30
0
41
1
10
76.1021479092242
20
-42.3255243651618
30
0
41
1
10
76.1446532244542
20
-42.6983114497294
30
0
41
1
10
76.1082142515903
20
-43.1038277864992
30
0
41
1
10
76.0410166997903
20
-43.3924388934958
30
0
41
1
10
75.9938768283272
20
-43.5478842730298
30
0
41
1
10
75.9899542481615
20
-43.5605925578604
30
0
0
SPLINE
5
18D
100
AcDbEntity
8
1
62
256
6
ByLayer
370
18
48
1
60
0
100
AcDbSpline
70
4
71
3
72
14
73
10
40
0
40
0
40
0
40
0
40
0.144402987238157
40
0.288816040396093
40
0.43464586630454
40
0.580466006356704
40
0.789543228855799
40
0.894806799335097
40
1
40
1
40
1
40
1
41
1
10
77.4846562830396
20
-38.0119125855834
30
0
41
1
10
77.5555164893396
20
-37.635296582482
30
0
41
1
10
77.6794274606714
20
-36.8798929984344
30
0
41
1
10
77.8117841572571
20
-35.7354175759824
30
0
41
1
10
77.8915182747941
20
-34.5831077044385
30
0
41
1
10
77.9098735417425
20
-33.2575201490239
30
0
41
1
10
77.8441032861029
20
-32.0418778332489
30
0
41
1
10
77.737688782121
20
-30.9378514735442
30
0
41
1
10
77.6480167762409
20
-30.3894850159179
30
0
41
1
10
77.5958526782609
20
-30.1164230506238
30
0
0
SPLINE
5
18E
100
AcDbEntity
8
1
62
256
6
ByLayer
370
18
48
1
60
0
100
AcDbSpline
70
4
71
3
72
11
73
7
40
0
40
0
40
0
40
0
40
0.302293823441663
40
0.613181578417232
40
0.805254037931529
40
1
40
1
40
1
40
1
41
1
10
77.4846562830396
20
-38.0119125855835
30
0
41
1
10
77.4366214805524
20
-38.255561726254
30
0
41
1
10
77.3555573978027
20
-38.7406961821169
30
0
41
1
10
77.2797760877279
20
-39.3643307659644
30
0
41
1
10
77.2632397923263
20
-39.872391947695
30
0
41
1
10
77.2621633409274
20
-40.1356453509761
30
0
41
1
10
77.2647533791552
20
-40.2639038895399
30
0
0
SPLINE
5
18F
100
AcDbEntity
8
1
62
256
6
ByLayer
370
18
48
1
60
0
100
AcDbSpline
70
4
71
1
72
4
73
2
40
0
40
0
40
1
40
1
41
1
10
77.2619486947254
20
-40.5842232886025
30
0
41
1
10
77.2647533791552
20
-40.2639038895387
30
0
0
SPLINE
5
190
100
AcDbEntity
8
1
62
256
6
ByLayer
370
18
48
1
60
0
100
AcDbSpline
70
4
71
1
72
4
73
2
40
0
40
0
40
1
40
1
41
1
10
77.2617585940091
20
-40.5842201027128
30
0
41
1
10
76.5565824811622
20
-42.4724178965479
30
0
0
SPLINE
5
191
100
AcDbEntity
8
1
62
256
6
ByLayer
370
18
48
1
60
0
100
AcDbSpline
70
4
71
1
72
4
73
2
40
0
40
0
40
1
40
1
41
1
10
71.6642115588409
20
-45.7189391550111
30
0
41
1
10
71.4871685246037
20
-45.5526804342363
30
0
0
SPLINE
5
192
100
AcDbEntity
8
1
62
256
6
ByLayer
370
18
48
1
60
0
100
AcDbSpline
70
4
71
1
72
4
73
2
40
0
40
0
40
1
40
1
41
1
10
75.2978687434877
20
-44.6954706525709
30
0
41
1
10
75.1905773566199
20
-44.9256898617165
30
0
0
SPLINE
5
193
100
AcDbEntity
8
1
62
256
6
ByLayer
370
18
48
1
60
0
100
AcDbSpline
70
4
71
2
72
6
73
3
40
0
40
0
40
0
40
1
40
1
40
1
41
0.505119952746044
10
70.8055496260834
20
-31.9844462036002
30
0
41
0.494880047253956
10
70.7749021185238
20
-31.904105370544
30
0
41
0.505119952746044
10
70.7150135872627
20
-31.8426362799264
30
0
0
SPLINE
5
194
100
AcDbEntity
8
1
62
256
6
ByLayer
370
18
48
1
60
0
100
AcDbSpline
70
4
71
2
72
6
73
3
40
0
40
0
40
0
40
1
40
1
40
1
41
0.503569089528756
10
72.2559524096318
20
-30.6609908030757
30
0
41
0.496430910471244
10
72.3133347298982
20
-30.6892306471669
30
0
41
0.503569089528756
10
72.3579029410017
20
-30.7349750885366
30
0
0
SPLINE
5
195
100
AcDbEntity
8
1
62
256
6
ByLayer
370
18
48
1
60
0
100
AcDbSpline
70
4
71
2
72
6
73
3
40
0
40
0
40
0
40
1
40
1
40
1
41
0.505119952746045
10
70.9932384089546
20
-29.2748456449064
30
0
41
0.494880047253955
10
71.0238859165143
20
-29.3551864779626
30
0
41
0.505119952746045
10
71.0837744477753
20
-29.4166555685802
30
0
0
SPLINE
5
196
100
AcDbEntity
8
1
62
256
6
ByLayer
370
18
48
1
60
0
100
AcDbSpline
70
4
71
2
72
6
73
3
40
0
40
0
40
0
40
1
40
1
40
1
41
0.503569089528755
10
69.5428356254061
20
-30.5983010454309
30
0
41
0.496430910471245
10
69.4854533051398
20
-30.5700612013397
30
0
41
0.503569089528755
10
69.4408850940362
20
-30.52431675997
30
0
0
SPLINE
5
197
100
AcDbEntity
8
1
62
256
6
ByLayer
370
18
48
1
60
0
100
AcDbSpline
70
4
71
2
72
6
73
3
40
0
40
0
40
0
40
1
40
1
40
1
41
0.505119952746044
10
70.9122885389502
20
-29.1480508896215
30
0
41
0.494880047253956
10
70.9658359316071
20
-29.2030114882914
30
0
41
0.505119952746044
10
70.9932384089545
20
-29.2748456449064
30
0
0
SPLINE
5
198
100
AcDbEntity
8
1
62
256
6
ByLayer
370
18
48
1
60
0
100
AcDbSpline
70
4
71
2
72
6
73
3
40
0
40
0
40
0
40
1
40
1
40
1
41
0.503569089528756
10
69.6568592460172
20
-30.6810466278542
30
0
41
0.496430910471244
10
69.6070132204409
20
-30.6298850815855
30
0
41
0.503569089528756
10
69.5428356254061
20
-30.5983010454309
30
0
0
SPLINE
5
199
100
AcDbEntity
8
1
62
256
6
ByLayer
370
18
48
1
60
0
100
AcDbSpline
70
4
71
2
72
6
73
3
40
0
40
0
40
0
40
1
40
1
40
1
41
0.505119952746045
10
70.8174862751798
20
-29.0944551158724
30
0
41
0.494880047253955
10
70.8481337827395
20
-29.1747959489287
30
0
41
0.505119952746045
10
70.9080223140005
20
-29.2362650395463
30
0
0
SPLINE
5
19A
100
AcDbEntity
8
1
62
256
6
ByLayer
370
18
48
1
60
0
100
AcDbSpline
70
4
71
2
72
6
73
3
40
0
40
0
40
0
40
1
40
1
40
1
41
0.503569089528755
10
72.1419287890208
20
-30.5782452206524
30
0
41
0.496430910471245
10
72.1917748145971
20
-30.6294067669211
30
0
41
0.503569089528755
10
72.2559524096319
20
-30.6609908030757
30
0
0
SPLINE
5
19B
100
AcDbEntity
8
1
62
256
6
ByLayer
370
18
48
1
60
0
100
AcDbSpline
70
4
71
2
72
6
73
3
40
0
40
0
40
0
40
1
40
1
40
1
41
0.505119952746044
10
70.8864994960877
20
-32.111240958885
30
0
41
0.494880047253956
10
70.8329521034308
20
-32.0562803602152
30
0
41
0.505119952746044
10
70.8055496260833
20
-31.9844462036002
30
0
0
SPLINE
5
19C
100
AcDbEntity
8
1
62
256
6
ByLayer
370
18
48
1
60
0
100
AcDbSpline
70
4
71
2
72
6
73
3
40
0
40
0
40
0
40
1
40
1
40
1
41
0.501157107587461
10
71.5473355729711
20
-29.6467414038598
30
0
41
0.498842892412539
10
71.4709093103408
20
-29.5682981232473
30
0
41
0.501157107587461
10
71.3807121581184
20
-29.5060894126106
30
0
0
SPLINE
5
19D
100
AcDbEntity
8
1
62
256
6
ByLayer
370
18
48
1
60
0
100
AcDbSpline
70
4
71
2
72
6
73
3
40
0
40
0
40
0
40
1
40
1
40
1
41
0.500006827532375
10
61.8802066836268
20
-26.0898397606561
30
0
41
0.499993172467625
10
61.8913367516805
20
-26.1258348904377
30
0
41
0.500006827532375
10
61.9023952507038
20
-26.1613029341857
30
0
0
SPLINE
5
19E
100
AcDbEntity
8
1
62
256
6
ByLayer
370
18
48
1
60
0
100
AcDbSpline
70
4
71
2
72
6
73
3
40
0
40
0
40
0
40
1
40
1
40
1
41
0.500012422033123
10
71.6708974922263
20
-45.7238452138569
30
0
41
0.499987577966877
10
71.6465219460725
20
-45.7164485820483
30
0
41
0.500012422033123
10
71.6223048579157
20
-45.7085657396113
30
0
0
SPLINE
5
19F
100
AcDbEntity
8
1
62
256
6
ByLayer
370
18
48
1
60
0
100
AcDbSpline
70
4
71
2
72
6
73
3
40
0
40
0
40
0
40
1
40
1
40
1
41
0.500055079808647
10
75.8887060309872
20
-22.6568415501222
30
0
41
0.499944920191353
10
75.8641705095382
20
-22.6147876944136
30
0
41
0.500055079808647
10
75.8382861421513
20
-22.5756671463447
30
0
0
LINE
5
70
100
AcDbEntity
8
1
62
256
6
ByLayer
370
18
48
1
60
0
100
AcDbLine
10
78.63963
20
-40.816869
30
0
11
78.607202
21
-40.198098
31
0
39
0
210
0
220
0
230
1
0
LINE
5
72
100
AcDbEntity
8
1
62
256
6
ByLayer
370
18
48
1
60
0
100
AcDbLine
10
66.835076
20
-47.276291
30
0
11
67.910673
21
-47.934726
31
0
39
0
210
0
220
0
230
1
0
LINE
5
73
100
AcDbEntity
8
1
62
256
6
ByLayer
370
18
48
1
60
0
100
AcDbLine
10
66.2617
20
-45.984217
30
0
11
66.280447
21
-46.341933
31
0
39
0
210
0
220
0
230
1
0
LINE
5
74
100
AcDbEntity
8
1
62
256
6
ByLayer
370
18
48
1
60
0
100
AcDbLine
10
78.052573
20
-39.263739
30
0
11
77.350853
21
-38.834176
31
0
39
0
210
0
220
0
230
1
0
LINE
5
75
100
AcDbEntity
8
1
62
256
6
ByLayer
370
18
48
1
60
0
100
AcDbLine
10
66.280447
20
-46.341933
30
0
11
65.795755
21
-45.84445
31
0
39
0
210
0
220
0
230
1
0
LINE
5
76
100
AcDbEntity
8
1
62
256
6
ByLayer
370
18
48
1
60
0
100
AcDbLine
10
65.792003
20
-45.772855
30
0
11
65.795755
21
-45.84445
31
0
39
0
210
0
220
0
230
1
0
LINE
5
77
100
AcDbEntity
8
1
62
256
6
ByLayer
370
18
48
1
60
0
100
AcDbLine
10
78.052573
20
-39.263739
30
0
11
77.567881
21
-38.766256
31
0
39
0
210
0
220
0
230
1
0
LINE
5
78
100
AcDbEntity
8
1
62
256
6
ByLayer
370
18
48
1
60
0
100
AcDbLine
10
77.567881
20
-38.766256
30
0
11
77.376372
21
-38.649022
31
0
39
0
210
0
220
0
230
1
0
LINE
5
79
100
AcDbEntity
8
1
62
256
6
ByLayer
370
18
48
1
60
0
100
AcDbLine
10
66.124766
20
-46.598654
30
0
11
66.609457
21
-47.096137
31
0
39
0
210
0
220
0
230
1
0
LINE
5
7A
100
AcDbEntity
8
1
62
256
6
ByLayer
370
18
48
1
60
0
100
AcDbLine
10
78.278192
20
-39.443893
30
0
11
77.7935
21
-38.94641
31
0
39
0
210
0
220
0
230
1
0
LINE
5
7B
100
AcDbEntity
8
1
62
256
6
ByLayer
370
18
48
1
60
0
100
AcDbLine
10
69.369581
20
-30.420474
30
0
11
69.542836
21
-30.598301
31
0
39
0
210
0
220
0
230
1
0
LINE
5
7C
100
AcDbEntity
8
1
62
256
6
ByLayer
370
18
48
1
60
0
100
AcDbLine
10
70.817486
20
-29.094455
30
0
11
70.993238
21
-29.274846
31
0
39
0
210
0
220
0
230
1
0
LINE
5
7D
100
AcDbEntity
8
1
62
256
6
ByLayer
370
18
48
1
60
0
100
AcDbLine
10
69.656859
20
-30.681047
30
0
11
69.481107
21
-30.500656
31
0
39
0
210
0
220
0
230
1
0
LINE
5
7E
100
AcDbEntity
8
1
62
256
6
ByLayer
370
18
48
1
60
0
100
AcDbLine
10
70.908022
20
-29.236265
30
0
11
71.083774
21
-29.416656
31
0
39
0
210
0
220
0
230
1
0
LINE
5
7F
100
AcDbEntity
8
1
62
256
6
ByLayer
370
18
48
1
60
0
100
AcDbLine
10
70.003473
20
-31.608446
30
0
11
70.179225
21
-31.788837
31
0
39
0
210
0
220
0
230
1
0
LINE
5
80
100
AcDbEntity
8
1
62
256
6
ByLayer
370
18
48
1
60
0
100
AcDbLine
10
71.943312
20
-29.838393
30
0
11
72.119064
21
-30.018783
31
0
39
0
210
0
220
0
230
1
0
LINE
5
81
100
AcDbEntity
8
1
62
256
6
ByLayer
370
18
48
1
60
0
100
AcDbLine
10
70.715014
20
-31.842636
30
0
11
70.539261
21
-31.662246
31
0
39
0
210
0
220
0
230
1
0
LINE
5
82
100
AcDbEntity
8
1
62
256
6
ByLayer
370
18
48
1
60
0
100
AcDbLine
10
71.966177
20
-30.397855
30
0
11
72.141929
21
-30.578245
31
0
39
0
210
0
220
0
230
1
0
LINE
5
83
100
AcDbEntity
8
1
62
256
6
ByLayer
370
18
48
1
60
0
100
AcDbLine
10
67.770744
20
-33.150413
30
0
11
67.953742
21
-33.33824
31
0
39
0
210
0
220
0
230
1
0
LINE
5
84
100
AcDbEntity
8
1
62
256
6
ByLayer
370
18
48
1
60
0
100
AcDbLine
10
73.683785
20
-27.755534
30
0
11
73.500787
21
-27.567707
31
0
39
0
210
0
220
0
230
1
0
LINE
5
85
100
AcDbEntity
8
1
62
256
6
ByLayer
370
18
48
1
60
0
100
AcDbLine
10
71.360032
20
-31.639791
30
0
11
71.535784
21
-31.820181
31
0
39
0
210
0
220
0
230
1
0
LINE
5
86
100
AcDbEntity
8
1
62
256
6
ByLayer
370
18
48
1
60
0
100
AcDbLine
10
71.849468
20
-31.193193
30
0
11
72.02522
21
-31.373584
31
0
39
0
210
0
220
0
230
1
0
LINE
5
87
100
AcDbEntity
8
1
62
256
6
ByLayer
370
18
48
1
60
0
100
AcDbLine
10
30.920792
20
40
30
0
11
0
21
40
31
0
39
0
210
0
220
0
230
1
0
LINE
5
88
100
AcDbEntity
8
1
62
256
6
ByLayer
370
18
48
1
60
0
100
AcDbLine
10
0
20
-40
30
0
11
30.920792
21
-40
31
0
39
0
210
0
220
0
230
1
0
LINE
5
89
100
AcDbEntity
8
1
62
256
6
ByLayer
370
18
48
1
60
0
100
AcDbLine
10
10.25
20
-38.115458
30
0
11
13.75
21
-38.115458
31
0
39
0
210
0
220
0
230
1
0
LINE
5
8A
100
AcDbEntity
8
1
62
256
6
ByLayer
370
18
48
1
60
0
100
AcDbLine
10
13.75
20
-12.13309
30
0
11
10.25
21
-12.13309
31
0
39
0
210
0
220
0
230
1
0
LINE
5
8B
100
AcDbEntity
8
1
62
256
6
ByLayer
370
18
48
1
60
0
100
AcDbLine
10
13.75
20
38.115458
30
0
11
10.25
21
38.115458
31
0
39
0
210
0
220
0
230
1
0
LINE
5
8C
100
AcDbEntity
8
1
62
256
6
ByLayer
370
18
48
1
60
0
100
AcDbLine
10
10.25
20
12.13309
30
0
11
13.75
21
12.13309
31
0
39
0
210
0
220
0
230
1
0
LINE
5
8D
100
AcDbEntity
8
1
62
256
6
ByLayer
370
18
48
1
60
0
100
AcDbLine
10
30.920792
20
39.191836
30
0
11
24.464962
21
39.191836
31
0
39
0
210
0
220
0
230
1
0
LINE
5
8E
100
AcDbEntity
8
1
62
256
6
ByLayer
370
18
48
1
60
0
100
AcDbLine
10
24.464962
20
-39.191836
30
0
11
30.154117
21
-39.191836
31
0
39
0
210
0
220
0
230
1
0
LINE
5
8F
100
AcDbEntity
8
1
62
256
6
ByLayer
370
18
48
1
60
0
100
AcDbLine
10
20.480183
20
-38.26546
30
0
11
20.480183
21
-6.58411
31
0
39
0
210
0
220
0
230
1
0
LINE
5
90
100
AcDbEntity
8
1
62
256
6
ByLayer
370
18
48
1
60
0
100
AcDbLine
10
20.480183
20
-1.263221
30
0
11
20.480183
21
38.26546
31
0
39
0
210
0
220
0
230
1
0
LINE
5
91
100
AcDbEntity
8
1
62
256
6
ByLayer
370
18
48
1
60
0
100
AcDbLine
10
19.61854
20
4.737672
30
0
11
19.61854
21
-0.949609
31
0
39
0
210
0
220
0
230
1
0
LINE
5
92
100
AcDbEntity
8
1
62
256
6
ByLayer
370
18
48
1
60
0
100
AcDbLine
10
19.61854
20
4.737672
30
0
11
18.481188
21
1.612821
31
0
39
0
210
0
220
0
230
1
0
LINE
5
93
100
AcDbEntity
8
1
62
256
6
ByLayer
370
18
48
1
60
0
100
AcDbLine
10
18.481188
20
-3.196091
30
0
11
18.481188
21
1.612821
31
0
39
0
210
0
220
0
230
1
0
LINE
5
94
100
AcDbEntity
8
1
62
256
6
ByLayer
370
18
48
1
60
0
100
AcDbLine
10
10.25
20
38.115458
30
0
11
10.25
21
12.13309
31
0
39
0
210
0
220
0
230
1
0
LINE
5
95
100
AcDbEntity
8
1
62
256
6
ByLayer
370
18
48
1
60
0
100
AcDbLine
10
13.75
20
38.115458
30
0
11
13.75
21
12.13309
31
0
39
0
210
0
220
0
230
1
0
LINE
5
96
100
AcDbEntity
8
1
62
256
6
ByLayer
370
18
48
1
60
0
100
AcDbLine
10
13.75
20
-12.13309
30
0
11
13.75
21
-38.115458
31
0
39
0
210
0
220
0
230
1
0
LINE
5
97
100
AcDbEntity
8
1
62
256
6
ByLayer
370
18
48
1
60
0
100
AcDbLine
10
10.25
20
-12.13309
30
0
11
10.25
21
-38.115458
31
0
39
0
210
0
220
0
230
1
0
LINE
5
98
100
AcDbEntity
8
1
62
256
6
ByLayer
370
18
48
1
60
0
100
AcDbLine
10
24.464962
20
-39.191836
30
0
11
24.464962
21
39.191836
31
0
39
0
210
0
220
0
230
1
0
LINE
5
99
100
AcDbEntity
8
1
62
256
6
ByLayer
370
18
48
1
60
0
100
AcDbLine
10
60.588396
20
-28.053232
30
0
11
62.367496
21
-27.653027
31
0
39
0
210
0
220
0
230
1
0
LINE
5
9A
100
AcDbEntity
8
1
62
256
6
ByLayer
370
18
48
1
60
0
100
AcDbLine
10
76.399639
20
-24.496523
30
0
11
76.589902
21
-24.453723
31
0
39
0
210
0
220
0
230
1
0
LINE
5
9B
100
AcDbEntity
8
1
62
256
6
ByLayer
370
18
48
1
60
0
100
AcDbLine
10
76.589902
20
-24.453723
30
0
11
76.652165
21
-25.641765
31
0
39
0
210
0
220
0
230
1
0
LINE
5
9C
100
AcDbEntity
8
1
62
256
6
ByLayer
370
18
48
1
60
0
100
AcDbLine
10
62.863276
20
-33.097522
30
0
11
62.705248
21
-33.352266
31
0
39
0
210
0
220
0
230
1
0
LINE
5
9D
100
AcDbEntity
8
1
62
256
6
ByLayer
370
18
48
1
60
0
100
AcDbLine
10
65.305772
20
-37.719677
30
0
11
63.454139
21
-36.586186
31
0
39
0
210
0
220
0
230
1
0
LINE
5
9E
100
AcDbEntity
8
1
62
256
6
ByLayer
370
18
48
1
60
0
100
AcDbLine
10
66.787598
20
-46.246238
30
0
11
66.410674
21
-39.609307
31
0
39
0
210
0
220
0
230
1
0
LINE
5
9F
100
AcDbEntity
8
1
62
256
6
ByLayer
370
18
48
1
60
0
100
AcDbLine
10
31.2442
20
-40.569055
30
0
11
62.16766
21
-44.770757
31
0
39
0
210
0
220
0
230
1
0
LINE
5
A0
100
AcDbEntity
8
1
62
256
6
ByLayer
370
18
48
1
60
0
100
AcDbLine
10
30.1
20
-34.874775
30
0
11
63.078375
21
-2.744375
31
0
39
0
210
0
220
0
230
1
0
LINE
5
A1
100
AcDbEntity
8
1
62
256
6
ByLayer
370
18
48
1
60
0
100
AcDbLine
10
72.336983
20
-15.478421
30
0
11
61.45784
21
-17.925663
31
0
39
0
210
0
220
0
230
1
0
LINE
5
A2
100
AcDbEntity
8
1
62
256
6
ByLayer
370
18
48
1
60
0
100
AcDbLine
10
72.336983
20
-15.478421
30
0
11
63.078375
21
-2.744375
31
0
39
0
210
0
220
0
230
1
0
LINE
5
A3
100
AcDbEntity
8
1
62
256
6
ByLayer
370
18
48
1
60
0
100
AcDbLine
10
31.001177
20
40.3
30
0
11
30.920792
21
40
31
0
39
0
210
0
220
0
230
1
0
LINE
5
A4
100
AcDbEntity
8
1
62
256
6
ByLayer
370
18
48
1
60
0
100
AcDbLine
10
30.920792
20
-40
30
0
11
31.069442
21
-40.554768
31
0
39
0
210
0
220
0
230
1
0
LINE
5
A5
100
AcDbEntity
8
1
62
256
6
ByLayer
370
18
48
1
60
0
100
AcDbLine
10
31.781877
20
40.3
30
0
11
31.001177
21
40.3
31
0
39
0
210
0
220
0
230
1
0
LINE
5
A6
100
AcDbEntity
8
1
62
256
6
ByLayer
370
18
48
1
60
0
100
AcDbLine
10
32.36501
20
39.497975
30
0
11
31.001177
21
39.497975
31
0
39
0
210
0
220
0
230
1
0
LINE
5
A7
100
AcDbEntity
8
1
62
256
6
ByLayer
370
18
48
1
60
0
100
AcDbLine
10
30.154117
20
-39.191836
30
0
11
30.1
21
-34.874775
31
0
39
0
210
0
220
0
230
1
0
LINE
5
A8
100
AcDbEntity
8
1
62
256
6
ByLayer
370
18
48
1
60
0
100
AcDbLine
10
32.36501
20
39.497975
30
0
11
63.078375
21
-2.744375
31
0
39
0
210
0
220
0
230
1
0
LINE
5
A9
100
AcDbEntity
8
1
62
256
6
ByLayer
370
18
48
1
60
0
100
AcDbLine
10
64.874711
20
-21.451017
30
0
11
70.708151
21
-20.138795
31
0
39
0
210
0
220
0
230
1
0
LINE
5
AA
100
AcDbEntity
8
1
62
256
6
ByLayer
370
18
48
1
60
0
100
AcDbLine
10
72.338231
20
-15.480137
30
0
11
74.098955
21
-17.90179
31
0
39
0
210
0
220
0
230
1
0
LINE
5
AB
100
AcDbEntity
8
1
62
256
6
ByLayer
370
18
48
1
60
0
100
AcDbLine
10
60.588396
20
-28.053232
30
0
11
60.383832
21
-27.353776
31
0
39
0
210
0
220
0
230
1
0
LINE
5
AC
100
AcDbEntity
8
1
62
256
6
ByLayer
370
18
48
1
60
0
100
AcDbLine
10
76.424197
20
-21.291875
30
0
11
76.589902
21
-24.453723
31
0
39
0
210
0
220
0
230
1
0
LINE
5
AD
100
AcDbEntity
8
1
62
256
6
ByLayer
370
18
48
1
60
0
100
AcDbLine
10
62.847515
20
-36.048142
30
0
11
63.454139
21
-36.586186
31
0
39
0
210
0
220
0
230
1
0
LINE
5
AE
100
AcDbEntity
8
1
62
256
6
ByLayer
370
18
48
1
60
0
100
AcDbLine
10
77.357844
20
-39.106915
30
0
11
77.348408
21
-38.926867
31
0
39
0
210
0
220
0
230
1
0
LINE
5
AF
100
AcDbEntity
8
1
62
256
6
ByLayer
370
18
48
1
60
0
100
AcDbLine
10
62.637376
20
-35.732058
30
0
11
65.055492
21
-37.212326
31
0
39
0
210
0
220
0
230
1
0
LINE
5
B0
100
AcDbEntity
8
1
62
256
6
ByLayer
370
18
48
1
60
0
100
AcDbLine
10
66.530606
20
-39.795851
30
0
11
66.900332
21
-46.306047
31
0
39
0
210
0
220
0
230
1
0
LINE
5
B1
100
AcDbEntity
8
1
62
256
6
ByLayer
370
18
48
1
60
0
100
AcDbLine
10
62.515236
20
-35.474722
30
0
11
64.938913
21
-36.958395
31
0
39
0
210
0
220
0
230
1
0
LINE
5
B2
100
AcDbEntity
8
SK1
62
256
6
ByLayer
370
18
48
1
60
0
100
AcDbLine
10
0
20
29.5
30
0
11
-48
21
28.5
31
0
39
0
210
0
220
0
230
1
0
LINE
5
B4
100
AcDbEntity
8
SK1
62
256
6
ByLayer
370
18
48
1
60
0
100
AcDbLine
10
-48
20
-28.5
30
0
11
0
21
-29.5
31
0
39
0
210
0
220
0
230
1
0
LINE
5
B5
100
AcDbEntity
8
1
62
256
6
ByLayer
370
18
48
1
60
0
100
AcDbLine
10
66.552753
20
-30.38593
30
0
11
66.977125
21
-32.37686
31
0
39
0
210
0
220
0
230
1
0
LINE
5
B6
100
AcDbEntity
8
1
62
256
6
ByLayer
370
18
48
1
60
0
100
AcDbLine
10
63.437808
20
-25.955774
30
0
11
65.014816
21
-33.354261
31
0
39
0
210
0
220
0
230
1
0
LINE
5
B7
100
AcDbEntity
8
1
62
256
6
ByLayer
370
18
48
1
60
0
100
AcDbLine
10
66.600381
20
-23.865183
30
0
11
71.656029
21
-22.727925
31
0
39
0
210
0
220
0
230
1
0
LINE
5
B8
100
AcDbEntity
8
1
62
256
6
ByLayer
370
18
48
1
60
0
100
AcDbLine
10
64.858688
20
-23.680295
30
0
11
73.025504
21
-21.843186
31
0
39
0
210
0
220
0
230
1
0
LINE
5
B9
100
AcDbEntity
8
1
62
256
6
ByLayer
370
18
48
1
60
0
100
AcDbLine
10
72.303484
20
-25.072656
30
0
11
72.595781
21
-25.573651
31
0
39
0
210
0
220
0
230
1
0
LINE
5
BA
100
AcDbEntity
8
1
62
256
6
ByLayer
370
18
48
1
60
0
100
AcDbLine
10
72.198142
20
-24.597477
30
0
11
71.968257
21
-24.203454
31
0
39
0
210
0
220
0
230
1
0
LINE
5
BB
100
AcDbEntity
8
1
62
256
6
ByLayer
370
18
48
1
60
0
100
AcDbLine
10
75.255474
20
-23.297413
30
0
11
76.832482
21
-30.6959
31
0
39
0
210
0
220
0
230
1
0
LINE
5
BC
100
AcDbEntity
8
1
62
256
6
ByLayer
370
18
48
1
60
0
100
AcDbLine
10
75.046717
20
-30.561621
30
0
11
74.622345
21
-28.57069
31
0
39
0
210
0
220
0
230
1
0
LINE
5
BD
100
AcDbEntity
8
1
62
256
6
ByLayer
370
18
48
1
60
0
100
AcDbLine
10
74.622345
20
-28.57069
30
0
11
74.385006
21
-28.163892
31
0
39
0
210
0
220
0
230
1
0
LINE
5
BE
100
AcDbEntity
8
1
62
256
6
ByLayer
370
18
48
1
60
0
100
AcDbLine
10
71.968257
20
-24.203454
30
0
11
71.656029
21
-22.727925
31
0
39
0
210
0
220
0
230
1
0
LINE
5
BF
100
AcDbEntity
8
1
62
256
6
ByLayer
370
18
48
1
60
0
100
AcDbLine
10
75.046717
20
-30.561621
30
0
11
74.804541
21
-30.146531
31
0
39
0
210
0
220
0
230
1
0
LINE
5
C0
100
AcDbEntity
8
1
62
256
6
ByLayer
370
18
48
1
60
0
100
AcDbLine
10
74.385006
20
-28.163892
30
0
11
74.6711
21
-29.515913
31
0
39
0
210
0
220
0
230
1
0
LINE
5
C1
100
AcDbEntity
8
1
62
256
6
ByLayer
370
18
48
1
60
0
100
AcDbLine
10
62.175654
20
-26.596235
30
0
11
61.880207
21
-26.08984
31
0
39
0
210
0
220
0
230
1
0
LINE
5
C2
100
AcDbEntity
8
1
62
256
6
ByLayer
370
18
48
1
60
0
100
AcDbLine
10
64.858688
20
-23.680295
30
0
11
63.968396
21
-22.154335
31
0
39
0
210
0
220
0
230
1
0
LINE
5
C3
100
AcDbEntity
8
1
62
256
6
ByLayer
370
18
48
1
60
0
100
AcDbLine
10
72.135212
20
-20.317226
30
0
11
63.968396
21
-22.154335
31
0
39
0
210
0
220
0
230
1
0
LINE
5
C4
100
AcDbEntity
8
1
62
256
6
ByLayer
370
18
48
1
60
0
100
AcDbLine
10
73.025504
20
-21.843186
30
0
11
72.135212
21
-20.317226
31
0
39
0
210
0
220
0
230
1
0
LINE
5
C5
100
AcDbEntity
8
1
62
256
6
ByLayer
370
18
48
1
60
0
100
AcDbLine
10
63.599731
20
-33.264824
30
0
11
62.476718
21
-27.996237
31
0
39
0
210
0
220
0
230
1
0
LINE
5
C6
100
AcDbEntity
8
1
62
256
6
ByLayer
370
18
48
1
60
0
100
AcDbLine
10
62.473123
20
-27.991803
30
0
11
62.476718
21
-27.996237
31
0
39
0
210
0
220
0
230
1
0
LINE
5
C7
100
AcDbEntity
8
1
62
256
6
ByLayer
370
18
48
1
60
0
100
AcDbLine
10
62.473123
20
-27.991803
30
0
11
62.175654
21
-26.596235
31
0
39
0
210
0
220
0
230
1
0
LINE
5
C8
100
AcDbEntity
8
1
62
256
6
ByLayer
370
18
48
1
60
0
100
AcDbLine
10
75.888706
20
-22.656842
30
0
11
75.39461
21
-21.809962
31
0
39
0
210
0
220
0
230
1
0
LINE
5
C9
100
AcDbEntity
8
1
62
256
6
ByLayer
370
18
48
1
60
0
100
AcDbLine
10
76.17591
20
-23.446904
30
0
11
76.473379
21
-24.842472
31
0
39
0
210
0
220
0
230
1
0
LINE
5
CA
100
AcDbEntity
8
1
62
256
6
ByLayer
370
18
48
1
60
0
100
AcDbLine
10
76.473379
20
-24.842472
30
0
11
76.472839
21
-24.847836
31
0
39
0
210
0
220
0
230
1
0
LINE
5
CB
100
AcDbEntity
8
1
62
256
6
ByLayer
370
18
48
1
60
0
100
AcDbLine
10
77.595853
20
-30.116423
30
0
11
76.472839
21
-24.847836
31
0
39
0
210
0
220
0
230
1
0
LINE
5
CC
100
AcDbEntity
8
1
62
256
6
ByLayer
370
18
48
1
60
0
100
AcDbLine
10
71.845086
20
-45.851663
30
0
11
71.664212
21
-45.718939
31
0
39
0
210
0
220
0
230
1
0
LINE
5
CD
100
AcDbEntity
8
1
62
256
6
ByLayer
370
18
48
1
60
0
100
AcDbLine
10
71.487169
20
-45.55268
30
0
11
71.279479
21
-45.436627
31
0
39
0
210
0
220
0
230
1
0
LINE
5
CE
100
AcDbEntity
8
1
62
256
6
ByLayer
370
18
48
1
60
0
100
AcDbLine
10
71.279479
20
-45.436627
30
0
11
70.427919
21
-44.811762
31
0
39
0
210
0
220
0
230
1
0
LINE
5
CF
100
AcDbEntity
8
1
62
256
6
ByLayer
370
18
48
1
60
0
100
AcDbLine
10
73.405757
20
-43.663602
30
0
11
73.697192
21
-46.305603
31
0
39
0
210
0
220
0
230
1
0
LINE
5
D0
100
AcDbEntity
8
1
62
256
6
ByLayer
370
18
48
1
60
0
100
AcDbLine
10
75.439342
20
-44.500874
30
0
11
75.989954
21
-43.560593
31
0
39
0
210
0
220
0
230
1
0
LINE
5
D1
100
AcDbEntity
8
1
62
256
6
ByLayer
370
18
48
1
60
0
100
AcDbLine
10
75.439342
20
-44.500874
30
0
11
75.297869
21
-44.695471
31
0
39
0
210
0
220
0
230
1
0
LINE
5
D2
100
AcDbEntity
8
1
62
256
6
ByLayer
370
18
48
1
60
0
100
AcDbLine
10
75.073625
20
-45.125409
30
0
11
75.190577
21
-44.92569
31
0
39
0
210
0
220
0
230
1
0
LINE
5
D3
100
AcDbEntity
8
1
62
256
6
ByLayer
370
18
48
1
60
0
100
AcDbLine
10
62.473123
20
-27.991803
30
0
11
61.902395
21
-26.161303
31
0
39
0
210
0
220
0
230
1
0
LINE
5
D4
100
AcDbEntity
8
1
62
256
6
ByLayer
370
18
48
1
60
0
100
AcDbLine
10
79.378684
20
-42.325376
30
0
11
79.998896
21
-54.159728
31
0
39
0
210
0
220
0
230
1
0
LINE
5
D5
100
AcDbEntity
8
1
62
256
6
ByLayer
370
18
48
1
60
0
100
AcDbLine
10
78.792533
20
-54.885075
30
0
11
68.732359
21
-48.726663
31
0
39
0
210
0
220
0
230
1
0
LINE
5
D6
100
AcDbEntity
8
1
62
256
6
ByLayer
370
18
48
1
60
0
100
AcDbLine
10
67.066147
20
-46.183128
30
0
11
68.339705
21
-48.328633
31
0
39
0
210
0
220
0
230
1
0
LINE
5
D7
100
AcDbEntity
8
1
62
256
6
ByLayer
370
18
48
1
60
0
100
AcDbLine
10
66.903997
20
-45.646505
30
0
11
66.603303
21
-39.908925
31
0
39
0
210
0
220
0
230
1
0
LINE
5
D8
100
AcDbEntity
8
1
62
256
6
ByLayer
370
18
48
1
60
0
100
AcDbLine
10
77.320552
20
-39.104562
30
0
11
77.550322
21
-39.245218
31
0
39
0
210
0
220
0
230
1
0
LINE
5
D9
100
AcDbEntity
8
1
62
256
6
ByLayer
370
18
48
1
60
0
100
AcDbLine
10
79.216534
20
-41.788753
30
0
11
77.942976
21
-39.643247
31
0
39
0
210
0
220
0
230
1
0
LINE
5
DA
100
AcDbEntity
8
1
62
256
6
ByLayer
370
18
48
1
60
0
100
AcDbLine
10
77.354562
20
-39.04429
30
0
11
77.550322
21
-39.245218
31
0
39
0
210
0
220
0
230
1
0
LINE
5
DB
100
AcDbEntity
8
1
62
256
6
ByLayer
370
18
48
1
60
0
100
AcDbLine
10
66.882656
20
-45.994794
30
0
11
67.066147
21
-46.183128
31
0
39
0
210
0
220
0
230
1
0
LINE
5
DC
100
AcDbEntity
8
1
62
256
6
ByLayer
370
18
48
1
60
0
100
AcDbLine
10
68.339705
20
-48.328633
30
0
11
67.642189
21
-47.612708
31
0
39
0
210
0
220
0
230
1
0
LINE
5
DD
100
AcDbEntity
8
1
62
256
6
ByLayer
370
18
48
1
60
0
100
AcDbLine
10
66.8509
20
-46.27966
30
0
11
67.642189
21
-47.612708
31
0
39
0
210
0
220
0
230
1
0
LINE
5
DE
100
AcDbEntity
8
1
62
256
6
ByLayer
370
18
48
1
60
0
100
AcDbLine
10
77.776012
20
-39.425429
30
0
11
77.351713
21
-38.989931
31
0
39
0
210
0
220
0
230
1
0
LINE
5
DF
100
AcDbEntity
8
1
62
256
6
ByLayer
370
18
48
1
60
0
100
AcDbLine
10
67.809153
20
-47.830527
30
0
11
68.506669
21
-48.546452
31
0
39
0
210
0
220
0
230
1
0
LINE
5
E0
100
AcDbEntity
8
1
62
256
6
ByLayer
370
18
48
1
60
0
100
AcDbLine
10
23.410139
20
-2.329638
30
0
11
18.852656
21
-0.67085
31
0
39
0
210
0
220
0
230
1
0
LINE
5
E1
100
AcDbEntity
8
1
62
256
6
ByLayer
370
18
48
1
60
0
100
AcDbLine
10
18.524932
20
-5.872457
30
0
11
21.700039
21
-7.028101
31
0
39
0
210
0
220
0
230
1
0
LINE
5
E2
100
AcDbEntity
8
1
62
256
6
ByLayer
370
18
48
1
60
0
100
AcDbLine
10
21.700039
20
-7.028101
30
0
11
21.892296
21
-6.93845
31
0
39
0
210
0
220
0
230
1
0
LINE
5
E3
100
AcDbEntity
8
1
62
256
6
ByLayer
370
18
48
1
60
0
100
AcDbLine
10
23.49979
20
-2.521895
30
0
11
23.410139
21
-2.329638
31
0
39
0
210
0
220
0
230
1
0
LINE
5
E4
100
AcDbEntity
8
1
62
256
6
ByLayer
370
18
48
1
60
0
100
AcDbLine
10
31.2442
20
-40.569055
30
0
11
31.066812
21
-40.544952
31
0
39
0
210
0
220
0
230
1
0
LINE
5
E5
100
AcDbEntity
8
1
62
256
6
ByLayer
370
18
48
1
60
0
100
AcDbLine
10
74.098891
20
-17.901703
30
0
11
76.413352
21
-21.084951
31
0
39
0
210
0
220
0
230
1
0
LINE
5
E6
100
AcDbEntity
8
1
62
256
6
ByLayer
370
18
48
1
60
0
100
AcDbLine
10
0
20
-40
30
0
11
0
21
40
31
0
39
0
210
0
220
0
230
1
0
LINE
5
E7
100
AcDbEntity
8
1
62
256
6
ByLayer
370
18
48
1
60
0
100
AcDbLine
10
30.920792
20
40
30
0
11
30.920792
21
39.191836
31
0
39
0
210
0
220
0
230
1
0
LINE
5
E8
100
AcDbEntity
8
1
62
256
6
ByLayer
370
18
48
1
60
0
100
AcDbLine
10
30.920792
20
-39.30908
30
0
11
30.920792
21
-40
31
0
39
0
210
0
220
0
230
1
0
LINE
5
E9
100
AcDbEntity
8
1
62
256
6
ByLayer
370
18
48
1
60
0
100
AcDbLine
10
31.001177
20
39.497975
30
0
11
31.001177
21
40.3
31
0
39
0
210
0
220
0
230
1
0
LINE
5
EA
100
AcDbEntity
8
SK1
62
256
6
ByLayer
370
18
48
1
60
0
100
AcDbLine
10
-48
20
-28.5
30
0
11
-48
21
28.5
31
0
39
0
210
0
220
0
230
1
0
LINE
5
EB
100
AcDbEntity
8
1
62
256
6
ByLayer
370
18
48
1
60
0
100
AcDbLine
10
18.481188
20
-1.691449
30
0
11
18.852656
21
-0.67085
31
0
39
0
210
0
220
0
230
1
0
LINE
5
EC
100
AcDbEntity
8
1
62
256
6
ByLayer
370
18
48
1
60
0
100
AcDbLine
10
23.410139
20
-2.329638
30
0
11
21.700039
21
-7.028101
31
0
39
0
210
0
220
0
230
1
0
LINE
5
ED
100
AcDbEntity
8
1
62
256
6
ByLayer
370
18
48
1
60
0
100
AcDbLine
10
21.892296
20
-6.93845
30
0
11
23.49979
21
-2.521895
31
0
39
0
210
0
220
0
230
1
0
LINE
5
EE
100
AcDbEntity
8
1
62
256
6
ByLayer
370
18
48
1
60
0
100
AcDbLine
10
31.781877
20
40.3
30
0
11
32.36501
21
39.497975
31
0
39
0
210
0
220
0
230
1
0
LINE
5
EF
100
AcDbEntity
8
4
62
256
6
ByLayer
370
13
48
0.05
60
0
100
AcDbLine
10
0
20
0
30
0
11
79.6619
21
0
31
0
39
0
210
0
220
0
230
1
0
LINE
5
F1
100
AcDbEntity
8
80
62
256
6
ByLayer
370
18
48
1
60
0
100
AcDbLine
10
0
20
0
30
0
11
-8
21
0
31
0
39
0
210
0
220
0
230
1
0
LINE
5
F2
100
AcDbEntity
8
81
62
256
6
ByLayer
370
18
48
1
60
0
100
AcDbLine
10
88
20
-55
30
0
11
80
21
-55
31
0
39
0
210
0
220
0
230
1
0
LINE
5
F3
100
AcDbEntity
8
SK4
62
256
6
ByLayer
370
13
48
0.05
60
0
100
AcDbLine
10
82.42591
20
0
30
0
11
-54.565
21
0
31
0
39
0
210
0
220
0
230
1
0
MTEXT
5
1A0
100
AcDbEntity
8
SK6
62
256
6
ByLayer
370
18
48
1
60
0
100
AcDbMText
10
-1.676615
20
-92.256643
30
0
210
0
220
0
230
1
1
\W0.7221;C8-DDUNL-55080-15
40
3.5
41
0
44
1.084337
50
0
71
7
72
5
7
iso_b_vert
0
DIMENSION
5
1B2
100
AcDbEntity
8
SK2
62
256
6
ByLayer
370
13
48
1
60
0
100
AcDbDimension
2
DimnDraft3D1
10
40
20
71.11661
30
0
11
-6.069737
21
71.11661
31
0
70
32
71
5
72
1
41
1
210
0
220
0
230
1
3
Standard
100
AcDbAlignedDimension
13
-40
23
3.52
33
0
14
40
24
3.52
34
0
50
0
100
AcDbRotatedDimension
1001
ACAD
1000
DSTYLE
1002
{
1070
   279
1070
     0
1070
   172
1070
     1
1070
   173
1070
     1
1070
   340
1005
1A1
1070
    77
1070
     1
1070
    73
1070
     0
1070
   171
1070
     3
1070
   274
1070
     4
1070
   177
1070
     7
1070
   176
1070
     7
1070
   178
1070
     7
1070
    78
1070
     8
1070
    41
1041
5.588
1070
   147
1041
1.75
1070
    42
1041
3.52
1070
    44
1041
3.52
1070
   140
1041
3.5
1070
   343
1005
1B3
1070
   344
1005
1B3
1002
}
0
DIMENSION
5
1C8
100
AcDbEntity
8
2
62
256
6
ByLayer
370
13
48
1
60
0
100
AcDbDimension
2
DimnDraft3D2
10
0
20
-108.680955
30
0
11
-29.544737
21
-108.680955
31
0
70
32
71
5
72
1
41
1
210
0
220
0
230
1
3
Standard
100
AcDbAlignedDimension
13
-55
23
-83.52
33
0
14
0
24
-85.94591
34
0
50
0
100
AcDbRotatedDimension
1001
ACAD
1000
DSTYLE
1002
{
1070
   279
1070
     0
1070
   172
1070
     1
1070
   173
1070
     1
1070
   340
1005
1A1
1070
    77
1070
     1
1070
    73
1070
     0
1070
   171
1070
     3
1070
   274
1070
     4
1070
   177
1070
     7
1070
   176
1070
     7
1070
   178
1070
     7
1070
    78
1070
     8
1070
    41
1041
5.588
1070
   147
1041
1.75
1070
    42
1041
3.52
1070
    44
1041
3.52
1070
   140
1041
3.5
1070
   343
1005
1B3
1070
   344
1005
1B3
1002
}
0
DIMENSION
5
1D6
100
AcDbEntity
8
2
62
256
6
ByLayer
370
13
48
1
60
0
100
AcDbDimension
2
DimnDraft3D3
10
70.464086
20
0
30
0
11
70.464086
21
37.955263
31
0
70
32
71
5
72
1
41
1
210
0
220
0
230
1
3
Standard
100
AcDbAlignedDimension
13
58.52
23
80
33
0
14
43.52
24
0
34
0
50
90
100
AcDbRotatedDimension
1001
ACAD
1000
DSTYLE
1002
{
1070
    74
1070
     0
1070
   279
1070
     0
1070
   172
1070
     1
1070
   173
1070
     1
1070
   340
1005
1A1
1070
    77
1070
     1
1070
    73
1070
     0
1070
   171
1070
     3
1070
   274
1070
     4
1070
   177
1070
     7
1070
   176
1070
     7
1070
   178
1070
     7
1070
    78
1070
     8
1070
    41
1041
5.588
1070
   147
1041
1.75
1070
    42
1041
3.52
1070
    44
1041
3.52
1070
   140
1041
3.5
1070
   343
1005
1B3
1070
   344
1005
1B3
1002
}
0
DIMENSION
5
1E4
100
AcDbEntity
8
2
62
256
6
ByLayer
370
13
48
1
60
0
100
AcDbDimension
2
DimnDraft3D4
10
81
20
-55
30
0
11
95.331786
21
-38.88891
31
0
70
34
71
5
72
1
41
1
210
0
220
0
230
1
3
Standard
100
AcDb2LineAngularDimension
13
79.378684
23
-42.325376
33
0
14
79.998896
24
-54.159728
34
0
15
80
25
-55
35
0
16
92.922545
26
-41.427721
36
0
40
0
0
ENDSEC
0
SECTION
2
OBJECTS
0
DICTIONARY
5
24f
330
0
100
AcDbDictionary
280
0
281
1
3
ACAD_GROUP
350
250
3
ACAD_MLINESTYLE
350
251
0
DICTIONARY
5
250
330
0
100
AcDbDictionary
280
0
281
1
0
DICTIONARY
5
251
330
0
100
AcDbDictionary
280
0
281
1
3
Standard
350
18
0
MLINESTYLE
5
18
330
251
100
AcDbMlineStyle
2
Standard
70
0
3

62
256
51
90
52
90
71
2
49
-0.5
62
256
6
ByLayer
49
0.5
62
256
6
ByLayer
0
RASTERVARIABLES
5
23d
330

100
AcDbRasterVariables
90
0
70
1
71
1
72
1
0
ENDSEC
0
EOF
